  0
SECTION
  2
HEADER
  9
$ACADVER
  1
AC1015
  9
$ACADMAINTVER
 70
    20
  9
$DWGCODEPAGE
  3
ANSI_932
  9
$INSBASE
 10
0.0
 20
0.0
 30
0.0
  9
$EXTMIN
 10
-318.5515250641653
 20
-421.581493958765
 30
0.0
  9
$EXTMAX
 10
605.448507980651
 20
231.8185294086407
 30
0.0
  9
$LIMMIN
 10
-318.5515250641653
 20
-421.581493958765
  9
$LIMMAX
 10
605.448507980651
 20
231.8185294086407
  9
$ORTHOMODE
 70
     0
  9
$REGENMODE
 70
     1
  9
$FILLMODE
 70
     1
  9
$QTEXTMODE
 70
     0
  9
$MIRRTEXT
 70
     1
  9
$LTSCALE
 40
1.0
  9
$ATTMODE
 70
     1
  9
$TEXTSIZE
 40
9.167399925019738
  9
$TRACEWID
 40
0.05
  9
$TEXTSTYLE
  7
MX_NOTE_STANDARD
  9
$CLAYER
  8
DEFPOINTS
  9
$CELTYPE
  6
CONTINUOUS
  9
$CECOLOR
 62
   256
  9
$CELTSCALE
 40
1.0
  9
$DISPSILH
 70
     0
  9
$DIMSCALE
 40
2.200000078678133
  9
$DIMASZ
 40
2.5
  9
$DIMEXO
 40
1.269999980926513
  9
$DIMDLI
 40
3.75
  9
$DIMRND
 40
0.0
  9
$DIMDLE
 40
0.0
  9
$DIMEXE
 40
1.200000047683715
  9
$DIMTP
 40
0.0
  9
$DIMTM
 40
0.0
  9
$DIMTXT
 40
4.166999816894531
  9
$DIMCEN
 40
2.5
  9
$DIMTSZ
 40
0.0
  9
$DIMTOL
 70
     0
  9
$DIMLIM
 70
     0
  9
$DIMTIH
 70
     0
  9
$DIMTOH
 70
     0
  9
$DIMSE1
 70
     0
  9
$DIMSE2
 70
     0
  9
$DIMTAD
 70
     1
  9
$DIMZIN
 70
     8
  9
$DIMBLK
  1

  9
$DIMASO
 70
     1
  9
$DIMSHO
 70
     1
  9
$DIMPOST
  1

  9
$DIMAPOST
  1

  9
$DIMALT
 70
     0
  9
$DIMALTD
 70
     4
  9
$DIMALTF
 40
0.03937007874016
  9
$DIMLFAC
 40
1.0
  9
$DIMTOFL
 70
     1
  9
$DIMTVP
 40
0.0
  9
$DIMTIX
 70
     0
  9
$DIMSOXD
 70
     0
  9
$DIMSAH
 70
     0
  9
$DIMBLK1
  1

  9
$DIMBLK2
  1

  9
$DIMSTYLE
  2
MXDIMSTYLE
  9
$DIMCLRD
 70
     0
  9
$DIMCLRE
 70
     0
  9
$DIMCLRT
 70
     0
  9
$DIMTFAC
 40
1.0
  9
$DIMGAP
 40
1.0
  9
$DIMJUST
 70
     0
  9
$DIMSD1
 70
     0
  9
$DIMSD2
 70
     0
  9
$DIMTOLJ
 70
     1
  9
$DIMTZIN
 70
     0
  9
$DIMALTZ
 70
     0
  9
$DIMALTTZ
 70
     0
  9
$DIMUPT
 70
     1
  9
$DIMDEC
 70
     4
  9
$DIMTDEC
 70
     4
  9
$DIMALTU
 70
     2
  9
$DIMALTTD
 70
     4
  9
$DIMTXSTY
  7
MX_NOTE_STANDARD
  9
$DIMAUNIT
 70
     0
  9
$DIMADEC
 70
     0
  9
$DIMALTRND
 40
0.0
  9
$DIMAZIN
 70
     0
  9
$DIMDSEP
 70
     0
  9
$DIMATFIT
 70
     3
  9
$DIMFRAC
 70
     0
  9
$DIMLDRBLK
  1

  9
$DIMLUNIT
 70
     2
  9
$DIMLWD
 70
     0
  9
$DIMLWE
 70
     0
  9
$DIMTMOVE
 70
     0
  9
$LUNITS
 70
     2
  9
$LUPREC
 70
     4
  9
$SKETCHINC
 40
0.1
  9
$FILLETRAD
 40
0.0
  9
$AUNITS
 70
     0
  9
$AUPREC
 70
     0
  9
$MENU
  1
acad
  9
$ELEVATION
 40
0.0
  9
$PELEVATION
 40
0.0
  9
$THICKNESS
 40
0.0
  9
$LIMCHECK
 70
     0
  9
$CHAMFERA
 40
0.0
  9
$CHAMFERB
 40
0.0
  9
$CHAMFERC
 40
0.0
  9
$CHAMFERD
 40
0.0
  9
$SKPOLY
 70
     0
  9
$TDCREATE
 40
2455002.701076389
  9
$TDUCREATE
 40
2455002.326076389
  9
$TDUPDATE
 40
2455299.838898426
  9
$TDUUPDATE
 40
2455299.463898426
  9
$TDINDWG
 40
0.0001931481
  9
$TDUSRTIMER
 40
0.0001931481
  9
$USRTIMER
 70
     1
  9
$ANGBASE
 50
0.0
  9
$ANGDIR
 70
     0
  9
$PDMODE
 70
     0
  9
$PDSIZE
 40
0.0
  9
$PLINEWID
 40
0.0
  9
$SPLFRAME
 70
     0
  9
$SPLINETYPE
 70
     6
  9
$SPLINESEGS
 70
     8
  9
$HANDSEED
  5
254
  9
$SURFTAB1
 70
     6
  9
$SURFTAB2
 70
     6
  9
$SURFTYPE
 70
     6
  9
$SURFU
 70
     6
  9
$SURFV
 70
     6
  9
$UCSBASE
  2

  9
$UCSNAME
  2

  9
$UCSORG
 10
0.0
 20
0.0
 30
0.0
  9
$UCSXDIR
 10
1.0
 20
0.0
 30
0.0
  9
$UCSYDIR
 10
0.0
 20
1.0
 30
0.0
  9
$UCSORTHOREF
  2

  9
$UCSORTHOVIEW
 70
     0
  9
$UCSORGTOP
 10
0.0
 20
0.0
 30
0.0
  9
$UCSORGBOTTOM
 10
0.0
 20
0.0
 30
0.0
  9
$UCSORGLEFT
 10
0.0
 20
0.0
 30
0.0
  9
$UCSORGRIGHT
 10
0.0
 20
0.0
 30
0.0
  9
$UCSORGFRONT
 10
0.0
 20
0.0
 30
0.0
  9
$UCSORGBACK
 10
0.0
 20
0.0
 30
0.0
  9
$PUCSBASE
  2

  9
$PUCSNAME
  2

  9
$PUCSORG
 10
0.0
 20
0.0
 30
0.0
  9
$PUCSXDIR
 10
1.0
 20
0.0
 30
0.0
  9
$PUCSYDIR
 10
0.0
 20
1.0
 30
0.0
  9
$PUCSORTHOREF
  2

  9
$PUCSORTHOVIEW
 70
     0
  9
$PUCSORGTOP
 10
0.0
 20
0.0
 30
0.0
  9
$PUCSORGBOTTOM
 10
0.0
 20
0.0
 30
0.0
  9
$PUCSORGLEFT
 10
0.0
 20
0.0
 30
0.0
  9
$PUCSORGRIGHT
 10
0.0
 20
0.0
 30
0.0
  9
$PUCSORGFRONT
 10
0.0
 20
0.0
 30
0.0
  9
$PUCSORGBACK
 10
0.0
 20
0.0
 30
0.0
  9
$USERI1
 70
     0
  9
$USERI2
 70
     0
  9
$USERI3
 70
     0
  9
$USERI4
 70
     0
  9
$USERI5
 70
     0
  9
$USERR1
 40
0.0
  9
$USERR2
 40
0.0
  9
$USERR3
 40
0.0
  9
$USERR4
 40
0.0
  9
$USERR5
 40
0.0
  9
$WORLDVIEW
 70
     1
  9
$SHADEDGE
 70
     3
  9
$SHADEDIF
 70
    70
  9
$TILEMODE
 70
     1
  9
$MAXACTVP
 70
    16
  9
$PINSBASE
 10
0.0
 20
0.0
 30
0.0
  9
$PLIMCHECK
 70
     0
  9
$PEXTMIN
 10
1.000000000000000E+20
 20
1.000000000000000E+20
 30
1.000000000000000E+20
  9
$PEXTMAX
 10
-1.000000000000000E+20
 20
-1.000000000000000E+20
 30
-1.000000000000000E+20
  9
$PLIMMIN
 10
0.0
 20
0.0
  9
$PLIMMAX
 10
12.0
 20
9.0
  9
$UNITMODE
 70
     0
  9
$VISRETAIN
 70
     0
  9
$PLINEGEN
 70
     1
  9
$PSLTSCALE
 70
     0
  9
$TREEDEPTH
 70
  3020
  9
$CMLSTYLE
  2
Standard
  9
$CMLJUST
 70
     0
  9
$CMLSCALE
 40
1.0
  9
$PROXYGRAPHICS
 70
     1
  9
$MEASUREMENT
 70
     1
  9
$CELWEIGHT
370
     0
  9
$ENDCAPS
280
     0
  9
$JOINSTYLE
280
     0
  9
$LWDISPLAY
290
     0
  9
$INSUNITS
 70
     0
  9
$HYPERLINKBASE
  1

  9
$STYLESHEET
  1

  9
$XEDIT
290
     1
  9
$CEPSNTYPE
380
     0
  9
$PSTYLEMODE
290
     1
  9
$FINGERPRINTGUID
  2

  9
$VERSIONGUID
  2

  9
$EXTNAMES
290
     1
  9
$PSVPSCALE
 40
0.0
  9
$OLESTARTUP
290
     0
  0
ENDSEC
  0
SECTION
  2
CLASSES
  0
CLASS
  1
IMAGE
  2
AcDbRasterImage
  3
ISM
 90
    32895
280
     0
281
     1
  0
CLASS
  1
DICTIONARYVAR
  2
AcDbDictionaryVar
  3
ObjectDBX Classes
 90
        0
280
     0
281
     0
  0
CLASS
  1
RASTERVARIABLES
  2
AcDbRasterVariables
  3
ISM
 90
    32768
280
     0
281
     0
  0
CLASS
  1
IMAGEDEF
  2
AcDbRasterImageDef
  3
ISM
 90
    32768
280
     0
281
     0
  0
CLASS
  1
IMAGEDEF_REACTOR
  2
AcDbRasterImageDefReactor
  3
ISM
 90
    32769
280
     0
281
     0
  0
CLASS
  1
IDBUFFER
  2
AcDbIdBuffer
  3
ObjectDBX Classes
 90
    32768
280
     0
281
     0
  0
CLASS
  1
SPATIAL_FILTER
  2
AcDbSpatialFilter
  3
ObjectDBX Classes
 90
    32768
280
     0
281
     0
  0
CLASS
  1
SORTENTSTABLE
  2
AcDbSortentsTable
  3
ObjectDBX Classes
 90
    32768
280
     0
281
     0
  0
CLASS
  1
LAYER_INDEX
  2
AcDbLayerIndex
  3
ObjectDBX Classes
 90
    32768
280
     0
281
     0
  0
CLASS
  1
SPATIAL_INDEX
  2
AcDbSpatialIndex
  3
ObjectDBX Classes
 90
    32768
280
     0
281
     0
  0
CLASS
  1
OBJECT_PTR
  2
CAseDLPNTableRecord
  3
"ASE-LPNTableRecord"
 90
    32769
280
     0
281
     0
  0
CLASS
  1
LAYOUT
  2
AcDbLayout
  3
ObjectDBX Classes
 90
        0
280
     0
281
     0
  0
CLASS
  1
PLOTSETTINGS
  2
AcDbPlotSettings
  3
ObjectDBX Classes
 90
    32768
280
     0
281
     0
  0
CLASS
  1
ACDBDICTIONARYWDFLT
  2
AcDbDictionaryWithDefault
  3
ObjectDBX Classes
 90
        0
280
     0
281
     0
  0
CLASS
  1
ACDBPLACEHOLDER
  2
AcDbPlaceHolder
  3
ObjectDBX Classes
 90
        0
280
     0
281
     0
  0
CLASS
  1
MATERIAL
  2
AcDbMaterial
  3
ObjectDBX Classes
 90
     1153
280
     0
281
     0
  0
CLASS
  1
VISUALSTYLE
  2
AcDbVisualStyle
  3
ObjectDBX Classes
 90
     4095
280
     0
281
     0
  0
CLASS
  1
TABLESTYLE
  2
AcDbTableStyle
  3
ObjectDBX Classes
 90
     4095
280
     0
281
     0
  0
CLASS
  1
SCALE
  2
AcDbScale
  3
ObjectDBX Classes
 90
     1153
280
     0
281
     0
  0
CLASS
  1
MLEADERSTYLE
  2
AcDbMLeaderStyle
  3
ACDB_MLEADERSTYLE_CLASS
 90
     4095
280
     0
281
     0
  0
CLASS
  1
ACME_DOCUMENT
  2
AcMeDbDoc
  3
AcMeServices
 90
     1024
280
     0
281
     0
  0
CLASS
  1
AMGSETTINGSOBJ
  2
AmgSettingsObj
  3
"AcadM|Product Description: AutoCAD Mechanical|Company: Autodesk, Inc."
 90
     1024
280
     0
281
     0
  0
CLASS
  1
AMGOBJPROPCFG
  2
AmgObjPropCfg
  3
"AmgLay|Product Description: AutoCAD Mechanical|Company: Autodesk, Inc."
 90
     1025
280
     0
281
     0
  0
CLASS
  1
ACMESCOPE
  2
AcMeScope
  3
AcMeServices
 90
     1024
280
     0
281
     0
  0
CLASS
  1
ACGREFMASTER
  2
AcGrefMaster
  3
AcAttribServices
 90
     1024
280
     0
281
     0
  0
CLASS
  1
ACMECOMMANDHISTORY
  2
AcMeCommandHistory
  3
AcMeServices
 90
     1024
280
     0
281
     0
  0
CLASS
  1
ACIMSYSVARMAN
  2
AcImSysVarManager
  3
AcMeServices
 90
     1024
280
     0
281
     0
  0
CLASS
  1
ACIMINTSYSVAR
  2
AcImIntSysVar
  3
AcMeServices
 90
     1024
280
     0
281
     0
  0
CLASS
  1
ACMEDRAWINGMAN
  2
AcMeDrawingMan
  3
AcMeServices
 90
     1024
280
     0
281
     0
  0
CLASS
  1
ACMEVIEW
  2
AcMeView
  3
AcMeServices
 90
     1024
280
     0
281
     0
  0
CLASS
  1
ACDBENTITYCACHE
  2
AcMeEntityCache
  3
AcMeServices
 90
     1024
280
     0
281
     0
  0
CLASS
  1
ACMESTATEMGR
  2
AcMeStateMgr
  3
AcMeServices
 90
     1024
280
     0
281
     0
  0
CLASS
  1
AM_DRAWING_MGR
  2
AcDmDwgMgr
  3
AcMechDwgViewMgmt
 90
     1024
280
     0
281
     0
  0
CLASS
  1
AM_DWG_DOCUMENT
  2
AcDmDwgDocument
  3
AcMechDwgViewMgmt
 90
     1024
280
     0
281
     0
  0
CLASS
  1
AM_DWG_SHEET
  2
AcDmSheet
  3
AcMechDwgViewMgmt
 90
     1024
280
     0
281
     0
  0
CLASS
  1
AM_VIEWDIMPARMAP
  2
AcDmViewDimParMap
  3
AcMechDwgViewMgmt
 90
     1024
280
     0
281
     0
  0
CLASS
  1
AMDTINTERNALREACTOR
  2
AmdtInternalReactor
  3
AcMeServices
 90
     1024
280
     0
281
     0
  0
CLASS
  1
ACIMREALSYSVAR
  2
AcImRealSysVar
  3
AcMeServices
 90
     1024
280
     0
281
     0
  0
CLASS
  1
AM_DWGMGR_NAME
  2
AcDmDwgMgrName
  3
AcMechDwgViewMgmt
 90
     1024
280
     0
281
     0
  0
CLASS
  1
ACME_DATABASE
  2
AcMeDbDatabase
  3
AcMeServices
 90
     1024
280
     0
281
     0
  0
CLASS
  1
ACRFINSADJUSTERMGR
  2
AcRfInsAdjusterMgr
  3
AcMeServices
 90
     1024
280
     0
281
     0
  0
CLASS
  1
ACGREFACADMASTER
  2
AcGrefacadMaster
  3
AcGrefServices
 90
     1024
280
     0
281
     0
  0
CLASS
  1
AMDTMENUSTATEMGR
  2
AmdtMenuStateMgr
  3
McadcomServices
 90
     1024
280
     0
281
     0
  0
CLASS
  1
AMDTMCOMMENUSTATE
  2
AmdtMcomMenuState
  3
McadcomServices
 90
     1024
280
     0
281
     0
  0
CLASS
  1
AMIMASTER
  2
AmiMaster
  3
AmiServices
 90
     1024
280
     0
281
     0
  0
CLASS
  1
MAPIAMMOUDLE
  2
MApiAmModule
  3
MApiAmServices
 90
     1024
280
     0
281
     0
  0
CLASS
  1
ACMSTANDARDJIS
  2
AcmStandardJIS
  3
"Amdt_StdImp|Product Description: AutoCAD Mechanical|Company: Autodesk, Inc."
 90
     1024
280
     0
281
     0
  0
CLASS
  1
ACMSURFSTANDARDJIS
  2
AcmSurfTextStdJIS
  3
"Amdt_StdImp|Product Description: AutoCAD Mechanical|Company: Autodesk, Inc."
 90
     1024
280
     0
281
     0
  0
CLASS
  1
ACMFCFSTANDARDJIS98
  2
AcmFCFStdJIS98
  3
"Amdt_StdImp|Product Description: AutoCAD Mechanical|Company: Autodesk, Inc."
 90
     1024
280
     0
281
     0
  0
CLASS
  1
ACMWELDSTANDARDJIS
  2
AcmWeldingStdJIS
  3
"Amdt_StdImp|Product Description: AutoCAD Mechanical|Company: Autodesk, Inc."
 90
     1024
280
     0
281
     0
  0
CLASS
  1
ACMIDSTANDARDJIS
  2
AcmIdStdJIS
  3
"Amdt_StdImp|Product Description: AutoCAD Mechanical|Company: Autodesk, Inc."
 90
     1024
280
     0
281
     0
  0
CLASS
  1
ACMDATUMSTANDARDJIS
  2
AcmDatumStdJIS
  3
"Amdt_StdImp|Product Description: AutoCAD Mechanical|Company: Autodesk, Inc."
 90
     1024
280
     0
281
     0
  0
CLASS
  1
ACMBOMSTANDARDJIS
  2
AcmBOMStdJIS
  3
"Amdt_StdImp|Product Description: AutoCAD Mechanical|Company: Autodesk, Inc."
 90
     1024
280
     0
281
     0
  0
CLASS
  1
ACMDETAILSTANDARDJIS
  2
AmdtDetailSymStdJIS
  3
"Amdt_StdImp|Product Description: AutoCAD Mechanical|Company: Autodesk, Inc."
 90
     1024
280
     0
281
     0
  0
CLASS
  1
ACMSECTIONSTANDARDJIS
  2
AmdtSectionSymStdJIS
  3
"Amdt_StdImp|Product Description: AutoCAD Mechanical|Company: Autodesk, Inc."
 90
     1024
280
     0
281
     0
  0
CLASS
  1
ACMCENTERLINESTANDARDJIS
  2
AmdtCenterLineStdJIS
  3
"Amdt_StdImp|Product Description: AutoCAD Mechanical|Company: Autodesk, Inc."
 90
     1024
280
     0
281
     0
  0
CLASS
  1
ACMTHREADLINESTANDARDJIS
  2
AmdtThreadLineStdJIS
  3
"Amdt_StdImp|Product Description: AutoCAD Mechanical|Company: Autodesk, Inc."
 90
     1024
280
     0
281
     0
  0
CLASS
  1
ACMNOTESTANDARDJIS
  2
AmdtNoteStdJIS
  3
"Amdt_StdImp|Product Description: AutoCAD Mechanical|Company: Autodesk, Inc."
 90
     1024
280
     0
281
     0
  0
CLASS
  1
AMDTNOTETEMPLATEDB
  2
AmdtNoteTemplateDB
  3
AcmSymBB|Product Description: AutoCAD Mechanical|Company: Autodesk, Inc.
 90
     1024
280
     0
281
     0
  0
CLASS
  1
ACAMGLAYSTD
  2
AcAmgLayStd
  3
"AmgLay|Product Description: AutoCAD Mechanical|Company: Autodesk, Inc."
 90
     1024
280
     0
281
     0
  0
CLASS
  1
ACAMGDIMSTD
  2
AcAmgDimStd
  3
"AmgDim|Product Description: AutoCAD Mechanical|Company: Autodesk, Inc."
 90
     1024
280
     0
281
     0
  0
CLASS
  1
ACAMGHOLECHARTSTDJIS
  2
AcAmgHoleChartStdJIS
  3
AmgDim|Product Description: AutoCAD Mechanical|Company: Autodesk, Inc.
 90
     1024
280
     0
281
     0
  0
CLASS
  1
ACAMGTITLESTD
  2
AcAmgTitleStd
  3
"AmgTitle|Product Description: AutoCAD Mechanical|Company: Autodesk, Inc."
 90
     4095
280
     0
281
     0
  0
CLASS
  1
ACMTAPERSTANDARDJIS
  2
AcmTaperStdJIS
  3
"Amdt_StdImp|Product Description: AutoCAD Mechanical|Company: Autodesk, Inc."
 90
     1024
280
     0
281
     0
  0
CLASS
  1
ACMANOOTATIONVIEWSTANDARDJIS
  2
AmdtAnViewStdJIS
  3
"Amdt_StdImp|Product Description: AutoCAD Mechanical|Company: Autodesk, Inc."
 90
     1024
280
     0
281
     0
  0
CLASS
  1
AMDTEDGESTANDARDJIS
  2
AmdtEdgeStdJIS
  3
"Amdt_StdImp|Product Description: AutoCAD Mechanical|Company: Autodesk, Inc."
 90
     1024
280
     0
281
     0
  0
CLASS
  1
ACIMSTRSYSVAR
  2
AcImStrSysVar
  3
AcMeServices
 90
     1024
280
     0
281
     0
  0
CLASS
  1
AMDTADMENUSTATE
  2
AmdtAdMenuState
  3
DesignerServices
 90
     1024
280
     0
281
     0
  0
CLASS
  1
ADAPPL
  2
AcAdAppl
  3
DesignerServices
 90
     1024
280
     0
281
     0
  0
CLASS
  1
DEPMGR
  2
AcAdDepMgr
  3
DesignerServices
 90
     1024
280
     0
281
     0
  0
CLASS
  1
PARAMMGR
  2
AcAdParamMgr
  3
DesignerServices
 90
     1024
280
     0
281
     0
  0
CLASS
  1
PARAMSCOPE
  2
AcAdParamScope
  3
DesignerServices
 90
     1024
280
     0
281
     0
  0
CLASS
  1
NAMEDAPPL
  2
AcAdNamedAppl
  3
DesignerServices
 90
     1024
280
     0
281
     0
  0
CLASS
  1
AMDTDMMENUSTATE
  2
AmdtDmMenuState
  3
AcMechDwgViewMgmt
 90
     1024
280
     0
281
     0
  0
CLASS
  1
AMDTAMMENUSTATE
  2
AmdtAmMenuState
  3
DesignerAssemblies
 90
     1024
280
     0
281
     0
  0
CLASS
  1
ACAMPROJECT
  2
AcAmProject
  3
DesignerAssemblies
 90
     1024
280
     0
281
     0
  0
CLASS
  1
ACAMGRCOMPDEF
  2
AcAmGrCompDef
  3
DesignerAssemblies
 90
     1024
280
     0
281
     0
  0
CLASS
  1
ACAMCOMPDEF
  2
AcAmCompDef
  3
DesignerAssemblies
 90
     1024
280
     0
281
     0
  0
CLASS
  1
ACAMCOMPDEFMGR
  2
AcAmCompDefMgr
  3
DesignerAssemblies
 90
     1024
280
     0
281
     0
  0
CLASS
  1
AMCONTEXTMGR
  2
AcAmContextMgr
  3
DesignerAssemblies
 90
     1024
280
     0
281
     0
  0
CLASS
  1
ACAMCONTEXTMODELER
  2
AcAmContextModeler
  3
DesignerAssemblies
 90
     1024
280
     0
281
     0
  0
CLASS
  1
ACMDATADICTIONARY
  2
AcmDataDictionary
  3
"AcmSymBB|Product Description: AutoCAD Mechanical|Company: Autodesk, Inc."
 90
     1024
280
     0
281
     0
  0
CLASS
  1
CATALOGSTATE
  2
AcAmCatalogState
  3
DesignerAssemblies
 90
     1024
280
     0
281
     0
  0
CLASS
  1
ACAMGRCOMPDEFSET
  2
AcAmGrCompDefSet
  3
DesignerAssemblies
 90
     1024
280
     0
281
     0
  0
CLASS
  1
AMDTBROWSERDBTAB
  2
AmdtBrowserDbTab
  3
McadcomServices
 90
     1024
280
     0
281
     0
  0
CLASS
  1
CBROWSERAPPOBJECT
  2
CBrowserAppObject
  3
McadcomServices
 90
     1024
280
     0
281
     0
  0
CLASS
  1
DM_PLACEHOLDER
  2
AcDmSelsetPlaceholder
  3
AcMechDwgViewMgmt
 90
     1024
280
     0
281
     0
  0
CLASS
  1
ACAMGFILTERDAT
  2
AcAmgFilterDat
  3
"AcadM|Product Description: AutoCAD Mechanical|Company: Autodesk, Inc."
 90
     1024
280
     0
281
     0
  0
CLASS
  1
CELLSTYLEMAP
  2
AcDbCellStyleMap
  3
ObjectDBX Classes
 90
     1152
280
     0
281
     0
  0
ENDSEC
  0
SECTION
  2
TABLES
  0
TABLE
  2
VPORT
  5
7
330
0
100
AcDbSymbolTable
 70
     1
  0
VPORT
  5
15
330
7
100
AcDbSymbolTableRecord
100
AcDbViewportTableRecord
  2
*ACTIVE
 70
     0
 10
0.0
 20
0.0
 11
1.0
 21
1.0
 12
143.4484914582428
 22
-52.79850445453866
 13
0.0
 23
0.0
 14
1.0
 24
1.0
 15
0.0
 25
0.0
 16
0.0
 26
0.0
 36
1.0
 17
0.0
 27
0.0
 37
0.0
 40
744.0999792421268
 41
1.536136662286465
 42
50.0
 43
0.0
 44
0.0
 50
0.0
 51
0.0
 71
     0
 72
   100
 73
     1
 74
     1
 75
     0
 76
     0
 77
     0
 78
     0
281
     0
 65
     0
110
0.0
120
0.0
130
0.0
111
1.0
121
0.0
131
0.0
112
0.0
122
1.0
132
0.0
 79
     0
146
0.0
  0
ENDTAB
  0
TABLE
  2
LTYPE
  5
4
330
0
100
AcDbSymbolTable
 70
    18
  0
LTYPE
  5
11
330
4
100
AcDbSymbolTableRecord
100
AcDbLinetypeTableRecord
  2
BYBLOCK
 70
     0
  3

 72
    65
 73
     0
 40
0.0
  0
LTYPE
  5
12
330
4
100
AcDbSymbolTableRecord
100
AcDbLinetypeTableRecord
  2
BYLAYER
 70
     0
  3

 72
    65
 73
     0
 40
0.0
  0
LTYPE
  5
13
330
4
100
AcDbSymbolTableRecord
100
AcDbLinetypeTableRecord
  2
CONTINUOUS
 70
     0
  3
Solid line
 72
    65
 73
     0
 40
0.0
  0
LTYPE
  5
33
330
4
100
AcDbSymbolTableRecord
100
AcDbLinetypeTableRecord
  2
CENTER
 70
     0
  3
__ . __
 72
    65
 73
     4
 40
7.0
 49
4.0
 74
     0
 49
-1.0
 74
     0
 49
1.0
 74
     0
 49
-1.0
 74
     0
  0
LTYPE
  5
35
330
4
100
AcDbSymbolTableRecord
100
AcDbLinetypeTableRecord
  2
DASHED
 70
     0
  3
Dashed __ __ __ __ __ __ __ __ __ __ __ __ __ _
 72
    65
 73
     2
 40
19.05
 49
12.7
 74
     0
 49
-6.349999999999999
 74
     0
  0
LTYPE
  5
F0
330
4
100
AcDbSymbolTableRecord
100
AcDbLinetypeTableRecord
  2
NON_PLOTING
 70
     0
  3
Solid line
 72
    65
 73
     0
 40
0.0
  0
LTYPE
  5
16F
330
4
100
AcDbSymbolTableRecord
100
AcDbLinetypeTableRecord
  2
HIDDEN
 70
     0
  3
Hidden __ __ __ __ __ __ __ __ __ __ __ __ __ _
 72
    65
 73
     2
 40
9.524999999999998
 49
6.349999999999999
 74
     0
 49
-3.174999999999999
 74
     0
  0
LTYPE
  5
170
330
4
100
AcDbSymbolTableRecord
100
AcDbLinetypeTableRecord
  2
CENTER2
 70
     0
  3
Center (.5x) ___ _ ___ _ ___ _ ___ _ ___ _ ___
 72
    65
 73
     4
 40
28.575
 49
19.05
 74
     0
 49
-3.174999999999999
 74
     0
 49
3.174999999999999
 74
     0
 49
-3.174999999999999
 74
     0
  0
LTYPE
  5
171
330
4
100
AcDbSymbolTableRecord
100
AcDbLinetypeTableRecord
  2
PHANTOM2
 70
     0
  3
Phantom (.5x) ___ _ _ ___ _ _ ___ _ _ ___ _ _
 72
    65
 73
     6
 40
31.75
 49
15.875
 74
     0
 49
-3.174999999999999
 74
     0
 49
3.174999999999999
 74
     0
 49
-3.174999999999999
 74
     0
 49
3.174999999999999
 74
     0
 49
-3.174999999999999
 74
     0
  0
LTYPE
  5
172
330
4
100
AcDbSymbolTableRecord
100
AcDbLinetypeTableRecord
  2
Amconstr
 70
     0
  3
_______________________
 72
    65
 73
     2
 40
9999.0
 49
9999.0
 74
     0
 49
0.0
 74
     0
  0
LTYPE
  5
173
330
4
100
AcDbSymbolTableRecord
100
AcDbLinetypeTableRecord
  2
AM_ISO02W050
 70
     0
  3
__ __ __ __ __ __ __ __ __ __ __ __ __ __ __
 72
    65
 73
     2
 40
7.5
 49
6.0
 74
     0
 49
-1.5
 74
     0
  0
LTYPE
  5
174
330
4
100
AcDbSymbolTableRecord
100
AcDbLinetypeTableRecord
  2
HIDDEN2
 70
     0
  3
Hidden (.5x) _ _ _ _ _ _ _ _ _ _ _ _ _ _ _ _ _
 72
    65
 73
     2
 40
4.762499999999999
 49
3.174999999999999
 74
     0
 49
-1.587499999999999
 74
     0
  0
LTYPE
  5
175
330
4
100
AcDbSymbolTableRecord
100
AcDbLinetypeTableRecord
  2
Amzigzag
 70
     0
  3
/\/-/\/-/\/-/\/-/\/-/\/
 72
    65
 73
     2
 40
11.0001
 49
0.0001
 74
     4
 75
   135
340
176
 46
0.04
 50
0.0
 44
0.0
 45
0.0
 49
-11.0
 74
     0
  0
LTYPE
  5
1B3
330
4
100
AcDbSymbolTableRecord
100
AcDbLinetypeTableRecord
  2
ACJISWELD
 70
     0
  3
_ _ _ _ _
 72
    65
 73
     2
 40
2.0
 49
2.0
 74
     0
 49
-1.0
 74
     0
  0
LTYPE
  5
1B6
330
4
100
AcDbSymbolTableRecord
100
AcDbLinetypeTableRecord
  2
ACJISTGB
 70
     0
  3
__ . . __ . .
 72
    65
 73
     6
 40
9.0
 49
4.0
 74
     0
 49
-1.0
 74
     0
 49
1.0
 74
     0
 49
-1.0
 74
     0
 49
1.0
 74
     0
 49
-1.0
 74
     0
  0
LTYPE
  5
1B7
330
4
100
AcDbSymbolTableRecord
100
AcDbLinetypeTableRecord
  2
ACJISTGL
 70
     0
  3
_ _ _ _ _
 72
    65
 73
     2
 40
3.0
 49
2.0
 74
     0
 49
-1.0
 74
     0
  0
LTYPE
  5
1CF
330
4
100
AcDbSymbolTableRecord
100
AcDbLinetypeTableRecord
  2
AM_ISO08W050
 70
     0
  3
____ . ____ . ____ . ____ . ____ . ____ . ____
 72
    65
 73
     4
 40
18.0
 49
12.0
 74
     0
 49
-1.5
 74
     0
 49
3.0
 74
     0
 49
-1.5
 74
     0
  0
LTYPE
  5
1D0
330
4
100
AcDbSymbolTableRecord
100
AcDbLinetypeTableRecord
  2
AM_ISO09W050
 70
     0
  3
_____ . . _____ . . _____ . . ____ .. ____
 72
    65
 73
     6
 40
22.5
 49
12.0
 74
     0
 49
-1.5
 74
     0
 49
3.0
 74
     0
 49
-1.5
 74
     0
 49
3.0
 74
     0
 49
-1.5
 74
     0
  0
LTYPE
  5
1D1
330
4
100
AcDbSymbolTableRecord
100
AcDbLinetypeTableRecord
  2
AM_ISO08W050x2
 70
     0
  3
__ . __ . __ . __ . __ . __
 72
    65
 73
     4
 40
9.0
 49
6.0
 74
     0
 49
-0.75
 74
     0
 49
1.5
 74
     0
 49
-0.75
 74
     0
  0
LTYPE
  5
1D2
330
4
100
AcDbSymbolTableRecord
100
AcDbLinetypeTableRecord
  2
AM_ISO02W050x2
 70
     0
  3
 _ _ _ _ _ _ _ _ _ _ _ _
 72
    65
 73
     2
 40
3.75
 49
3.0
 74
     0
 49
-0.75
 74
     0
  0
ENDTAB
  0
TABLE
  2
LAYER
  5
2
330
0
100
AcDbSymbolTable
 70
     4
  0
LAYER
  5
14
102
{ACAD_XDICTIONARY
360
208
102
}
330
2
100
AcDbSymbolTableRecord
100
AcDbLayerTableRecord
  2
0
 70
     0
 62
     7
  6
CONTINUOUS
370
    -3
390
1D
  0
LAYER
  5
23
330
2
100
AcDbSymbolTableRecord
100
AcDbLayerTableRecord
  2
DEFPOINTS
 70
     0
 62
     7
  6
CONTINUOUS
290
     0
370
    -3
390
1D
  0
LAYER
  5
24
102
{ACAD_XDICTIONARY
360
20A
102
}
330
2
100
AcDbSymbolTableRecord
100
AcDbLayerTableRecord
  2
PV
 70
     0
 62
     7
  6
CONTINUOUS
370
    -3
390
1D
  0
LAYER
  5
25
102
{ACAD_XDICTIONARY
360
20C
102
}
330
2
100
AcDbSymbolTableRecord
100
AcDbLayerTableRecord
  2
FV
 70
     0
 62
     7
  6
CONTINUOUS
370
    -3
390
1D
  0
ENDTAB
  0
TABLE
  2
STYLE
  5
3
330
0
100
AcDbSymbolTable
 70
     5
  0
STYLE
  5
17
330
3
100
AcDbSymbolTableRecord
100
AcDbTextStyleTableRecord
  2
MX_NOTE_STANDARD
 70
     0
 40
0.0
 41
1.0
 50
0.0
 71
     0
 42
9.167399925019738
  3
txt.shx
  4
extfont.shx
  0
STYLE
  5
D1
330
3
100
AcDbSymbolTableRecord
100
AcDbTextStyleTableRecord
  2
MX_DIMTXSTY_2
 70
     0
 40
0.0
 41
1.05
 50
0.0
 71
     0
 42
9.167399925019738
  3
txt.shx
  4
extfont.shx
  0
STYLE
  5
176
330
3
100
AcDbSymbolTableRecord
100
AcDbTextStyleTableRecord
  2

 70
     1
 40
0.0
 41
1.0
 50
0.0
 71
     0
 42
2.5
  3
ltypeshp.shx
  4

  0
STYLE
  5
1AE
330
3
100
AcDbSymbolTableRecord
100
AcDbTextStyleTableRecord
  2
ULVAC
 70
     0
 40
0.0
 41
1.0
 50
0.0
 71
     0
 42
4.0
  3
extslim2.shx
  4
extfont2.shx
  0
STYLE
  5
1B1
330
3
100
AcDbSymbolTableRecord
100
AcDbTextStyleTableRecord
  2
ACJISGDT
 70
     0
 40
0.0
 41
1.0
 50
0.0
 71
     0
 42
2.5
  3
amgdt.shx
  4
extfont.shx
  0
ENDTAB
  0
TABLE
  2
VIEW
  5
5
330
0
100
AcDbSymbolTable
 70
     0
  0
ENDTAB
  0
TABLE
  2
UCS
  5
6
330
0
100
AcDbSymbolTable
 70
     0
  0
ENDTAB
  0
TABLE
  2
APPID
  5
8
330
0
100
AcDbSymbolTable
 70
    51
  0
APPID
  5
16
330
8
100
AcDbSymbolTableRecord
100
AcDbRegAppTableRecord
  2
ACAD
 70
     0
  0
APPID
  5
13F
330
8
100
AcDbSymbolTableRecord
100
AcDbRegAppTableRecord
  2
MCAD_NO_VIS
 70
     0
  0
APPID
  5
140
330
8
100
AcDbSymbolTableRecord
100
AcDbRegAppTableRecord
  2
ACAD_TEMP_GRAPHIC
 70
     0
  0
APPID
  5
141
330
8
100
AcDbSymbolTableRecord
100
AcDbRegAppTableRecord
  2
ACATTRIBSERVICES
 70
     0
  0
APPID
  5
142
330
8
100
AcDbSymbolTableRecord
100
AcDbRegAppTableRecord
  2
AD_DRAW
 70
     0
  0
APPID
  5
143
330
8
100
AcDbSymbolTableRecord
100
AcDbRegAppTableRecord
  2
DESIGNERASSEMBLIES
 70
     0
  0
APPID
  5
144
330
8
100
AcDbSymbolTableRecord
100
AcDbRegAppTableRecord
  2
ACADM_DIM_EDIT
 70
     0
  0
APPID
  5
145
330
8
100
AcDbSymbolTableRecord
100
AcDbRegAppTableRecord
  2
AMDT_DM_ADJ
 70
     0
  0
APPID
  5
146
330
8
100
AcDbSymbolTableRecord
100
AcDbRegAppTableRecord
  2
DCO15
 70
     0
  0
APPID
  5
147
330
8
100
AcDbSymbolTableRecord
100
AcDbRegAppTableRecord
  2
CONTENTBLOCKDESCRIPTION
 70
     0
  0
APPID
  5
148
330
8
100
AcDbSymbolTableRecord
100
AcDbRegAppTableRecord
  2
ACAD_DSTYLE_DIMTEXT_FILL
 70
     0
  0
APPID
  5
149
330
8
100
AcDbSymbolTableRecord
100
AcDbRegAppTableRecord
  2
GENIUS_GENREC_14
 70
     0
  0
APPID
  5
14A
330
8
100
AcDbSymbolTableRecord
100
AcDbRegAppTableRecord
  2
GENIUS_GENOBJ-N-REC_13
 70
     0
  0
APPID
  5
14B
330
8
100
AcDbSymbolTableRecord
100
AcDbRegAppTableRecord
  2
GENIUS_GENODEF_13
 70
     0
  0
APPID
  5
14C
330
8
100
AcDbSymbolTableRecord
100
AcDbRegAppTableRecord
  2
GENIUS_GENOENT_13
 70
     0
  0
APPID
  5
14D
330
8
100
AcDbSymbolTableRecord
100
AcDbRegAppTableRecord
  2
GENIUS_GENOBJ-N-TIT_13
 70
     0
  0
APPID
  5
14E
330
8
100
AcDbSymbolTableRecord
100
AcDbRegAppTableRecord
  2
GENIUS_GENOLIS_13
 70
     0
  0
APPID
  5
14F
330
8
100
AcDbSymbolTableRecord
100
AcDbRegAppTableRecord
  2
GENIUS_GENTITLE_13
 70
     0
  0
APPID
  5
150
330
8
100
AcDbSymbolTableRecord
100
AcDbRegAppTableRecord
  2
GENIUS_GENOREF_13
 70
     0
  0
APPID
  5
151
330
8
100
AcDbSymbolTableRecord
100
AcDbRegAppTableRecord
  2
GENIUS_GENSCREG_15
 70
     0
  0
APPID
  5
152
330
8
100
AcDbSymbolTableRecord
100
AcDbRegAppTableRecord
  2
GENIUS_GENOBJ-N-SDF_13
 70
     0
  0
APPID
  5
153
330
8
100
AcDbSymbolTableRecord
100
AcDbRegAppTableRecord
  2
GENIUS_GENDTOL_13
 70
     0
  0
APPID
  5
154
330
8
100
AcDbSymbolTableRecord
100
AcDbRegAppTableRecord
  2
ACAD_PSEXT
 70
     0
  0
APPID
  5
155
330
8
100
AcDbSymbolTableRecord
100
AcDbRegAppTableRecord
  2
GENIUS_GENBH_13
 70
     0
  0
APPID
  5
156
330
8
100
AcDbSymbolTableRecord
100
AcDbRegAppTableRecord
  2
GENIUS_GENOBJ-NBEHI-BHF_13
 70
     0
  0
APPID
  5
157
330
8
100
AcDbSymbolTableRecord
100
AcDbRegAppTableRecord
  2
GENIUS_GENOBJ-NBEHI-BHB_13
 70
     0
  0
APPID
  5
158
330
8
100
AcDbSymbolTableRecord
100
AcDbRegAppTableRecord
  2
GEVID1137384586
 70
     0
  0
APPID
  5
159
330
8
100
AcDbSymbolTableRecord
100
AcDbRegAppTableRecord
  2
GEVDC
 70
     0
  0
APPID
  5
15A
330
8
100
AcDbSymbolTableRecord
100
AcDbRegAppTableRecord
  2
GENIUS_GENOBJ-N-CEN_13
 70
     0
  0
APPID
  5
15B
330
8
100
AcDbSymbolTableRecord
100
AcDbRegAppTableRecord
  2
GENIUS_GENCEN_19
 70
     0
  0
APPID
  5
15C
330
8
100
AcDbSymbolTableRecord
100
AcDbRegAppTableRecord
  2
GEVID1137384587
 70
     0
  0
APPID
  5
15D
330
8
100
AcDbSymbolTableRecord
100
AcDbRegAppTableRecord
  2
GEVCON
 70
     0
  0
APPID
  5
15E
330
8
100
AcDbSymbolTableRecord
100
AcDbRegAppTableRecord
  2
GENIUS_GENOBJ-F-SCPASSM_13
 70
     0
  0
APPID
  5
15F
330
8
100
AcDbSymbolTableRecord
100
AcDbRegAppTableRecord
  2
ACAUTHENVIRON
 70
     0
  0
APPID
  5
160
330
8
100
AcDbSymbolTableRecord
100
AcDbRegAppTableRecord
  2
AcDbDynamicBlockTrueName
 70
     0
  0
APPID
  5
161
330
8
100
AcDbSymbolTableRecord
100
AcDbRegAppTableRecord
  2
AcDbDynamicBlockGUID
 70
     0
  0
APPID
  5
162
330
8
100
AcDbSymbolTableRecord
100
AcDbRegAppTableRecord
  2
ACDBBLOCKREPETAG
 70
     0
  0
APPID
  5
163
330
8
100
AcDbSymbolTableRecord
100
AcDbRegAppTableRecord
  2
AcAecLayerStandard
 70
     0
  0
APPID
  5
164
330
8
100
AcDbSymbolTableRecord
100
AcDbRegAppTableRecord
  2
GEVID1176237129
 70
     0
  0
APPID
  5
165
330
8
100
AcDbSymbolTableRecord
100
AcDbRegAppTableRecord
  2
GEVID1176237130
 70
     0
  0
APPID
  5
166
330
8
100
AcDbSymbolTableRecord
100
AcDbRegAppTableRecord
  2
GEVID1176237132
 70
     0
  0
APPID
  5
167
330
8
100
AcDbSymbolTableRecord
100
AcDbRegAppTableRecord
  2
GENIUS_GENFIL_13
 70
     0
  0
APPID
  5
168
330
8
100
AcDbSymbolTableRecord
100
AcDbRegAppTableRecord
  2
GENIUS_GENOBJ-N-CHA_13
 70
     0
  0
APPID
  5
169
330
8
100
AcDbSymbolTableRecord
100
AcDbRegAppTableRecord
  2
ACAD_DSTYLE_DIMJAG
 70
     0
  0
APPID
  5
16A
330
8
100
AcDbSymbolTableRecord
100
AcDbRegAppTableRecord
  2
ACAD_DSTYLE_DIMTALN
 70
     0
  0
APPID
  5
16B
330
8
100
AcDbSymbolTableRecord
100
AcDbRegAppTableRecord
  2
ACAD_DSTYLE_DIMBREAK
 70
     0
  0
APPID
  5
24F
330
8
100
AcDbSymbolTableRecord
100
AcDbRegAppTableRecord
  2
ACAD_MLEADERVER
 70
     0
  0
APPID
  5
250
330
8
100
AcDbSymbolTableRecord
100
AcDbRegAppTableRecord
  2
ACAD_DSTYLE_DIMARC_LENGTH_SYMBOL
 70
     0
  0
APPID
  5
251
330
8
100
AcDbSymbolTableRecord
100
AcDbRegAppTableRecord
  2
ACAD_DSTYLE_DIM_LINETYPE
 70
     0
  0
APPID
  5
252
330
8
100
AcDbSymbolTableRecord
100
AcDbRegAppTableRecord
  2
ACAD_DSTYLE_DIM_EXT1_LINETYPE
 70
     0
  0
APPID
  5
253
330
8
100
AcDbSymbolTableRecord
100
AcDbRegAppTableRecord
  2
ACAD_DSTYLE_DIM_EXT2_LINETYPE
 70
     0
  0
ENDTAB
  0
TABLE
  2
DIMSTYLE
  5
9
330
0
100
AcDbSymbolTable
 70
    10
100
AcDbDimStyleTable
 71
     0
  0
DIMSTYLE
105
18
102
{ACAD_REACTORS
330
D7
330
E4
102
}
330
9
100
AcDbSymbolTableRecord
100
AcDbDimStyleTableRecord
  2
MXDIMSTYLE
 70
     0
 40
2.200000078678133
 41
2.5
 42
1.269999980926513
 43
3.75
 44
1.200000047683715
 73
     0
 74
     0
 77
     1
 78
     8
140
4.166999816894531
141
2.5
143
0.03937007874016
144
0.4545454382896424
147
1.0
171
     4
172
     1
274
     4
288
     1
340
17
  0
DIMSTYLE
105
1D4
330
9
100
AcDbSymbolTableRecord
100
AcDbDimStyleTableRecord
  2
ULVAC
 70
     0
 41
2.9
 42
1.269999980926513
 43
10.0
 44
1.200000047683715
 73
     0
 74
     0
 77
     1
 78
     9
 79
     2
140
4.0
141
0.0
143
0.03937007874016
146
0.75
147
1.0
171
     4
172
     1
179
     2
271
     2
272
     2
274
     4
284
     8
288
     1
340
1AE
341
C9
342
C9
371
    -1
372
    -1
1001
ACAD_DSTYLE_DIMJAG
1070
   388
1040
1.5
1001
ACAD_DSTYLE_DIMTALN
1070
   392
1070
     0
1001
ACAD_DSTYLE_DIMARC_LENGTH_SYMBOL
1070
   379
1070
     1
1001
ACAD_DSTYLE_DIM_LINETYPE
1070
   380
1005
12
1001
ACAD_DSTYLE_DIM_EXT1_LINETYPE
1070
   381
1005
12
1001
ACAD_DSTYLE_DIM_EXT2_LINETYPE
1070
   382
1005
12
  0
DIMSTYLE
105
1DB
330
9
100
AcDbSymbolTableRecord
100
AcDbDimStyleTableRecord
  2
ULVAC$0
 70
     0
 41
2.9
 42
1.269999980926513
 43
10.0
 44
1.200000047683715
 73
     0
 74
     0
 77
     1
 78
     9
140
4.0
141
0.0
143
0.03937007874016
146
0.75
147
1.0
171
     4
172
     1
179
     2
271
     2
272
     2
274
     4
284
     8
288
     1
340
1AE
341
C9
342
C9
371
    -1
372
    -1
1001
ACAD_DSTYLE_DIMBREAK
1070
   391
1040
3.75
1001
ACAD_DSTYLE_DIMJAG
1070
   388
1040
1.5
1001
ACAD_DSTYLE_DIMTALN
1070
   392
1070
     0
1001
ACAD_DSTYLE_DIMARC_LENGTH_SYMBOL
1070
   379
1070
     1
1001
ACAD_DSTYLE_DIM_LINETYPE
1070
   380
1005
12
1001
ACAD_DSTYLE_DIM_EXT1_LINETYPE
1070
   381
1005
12
1001
ACAD_DSTYLE_DIM_EXT2_LINETYPE
1070
   382
1005
12
  0
DIMSTYLE
105
1DC
330
9
100
AcDbSymbolTableRecord
100
AcDbDimStyleTableRecord
  2
ULVAC$2
 70
     0
 41
2.9
 42
1.269999980926513
 43
10.0
 44
1.200000047683715
 73
     0
 74
     0
 77
     1
 78
     9
 79
     2
140
4.0
141
0.0
143
0.03937007874016
146
0.75
147
1.0
171
     4
172
     1
179
     2
274
     4
284
     8
340
1AE
341
C9
342
C9
371
    -1
372
    -1
1001
ACAD_DSTYLE_DIMBREAK
1070
   391
1040
3.75
1001
ACAD_DSTYLE_DIMJAG
1070
   388
1040
1.5
1001
ACAD_DSTYLE_DIMTALN
1070
   392
1070
     0
1001
ACAD_DSTYLE_DIMARC_LENGTH_SYMBOL
1070
   379
1070
     1
1001
ACAD_DSTYLE_DIM_LINETYPE
1070
   380
1005
12
1001
ACAD_DSTYLE_DIM_EXT1_LINETYPE
1070
   381
1005
12
1001
ACAD_DSTYLE_DIM_EXT2_LINETYPE
1070
   382
1005
12
  0
DIMSTYLE
105
1DD
330
9
100
AcDbSymbolTableRecord
100
AcDbDimStyleTableRecord
  2
ULVAC$3
 70
     0
 41
2.9
 42
1.269999980926513
 43
10.0
 44
1.200000047683715
 73
     0
 74
     0
 77
     1
 78
     9
140
4.0
141
0.0
143
0.03937007874016
146
0.75
147
1.0
171
     4
172
     1
179
     2
271
     2
272
     2
274
     4
284
     8
288
     1
289
     2
340
1AE
341
C9
342
C9
371
    -1
372
    -1
1001
ACAD_DSTYLE_DIMBREAK
1070
   391
1040
3.75
1001
ACAD_DSTYLE_DIMJAG
1070
   388
1040
1.5
1001
ACAD_DSTYLE_DIMTALN
1070
   392
1070
     0
1001
ACAD_DSTYLE_DIMARC_LENGTH_SYMBOL
1070
   379
1070
     1
1001
ACAD_DSTYLE_DIM_LINETYPE
1070
   380
1005
12
1001
ACAD_DSTYLE_DIM_EXT1_LINETYPE
1070
   381
1005
12
1001
ACAD_DSTYLE_DIM_EXT2_LINETYPE
1070
   382
1005
12
  0
DIMSTYLE
105
1DE
330
9
100
AcDbSymbolTableRecord
100
AcDbDimStyleTableRecord
  2
ULVAC$4
 70
     0
 41
2.9
 42
1.269999980926513
 43
10.0
 44
1.200000047683715
 73
     0
 74
     0
 77
     1
 78
     9
140
4.0
141
0.0
143
0.03937007874016
146
0.75
147
1.0
171
     4
179
     2
271
     2
272
     2
274
     4
284
     8
288
     1
289
     0
340
1AE
341
C9
342
C9
371
    -1
372
    -1
1001
ACAD_DSTYLE_DIMBREAK
1070
   391
1040
3.75
1001
ACAD_DSTYLE_DIMJAG
1070
   388
1040
1.5
1001
ACAD_DSTYLE_DIMTALN
1070
   392
1070
     0
1001
ACAD_DSTYLE_DIMARC_LENGTH_SYMBOL
1070
   379
1070
     1
1001
ACAD_DSTYLE_DIM_LINETYPE
1070
   380
1005
12
1001
ACAD_DSTYLE_DIM_EXT1_LINETYPE
1070
   381
1005
12
1001
ACAD_DSTYLE_DIM_EXT2_LINETYPE
1070
   382
1005
12
  0
DIMSTYLE
105
1DF
330
9
100
AcDbSymbolTableRecord
100
AcDbDimStyleTableRecord
  2
ULVAC$6
 70
     0
 41
2.9
 42
1.269999980926513
 43
10.0
 44
1.200000047683715
 73
     0
 74
     0
 77
     1
 78
     9
140
4.0
141
0.0
143
0.03937007874016
146
0.75
147
1.0
171
     4
172
     1
176
   256
179
     2
271
     2
272
     2
274
     4
284
     8
288
     1
340
1AE
341
C9
342
C9
371
    -1
372
    -1
1001
ACAD_DSTYLE_DIMBREAK
1070
   391
1040
3.75
1001
ACAD_DSTYLE_DIMJAG
1070
   388
1040
1.5
1001
ACAD_DSTYLE_DIMTALN
1070
   392
1070
     0
1001
ACAD_DSTYLE_DIMARC_LENGTH_SYMBOL
1070
   379
1070
     1
1001
ACAD_DSTYLE_DIM_LINETYPE
1070
   380
1005
12
1001
ACAD_DSTYLE_DIM_EXT1_LINETYPE
1070
   381
1005
12
1001
ACAD_DSTYLE_DIM_EXT2_LINETYPE
1070
   382
1005
12
  0
DIMSTYLE
105
1E0
330
9
100
AcDbSymbolTableRecord
100
AcDbDimStyleTableRecord
  2
ULVAC$7
 70
     0
 41
2.9
 42
1.269999980926513
 43
10.0
 44
1.200000047683715
 73
     0
 74
     0
 77
     1
 78
     1
140
4.0
141
0.0
143
0.03937007874016
147
1.0
171
     4
172
     1
177
   256
179
     2
271
     2
272
     2
274
     4
288
     1
340
1AE
341
C9
342
C9
371
    -1
1001
ACAD_DSTYLE_DIMBREAK
1070
   391
1040
3.75
1001
ACAD_DSTYLE_DIMJAG
1070
   388
1040
1.5
1001
ACAD_DSTYLE_DIMTALN
1070
   392
1070
     0
1001
ACAD_DSTYLE_DIMARC_LENGTH_SYMBOL
1070
   379
1070
     1
1001
ACAD_DSTYLE_DIM_LINETYPE
1070
   380
1005
12
1001
ACAD_DSTYLE_DIM_EXT1_LINETYPE
1070
   381
1005
12
1001
ACAD_DSTYLE_DIM_EXT2_LINETYPE
1070
   382
1005
12
  0
DIMSTYLE
105
1E1
330
9
100
AcDbSymbolTableRecord
100
AcDbDimStyleTableRecord
  2
ULVAC$SF
 70
     0
 41
2.9
 42
1.269999980926513
 43
10.0
 44
1.200000047683715
 73
     0
 74
     0
 77
     1
 78
     9
 79
     2
140
4.0
141
0.0
143
0.03937007874016
144
2.0
146
0.75
147
1.0
171
     4
172
     1
179
     2
271
     2
272
     2
274
     4
284
     8
288
     1
340
1AE
341
C9
342
C9
371
    -1
372
    -1
1001
ACAD_DSTYLE_DIMBREAK
1070
   391
1040
3.75
1001
ACAD_DSTYLE_DIMJAG
1070
   388
1040
1.5
1001
ACAD_DSTYLE_DIMTALN
1070
   392
1070
     0
1001
ACAD_DSTYLE_DIMARC_LENGTH_SYMBOL
1070
   379
1070
     1
1001
ACAD_DSTYLE_DIM_LINETYPE
1070
   380
1005
12
1001
ACAD_DSTYLE_DIM_EXT1_LINETYPE
1070
   381
1005
12
1001
ACAD_DSTYLE_DIM_EXT2_LINETYPE
1070
   382
1005
12
  0
DIMSTYLE
105
1E2
330
9
100
AcDbSymbolTableRecord
100
AcDbDimStyleTableRecord
  2
ULVAC$SH
 70
     0
 41
2.9
 42
1.269999980926513
 43
10.0
 44
1.200000047683715
 73
     0
 74
     0
 77
     1
 78
     9
 79
     3
140
4.0
141
0.0
143
0.03937007874016
144
2.0
146
0.75
147
1.0
171
     4
172
     1
179
     2
271
     2
272
     2
274
     4
284
     8
288
     1
340
1AE
341
C9
342
C9
371
    -1
372
    -1
1001
ACAD_DSTYLE_DIMBREAK
1070
   391
1040
3.75
1001
ACAD_DSTYLE_DIMJAG
1070
   388
1040
1.5
1001
ACAD_DSTYLE_DIMTALN
1070
   392
1070
     0
1001
ACAD_DSTYLE_DIMARC_LENGTH_SYMBOL
1070
   379
1070
     2
1001
ACAD_DSTYLE_DIM_LINETYPE
1070
   380
1005
12
1001
ACAD_DSTYLE_DIM_EXT1_LINETYPE
1070
   381
1005
12
1001
ACAD_DSTYLE_DIM_EXT2_LINETYPE
1070
   382
1005
12
  0
ENDTAB
  0
TABLE
  2
BLOCK_RECORD
  5
1
330
0
100
AcDbSymbolTable
 70
     8
  0
BLOCK_RECORD
  5
A
330
1
100
AcDbSymbolTableRecord
100
AcDbBlockTableRecord
  2
*MODEL_SPACE
340
20
  0
BLOCK_RECORD
  5
B
330
1
100
AcDbSymbolTableRecord
100
AcDbBlockTableRecord
  2
*PAPER_SPACE
340
21
  0
BLOCK_RECORD
  5
26
330
1
100
AcDbSymbolTableRecord
100
AcDbBlockTableRecord
  2
MS_1
340
0
102
{BLKREFS
331
E8
102
}
  0
BLOCK_RECORD
  5
27
330
1
100
AcDbSymbolTableRecord
100
AcDbBlockTableRecord
  2
MS_2
340
0
102
{BLKREFS
331
E7
102
}
  0
BLOCK_RECORD
  5
28
330
1
100
AcDbSymbolTableRecord
100
AcDbBlockTableRecord
  2
MS_3
340
0
102
{BLKREFS
331
E6
102
}
  0
BLOCK_RECORD
  5
29
330
1
100
AcDbSymbolTableRecord
100
AcDbBlockTableRecord
  2
MS_4
340
0
102
{BLKREFS
331
E5
102
}
  0
BLOCK_RECORD
  5
C4
330
1
100
AcDbSymbolTableRecord
100
AcDbBlockTableRecord
  2
*D4
340
0
  0
BLOCK_RECORD
  5
C9
330
1
100
AcDbSymbolTableRecord
100
AcDbBlockTableRecord
  2
_Open30
340
0
310
2800000020000000200000000100080000000000000400000000000000000000000000000000000000000000000080000080000000808000800000008000800080800000C0C0C000C0DCC000F0CAA6000020400000206000002080000020A0000020C0000020E00000400000004020000040400000406000004080000040A0
310
000040C0000040E00000600000006020000060400000606000006080000060A0000060C0000060E00000800000008020000080400000806000008080000080A0000080C0000080E00000A0000000A0200000A0400000A0600000A0800000A0A00000A0C00000A0E00000C0000000C0200000C0400000C0600000C0800000C0
310
A00000C0C00000C0E00000E0000000E0200000E0400000E0600000E0800000E0A00000E0C00000E0E00040000000400020004000400040006000400080004000A0004000C0004000E00040200000402020004020400040206000402080004020A0004020C0004020E000404000004040200040404000404060004040800040
310
40A0004040C0004040E00040600000406020004060400040606000406080004060A0004060C0004060E00040800000408020004080400040806000408080004080A0004080C0004080E00040A0000040A0200040A0400040A0600040A0800040A0A00040A0C00040A0E00040C0000040C0200040C0400040C0600040C08000
310
40C0A00040C0C00040C0E00040E0000040E0200040E0400040E0600040E0800040E0A00040E0C00040E0E00080000000800020008000400080006000800080008000A0008000C0008000E00080200000802020008020400080206000802080008020A0008020C0008020E00080400000804020008040400080406000804080
310
008040A0008040C0008040E00080600000806020008060400080606000806080008060A0008060C0008060E00080800000808020008080400080806000808080008080A0008080C0008080E00080A0000080A0200080A0400080A0600080A0800080A0A00080A0C00080A0E00080C0000080C0200080C0400080C0600080C0
310
800080C0A00080C0C00080C0E00080E0000080E0200080E0400080E0600080E0800080E0A00080E0C00080E0E000C0000000C0002000C0004000C0006000C0008000C000A000C000C000C000E000C0200000C0202000C0204000C0206000C0208000C020A000C020C000C020E000C0400000C0402000C0404000C0406000C0
310
408000C040A000C040C000C040E000C0600000C0602000C0604000C0606000C0608000C060A000C060C000C060E000C0800000C0802000C0804000C0806000C0808000C080A000C080C000C080E000C0A00000C0A02000C0A04000C0A06000C0A08000C0A0A000C0A0C000C0A0E000C0C00000C0C02000C0C04000C0C06000
310
C0C08000C0C0A000F0FBFF00A4A0A000808080000000FF0000FF000000FFFF00FF000000FF00FF00FFFF0000FFFFFF00F6F6F6F6F6F6F6F6F6F6F6F6F6F6F6F6F6F6F6F6F6F6F6F6F6F6F6F6F6F6F6F6F6F6F6F6F6F6F6F6F6F6F6F6F6F6F6F6F6F6F6F6F6F6F6F6F6F6F6F6F6F6F6F6F6F6F6F6F6F6F6F6F6F6F6F6F6F6F6
310
F6F6F6F6F6F6F6F6F6F6F6F6F6F6F6F6F6F6F6F6F6F6F6F6F6F6F6F6F6F6F6F6F6F6F6F6F6F6F6F6F6F6F6F6F6F6F6F6F6F6F6F6F6F6F6F6F6F6F6F6F6F6F6F6F6F6F6F6F6F6F6F6F6F6F6F6F6F6F6F6F6F6F6F6F6F6F6F6F6F6F6F6F6F6F6F6F6F6F6F6F6F6F6F6F6F6F6F6F6F6F6F6F6F6F6F6F6F6F6F6F6F6F6F6F6F6F6
310
F6F6F6F6F6F6F6F6F6F6F6F6F6F6F6F6F6F6F6F6F6F6F6F6F6F6F6F6F6F6F6F6F6F6F6F6F6F6F6F6F6F6F6F6F6F6F6F6F6F6F60000F6F6F6F6F6F6F6F6F6F6F6F6F6F6F6F6F6F6F6F6F6F6F6F6F6F6F6F6F6F6F6F600000000F6F6F6F6F6F6F6F6F6F6F6F6F6F6F6F6F6F6F6F6F6F6F6F6F6F6F6F6F6F6F6F600000000F6F6
310
F6F6F6F6F6F6F6F6F6F6F6F6F6F6F6F6F6F6F6F6F6F6F6F6F6F6F6F6F6F6000000F6F6F6F6F6F6F6F6F6F6F6F6F6F6F6F6F6F6F6F6F6F6F6F6F6F6F6F6F6F6F6F600000000F6F6F6F6F6F6F6F6F6F6F6F6F6F6F6F6F6F6F6F6F6F6F6F6F6F6F6F6F6F6F6F6000000F6F6F6F6F6F6F6F6F6F6F6F6F6F6F6F6F6F6F6F6F6F6F6
310
F6F6F6F6F6F6F6F6F600000000F6F6F6F6F6F6F6F6F6F6F6F6F6F6F6F6F6F6F6F6F6F6F6F6F6F6F6F6F6F6F6F600000000F6F6F6F6000000000000000000000000000000000000000000000000000000000000F6F6F6F6F6F6F6F6F6F6F6F6F6F6F6F6F6F6F6F6F6F6F6F6F600000000F6F6F6F6F6F6F6F6F6F6F6F6F6F6F6
310
F6F6F6F6F6F6F6F6F600000000F6F6F6F6F6F6F6F6F6F6F6F6F6F6F6F6F6F6F6F6F6F6F6F600000000F6F6F6F6F6F6F6F6F6F6F6F6F6F6F6F6F6F6F6F6F6F6F6F600000000F6F6F6F6F6F6F6F6F6F6F6F6F6F6F6F6F6F6F6F6F6F6F6F600000000F6F6F6F6F6F6F6F6F6F6F6F6F6F6F6F6F6F6F6F6F6F6F6F600000000F6F6
310
F6F6F6F6F6F6F6F6F6F6F6F6F6F6F6F6F6F6F6F6F6F6F6000000F6F6F6F6F6F6F6F6F6F6F6F6F6F6F6F6F6F6F6F6F6F6F6F6F6F6F6F6F6F6F6F6F6F6F6F6F6F6F6F6F6F6F6F6F6F6F6F6F6F6F6F6F6F6F6F6F6F6F6F6F6F6F6F6F6F6F6F6F6F6F6F6F6F6F6F6F6F6F6F6F6F6F6F6F6F6F6F6F6F6F6F6F6F6F6F6F6F6F6F6F6
310
F6F6F6F6F6F6F6F6F6F6F6F6F6F6F6F6F6F6F6F6F6F6F6F6F6F6F6F6F6F6F6F6F6F6F6F6F6F6F6F6F6F6F6F6F6F6F6F6F6F6F6F6F6F6F6F6F6F6F6F6F6F6F6F6F6F6F6F6F6F6F6F6F6F6F6F6F6F6F6F6F6F6F6F6F6F6F6F6F6F6F6F6F6F6F6F6F6F6F6F6F6F6F6F6F6F6F6F6F6F6F6F6F6F6F6F6F6F6F6F6F6F6F6F6F6F6F6
310
F6F6F6F6F6F6F6F6F6F6F6F6F6F6F6F6F6F6F6F6F6F6F6F6F6F6F6F6F6F6F6F6F6F6F6F6F6F6F6F6F6F6F6F6F6F6F6F6F6F6F6F6F6F6F6F6
102
{BLKREFS
331
DE
331
DD
331
D0
331
CF
102
}
  0
BLOCK_RECORD
  5
D8
330
1
100
AcDbSymbolTableRecord
100
AcDbBlockTableRecord
  2
*D6
340
0
  0
ENDTAB
  0
ENDSEC
  0
SECTION
  2
BLOCKS
  0
BLOCK
  5
D
330
A
100
AcDbEntity
  8
0
100
AcDbBlockBegin
  2
*MODEL_SPACE
 70
     0
 10
0.0
 20
0.0
 30
0.0
  3
*MODEL_SPACE
  1

  0
ENDBLK
  5
E
330
A
100
AcDbEntity
  8
0
100
AcDbBlockEnd
  0
BLOCK
  5
F
330
B
100
AcDbEntity
 67
     1
  8
0
100
AcDbBlockBegin
  2
*PAPER_SPACE
 70
     0
 10
0.0
 20
0.0
 30
0.0
  3
*PAPER_SPACE
  1

  0
ENDBLK
  5
10
330
B
100
AcDbEntity
 67
     1
  8
0
100
AcDbBlockEnd
  0
BLOCK
  5
2A
330
26
100
AcDbEntity
  8
0
370
    -2
100
AcDbBlockBegin
  2
MS_1
 70
     0
 10
0.0
 20
0.0
 30
0.0
  3
MS_1
  1

  0
ELLIPSE
  5
2B
330
26
100
AcDbEntity
  8
0
  6
Continuous
 62
     3
100
AcDbEllipse
 10
-17.27796936035156
 20
-12.50000381469726
 30
0.0
 11
0.0000038146972649
 21
-8.499971389770507
 31
0.0
210
0.0
220
0.0
230
1.0
 40
0.9847097443179361
 41
0.0
 42
3.14159266055845
  0
ELLIPSE
  5
2C
330
26
100
AcDbEntity
  8
0
  6
Continuous
 62
     7
100
AcDbEllipse
 10
-20.75093078613281
 20
-12.49999618530273
 30
0.0
 11
0.0000038146972637
 21
-6.578477859497069
 31
0.0
210
0.0
220
0.0
230
0.9999999999999998
 40
0.9850308798130068
 41
0.0
 42
6.283185307179586
  0
ELLIPSE
  5
2D
330
26
100
AcDbEntity
  8
0
  6
Continuous
 62
     3
100
AcDbEllipse
 10
-20.75093078613281
 20
-12.50000762939453
 30
0.0
 11
-0.0000000000000011
 21
-5.722488403320312
 31
0.0
210
0.0
220
0.0
230
1.0
 40
0.9855841148284532
 41
0.0
 42
6.283185307179586
  0
ELLIPSE
  5
2E
330
26
100
AcDbEntity
  8
0
  6
Continuous
 62
     3
100
AcDbEllipse
 10
-20.75093078613281
 20
-12.50000381469726
 30
0.0
 11
0.0000038146972649
 21
-8.499971389770507
 31
0.0
210
0.0
220
0.0
230
1.0
 40
0.9847097443179361
 41
0.0
 42
6.283185307179586
  0
ELLIPSE
  5
2F
330
26
100
AcDbEntity
  8
0
  6
Continuous
 62
     3
100
AcDbEllipse
 10
17.27801513671875
 20
-12.50000381469726
 30
0.0
 11
-0.0000038146972681
 21
-8.499971389770507
 31
0.0
210
0.0
220
0.0
230
1.0
 40
0.9847097443179938
 41
3.141592653589793
 42
6.283185186271408
  0
ELLIPSE
  5
30
330
26
100
AcDbEntity
  8
0
  6
Continuous
 62
     7
100
AcDbEllipse
 10
20.7509765625
 20
-12.4999885559082
 30
0.0
 11
-0.0000038146972661
 21
-6.578477859497069
 31
0.0
210
0.0
220
0.0
230
0.9999999999999998
 40
0.9850308798130068
 41
0.0
 42
6.283185307179586
  0
ELLIPSE
  5
31
330
26
100
AcDbEntity
  8
0
  6
Continuous
 62
     3
100
AcDbEllipse
 10
20.75096130371094
 20
-12.50000762939453
 30
0.0
 11
-0.0000000000000011
 21
-5.722488403320312
 31
0.0
210
0.0
220
0.0
230
1.0
 40
0.9855841148284532
 41
0.0
 42
6.283185307179586
  0
ELLIPSE
  5
32
330
26
100
AcDbEntity
  8
0
  6
Continuous
 62
     3
100
AcDbEllipse
 10
20.7509765625
 20
-12.50000381469726
 30
0.0
 11
-0.0000038146972681
 21
-8.499971389770507
 31
0.0
210
0.0
220
0.0
230
1.0
 40
0.9847097443179938
 41
0.0
 42
6.283185307179586
  0
LINE
  5
34
330
26
100
AcDbEntity
  8
0
  6
CENTER
 62
     7
100
AcDbLine
 10
0.0
 20
20.56379699707031
 30
0.0
 11
0.0
 21
-52.34420776367187
 31
0.0
  0
LINE
  5
36
330
26
100
AcDbEntity
  8
0
  6
DASHED
 62
     7
100
AcDbLine
 10
91.69999694824218
 20
0.0
 30
0.0
 11
91.69999694824218
 21
-3.0
 31
0.0
  0
LINE
  5
37
330
26
100
AcDbEntity
  8
0
  6
DASHED
 62
     7
100
AcDbLine
 10
91.69999694824218
 20
-3.0
 30
0.0
 11
87.5
 21
-3.0
 31
0.0
  0
LINE
  5
38
330
26
100
AcDbEntity
  8
0
  6
DASHED
 62
     7
100
AcDbLine
 10
87.5
 20
0.0
 30
0.0
 11
87.5
 21
-3.0
 31
0.0
  0
LINE
  5
39
330
26
100
AcDbEntity
  8
0
  6
Continuous
 62
     3
100
AcDbLine
 10
-99.50000000000001
 20
0.0
 30
0.0
 11
99.50000000000001
 21
0.0
 31
0.0
  0
LINE
  5
3A
330
26
100
AcDbEntity
  8
0
  6
DASHED
 62
     7
100
AcDbLine
 10
-87.5
 20
-3.0
 30
0.0
 11
-91.70001220703126
 21
-3.0
 31
0.0
  0
LINE
  5
3B
330
26
100
AcDbEntity
  8
0
  6
DASHED
 62
     7
100
AcDbLine
 10
-91.69999694824218
 20
0.0
 30
0.0
 11
-91.69999694824218
 21
-3.0
 31
0.0
  0
LINE
  5
3C
330
26
100
AcDbEntity
  8
0
  6
DASHED
 62
     7
100
AcDbLine
 10
-87.5
 20
0.0
 30
0.0
 11
-87.5
 21
-3.0
 31
0.0
  0
LINE
  5
3D
330
26
100
AcDbEntity
  8
0
  6
Continuous
 62
     3
100
AcDbLine
 10
-12.0
 20
-27.0
 30
0.0
 11
12.0
 21
-27.0
 31
0.0
  0
LINE
  5
3E
330
26
100
AcDbEntity
  8
0
  6
Continuous
 62
     3
100
AcDbLine
 10
12.00001004167575
 20
-26.99998820194264
 30
0.0
 11
11.00000898008625
 21
-27.99998926353215
 31
0.0
  0
LINE
  5
3F
330
26
100
AcDbEntity
  8
0
  6
Continuous
 62
     3
100
AcDbLine
 10
-12.00002298083609
 20
-27.00002727255469
 30
0.0
 11
-11.00001534432363
 21
-28.00002723831176
 31
0.0
  0
LINE
  5
40
330
26
100
AcDbEntity
  8
0
  6
Continuous
 62
     3
100
AcDbLine
 10
-12.0
 20
-25.0
 30
0.0
 11
-12.0
 21
-27.0
 31
0.0
  0
LINE
  5
41
330
26
100
AcDbEntity
  8
0
  6
Continuous
 62
     3
100
AcDbLine
 10
12.0
 20
-25.0
 30
0.0
 11
12.0
 21
-27.0
 31
0.0
  0
LINE
  5
42
330
26
100
AcDbEntity
  8
0
  6
Continuous
 62
     3
100
AcDbLine
 10
-10.99999237060547
 20
-28.0
 30
0.0
 11
11.0
 21
-28.0
 31
0.0
  0
LINE
  5
43
330
26
100
AcDbEntity
  8
0
  6
Continuous
 62
     3
100
AcDbLine
 10
-17.2779541015625
 20
-21.0
 30
0.0
 11
-20.75093078613281
 21
-21.0
 31
0.0
  0
LINE
  5
44
330
26
100
AcDbEntity
  8
0
  6
Continuous
 62
     3
100
AcDbLine
 10
-17.27796936035156
 20
-4.0
 30
0.0
 11
-20.75093078613281
 21
-4.0
 31
0.0
  0
LINE
  5
45
330
26
100
AcDbEntity
  8
0
  6
CENTER
 62
     7
100
AcDbLine
 10
-20.75093078613281
 20
5.478973388671875
 30
0.0
 11
-20.75093078613281
 21
-31.14321899414063
 31
0.0
  0
LINE
  5
46
330
26
100
AcDbEntity
  8
0
  6
Continuous
 62
     3
100
AcDbLine
 10
17.27799987792969
 20
-21.0
 30
0.0
 11
20.75096130371094
 21
-21.0
 31
0.0
  0
LINE
  5
47
330
26
100
AcDbEntity
  8
0
  6
Continuous
 62
     3
100
AcDbLine
 10
17.27801513671875
 20
-4.0
 30
0.0
 11
20.7509765625
 21
-4.0
 31
0.0
  0
LINE
  5
48
330
26
100
AcDbEntity
  8
0
  6
CENTER
 62
     7
100
AcDbLine
 10
20.75096130371094
 20
5.478981018066406
 30
0.0
 11
20.75096130371094
 21
-31.14320373535156
 31
0.0
  0
LINE
  5
49
330
26
100
AcDbEntity
  8
0
  6
Continuous
 62
     3
100
AcDbLine
 10
-99.50000000000001
 20
0.0
 30
0.0
 11
-99.50000000000001
 21
-25.0
 31
0.0
  0
LINE
  5
4A
330
26
100
AcDbEntity
  8
0
  6
Continuous
 62
     3
100
AcDbLine
 10
99.50000000000001
 20
0.0
 30
0.0
 11
99.50000000000001
 21
-25.0
 31
0.0
  0
LINE
  5
4B
330
26
100
AcDbEntity
  8
0
  6
Continuous
 62
     3
100
AcDbLine
 10
-99.50000000000001
 20
-25.0
 30
0.0
 11
99.50000000000001
 21
-25.0
 31
0.0
  0
LINE
  5
4C
330
26
100
AcDbEntity
  8
0
  6
CENTER
 62
     7
100
AcDbLine
 10
-137.5011901855468
 20
-12.50000762939453
 30
0.0
 11
131.6976165771484
 21
-12.50000762939453
 31
0.0
  0
POINT
  5
4D
330
26
100
AcDbEntity
  8
0
  6
Continuous
 62
     7
100
AcDbPoint
 10
0.0
 20
0.0
 30
0.0
  0
ENDBLK
  5
4E
330
26
100
AcDbEntity
  8
0
370
    -2
100
AcDbBlockEnd
  0
BLOCK
  5
4F
330
27
100
AcDbEntity
  8
0
370
    -2
100
AcDbBlockBegin
  2
MS_2
 70
     0
 10
0.0
 20
0.0
 30
0.0
  3
MS_2
  1

  0
ELLIPSE
  5
50
330
27
100
AcDbEntity
  8
0
  6
Continuous
 62
     3
100
AcDbEllipse
 10
-32.47593593597412
 20
18.75
 30
0.0
 11
-3.678196907043457
 21
2.113182067871093
 31
0.0
210
0.0
220
0.0
230
1.0
 40
0.7072113806916133
 41
1.569302349236242
 42
4.710895002826035
  0
ELLIPSE
  5
51
330
27
100
AcDbEntity
  8
0
  6
Continuous
 62
     3
100
AcDbEllipse
 10
-54.1265869140625
 20
31.25000095367432
 30
0.0
 11
-3.673675537109374
 21
2.120997428894043
 31
0.0
210
0.0
220
0.0
230
1.0
 40
0.7072149166730001
 41
1.570796719369244
 42
4.712388980384689
  0
ELLIPSE
  5
52
330
27
100
AcDbEntity
  8
0
  6
Continuous
 62
     3
100
AcDbEllipse
 10
54.1265869140625
 20
31.24999904632569
 30
0.0
 11
3.670486450195312
 21
2.126530647277832
 31
0.0
210
0.0
220
0.0
230
1.0
 40
0.707214401701798
 41
1.569719403365712
 42
4.711312056955505
  0
ELLIPSE
  5
53
330
27
100
AcDbEntity
  8
0
  6
Continuous
 62
     3
100
AcDbEllipse
 10
32.47595310211182
 20
18.75
 30
0.0
 11
3.676215171813964
 21
2.116600036621093
 31
0.0
210
0.0
220
0.0
230
0.9999999999999998
 40
0.7072134590262876
 41
1.571631597128814
 42
4.713223148996609
  0
ELLIPSE
  5
54
330
27
100
AcDbEntity
  8
0
  6
Continuous
 62
     3
100
AcDbEllipse
 10
-0.0000038146972656
 20
-62.50000190734863
 30
0.0
 11
0.0000003202621862
 21
-4.242002487182617
 31
0.0
210
0.0
220
0.0
230
0.9999999999999996
 40
0.7072131638452861
 41
1.570796887079895
 42
4.712388980384689
  0
ELLIPSE
  5
55
330
27
100
AcDbEntity
  8
0
  6
Continuous
 62
     3
100
AcDbEllipse
 10
-0.0000038146972656
 20
-37.5
 30
0.0
 11
0.0000003202621854
 21
-4.242000579833984
 31
0.0
210
0.0
220
0.0
230
0.9999999999999998
 40
0.7072134818325272
 41
1.570796251296984
 42
4.712388980384689
  0
ARC
  5
56
330
27
100
AcDbEntity
  8
0
  6
Continuous
 62
     3
100
AcDbCircle
 10
0.0
 20
0.0
 30
0.0
 40
17.5
100
AcDbArc
 50
279.870898091565
 51
0.0
  0
ARC
  5
57
330
27
100
AcDbEntity
  8
0
  6
Continuous
 62
     3
100
AcDbCircle
 10
0.0
 20
0.0
 30
0.0
 40
17.5
100
AcDbArc
 50
39.87091167615303
 51
140.1290899177087
  0
ARC
  5
58
330
27
100
AcDbEntity
  8
0
  6
Continuous
 62
     3
100
AcDbCircle
 10
0.0
 20
0.0
 30
0.0
 40
17.5
100
AcDbArc
 50
159.8709047701735
 51
260.1290659362563
  0
ARC
  5
59
330
27
100
AcDbEntity
  8
0
  6
Continuous
 62
     3
100
AcDbCircle
 10
0.0
 20
0.0
 30
0.0
 40
17.5
100
AcDbArc
 50
0.0
 51
20.12910706897201
  0
CIRCLE
  5
5A
330
27
100
AcDbEntity
  8
0
  6
Continuous
 62
     3
100
AcDbCircle
 10
0.0
 20
0.0
 30
0.0
 40
2.5
  0
CIRCLE
  5
5B
330
27
100
AcDbEntity
  8
0
  6
Continuous
 62
     3
100
AcDbCircle
 10
0.0
 20
0.0
 30
0.0
 40
9.949999809265136
  0
ARC
  5
5C
330
27
100
AcDbEntity
  8
0
  6
Continuous
 62
     3
100
AcDbCircle
 10
0.0
 20
0.0
 30
0.0
 40
72.5
100
AcDbArc
 50
151.8557597414335
 51
359.999982697156
  0
CIRCLE
  5
5D
330
27
100
AcDbEntity
  8
0
  6
Continuous
 62
     3
100
AcDbCircle
 10
0.0
 20
0.0
 30
0.0
 40
22.5
  0
CIRCLE
  5
5E
330
27
100
AcDbEntity
  8
0
  6
Continuous
 62
     3
100
AcDbCircle
 10
0.0
 20
0.0
 30
0.0
 40
47.5
  0
ARC
  5
5F
330
27
100
AcDbEntity
  8
0
  6
Continuous
 62
     3
100
AcDbCircle
 10
0.0
 20
0.0
 30
0.0
 40
72.5
100
AcDbArc
 50
0.0
 51
151.420485446007
  0
CIRCLE
  5
60
330
27
100
AcDbEntity
  8
0
  6
Continuous
 62
     3
100
AcDbCircle
 10
0.0
 20
0.0
 30
0.0
 40
85.0
  0
CIRCLE
  5
61
330
27
100
AcDbEntity
  8
0
  6
Continuous
 62
     3
100
AcDbCircle
 10
0.0
 20
0.0
 30
0.0
 40
91.69999694824218
  0
CIRCLE
  5
62
330
27
100
AcDbEntity
  8
0
  6
Continuous
 62
     3
100
AcDbCircle
 10
0.0
 20
0.0
 30
0.0
 40
87.5
  0
CIRCLE
  5
63
330
27
100
AcDbEntity
  8
0
  6
Continuous
 62
     3
100
AcDbCircle
 10
0.0
 20
0.0
 30
0.0
 40
99.50000000000001
  0
LINE
  5
64
330
27
100
AcDbEntity
  8
0
  6
Continuous
 62
     3
100
AcDbLine
 10
-25.58564774235083
 20
-96.15415472148516
 30
0.0
 11
-29.12177006766751
 21
-116.2085072811983
 31
0.0
  0
LINE
  5
65
330
27
100
AcDbEntity
  8
0
  6
DASHED
 62
     7
100
AcDbLine
 10
-22.88490705935055
 20
-96.83248959783396
 30
0.0
 11
-26.38646456972583
 21
-116.6908152893493
 31
0.0
  0
LINE
  5
66
330
27
100
AcDbEntity
  8
0
  6
DASHED
 62
     7
100
AcDbLine
 10
-11.61377930438652
 20
-98.81987740511455
 30
0.0
 11
-15.11534211408184
 21
-118.6782331505767
 31
0.0
  0
LINE
  5
67
330
27
100
AcDbEntity
  8
0
  6
DASHED
 62
     7
100
AcDbLine
 10
-23.71870988180649
 20
-96.63162543499016
 30
0.0
 11
-27.2294776104061
 21
-116.5421848860958
 31
0.0
  0
LINE
  5
68
330
27
100
AcDbEntity
  8
0
  6
DASHED
 62
     7
100
AcDbLine
 10
-10.76159123085131
 20
-98.91631432718918
 30
0.0
 11
-14.27235895945091
 21
-118.8268737782948
 31
0.0
  0
LINE
  5
69
330
27
100
AcDbEntity
  8
0
  6
CENTER
 62
     7
100
AcDbLine
 10
-15.53831142580749
 20
-88.12232417468816
 30
0.0
 11
-21.70042435668439
 21
-123.069414195819
 31
0.0
  0
LINE
  5
6A
330
27
100
AcDbEntity
  8
0
  6
Continuous
 62
     3
100
AcDbLine
 10
-29.12179072975596
 20
-116.2085036379158
 30
0.0
 11
-12.38005181101107
 21
-119.160522985283
 31
0.0
  0
LINE
  5
6B
330
27
100
AcDbEntity
  8
0
  6
Continuous
 62
     3
100
AcDbLine
 10
-8.822624073178076
 20
-98.98529196098639
 30
0.0
 11
-12.38006026368362
 21
-119.1605214948492
 31
0.0
  0
LINE
  5
6C
330
27
100
AcDbEntity
  8
0
  6
Continuous
 62
     3
100
AcDbLine
 10
8.843987049897123
 20
-99.10616182400174
 30
0.0
 11
12.38011058898633
 21
-119.1605143837149
 31
0.0
  0
LINE
  5
6D
330
27
100
AcDbEntity
  8
0
  6
DASHED
 62
     7
100
AcDbLine
 10
11.61386881277121
 20
-98.81986300746598
 30
0.0
 11
15.11543017471558
 21
-118.6782037259547
 31
0.0
  0
LINE
  5
6E
330
27
100
AcDbEntity
  8
0
  6
DASHED
 62
     7
100
AcDbLine
 10
22.88498922214603
 20
-96.83246031905582
 30
0.0
 11
26.3865505840904
 21
-116.6908010375446
 31
0.0
  0
LINE
  5
6F
330
27
100
AcDbEntity
  8
0
  6
DASHED
 62
     7
100
AcDbLine
 10
10.76164222945704
 20
-98.91630677031759
 30
0.0
 11
14.27241116312621
 21
-118.8268662214232
 31
0.0
  0
LINE
  5
70
330
27
100
AcDbEntity
  8
0
  6
DASHED
 62
     7
100
AcDbLine
 10
23.718765744238
 20
-96.63160074209617
 30
0.0
 11
27.22953467790717
 21
-116.5421601932018
 31
0.0
  0
LINE
  5
71
330
27
100
AcDbEntity
  8
0
  6
CENTER
 62
     7
100
AcDbLine
 10
15.53836159476842
 20
-88.12231626899299
 30
0.0
 11
21.7004739911271
 21
-123.0693912631504
 31
0.0
  0
LINE
  5
72
330
27
100
AcDbEntity
  8
0
  6
Continuous
 62
     3
100
AcDbLine
 10
12.38011058898633
 20
-119.1605143837149
 30
0.0
 11
29.12184199424451
 21
-116.2084953478987
 31
0.0
  0
LINE
  5
73
330
27
100
AcDbEntity
  8
0
  6
Continuous
 62
     3
100
AcDbLine
 10
25.5857109416686
 20
-96.154144113016
 30
0.0
 11
29.1218344807578
 21
-116.2084966727291
 31
0.0
  0
LINE
  5
74
330
27
100
AcDbEntity
  8
0
  6
Continuous
 62
     3
100
AcDbLine
 10
-3.0
 20
-9.486961364746093
 30
0.0
 11
-3.0
 21
-22.29910278320312
 31
0.0
  0
LINE
  5
75
330
27
100
AcDbEntity
  8
0
  6
Continuous
 62
     3
100
AcDbLine
 10
3.0
 20
-9.486961364746093
 30
0.0
 11
3.0
 21
-22.29910278320312
 31
0.0
  0
LINE
  5
76
330
27
100
AcDbEntity
  8
0
  6
Continuous
 62
     3
100
AcDbLine
 10
-9.715954277844275
 20
2.145412201439967
 30
0.0
 11
-20.81158741671038
 21
8.5514798596339
 31
0.0
  0
LINE
  5
77
330
27
100
AcDbEntity
  8
0
  6
Continuous
 62
     3
100
AcDbLine
 10
-6.715957734914127
 20
7.341557923635491
 30
0.0
 11
-17.81159087378023
 21
13.74762558182942
 31
0.0
  0
LINE
  5
78
330
27
100
AcDbEntity
  8
0
  6
Continuous
 62
     3
100
AcDbLine
 10
9.715951786664447
 20
2.145406029787238
 30
0.0
 11
20.81157660422474
 21
8.55146691544769
 31
0.0
  0
LINE
  5
79
330
27
100
AcDbEntity
  8
0
  6
Continuous
 62
     3
100
AcDbLine
 10
6.715947026852177
 20
7.341565673178934
 30
0.0
 11
17.81158588481833
 21
13.74763466507011
 31
0.0
  0
LINE
  5
7A
330
27
100
AcDbEntity
  8
0
  6
Continuous
 62
     3
100
AcDbLine
 10
55.62658983469015
 20
28.65192075707955
 30
0.0
 11
64.23306129964482
 21
33.62086852899256
 31
0.0
  0
LINE
  5
7B
330
27
100
AcDbEntity
  8
0
  6
Continuous
 62
     3
100
AcDbLine
 10
52.62658590078411
 20
33.84808087730835
 30
0.0
 11
61.2330705802384
 21
38.81703627861498
 31
0.0
  0
LINE
  5
7C
330
27
100
AcDbEntity
  8
0
  6
Continuous
 62
     3
100
AcDbLine
 10
-52.62660170808453
 20
33.8480842157835
 30
0.0
 11
-61.2330725806944
 21
38.81703317238612
 31
0.0
  0
LINE
  5
7D
330
27
100
AcDbEntity
  8
0
  6
Continuous
 62
     3
100
AcDbLine
 10
-55.62658503651596
 20
28.65193086419253
 30
0.0
 11
-64.23305590912582
 21
33.62087982079515
 31
0.0
  0
LINE
  5
7E
330
27
100
AcDbEntity
  8
0
  6
Continuous
 62
     3
100
AcDbLine
 10
-33.97595033049561
 20
16.15192937407641
 30
0.0
 11
-42.55407610334692
 21
21.10451327745864
 31
0.0
  0
LINE
  5
7F
330
27
100
AcDbEntity
  8
0
  6
Continuous
 62
     3
100
AcDbLine
 10
-30.97595378756546
 20
21.34807509627194
 30
0.0
 11
-39.55409277491549
 21
26.3006666290496
 31
0.0
  0
LINE
  5
80
330
27
100
AcDbEntity
  8
0
  6
Continuous
 62
     3
100
AcDbLine
 10
33.97594042405405
 20
16.15191461780205
 30
0.0
 11
42.55408000179892
 21
21.10450496979002
 31
0.0
  0
LINE
  5
81
330
27
100
AcDbEntity
  8
0
  6
Continuous
 62
     3
100
AcDbLine
 10
30.97594970464764
 20
21.34808236742447
 30
0.0
 11
39.55407606789288
 21
26.30066509001881
 31
0.0
  0
LINE
  5
82
330
27
100
AcDbEntity
  8
0
  6
CENTER
 62
     7
100
AcDbLine
 10
-5.906426730808309
 20
3.4100735993854
 30
0.0
 11
-68.56539728138452
 21
39.58625207573978
 31
0.0
  0
LINE
  5
83
330
27
100
AcDbEntity
  8
0
  6
CENTER
 62
     7
100
AcDbLine
 10
5.359528694653476
 20
3.094335806201614
 30
0.0
 11
70.35245839354377
 21
40.61801488100359
 31
0.0
  0
LINE
  5
84
330
27
100
AcDbEntity
  8
0
  6
Continuous
 62
     3
100
AcDbLine
 10
3.0
 20
-62.5
 30
0.0
 11
3.0
 21
-72.43789672851562
 31
0.0
  0
LINE
  5
85
330
27
100
AcDbEntity
  8
0
  6
Continuous
 62
     3
100
AcDbLine
 10
-3.0
 20
-62.54182434082031
 30
0.0
 11
-3.0
 21
-72.43789672851562
 31
0.0
  0
LINE
  5
86
330
27
100
AcDbEntity
  8
0
  6
Continuous
 62
     3
100
AcDbLine
 10
3.0
 20
-37.5
 30
0.0
 11
3.0
 21
-47.40516662597656
 31
0.0
  0
LINE
  5
87
330
27
100
AcDbEntity
  8
0
  6
Continuous
 62
     3
100
AcDbLine
 10
-3.0
 20
-37.49998474121094
 30
0.0
 11
-3.0
 21
-47.40516662597656
 31
0.0
  0
LINE
  5
88
330
27
100
AcDbEntity
  8
0
  6
CENTER
 62
     7
100
AcDbLine
 10
0.0
 20
128.9910888671875
 30
0.0
 11
0.0
 21
-142.633544921875
 31
0.0
  0
LINE
  5
89
330
27
100
AcDbEntity
  8
0
  6
CENTER
 62
     7
100
AcDbLine
 10
-136.8780364990234
 20
0.0
 30
0.0
 11
132.3207702636719
 21
0.0
 31
0.0
  0
POINT
  5
8A
330
27
100
AcDbEntity
  8
0
  6
Continuous
 62
     7
100
AcDbPoint
 10
0.0
 20
0.0
 30
0.0
  0
ENDBLK
  5
8B
330
27
100
AcDbEntity
  8
0
370
    -2
100
AcDbBlockEnd
  0
BLOCK
  5
8C
330
28
100
AcDbEntity
  8
0
370
    -2
100
AcDbBlockBegin
  2
MS_3
 70
     0
 10
0.0
 20
0.0
 30
0.0
  3
MS_3
  1

  0
ELLIPSE
  5
8D
330
28
100
AcDbEntity
  8
0
  6
Continuous
 62
     3
100
AcDbEllipse
 10
-117.6845245361328
 20
-12.49999952316284
 30
0.0
 11
0.0029373168945272
 21
-8.500008106231689
 31
0.0
210
0.0
220
0.0
230
0.9999999999999998
 40
0.1735290667411301
 41
0.0
 42
6.283185307179586
  0
ELLIPSE
  5
8E
330
28
100
AcDbEntity
  8
0
  6
Continuous
 62
     3
100
AcDbEllipse
 10
-97.98835754394531
 20
-12.49999952316284
 30
0.0
 11
0.0029373168945272
 21
-8.500008106231689
 31
0.0
210
0.0
220
0.0
230
0.9999999999999998
 40
0.2305879076710831
 41
6.281679746260633
 42
9.423271913281729
  0
ELLIPSE
  5
8F
330
28
100
AcDbEntity
  8
0
  6
Continuous
 62
     3
100
AcDbEllipse
 10
-97.98835754394531
 20
-12.49999952316284
 30
0.0
 11
0.0029373168945272
 21
-8.500008106231689
 31
0.0
210
0.0
220
0.0
230
0.9999999999999998
 40
0.2305879076710831
 41
6.281679746260633
 42
9.423271913281729
  0
LINE
  5
90
330
28
100
AcDbEntity
  8
0
  6
CENTER
 62
     7
100
AcDbLine
 10
0.0
 20
24.28472900390625
 30
0.0
 11
0.0
 21
-46.13069152832031
 31
0.0
  0
LINE
  5
91
330
28
100
AcDbEntity
  8
0
  6
DASHED
 62
     7
100
AcDbLine
 10
-91.69999694824218
 20
0.0
 30
0.0
 11
-91.69999694824218
 21
-3.0
 31
0.0
  0
LINE
  5
92
330
28
100
AcDbEntity
  8
0
  6
DASHED
 62
     7
100
AcDbLine
 10
-87.5
 20
-3.0
 30
0.0
 11
-91.69999694824218
 21
-3.0
 31
0.0
  0
LINE
  5
93
330
28
100
AcDbEntity
  8
0
  6
DASHED
 62
     7
100
AcDbLine
 10
-87.5
 20
0.0
 30
0.0
 11
-87.5
 21
-3.0
 31
0.0
  0
LINE
  5
94
330
28
100
AcDbEntity
  8
0
  6
DASHED
 62
     7
100
AcDbLine
 10
91.69999694824218
 20
0.0
 30
0.0
 11
91.69999694824218
 21
-3.0
 31
0.0
  0
LINE
  5
95
330
28
100
AcDbEntity
  8
0
  6
DASHED
 62
     7
100
AcDbLine
 10
91.69999694824218
 20
-3.0
 30
0.0
 11
87.5
 21
-3.0
 31
0.0
  0
LINE
  5
96
330
28
100
AcDbEntity
  8
0
  6
DASHED
 62
     7
100
AcDbLine
 10
87.5
 20
0.0
 30
0.0
 11
87.5
 21
-3.0
 31
0.0
  0
LINE
  5
97
330
28
100
AcDbEntity
  8
0
  6
Continuous
 62
     3
100
AcDbLine
 10
12.0
 20
-27.0
 30
0.0
 11
-12.0
 21
-27.0
 31
0.0
  0
LINE
  5
98
330
28
100
AcDbEntity
  8
0
  6
Continuous
 62
     3
100
AcDbLine
 10
10.99998807524974
 20
-27.99998858918258
 30
0.0
 11
11.99998913683924
 21
-26.99998752759308
 31
0.0
  0
LINE
  5
99
330
28
100
AcDbEntity
  8
0
  6
Continuous
 62
     3
100
AcDbLine
 10
-11.99998104464447
 20
-26.99999561978785
 30
0.0
 11
-10.999990772648
 21
-27.99998589178432
 31
0.0
  0
LINE
  5
9A
330
28
100
AcDbEntity
  8
0
  6
Continuous
 62
     3
100
AcDbLine
 10
-12.0
 20
-25.0
 30
0.0
 11
-12.0
 21
-27.0
 31
0.0
  0
LINE
  5
9B
330
28
100
AcDbEntity
  8
0
  6
Continuous
 62
     3
100
AcDbLine
 10
12.0
 20
-25.0
 30
0.0
 11
12.0
 21
-27.0
 31
0.0
  0
LINE
  5
9C
330
28
100
AcDbEntity
  8
0
  6
Continuous
 62
     3
100
AcDbLine
 10
11.0
 20
-28.0
 30
0.0
 11
-11.0
 21
-28.0
 31
0.0
  0
LINE
  5
9D
330
28
100
AcDbEntity
  8
0
  6
Continuous
 62
     3
100
AcDbLine
 10
-99.50000000000001
 20
-21.0
 30
0.0
 11
-99.50000000000001
 21
-25.0
 31
0.0
  0
LINE
  5
9E
330
28
100
AcDbEntity
  8
0
  6
CENTER
 62
     7
100
AcDbLine
 10
-117.6845245361328
 20
-1.46978759765625
 30
0.0
 11
-117.6845245361328
 21
-23.228759765625
 31
0.0
  0
LINE
  5
9F
330
28
100
AcDbEntity
  8
0
  6
Continuous
 62
     3
100
AcDbLine
 10
-97.98835754394531
 20
-4.0
 30
0.0
 11
-117.6845245361328
 21
-4.0
 31
0.0
  0
LINE
  5
A0
330
28
100
AcDbEntity
  8
0
  6
Continuous
 62
     3
100
AcDbLine
 10
-97.98835754394531
 20
-21.0
 30
0.0
 11
-117.6845245361328
 21
-21.0
 31
0.0
  0
LINE
  5
A1
330
28
100
AcDbEntity
  8
0
  6
Continuous
 62
     3
100
AcDbLine
 10
-99.50000000000001
 20
0.0
 30
0.0
 11
-99.50000000000001
 21
-4.0
 31
0.0
  0
LINE
  5
A2
330
28
100
AcDbEntity
  8
0
  6
Continuous
 62
     3
100
AcDbLine
 10
99.49998474121095
 20
0.0
 30
0.0
 11
99.49998474121095
 21
-25.0
 31
0.0
  0
LINE
  5
A3
330
28
100
AcDbEntity
  8
0
  6
Continuous
 62
     3
100
AcDbLine
 10
99.50000000000001
 20
-25.0
 30
0.0
 11
-99.50000000000001
 21
-25.0
 31
0.0
  0
LINE
  5
A4
330
28
100
AcDbEntity
  8
0
  6
Continuous
 62
     3
100
AcDbLine
 10
99.50000000000001
 20
0.0
 30
0.0
 11
-99.50000000000001
 21
0.0
 31
0.0
  0
LINE
  5
A5
330
28
100
AcDbEntity
  8
0
  6
CENTER
 62
     7
100
AcDbLine
 10
128.3679504394531
 20
-12.5
 30
0.0
 11
-142.0103759765625
 21
-12.5
 31
0.0
  0
POINT
  5
A6
330
28
100
AcDbEntity
  8
0
  6
Continuous
 62
     7
100
AcDbPoint
 10
0.0
 20
0.0
 30
0.0
  0
ENDBLK
  5
A7
330
28
100
AcDbEntity
  8
0
370
    -2
100
AcDbBlockEnd
  0
BLOCK
  5
A8
330
29
100
AcDbEntity
  8
0
370
    -2
100
AcDbBlockBegin
  2
MS_4
 70
     0
 10
0.0
 20
0.0
 30
0.0
  3
MS_4
  1

  0
ELLIPSE
  5
A9
330
29
100
AcDbEntity
  8
0
  6
Continuous
 62
     3
100
AcDbEllipse
 10
117.6845245361328
 20
-12.49999952316284
 30
0.0
 11
-0.0029373168945303
 21
-8.500008106231689
 31
0.0
210
0.0
220
0.0
230
0.9999999999999998
 40
0.1735290667411301
 41
0.0
 42
6.283185307179586
  0
ELLIPSE
  5
AA
330
29
100
AcDbEntity
  8
0
  6
Continuous
 62
     3
100
AcDbEllipse
 10
97.98835754394531
 20
-12.49999952316284
 30
0.0
 11
-0.0029373168945303
 21
-8.500008106231689
 31
0.0
210
0.0
220
0.0
230
0.9999999999999998
 40
0.2305879076323504
 41
3.143109325882663
 42
6.284701978319281
  0
ELLIPSE
  5
AB
330
29
100
AcDbEntity
  8
0
  6
Continuous
 62
     3
100
AcDbEllipse
 10
97.98835754394531
 20
-12.49999952316284
 30
0.0
 11
-0.0029373168945303
 21
-8.500008106231689
 31
0.0
210
0.0
220
0.0
230
0.9999999999999998
 40
0.2305879076323504
 41
3.143109325882663
 42
6.284701978319281
  0
LINE
  5
AC
330
29
100
AcDbEntity
  8
0
  6
CENTER
 62
     7
100
AcDbLine
 10
0.0
 20
24.28472900390625
 30
0.0
 11
0.0
 21
-46.13069152832031
 31
0.0
  0
LINE
  5
AD
330
29
100
AcDbEntity
  8
0
  6
DASHED
 62
     7
100
AcDbLine
 10
91.69999694824218
 20
0.0
 30
0.0
 11
91.69999694824218
 21
-3.0
 31
0.0
  0
LINE
  5
AE
330
29
100
AcDbEntity
  8
0
  6
DASHED
 62
     7
100
AcDbLine
 10
87.5
 20
-3.0
 30
0.0
 11
91.69999694824218
 21
-3.0
 31
0.0
  0
LINE
  5
AF
330
29
100
AcDbEntity
  8
0
  6
DASHED
 62
     7
100
AcDbLine
 10
87.5
 20
0.0
 30
0.0
 11
87.5
 21
-3.0
 31
0.0
  0
LINE
  5
B0
330
29
100
AcDbEntity
  8
0
  6
DASHED
 62
     7
100
AcDbLine
 10
-91.69999694824218
 20
0.0
 30
0.0
 11
-91.69999694824218
 21
-3.0
 31
0.0
  0
LINE
  5
B1
330
29
100
AcDbEntity
  8
0
  6
DASHED
 62
     7
100
AcDbLine
 10
-91.69999694824218
 20
-3.0
 30
0.0
 11
-87.5
 21
-3.0
 31
0.0
  0
LINE
  5
B2
330
29
100
AcDbEntity
  8
0
  6
DASHED
 62
     7
100
AcDbLine
 10
-87.5
 20
0.0
 30
0.0
 11
-87.5
 21
-3.0
 31
0.0
  0
LINE
  5
B3
330
29
100
AcDbEntity
  8
0
  6
Continuous
 62
     3
100
AcDbLine
 10
-12.0
 20
-27.0
 30
0.0
 11
12.0
 21
-27.0
 31
0.0
  0
LINE
  5
B4
330
29
100
AcDbEntity
  8
0
  6
Continuous
 62
     3
100
AcDbLine
 10
-10.99998402916276
 20
-27.99998403732229
 30
0.0
 11
-11.99998559651499
 21
-26.99998348149552
 31
0.0
  0
LINE
  5
B5
330
29
100
AcDbEntity
  8
0
  6
Continuous
 62
     3
100
AcDbLine
 10
11.99998462712813
 20
-27.00000063527597
 30
0.0
 11
10.99999477659605
 21
-27.99999141302971
 31
0.0
  0
LINE
  5
B6
330
29
100
AcDbEntity
  8
0
  6
Continuous
 62
     3
100
AcDbLine
 10
12.0
 20
-25.0
 30
0.0
 11
12.0
 21
-27.0
 31
0.0
  0
LINE
  5
B7
330
29
100
AcDbEntity
  8
0
  6
Continuous
 62
     3
100
AcDbLine
 10
-12.0
 20
-25.0
 30
0.0
 11
-12.0
 21
-27.0
 31
0.0
  0
LINE
  5
B8
330
29
100
AcDbEntity
  8
0
  6
Continuous
 62
     3
100
AcDbLine
 10
-11.0
 20
-28.0
 30
0.0
 11
11.0
 21
-28.0
 31
0.0
  0
LINE
  5
B9
330
29
100
AcDbEntity
  8
0
  6
Continuous
 62
     3
100
AcDbLine
 10
99.50000000000001
 20
-21.0
 30
0.0
 11
99.50000000000001
 21
-25.0
 31
0.0
  0
LINE
  5
BA
330
29
100
AcDbEntity
  8
0
  6
CENTER
 62
     7
100
AcDbLine
 10
117.6845245361328
 20
-1.46978759765625
 30
0.0
 11
117.6845245361328
 21
-23.228759765625
 31
0.0
  0
LINE
  5
BB
330
29
100
AcDbEntity
  8
0
  6
Continuous
 62
     3
100
AcDbLine
 10
97.98835754394531
 20
-4.0
 30
0.0
 11
117.6845245361328
 21
-4.0
 31
0.0
  0
LINE
  5
BC
330
29
100
AcDbEntity
  8
0
  6
Continuous
 62
     3
100
AcDbLine
 10
97.98835754394531
 20
-21.0
 30
0.0
 11
117.6845245361328
 21
-21.0
 31
0.0
  0
LINE
  5
BD
330
29
100
AcDbEntity
  8
0
  6
Continuous
 62
     3
100
AcDbLine
 10
99.50000000000001
 20
0.0
 30
0.0
 11
99.50000000000001
 21
-4.0
 31
0.0
  0
LINE
  5
BE
330
29
100
AcDbEntity
  8
0
  6
Continuous
 62
     3
100
AcDbLine
 10
-99.49998474121095
 20
0.0
 30
0.0
 11
-99.49998474121095
 21
-25.0
 31
0.0
  0
LINE
  5
BF
330
29
100
AcDbEntity
  8
0
  6
Continuous
 62
     3
100
AcDbLine
 10
-99.50000000000001
 20
-25.0
 30
0.0
 11
99.50000000000001
 21
-25.0
 31
0.0
  0
LINE
  5
C0
330
29
100
AcDbEntity
  8
0
  6
Continuous
 62
     3
100
AcDbLine
 10
-99.50000000000001
 20
0.0
 30
0.0
 11
99.50000000000001
 21
0.0
 31
0.0
  0
LINE
  5
C1
330
29
100
AcDbEntity
  8
0
  6
CENTER
 62
     7
100
AcDbLine
 10
-128.3679504394531
 20
-12.5
 30
0.0
 11
142.0103759765625
 21
-12.5
 31
0.0
  0
POINT
  5
C2
330
29
100
AcDbEntity
  8
0
  6
Continuous
 62
     7
100
AcDbPoint
 10
0.0
 20
0.0
 30
0.0
  0
ENDBLK
  5
C3
330
29
100
AcDbEntity
  8
0
370
    -2
100
AcDbBlockEnd
  0
BLOCK
  5
C5
330
C4
100
AcDbEntity
  8
0
  6
ByBlock
 62
     0
370
    -2
100
AcDbBlockBegin
  2
*D4
 70
     1
 10
0.0
 20
0.0
 30
0.0
  3
*D4
  1

  0
LINE
  5
C6
330
C4
100
AcDbEntity
  8
0
  6
Continuous
 62
     7
100
AcDbLine
 10
279.4999794781201
 20
-44.83659065377296
 30
0.0
 11
0.0
 21
-44.83658302437964
 31
0.0
  0
LINE
  5
C7
330
C4
100
AcDbEntity
  8
0
  6
Continuous
 62
     7
100
AcDbLine
 10
279.4999794781201
 20
-197.2060009910822
 30
0.0
 11
279.4999794781201
 21
-42.55057830395382
 31
0.0
  0
LINE
  5
C8
330
C4
100
AcDbEntity
  8
0
  6
Continuous
 62
     7
100
AcDbLine
 10
0.0000011476186736
 20
-2.794000898501323
 30
0.0
 11
-0.0000000623999944
 21
-47.12258354863827
 31
0.0
  0
INSERT
  5
CF
330
C4
100
AcDbEntity
  8
0
  6
Continuous
 62
     7
100
AcDbBlockReference
  2
_Open30
 10
279.4999794781201
 20
-44.83659065377296
 30
0.0
 41
6.094000217938431
 42
6.094000217938431
 43
6.094000217938431
 50
359.9999984360212
  0
INSERT
  5
D0
330
C4
100
AcDbEntity
  8
0
  6
Continuous
 62
     7
100
AcDbBlockReference
  2
_Open30
 10
0.0
 20
-44.83658302437964
 30
0.0
 41
6.094000217938431
 42
6.094000217938431
 43
6.094000217938431
 50
179.9999984360212
  0
MTEXT
  5
D2
330
C4
100
AcDbEntity
  8
0
  6
Continuous
 62
     7
100
AcDbMText
 10
139.7499949220864
 20
-38.05268852899096
 30
0.0
 40
9.167796462814681
 41
0.0
 71
     5
 72
     1
  1
\A1;280
  7
MX_DIMTXSTY_2
 11
0.9999999999999996
 21
-0.0000000272965793
 31
0.0
 73
     1
 44
0.9000000901137655
1001
ACAD
1000
MTEXTBEGIN
1070
    73
1070
     1
1070
    44
1040
0.9000000901137655
1070
    74
1070
     0
1000
MTEXTEND
  0
POINT
  5
D3
330
C4
100
AcDbEntity
  8
DEFPOINTS
  6
Continuous
 62
     0
100
AcDbPoint
 10
279.4999794781201
 20
-200.0000010490418
 30
0.0
  0
POINT
  5
D4
330
C4
100
AcDbEntity
  8
DEFPOINTS
  6
Continuous
 62
     0
100
AcDbPoint
 10
0.0000012238853173
 20
-0.000000840541766
 30
0.0
  0
POINT
  5
D5
330
C4
100
AcDbEntity
  8
DEFPOINTS
  6
Continuous
 62
     0
100
AcDbPoint
 10
0.0
 20
-44.83658302437964
 30
0.0
  0
ENDBLK
  5
D6
330
C4
100
AcDbEntity
  8
0
  6
ByBlock
 62
     0
370
    -2
100
AcDbBlockEnd
  0
BLOCK
  5
1D6
330
C9
100
AcDbEntity
  8
0
100
AcDbBlockBegin
  2
_Open30
 70
     0
 10
0.0
 20
0.0
 30
0.0
  3
_Open30
  1

  0
LINE
  5
1D7
330
C9
100
AcDbEntity
  8
0
  6
ByBlock
 62
     0
370
    -2
100
AcDbLine
 10
-1.0
 20
0.26794919
 30
0.0
 11
0.0
 21
0.0
 31
0.0
  0
LINE
  5
1D8
330
C9
100
AcDbEntity
  8
0
  6
ByBlock
 62
     0
370
    -2
100
AcDbLine
 10
0.0
 20
0.0
 30
0.0
 11
-1.0
 21
-0.26794919
 31
0.0
  0
LINE
  5
1D9
330
C9
100
AcDbEntity
  8
0
  6
ByBlock
 62
     0
370
    -2
100
AcDbLine
 10
0.0
 20
0.0
 30
0.0
 11
-1.0
 21
0.0
 31
0.0
  0
ENDBLK
  5
1DA
330
C9
100
AcDbEntity
  8
0
100
AcDbBlockEnd
  0
BLOCK
  5
D9
330
D8
100
AcDbEntity
  8
0
  6
ByBlock
 62
     0
370
    -2
100
AcDbBlockBegin
  2
*D6
 70
     1
 10
0.0
 20
0.0
 30
0.0
  3
*D6
  1

  0
LINE
  5
DA
330
D8
100
AcDbEntity
  8
0
  6
Continuous
 62
     7
100
AcDbLine
 10
-279.4999794781201
 20
-34.58824166971045
 30
0.0
 11
0.0
 21
-34.58823785501378
 31
0.0
  0
LINE
  5
DB
330
D8
100
AcDbEntity
  8
0
  6
Continuous
 62
     7
100
AcDbLine
 10
-279.4999772586658
 20
-197.2060000346024
 30
0.0
 11
-279.49997950932
 21
-32.30224140771227
 31
0.0
  0
LINE
  5
DC
330
D8
100
AcDbEntity
  8
0
  6
Continuous
 62
     7
100
AcDbLine
 10
0.0000000000000002
 20
-2.794000057959558
 30
0.0
 11
0.0
 21
-36.87423837927241
 31
0.0
  0
INSERT
  5
DD
330
D8
100
AcDbEntity
  8
0
  6
Continuous
 62
     7
100
AcDbBlockReference
  2
_Open30
 10
-279.4999794781201
 20
-34.58824166971045
 30
0.0
 41
6.094000217938431
 42
6.094000217938431
 43
6.094000217938431
 50
180.0000007819894
  0
INSERT
  5
DE
330
D8
100
AcDbEntity
  8
0
  6
Continuous
 62
     7
100
AcDbBlockReference
  2
_Open30
 10
0.0
 20
-34.58823785501378
 30
0.0
 41
6.094000217938431
 42
6.094000217938431
 43
6.094000217938431
 50
0.0000007819893934
  0
MTEXT
  5
DF
330
D8
100
AcDbEntity
  8
0
  6
Continuous
 62
     7
100
AcDbMText
 10
-139.7499948294977
 20
-27.80434145227671
 30
0.0
 40
9.167796462814681
 41
0.0
 71
     5
 72
     1
  1
\A1;280
  7
MX_DIMTXSTY_2
 11
0.9999999999999998
 21
0.0000000136482896
 31
0.0
 73
     1
 44
0.9000000901137655
1001
ACAD
1000
MTEXTBEGIN
1070
    73
1070
     1
1070
    44
1040
0.9000000901137655
1070
    74
1070
     0
1000
MTEXTEND
  0
POINT
  5
E0
330
D8
100
AcDbEntity
  8
DEFPOINTS
  6
Continuous
 62
     0
100
AcDbPoint
 10
-279.4999772205325
 20
-200.000000092562
 30
0.0
  0
POINT
  5
E1
330
D8
100
AcDbEntity
  8
DEFPOINTS
  6
Continuous
 62
     0
100
AcDbPoint
 10
0.0
 20
0.0
 30
0.0
  0
POINT
  5
E2
330
D8
100
AcDbEntity
  8
DEFPOINTS
  6
Continuous
 62
     0
100
AcDbPoint
 10
0.0
 20
-34.58823785501378
 30
0.0
  0
ENDBLK
  5
E3
330
D8
100
AcDbEntity
  8
0
  6
ByBlock
 62
     0
370
    -2
100
AcDbBlockEnd
  0
ENDSEC
  0
SECTION
  2
ENTITIES
  0
DIMENSION
  5
D7
330
A
100
AcDbEntity
  8
PV
  6
Continuous
 62
     7
 60
     1
100
AcDbDimension
  2
*D4
 10
0.0
 20
-44.83658302437964
 30
0.0
 11
139.7499947369091
 21
-44.83658683907644
 31
0.0
 70
   160
  1
<>
 71
     5
 41
0.9000000901137655
 42
279.5
  3
MXDIMSTYLE
100
AcDbAlignedDimension
 13
279.4999794781201
 23
-200.0000010490418
 33
0.0
 14
0.0000012238853173
 24
-0.000000840541766
 34
0.0
100
AcDbRotatedDimension
1001
ACAD
1000
DSTYLE
1002
{
1070
     6
1000
_OPEN30
1070
     7
1000
_OPEN30
1070
    41
1040
2.77
1070
    44
1040
1.039096485484076
1070
   140
1040
4.167180061340332
1070
   144
1040
1.000000073423546
1070
   173
1070
     1
1070
   271
1070
     0
1070
   284
1070
     8
1070
   340
1005
D1
1070
   341
1005
C9
1002
}
  0
DIMENSION
  5
E4
330
A
100
AcDbEntity
  8
PV
  6
Continuous
 62
     7
 60
     1
100
AcDbDimension
  2
*D6
 10
0.0
 20
-34.58823785501378
 30
0.0
 11
-139.7499947369091
 21
-34.58823976236219
 31
0.0
 70
   160
  1
<>
 71
     5
 41
0.9000000901137655
 42
279.5
  3
MXDIMSTYLE
100
AcDbAlignedDimension
 13
-279.4999772205325
 23
-200.000000092562
 33
0.0
 14
0.0
 24
0.0
 34
0.0
100
AcDbRotatedDimension
1001
ACAD
1000
DSTYLE
1002
{
1070
     6
1000
_OPEN30
1070
     7
1000
_OPEN30
1070
    41
1040
2.77
1070
    44
1040
1.0390909910202
1070
   140
1040
4.167180061340332
1070
   144
1040
1.000000073423547
1070
   173
1070
     1
1070
   271
1070
     0
1070
   284
1070
     8
1070
   340
1005
D1
1070
   341
1005
C9
1002
}
  0
INSERT
  5
E5
330
A
100
AcDbEntity
  8
PV
  6
ByBlock
100
AcDbBlockReference
  2
MS_4
 10
-168.1460234694251
 20
-246.8248959121071
 30
0.0
  0
INSERT
  5
E6
330
A
100
AcDbEntity
  8
PV
  6
ByBlock
100
AcDbBlockReference
  2
MS_3
 10
426.0391662373244
 20
-246.8248959121071
 30
0.0
  0
INSERT
  5
E7
330
A
100
AcDbEntity
  8
PV
  6
ByBlock
100
AcDbBlockReference
  2
MS_2
 10
128.9465713839497
 20
-26.82492161363083
 30
0.0
  0
INSERT
  5
E8
330
A
100
AcDbEntity
  8
PV
  6
ByBlock
100
AcDbBlockReference
  2
MS_1
 10
128.9465713839497
 20
-246.8248959121071
 30
0.0
  0
MTEXT
  5
E9
330
A
100
AcDbEntity
  8
PV
  6
Continuous
 62
     7
100
AcDbMText
 10
291.2342910572471
 20
68.6366052378394
 30
0.0
 40
11.00000039339067
 41
0.0
 71
     1
 72
     1
  1
\W1.385;\A1;90.02.03.
 73
     1
 44
0.9000000214576726
1001
ACAD
1000
MTEXTBEGIN
1070
    73
1070
     1
1070
    44
1040
0.9000000214576726
1070
    74
1070
     0
1000
MTEXTEND
  0
MTEXT
  5
EA
330
A
100
AcDbEntity
  8
PV
  6
Continuous
 62
     7
100
AcDbMText
 10
288.2345390663705
 20
96.93663066398968
 30
0.0
 40
17.60000062942507
 41
0.0
 71
     1
 72
     1
  1
\W0.968;\A1;BW-06
 73
     1
 44
0.9000000214576726
1001
ACAD
1000
MTEXTBEGIN
1070
    73
1070
     1
1070
    44
1040
0.9000000214576726
1070
    74
1070
     0
1000
MTEXTEND
  0
MTEXT
  5
EB
330
A
100
AcDbEntity
  8
PV
  6
Continuous
 62
     7
100
AcDbMText
 10
125.2799045861528
 20
-183.4167820721906
 30
0.0
 40
11.00000039339067
 41
0.0
 71
     1
 72
     1
  1
\A1;#2
 73
     1
 44
0.9000000214576726
1001
ACAD
1000
MTEXTBEGIN
1070
    73
1070
     1
1070
    44
1040
0.9000000214576726
1070
    74
1070
     0
1000
MTEXTEND
  0
MTEXT
  5
EC
330
A
100
AcDbEntity
  8
PV
  6
Continuous
 62
     7
100
AcDbMText
 10
422.3724994395276
 20
-319.1378471066183
 30
0.0
 40
11.00000039339067
 41
0.0
 71
     1
 72
     1
  1
\A1;#3
 73
     1
 44
0.9000000214576726
1001
ACAD
1000
MTEXTBEGIN
1070
    73
1070
     1
1070
    44
1040
0.9000000214576726
1070
    74
1070
     0
1000
MTEXTEND
  0
MTEXT
  5
ED
330
A
100
AcDbEntity
  8
PV
  6
Continuous
 62
     7
100
AcDbMText
 10
125.6465712397064
 20
-319.1378471066183
 30
0.0
 40
11.00000039339067
 41
0.0
 71
     1
 72
     1
  1
\W1.200;\A1;#1
 73
     1
 44
0.9000000214576726
1001
ACAD
1000
MTEXTBEGIN
1070
    73
1070
     1
1070
    44
1040
0.9000000214576726
1070
    74
1070
     0
1000
MTEXTEND
  0
MTEXT
  5
EE
330
A
100
AcDbEntity
  8
PV
  6
Continuous
 62
     7
100
AcDbMText
 10
-171.812690267222
 20
-319.1378471066183
 30
0.0
 40
11.00000039339067
 41
0.0
 71
     1
 72
     1
  1
\A1;#4
 73
     1
 44
0.9000000214576726
1001
ACAD
1000
MTEXTBEGIN
1070
    73
1070
     1
1070
    44
1040
0.9000000214576726
1070
    74
1070
     0
1000
MTEXTEND
  0
LINE
  5
EF
330
A
100
AcDbEntity
  8
PV
  6
Continuous
 62
     3
 60
     1
100
AcDbLine
 10
-253803.4215767177
 20
73.49999652504909
 30
0.0
 11
254196.3965907716
 21
73.49999652504909
 31
0.0
  0
LINE
  5
F1
330
A
100
AcDbEntity
  8
DEFPOINTS
  6
NON_PLOTING
 62
     3
100
AcDbLine
 10
-318.5515250641653
 20
-421.581493958765
 30
0.0
 11
605.448507980651
 21
-421.581493958765
 31
0.0
  0
LINE
  5
F2
330
A
100
AcDbEntity
  8
DEFPOINTS
  6
NON_PLOTING
 62
     3
100
AcDbLine
 10
605.448507980651
 20
231.8185294086407
 30
0.0
 11
605.448507980651
 21
-421.581493958765
 31
0.0
  0
POINT
  5
F3
330
A
100
AcDbEntity
  8
FV
  6
Continuous
 62
     7
100
AcDbPoint
 10
605.448507980651
 20
-421.581493958765
 30
0.0
  0
ENDSEC
  0
SECTION
  2
OBJECTS
  0
DICTIONARY
  5
19
330
0
100
AcDbDictionary
281
     1
  3
ACAD_COLOR
350
122
  3
ACAD_GROUP
350
1A
  3
ACAD_LAYOUT
350
1E
  3
ACAD_MATERIAL
350
F5
  3
ACAD_MLEADERSTYLE
350
137
  3
ACAD_MLINESTYLE
350
1B
  3
ACAD_PLOTSETTINGS
350
22
  3
ACAD_PLOTSTYLENAME
350
1F
  3
ACAD_SCALELIST
350
125
  3
ACAD_TABLESTYLE
350
123
  3
ACAD_VISUALSTYLE
350
10E
  3
ACDB_RECOMPOSE_DATA
350
21F
  3
AcDbVariableDictionary
350
215
  3
AcmDictionary
350
1AB
  3
AMG
350
13D
  3
AMGSNAPSETTINGS
350
20E
  3
DWGPROPS
350
220
  0
DICTIONARY
  5
208
330
14
100
AcDbDictionary
280
     1
281
     1
  3
ADSK_XREC_LAYER_RECONCILED
360
209
  0
DICTIONARY
  5
20A
330
24
100
AcDbDictionary
280
     1
281
     1
  3
ADSK_XREC_LAYER_RECONCILED
360
20B
  0
DICTIONARY
  5
20C
330
25
100
AcDbDictionary
280
     1
281
     1
  3
ADSK_XREC_LAYER_RECONCILED
360
20D
  0
DICTIONARY
  5
122
102
{ACAD_REACTORS
330
19
102
}
330
19
100
AcDbDictionary
281
     1
  0
DICTIONARY
  5
1A
102
{ACAD_REACTORS
330
19
102
}
330
19
100
AcDbDictionary
281
     1
  0
DICTIONARY
  5
1E
102
{ACAD_REACTORS
330
19
102
}
330
19
100
AcDbDictionary
281
     1
  3
Layout1
350
21
  3
Model
350
20
  0
DICTIONARY
  5
F5
102
{ACAD_REACTORS
330
19
102
}
330
19
100
AcDbDictionary
281
     1
  3
ByBlock
350
FE
  3
ByLayer
350
F6
  3
Global
350
106
  0
DICTIONARY
  5
137
102
{ACAD_REACTORS
330
19
102
}
330
19
100
AcDbDictionary
281
     1
  3
Standard
350
138
  0
DICTIONARY
  5
1B
102
{ACAD_REACTORS
330
19
102
}
330
19
100
AcDbDictionary
281
     1
  3
Standard
350
1C
  0
DICTIONARY
  5
22
102
{ACAD_REACTORS
330
19
102
}
330
19
100
AcDbDictionary
281
     1
  0
ACDBDICTIONARYWDFLT
  5
1F
102
{ACAD_REACTORS
330
19
102
}
330
19
100
AcDbDictionary
281
     1
  3
Normal
350
1D
100
AcDbDictionaryWithDefault
340
1D
  0
DICTIONARY
  5
125
102
{ACAD_REACTORS
330
19
102
}
330
19
100
AcDbDictionary
281
     1
  3
A0
350
126
  3
A1
350
127
  3
A2
350
128
  3
A3
350
129
  3
A4
350
12A
  3
A5
350
12B
  3
A6
350
12C
  3
A7
350
12D
  3
A8
350
12E
  3
A9
350
12F
  3
B0
350
130
  3
B1
350
131
  3
B2
350
132
  3
B3
350
133
  3
B4
350
134
  3
B5
350
135
  3
B6
350
136
  0
DICTIONARY
  5
123
102
{ACAD_REACTORS
330
19
102
}
330
19
100
AcDbDictionary
281
     1
  3
Standard
350
124
  0
DICTIONARY
  5
10E
102
{ACAD_REACTORS
330
19
102
}
330
19
100
AcDbDictionary
281
     1
  3
2dWireframe
350
114
  3
3D Hidden
350
116
  3
3dWireframe
350
115
  3
Basic
350
113
  3
Brighten
350
11A
  3
ColorChange
350
11E
  3
Conceptual
350
117
  3
Dim
350
119
  3
EdgeColorOff
350
121
  3
Facepattern
350
11D
  3
Flat
350
10F
  3
FlatWithEdges
350
110
  3
Gouraud
350
111
  3
GouraudWithEdges
350
112
  3
JitterOff
350
11F
  3
Linepattern
350
11C
  3
OverhangOff
350
120
  3
Realistic
350
118
  3
Thicken
350
11B
  0
XRECORD
  5
21F
102
{ACAD_REACTORS
330
19
102
}
330
19
100
AcDbXrecord
280
     1
 90
        1
330
124
  0
DICTIONARY
  5
215
102
{ACAD_REACTORS
330
19
102
}
330
19
100
AcDbDictionary
281
     1
  3
CANNOSCALE
350
218
  3
CMLEADERSTYLE
350
217
  3
CTABLESTYLE
350
216
  3
DIMASSOC
350
21B
  3
INDEXCTL
350
21A
  3
SORTENTS
350
219
  3
XCLIPFRAME
350
21C
  0
DICTIONARY
  5
1AB
102
{ACAD_REACTORS
330
19
102
}
330
19
100
AcDbDictionary
281
     1
  3
AcmStdDictionary
350
1AC
  0
DICTIONARY
  5
13D
102
{ACAD_REACTORS
330
19
102
}
330
19
100
AcDbDictionary
281
     1
  0
DICTIONARY
  5
20E
102
{ACAD_REACTORS
330
19
102
}
330
19
100
AcDbDictionary
281
     1
  0
XRECORD
  5
220
102
{ACAD_REACTORS
330
19
102
}
330
19
100
AcDbXrecord
280
     1
  1
DWGPROPS COOKIE
  2

  3

  4

  6

  7

  8
UJ35116
  9

300
=
301
=
302
=
303
=
304
=
305
=
306
=
307
=
308
=
309
=
 40
0.0001917013888889
 41
2455002.701076389
 42
2455299.838898426
  1

 90
        0
  0
XRECORD
  5
209
102
{ACAD_REACTORS
330
208
102
}
330
208
100
AcDbXrecord
280
     1
290
     1
  0
XRECORD
  5
20B
102
{ACAD_REACTORS
330
20A
102
}
330
20A
100
AcDbXrecord
280
     1
290
     1
  0
XRECORD
  5
20D
102
{ACAD_REACTORS
330
20C
102
}
330
20C
100
AcDbXrecord
280
     1
290
     1
  0
LAYOUT
  5
21
102
{ACAD_XDICTIONARY
360
223
102
}
102
{ACAD_REACTORS
330
1E
102
}
330
1E
100
AcDbPlotSettings
  1

  2

  4

  6

 40
0.0
 41
0.0
 42
0.0
 43
0.0
 44
0.0
 45
0.0
 46
0.0
 47
0.0
 48
0.0
 49
0.0
140
0.0
141
0.0
142
1.0
143
1.0
 70
     0
 72
     0
 73
     0
 74
     0
  7

 75
     0
147
1.0
148
0.0
149
0.0
100
AcDbLayout
  1
Layout1
 70
     0
 71
     1
 10
0.0
 20
0.0
 11
12.0
 21
9.0
 12
0.0
 22
0.0
 32
0.0
 14
1.000000000000000E+20
 24
1.000000000000000E+20
 34
1.000000000000000E+20
 15
-1.000000000000000E+20
 25
-1.000000000000000E+20
 35
-1.000000000000000E+20
146
0.0
 13
0.0
 23
0.0
 33
0.0
 16
1.0
 26
0.0
 36
0.0
 17
0.0
 27
1.0
 37
0.0
 76
     0
330
B
  0
LAYOUT
  5
20
102
{ACAD_XDICTIONARY
360
221
102
}
102
{ACAD_REACTORS
330
1E
102
}
330
1E
100
AcDbPlotSettings
  1

  2

  4

  6

 40
0.0
 41
0.0
 42
0.0
 43
0.0
 44
0.0
 45
0.0
 46
0.0
 47
0.0
 48
0.0
 49
0.0
140
0.0
141
0.0
142
1.0
143
1.0
 70
  1024
 72
     0
 73
     0
 74
     0
  7

 75
     0
147
1.0
148
0.0
149
0.0
100
AcDbLayout
  1
Model
 70
     0
 71
     0
 10
0.0
 20
0.0
 11
0.0
 21
0.0
 12
0.0
 22
0.0
 32
0.0
 14
0.0
 24
0.0
 34
0.0
 15
0.0
 25
0.0
 35
0.0
146
0.0
 13
0.0
 23
0.0
 33
0.0
 16
0.0
 26
0.0
 36
0.0
 17
0.0
 27
0.0
 37
0.0
 76
     0
330
A
331
15
  0
MATERIAL
  5
FE
102
{ACAD_XDICTIONARY
360
FF
102
}
102
{ACAD_REACTORS
330
F5
102
}
330
F5
100
AcDbMaterial
  1
ByBlock
 72
     0
 43
0.0208333333333333
 43
0.0
 43
0.0
 43
0.0
 43
0.0
 43
0.0208333333333333
 43
0.0
 43
0.0
 43
0.0
 43
0.0
 43
1.0
 43
0.0
 43
0.0
 43
0.0
 43
0.0
 43
1.0
 77
     0
 47
0.0208333333333333
 47
0.0
 47
0.0
 47
0.0
 47
0.0
 47
0.0208333333333333
 47
0.0
 47
0.0
 47
0.0
 47
0.0
 47
1.0
 47
0.0
 47
0.0
 47
0.0
 47
0.0
 47
1.0
171
     0
 49
0.0208333333333333
 49
0.0
 49
0.0
 49
0.0
 49
0.0
 49
0.0208333333333333
 49
0.0
 49
0.0
 49
0.0
 49
0.0
 49
1.0
 49
0.0
 49
0.0
 49
0.0
 49
0.0
 49
1.0
175
     0
142
0.0208333333333333
142
0.0
142
0.0
142
0.0
142
0.0
142
0.0208333333333333
142
0.0
142
0.0
142
0.0
142
0.0
142
1.0
142
0.0
142
0.0
142
0.0
142
0.0
142
1.0
179
     0
144
0.0208333333333333
144
0.0
144
0.0
144
0.0
144
0.0
144
0.0208333333333333
144
0.0
144
0.0
144
0.0
144
0.0
144
1.0
144
0.0
144
0.0
144
0.0
144
0.0
144
1.0
147
0.0208333333333333
147
0.0
147
0.0
147
0.0
147
0.0
147
0.0208333333333333
147
0.0
147
0.0
147
0.0
147
0.0
147
1.0
147
0.0
147
0.0
147
0.0
147
0.0
147
1.0
  0
MATERIAL
  5
F6
102
{ACAD_XDICTIONARY
360
F7
102
}
102
{ACAD_REACTORS
330
F5
102
}
330
F5
100
AcDbMaterial
  1
ByLayer
 72
     0
 43
0.0208333333333333
 43
0.0
 43
0.0
 43
0.0
 43
0.0
 43
0.0208333333333333
 43
0.0
 43
0.0
 43
0.0
 43
0.0
 43
1.0
 43
0.0
 43
0.0
 43
0.0
 43
0.0
 43
1.0
 77
     0
 47
0.0208333333333333
 47
0.0
 47
0.0
 47
0.0
 47
0.0
 47
0.0208333333333333
 47
0.0
 47
0.0
 47
0.0
 47
0.0
 47
1.0
 47
0.0
 47
0.0
 47
0.0
 47
0.0
 47
1.0
171
     0
 49
0.0208333333333333
 49
0.0
 49
0.0
 49
0.0
 49
0.0
 49
0.0208333333333333
 49
0.0
 49
0.0
 49
0.0
 49
0.0
 49
1.0
 49
0.0
 49
0.0
 49
0.0
 49
0.0
 49
1.0
175
     0
142
0.0208333333333333
142
0.0
142
0.0
142
0.0
142
0.0
142
0.0208333333333333
142
0.0
142
0.0
142
0.0
142
0.0
142
1.0
142
0.0
142
0.0
142
0.0
142
0.0
142
1.0
179
     0
144
0.0208333333333333
144
0.0
144
0.0
144
0.0
144
0.0
144
0.0208333333333333
144
0.0
144
0.0
144
0.0
144
0.0
144
1.0
144
0.0
144
0.0
144
0.0
144
0.0
144
1.0
147
0.0208333333333333
147
0.0
147
0.0
147
0.0
147
0.0
147
0.0208333333333333
147
0.0
147
0.0
147
0.0
147
0.0
147
1.0
147
0.0
147
0.0
147
0.0
147
0.0
147
1.0
  0
MATERIAL
  5
106
102
{ACAD_XDICTIONARY
360
107
102
}
102
{ACAD_REACTORS
330
F5
102
}
330
F5
100
AcDbMaterial
  1
Global
 72
     0
 43
0.0208333333333333
 43
0.0
 43
0.0
 43
0.0
 43
0.0
 43
0.0208333333333333
 43
0.0
 43
0.0
 43
0.0
 43
0.0
 43
1.0
 43
0.0
 43
0.0
 43
0.0
 43
0.0
 43
1.0
 77
     0
 47
0.0208333333333333
 47
0.0
 47
0.0
 47
0.0
 47
0.0
 47
0.0208333333333333
 47
0.0
 47
0.0
 47
0.0
 47
0.0
 47
1.0
 47
0.0
 47
0.0
 47
0.0
 47
0.0
 47
1.0
171
     0
 49
0.0208333333333333
 49
0.0
 49
0.0
 49
0.0
 49
0.0
 49
0.0208333333333333
 49
0.0
 49
0.0
 49
0.0
 49
0.0
 49
1.0
 49
0.0
 49
0.0
 49
0.0
 49
0.0
 49
1.0
175
     0
142
0.0208333333333333
142
0.0
142
0.0
142
0.0
142
0.0
142
0.0208333333333333
142
0.0
142
0.0
142
0.0
142
0.0
142
1.0
142
0.0
142
0.0
142
0.0
142
0.0
142
1.0
179
     0
144
0.0208333333333333
144
0.0
144
0.0
144
0.0
144
0.0
144
0.0208333333333333
144
0.0
144
0.0
144
0.0
144
0.0
144
1.0
144
0.0
144
0.0
144
0.0
144
0.0
144
1.0
147
0.0208333333333333
147
0.0
147
0.0
147
0.0
147
0.0
147
0.0208333333333333
147
0.0
147
0.0
147
0.0
147
0.0
147
1.0
147
0.0
147
0.0
147
0.0
147
0.0
147
1.0
  0
MLEADERSTYLE
  5
138
102
{ACAD_REACTORS
330
137
102
}
330
137
100
AcDbMLeaderStyle
170
     2
171
     1
172
     0
 90
        2
 40
0.0
 41
0.0
173
     1
 91
-1056964608
340
11
 92
       -2
290
     1
 42
2.0
291
     1
 43
0.36
  3
Standard
 44
4.0
300

342
17
174
     1
178
     6
175
     1
176
     0
 93
-1056964608
 45
4.0
292
     0
297
     0
 46
4.0
 94
-1056964608
 47
1.0
 49
1.0
140
1.0
293
     1
141
0.0
294
     1
177
     0
142
1.0
295
     0
296
     0
143
0.125
1001
ACAD_MLEADERVER
1070
     2
  0
MLINESTYLE
  5
1C
102
{ACAD_REACTORS
330
1B
102
}
330
1B
100
AcDbMlineStyle
  2
STANDARD
 70
     0
  3

 62
     0
 51
90.0
 52
90.0
 71
     2
 49
0.5
 62
   256
  6
BYLAYER
 49
-0.5
 62
   256
  6
BYLAYER
  0
ACDBPLACEHOLDER
  5
1D
102
{ACAD_REACTORS
330
1F
102
}
330
1F
  0
SCALE
  5
126
102
{ACAD_REACTORS
330
125
102
}
330
125
100
AcDbScale
 70
     0
300
1:1
140
1.0
141
1.0
290
     1
  0
SCALE
  5
127
102
{ACAD_REACTORS
330
125
102
}
330
125
100
AcDbScale
 70
     0
300
1:2
140
1.0
141
2.0
290
     0
  0
SCALE
  5
128
102
{ACAD_REACTORS
330
125
102
}
330
125
100
AcDbScale
 70
     0
300
1:4
140
1.0
141
4.0
290
     0
  0
SCALE
  5
129
102
{ACAD_REACTORS
330
125
102
}
330
125
100
AcDbScale
 70
     0
300
1:5
140
1.0
141
5.0
290
     0
  0
SCALE
  5
12A
102
{ACAD_REACTORS
330
125
102
}
330
125
100
AcDbScale
 70
     0
300
1:8
140
1.0
141
8.0
290
     0
  0
SCALE
  5
12B
102
{ACAD_REACTORS
330
125
102
}
330
125
100
AcDbScale
 70
     0
300
1:10
140
1.0
141
10.0
290
     0
  0
SCALE
  5
12C
102
{ACAD_REACTORS
330
125
102
}
330
125
100
AcDbScale
 70
     0
300
1:16
140
1.0
141
16.0
290
     0
  0
SCALE
  5
12D
102
{ACAD_REACTORS
330
125
102
}
330
125
100
AcDbScale
 70
     0
300
1:20
140
1.0
141
20.0
290
     0
  0
SCALE
  5
12E
102
{ACAD_REACTORS
330
125
102
}
330
125
100
AcDbScale
 70
     0
300
1:30
140
1.0
141
30.0
290
     0
  0
SCALE
  5
12F
102
{ACAD_REACTORS
330
125
102
}
330
125
100
AcDbScale
 70
     0
300
1:40
140
1.0
141
40.0
290
     0
  0
SCALE
  5
130
102
{ACAD_REACTORS
330
125
102
}
330
125
100
AcDbScale
 70
     0
300
1:50
140
1.0
141
50.0
290
     0
  0
SCALE
  5
131
102
{ACAD_REACTORS
330
125
102
}
330
125
100
AcDbScale
 70
     0
300
1:100
140
1.0
141
100.0
290
     0
  0
SCALE
  5
132
102
{ACAD_REACTORS
330
125
102
}
330
125
100
AcDbScale
 70
     0
300
2:1
140
2.0
141
1.0
290
     0
  0
SCALE
  5
133
102
{ACAD_REACTORS
330
125
102
}
330
125
100
AcDbScale
 70
     0
300
4:1
140
4.0
141
1.0
290
     0
  0
SCALE
  5
134
102
{ACAD_REACTORS
330
125
102
}
330
125
100
AcDbScale
 70
     0
300
8:1
140
8.0
141
1.0
290
     0
  0
SCALE
  5
135
102
{ACAD_REACTORS
330
125
102
}
330
125
100
AcDbScale
 70
     0
300
10:1
140
10.0
141
1.0
290
     0
  0
SCALE
  5
136
102
{ACAD_REACTORS
330
125
102
}
330
125
100
AcDbScale
 70
     0
300
100:1
140
100.0
141
1.0
290
     0
  0
TABLESTYLE
  5
124
102
{ACAD_XDICTIONARY
360
21D
102
}
102
{ACAD_REACTORS
330
123
102
}
330
123
100
AcDbTableStyle
  3
Standard
 70
     0
 71
     0
 40
1.5
 41
1.5
280
     0
281
     0
  7
MX_NOTE_STANDARD
140
4.5
170
     2
 62
     0
 63
     7
283
     0
274
    -2
284
     1
 64
     0
275
    -2
285
     1
 65
     0
276
    -2
286
     1
 66
     0
277
    -2
287
     1
 67
     0
278
    -2
288
     1
 68
     0
279
    -2
289
     1
 69
     0
  7
MX_NOTE_STANDARD
140
6.0
170
     5
 62
     0
 63
     7
283
     0
274
    -2
284
     1
 64
     0
275
    -2
285
     1
 65
     0
276
    -2
286
     1
 66
     0
277
    -2
287
     1
 67
     0
278
    -2
288
     1
 68
     0
279
    -2
289
     1
 69
     0
  7
MX_NOTE_STANDARD
140
4.5
170
     5
 62
     0
 63
     7
283
     0
274
    -2
284
     1
 64
     0
275
    -2
285
     1
 65
     0
276
    -2
286
     1
 66
     0
277
    -2
287
     1
 67
     0
278
    -2
288
     1
 68
     0
279
    -2
289
     1
 69
     0
  0
VISUALSTYLE
  5
114
102
{ACAD_XDICTIONARY
360
232
102
}
102
{ACAD_REACTORS
330
10E
102
}
330
10E
100
AcDbVisualStyle
  2
2dWireframe
 70
     4
 71
     0
 72
     2
 73
     0
 90
        0
 40
-0.6
 41
-30.0
 62
     5
 63
     7
 74
     1
 91
        4
 64
     7
 65
   257
 75
     1
175
     1
 42
1.0
 92
        0
 66
   257
 43
1.0
 76
     1
 77
     6
 78
     2
 67
     7
 79
     5
170
     0
171
     0
290
     0
174
     0
 93
        1
 44
0.0
173
     0
291
     0
 45
0.0
1001
ACAD
1000
AcDbSavedByObjectVersion
1070
     0
  0
VISUALSTYLE
  5
116
102
{ACAD_XDICTIONARY
360
236
102
}
102
{ACAD_REACTORS
330
10E
102
}
330
10E
100
AcDbVisualStyle
  2
3D Hidden
 70
     6
 71
     1
 72
     2
 73
     2
 90
        0
 40
-0.6
 41
-30.0
 62
     5
 63
     7
 74
     2
 91
        2
 64
     7
 65
   257
 75
     2
175
     1
 42
179.0
 92
        0
 66
   257
 43
1.0
 76
     1
 77
     6
 78
     2
 67
     7
 79
     3
170
     0
171
     0
290
     0
174
     0
 93
        1
 44
0.0
173
     0
291
     0
 45
0.0
1001
ACAD
1000
AcDbSavedByObjectVersion
1070
     0
  0
VISUALSTYLE
  5
115
102
{ACAD_XDICTIONARY
360
234
102
}
102
{ACAD_REACTORS
330
10E
102
}
330
10E
100
AcDbVisualStyle
  2
3dWireframe
 70
     5
 71
     0
 72
     2
 73
     0
 90
        0
 40
-0.6
 41
-30.0
 62
     5
 63
     7
 74
     1
 91
        4
 64
     7
 65
   257
 75
     1
175
     1
 42
1.0
 92
        0
 66
   257
 43
1.0
 76
     1
 77
     6
 78
     2
 67
     7
 79
     5
170
     0
171
     0
290
     0
174
     0
 93
        1
 44
0.0
173
     0
291
     0
 45
0.0
1001
ACAD
1000
AcDbSavedByObjectVersion
1070
     0
  0
VISUALSTYLE
  5
113
102
{ACAD_XDICTIONARY
360
230
102
}
102
{ACAD_REACTORS
330
10E
102
}
330
10E
100
AcDbVisualStyle
  2
Basic
 70
     7
 71
     1
 72
     0
 73
     1
 90
        0
 40
-0.6
 41
-30.0
 62
     5
 63
     7
 74
     0
 91
        4
 64
     7
 65
   257
 75
     1
175
     1
 42
1.0
 92
        8
 66
     7
 43
1.0
 76
     1
 77
     6
 78
     2
 67
     7
 79
     5
170
     0
171
     0
290
     0
174
     0
 93
        1
 44
0.0
173
     0
291
     1
 45
0.0
1001
ACAD
1000
AcDbSavedByObjectVersion
1070
     0
  0
VISUALSTYLE
  5
11A
102
{ACAD_XDICTIONARY
360
23E
102
}
102
{ACAD_REACTORS
330
10E
102
}
330
10E
100
AcDbVisualStyle
  2
Brighten
 70
    12
 71
     2
 72
     2
 73
     0
 90
        0
 40
-0.6
 41
-30.0
 62
     5
 63
     7
 74
     1
 91
        4
 64
     7
 65
   257
 75
     1
175
     1
 42
1.0
 92
        8
 66
     7
 43
1.0
 76
     1
 77
     6
 78
     2
 67
     7
 79
     5
170
     0
171
     0
290
     0
174
     0
 93
        1
 44
50.0
173
     0
291
     1
 45
0.0
1001
ACAD
1000
AcDbSavedByObjectVersion
1070
     0
  0
VISUALSTYLE
  5
11E
102
{ACAD_XDICTIONARY
360
246
102
}
102
{ACAD_REACTORS
330
10E
102
}
330
10E
100
AcDbVisualStyle
  2
ColorChange
 70
    16
 71
     2
 72
     2
 73
     3
 90
        0
 40
-0.6
 41
-30.0
 62
     5
 63
     8
 74
     1
 91
        4
 64
     7
 65
   257
 75
     1
175
     1
 42
1.0
 92
        8
 66
     8
 43
1.0
 76
     1
 77
     6
 78
     2
 67
     7
 79
     5
170
     0
171
     0
290
     0
174
     0
 93
        1
 44
0.0
173
     0
291
     1
 45
0.0
1001
ACAD
1000
AcDbSavedByObjectVersion
1070
     0
  0
VISUALSTYLE
  5
117
102
{ACAD_XDICTIONARY
360
238
102
}
102
{ACAD_REACTORS
330
10E
102
}
330
10E
100
AcDbVisualStyle
  2
Conceptual
 70
     9
 71
     3
 72
     2
 73
     0
 90
        0
 40
-0.6
 41
-30.0
 62
     5
 63
     7
 74
     2
 91
        2
 64
     7
 65
   257
 75
     1
175
     1
 42
179.0
 92
        8
 66
     7
 43
1.0
 76
     1
 77
     6
 78
     2
 67
     7
 79
     3
170
     0
171
     0
290
     0
174
     0
 93
        1
 44
0.0
173
     0
291
     0
 45
0.0
1001
ACAD
1000
AcDbSavedByObjectVersion
1070
     0
  0
VISUALSTYLE
  5
119
102
{ACAD_XDICTIONARY
360
23C
102
}
102
{ACAD_REACTORS
330
10E
102
}
330
10E
100
AcDbVisualStyle
  2
Dim
 70
    11
 71
     2
 72
     2
 73
     0
 90
        0
 40
-0.6
 41
-30.0
 62
     5
 63
     7
 74
     1
 91
        4
 64
     7
 65
   257
 75
     1
175
     1
 42
1.0
 92
        8
 66
     7
 43
1.0
 76
     1
 77
     6
 78
     2
 67
     7
 79
     5
170
     0
171
     0
290
     0
174
     0
 93
        1
 44
-50.0
173
     0
291
     1
 45
0.0
1001
ACAD
1000
AcDbSavedByObjectVersion
1070
     0
  0
VISUALSTYLE
  5
121
102
{ACAD_XDICTIONARY
360
24C
102
}
102
{ACAD_REACTORS
330
10E
102
}
330
10E
100
AcDbVisualStyle
  2
EdgeColorOff
 70
    22
 71
     2
 72
     2
 73
     0
 90
        0
 40
-0.6
 41
-30.0
 62
     5
 63
     7
 74
     1
 91
        4
 64
     7
 65
   257
 75
     1
175
     1
 42
1.0
 92
        8
 66
     7
 43
1.0
 76
     1
 77
     6
 78
     2
 67
     7
 79
     5
170
     0
171
     0
290
     0
174
     0
 93
        1
 44
0.0
173
     0
291
     1
 45
0.0
1001
ACAD
1000
AcDbSavedByObjectVersion
1070
     0
  0
VISUALSTYLE
  5
11D
102
{ACAD_XDICTIONARY
360
244
102
}
102
{ACAD_REACTORS
330
10E
102
}
330
10E
100
AcDbVisualStyle
  2
Facepattern
 70
    15
 71
     2
 72
     2
 73
     0
 90
        0
 40
-0.6
 41
-30.0
 62
     5
 63
     7
 74
     1
 91
        4
 64
     7
 65
   257
 75
     1
175
     1
 42
1.0
 92
        8
 66
     7
 43
1.0
 76
     1
 77
     6
 78
     2
 67
     7
 79
     5
170
     0
171
     0
290
     0
174
     0
 93
        1
 44
0.0
173
     0
291
     1
 45
0.0
1001
ACAD
1000
AcDbSavedByObjectVersion
1070
     0
  0
VISUALSTYLE
  5
10F
102
{ACAD_XDICTIONARY
360
228
102
}
102
{ACAD_REACTORS
330
10E
102
}
330
10E
100
AcDbVisualStyle
  2
Flat
 70
     0
 71
     2
 72
     1
 73
     1
 90
        2
 40
-0.6
 41
30.0
 62
     5
 63
     7
 74
     0
 91
        4
 64
     7
 65
   257
 75
     1
175
     1
 42
1.0
 92
        8
 66
     7
 43
1.0
 76
     1
 77
     6
 78
     2
 67
     7
 79
     5
170
     0
171
     0
290
     0
174
     0
 93
       13
 44
0.0
173
     0
291
     1
 45
0.0
1001
ACAD
1000
AcDbSavedByObjectVersion
1070
     0
  0
VISUALSTYLE
  5
110
102
{ACAD_XDICTIONARY
360
22A
102
}
102
{ACAD_REACTORS
330
10E
102
}
330
10E
100
AcDbVisualStyle
  2
FlatWithEdges
 70
     1
 71
     2
 72
     1
 73
     1
 90
        2
 40
-0.6
 41
30.0
 62
     5
 63
     7
 74
     1
 91
        4
 64
     7
 65
   257
 75
     1
175
     1
 42
1.0
 92
        0
 66
   257
 43
1.0
 76
     1
 77
     6
 78
     2
 67
     7
 79
     5
170
     0
171
     0
290
     0
174
     0
 93
       13
 44
0.0
173
     0
291
     1
 45
0.0
1001
ACAD
1000
AcDbSavedByObjectVersion
1070
     0
  0
VISUALSTYLE
  5
111
102
{ACAD_XDICTIONARY
360
22C
102
}
102
{ACAD_REACTORS
330
10E
102
}
330
10E
100
AcDbVisualStyle
  2
Gouraud
 70
     2
 71
     2
 72
     2
 73
     1
 90
        2
 40
-0.6
 41
30.0
 62
     5
 63
     7
 74
     0
 91
        4
 64
     7
 65
   257
 75
     1
175
     1
 42
1.0
 92
        0
 66
     7
 43
1.0
 76
     1
 77
     6
 78
     2
 67
     7
 79
     5
170
     0
171
     0
290
     0
174
     0
 93
       13
 44
0.0
173
     0
291
     1
 45
0.0
1001
ACAD
1000
AcDbSavedByObjectVersion
1070
     0
  0
VISUALSTYLE
  5
112
102
{ACAD_XDICTIONARY
360
22E
102
}
102
{ACAD_REACTORS
330
10E
102
}
330
10E
100
AcDbVisualStyle
  2
GouraudWithEdges
 70
     3
 71
     2
 72
     2
 73
     1
 90
        2
 40
-0.6
 41
30.0
 62
     5
 63
     7
 74
     1
 91
        4
 64
     7
 65
   257
 75
     1
175
     1
 42
1.0
 92
        0
 66
   257
 43
1.0
 76
     1
 77
     6
 78
     2
 67
     7
 79
     5
170
     0
171
     0
290
     0
174
     0
 93
       13
 44
0.0
173
     0
291
     1
 45
0.0
1001
ACAD
1000
AcDbSavedByObjectVersion
1070
     0
  0
VISUALSTYLE
  5
11F
102
{ACAD_XDICTIONARY
360
248
102
}
102
{ACAD_REACTORS
330
10E
102
}
330
10E
100
AcDbVisualStyle
  2
JitterOff
 70
    20
 71
     2
 72
     2
 73
     0
 90
        0
 40
-0.6
 41
-30.0
 62
     5
 63
     7
 74
     1
 91
        4
 64
     7
 65
   257
 75
     1
175
     1
 42
1.0
 92
       10
 66
     7
 43
1.0
 76
     1
 77
     6
 78
     2
 67
     7
 79
     5
170
     0
171
     0
290
     0
174
     0
 93
        1
 44
0.0
173
     0
291
     1
 45
0.0
1001
ACAD
1000
AcDbSavedByObjectVersion
1070
     0
  0
VISUALSTYLE
  5
11C
102
{ACAD_XDICTIONARY
360
242
102
}
102
{ACAD_REACTORS
330
10E
102
}
330
10E
100
AcDbVisualStyle
  2
Linepattern
 70
    14
 71
     2
 72
     2
 73
     0
 90
        0
 40
-0.6
 41
-30.0
 62
     5
 63
     7
 74
     1
 91
        4
 64
     7
 65
   257
 75
     7
175
     7
 42
1.0
 92
        8
 66
     7
 43
1.0
 76
     1
 77
     6
 78
     2
 67
     7
 79
     5
170
     0
171
     0
290
     0
174
     0
 93
        1
 44
0.0
173
     0
291
     1
 45
0.0
1001
ACAD
1000
AcDbSavedByObjectVersion
1070
     0
  0
VISUALSTYLE
  5
120
102
{ACAD_XDICTIONARY
360
24A
102
}
102
{ACAD_REACTORS
330
10E
102
}
330
10E
100
AcDbVisualStyle
  2
OverhangOff
 70
    21
 71
     2
 72
     2
 73
     0
 90
        0
 40
-0.6
 41
-30.0
 62
     5
 63
     7
 74
     1
 91
        4
 64
     7
 65
   257
 75
     1
175
     1
 42
1.0
 92
        9
 66
     7
 43
1.0
 76
     1
 77
     6
 78
     2
 67
     7
 79
     5
170
     0
171
     0
290
     0
174
     0
 93
        1
 44
0.0
173
     0
291
     1
 45
0.0
1001
ACAD
1000
AcDbSavedByObjectVersion
1070
     0
  0
VISUALSTYLE
  5
118
102
{ACAD_XDICTIONARY
360
23A
102
}
102
{ACAD_REACTORS
330
10E
102
}
330
10E
100
AcDbVisualStyle
  2
Realistic
 70
     8
 71
     2
 72
     2
 73
     0
 90
        0
 40
-0.6
 41
-30.0
 62
     5
 63
     7
 74
     1
 91
        0
 64
     7
 65
   257
 75
     1
175
     1
 42
1.0
 92
        8
 66
     8
 43
1.0
 76
     1
 77
     6
 78
     2
 67
     7
 79
     5
170
     0
171
     0
290
     0
174
     0
 93
       13
 44
0.0
173
     0
291
     0
 45
0.0
1001
ACAD
1000
AcDbSavedByObjectVersion
1070
     0
  0
VISUALSTYLE
  5
11B
102
{ACAD_XDICTIONARY
360
240
102
}
102
{ACAD_REACTORS
330
10E
102
}
330
10E
100
AcDbVisualStyle
  2
Thicken
 70
    13
 71
     2
 72
     2
 73
     0
 90
        0
 40
-0.6
 41
-30.0
 62
     5
 63
     7
 74
     1
 91
        4
 64
     7
 65
   257
 75
     1
175
     1
 42
1.0
 92
       12
 66
     7
 43
1.0
 76
     1
 77
     6
 78
     2
 67
     7
 79
     5
170
     0
171
     0
290
     0
174
     0
 93
        1
 44
0.0
173
     0
291
     1
 45
0.0
1001
ACAD
1000
AcDbSavedByObjectVersion
1070
     0
  0
DICTIONARYVAR
  5
218
102
{ACAD_REACTORS
330
215
102
}
330
215
100
DictionaryVariables
280
     0
  1
1:1
  0
DICTIONARYVAR
  5
217
102
{ACAD_REACTORS
330
215
102
}
330
215
100
DictionaryVariables
280
     0
  1
STANDARD
  0
DICTIONARYVAR
  5
216
102
{ACAD_REACTORS
330
215
102
}
330
215
100
DictionaryVariables
280
     0
  1
STANDARD
  0
DICTIONARYVAR
  5
21B
102
{ACAD_REACTORS
330
215
102
}
330
215
100
DictionaryVariables
280
     0
  1
1
  0
DICTIONARYVAR
  5
21A
102
{ACAD_REACTORS
330
215
102
}
330
215
100
DictionaryVariables
280
     0
  1
0
  0
DICTIONARYVAR
  5
219
102
{ACAD_REACTORS
330
215
102
}
330
215
100
DictionaryVariables
280
     0
  1
127
  0
DICTIONARYVAR
  5
21C
102
{ACAD_REACTORS
330
215
102
}
330
215
100
DictionaryVariables
280
     0
  1
2
  0
DICTIONARY
  5
1AC
102
{ACAD_REACTORS
330
1AB
102
}
330
1AB
100
AcDbDictionary
281
     1
  0
DICTIONARY
  5
223
330
21
100
AcDbDictionary
280
     1
281
     1
  3
ACAD_XREC_ROUNDTRIP
360
224
  0
DICTIONARY
  5
221
330
20
100
AcDbDictionary
280
     1
281
     1
  3
ACAD_XREC_ROUNDTRIP
360
222
  0
DICTIONARY
  5
FF
330
FE
100
AcDbDictionary
280
     1
281
     1
  3
ACAD_XREC_ROUNDTRIP
360
226
  3
BUMPTILE
360
101
  3
DIFFUSETILE
360
100
  3
OPACITYTILE
360
104
  3
REFLECTIONTILE
360
103
  3
REFRACTIONTILE
360
105
  3
SPECULARTILE
360
102
  0
DICTIONARY
  5
F7
330
F6
100
AcDbDictionary
280
     1
281
     1
  3
ACAD_XREC_ROUNDTRIP
360
225
  3
BUMPTILE
360
F9
  3
DIFFUSETILE
360
F8
  3
OPACITYTILE
360
FC
  3
REFLECTIONTILE
360
FB
  3
REFRACTIONTILE
360
FD
  3
SPECULARTILE
360
FA
  0
DICTIONARY
  5
107
330
106
100
AcDbDictionary
280
     1
281
     1
  3
ACAD_XREC_ROUNDTRIP
360
227
  3
BUMPTILE
360
109
  3
DIFFUSETILE
360
108
  3
OPACITYTILE
360
10C
  3
REFLECTIONTILE
360
10B
  3
REFRACTIONTILE
360
10D
  3
SPECULARTILE
360
10A
  0
DICTIONARY
  5
21D
330
124
100
AcDbDictionary
280
     1
281
     1
  3
ACAD_ROUNDTRIP_2008_TABLESTYLE_CELLSTYLEMAP
360
21E
  3
ACAD_XREC_ROUNDTRIP
360
24E
  0
DICTIONARY
  5
232
330
114
100
AcDbDictionary
280
     1
281
     1
  3
ACAD_XREC_ROUNDTRIP
360
233
  0
DICTIONARY
  5
236
330
116
100
AcDbDictionary
280
     1
281
     1
  3
ACAD_XREC_ROUNDTRIP
360
237
  0
DICTIONARY
  5
234
330
115
100
AcDbDictionary
280
     1
281
     1
  3
ACAD_XREC_ROUNDTRIP
360
235
  0
DICTIONARY
  5
230
330
113
100
AcDbDictionary
280
     1
281
     1
  3
ACAD_XREC_ROUNDTRIP
360
231
  0
DICTIONARY
  5
23E
330
11A
100
AcDbDictionary
280
     1
281
     1
  3
ACAD_XREC_ROUNDTRIP
360
23F
  0
DICTIONARY
  5
246
330
11E
100
AcDbDictionary
280
     1
281
     1
  3
ACAD_XREC_ROUNDTRIP
360
247
  0
DICTIONARY
  5
238
330
117
100
AcDbDictionary
280
     1
281
     1
  3
ACAD_XREC_ROUNDTRIP
360
239
  0
DICTIONARY
  5
23C
330
119
100
AcDbDictionary
280
     1
281
     1
  3
ACAD_XREC_ROUNDTRIP
360
23D
  0
DICTIONARY
  5
24C
330
121
100
AcDbDictionary
280
     1
281
     1
  3
ACAD_XREC_ROUNDTRIP
360
24D
  0
DICTIONARY
  5
244
330
11D
100
AcDbDictionary
280
     1
281
     1
  3
ACAD_XREC_ROUNDTRIP
360
245
  0
DICTIONARY
  5
228
330
10F
100
AcDbDictionary
280
     1
281
     1
  3
ACAD_XREC_ROUNDTRIP
360
229
  0
DICTIONARY
  5
22A
330
110
100
AcDbDictionary
280
     1
281
     1
  3
ACAD_XREC_ROUNDTRIP
360
22B
  0
DICTIONARY
  5
22C
330
111
100
AcDbDictionary
280
     1
281
     1
  3
ACAD_XREC_ROUNDTRIP
360
22D
  0
DICTIONARY
  5
22E
330
112
100
AcDbDictionary
280
     1
281
     1
  3
ACAD_XREC_ROUNDTRIP
360
22F
  0
DICTIONARY
  5
248
330
11F
100
AcDbDictionary
280
     1
281
     1
  3
ACAD_XREC_ROUNDTRIP
360
249
  0
DICTIONARY
  5
242
330
11C
100
AcDbDictionary
280
     1
281
     1
  3
ACAD_XREC_ROUNDTRIP
360
243
  0
DICTIONARY
  5
24A
330
120
100
AcDbDictionary
280
     1
281
     1
  3
ACAD_XREC_ROUNDTRIP
360
24B
  0
DICTIONARY
  5
23A
330
118
100
AcDbDictionary
280
     1
281
     1
  3
ACAD_XREC_ROUNDTRIP
360
23B
  0
DICTIONARY
  5
240
330
11B
100
AcDbDictionary
280
     1
281
     1
  3
ACAD_XREC_ROUNDTRIP
360
241
  0
XRECORD
  5
224
102
{ACAD_REACTORS
330
223
102
}
330
223
100
AcDbXrecord
280
     1
102
SHADEPLOT
 70
     0
102
SHADEPLOTRESLEVEL
 70
     2
102
SHADEPLOTCUSTOMDPI
 70
   300
  0
XRECORD
  5
222
102
{ACAD_REACTORS
330
221
102
}
330
221
100
AcDbXrecord
280
     1
102
SHADEPLOT
 70
     0
102
SHADEPLOTRESLEVEL
 70
     2
102
SHADEPLOTCUSTOMDPI
 70
   300
  0
XRECORD
  5
226
102
{ACAD_REACTORS
330
FF
102
}
330
FF
100
AcDbXrecord
280
     1
102
MATERIAL
148
0.0
149
0.0
149
0.0
 93
        0
 94
      127
282
     0
 72
     0
 77
     0
171
     0
175
     0
179
     0
273
     0
  0
XRECORD
  5
101
102
{ACAD_REACTORS
330
FF
102
}
330
FF
100
AcDbXrecord
280
     1
270
     1
271
     1
  0
XRECORD
  5
100
102
{ACAD_REACTORS
330
FF
102
}
330
FF
100
AcDbXrecord
280
     1
270
     1
271
     1
  0
XRECORD
  5
104
102
{ACAD_REACTORS
330
FF
102
}
330
FF
100
AcDbXrecord
280
     1
270
     1
271
     1
  0
XRECORD
  5
103
102
{ACAD_REACTORS
330
FF
102
}
330
FF
100
AcDbXrecord
280
     1
270
     1
271
     1
  0
XRECORD
  5
105
102
{ACAD_REACTORS
330
FF
102
}
330
FF
100
AcDbXrecord
280
     1
270
     1
271
     1
  0
XRECORD
  5
102
102
{ACAD_REACTORS
330
FF
102
}
330
FF
100
AcDbXrecord
280
     1
270
     1
271
     1
  0
XRECORD
  5
225
102
{ACAD_REACTORS
330
F7
102
}
330
F7
100
AcDbXrecord
280
     1
102
MATERIAL
148
0.0
149
0.0
149
0.0
 93
        0
 94
      127
282
     0
 72
     0
 77
     0
171
     0
175
     0
179
     0
273
     0
  0
XRECORD
  5
F9
102
{ACAD_REACTORS
330
F7
102
}
330
F7
100
AcDbXrecord
280
     1
270
     1
271
     1
  0
XRECORD
  5
F8
102
{ACAD_REACTORS
330
F7
102
}
330
F7
100
AcDbXrecord
280
     1
270
     1
271
     1
  0
XRECORD
  5
FC
102
{ACAD_REACTORS
330
F7
102
}
330
F7
100
AcDbXrecord
280
     1
270
     1
271
     1
  0
XRECORD
  5
FB
102
{ACAD_REACTORS
330
F7
102
}
330
F7
100
AcDbXrecord
280
     1
270
     1
271
     1
  0
XRECORD
  5
FD
102
{ACAD_REACTORS
330
F7
102
}
330
F7
100
AcDbXrecord
280
     1
270
     1
271
     1
  0
XRECORD
  5
FA
102
{ACAD_REACTORS
330
F7
102
}
330
F7
100
AcDbXrecord
280
     1
270
     1
271
     1
  0
XRECORD
  5
227
102
{ACAD_REACTORS
330
107
102
}
330
107
100
AcDbXrecord
280
     1
102
MATERIAL
148
0.0
149
0.0
149
0.0
 93
        0
 94
      127
282
     0
 72
     0
 77
     0
171
     0
175
     0
179
     0
273
     0
  0
XRECORD
  5
109
102
{ACAD_REACTORS
330
107
102
}
330
107
100
AcDbXrecord
280
     1
270
     1
271
     1
  0
XRECORD
  5
108
102
{ACAD_REACTORS
330
107
102
}
330
107
100
AcDbXrecord
280
     1
270
     1
271
     1
  0
XRECORD
  5
10C
102
{ACAD_REACTORS
330
107
102
}
330
107
100
AcDbXrecord
280
     1
270
     1
271
     1
  0
XRECORD
  5
10B
102
{ACAD_REACTORS
330
107
102
}
330
107
100
AcDbXrecord
280
     1
270
     1
271
     1
  0
XRECORD
  5
10D
102
{ACAD_REACTORS
330
107
102
}
330
107
100
AcDbXrecord
280
     1
270
     1
271
     1
  0
XRECORD
  5
10A
102
{ACAD_REACTORS
330
107
102
}
330
107
100
AcDbXrecord
280
     1
270
     1
271
     1
  0
CELLSTYLEMAP
  5
21E
102
{ACAD_REACTORS
330
21D
102
}
330
21D
100
AcDbCellStyleMap
 90
        3
300
CELLSTYLE
  1
TABLEFORMAT_BEGIN
 90
        5
170
     1
 91
        0
 92
    32768
 62
   257
 93
        1
300
CONTENTFORMAT
  1
CONTENTFORMAT_BEGIN
 90
        0
 91
        0
 92
      512
 93
        0
300

 40
0.0
140
1.0
 94
        5
 62
     0
340
17
144
6.0
309
CONTENTFORMAT_END
171
     1
301
MARGIN
  1
CELLMARGIN_BEGIN
 40
1.5
 40
1.5
 40
1.5
 40
1.5
 40
4.5
 40
4.5
309
CELLMARGIN_END
 94
        6
 95
        1
302
GRIDFORMAT
  1
GRIDFORMAT_BEGIN
 90
        0
 91
        1
 62
     0
 92
       -2
340
0
 93
        0
 40
1.125
309
GRIDFORMAT_END
 95
        2
302
GRIDFORMAT
  1
GRIDFORMAT_BEGIN
 90
        0
 91
        1
 62
     0
 92
       -2
340
0
 93
        0
 40
1.125
309
GRIDFORMAT_END
 95
        4
302
GRIDFORMAT
  1
GRIDFORMAT_BEGIN
 90
        0
 91
        1
 62
     0
 92
       -2
340
0
 93
        0
 40
1.125
309
GRIDFORMAT_END
 95
        8
302
GRIDFORMAT
  1
GRIDFORMAT_BEGIN
 90
        0
 91
        1
 62
     0
 92
       -2
340
0
 93
        0
 40
1.125
309
GRIDFORMAT_END
 95
       16
302
GRIDFORMAT
  1
GRIDFORMAT_BEGIN
 90
        0
 91
        1
 62
     0
 92
       -2
340
0
 93
        0
 40
1.125
309
GRIDFORMAT_END
 95
       32
302
GRIDFORMAT
  1
GRIDFORMAT_BEGIN
 90
        0
 91
        1
 62
     0
 92
       -2
340
0
 93
        0
 40
1.125
309
GRIDFORMAT_END
309
TABLEFORMAT_END
  1
CELLSTYLE_BEGIN
 90
        1
 91
        1
300
_TITLE
309
CELLSTYLE_END
300
CELLSTYLE
  1
TABLEFORMAT_BEGIN
 90
        5
170
     1
 91
        0
 92
        0
 62
   257
 93
        1
300
CONTENTFORMAT
  1
CONTENTFORMAT_BEGIN
 90
        0
 91
        0
 92
      512
 93
        0
300

 40
0.0
140
1.0
 94
        5
 62
     0
340
17
144
4.5
309
CONTENTFORMAT_END
171
     1
301
MARGIN
  1
CELLMARGIN_BEGIN
 40
1.5
 40
1.5
 40
1.5
 40
1.5
 40
4.5
 40
4.5
309
CELLMARGIN_END
 94
        6
 95
        1
302
GRIDFORMAT
  1
GRIDFORMAT_BEGIN
 90
        0
 91
        1
 62
     0
 92
       -2
340
0
 93
        0
 40
1.125
309
GRIDFORMAT_END
 95
        2
302
GRIDFORMAT
  1
GRIDFORMAT_BEGIN
 90
        0
 91
        1
 62
     0
 92
       -2
340
0
 93
        0
 40
1.125
309
GRIDFORMAT_END
 95
        4
302
GRIDFORMAT
  1
GRIDFORMAT_BEGIN
 90
        0
 91
        1
 62
     0
 92
       -2
340
0
 93
        0
 40
1.125
309
GRIDFORMAT_END
 95
        8
302
GRIDFORMAT
  1
GRIDFORMAT_BEGIN
 90
        0
 91
        1
 62
     0
 92
       -2
340
0
 93
        0
 40
1.125
309
GRIDFORMAT_END
 95
       16
302
GRIDFORMAT
  1
GRIDFORMAT_BEGIN
 90
        0
 91
        1
 62
     0
 92
       -2
340
0
 93
        0
 40
1.125
309
GRIDFORMAT_END
 95
       32
302
GRIDFORMAT
  1
GRIDFORMAT_BEGIN
 90
        0
 91
        1
 62
     0
 92
       -2
340
0
 93
        0
 40
1.125
309
GRIDFORMAT_END
309
TABLEFORMAT_END
  1
CELLSTYLE_BEGIN
 90
        2
 91
        1
300
_HEADER
309
CELLSTYLE_END
300
CELLSTYLE
  1
TABLEFORMAT_BEGIN
 90
        5
170
     1
 91
        0
 92
        0
 62
   257
 93
        1
300
CONTENTFORMAT
  1
CONTENTFORMAT_BEGIN
 90
        0
 91
        0
 92
      512
 93
        0
300

 40
0.0
140
1.0
 94
        2
 62
     0
340
17
144
4.5
309
CONTENTFORMAT_END
171
     1
301
MARGIN
  1
CELLMARGIN_BEGIN
 40
1.5
 40
1.5
 40
1.5
 40
1.5
 40
4.5
 40
4.5
309
CELLMARGIN_END
 94
        6
 95
        1
302
GRIDFORMAT
  1
GRIDFORMAT_BEGIN
 90
        0
 91
        1
 62
     0
 92
       -2
340
0
 93
        0
 40
1.125
309
GRIDFORMAT_END
 95
        2
302
GRIDFORMAT
  1
GRIDFORMAT_BEGIN
 90
        0
 91
        1
 62
     0
 92
       -2
340
0
 93
        0
 40
1.125
309
GRIDFORMAT_END
 95
        4
302
GRIDFORMAT
  1
GRIDFORMAT_BEGIN
 90
        0
 91
        1
 62
     0
 92
       -2
340
0
 93
        0
 40
1.125
309
GRIDFORMAT_END
 95
        8
302
GRIDFORMAT
  1
GRIDFORMAT_BEGIN
 90
        0
 91
        1
 62
     0
 92
       -2
340
0
 93
        0
 40
1.125
309
GRIDFORMAT_END
 95
       16
302
GRIDFORMAT
  1
GRIDFORMAT_BEGIN
 90
        0
 91
        1
 62
     0
 92
       -2
340
0
 93
        0
 40
1.125
309
GRIDFORMAT_END
 95
       32
302
GRIDFORMAT
  1
GRIDFORMAT_BEGIN
 90
        0
 91
        1
 62
     0
 92
       -2
340
0
 93
        0
 40
1.125
309
GRIDFORMAT_END
309
TABLEFORMAT_END
  1
CELLSTYLE_BEGIN
 90
        3
 91
        2
300
_DATA
309
CELLSTYLE_END
  0
XRECORD
  5
24E
102
{ACAD_REACTORS
330
21D
102
}
330
21D
100
AcDbXrecord
280
     1
102
ACAD_ROUNDTRIP_PRE2007_TABLESTYLE
 90
      512
 91
        0
  1

 92
      512
 93
        0
  2

 94
      512
 95
        0
  3

  0
XRECORD
  5
233
102
{ACAD_REACTORS
330
232
102
}
330
232
100
AcDbXrecord
280
     1
102
RTVSPropertyOp0
 70
     1
102
RTVSPropertyOp1
 70
     1
102
RTVSPropertyOp2
 70
     1
102
RTVSPropertyOp3
 70
     1
102
RTVSPropertyOp4
 70
     1
102
RTVSPropertyOp5
 70
     1
102
RTVSPropertyOp6
 70
     1
102
RTVSPropertyOp7
 70
     1
102
RTVSPropertyOp8
 70
     1
102
RTVSPropertyOp9
 70
     1
102
RTVSPropertyOp10
 70
     1
102
RTVSPropertyOp11
 70
     1
102
RTVSPropertyOp12
 70
     1
102
RTVSPropertyOp13
 70
     1
102
RTVSPropertyOp14
 70
     1
102
RTVSPropertyOp15
 70
     1
102
RTVSPropertyOp16
 70
     1
102
RTVSPropertyOp17
 70
     1
102
RTVSPropertyOp18
 70
     1
102
RTVSPropertyOp19
 70
     1
102
RTVSPropertyOp20
 70
     1
102
RTVSPropertyOp21
 70
     1
102
RTVSPropertyOp22
 70
     1
102
RTVSPropertyOp23
 70
     1
102
RTVSPropertyOp24
 70
     1
102
RTVSPropertyOp25
 70
     1
102
RTVSPropertyOp26
 70
     1
102
RTVSPropertyOp27
 70
     1
  0
XRECORD
  5
237
102
{ACAD_REACTORS
330
236
102
}
330
236
100
AcDbXrecord
280
     1
102
RTVSPropertyOp0
 70
     1
102
RTVSPropertyOp1
 70
     1
102
RTVSPropertyOp2
 70
     1
102
RTVSPropertyOp3
 70
     1
102
RTVSPropertyOp4
 70
     1
102
RTVSPropertyOp5
 70
     1
102
RTVSPropertyOp6
 70
     1
102
RTVSPropertyOp7
 70
     1
102
RTVSPropertyOp8
 70
     1
102
RTVSPropertyOp9
 70
     1
102
RTVSPropertyOp10
 70
     1
102
RTVSPropertyOp11
 70
     1
102
RTVSPropertyOp12
 70
     1
102
RTVSPropertyOp13
 70
     1
102
RTVSPropertyOp14
 70
     1
102
RTVSPropertyOp15
 70
     1
102
RTVSPropertyOp16
 70
     1
102
RTVSPropertyOp17
 70
     1
102
RTVSPropertyOp18
 70
     1
102
RTVSPropertyOp19
 70
     1
102
RTVSPropertyOp20
 70
     1
102
RTVSPropertyOp21
 70
     1
102
RTVSPropertyOp22
 70
     1
102
RTVSPropertyOp23
 70
     1
102
RTVSPropertyOp24
 70
     1
102
RTVSPropertyOp25
 70
     1
102
RTVSPropertyOp26
 70
     1
102
RTVSPropertyOp27
 70
     1
  0
XRECORD
  5
235
102
{ACAD_REACTORS
330
234
102
}
330
234
100
AcDbXrecord
280
     1
102
RTVSPropertyOp0
 70
     1
102
RTVSPropertyOp1
 70
     1
102
RTVSPropertyOp2
 70
     1
102
RTVSPropertyOp3
 70
     1
102
RTVSPropertyOp4
 70
     1
102
RTVSPropertyOp5
 70
     1
102
RTVSPropertyOp6
 70
     1
102
RTVSPropertyOp7
 70
     1
102
RTVSPropertyOp8
 70
     1
102
RTVSPropertyOp9
 70
     1
102
RTVSPropertyOp10
 70
     1
102
RTVSPropertyOp11
 70
     1
102
RTVSPropertyOp12
 70
     1
102
RTVSPropertyOp13
 70
     1
102
RTVSPropertyOp14
 70
     1
102
RTVSPropertyOp15
 70
     1
102
RTVSPropertyOp16
 70
     1
102
RTVSPropertyOp17
 70
     1
102
RTVSPropertyOp18
 70
     1
102
RTVSPropertyOp19
 70
     1
102
RTVSPropertyOp20
 70
     1
102
RTVSPropertyOp21
 70
     1
102
RTVSPropertyOp22
 70
     1
102
RTVSPropertyOp23
 70
     1
102
RTVSPropertyOp24
 70
     1
102
RTVSPropertyOp25
 70
     1
102
RTVSPropertyOp26
 70
     1
102
RTVSPropertyOp27
 70
     1
  0
XRECORD
  5
231
102
{ACAD_REACTORS
330
230
102
}
330
230
100
AcDbXrecord
280
     1
102
RTVSPropertyOp0
 70
     1
102
RTVSPropertyOp1
 70
     1
102
RTVSPropertyOp2
 70
     1
102
RTVSPropertyOp3
 70
     1
102
RTVSPropertyOp4
 70
     1
102
RTVSPropertyOp5
 70
     1
102
RTVSPropertyOp6
 70
     1
102
RTVSPropertyOp7
 70
     1
102
RTVSPropertyOp8
 70
     1
102
RTVSPropertyOp9
 70
     1
102
RTVSPropertyOp10
 70
     1
102
RTVSPropertyOp11
 70
     1
102
RTVSPropertyOp12
 70
     1
102
RTVSPropertyOp13
 70
     1
102
RTVSPropertyOp14
 70
     1
102
RTVSPropertyOp15
 70
     1
102
RTVSPropertyOp16
 70
     1
102
RTVSPropertyOp17
 70
     1
102
RTVSPropertyOp18
 70
     1
102
RTVSPropertyOp19
 70
     1
102
RTVSPropertyOp20
 70
     1
102
RTVSPropertyOp21
 70
     1
102
RTVSPropertyOp22
 70
     1
102
RTVSPropertyOp23
 70
     1
102
RTVSPropertyOp24
 70
     1
102
RTVSPropertyOp25
 70
     1
102
RTVSPropertyOp26
 70
     1
102
RTVSPropertyOp27
 70
     1
  0
XRECORD
  5
23F
102
{ACAD_REACTORS
330
23E
102
}
330
23E
100
AcDbXrecord
280
     1
102
RTVSPropertyOp0
 70
     1
102
RTVSPropertyOp1
 70
     1
102
RTVSPropertyOp2
 70
     1
102
RTVSPropertyOp3
 70
     1
102
RTVSPropertyOp4
 70
     1
102
RTVSPropertyOp5
 70
     1
102
RTVSPropertyOp6
 70
     1
102
RTVSPropertyOp7
 70
     1
102
RTVSPropertyOp8
 70
     1
102
RTVSPropertyOp9
 70
     1
102
RTVSPropertyOp10
 70
     1
102
RTVSPropertyOp11
 70
     1
102
RTVSPropertyOp12
 70
     1
102
RTVSPropertyOp13
 70
     1
102
RTVSPropertyOp14
 70
     1
102
RTVSPropertyOp15
 70
     1
102
RTVSPropertyOp16
 70
     1
102
RTVSPropertyOp17
 70
     1
102
RTVSPropertyOp18
 70
     1
102
RTVSPropertyOp19
 70
     1
102
RTVSPropertyOp20
 70
     1
102
RTVSPropertyOp21
 70
     1
102
RTVSPropertyOp22
 70
     1
102
RTVSPropertyOp23
 70
     1
102
RTVSPropertyOp24
 70
     1
102
RTVSPropertyOp25
 70
     1
102
RTVSPropertyOp26
 70
     1
102
RTVSPropertyOp27
 70
     1
  0
XRECORD
  5
247
102
{ACAD_REACTORS
330
246
102
}
330
246
100
AcDbXrecord
280
     1
102
RTVSPropertyOp0
 70
     1
102
RTVSPropertyOp1
 70
     1
102
RTVSPropertyOp2
 70
     1
102
RTVSPropertyOp3
 70
     1
102
RTVSPropertyOp4
 70
     1
102
RTVSPropertyOp5
 70
     1
102
RTVSPropertyOp6
 70
     1
102
RTVSPropertyOp7
 70
     1
102
RTVSPropertyOp8
 70
     1
102
RTVSPropertyOp9
 70
     1
102
RTVSPropertyOp10
 70
     1
102
RTVSPropertyOp11
 70
     1
102
RTVSPropertyOp12
 70
     1
102
RTVSPropertyOp13
 70
     1
102
RTVSPropertyOp14
 70
     1
102
RTVSPropertyOp15
 70
     1
102
RTVSPropertyOp16
 70
     1
102
RTVSPropertyOp17
 70
     1
102
RTVSPropertyOp18
 70
     1
102
RTVSPropertyOp19
 70
     1
102
RTVSPropertyOp20
 70
     1
102
RTVSPropertyOp21
 70
     1
102
RTVSPropertyOp22
 70
     1
102
RTVSPropertyOp23
 70
     1
102
RTVSPropertyOp24
 70
     1
102
RTVSPropertyOp25
 70
     1
102
RTVSPropertyOp26
 70
     1
102
RTVSPropertyOp27
 70
     1
  0
XRECORD
  5
239
102
{ACAD_REACTORS
330
238
102
}
330
238
100
AcDbXrecord
280
     1
102
RTVSPropertyOp0
 70
     1
102
RTVSPropertyOp1
 70
     1
102
RTVSPropertyOp2
 70
     1
102
RTVSPropertyOp3
 70
     1
102
RTVSPropertyOp4
 70
     1
102
RTVSPropertyOp5
 70
     1
102
RTVSPropertyOp6
 70
     1
102
RTVSPropertyOp7
 70
     1
102
RTVSPropertyOp8
 70
     1
102
RTVSPropertyOp9
 70
     1
102
RTVSPropertyOp10
 70
     1
102
RTVSPropertyOp11
 70
     1
102
RTVSPropertyOp12
 70
     1
102
RTVSPropertyOp13
 70
     1
102
RTVSPropertyOp14
 70
     1
102
RTVSPropertyOp15
 70
     1
102
RTVSPropertyOp16
 70
     1
102
RTVSPropertyOp17
 70
     1
102
RTVSPropertyOp18
 70
     1
102
RTVSPropertyOp19
 70
     1
102
RTVSPropertyOp20
 70
     1
102
RTVSPropertyOp21
 70
     1
102
RTVSPropertyOp22
 70
     1
102
RTVSPropertyOp23
 70
     1
102
RTVSPropertyOp24
 70
     1
102
RTVSPropertyOp25
 70
     1
102
RTVSPropertyOp26
 70
     1
102
RTVSPropertyOp27
 70
     1
  0
XRECORD
  5
23D
102
{ACAD_REACTORS
330
23C
102
}
330
23C
100
AcDbXrecord
280
     1
102
RTVSPropertyOp0
 70
     1
102
RTVSPropertyOp1
 70
     1
102
RTVSPropertyOp2
 70
     1
102
RTVSPropertyOp3
 70
     1
102
RTVSPropertyOp4
 70
     1
102
RTVSPropertyOp5
 70
     1
102
RTVSPropertyOp6
 70
     1
102
RTVSPropertyOp7
 70
     1
102
RTVSPropertyOp8
 70
     1
102
RTVSPropertyOp9
 70
     1
102
RTVSPropertyOp10
 70
     1
102
RTVSPropertyOp11
 70
     1
102
RTVSPropertyOp12
 70
     1
102
RTVSPropertyOp13
 70
     1
102
RTVSPropertyOp14
 70
     1
102
RTVSPropertyOp15
 70
     1
102
RTVSPropertyOp16
 70
     1
102
RTVSPropertyOp17
 70
     1
102
RTVSPropertyOp18
 70
     1
102
RTVSPropertyOp19
 70
     1
102
RTVSPropertyOp20
 70
     1
102
RTVSPropertyOp21
 70
     1
102
RTVSPropertyOp22
 70
     1
102
RTVSPropertyOp23
 70
     1
102
RTVSPropertyOp24
 70
     1
102
RTVSPropertyOp25
 70
     1
102
RTVSPropertyOp26
 70
     1
102
RTVSPropertyOp27
 70
     1
  0
XRECORD
  5
24D
102
{ACAD_REACTORS
330
24C
102
}
330
24C
100
AcDbXrecord
280
     1
102
RTVSPropertyOp0
 70
     0
102
RTVSPropertyOp1
 70
     0
102
RTVSPropertyOp2
 70
     0
102
RTVSPropertyOp3
 70
     0
102
RTVSPropertyOp4
 70
     0
102
RTVSPropertyOp5
 70
     0
102
RTVSPropertyOp6
 70
     0
102
RTVSPropertyOp7
 70
     0
102
RTVSPropertyOp8
 70
     0
102
RTVSPropertyOp9
 70
     0
102
RTVSPropertyOp10
 70
     0
102
RTVSPropertyOp11
 70
     0
102
RTVSPropertyOp12
 70
     0
102
RTVSPropertyOp13
 70
     0
102
RTVSPropertyOp14
 70
     2
102
RTVSPropertyOp15
 70
     0
102
RTVSPropertyOp16
 70
     0
102
RTVSPropertyOp17
 70
     0
102
RTVSPropertyOp18
 70
     0
102
RTVSPropertyOp19
 70
     0
102
RTVSPropertyOp20
 70
     0
102
RTVSPropertyOp21
 70
     0
102
RTVSPropertyOp22
 70
     0
102
RTVSPropertyOp23
 70
     0
102
RTVSPropertyOp24
 70
     0
102
RTVSPropertyOp25
 70
     0
102
RTVSPropertyOp26
 70
     0
102
RTVSPropertyOp27
 70
     0
  0
XRECORD
  5
245
102
{ACAD_REACTORS
330
244
102
}
330
244
100
AcDbXrecord
280
     1
102
RTVSPropertyOp0
 70
     1
102
RTVSPropertyOp1
 70
     1
102
RTVSPropertyOp2
 70
     1
102
RTVSPropertyOp3
 70
     1
102
RTVSPropertyOp4
 70
     1
102
RTVSPropertyOp5
 70
     1
102
RTVSPropertyOp6
 70
     1
102
RTVSPropertyOp7
 70
     1
102
RTVSPropertyOp8
 70
     1
102
RTVSPropertyOp9
 70
     1
102
RTVSPropertyOp10
 70
     1
102
RTVSPropertyOp11
 70
     1
102
RTVSPropertyOp12
 70
     1
102
RTVSPropertyOp13
 70
     1
102
RTVSPropertyOp14
 70
     1
102
RTVSPropertyOp15
 70
     1
102
RTVSPropertyOp16
 70
     1
102
RTVSPropertyOp17
 70
     1
102
RTVSPropertyOp18
 70
     1
102
RTVSPropertyOp19
 70
     1
102
RTVSPropertyOp20
 70
     1
102
RTVSPropertyOp21
 70
     1
102
RTVSPropertyOp22
 70
     1
102
RTVSPropertyOp23
 70
     1
102
RTVSPropertyOp24
 70
     1
102
RTVSPropertyOp25
 70
     1
102
RTVSPropertyOp26
 70
     1
102
RTVSPropertyOp27
 70
     1
  0
XRECORD
  5
229
102
{ACAD_REACTORS
330
228
102
}
330
228
100
AcDbXrecord
280
     1
102
RTVSPropertyOp0
 70
     1
102
RTVSPropertyOp1
 70
     1
102
RTVSPropertyOp2
 70
     1
102
RTVSPropertyOp3
 70
     1
102
RTVSPropertyOp4
 70
     1
102
RTVSPropertyOp5
 70
     1
102
RTVSPropertyOp6
 70
     1
102
RTVSPropertyOp7
 70
     1
102
RTVSPropertyOp8
 70
     1
102
RTVSPropertyOp9
 70
     1
102
RTVSPropertyOp10
 70
     1
102
RTVSPropertyOp11
 70
     1
102
RTVSPropertyOp12
 70
     1
102
RTVSPropertyOp13
 70
     1
102
RTVSPropertyOp14
 70
     1
102
RTVSPropertyOp15
 70
     1
102
RTVSPropertyOp16
 70
     1
102
RTVSPropertyOp17
 70
     1
102
RTVSPropertyOp18
 70
     1
102
RTVSPropertyOp19
 70
     1
102
RTVSPropertyOp20
 70
     1
102
RTVSPropertyOp21
 70
     1
102
RTVSPropertyOp22
 70
     1
102
RTVSPropertyOp23
 70
     1
102
RTVSPropertyOp24
 70
     1
102
RTVSPropertyOp25
 70
     1
102
RTVSPropertyOp26
 70
     1
102
RTVSPropertyOp27
 70
     1
  0
XRECORD
  5
22B
102
{ACAD_REACTORS
330
22A
102
}
330
22A
100
AcDbXrecord
280
     1
102
RTVSPropertyOp0
 70
     1
102
RTVSPropertyOp1
 70
     1
102
RTVSPropertyOp2
 70
     1
102
RTVSPropertyOp3
 70
     1
102
RTVSPropertyOp4
 70
     1
102
RTVSPropertyOp5
 70
     1
102
RTVSPropertyOp6
 70
     1
102
RTVSPropertyOp7
 70
     1
102
RTVSPropertyOp8
 70
     1
102
RTVSPropertyOp9
 70
     1
102
RTVSPropertyOp10
 70
     1
102
RTVSPropertyOp11
 70
     1
102
RTVSPropertyOp12
 70
     1
102
RTVSPropertyOp13
 70
     1
102
RTVSPropertyOp14
 70
     1
102
RTVSPropertyOp15
 70
     1
102
RTVSPropertyOp16
 70
     1
102
RTVSPropertyOp17
 70
     1
102
RTVSPropertyOp18
 70
     1
102
RTVSPropertyOp19
 70
     1
102
RTVSPropertyOp20
 70
     1
102
RTVSPropertyOp21
 70
     1
102
RTVSPropertyOp22
 70
     1
102
RTVSPropertyOp23
 70
     1
102
RTVSPropertyOp24
 70
     1
102
RTVSPropertyOp25
 70
     1
102
RTVSPropertyOp26
 70
     1
102
RTVSPropertyOp27
 70
     1
  0
XRECORD
  5
22D
102
{ACAD_REACTORS
330
22C
102
}
330
22C
100
AcDbXrecord
280
     1
102
RTVSPropertyOp0
 70
     1
102
RTVSPropertyOp1
 70
     1
102
RTVSPropertyOp2
 70
     1
102
RTVSPropertyOp3
 70
     1
102
RTVSPropertyOp4
 70
     1
102
RTVSPropertyOp5
 70
     1
102
RTVSPropertyOp6
 70
     1
102
RTVSPropertyOp7
 70
     1
102
RTVSPropertyOp8
 70
     1
102
RTVSPropertyOp9
 70
     1
102
RTVSPropertyOp10
 70
     1
102
RTVSPropertyOp11
 70
     1
102
RTVSPropertyOp12
 70
     1
102
RTVSPropertyOp13
 70
     1
102
RTVSPropertyOp14
 70
     1
102
RTVSPropertyOp15
 70
     1
102
RTVSPropertyOp16
 70
     1
102
RTVSPropertyOp17
 70
     1
102
RTVSPropertyOp18
 70
     1
102
RTVSPropertyOp19
 70
     1
102
RTVSPropertyOp20
 70
     1
102
RTVSPropertyOp21
 70
     1
102
RTVSPropertyOp22
 70
     1
102
RTVSPropertyOp23
 70
     1
102
RTVSPropertyOp24
 70
     1
102
RTVSPropertyOp25
 70
     1
102
RTVSPropertyOp26
 70
     1
102
RTVSPropertyOp27
 70
     1
  0
XRECORD
  5
22F
102
{ACAD_REACTORS
330
22E
102
}
330
22E
100
AcDbXrecord
280
     1
102
RTVSPropertyOp0
 70
     1
102
RTVSPropertyOp1
 70
     1
102
RTVSPropertyOp2
 70
     1
102
RTVSPropertyOp3
 70
     1
102
RTVSPropertyOp4
 70
     1
102
RTVSPropertyOp5
 70
     1
102
RTVSPropertyOp6
 70
     1
102
RTVSPropertyOp7
 70
     1
102
RTVSPropertyOp8
 70
     1
102
RTVSPropertyOp9
 70
     1
102
RTVSPropertyOp10
 70
     1
102
RTVSPropertyOp11
 70
     1
102
RTVSPropertyOp12
 70
     1
102
RTVSPropertyOp13
 70
     1
102
RTVSPropertyOp14
 70
     1
102
RTVSPropertyOp15
 70
     1
102
RTVSPropertyOp16
 70
     1
102
RTVSPropertyOp17
 70
     1
102
RTVSPropertyOp18
 70
     1
102
RTVSPropertyOp19
 70
     1
102
RTVSPropertyOp20
 70
     1
102
RTVSPropertyOp21
 70
     1
102
RTVSPropertyOp22
 70
     1
102
RTVSPropertyOp23
 70
     1
102
RTVSPropertyOp24
 70
     1
102
RTVSPropertyOp25
 70
     1
102
RTVSPropertyOp26
 70
     1
102
RTVSPropertyOp27
 70
     1
  0
XRECORD
  5
249
102
{ACAD_REACTORS
330
248
102
}
330
248
100
AcDbXrecord
280
     1
102
RTVSPropertyOp0
 70
     0
102
RTVSPropertyOp1
 70
     0
102
RTVSPropertyOp2
 70
     0
102
RTVSPropertyOp3
 70
     0
102
RTVSPropertyOp4
 70
     0
102
RTVSPropertyOp5
 70
     0
102
RTVSPropertyOp6
 70
     0
102
RTVSPropertyOp7
 70
     0
102
RTVSPropertyOp8
 70
     0
102
RTVSPropertyOp9
 70
     0
102
RTVSPropertyOp10
 70
     0
102
RTVSPropertyOp11
 70
     0
102
RTVSPropertyOp12
 70
     0
102
RTVSPropertyOp13
 70
     0
102
RTVSPropertyOp14
 70
     2
102
RTVSPropertyOp15
 70
     0
102
RTVSPropertyOp16
 70
     0
102
RTVSPropertyOp17
 70
     0
102
RTVSPropertyOp18
 70
     0
102
RTVSPropertyOp19
 70
     0
102
RTVSPropertyOp20
 70
     0
102
RTVSPropertyOp21
 70
     0
102
RTVSPropertyOp22
 70
     0
102
RTVSPropertyOp23
 70
     0
102
RTVSPropertyOp24
 70
     0
102
RTVSPropertyOp25
 70
     0
102
RTVSPropertyOp26
 70
     0
102
RTVSPropertyOp27
 70
     0
  0
XRECORD
  5
243
102
{ACAD_REACTORS
330
242
102
}
330
242
100
AcDbXrecord
280
     1
102
RTVSPropertyOp0
 70
     1
102
RTVSPropertyOp1
 70
     1
102
RTVSPropertyOp2
 70
     1
102
RTVSPropertyOp3
 70
     1
102
RTVSPropertyOp4
 70
     1
102
RTVSPropertyOp5
 70
     1
102
RTVSPropertyOp6
 70
     1
102
RTVSPropertyOp7
 70
     1
102
RTVSPropertyOp8
 70
     1
102
RTVSPropertyOp9
 70
     1
102
RTVSPropertyOp10
 70
     1
102
RTVSPropertyOp11
 70
     1
102
RTVSPropertyOp12
 70
     1
102
RTVSPropertyOp13
 70
     1
102
RTVSPropertyOp14
 70
     1
102
RTVSPropertyOp15
 70
     1
102
RTVSPropertyOp16
 70
     1
102
RTVSPropertyOp17
 70
     1
102
RTVSPropertyOp18
 70
     1
102
RTVSPropertyOp19
 70
     1
102
RTVSPropertyOp20
 70
     1
102
RTVSPropertyOp21
 70
     1
102
RTVSPropertyOp22
 70
     1
102
RTVSPropertyOp23
 70
     1
102
RTVSPropertyOp24
 70
     1
102
RTVSPropertyOp25
 70
     1
102
RTVSPropertyOp26
 70
     1
102
RTVSPropertyOp27
 70
     1
  0
XRECORD
  5
24B
102
{ACAD_REACTORS
330
24A
102
}
330
24A
100
AcDbXrecord
280
     1
102
RTVSPropertyOp0
 70
     0
102
RTVSPropertyOp1
 70
     0
102
RTVSPropertyOp2
 70
     0
102
RTVSPropertyOp3
 70
     0
102
RTVSPropertyOp4
 70
     0
102
RTVSPropertyOp5
 70
     0
102
RTVSPropertyOp6
 70
     0
102
RTVSPropertyOp7
 70
     0
102
RTVSPropertyOp8
 70
     0
102
RTVSPropertyOp9
 70
     0
102
RTVSPropertyOp10
 70
     0
102
RTVSPropertyOp11
 70
     0
102
RTVSPropertyOp12
 70
     0
102
RTVSPropertyOp13
 70
     0
102
RTVSPropertyOp14
 70
     2
102
RTVSPropertyOp15
 70
     0
102
RTVSPropertyOp16
 70
     0
102
RTVSPropertyOp17
 70
     0
102
RTVSPropertyOp18
 70
     0
102
RTVSPropertyOp19
 70
     0
102
RTVSPropertyOp20
 70
     0
102
RTVSPropertyOp21
 70
     0
102
RTVSPropertyOp22
 70
     0
102
RTVSPropertyOp23
 70
     0
102
RTVSPropertyOp24
 70
     0
102
RTVSPropertyOp25
 70
     0
102
RTVSPropertyOp26
 70
     0
102
RTVSPropertyOp27
 70
     0
  0
XRECORD
  5
23B
102
{ACAD_REACTORS
330
23A
102
}
330
23A
100
AcDbXrecord
280
     1
102
RTVSPropertyOp0
 70
     1
102
RTVSPropertyOp1
 70
     1
102
RTVSPropertyOp2
 70
     1
102
RTVSPropertyOp3
 70
     1
102
RTVSPropertyOp4
 70
     1
102
RTVSPropertyOp5
 70
     1
102
RTVSPropertyOp6
 70
     1
102
RTVSPropertyOp7
 70
     1
102
RTVSPropertyOp8
 70
     1
102
RTVSPropertyOp9
 70
     1
102
RTVSPropertyOp10
 70
     1
102
RTVSPropertyOp11
 70
     1
102
RTVSPropertyOp12
 70
     1
102
RTVSPropertyOp13
 70
     1
102
RTVSPropertyOp14
 70
     1
102
RTVSPropertyOp15
 70
     1
102
RTVSPropertyOp16
 70
     1
102
RTVSPropertyOp17
 70
     1
102
RTVSPropertyOp18
 70
     1
102
RTVSPropertyOp19
 70
     1
102
RTVSPropertyOp20
 70
     1
102
RTVSPropertyOp21
 70
     1
102
RTVSPropertyOp22
 70
     1
102
RTVSPropertyOp23
 70
     1
102
RTVSPropertyOp24
 70
     1
102
RTVSPropertyOp25
 70
     1
102
RTVSPropertyOp26
 70
     1
102
RTVSPropertyOp27
 70
     1
  0
XRECORD
  5
241
102
{ACAD_REACTORS
330
240
102
}
330
240
100
AcDbXrecord
280
     1
102
RTVSPropertyOp0
 70
     1
102
RTVSPropertyOp1
 70
     1
102
RTVSPropertyOp2
 70
     1
102
RTVSPropertyOp3
 70
     1
102
RTVSPropertyOp4
 70
     1
102
RTVSPropertyOp5
 70
     1
102
RTVSPropertyOp6
 70
     1
102
RTVSPropertyOp7
 70
     1
102
RTVSPropertyOp8
 70
     1
102
RTVSPropertyOp9
 70
     1
102
RTVSPropertyOp10
 70
     1
102
RTVSPropertyOp11
 70
     1
102
RTVSPropertyOp12
 70
     1
102
RTVSPropertyOp13
 70
     1
102
RTVSPropertyOp14
 70
     1
102
RTVSPropertyOp15
 70
     1
102
RTVSPropertyOp16
 70
     1
102
RTVSPropertyOp17
 70
     1
102
RTVSPropertyOp18
 70
     1
102
RTVSPropertyOp19
 70
     1
102
RTVSPropertyOp20
 70
     1
102
RTVSPropertyOp21
 70
     1
102
RTVSPropertyOp22
 70
     1
102
RTVSPropertyOp23
 70
     1
102
RTVSPropertyOp24
 70
     1
102
RTVSPropertyOp25
 70
     1
102
RTVSPropertyOp26
 70
     1
102
RTVSPropertyOp27
 70
     1
  0
ENDSEC
  0
EOF
