  0
SECTION
  2
HEADER
  9
$ACADVER
  1
AC1015
  9
$ACADMAINTVER
 70
    20
  9
$DWGCODEPAGE
  3
ANSI_932
  9
$INSBASE
 10
0.0
 20
0.0
 30
0.0
  9
$EXTMIN
 10
500.2301773326232
 20
-37.79380353188299
 30
0.0
  9
$EXTMAX
 10
3023.230177332624
 20
1744.206196468117
 30
0.0
  9
$LIMMIN
 10
0.0
 20
0.0
  9
$LIMMAX
 10
420.0
 20
297.0
  9
$ORTHOMODE
 70
     0
  9
$REGENMODE
 70
     1
  9
$FILLMODE
 70
     1
  9
$QTEXTMODE
 70
     0
  9
$MIRRTEXT
 70
     0
  9
$LTSCALE
 40
1.0
  9
$ATTMODE
 70
     1
  9
$TEXTSIZE
 40
4.0
  9
$TRACEWID
 40
1.0
  9
$TEXTSTYLE
  7
ULVAC
  9
$CLAYER
  8
PROFILE2
  9
$CELTYPE
  6
ByLayer
  9
$CECOLOR
 62
   256
  9
$CELTSCALE
 40
0.5
  9
$DISPSILH
 70
     0
  9
$DIMSCALE
 40
1.0
  9
$DIMASZ
 40
2.9
  9
$DIMEXO
 40
1.269999980926513
  9
$DIMDLI
 40
10.0
  9
$DIMRND
 40
0.0
  9
$DIMDLE
 40
0.0
  9
$DIMEXE
 40
1.200000047683715
  9
$DIMTP
 40
0.0
  9
$DIMTM
 40
0.0
  9
$DIMTXT
 40
4.0
  9
$DIMCEN
 40
0.0
  9
$DIMTSZ
 40
0.0
  9
$DIMTOL
 70
     0
  9
$DIMLIM
 70
     0
  9
$DIMTIH
 70
     0
  9
$DIMTOH
 70
     0
  9
$DIMSE1
 70
     0
  9
$DIMSE2
 70
     0
  9
$DIMTAD
 70
     1
  9
$DIMZIN
 70
     9
  9
$DIMBLK
  1
Open30
  9
$DIMASO
 70
     1
  9
$DIMSHO
 70
     1
  9
$DIMPOST
  1

  9
$DIMAPOST
  1

  9
$DIMALT
 70
     0
  9
$DIMALTD
 70
     4
  9
$DIMALTF
 40
0.03937007874016
  9
$DIMLFAC
 40
1.0
  9
$DIMTOFL
 70
     1
  9
$DIMTVP
 40
0.0
  9
$DIMTIX
 70
     0
  9
$DIMSOXD
 70
     0
  9
$DIMSAH
 70
     0
  9
$DIMBLK1
  1

  9
$DIMBLK2
  1

  9
$DIMSTYLE
  2
ULVAC
  9
$DIMCLRD
 70
     0
  9
$DIMCLRE
 70
     0
  9
$DIMCLRT
 70
     0
  9
$DIMTFAC
 40
0.75
  9
$DIMGAP
 40
1.0
  9
$DIMJUST
 70
     0
  9
$DIMSD1
 70
     0
  9
$DIMSD2
 70
     0
  9
$DIMTOLJ
 70
     1
  9
$DIMTZIN
 70
     8
  9
$DIMALTZ
 70
     0
  9
$DIMALTTZ
 70
     0
  9
$DIMUPT
 70
     1
  9
$DIMDEC
 70
     2
  9
$DIMTDEC
 70
     2
  9
$DIMALTU
 70
     2
  9
$DIMALTTD
 70
     4
  9
$DIMTXSTY
  7
ULVAC
  9
$DIMAUNIT
 70
     0
  9
$DIMADEC
 70
     2
  9
$DIMALTRND
 40
0.0
  9
$DIMAZIN
 70
     2
  9
$DIMDSEP
 70
    46
  9
$DIMATFIT
 70
     3
  9
$DIMFRAC
 70
     0
  9
$DIMLDRBLK
  1
Open30
  9
$DIMLUNIT
 70
     2
  9
$DIMLWD
 70
    -1
  9
$DIMLWE
 70
    -1
  9
$DIMTMOVE
 70
     0
  9
$LUNITS
 70
     2
  9
$LUPREC
 70
     2
  9
$SKETCHINC
 40
1.0
  9
$FILLETRAD
 40
0.0
  9
$AUNITS
 70
     0
  9
$AUPREC
 70
     0
  9
$MENU
  1
.
  9
$ELEVATION
 40
0.0
  9
$PELEVATION
 40
0.0
  9
$THICKNESS
 40
0.0
  9
$LIMCHECK
 70
     0
  9
$CHAMFERA
 40
2.5
  9
$CHAMFERB
 40
2.5
  9
$CHAMFERC
 40
10.00000000000004
  9
$CHAMFERD
 40
0.7853981633974439
  9
$SKPOLY
 70
     0
  9
$TDCREATE
 40
2454875.549772049
  9
$TDUCREATE
 40
2454875.174772049
  9
$TDUPDATE
 40
2457137.475676389
  9
$TDUUPDATE
 40
2457137.100676389
  9
$TDINDWG
 40
0.0580445255
  9
$TDUSRTIMER
 40
0.0580443403
  9
$USRTIMER
 70
     1
  9
$ANGBASE
 50
0.0
  9
$ANGDIR
 70
     0
  9
$PDMODE
 70
     0
  9
$PDSIZE
 40
0.0
  9
$PLINEWID
 40
0.0
  9
$SPLFRAME
 70
     0
  9
$SPLINETYPE
 70
     6
  9
$SPLINESEGS
 70
     8
  9
$HANDSEED
  5
498C
  9
$SURFTAB1
 70
     6
  9
$SURFTAB2
 70
     6
  9
$SURFTYPE
 70
     6
  9
$SURFU
 70
     6
  9
$SURFV
 70
     6
  9
$UCSBASE
  2

  9
$UCSNAME
  2

  9
$UCSORG
 10
0.0
 20
0.0
 30
0.0
  9
$UCSXDIR
 10
1.0
 20
0.0
 30
0.0
  9
$UCSYDIR
 10
0.0
 20
1.0
 30
0.0
  9
$UCSORTHOREF
  2

  9
$UCSORTHOVIEW
 70
     0
  9
$UCSORGTOP
 10
0.0
 20
0.0
 30
0.0
  9
$UCSORGBOTTOM
 10
0.0
 20
0.0
 30
0.0
  9
$UCSORGLEFT
 10
0.0
 20
0.0
 30
0.0
  9
$UCSORGRIGHT
 10
0.0
 20
0.0
 30
0.0
  9
$UCSORGFRONT
 10
0.0
 20
0.0
 30
0.0
  9
$UCSORGBACK
 10
0.0
 20
0.0
 30
0.0
  9
$PUCSBASE
  2

  9
$PUCSNAME
  2

  9
$PUCSORG
 10
0.0
 20
0.0
 30
0.0
  9
$PUCSXDIR
 10
1.0
 20
0.0
 30
0.0
  9
$PUCSYDIR
 10
0.0
 20
1.0
 30
0.0
  9
$PUCSORTHOREF
  2

  9
$PUCSORTHOVIEW
 70
     0
  9
$PUCSORGTOP
 10
0.0
 20
0.0
 30
0.0
  9
$PUCSORGBOTTOM
 10
0.0
 20
0.0
 30
0.0
  9
$PUCSORGLEFT
 10
0.0
 20
0.0
 30
0.0
  9
$PUCSORGRIGHT
 10
0.0
 20
0.0
 30
0.0
  9
$PUCSORGFRONT
 10
0.0
 20
0.0
 30
0.0
  9
$PUCSORGBACK
 10
0.0
 20
0.0
 30
0.0
  9
$USERI1
 70
     0
  9
$USERI2
 70
     0
  9
$USERI3
 70
     0
  9
$USERI4
 70
     0
  9
$USERI5
 70
     0
  9
$USERR1
 40
0.0
  9
$USERR2
 40
0.0
  9
$USERR3
 40
0.0
  9
$USERR4
 40
0.0
  9
$USERR5
 40
0.0
  9
$WORLDVIEW
 70
     1
  9
$SHADEDGE
 70
     3
  9
$SHADEDIF
 70
    70
  9
$TILEMODE
 70
     1
  9
$MAXACTVP
 70
    64
  9
$PINSBASE
 10
0.0
 20
0.0
 30
0.0
  9
$PLIMCHECK
 70
     0
  9
$PEXTMIN
 10
1.000000000000000E+20
 20
1.000000000000000E+20
 30
1.000000000000000E+20
  9
$PEXTMAX
 10
-1.000000000000000E+20
 20
-1.000000000000000E+20
 30
-1.000000000000000E+20
  9
$PLIMMIN
 10
-6.350006103515625
 20
-6.349999904632568
  9
$PLIMMAX
 10
273.0499877929688
 20
209.5499939918518
  9
$UNITMODE
 70
     0
  9
$VISRETAIN
 70
     1
  9
$PLINEGEN
 70
     0
  9
$PSLTSCALE
 70
     1
  9
$TREEDEPTH
 70
  3020
  9
$CMLSTYLE
  2
Standard
  9
$CMLJUST
 70
     0
  9
$CMLSCALE
 40
20.0
  9
$PROXYGRAPHICS
 70
     1
  9
$MEASUREMENT
 70
     1
  9
$CELWEIGHT
370
    -1
  9
$ENDCAPS
280
     0
  9
$JOINSTYLE
280
     0
  9
$LWDISPLAY
290
     1
  9
$INSUNITS
 70
     4
  9
$HYPERLINKBASE
  1

  9
$STYLESHEET
  1
monochrome_ULVAC.ctb
  9
$XEDIT
290
     1
  9
$CEPSNTYPE
380
     0
  9
$PSTYLEMODE
290
     1
  9
$FINGERPRINTGUID
  2
{B0D8DFAB-36E2-47C7-91B7-0C8A72661DF6}
  9
$VERSIONGUID
  2
{707F1D9D-5F89-42DF-8353-E85BEFE6D56D}
  9
$EXTNAMES
290
     1
  9
$PSVPSCALE
 40
0.0
  9
$OLESTARTUP
290
     0
  0
ENDSEC
  0
SECTION
  2
CLASSES
  0
CLASS
  1
ACDBDICTIONARYWDFLT
  2
AcDbDictionaryWithDefault
  3
ObjectDBX Classes
 90
        0
280
     0
281
     0
  0
CLASS
  1
ACDBPLACEHOLDER
  2
AcDbPlaceHolder
  3
ObjectDBX Classes
 90
        0
280
     0
281
     0
  0
CLASS
  1
LAYOUT
  2
AcDbLayout
  3
ObjectDBX Classes
 90
        0
280
     0
281
     0
  0
CLASS
  1
AMGSETTINGSOBJ
  2
AmgSettingsObj
  3
"AcadM|Product Description: AutoCAD Mechanical|Company: Autodesk, Inc."
 90
     1024
280
     0
281
     0
  0
CLASS
  1
ACME_DOCUMENT
  2
AcMeDbDoc
  3
AcMeServices
 90
     1024
280
     0
281
     0
  0
CLASS
  1
ACMESCOPE
  2
AcMeScope
  3
AcMeServices
 90
     1024
280
     0
281
     0
  0
CLASS
  1
ACMECOMMANDHISTORY
  2
AcMeCommandHistory
  3
AcMeServices
 90
     1024
280
     0
281
     0
  0
CLASS
  1
DICTIONARYVAR
  2
AcDbDictionaryVar
  3
ObjectDBX Classes
 90
        0
280
     0
281
     0
  0
CLASS
  1
ACIMSYSVARMAN
  2
AcImSysVarManager
  3
AcMeServices
 90
     1024
280
     0
281
     0
  0
CLASS
  1
ACIMREALSYSVAR
  2
AcImRealSysVar
  3
AcMeServices
 90
     1024
280
     0
281
     0
  0
CLASS
  1
ACIMINTSYSVAR
  2
AcImIntSysVar
  3
AcMeServices
 90
     1024
280
     0
281
     0
  0
CLASS
  1
ACMEDRAWINGMAN
  2
AcMeDrawingMan
  3
AcMeServices
 90
     1024
280
     0
281
     0
  0
CLASS
  1
ACMEVIEW
  2
AcMeView
  3
AcMeServices
 90
     1024
280
     0
281
     0
  0
CLASS
  1
ACDBENTITYCACHE
  2
AcMeEntityCache
  3
AcMeServices
 90
     1024
280
     0
281
     0
  0
CLASS
  1
GSMANAGER
  2
AcMeGSManager
  3
AcMeServices
 90
    32768
280
     0
281
     0
  0
CLASS
  1
AMDTINTERNALREACTOR
  2
AmdtInternalReactor
  3
AcMeServices
 90
     1024
280
     0
281
     0
  0
CLASS
  1
ACMESTATEMGR
  2
AcMeStateMgr
  3
AcMeServices
 90
     1024
280
     0
281
     0
  0
CLASS
  1
ACGREFMASTER
  2
AcGrefMaster
  3
AcAttribServices
 90
     1024
280
     0
281
     0
  0
CLASS
  1
ACME_DATABASE
  2
AcMeDbDatabase
  3
AcMeServices
 90
     1024
280
     0
281
     0
  0
CLASS
  1
ACRFINSADJUSTERMGR
  2
AcRfInsAdjusterMgr
  3
AcMeServices
 90
     1024
280
     0
281
     0
  0
CLASS
  1
ACGREFACADMASTER
  2
AcGrefacadMaster
  3
AcGrefServices
 90
     1024
280
     0
281
     0
  0
CLASS
  1
AMIMASTER
  2
AmiMaster
  3
AmiServices
 90
     1024
280
     0
281
     0
  0
CLASS
  1
ACIMSTRSYSVAR
  2
AcImStrSysVar
  3
AcMeServices
 90
     1024
280
     0
281
     0
  0
CLASS
  1
ACMSTANDARDJIS
  2
AcmStandardJIS
  3
"Amdt_StdImp|Product Description: AutoCAD Mechanical|Company: Autodesk, Inc."
 90
     1024
280
     0
281
     0
  0
CLASS
  1
AMGOBJPROPCFG
  2
AmgObjPropCfg
  3
"AmgLay|Product Description: AutoCAD Mechanical|Company: Autodesk, Inc."
 90
     1025
280
     0
281
     0
  0
CLASS
  1
ACMSURFSTANDARDJIS
  2
AcmSurfTextStdJIS
  3
"Amdt_StdImp|Product Description: AutoCAD Mechanical|Company: Autodesk, Inc."
 90
     1024
280
     0
281
     0
  0
CLASS
  1
ACMFCFSTANDARDJIS
  2
AcmFCFStdJIS
  3
"Amdt_StdImp|Product Description: AutoCAD Mechanical|Company: Autodesk, Inc."
 90
    33792
280
     0
281
     0
  0
CLASS
  1
ACMWELDSTANDARDJIS
  2
AcmWeldingStdJIS
  3
"Amdt_StdImp|Product Description: AutoCAD Mechanical|Company: Autodesk, Inc."
 90
     1024
280
     0
281
     0
  0
CLASS
  1
ACMIDSTANDARDJIS
  2
AcmIdStdJIS
  3
"Amdt_StdImp|Product Description: AutoCAD Mechanical|Company: Autodesk, Inc."
 90
     1024
280
     0
281
     0
  0
CLASS
  1
ACMDATUMSTANDARDJIS
  2
AcmDatumStdJIS
  3
"Amdt_StdImp|Product Description: AutoCAD Mechanical|Company: Autodesk, Inc."
 90
     1024
280
     0
281
     0
  0
CLASS
  1
ACMBOMSTANDARDJIS
  2
AcmBOMStdJIS
  3
"Amdt_StdImp|Product Description: AutoCAD Mechanical|Company: Autodesk, Inc."
 90
     1024
280
     0
281
     0
  0
CLASS
  1
ACMDETAILSTANDARDJIS
  2
AmdtDetailSymStdJIS
  3
"Amdt_StdImp|Product Description: AutoCAD Mechanical|Company: Autodesk, Inc."
 90
     1024
280
     0
281
     0
  0
CLASS
  1
ACMSECTIONSTANDARDJIS
  2
AmdtSectionSymStdJIS
  3
"Amdt_StdImp|Product Description: AutoCAD Mechanical|Company: Autodesk, Inc."
 90
     1024
280
     0
281
     0
  0
CLASS
  1
ACMCENTERLINESTANDARDJIS
  2
AmdtCenterLineStdJIS
  3
"Amdt_StdImp|Product Description: AutoCAD Mechanical|Company: Autodesk, Inc."
 90
     1024
280
     0
281
     0
  0
CLASS
  1
ACMTHREADLINESTANDARDJIS
  2
AmdtThreadLineStdJIS
  3
"Amdt_StdImp|Product Description: AutoCAD Mechanical|Company: Autodesk, Inc."
 90
     1024
280
     0
281
     0
  0
CLASS
  1
ACAMGLAYSTD
  2
AcAmgLayStd
  3
"AmgLay|Product Description: AutoCAD Mechanical|Company: Autodesk, Inc."
 90
     1024
280
     0
281
     0
  0
CLASS
  1
ACAMGDIMSTD
  2
AcAmgDimStd
  3
"AmgDim|Product Description: AutoCAD Mechanical|Company: Autodesk, Inc."
 90
     1024
280
     0
281
     0
  0
CLASS
  1
ACAMGTITLESTD
  2
AcAmgTitleStd
  3
"AmgTitle|Product Description: AutoCAD Mechanical|Company: Autodesk, Inc."
 90
     4095
280
     0
281
     0
  0
CLASS
  1
ACMDATADICTIONARY
  2
AcmDataDictionary
  3
"AcmSymBB|Product Description: AutoCAD Mechanical|Company: Autodesk, Inc."
 90
     1024
280
     0
281
     0
  0
CLASS
  1
ACMDATAENTRYBLOCK
  2
AcmDataEntryBlock
  3
AcmSymBB|Product Description: AutoCAD Mechanical|Company: Autodesk, Inc.
 90
     1024
280
     0
281
     0
  0
CLASS
  1
LAYER_INDEX
  2
AcDbLayerIndex
  3
ObjectDBX Classes
 90
    32768
280
     0
281
     0
  0
CLASS
  1
IDBUFFER
  2
AcDbIdBuffer
  3
ObjectDBX Classes
 90
    32768
280
     0
281
     0
  0
CLASS
  1
ACMNOTESTANDARDJIS
  2
AmdtNoteStdJIS
  3
"Amdt_StdImp|Product Description: AutoCAD Mechanical|Company: Autodesk, Inc."
 90
     1024
280
     0
281
     0
  0
CLASS
  1
ACAMGHOLECHARTSTDJIS
  2
AcAmgHoleChartStdJIS
  3
AmgDim|Product Description: AutoCAD Mechanical|Company: Autodesk, Inc.
 90
     1024
280
     0
281
     0
  0
CLASS
  1
AM_DRAWING_MGR
  2
AcDmDwgMgr
  3
AcMechDwgViewMgmt
 90
     1024
280
     0
281
     0
  0
CLASS
  1
AM_DWG_DOCUMENT
  2
AcDmDwgDocument
  3
AcMechDwgViewMgmt
 90
     1024
280
     0
281
     0
  0
CLASS
  1
AM_DWG_SHEET
  2
AcDmSheet
  3
AcMechDwgViewMgmt
 90
     1024
280
     0
281
     0
  0
CLASS
  1
AM_VIEWDIMPARMAP
  2
AcDmViewDimParMap
  3
AcMechDwgViewMgmt
 90
     1024
280
     0
281
     0
  0
CLASS
  1
AM_DWGMGR_NAME
  2
AcDmDwgMgrName
  3
AcMechDwgViewMgmt
 90
     1024
280
     0
281
     0
  0
CLASS
  1
AMDTMENUSTATEMGR
  2
AmdtMenuStateMgr
  3
McadcomServices
 90
     1024
280
     0
281
     0
  0
CLASS
  1
AMDTMCOMMENUSTATE
  2
AmdtMcomMenuState
  3
McadcomServices
 90
     1024
280
     0
281
     0
  0
CLASS
  1
MAPIAMMOUDLE
  2
MApiAmModule
  3
MApiAmServices
 90
     1024
280
     0
281
     0
  0
CLASS
  1
AMDTADMENUSTATE
  2
AmdtAdMenuState
  3
DesignerServices
 90
     1024
280
     0
281
     0
  0
CLASS
  1
ADAPPL
  2
AcAdAppl
  3
DesignerServices
 90
     1024
280
     0
281
     0
  0
CLASS
  1
DEPMGR
  2
AcAdDepMgr
  3
DesignerServices
 90
     1024
280
     0
281
     0
  0
CLASS
  1
PARAMMGR
  2
AcAdParamMgr
  3
DesignerServices
 90
     1024
280
     0
281
     0
  0
CLASS
  1
PARAMSCOPE
  2
AcAdParamScope
  3
DesignerServices
 90
     1024
280
     0
281
     0
  0
CLASS
  1
NAMEDAPPL
  2
AcAdNamedAppl
  3
DesignerServices
 90
     1024
280
     0
281
     0
  0
CLASS
  1
AMDTDMMENUSTATE
  2
AmdtDmMenuState
  3
AcMechDwgViewMgmt
 90
     1024
280
     0
281
     0
  0
CLASS
  1
AMDTAMMENUSTATE
  2
AmdtAmMenuState
  3
DesignerAssemblies
 90
     1024
280
     0
281
     0
  0
CLASS
  1
ACAMPROJECT
  2
AcAmProject
  3
DesignerAssemblies
 90
     1024
280
     0
281
     0
  0
CLASS
  1
ACAMGRCOMPDEF
  2
AcAmGrCompDef
  3
DesignerAssemblies
 90
     1024
280
     0
281
     0
  0
CLASS
  1
ACCMCONTEXT
  2
AcCmContext
  3
DesignerAssemblies
 90
     1024
280
     0
281
     0
  0
CLASS
  1
ACAMCOMPDEF
  2
AcAmCompDef
  3
DesignerAssemblies
 90
     1024
280
     0
281
     0
  0
CLASS
  1
ACAMCOMPDEFMGR
  2
AcAmCompDefMgr
  3
DesignerAssemblies
 90
     1024
280
     0
281
     0
  0
CLASS
  1
AMCONTEXTMGR
  2
AcAmContextMgr
  3
DesignerAssemblies
 90
     1024
280
     0
281
     0
  0
CLASS
  1
ACAMCONTEXTMODELER
  2
AcAmContextModeler
  3
DesignerAssemblies
 90
     1024
280
     0
281
     0
  0
CLASS
  1
CATALOGSTATE
  2
AcAmCatalogState
  3
DesignerAssemblies
 90
     1024
280
     0
281
     0
  0
CLASS
  1
ACAMGRCOMPDEFSET
  2
AcAmGrCompDefSet
  3
DesignerAssemblies
 90
     1024
280
     0
281
     0
  0
CLASS
  1
AMDTBROWSERDBTAB
  2
AmdtBrowserDbTab
  3
McadcomServices
 90
     1024
280
     0
281
     0
  0
CLASS
  1
CBROWSERAPPOBJECT
  2
CBrowserAppObject
  3
McadcomServices
 90
     1024
280
     0
281
     0
  0
CLASS
  1
DM_PLACEHOLDER
  2
AcDmSelsetPlaceholder
  3
AcMechDwgViewMgmt
 90
     1024
280
     0
281
     0
  0
CLASS
  1
TABLESTYLE
  2
AcDbTableStyle
  3
ObjectDBX Classes
 90
     4095
280
     0
281
     0
  0
CLASS
  1
VAACXREFPANELOBJECT
  2
VaAcXREFPanelObject
  3
VAAC_ADDIN
 90
    32768
280
     0
281
     0
  0
CLASS
  1
VAACIMAGEINVENTORY
  2
VaAcImageInventory
  3
VAAC_ADDIN
 90
    32768
280
     0
281
     0
  0
CLASS
  1
AMDTNOTETEMPLATEDB
  2
AmdtNoteTemplateDB
  3
AcmSymBB|Product Description: AutoCAD Mechanical|Company: Autodesk, Inc.
 90
     1024
280
     0
281
     0
  0
CLASS
  1
ACMBOM
  2
AcmBom
  3
"AcmSymBB|Product Description: AutoCAD Mechanical|Company: Autodesk, Inc."
 90
     1024
280
     0
281
     0
  0
CLASS
  1
AMDTFORMULAUPDATEDISPATCHER
  2
AmdtFormulaUpdateDispatcher
  3
AcMeServices
 90
     1024
280
     0
281
     0
  0
CLASS
  1
ACMPARTLIST
  2
AcmPartList
  3
"AcmSymBB|Product Description: AutoCAD Mechanical|Company: Autodesk, Inc."
 90
    36863
280
     0
281
     1
  0
CLASS
  1
ACAMGFILTERDAT
  2
AcAmgFilterDat
  3
"AcadM|Product Description: AutoCAD Mechanical|Company: Autodesk, Inc."
 90
     1024
280
     0
281
     0
  0
CLASS
  1
ACMFCFSTANDARDJIS98
  2
AcmFCFStdJIS98
  3
"Amdt_StdImp|Product Description: AutoCAD Mechanical|Company: Autodesk, Inc."
 90
     1024
280
     0
281
     0
  0
CLASS
  1
AMDTNOTE
  2
AmdtNote
  3
"AcmSymBB|Product Description: AutoCAD Mechanical|Company: Autodesk, Inc."
 90
     4095
280
     0
281
     1
  0
CLASS
  1
AC_AM_MVD_DEP_MGR
  2
AcAmMVDdepMgr
  3
DesignerAssemblies
 90
    33792
280
     0
281
     0
  0
CLASS
  1
AC_AM_MASTER_VIEW_DEF
  2
AcAmMasterViewDef
  3
DesignerAssemblies
 90
    33792
280
     0
281
     0
  0
CLASS
  1
AC_AM_DIRTY_NODES
  2
AcAmDirtyNodes
  3
DesignerAssemblies
 90
    33792
280
     0
281
     0
  0
CLASS
  1
AC_AM_MAPPER_CACHE
  2
AcAmMapperCache
  3
DesignerAssemblies
 90
    33792
280
     0
281
     0
  0
CLASS
  1
ACAMMVDBACKUPOBJECT
  2
AcAmMVDBackupObject
  3
DesignerAssemblies
 90
    33792
280
     0
281
     0
  0
CLASS
  1
AC_AM_HIDE_SITUATION
  2
AcAmHideSituation
  3
DesignerAssemblies
 90
    33792
280
     0
281
     0
  0
CLASS
  1
AC_AM_2D_XREF_MGR
  2
AcAmXrefMgr2d
  3
DesignerAssemblies
 90
    33792
280
     0
281
     0
  0
CLASS
  1
ACMDATAENTRYPART
  2
AcmDataEntryPart
  3
AcmSymBB|Product Description: AutoCAD Mechanical|Company: Autodesk, Inc.
 90
    33792
280
     0
281
     0
  0
CLASS
  1
ACMPARTREF
  2
AcmPartRef
  3
"AcmSymBB|Product Description: AutoCAD Mechanical|Company: Autodesk, Inc."
 90
    36863
280
     0
281
     1
  0
CLASS
  1
ACMBOMROW
  2
AcmBomRow
  3
"AcmSymBB|Product Description: AutoCAD Mechanical|Company: Autodesk, Inc."
 90
    33792
280
     0
281
     0
  0
CLASS
  1
ACMBALLOON
  2
AcmBalloon
  3
"AcmSymBB|Product Description: AutoCAD Mechanical|Company: Autodesk, Inc."
 90
    36863
280
     0
281
     1
  0
CLASS
  1
STDPART2D
  2
AmgStdPart
  3
AmgStdPart|Product Description: AutoCAD Mechanical|Company: Autodesk, Inc.
 90
    36863
280
     0
281
     1
  0
CLASS
  1
ACAMSTDPCOMPDEF
  2
AcAmStdpCompDef
  3
DesignerAssemblies
 90
    33792
280
     0
281
     0
  0
CLASS
  1
ACRFATTGENMGR
  2
AcRfAttGeneralMgr
  3
AcAttribServices
 90
     1024
280
     0
281
     0
  0
CLASS
  1
ACRFOBJATTMGR
  2
AcRfObjAttGroupMgr
  3
AcAttribServices
 90
     1024
280
     0
281
     0
  0
CLASS
  1
ACRFMCADAPIATTHOLDER
  2
AcRfMCADAPIAttHolder
  3
AcAttribServices
 90
     1024
280
     0
281
     0
  0
CLASS
  1
AMDTSYSATTR
  2
AmdtSystemAttribute
  3
AcAttribServices
 90
     1024
280
     0
281
     0
  0
CLASS
  1
ACAMCOMP
  2
AcAmComp
  3
DesignerAssemblies
 90
    33792
280
     0
281
     0
  0
CLASS
  1
AC_AM_STDP_VIEW_DEF
  2
AcAmStdpViewDef
  3
DesignerAssemblies
 90
    33792
280
     0
281
     0
  0
CLASS
  1
AC_AM_COMP_VIEW_INST
  2
AcAmCompView
  3
DesignerAssemblies
 90
    33792
280
     0
281
     0
  0
CLASS
  1
ACDBSTDPARTRES_ARC
  2
AcDbStdPartRes_Arc
  3
AmgStdPart|Product Description: AutoCAD Mechanical|Company: Autodesk, Inc.
 90
    33792
280
     0
281
     0
  0
CLASS
  1
ACMSURFSYM
  2
AcmSurfaceTexture
  3
"AcmSymBB|Product Description: AutoCAD Mechanical|Company: Autodesk, Inc."
 90
    36863
280
     0
281
     1
  0
CLASS
  1
ACMSTANDARDANSI
  2
AcmStandardANSI
  3
"Amdt_StdImp|Product Description: AutoCAD Mechanical|Company: Autodesk, Inc."
 90
    33792
280
     0
281
     0
  0
CLASS
  1
ACMSURFSTANDARDANSI
  2
AcmSurfTextStdANSI
  3
"Amdt_StdImp|Product Description: AutoCAD Mechanical|Company: Autodesk, Inc."
 90
    33792
280
     0
281
     0
  0
CLASS
  1
ACMFCFSTANDARDANSI
  2
AcmFCFStdANSI
  3
"Amdt_StdImp|Product Description: AutoCAD Mechanical|Company: Autodesk, Inc."
 90
    33792
280
     0
281
     0
  0
CLASS
  1
ACMWELDSTANDARDANSI
  2
AcmWeldingStdANSI
  3
"Amdt_StdImp|Product Description: AutoCAD Mechanical|Company: Autodesk, Inc."
 90
    33792
280
     0
281
     0
  0
CLASS
  1
ACMIDSTANDARDANSI
  2
AcmIdStdANSI
  3
"Amdt_StdImp|Product Description: AutoCAD Mechanical|Company: Autodesk, Inc."
 90
    33792
280
     0
281
     0
  0
CLASS
  1
ACMDATUMSTANDARDANSI
  2
AcmDatumStdANSI
  3
"Amdt_StdImp|Product Description: AutoCAD Mechanical|Company: Autodesk, Inc."
 90
    33792
280
     0
281
     0
  0
CLASS
  1
ACMBOMSTANDARDANSI
  2
AcmBOMStdANSI
  3
"Amdt_StdImp|Product Description: AutoCAD Mechanical|Company: Autodesk, Inc."
 90
    33792
280
     0
281
     0
  0
CLASS
  1
ACMDETAILSTANDARDANSI
  2
AmdtDetailSymStdANSI
  3
"Amdt_StdImp|Product Description: AutoCAD Mechanical|Company: Autodesk, Inc."
 90
    33792
280
     0
281
     0
  0
CLASS
  1
ACMSECTIONSTANDARDANSI
  2
AmdtSectionSymStdANSI
  3
"Amdt_StdImp|Product Description: AutoCAD Mechanical|Company: Autodesk, Inc."
 90
    33792
280
     0
281
     0
  0
CLASS
  1
ACMCENTERLINESTANDARDANSI
  2
AmdtCenterLineStdANSI
  3
"Amdt_StdImp|Product Description: AutoCAD Mechanical|Company: Autodesk, Inc."
 90
    33792
280
     0
281
     0
  0
CLASS
  1
ACMTHREADLINESTANDARDANSI
  2
AmdtThreadLineStdANSI
  3
"Amdt_StdImp|Product Description: AutoCAD Mechanical|Company: Autodesk, Inc."
 90
    33792
280
     0
281
     0
  0
CLASS
  1
ACMNOTESTANDARDANSI
  2
AmdtNoteStdANSI
  3
"Amdt_StdImp|Product Description: AutoCAD Mechanical|Company: Autodesk, Inc."
 90
    33792
280
     0
281
     0
  0
CLASS
  1
ACAMGHOLECHARTSTDANSI
  2
AcAmgHoleChartStdANSI
  3
AmgDim|Product Description: AutoCAD Mechanical|Company: Autodesk, Inc.
 90
    33792
280
     0
281
     0
  0
CLASS
  1
SORTENTSTABLE
  2
AcDbSortentsTable
  3
ObjectDBX Classes
 90
        0
280
     0
281
     0
  0
CLASS
  1
ACMSTANDARDISO
  2
AcmStandardISO
  3
"Amdt_StdImp|Product Description: AutoCAD Mechanical|Company: Autodesk, Inc."
 90
     1024
280
     0
281
     0
  0
CLASS
  1
AMDTEDGESTANDARDISO13715
  2
AmdtEdgeStdISO13715
  3
"Amdt_StdImp|Product Description: AutoCAD Mechanical|Company: Autodesk, Inc."
 90
     1024
280
     0
281
     0
  0
CLASS
  1
ACMSURFSTANDARDISO
  2
AcmSurfTextStdISO
  3
"Amdt_StdImp|Product Description: AutoCAD Mechanical|Company: Autodesk, Inc."
 90
     1024
280
     0
281
     0
  0
CLASS
  1
ACMFCFSTANDARDISO
  2
AcmFCFStdISO
  3
"Amdt_StdImp|Product Description: AutoCAD Mechanical|Company: Autodesk, Inc."
 90
     1024
280
     0
281
     0
  0
CLASS
  1
ACMWELDSTANDARDISO
  2
AcmWeldingStdISO
  3
"Amdt_StdImp|Product Description: AutoCAD Mechanical|Company: Autodesk, Inc."
 90
     1024
280
     0
281
     0
  0
CLASS
  1
ACMIDSTANDARDISO
  2
AcmIdStdISO
  3
"Amdt_StdImp|Product Description: AutoCAD Mechanical|Company: Autodesk, Inc."
 90
     1024
280
     0
281
     0
  0
CLASS
  1
ACMDATUMSTANDARDISO
  2
AcmDatumStdISO
  3
"Amdt_StdImp|Product Description: AutoCAD Mechanical|Company: Autodesk, Inc."
 90
     1024
280
     0
281
     0
  0
CLASS
  1
ACMBOMSTANDARDISO
  2
AcmBOMStdISO
  3
"Amdt_StdImp|Product Description: AutoCAD Mechanical|Company: Autodesk, Inc."
 90
     1024
280
     0
281
     0
  0
CLASS
  1
ACMDETAILSTANDARDISO
  2
AmdtDetailSymStdISO
  3
"Amdt_StdImp|Product Description: AutoCAD Mechanical|Company: Autodesk, Inc."
 90
     1024
280
     0
281
     0
  0
CLASS
  1
ACMSECTIONSTANDARDISO
  2
AmdtSectionSymStdISO
  3
"Amdt_StdImp|Product Description: AutoCAD Mechanical|Company: Autodesk, Inc."
 90
     1024
280
     0
281
     0
  0
CLASS
  1
ACMCENTERLINESTANDARDISO
  2
AmdtCenterLineStdISO
  3
"Amdt_StdImp|Product Description: AutoCAD Mechanical|Company: Autodesk, Inc."
 90
     1024
280
     0
281
     0
  0
CLASS
  1
ACMTHREADLINESTANDARDISO
  2
AmdtThreadLineStdISO
  3
"Amdt_StdImp|Product Description: AutoCAD Mechanical|Company: Autodesk, Inc."
 90
     1024
280
     0
281
     0
  0
CLASS
  1
ACMNOTESTANDARDISO
  2
AmdtNoteStdISO
  3
"Amdt_StdImp|Product Description: AutoCAD Mechanical|Company: Autodesk, Inc."
 90
     1024
280
     0
281
     0
  0
CLASS
  1
ACAMGHOLECHARTSTDISO
  2
AcAmgHoleChartStdISO
  3
AmgDim|Product Description: AutoCAD Mechanical|Company: Autodesk, Inc.
 90
     1024
280
     0
281
     0
  0
CLASS
  1
AMDTSECTIONSYM
  2
AmdtSectionSym
  3
"AcmSymBB|Product Description: AutoCAD Mechanical|Company: Autodesk, Inc."
 90
    36863
280
     0
281
     1
  0
CLASS
  1
AMDTSECTIONSYMLABEL
  2
AmdtSectionSymLabel
  3
"AcmSymBB|Product Description: AutoCAD Mechanical|Company: Autodesk, Inc."
 90
    36863
280
     0
281
     1
  0
CLASS
  1
PLOTSETTINGS
  2
AcDbPlotSettings
  3
ObjectDBX Classes
 90
        0
280
     0
281
     0
  0
CLASS
  1
FIELD
  2
AcDbField
  3
ObjectDBX Classes
 90
    33920
280
     0
281
     0
  0
CLASS
  1
FIELDLIST
  2
AcDbFieldList
  3
ObjectDBX Classes
 90
     1152
280
     0
281
     0
  0
CLASS
  1
MATERIAL
  2
AcDbMaterial
  3
ObjectDBX Classes
 90
     1153
280
     0
281
     0
  0
CLASS
  1
VISUALSTYLE
  2
AcDbVisualStyle
  3
ObjectDBX Classes
 90
     4095
280
     0
281
     0
  0
CLASS
  1
ACMTAPERSTANDARDJIS
  2
AcmTaperStdJIS
  3
"Amdt_StdImp|Product Description: AutoCAD Mechanical|Company: Autodesk, Inc."
 90
     1024
280
     0
281
     0
  0
CLASS
  1
CAMSSTRUCTBTNSTATE
  2
StructBtnState
  3
DesignerAssemblies
 90
     1024
280
     0
281
     0
  0
CLASS
  1
ACAD_EVALUATION_GRAPH
  2
AcDbEvalGraph
  3
ObjectDBX Classes
 90
    33921
280
     0
281
     0
  0
CLASS
  1
ACAECUSTOBJ
  2
AcAeEditorObj
  3
AcAeEditorObj
 90
    33792
280
     0
281
     0
  0
CLASS
  1
ACDB_DYNAMICBLOCKPURGEPREVENTER_VERSION
  2
AcDbDynamicBlockPurgePreventer
  3
ObjectDBX Classes
 90
    33921
280
     0
281
     0
  0
CLASS
  1
ACDBSTDPARTRES_LINE
  2
AcDbStdPartRes_Line
  3
AmgStdPart|Product Description: AutoCAD Mechanical|Company: Autodesk, Inc.
 90
    33792
280
     0
281
     0
  0
CLASS
  1
ACDBCIRCARCRES
  2
AcDbCircArcRes
  3
AcGrefServices
 90
     1024
280
     0
281
     0
  0
CLASS
  1
ACMTAPERSTANDARDISO
  2
AcmTaperStdISO
  3
"Amdt_StdImp|Product Description: AutoCAD Mechanical|Company: Autodesk, Inc."
 90
     1024
280
     0
281
     0
  0
CLASS
  1
DIMASSOC
  2
AcDbDimAssoc
  3
"AcDbDimAssoc|Product Desc:     AcDim ARX App For Dimension|Company:          Autodesk, Inc.|WEB Address:      www.autodesk.com"
 90
        0
280
     0
281
     0
  0
CLASS
  1
SCALE
  2
AcDbScale
  3
ObjectDBX Classes
 90
     1153
280
     0
281
     0
  0
CLASS
  1
MLEADERSTYLE
  2
AcDbMLeaderStyle
  3
ACDB_MLEADERSTYLE_CLASS
 90
     4095
280
     0
281
     0
  0
CLASS
  1
ACMANOOTATIONVIEWSTANDARDISO
  2
AmdtAnViewStdISO
  3
"Amdt_StdImp|Product Description: AutoCAD Mechanical|Company: Autodesk, Inc."
 90
     1024
280
     0
281
     0
  0
CLASS
  1
ACMANOOTATIONVIEWSTANDARDJIS
  2
AmdtAnViewStdJIS
  3
"Amdt_StdImp|Product Description: AutoCAD Mechanical|Company: Autodesk, Inc."
 90
     1024
280
     0
281
     0
  0
CLASS
  1
AMDTEDGESTANDARDJIS
  2
AmdtEdgeStdJIS
  3
"Amdt_StdImp|Product Description: AutoCAD Mechanical|Company: Autodesk, Inc."
 90
     1024
280
     0
281
     0
  0
CLASS
  1
AEC_REFEDIT_STATUS_TRACKER
  2
AecDbRefEditStatusTracker
  3
AecArchBase60|Product Desc: Autodesk Architectural Desktop 2007 |Company: Autodesk,Inc. |WEB Address: www.autodesk.com
 90
      129
280
     0
281
     0
  0
CLASS
  1
NPOCOLLECTION
  2
AcDbImpNonPersistentObjectsCollection
  3
ObjectDBX Classes
 90
     1153
280
     0
281
     0
  0
CLASS
  1
CELLSTYLEMAP
  2
AcDbCellStyleMap
  3
ObjectDBX Classes
 90
     1152
280
     0
281
     0
  0
ENDSEC
  0
SECTION
  2
TABLES
  0
TABLE
  2
VPORT
  5
8
330
0
100
AcDbSymbolTable
 70
     1
  0
VPORT
  5
3734
330
8
100
AcDbSymbolTableRecord
100
AcDbViewportTableRecord
  2
*Active
 70
     0
 10
0.0
 20
0.0
 11
1.0
 21
1.0
 12
2088.245370881105
 22
853.2062047664547
 13
0.0
 23
0.0
 14
2.5
 24
2.5
 15
10.0
 25
10.0
 16
0.0
 26
0.0
 36
1.0
 17
0.0
 27
0.0
 37
0.0
 40
1793.29868123675
 41
1.864057672502574
 42
50.0
 43
0.0
 44
0.0
 50
0.0
 51
0.0
 71
     0
 72
   100
 73
     1
 74
     3
 75
     0
 76
     0
 77
     0
 78
     0
281
     0
 65
     1
110
0.0
120
0.0
130
0.0
111
1.0
121
0.0
131
0.0
112
0.0
122
1.0
132
0.0
 79
     0
146
0.0
  0
ENDTAB
  0
TABLE
  2
LTYPE
  5
5
330
0
100
AcDbSymbolTable
 70
    20
  0
LTYPE
  5
14
330
5
100
AcDbSymbolTableRecord
100
AcDbLinetypeTableRecord
  2
ByBlock
 70
     0
  3

 72
    65
 73
     0
 40
0.0
  0
LTYPE
  5
15
330
5
100
AcDbSymbolTableRecord
100
AcDbLinetypeTableRecord
  2
ByLayer
 70
     0
  3

 72
    65
 73
     0
 40
0.0
  0
LTYPE
  5
16
330
5
100
AcDbSymbolTableRecord
100
AcDbLinetypeTableRecord
  2
Continuous
 70
     0
  3
Solid line
 72
    65
 73
     0
 40
0.0
  0
LTYPE
  5
4D
330
5
100
AcDbSymbolTableRecord
100
AcDbLinetypeTableRecord
  2
AM_ISO02W050
 70
     0
  3
__ __ __ __ __ __ __ __ __ __ __ __ __ __ __
 72
    65
 73
     2
 40
7.5
 49
6.0
 74
     0
 49
-1.5
 74
     0
  0
LTYPE
  5
4E
330
5
100
AcDbSymbolTableRecord
100
AcDbLinetypeTableRecord
  2
AM_ISO08W050
 70
     0
  3
____ . ____ . ____ . ____ . ____ . ____ . ____
 72
    65
 73
     4
 40
18.0
 49
12.0
 74
     0
 49
-1.5
 74
     0
 49
3.0
 74
     0
 49
-1.5
 74
     0
  0
LTYPE
  5
4F
330
5
100
AcDbSymbolTableRecord
100
AcDbLinetypeTableRecord
  2
AM_ISO09W050
 70
     0
  3
_____ . . _____ . . _____ . . ____ .. ____
 72
    65
 73
     6
 40
22.5
 49
12.0
 74
     0
 49
-1.5
 74
     0
 49
3.0
 74
     0
 49
-1.5
 74
     0
 49
3.0
 74
     0
 49
-1.5
 74
     0
  0
LTYPE
  5
50
330
5
100
AcDbSymbolTableRecord
100
AcDbLinetypeTableRecord
  2
Amconstr
 70
     0
  3
_______________________
 72
    65
 73
     2
 40
9999.0
 49
9999.0
 74
     0
 49
0.0
 74
     0
  0
LTYPE
  5
51
330
5
100
AcDbSymbolTableRecord
100
AcDbLinetypeTableRecord
  2
AM_ISO08W050x2
 70
     0
  3
__ . __ . __ . __ . __ . __
 72
    65
 73
     4
 40
9.0
 49
6.0
 74
     0
 49
-0.75
 74
     0
 49
1.5
 74
     0
 49
-0.75
 74
     0
  0
LTYPE
  5
52
330
5
100
AcDbSymbolTableRecord
100
AcDbLinetypeTableRecord
  2
AM_ISO02W050x2
 70
     0
  3
 _ _ _ _ _ _ _ _ _ _ _ _
 72
    65
 73
     2
 40
3.75
 49
3.0
 74
     0
 49
-0.75
 74
     0
  0
LTYPE
  5
55
330
5
100
AcDbSymbolTableRecord
100
AcDbLinetypeTableRecord
  2
Amzigzag
 70
     0
  3
/\/-/\/-/\/-/\/-/\/-/\/
 72
    65
 73
     2
 40
11.0001
 49
0.0001
 74
     4
 75
   135
340
54
 46
0.04
 50
0.0
 44
0.0
 45
0.0
 49
-11.0
 74
     0
  0
LTYPE
  5
62
330
5
100
AcDbSymbolTableRecord
100
AcDbLinetypeTableRecord
  2
ACJISTGB
 70
     0
  3
__ . . __ . .
 72
    65
 73
     6
 40
9.0
 49
4.0
 74
     0
 49
-1.0
 74
     0
 49
1.0
 74
     0
 49
-1.0
 74
     0
 49
1.0
 74
     0
 49
-1.0
 74
     0
  0
LTYPE
  5
63
330
5
100
AcDbSymbolTableRecord
100
AcDbLinetypeTableRecord
  2
ACJISTGL
 70
     0
  3
_ _ _ _ _
 72
    65
 73
     2
 40
3.0
 49
2.0
 74
     0
 49
-1.0
 74
     0
  0
LTYPE
  5
65
330
5
100
AcDbSymbolTableRecord
100
AcDbLinetypeTableRecord
  2
CENTER
 70
     0
  3
__ . __
 72
    65
 73
     4
 40
7.0
 49
4.0
 74
     0
 49
-1.0
 74
     0
 49
1.0
 74
     0
 49
-1.0
 74
     0
  0
LTYPE
  5
E0
330
5
100
AcDbSymbolTableRecord
100
AcDbLinetypeTableRecord
  2
HIDDEN
 70
     0
  3
Hidden __ __ __ __ __ __ __ __ __ __ __ __ __ _
 72
    65
 73
     2
 40
9.524999999999998
 49
6.349999999999999
 74
     0
 49
-3.174999999999999
 74
     0
  0
LTYPE
  5
E1
330
5
100
AcDbSymbolTableRecord
100
AcDbLinetypeTableRecord
  2
PHANTOM2
 70
     0
  3
Phantom (.5x) ___ _ _ ___ _ _ ___ _ _ ___ _ _
 72
    65
 73
     6
 40
31.75
 49
15.875
 74
     0
 49
-3.174999999999999
 74
     0
 49
3.174999999999999
 74
     0
 49
-3.174999999999999
 74
     0
 49
3.174999999999999
 74
     0
 49
-3.174999999999999
 74
     0
  0
LTYPE
  5
217
330
5
100
AcDbSymbolTableRecord
100
AcDbLinetypeTableRecord
  2
ACJISWELD
 70
     0
  3
_ _ _ _ _
 72
    65
 73
     2
 40
2.0
 49
2.0
 74
     0
 49
-1.0
 74
     0
  0
LTYPE
  5
39B8
330
5
100
AcDbSymbolTableRecord
100
AcDbLinetypeTableRecord
  2
HIDDEN2
 70
     0
  3
Hidden (.5x) _ _ _ _ _ _ _ _ _ _ _ _ _ _ _ _ _
 72
    65
 73
     2
 40
4.762499999999999
 49
3.174999999999999
 74
     0
 49
-1.587499999999999
 74
     0
  0
LTYPE
  5
3B62
330
5
100
AcDbSymbolTableRecord
100
AcDbLinetypeTableRecord
  2
CENTER2
 70
     0
  3
Center (.5x) ___ _ ___ _ ___ _ ___ _ ___ _ ___
 72
    65
 73
     4
 40
28.575
 49
19.05
 74
     0
 49
-3.174999999999999
 74
     0
 49
3.174999999999999
 74
     0
 49
-3.174999999999999
 74
     0
  0
LTYPE
  5
43A9
330
5
100
AcDbSymbolTableRecord
100
AcDbLinetypeTableRecord
  2
NON_PLOTING
 70
     0
  3
Solid line
 72
    65
 73
     0
 40
0.0
  0
LTYPE
  5
43AA
330
5
100
AcDbSymbolTableRecord
100
AcDbLinetypeTableRecord
  2
ACISOWELD
 70
     0
  3
_ _ _ _ _
 72
    65
 73
     2
 40
2.0
 49
2.0
 74
     0
 49
-1.0
 74
     0
  0
LTYPE
  5
43AB
330
5
100
AcDbSymbolTableRecord
100
AcDbLinetypeTableRecord
  2
ACISOTGB
 70
     0
  3
__ . . __ . .
 72
    65
 73
     6
 40
9.0
 49
4.0
 74
     0
 49
-1.0
 74
     0
 49
1.0
 74
     0
 49
-1.0
 74
     0
 49
1.0
 74
     0
 49
-1.0
 74
     0
  0
LTYPE
  5
43AC
330
5
100
AcDbSymbolTableRecord
100
AcDbLinetypeTableRecord
  2
ACISOTGL
 70
     0
  3
_ _ _ _ _
 72
    65
 73
     2
 40
3.0
 49
2.0
 74
     0
 49
-1.0
 74
     0
  0
ENDTAB
  0
TABLE
  2
LAYER
  5
2
102
{ACAD_XDICTIONARY
360
BF
102
}
330
0
100
AcDbSymbolTable
 70
    26
  0
LAYER
  5
10
102
{ACAD_XDICTIONARY
360
48F5
102
}
330
2
100
AcDbSymbolTableRecord
100
AcDbLayerTableRecord
  2
0
 70
     0
 62
     7
  6
Continuous
370
    -3
390
F
  0
LAYER
  5
81
102
{ACAD_XDICTIONARY
360
48F7
102
}
330
2
100
AcDbSymbolTableRecord
100
AcDbLayerTableRecord
  2
PROFILE2
 70
     0
 62
     4
  6
Continuous
370
    35
390
F
  0
LAYER
  5
1BC
102
{ACAD_XDICTIONARY
360
48F9
102
}
330
2
100
AcDbSymbolTableRecord
100
AcDbLayerTableRecord
  2
DIMENSION
 70
     0
 62
     7
  6
Continuous
370
    18
390
F
  0
LAYER
  5
1A29
102
{ACAD_XDICTIONARY
360
48FB
102
}
330
2
100
AcDbSymbolTableRecord
100
AcDbLayerTableRecord
  2
HIDDEN1
 70
     0
 62
     3
  6
HIDDEN
370
    18
390
F
  0
LAYER
  5
1A3F
102
{ACAD_XDICTIONARY
360
48FD
102
}
330
2
100
AcDbSymbolTableRecord
100
AcDbLayerTableRecord
  2
CENTER1
 70
     0
 62
     7
  6
CENTER2
370
    18
390
F
  0
LAYER
  5
1A6C
102
{ACAD_XDICTIONARY
360
48FF
102
}
330
2
100
AcDbSymbolTableRecord
100
AcDbLayerTableRecord
  2
SECTION1
 70
     0
 62
     3
  6
Continuous
370
    18
390
F
  0
LAYER
  5
1A6D
102
{ACAD_XDICTIONARY
360
4901
102
}
330
2
100
AcDbSymbolTableRecord
100
AcDbLayerTableRecord
  2
HATCH
 70
     0
 62
     7
  6
Continuous
370
    18
390
F
  0
LAYER
  5
1A6E
102
{ACAD_XDICTIONARY
360
4903
102
}
330
2
100
AcDbSymbolTableRecord
100
AcDbLayerTableRecord
  2
TEXT
 70
     0
 62
     7
  6
Continuous
370
    18
390
F
  0
LAYER
  5
1A72
102
{ACAD_XDICTIONARY
360
4905
102
}
330
2
100
AcDbSymbolTableRecord
100
AcDbLayerTableRecord
  2
NONPLOT
 70
     0
 62
     7
  6
Continuous
290
     0
370
    18
390
F
  0
LAYER
  5
1AE0
102
{ACAD_XDICTIONARY
360
4907
102
}
330
2
100
AcDbSymbolTableRecord
100
AcDbLayerTableRecord
  2
PROFILE1
 70
     0
 62
     2
  6
Continuous
370
    18
390
F
  0
LAYER
  5
1AE1
102
{ACAD_XDICTIONARY
360
4909
102
}
330
2
100
AcDbSymbolTableRecord
100
AcDbLayerTableRecord
  2
PROFILE3
 70
     0
 62
     5
  6
Continuous
370
    60
390
F
  0
LAYER
  5
1AE3
102
{ACAD_XDICTIONARY
360
490B
102
}
330
2
100
AcDbSymbolTableRecord
100
AcDbLayerTableRecord
  2
PHANTOM1
 70
     0
 62
     2
  6
PHANTOM2
370
    18
390
F
  0
LAYER
  5
1CA2
102
{ACAD_XDICTIONARY
360
490D
102
}
330
2
100
AcDbSymbolTableRecord
100
AcDbLayerTableRecord
  2
PHANTOM2
 70
     0
 62
     4
  6
PHANTOM2
370
    35
390
F
  0
LAYER
  5
1CA3
102
{ACAD_XDICTIONARY
360
490F
102
}
330
2
100
AcDbSymbolTableRecord
100
AcDbLayerTableRecord
  2
HIDDEN2
 70
     0
 62
     4
  6
HIDDEN
370
    35
390
F
  0
LAYER
  5
1CA4
102
{ACAD_XDICTIONARY
360
4911
102
}
330
2
100
AcDbSymbolTableRecord
100
AcDbLayerTableRecord
  2
SECTION2
 70
     0
 62
     4
  6
Continuous
370
    35
390
F
  0
LAYER
  5
1CA5
102
{ACAD_XDICTIONARY
360
4913
102
}
330
2
100
AcDbSymbolTableRecord
100
AcDbLayerTableRecord
  2
CENTER2
 70
     0
 62
     4
  6
CENTER2
370
    35
390
F
  0
LAYER
  5
393E
102
{ACAD_XDICTIONARY
360
4915
102
}
330
2
100
AcDbSymbolTableRecord
100
AcDbLayerTableRecord
  2
BALLOON
 70
     0
 62
     7
  6
Continuous
370
    18
390
F
1001
AcAecLayerStandard
1000

1000

  0
LAYER
  5
3C35
102
{ACAD_XDICTIONARY
360
4917
102
}
330
2
100
AcDbSymbolTableRecord
100
AcDbLayerTableRecord
  2
PARTSLIST
 70
     0
 62
     7
  6
Continuous
370
    18
390
F
1001
AcAecLayerStandard
1000

1000

  0
LAYER
  5
42C0
102
{ACAD_XDICTIONARY
360
4919
102
}
330
2
100
AcDbSymbolTableRecord
100
AcDbLayerTableRecord
  2
CUTTING1
 70
     0
 62
     7
  6
CENTER2
370
    18
390
F
1001
AcAecLayerStandard
1000

1000

  0
LAYER
  5
42DF
102
{ACAD_XDICTIONARY
360
491B
102
}
330
2
100
AcDbSymbolTableRecord
100
AcDbLayerTableRecord
  2
CUTTING2
 70
     0
 62
     7
  6
CENTER2
370
    35
390
F
1001
AcAecLayerStandard
1000

1000

  0
LAYER
  5
42E0
102
{ACAD_XDICTIONARY
360
491D
102
}
330
2
100
AcDbSymbolTableRecord
100
AcDbLayerTableRecord
  2
FORMAT
 70
     0
 62
     7
  6
Continuous
370
    60
390
F
1001
AcAecLayerStandard
1000

1000

  0
LAYER
  5
43AD
330
2
100
AcDbSymbolTableRecord
100
AcDbLayerTableRecord
  2
DEFPOINTS
 70
     0
 62
     7
  6
Continuous
290
     0
370
    -3
390
F
  0
LAYER
  5
43AE
102
{ACAD_XDICTIONARY
360
491F
102
}
330
2
100
AcDbSymbolTableRecord
100
AcDbLayerTableRecord
  2
PV
 70
     0
 62
     7
  6
Continuous
370
    -3
390
F
  0
LAYER
  5
43AF
102
{ACAD_XDICTIONARY
360
4921
102
}
330
2
100
AcDbSymbolTableRecord
100
AcDbLayerTableRecord
  2
FV
 70
     0
 62
     7
  6
Continuous
370
    -3
390
F
  0
LAYER
  5
43B0
102
{ACAD_XDICTIONARY
360
4923
102
}
330
2
100
AcDbSymbolTableRecord
100
AcDbLayerTableRecord
  2
AM_7
 70
     0
 62
     4
  6
AM_ISO08W050
370
    25
390
F
1001
AcAecLayerStandard
1000

1000

  0
LAYER
  5
43B1
102
{ACAD_XDICTIONARY
360
4925
102
}
330
2
100
AcDbSymbolTableRecord
100
AcDbLayerTableRecord
  2
AM_5
 70
     0
 62
     3
  6
Continuous
370
    25
390
F
1001
AcAecLayerStandard
1000

1000

  0
ENDTAB
  0
TABLE
  2
STYLE
  5
3
330
0
100
AcDbSymbolTable
 70
    12
  0
STYLE
  5
11
330
3
100
AcDbSymbolTableRecord
100
AcDbTextStyleTableRecord
  2
STANDARD
 70
     0
 40
0.0
 41
1.0
 50
0.0
 71
     0
 42
4.0
  3
ISOCP.SHX
  4
EXTFONT.SHX
  0
STYLE
  5
54
330
3
100
AcDbSymbolTableRecord
100
AcDbTextStyleTableRecord
  2

 70
     1
 40
0.0
 41
1.0
 50
0.0
 71
     0
 42
2.5
  3
ltypeshp.shx
  4

  0
STYLE
  5
56
330
3
100
AcDbSymbolTableRecord
100
AcDbTextStyleTableRecord
  2
ACJISTS
 70
     0
 40
1.0
 41
1.0
 50
0.0
 71
     0
 42
2.5
  3
isocp.shx
  4
extfont.shx
  0
STYLE
  5
61
330
3
100
AcDbSymbolTableRecord
100
AcDbTextStyleTableRecord
  2
ACJISGDT
 70
     0
 40
0.0
 41
1.0
 50
0.0
 71
     0
 42
2.5
  3
amgdt.shx
  4
extfont.shx
  0
STYLE
  5
56B
330
3
100
AcDbSymbolTableRecord
100
AcDbTextStyleTableRecord
  2
ULVAC
 70
     0
 40
0.0
 41
1.0
 50
0.0
 71
     0
 42
4.0
  3
extslim2.shx
  4
extfont2.shx
  0
STYLE
  5
434F
330
3
100
AcDbSymbolTableRecord
100
AcDbTextStyleTableRecord
  2
USER1
 70
     0
 40
0.0
 41
1.0
 50
0.0
 71
     0
 42
4.0
  3
TXT.SHX
  4

  0
STYLE
  5
4350
330
3
100
AcDbSymbolTableRecord
100
AcDbTextStyleTableRecord
  2
USER2
 70
     0
 40
0.0
 41
1.0
 50
0.0
 71
     0
 42
4.0
  3
SIMPLEX.SHX
  4

  0
STYLE
  5
4351
330
3
100
AcDbSymbolTableRecord
100
AcDbTextStyleTableRecord
  2
USER3
 70
     0
 40
0.0
 41
1.0
 50
0.0
 71
     0
 42
4.0
  3
ITALIC.SHX
  4

  0
STYLE
  5
43B2
330
3
100
AcDbSymbolTableRecord
100
AcDbTextStyleTableRecord
  2
MX_NOTE_STANDARD
 70
     0
 40
0.0
 41
1.0
 50
0.0
 71
     0
 42
12.50099945068359
  3
txt.shx
  4
extfont.shx
  0
STYLE
  5
43B3
330
3
100
AcDbSymbolTableRecord
100
AcDbTextStyleTableRecord
  2

 70
     1
 40
0.0
 41
1.0
 50
0.0
 71
     0
 42
12.50099945068359
  3
genltshp.shx
  4

  0
STYLE
  5
43B4
330
3
100
AcDbSymbolTableRecord
100
AcDbTextStyleTableRecord
  2
ACISOTS
 70
     0
 40
1.0
 41
1.0
 50
0.0
 71
     0
 42
12.50099945068359
  3
isocp.shx
  4
extfont.shx
  0
STYLE
  5
43B5
330
3
100
AcDbSymbolTableRecord
100
AcDbTextStyleTableRecord
  2
ACISOGDT
 70
     0
 40
0.0
 41
1.0
 50
0.0
 71
     0
 42
12.50099945068359
  3
amgdt.shx
  4

  0
ENDTAB
  0
TABLE
  2
VIEW
  5
6
330
0
100
AcDbSymbolTable
 70
     0
  0
ENDTAB
  0
TABLE
  2
UCS
  5
7
330
0
100
AcDbSymbolTable
 70
     0
  0
ENDTAB
  0
TABLE
  2
APPID
  5
9
330
0
100
AcDbSymbolTable
 70
    49
  0
APPID
  5
12
330
9
100
AcDbSymbolTableRecord
100
AcDbRegAppTableRecord
  2
ACAD
 70
     0
  0
APPID
  5
30
330
9
100
AcDbSymbolTableRecord
100
AcDbRegAppTableRecord
  2
MCAD_NO_VIS
 70
     0
  0
APPID
  5
31
330
9
100
AcDbSymbolTableRecord
100
AcDbRegAppTableRecord
  2
ACAD_TEMP_GRAPHIC
 70
     0
  0
APPID
  5
44
330
9
100
AcDbSymbolTableRecord
100
AcDbRegAppTableRecord
  2
ACATTRIBSERVICES
 70
     0
  0
APPID
  5
F6
330
9
100
AcDbSymbolTableRecord
100
AcDbRegAppTableRecord
  2
AD_DRAW
 70
     0
  0
APPID
  5
114
330
9
100
AcDbSymbolTableRecord
100
AcDbRegAppTableRecord
  2
DESIGNERASSEMBLIES
 70
     0
  0
APPID
  5
118
330
9
100
AcDbSymbolTableRecord
100
AcDbRegAppTableRecord
  2
ACADM_DIM_EDIT
 70
     0
  0
APPID
  5
119
330
9
100
AcDbSymbolTableRecord
100
AcDbRegAppTableRecord
  2
AMDT_DM_ADJ
 70
     0
  0
APPID
  5
22A
330
9
100
AcDbSymbolTableRecord
100
AcDbRegAppTableRecord
  2
DCO15
 70
     0
  0
APPID
  5
24F
330
9
100
AcDbSymbolTableRecord
100
AcDbRegAppTableRecord
  2
CONTENTBLOCKDESCRIPTION
 70
     0
  0
APPID
  5
250
330
9
100
AcDbSymbolTableRecord
100
AcDbRegAppTableRecord
  2
ACAD_DSTYLE_DIMTEXT_FILL
 70
     0
  0
APPID
  5
251
330
9
100
AcDbSymbolTableRecord
100
AcDbRegAppTableRecord
  2
GENIUS_GENREC_14
 70
     0
  0
APPID
  5
252
330
9
100
AcDbSymbolTableRecord
100
AcDbRegAppTableRecord
  2
GENIUS_GENOBJ-N-REC_13
 70
     0
  0
APPID
  5
253
330
9
100
AcDbSymbolTableRecord
100
AcDbRegAppTableRecord
  2
GENIUS_GENODEF_13
 70
     0
  0
APPID
  5
254
330
9
100
AcDbSymbolTableRecord
100
AcDbRegAppTableRecord
  2
GENIUS_GENOENT_13
 70
     0
  0
APPID
  5
255
330
9
100
AcDbSymbolTableRecord
100
AcDbRegAppTableRecord
  2
GENIUS_GENOBJ-N-TIT_13
 70
     0
  0
APPID
  5
256
330
9
100
AcDbSymbolTableRecord
100
AcDbRegAppTableRecord
  2
GENIUS_GENOLIS_13
 70
     0
  0
APPID
  5
257
330
9
100
AcDbSymbolTableRecord
100
AcDbRegAppTableRecord
  2
GENIUS_GENTITLE_13
 70
     0
  0
APPID
  5
258
330
9
100
AcDbSymbolTableRecord
100
AcDbRegAppTableRecord
  2
GENIUS_GENOREF_13
 70
     0
  0
APPID
  5
259
330
9
100
AcDbSymbolTableRecord
100
AcDbRegAppTableRecord
  2
GENIUS_GENSCREG_15
 70
     0
  0
APPID
  5
25A
330
9
100
AcDbSymbolTableRecord
100
AcDbRegAppTableRecord
  2
GENIUS_GENOBJ-N-SDF_13
 70
     0
  0
APPID
  5
25B
330
9
100
AcDbSymbolTableRecord
100
AcDbRegAppTableRecord
  2
GENIUS_GENDTOL_13
 70
     0
  0
APPID
  5
D55
330
9
100
AcDbSymbolTableRecord
100
AcDbRegAppTableRecord
  2
ACAD_PSEXT
 70
     0
  0
APPID
  5
1A26
330
9
100
AcDbSymbolTableRecord
100
AcDbRegAppTableRecord
  2
GENIUS_GENBH_13
 70
     0
  0
APPID
  5
1A2C
330
9
100
AcDbSymbolTableRecord
100
AcDbRegAppTableRecord
  2
GENIUS_GENOBJ-NBEHI-BHF_13
 70
     0
  0
APPID
  5
1A2E
330
9
100
AcDbSymbolTableRecord
100
AcDbRegAppTableRecord
  2
GENIUS_GENOBJ-NBEHI-BHB_13
 70
     0
  0
APPID
  5
1A38
330
9
100
AcDbSymbolTableRecord
100
AcDbRegAppTableRecord
  2
GEVID1137384586
 70
     0
  0
APPID
  5
1A39
330
9
100
AcDbSymbolTableRecord
100
AcDbRegAppTableRecord
  2
GEVDC
 70
     0
  0
APPID
  5
1A4E
330
9
100
AcDbSymbolTableRecord
100
AcDbRegAppTableRecord
  2
GENIUS_GENOBJ-N-CEN_13
 70
     0
  0
APPID
  5
1A4F
330
9
100
AcDbSymbolTableRecord
100
AcDbRegAppTableRecord
  2
GENIUS_GENCEN_19
 70
     0
  0
APPID
  5
1A5F
330
9
100
AcDbSymbolTableRecord
100
AcDbRegAppTableRecord
  2
GEVID1137384587
 70
     0
  0
APPID
  5
1A60
330
9
100
AcDbSymbolTableRecord
100
AcDbRegAppTableRecord
  2
GEVCON
 70
     0
  0
APPID
  5
1A70
330
9
100
AcDbSymbolTableRecord
100
AcDbRegAppTableRecord
  2
GENIUS_GENOBJ-F-SCPASSM_13
 70
     0
  0
APPID
  5
380E
330
9
100
AcDbSymbolTableRecord
100
AcDbRegAppTableRecord
  2
ACAUTHENVIRON
 70
     0
  0
APPID
  5
3812
330
9
100
AcDbSymbolTableRecord
100
AcDbRegAppTableRecord
  2
AcDbDynamicBlockTrueName
 70
     0
  0
APPID
  5
3813
330
9
100
AcDbSymbolTableRecord
100
AcDbRegAppTableRecord
  2
AcDbDynamicBlockGUID
 70
     0
  0
APPID
  5
3815
330
9
100
AcDbSymbolTableRecord
100
AcDbRegAppTableRecord
  2
ACDBBLOCKREPETAG
 70
     0
  0
APPID
  5
393F
330
9
100
AcDbSymbolTableRecord
100
AcDbRegAppTableRecord
  2
AcAecLayerStandard
 70
     0
  0
APPID
  5
3DA4
330
9
100
AcDbSymbolTableRecord
100
AcDbRegAppTableRecord
  2
GEVID1176237129
 70
     0
  0
APPID
  5
3DAA
330
9
100
AcDbSymbolTableRecord
100
AcDbRegAppTableRecord
  2
GEVID1176237130
 70
     0
  0
APPID
  5
3DBC
330
9
100
AcDbSymbolTableRecord
100
AcDbRegAppTableRecord
  2
GEVID1176237132
 70
     0
  0
APPID
  5
3DE8
330
9
100
AcDbSymbolTableRecord
100
AcDbRegAppTableRecord
  2
GENIUS_GENFIL_13
 70
     0
  0
APPID
  5
3DEA
330
9
100
AcDbSymbolTableRecord
100
AcDbRegAppTableRecord
  2
GENIUS_GENOBJ-N-CHA_13
 70
     0
  0
APPID
  5
43C0
330
9
100
AcDbSymbolTableRecord
100
AcDbRegAppTableRecord
  2
GENIUS_GENOBJ-N-CRS_13
 70
     0
  0
APPID
  5
494F
330
9
100
AcDbSymbolTableRecord
100
AcDbRegAppTableRecord
  2
ACAD_DSTYLE_DIMARC_LENGTH_SYMBOL
 70
     0
  0
APPID
  5
4950
330
9
100
AcDbSymbolTableRecord
100
AcDbRegAppTableRecord
  2
ACAD_DSTYLE_DIM_LINETYPE
 70
     0
  0
APPID
  5
4951
330
9
100
AcDbSymbolTableRecord
100
AcDbRegAppTableRecord
  2
ACAD_DSTYLE_DIM_EXT1_LINETYPE
 70
     0
  0
APPID
  5
4952
330
9
100
AcDbSymbolTableRecord
100
AcDbRegAppTableRecord
  2
ACAD_DSTYLE_DIM_EXT2_LINETYPE
 70
     0
  0
APPID
  5
498B
330
9
100
AcDbSymbolTableRecord
100
AcDbRegAppTableRecord
  2
ACAD_MLEADERVER
 70
     0
  0
ENDTAB
  0
TABLE
  2
DIMSTYLE
  5
A
330
0
100
AcDbSymbolTable
 70
    20
100
AcDbDimStyleTable
 71
     3
340
24E
340
1361
340
1348
  0
DIMSTYLE
105
24D
330
A
100
AcDbSymbolTableRecord
100
AcDbDimStyleTableRecord
  2
Standard
 70
     0
340
11
  0
DIMSTYLE
105
24E
330
A
100
AcDbSymbolTableRecord
100
AcDbDimStyleTableRecord
  2
ULVAC
 70
     0
 41
2.9
 42
1.269999980926513
 43
10.0
 44
1.200000047683715
 73
     0
 74
     0
 77
     1
 78
     9
 79
     2
140
4.0
141
0.0
143
0.03937007874016
146
0.75
147
1.0
171
     4
172
     1
179
     2
271
     2
272
     2
274
     4
284
     8
288
     1
340
56B
341
69
342
69
371
    -1
372
    -1
1001
ACAD_DSTYLE_DIMARC_LENGTH_SYMBOL
1070
   379
1070
     1
1001
ACAD_DSTYLE_DIM_LINETYPE
1070
   380
1005
15
1001
ACAD_DSTYLE_DIM_EXT1_LINETYPE
1070
   381
1005
15
1001
ACAD_DSTYLE_DIM_EXT2_LINETYPE
1070
   382
1005
15
  0
DIMSTYLE
105
623
330
A
100
AcDbSymbolTableRecord
100
AcDbDimStyleTableRecord
  2
ULVAC$2
 70
     0
 41
2.9
 42
1.269999980926513
 43
10.0
 44
1.200000047683715
 73
     0
 74
     0
 77
     1
 78
     9
 79
     2
140
4.0
141
0.0
143
0.03937007874016
146
0.75
147
1.0
171
     4
172
     1
179
     2
274
     4
284
     8
340
56B
341
69
342
69
371
    -1
372
    -1
1001
ACAD_DSTYLE_DIMARC_LENGTH_SYMBOL
1070
   379
1070
     1
1001
ACAD_DSTYLE_DIM_LINETYPE
1070
   380
1005
15
1001
ACAD_DSTYLE_DIM_EXT1_LINETYPE
1070
   381
1005
15
1001
ACAD_DSTYLE_DIM_EXT2_LINETYPE
1070
   382
1005
15
  0
DIMSTYLE
105
68C
102
{ACAD_REACTORS
330
4726
330
4758
102
}
330
A
100
AcDbSymbolTableRecord
100
AcDbDimStyleTableRecord
  2
ULVAC$0
 70
     0
 41
2.9
 42
1.269999980926513
 43
10.0
 44
1.200000047683715
 73
     0
 74
     0
 77
     1
 78
     9
140
4.0
141
0.0
143
0.03937007874016
146
0.75
147
1.0
171
     4
172
     1
179
     2
271
     2
272
     2
274
     4
284
     8
288
     1
340
56B
341
69
342
69
371
    -1
372
    -1
1001
ACAD_DSTYLE_DIMARC_LENGTH_SYMBOL
1070
   379
1070
     1
1001
ACAD_DSTYLE_DIM_LINETYPE
1070
   380
1005
15
1001
ACAD_DSTYLE_DIM_EXT1_LINETYPE
1070
   381
1005
15
1001
ACAD_DSTYLE_DIM_EXT2_LINETYPE
1070
   382
1005
15
  0
DIMSTYLE
105
1103
330
A
100
AcDbSymbolTableRecord
100
AcDbDimStyleTableRecord
  2
ULVAC$4
 70
     0
 41
2.9
 42
1.269999980926513
 43
10.0
 44
1.200000047683715
 73
     0
 74
     0
 77
     1
 78
     9
140
4.0
141
0.0
143
0.03937007874016
146
0.75
147
1.0
171
     4
172
     1
179
     2
271
     2
272
     2
274
     4
284
     8
288
     1
289
     0
340
56B
341
69
342
69
371
    -1
372
    -1
1001
ACAD_DSTYLE_DIMARC_LENGTH_SYMBOL
1070
   379
1070
     1
1001
ACAD_DSTYLE_DIM_LINETYPE
1070
   380
1005
15
1001
ACAD_DSTYLE_DIM_EXT1_LINETYPE
1070
   381
1005
15
1001
ACAD_DSTYLE_DIM_EXT2_LINETYPE
1070
   382
1005
15
  0
DIMSTYLE
105
112A
330
A
100
AcDbSymbolTableRecord
100
AcDbDimStyleTableRecord
  2
ULVAC$6
 70
     0
 41
2.9
 42
1.269999980926513
 43
10.0
 44
1.200000047683715
 73
     0
 74
     0
 77
     1
 78
     9
140
4.0
141
0.0
143
0.03937007874016
146
0.75
147
1.0
171
     4
172
     1
176
   256
179
     2
271
     2
272
     2
274
     4
284
     8
288
     1
340
56B
341
69
342
69
371
    -1
372
    -1
1001
ACAD_DSTYLE_DIMARC_LENGTH_SYMBOL
1070
   379
1070
     1
1001
ACAD_DSTYLE_DIM_LINETYPE
1070
   380
1005
15
1001
ACAD_DSTYLE_DIM_EXT1_LINETYPE
1070
   381
1005
15
1001
ACAD_DSTYLE_DIM_EXT2_LINETYPE
1070
   382
1005
15
  0
DIMSTYLE
105
113C
330
A
100
AcDbSymbolTableRecord
100
AcDbDimStyleTableRecord
  2
ULVAC$7
 70
     0
 41
2.9
 42
1.269999980926513
 43
10.0
 44
1.200000047683715
 73
     0
 74
     0
 77
     1
 78
     1
140
4.0
141
0.0
143
0.03937007874016
147
1.0
171
     4
172
     1
177
   256
179
     2
271
     2
272
     2
274
     4
288
     1
340
56B
341
69
342
69
371
    -1
1001
ACAD_DSTYLE_DIMARC_LENGTH_SYMBOL
1070
   379
1070
     1
1001
ACAD_DSTYLE_DIM_LINETYPE
1070
   380
1005
15
1001
ACAD_DSTYLE_DIM_EXT1_LINETYPE
1070
   381
1005
15
1001
ACAD_DSTYLE_DIM_EXT2_LINETYPE
1070
   382
1005
15
  0
DIMSTYLE
105
128D
330
A
100
AcDbSymbolTableRecord
100
AcDbDimStyleTableRecord
  2
ULVAC$3
 70
     0
 41
2.9
 42
1.269999980926513
 43
10.0
 44
1.200000047683715
 73
     0
 74
     0
 77
     1
 78
     9
140
4.0
141
0.0
143
0.03937007874016
146
0.75
147
1.0
171
     4
172
     1
179
     2
271
     2
272
     2
274
     4
284
     8
288
     1
289
     2
340
56B
341
69
342
69
371
    -1
372
    -1
1001
ACAD_DSTYLE_DIMARC_LENGTH_SYMBOL
1070
   379
1070
     1
1001
ACAD_DSTYLE_DIM_LINETYPE
1070
   380
1005
15
1001
ACAD_DSTYLE_DIM_EXT1_LINETYPE
1070
   381
1005
15
1001
ACAD_DSTYLE_DIM_EXT2_LINETYPE
1070
   382
1005
15
  0
DIMSTYLE
105
1348
330
A
100
AcDbSymbolTableRecord
100
AcDbDimStyleTableRecord
  2
ULVAC$SH
 70
     0
 41
2.9
 42
1.269999980926513
 43
10.0
 44
1.200000047683715
 73
     0
 74
     0
 77
     1
 78
     9
 79
     2
140
4.0
141
0.0
143
0.03937007874016
146
0.75
147
1.0
171
     4
172
     1
179
     2
271
     2
272
     2
274
     4
284
     8
288
     1
340
56B
341
69
342
69
371
    -1
372
    -1
1001
ACAD_DSTYLE_DIMARC_LENGTH_SYMBOL
1070
   379
1070
     1
1001
ACAD_DSTYLE_DIM_LINETYPE
1070
   380
1005
15
1001
ACAD_DSTYLE_DIM_EXT1_LINETYPE
1070
   381
1005
15
1001
ACAD_DSTYLE_DIM_EXT2_LINETYPE
1070
   382
1005
15
  0
DIMSTYLE
105
1361
330
A
100
AcDbSymbolTableRecord
100
AcDbDimStyleTableRecord
  2
ULVAC$SF
 70
     0
 41
2.9
 42
1.269999980926513
 43
10.0
 44
1.200000047683715
 73
     0
 74
     0
 77
     1
 78
     9
 79
     2
140
4.0
141
0.0
143
0.03937007874016
146
0.75
147
1.0
171
     4
172
     1
179
     2
271
     2
272
     2
274
     4
284
     8
288
     1
340
56B
341
69
342
69
371
    -1
372
    -1
1001
ACAD_DSTYLE_DIMARC_LENGTH_SYMBOL
1070
   379
1070
     1
1001
ACAD_DSTYLE_DIM_LINETYPE
1070
   380
1005
15
1001
ACAD_DSTYLE_DIM_EXT1_LINETYPE
1070
   381
1005
15
1001
ACAD_DSTYLE_DIM_EXT2_LINETYPE
1070
   382
1005
15
  0
DIMSTYLE
105
43B6
330
A
100
AcDbSymbolTableRecord
100
AcDbDimStyleTableRecord
  2
MXDIMSTYLE
 70
     0
 40
3.0
 41
2.5
 42
1.269999980926513
 43
3.75
 44
1.200000047683715
 73
     0
 74
     0
 77
     1
 78
     8
140
4.166999816894531
141
2.5
143
0.03937007874016
144
0.3333333333333333
147
1.0
171
     4
172
     1
274
     4
288
     1
340
43B2
  0
DIMSTYLE
105
43B7
330
A
100
AcDbSymbolTableRecord
100
AcDbDimStyleTableRecord
  2
AM_ISO
 70
     0
  4
"
 41
2.5
 42
1.0
 43
10.0
 44
1.0
 47
0.1
 48
0.1
 73
     0
 74
     0
 77
     1
 78
     8
 79
     2
140
3.5
141
0.0
143
0.0393701
146
0.71
147
1.5
172
     1
176
   256
177
   256
178
     2
271
     2
272
     3
274
     4
283
     0
284
     8
340
43B2
371
    -1
372
    -1
1001
ACAD_DSTYLE_DIMARC_LENGTH_SYMBOL
1070
   379
1070
     1
  0
DIMSTYLE
105
43B8
330
A
100
AcDbSymbolTableRecord
100
AcDbDimStyleTableRecord
  2
AM_ISO$3
 70
     0
  4
"
 41
2.5
 42
1.0
 43
10.0
 44
1.0
 47
0.1
 48
0.1
 73
     0
 77
     1
 78
     8
 79
     2
140
3.5
141
0.0
143
0.0393701
146
0.71
147
1.5
176
   256
177
   256
178
     2
271
     2
272
     3
274
     4
283
     0
284
     8
288
     1
289
     0
340
43B2
371
    -1
372
    -1
1001
ACAD_DSTYLE_DIMARC_LENGTH_SYMBOL
1070
   379
1070
     1
  0
DIMSTYLE
105
43B9
330
A
100
AcDbSymbolTableRecord
100
AcDbDimStyleTableRecord
  2
AM_ISO$4
 70
     0
  4
"
 41
2.5
 42
1.0
 43
10.0
 44
1.0
 47
0.1
 48
0.1
 73
     0
 77
     1
 78
     8
 79
     2
140
3.5
141
0.0
143
0.0393701
146
0.71
147
1.5
176
   256
177
   256
178
     2
271
     2
272
     3
274
     4
283
     0
284
     8
288
     1
289
     0
340
43B2
371
    -1
372
    -1
1001
ACAD_DSTYLE_DIMARC_LENGTH_SYMBOL
1070
   379
1070
     1
  0
DIMSTYLE
105
43BA
330
A
100
AcDbSymbolTableRecord
100
AcDbDimStyleTableRecord
  2
AM_ISO$6
 70
     0
  4
"
 41
2.5
 42
1.0
 43
10.0
 44
1.0
 47
0.1
 48
0.1
 73
     0
 74
     0
 78
     8
 79
     2
140
3.5
141
0.0
143
0.0393701
146
0.71
147
1.5
172
     1
176
   256
177
   256
178
     2
271
     2
272
     3
274
     4
283
     0
284
     8
340
43B2
371
    -1
372
    -1
1001
ACAD_DSTYLE_DIMARC_LENGTH_SYMBOL
1070
   379
1070
     1
  0
DIMSTYLE
105
43BB
330
A
100
AcDbSymbolTableRecord
100
AcDbDimStyleTableRecord
  2
AM_ISO$7
 70
     0
  4
"
 41
2.5
 42
1.0
 43
10.0
 44
1.0
 47
0.1
 48
0.1
 73
     0
 74
     0
 77
     1
 78
     8
 79
     2
140
5.0
141
0.0
143
0.0393701
146
0.71
147
1.5
172
     1
176
   256
177
   256
178
     2
271
     2
272
     3
274
     4
283
     0
284
     8
340
43B2
371
    -1
372
    -1
1001
ACAD_DSTYLE_DIMARC_LENGTH_SYMBOL
1070
   379
1070
     1
  0
DIMSTYLE
105
43BC
330
A
100
AcDbSymbolTableRecord
100
AcDbDimStyleTableRecord
  2
AM_ISO$SF
 70
     0
  4
"
 41
2.5
 42
1.0
 43
10.0
 44
1.0
 47
0.1
 48
0.1
 73
     0
 74
     0
 75
     1
 76
     1
 77
     1
 78
     8
 79
     2
140
3.5
141
0.0
143
0.0393701
146
0.71
147
1.5
172
     1
176
   256
177
   256
178
     2
271
     2
272
     3
274
     4
283
     0
284
     8
340
43B2
371
    -1
372
    -1
1001
ACAD_DSTYLE_DIMARC_LENGTH_SYMBOL
1070
   379
1070
     1
  0
DIMSTYLE
105
43BD
330
A
100
AcDbSymbolTableRecord
100
AcDbDimStyleTableRecord
  2
AM_ISO$SH
 70
     0
  4
"
 41
2.5
 42
1.0
 43
10.0
 44
1.0
 47
0.1
 48
0.1
 73
     0
 74
     0
 75
     1
 76
     1
 77
     1
 78
     8
 79
     2
140
3.5
141
0.0
143
0.0393701
144
2.0
146
0.71
147
1.5
172
     1
173
     1
176
   256
177
   256
178
     2
271
     2
272
     3
274
     4
283
     0
284
     8
340
43B2
343
4353
371
    -1
372
    -1
1001
ACAD_DSTYLE_DIMARC_LENGTH_SYMBOL
1070
   379
1070
     1
  0
DIMSTYLE
105
43BE
102
{ACAD_REACTORS
330
45DF
330
45E0
330
45E1
330
45E2
330
45E3
102
}
330
A
100
AcDbSymbolTableRecord
100
AcDbDimStyleTableRecord
  2
MXDIMSTYLE$0
 70
     0
 40
2.0
 41
2.5
 42
1.269999980926513
 43
3.75
 44
1.200000047683715
 73
     0
 74
     0
 77
     1
 78
     8
140
4.166999816894531
141
2.5
143
0.03937007874016
144
0.5
147
1.0
171
     4
172
     1
274
     4
288
     1
340
43B2
  0
DIMSTYLE
105
43BF
330
A
100
AcDbSymbolTableRecord
100
AcDbDimStyleTableRecord
  2
MXDIMSTYLE$3
 70
     0
 40
2.0
 41
2.5
 42
1.269999980926513
 43
3.75
 44
1.200000047683715
 73
     0
 74
     0
 77
     1
 78
     8
140
4.166999816894531
141
2.5
143
0.03937007874016
144
0.5
147
1.0
171
     4
172
     1
274
     4
288
     1
340
43B2
  0
ENDTAB
  0
TABLE
  2
BLOCK_RECORD
  5
1
330
0
100
AcDbSymbolTable
 70
    15
  0
BLOCK_RECORD
  5
1F
102
{ACAD_XDICTIONARY
360
82
102
}
330
1
100
AcDbSymbolTableRecord
100
AcDbBlockTableRecord
  2
*Model_Space
340
22
  0
BLOCK_RECORD
  5
1B
330
1
100
AcDbSymbolTableRecord
100
AcDbBlockTableRecord
  2
*Paper_Space
340
1E
  0
BLOCK_RECORD
  5
23
330
1
100
AcDbSymbolTableRecord
100
AcDbBlockTableRecord
  2
*Paper_Space0
340
26
  0
BLOCK_RECORD
  5
69
330
1
100
AcDbSymbolTableRecord
100
AcDbBlockTableRecord
  2
_Open30
340
0
102
{BLKREFS
331
484F
331
4850
331
4858
331
4859
102
}
  0
BLOCK_RECORD
  5
2851
102
{ACAD_XDICTIONARY
360
380F
102
}
330
1
100
AcDbSymbolTableRecord
100
AcDbBlockTableRecord
  2
ULVAC_ballon
340
0
310
2800000020000000200000000100080000000000000400000000000000000000000000000000000000000000000080000080000000808000800000008000800080800000C0C0C000C0DCC000F0CAA6000020400000206000002080000020A0000020C0000020E00000400000004020000040400000406000004080000040A0
310
000040C0000040E00000600000006020000060400000606000006080000060A0000060C0000060E00000800000008020000080400000806000008080000080A0000080C0000080E00000A0000000A0200000A0400000A0600000A0800000A0A00000A0C00000A0E00000C0000000C0200000C0400000C0600000C0800000C0
310
A00000C0C00000C0E00000E0000000E0200000E0400000E0600000E0800000E0A00000E0C00000E0E00040000000400020004000400040006000400080004000A0004000C0004000E00040200000402020004020400040206000402080004020A0004020C0004020E000404000004040200040404000404060004040800040
310
40A0004040C0004040E00040600000406020004060400040606000406080004060A0004060C0004060E00040800000408020004080400040806000408080004080A0004080C0004080E00040A0000040A0200040A0400040A0600040A0800040A0A00040A0C00040A0E00040C0000040C0200040C0400040C0600040C08000
310
40C0A00040C0C00040C0E00040E0000040E0200040E0400040E0600040E0800040E0A00040E0C00040E0E00080000000800020008000400080006000800080008000A0008000C0008000E00080200000802020008020400080206000802080008020A0008020C0008020E00080400000804020008040400080406000804080
310
008040A0008040C0008040E00080600000806020008060400080606000806080008060A0008060C0008060E00080800000808020008080400080806000808080008080A0008080C0008080E00080A0000080A0200080A0400080A0600080A0800080A0A00080A0C00080A0E00080C0000080C0200080C0400080C0600080C0
310
800080C0A00080C0C00080C0E00080E0000080E0200080E0400080E0600080E0800080E0A00080E0C00080E0E000C0000000C0002000C0004000C0006000C0008000C000A000C000C000C000E000C0200000C0202000C0204000C0206000C0208000C020A000C020C000C020E000C0400000C0402000C0404000C0406000C0
310
408000C040A000C040C000C040E000C0600000C0602000C0604000C0606000C0608000C060A000C060C000C060E000C0800000C0802000C0804000C0806000C0808000C080A000C080C000C080E000C0A00000C0A02000C0A04000C0A06000C0A08000C0A0A000C0A0C000C0A0E000C0C00000C0C02000C0C04000C0C06000
310
C0C08000C0C0A000F0FBFF00A4A0A000808080000000FF0000FF000000FFFF00FF000000FF00FF00FFFF0000FFFFFF00000000000000000000000000000000000000000000000000000000000000000000000000000000000000000000000000000000000000000000000000000000000000000000000000000000FFFFFFFF
310
FFFFFFFFFFFF0000000000000000000000000000000000000000FFFF00000000000000000000FFFF0000000000000000000000000000000000FF0000000000000000000000000000FF000000000000000000000000000000FF00000000000000000000000000000000FF000000000000000000000000FFFF00000000000000
310
0000000000000000000000FFFF000000000000000000FF00000000000000000000000000000000000000000000FF0000000000000000FF00000000000000000000000000000000000000000000FF00000000000000FF000000000000000000000000000000000000000000000000FF000000000000FF000000000000000000
310
000000000000000000000000000000FF000000000000FFFFFFFF0000000000FF00000000FFFFFFFFFF00FF0000FF00FFFF00000000FF0000FF000000000000FF00000000FF0000000000FF0000FF00FFFF00000000FF0000FF000000000000FF00000000FF0000000000FF00FFFF00FFFF000000FF000000FF000000000000
310
FF00000000FF0000000000FF00FF00FFFF00FF0000FF000000FF000000000000FF00000000FF0000000000FF00FF00FFFF00FF0000FF000000FF000000000000FF00000000FFFFFFFFFF00FFFF0000FFFF00FF000000FF0000FF000000000000FF00000000FF0000000000FFFF0000FFFFFF00000000FF0000FF0000000000
310
00FF00000000FF0000000000FFFF000000FFFF00000000FF0000FF000000000000FF00000000FF0000000000FF00000000FFFF0000000000FFFFFFFF000000FFFFFFFFFF0000FFFFFFFFFF00FF00000000FF000000000000FF000000000000000000000000000000000000000000000000FF000000000000FF000000000000
310
000000000000000000000000000000000000FF00000000000000FF00000000000000000000000000000000000000000000FF0000000000000000FF00000000000000000000000000000000000000000000FF000000000000000000FFFF000000000000000000000000000000000000FFFF000000000000000000000000FF00
310
000000000000000000000000000000FF000000000000000000000000000000FF0000000000000000000000000000FF0000000000000000000000000000000000FFFF00000000000000000000FFFF0000000000000000000000000000000000000000FFFFFFFFFFFFFFFFFFFF00000000000000000000000000000000000000
310
0000000000000000000000000000000000000000000000000000000000000000000000000000000000000000000000000000000000000000
1001
AcDbDynamicBlockGUID
1000
{097EF819-7202-4916-9A65-16771620EB1C}
1001
ACDBBLOCKREPETAG
1070
     1
1071
        2
1001
ACAD
1000
DesignCenter Data
1002
{
1070
     1
1070
     4
1002
}
  0
BLOCK_RECORD
  5
4225
330
1
100
AcDbSymbolTableRecord
100
AcDbBlockTableRecord
  2
GENDOT
340
0
  0
BLOCK_RECORD
  5
4353
330
1
100
AcDbSymbolTableRecord
100
AcDbBlockTableRecord
  2
GENAXEH
340
0
  0
BLOCK_RECORD
  5
4681
330
1
100
AcDbSymbolTableRecord
100
AcDbBlockTableRecord
  2
*D6
340
0
  0
BLOCK_RECORD
  5
468D
330
1
100
AcDbSymbolTableRecord
100
AcDbBlockTableRecord
  2
*D7
340
0
  0
BLOCK_RECORD
  5
4699
330
1
100
AcDbSymbolTableRecord
100
AcDbBlockTableRecord
  2
*D8
340
0
  0
BLOCK_RECORD
  5
46A5
330
1
100
AcDbSymbolTableRecord
100
AcDbBlockTableRecord
  2
*D9
340
0
  0
BLOCK_RECORD
  5
46B1
330
1
100
AcDbSymbolTableRecord
100
AcDbBlockTableRecord
  2
*D10
340
0
  0
BLOCK_RECORD
  5
4727
330
1
100
AcDbSymbolTableRecord
100
AcDbBlockTableRecord
  2
*D11
340
0
  0
BLOCK_RECORD
  5
4759
330
1
100
AcDbSymbolTableRecord
100
AcDbBlockTableRecord
  2
*D12
340
0
  0
BLOCK_RECORD
  5
4927
330
1
100
AcDbSymbolTableRecord
100
AcDbBlockTableRecord
  2
*S13
340
0
  0
BLOCK_RECORD
  5
4932
330
1
100
AcDbSymbolTableRecord
100
AcDbBlockTableRecord
  2
*S14
340
0
  0
ENDTAB
  0
ENDSEC
  0
SECTION
  2
BLOCKS
  0
BLOCK
  5
20
330
1F
100
AcDbEntity
  8
0
100
AcDbBlockBegin
  2
*Model_Space
 70
     0
 10
0.0
 20
0.0
 30
0.0
  3
*Model_Space
  1

  0
ENDBLK
  5
21
330
1F
100
AcDbEntity
  8
0
100
AcDbBlockEnd
  0
BLOCK
  5
1C
330
1B
100
AcDbEntity
 67
     1
  8
0
100
AcDbBlockBegin
  2
*Paper_Space
 70
     0
 10
0.0
 20
0.0
 30
0.0
  3
*Paper_Space
  1

  0
ENDBLK
  5
1D
330
1B
100
AcDbEntity
 67
     1
  8
0
100
AcDbBlockEnd
  0
BLOCK
  5
24
330
23
100
AcDbEntity
 67
     1
  8
0
100
AcDbBlockBegin
  2
*Paper_Space0
 70
     0
 10
0.0
 20
0.0
 30
0.0
  3
*Paper_Space0
  1

  0
ENDBLK
  5
25
330
23
100
AcDbEntity
 67
     1
  8
0
100
AcDbBlockEnd
  0
BLOCK
  5
6D
330
69
100
AcDbEntity
  8
0
100
AcDbBlockBegin
  2
_Open30
 70
     0
 10
0.0
 20
0.0
 30
0.0
  3
_Open30
  1

  0
LINE
  5
6A
330
69
100
AcDbEntity
  8
0
  6
ByBlock
 62
     0
370
    -2
100
AcDbLine
 10
-1.0
 20
0.26794919
 30
0.0
 11
0.0
 21
0.0
 31
0.0
  0
LINE
  5
6B
330
69
100
AcDbEntity
  8
0
  6
ByBlock
 62
     0
370
    -2
100
AcDbLine
 10
0.0
 20
0.0
 30
0.0
 11
-1.0
 21
-0.26794919
 31
0.0
  0
LINE
  5
6C
330
69
100
AcDbEntity
  8
0
  6
ByBlock
 62
     0
370
    -2
100
AcDbLine
 10
0.0
 20
0.0
 30
0.0
 11
-1.0
 21
0.0
 31
0.0
  0
ENDBLK
  5
6E
330
69
100
AcDbEntity
  8
0
100
AcDbBlockEnd
  0
BLOCK
  5
2852
330
2851
100
AcDbEntity
  8
0
100
AcDbBlockBegin
  2
ULVAC_ballon
 70
     2
 10
0.0
 20
0.0
 30
0.0
  3
ULVAC_ballon
  1

  0
CIRCLE
  5
3F7C
330
2851
100
AcDbEntity
  8
0
  6
ByBlock
 62
     0
370
    -2
100
AcDbCircle
 10
0.0
 20
0.0
 30
0.0
 40
5.0
1001
ACDBBLOCKREPETAG
1070
     1
1071
        0
1005
3F7C
  0
ATTDEF
  5
3F7D
330
2851
100
AcDbEntity
  8
0
  6
ByBlock
 62
     0
370
    -2
100
AcDbText
 10
-0.0000000000000001
 20
-2.0
 30
0.0
 40
4.0
  1

 41
0.76
  7
ULVAC
 72
     1
 11
0.0
 21
0.0
 31
0.0
100
AcDbAttributeDefinition
  3
部番
  2
ITEM
 70
     0
 74
     2
1001
ACDBBLOCKREPETAG
1070
     1
1071
        1
1005
0
  0
ENDBLK
  5
2853
330
2851
100
AcDbEntity
  8
0
100
AcDbBlockEnd
  0
BLOCK
  5
4228
330
4225
100
AcDbEntity
  8
0
 48
0.5
100
AcDbBlockBegin
  2
GENDOT
 70
     0
 10
0.0
 20
0.0
 30
0.0
  3
GENDOT
  1

  0
LINE
  5
4226
330
4225
100
AcDbEntity
  8
0
100
AcDbLine
 10
0.0
 20
0.0
 30
0.0
 11
-1.0
 21
0.0
 31
0.0
  0
LWPOLYLINE
  5
4227
330
4225
100
AcDbEntity
  8
0
100
AcDbPolyline
 90
        2
 70
     1
 43
0.25
 10
-0.125
 20
0.0
 42
1.0
 10
0.125
 20
0.0
 42
1.0
  0
ENDBLK
  5
4229
330
4225
100
AcDbEntity
  8
0
 48
0.5
100
AcDbBlockEnd
  0
BLOCK
  5
4354
330
4353
100
AcDbEntity
  8
0
370
     0
100
AcDbBlockBegin
  2
GENAXEH
 70
     0
 10
0.0
 20
0.0
 30
0.0
  3
GENAXEH
  1

  0
LINE
  5
4355
330
4353
100
AcDbEntity
  8
0
100
AcDbLine
 10
-1.0
 20
0.0
 30
0.0
 11
1.0
 21
0.0
 31
0.0
  0
ENDBLK
  5
4356
330
4353
100
AcDbEntity
  8
0
370
     0
100
AcDbBlockEnd
  0
BLOCK
  5
468B
330
4681
100
AcDbEntity
  8
0
 48
0.5
100
AcDbBlockBegin
  2
*D6
 70
     1
 10
0.0
 20
0.0
 30
0.0
  3
*D6
  1

  0
LINE
  5
47EE
330
4681
100
AcDbEntity
  8
DIMENSION
 62
     0
370
     0
100
AcDbLine
 10
2337.012881575208
 20
839.6147046947985
 30
0.0
 11
2337.012881575208
 21
1036.52812352264
 31
0.0
  0
LINE
  5
47EF
330
4681
100
AcDbEntity
  8
DIMENSION
 62
     0
370
     0
100
AcDbLine
 10
2272.212881575208
 20
898.0643046947982
 30
0.0
 11
2272.212881575208
 21
1036.52812352264
 31
0.0
  0
LINE
  5
47F0
330
4681
100
AcDbEntity
  8
DIMENSION
 62
     0
370
     0
100
AcDbLine
 10
2317.012881575207
 20
1034.128123427272
 30
0.0
 11
2292.212881575208
 21
1034.128123427272
 31
0.0
  0
SOLID
  5
47F1
330
4681
100
AcDbEntity
  8
DIMENSION
 62
     0
100
AcDbTrace
 10
2317.012881575207
 20
1037.461456760605
 30
0.0
 11
2317.012881575207
 21
1030.794790093939
 31
0.0
 12
2337.012881575208
 22
1034.128123427272
 32
0.0
 13
2337.012881575208
 23
1034.128123427272
 33
0.0
  0
SOLID
  5
47F2
330
4681
100
AcDbEntity
  8
DIMENSION
 62
     0
100
AcDbTrace
 10
2292.212881575208
 20
1037.461456760605
 30
0.0
 11
2292.212881575208
 21
1030.794790093939
 31
0.0
 12
2272.212881575208
 22
1034.128123427272
 32
0.0
 13
2272.212881575208
 23
1034.128123427272
 33
0.0
  0
MTEXT
  5
47F3
330
4681
100
AcDbEntity
  8
DIMENSION
 62
     0
100
AcDbMText
 10
2304.612881575208
 20
1046.128123427272
 30
0.0
 40
20.0
 41
0.0
 71
     5
 72
     1
  1
\A1;50\P
  7
MX_NOTE_STANDARD
 73
     1
 44
1.0
1001
ACAD
1000
MTEXTBEGIN
1070
    73
1070
     1
1070
    44
1040
1.0
1070
    74
1070
     0
1000
MTEXTEND
  0
POINT
  5
47F4
330
4681
100
AcDbEntity
  8
DEFPOINTS
 62
     0
100
AcDbPoint
 10
2337.012881575208
 20
837.0747047329455
 30
0.0
  0
POINT
  5
47F5
330
4681
100
AcDbEntity
  8
DEFPOINTS
 62
     0
100
AcDbPoint
 10
2272.212881575208
 20
895.5243047329451
 30
0.0
  0
POINT
  5
47F6
330
4681
100
AcDbEntity
  8
DEFPOINTS
 62
     0
100
AcDbPoint
 10
2272.212881575208
 20
1034.128123427272
 30
0.0
  0
ENDBLK
  5
468C
330
4681
100
AcDbEntity
  8
0
 48
0.5
100
AcDbBlockEnd
  0
BLOCK
  5
4697
330
468D
100
AcDbEntity
  8
0
 48
0.5
100
AcDbBlockBegin
  2
*D7
 70
     1
 10
0.0
 20
0.0
 30
0.0
  3
*D7
  1

  0
LINE
  5
47E5
330
468D
100
AcDbEntity
  8
DIMENSION
 62
     0
370
     0
100
AcDbLine
 10
2272.212881575208
 20
898.0643046947982
 30
0.0
 11
2272.212881575208
 21
1036.52812352264
 31
0.0
  0
LINE
  5
47E6
330
468D
100
AcDbEntity
  8
DIMENSION
 62
     0
370
     0
100
AcDbLine
 10
1810.836881575207
 20
964.2899046947992
 30
0.0
 11
1810.836881575207
 21
1036.52812352264
 31
0.0
  0
LINE
  5
47E7
330
468D
100
AcDbEntity
  8
DIMENSION
 62
     0
370
     0
100
AcDbLine
 10
2252.212881575208
 20
1034.128123427272
 30
0.0
 11
1830.836881575207
 21
1034.128123427272
 31
0.0
  0
SOLID
  5
47E8
330
468D
100
AcDbEntity
  8
DIMENSION
 62
     0
100
AcDbTrace
 10
2252.212881575208
 20
1037.461456760605
 30
0.0
 11
2252.212881575208
 21
1030.794790093939
 31
0.0
 12
2272.212881575208
 22
1034.128123427272
 32
0.0
 13
2272.212881575208
 23
1034.128123427272
 33
0.0
  0
SOLID
  5
47E9
330
468D
100
AcDbEntity
  8
DIMENSION
 62
     0
100
AcDbTrace
 10
1830.836881575207
 20
1037.461456760605
 30
0.0
 11
1830.836881575207
 21
1030.794790093939
 31
0.0
 12
1810.836881575207
 22
1034.128123427272
 32
0.0
 13
1810.836881575207
 23
1034.128123427272
 33
0.0
  0
MTEXT
  5
47EA
330
468D
100
AcDbEntity
  8
DIMENSION
 62
     0
100
AcDbMText
 10
2041.524881575208
 20
1046.128123427272
 30
0.0
 40
20.0
 41
0.0
 71
     5
 72
     1
  1
\A1;356
  7
MX_NOTE_STANDARD
 73
     1
 44
1.0
1001
ACAD
1000
MTEXTBEGIN
1070
    73
1070
     1
1070
    44
1040
1.0
1070
    74
1070
     0
1000
MTEXTEND
  0
POINT
  5
47EB
330
468D
100
AcDbEntity
  8
DEFPOINTS
 62
     0
100
AcDbPoint
 10
2272.212881575208
 20
895.5243047329451
 30
0.0
  0
POINT
  5
47EC
330
468D
100
AcDbEntity
  8
DEFPOINTS
 62
     0
100
AcDbPoint
 10
1810.836881575207
 20
961.7499047329461
 30
0.0
  0
POINT
  5
47ED
330
468D
100
AcDbEntity
  8
DEFPOINTS
 62
     0
100
AcDbPoint
 10
1810.836881575207
 20
1034.128123427272
 30
0.0
  0
ENDBLK
  5
4698
330
468D
100
AcDbEntity
  8
0
 48
0.5
100
AcDbBlockEnd
  0
BLOCK
  5
46A3
330
4699
100
AcDbEntity
  8
0
 48
0.5
100
AcDbBlockBegin
  2
*D8
 70
     1
 10
0.0
 20
0.0
 30
0.0
  3
*D8
  1

  0
LINE
  5
47DC
330
4699
100
AcDbEntity
  8
DIMENSION
 62
     0
370
     0
100
AcDbLine
 10
1810.836881575207
 20
964.2899046947992
 30
0.0
 11
1810.836881575207
 21
1036.52812352264
 31
0.0
  0
LINE
  5
47DD
330
4699
100
AcDbEntity
  8
DIMENSION
 62
     0
370
     0
100
AcDbLine
 10
1196.532881575207
 20
964.2899046947992
 30
0.0
 11
1196.532881575207
 21
1036.52812352264
 31
0.0
  0
LINE
  5
47DE
330
4699
100
AcDbEntity
  8
DIMENSION
 62
     0
370
     0
100
AcDbLine
 10
1790.836881575207
 20
1034.128123427272
 30
0.0
 11
1216.532881575208
 21
1034.128123427272
 31
0.0
  0
SOLID
  5
47DF
330
4699
100
AcDbEntity
  8
DIMENSION
 62
     0
100
AcDbTrace
 10
1790.836881575207
 20
1037.461456760605
 30
0.0
 11
1790.836881575207
 21
1030.794790093939
 31
0.0
 12
1810.836881575207
 22
1034.128123427272
 32
0.0
 13
1810.836881575207
 23
1034.128123427272
 33
0.0
  0
SOLID
  5
47E0
330
4699
100
AcDbEntity
  8
DIMENSION
 62
     0
100
AcDbTrace
 10
1216.532881575208
 20
1037.461456760605
 30
0.0
 11
1216.532881575208
 21
1030.794790093939
 31
0.0
 12
1196.532881575207
 22
1034.128123427272
 32
0.0
 13
1196.532881575207
 23
1034.128123427272
 33
0.0
  0
MTEXT
  5
47E1
330
4699
100
AcDbEntity
  8
DIMENSION
 62
     0
100
AcDbMText
 10
1503.684881575208
 20
1046.128123427272
 30
0.0
 40
20.0
 41
0.0
 71
     5
 72
     1
  1
\A1;474
  7
MX_NOTE_STANDARD
 73
     1
 44
1.0
1001
ACAD
1000
MTEXTBEGIN
1070
    73
1070
     1
1070
    44
1040
1.0
1070
    74
1070
     0
1000
MTEXTEND
  0
POINT
  5
47E2
330
4699
100
AcDbEntity
  8
DEFPOINTS
 62
     0
100
AcDbPoint
 10
1810.836881575207
 20
961.7499047329461
 30
0.0
  0
POINT
  5
47E3
330
4699
100
AcDbEntity
  8
DEFPOINTS
 62
     0
100
AcDbPoint
 10
1196.532881575207
 20
961.7499047329461
 30
0.0
  0
POINT
  5
47E4
330
4699
100
AcDbEntity
  8
DEFPOINTS
 62
     0
100
AcDbPoint
 10
1196.532881575207
 20
1034.128123427272
 30
0.0
  0
ENDBLK
  5
46A4
330
4699
100
AcDbEntity
  8
0
 48
0.5
100
AcDbBlockEnd
  0
BLOCK
  5
46AF
330
46A5
100
AcDbEntity
  8
0
 48
0.5
100
AcDbBlockBegin
  2
*D9
 70
     1
 10
0.0
 20
0.0
 30
0.0
  3
*D9
  1

  0
LINE
  5
47F7
330
46A5
100
AcDbEntity
  8
DIMENSION
 62
     0
370
     0
100
AcDbLine
 10
1131.732881575207
 20
839.6147046947985
 30
0.0
 11
1131.732881575207
 21
1036.52812352264
 31
0.0
  0
LINE
  5
47F8
330
46A5
100
AcDbEntity
  8
DIMENSION
 62
     0
370
     0
100
AcDbLine
 10
1196.532881575207
 20
964.2899046947992
 30
0.0
 11
1196.532881575207
 21
1036.52812352264
 31
0.0
  0
LINE
  5
47F9
330
46A5
100
AcDbEntity
  8
DIMENSION
 62
     0
370
     0
100
AcDbLine
 10
1151.732881575208
 20
1034.128123427272
 30
0.0
 11
1176.532881575208
 21
1034.128123427272
 31
0.0
  0
SOLID
  5
47FA
330
46A5
100
AcDbEntity
  8
DIMENSION
 62
     0
100
AcDbTrace
 10
1151.732881575208
 20
1037.461456760605
 30
0.0
 11
1151.732881575208
 21
1030.794790093939
 31
0.0
 12
1131.732881575207
 22
1034.128123427272
 32
0.0
 13
1131.732881575207
 23
1034.128123427272
 33
0.0
  0
SOLID
  5
47FB
330
46A5
100
AcDbEntity
  8
DIMENSION
 62
     0
100
AcDbTrace
 10
1176.532881575208
 20
1037.461456760605
 30
0.0
 11
1176.532881575208
 21
1030.794790093939
 31
0.0
 12
1196.532881575207
 22
1034.128123427272
 32
0.0
 13
1196.532881575207
 23
1034.128123427272
 33
0.0
  0
MTEXT
  5
47FC
330
46A5
100
AcDbEntity
  8
DIMENSION
 62
     0
100
AcDbMText
 10
1164.132881575207
 20
1046.128123427272
 30
0.0
 40
20.0
 41
0.0
 71
     5
 72
     1
  1
\A1;50
  7
MX_NOTE_STANDARD
 73
     1
 44
1.0
1001
ACAD
1000
MTEXTBEGIN
1070
    73
1070
     1
1070
    44
1040
1.0
1070
    74
1070
     0
1000
MTEXTEND
  0
POINT
  5
47FD
330
46A5
100
AcDbEntity
  8
DEFPOINTS
 62
     0
100
AcDbPoint
 10
1131.732881575207
 20
837.0747047329455
 30
0.0
  0
POINT
  5
47FE
330
46A5
100
AcDbEntity
  8
DEFPOINTS
 62
     0
100
AcDbPoint
 10
1196.532881575207
 20
961.7499047329461
 30
0.0
  0
POINT
  5
47FF
330
46A5
100
AcDbEntity
  8
DEFPOINTS
 62
     0
100
AcDbPoint
 10
1196.532881575207
 20
1034.128123427272
 30
0.0
  0
ENDBLK
  5
46B0
330
46A5
100
AcDbEntity
  8
0
 48
0.5
100
AcDbBlockEnd
  0
BLOCK
  5
46BB
330
46B1
100
AcDbEntity
  8
0
 48
0.5
100
AcDbBlockBegin
  2
*D10
 70
     1
 10
0.0
 20
0.0
 30
0.0
  3
*D10
  1

  0
LINE
  5
4881
330
46B1
100
AcDbEntity
  8
DIMENSION
 62
     0
370
     0
100
AcDbLine
 10
1131.732881575207
 20
839.6147046947985
 30
0.0
 11
1131.732881575207
 21
1085.185932121012
 31
0.0
  0
LINE
  5
4882
330
46B1
100
AcDbEntity
  8
DIMENSION
 62
     0
370
     0
100
AcDbLine
 10
2337.012881575208
 20
839.6147046947985
 30
0.0
 11
2337.012881575208
 21
1085.185932121012
 31
0.0
  0
LINE
  5
4883
330
46B1
100
AcDbEntity
  8
DIMENSION
 62
     0
370
     0
100
AcDbLine
 10
1151.732881575208
 20
1082.785932025644
 30
0.0
 11
2317.012881575207
 21
1082.785932025644
 31
0.0
  0
SOLID
  5
4884
330
46B1
100
AcDbEntity
  8
DIMENSION
 62
     0
100
AcDbTrace
 10
1151.732881575208
 20
1086.119265358978
 30
0.0
 11
1151.732881575208
 21
1079.452598692311
 31
0.0
 12
1131.732881575207
 22
1082.785932025644
 32
0.0
 13
1131.732881575207
 23
1082.785932025644
 33
0.0
  0
SOLID
  5
4885
330
46B1
100
AcDbEntity
  8
DIMENSION
 62
     0
100
AcDbTrace
 10
2317.012881575207
 20
1086.119265358978
 30
0.0
 11
2317.012881575207
 21
1079.452598692311
 31
0.0
 12
2337.012881575208
 22
1082.785932025644
 32
0.0
 13
2337.012881575208
 23
1082.785932025644
 33
0.0
  0
MTEXT
  5
4886
330
46B1
100
AcDbEntity
  8
DIMENSION
 62
     0
100
AcDbMText
 10
1734.372881575208
 20
1094.785932025645
 30
0.0
 40
20.0
 41
0.0
 71
     5
 72
     1
  1
\A1;（930）
  7
MX_NOTE_STANDARD
 73
     1
 44
1.0
1001
ACAD
1000
MTEXTBEGIN
1070
    73
1070
     1
1070
    44
1040
1.0
1070
    74
1070
     0
1000
MTEXTEND
  0
POINT
  5
4887
330
46B1
100
AcDbEntity
  8
DEFPOINTS
 62
     0
100
AcDbPoint
 10
1131.732881575207
 20
837.0747047329455
 30
0.0
  0
POINT
  5
4888
330
46B1
100
AcDbEntity
  8
DEFPOINTS
 62
     0
100
AcDbPoint
 10
2337.012881575208
 20
837.0747047329455
 30
0.0
  0
POINT
  5
4889
330
46B1
100
AcDbEntity
  8
DEFPOINTS
 62
     0
100
AcDbPoint
 10
2337.012881575208
 20
1082.785932025644
 30
0.0
  0
ENDBLK
  5
46BC
330
46B1
100
AcDbEntity
  8
0
 48
0.5
100
AcDbBlockEnd
  0
BLOCK
  5
4731
330
4727
100
AcDbEntity
  8
0
 48
0.5
100
AcDbBlockBegin
  2
*D11
 70
     1
 10
0.0
 20
0.0
 30
0.0
  3
*D11
  1

  0
LINE
  5
484C
330
4727
100
AcDbEntity
  8
PV
 62
     0
100
AcDbLine
 10
1197.802881556134
 20
961.7499047329461
 30
0.0
 11
1411.207162658947
 21
961.7499047329459
 31
0.0
  0
LINE
  5
484D
330
4727
100
AcDbEntity
  8
PV
 62
     0
100
AcDbLine
 10
1197.802881556134
 20
615.1995047329456
 30
0.0
 11
1411.207162658947
 21
615.1995047329454
 31
0.0
  0
LINE
  5
484E
330
4727
100
AcDbEntity
  8
PV
 62
     0
100
AcDbLine
 10
1410.007162611263
 20
946.7499047329459
 30
0.0
 11
1410.007162611263
 21
630.1995047329454
 31
0.0
  0
INSERT
  5
484F
330
4727
100
AcDbEntity
  8
PV
 62
     0
100
AcDbBlockReference
  2
_Open30
 10
1410.007162611263
 20
961.7499047329459
 30
0.0
 41
15.0
 42
15.0
 43
15.0
 50
90.0
  0
INSERT
  5
4850
330
4727
100
AcDbEntity
  8
PV
 62
     0
100
AcDbBlockReference
  2
_Open30
 10
1410.007162611263
 20
615.1995047329454
 30
0.0
 41
15.0
 42
15.0
 43
15.0
 50
270.0
  0
MTEXT
  5
4851
330
4727
100
AcDbEntity
  8
PV
 62
     0
100
AcDbMText
 10
1395.007162611263
 20
788.4747047329459
 30
0.0
 40
28.0
 41
0.0
 71
     5
 72
     1
  1
\A1;%%c267.4
  7
ULVAC
 11
0.0000000000000001
 21
1.0
 31
0.0
 73
     1
 44
1.0
1001
ACAD
1000
MTEXTBEGIN
1070
    73
1070
     1
1070
    44
1040
1.0
1070
    74
1070
     0
1000
MTEXTEND
  0
POINT
  5
4852
330
4727
100
AcDbEntity
  8
DEFPOINTS
 62
     0
100
AcDbPoint
 10
1196.532881575207
 20
961.7499047329461
 30
0.0
  0
POINT
  5
4853
330
4727
100
AcDbEntity
  8
DEFPOINTS
 62
     0
100
AcDbPoint
 10
1196.532881575207
 20
615.1995047329456
 30
0.0
  0
POINT
  5
4854
330
4727
100
AcDbEntity
  8
DEFPOINTS
 62
     0
100
AcDbPoint
 10
1410.007162611263
 20
615.1995047329454
 30
0.0
  0
ENDBLK
  5
4732
330
4727
100
AcDbEntity
  8
0
 48
0.5
100
AcDbBlockEnd
  0
BLOCK
  5
4763
330
4759
100
AcDbEntity
  8
0
 48
0.5
100
AcDbBlockBegin
  2
*D12
 70
     1
 10
0.0
 20
0.0
 30
0.0
  3
*D12
  1

  0
LINE
  5
4855
330
4759
100
AcDbEntity
  8
PV
 62
     0
100
AcDbLine
 10
1812.106881556134
 20
895.5243047329451
 30
0.0
 11
1979.153979763505
 21
895.5243047329451
 31
0.0
  0
LINE
  5
4856
330
4759
100
AcDbEntity
  8
PV
 62
     0
100
AcDbLine
 10
1812.106881556134
 20
681.4251047329453
 30
0.0
 11
1979.153979763505
 21
681.4251047329453
 31
0.0
  0
LINE
  5
4857
330
4759
100
AcDbEntity
  8
PV
 62
     0
100
AcDbLine
 10
1977.953979715821
 20
880.5243047329453
 30
0.0
 11
1977.953979715821
 21
696.4251047329453
 31
0.0
  0
INSERT
  5
4858
330
4759
100
AcDbEntity
  8
PV
 62
     0
100
AcDbBlockReference
  2
_Open30
 10
1977.953979715821
 20
895.5243047329451
 30
0.0
 41
15.0
 42
15.0
 43
15.0
 50
90.0
  0
INSERT
  5
4859
330
4759
100
AcDbEntity
  8
PV
 62
     0
100
AcDbBlockReference
  2
_Open30
 10
1977.953979715821
 20
681.4251047329453
 30
0.0
 41
15.0
 42
15.0
 43
15.0
 50
270.0
  0
MTEXT
  5
485A
330
4759
100
AcDbEntity
  8
PV
 62
     0
100
AcDbMText
 10
1962.953979715821
 20
788.4747047329455
 30
0.0
 40
28.0
 41
0.0
 71
     5
 72
     1
  1
\A1;%%c165.2
  7
ULVAC
 11
0.0000000000000001
 21
1.0
 31
0.0
 73
     1
 44
1.0
1001
ACAD
1000
MTEXTBEGIN
1070
    73
1070
     1
1070
    44
1040
1.0
1070
    74
1070
     0
1000
MTEXTEND
  0
POINT
  5
485B
330
4759
100
AcDbEntity
  8
DEFPOINTS
 62
     0
100
AcDbPoint
 10
1810.836881575207
 20
895.5243047329451
 30
0.0
  0
POINT
  5
485C
330
4759
100
AcDbEntity
  8
DEFPOINTS
 62
     0
100
AcDbPoint
 10
1810.836881575207
 20
681.4251047329453
 30
0.0
  0
POINT
  5
485D
330
4759
100
AcDbEntity
  8
DEFPOINTS
 62
     0
100
AcDbPoint
 10
1977.953979715821
 20
681.4251047329453
 30
0.0
  0
ENDBLK
  5
4764
330
4759
100
AcDbEntity
  8
0
 48
0.5
100
AcDbBlockEnd
  0
BLOCK
  5
492D
330
4927
100
AcDbEntity
  8
0
 48
0.5
100
AcDbBlockBegin
  2
*S13
 70
     1
 10
0.0
 20
0.0
 30
0.0
  3
*S13
  1

  0
LINE
  5
4928
330
4927
100
AcDbEntity
  8
AM_5
  6
Continuous
 62
     3
100
AcDbLine
 10
1064.082491720743
 20
1048.478838936978
 30
0.0
 11
1012.428604129848
 21
1048.478838936978
 31
0.0
  0
LINE
  5
4929
330
4927
100
AcDbEntity
  8
AM_5
  6
Continuous
 62
     3
100
AcDbLine
 10
1012.428604129848
 20
1048.478838936978
 30
0.0
 11
949.4963685509269
 21
1048.478838936978
 31
0.0
  0
LINE
  5
492A
330
4927
100
AcDbEntity
  8
AM_5
  6
Continuous
 62
     3
100
AcDbLine
 10
949.4963685509269
 20
1048.478838936978
 30
0.0
 11
882.3047737521843
 21
843.2831149503261
 31
0.0
  0
TRACE
  5
492B
330
4927
100
AcDbEntity
  8
AM_5
  6
Continuous
 62
     3
100
AcDbTrace
 10
881.1697254728128
 20
843.6547879198345
 30
0.0
 11
883.4398220315557
 21
842.9114419808179
 31
0.0
 12
879.4816372528565
 22
834.661567275682
 32
0.0
 13
879.4816372528565
 23
834.661567275682
 33
0.0
  0
MTEXT
  5
492C
330
4927
100
AcDbEntity
  8
AM_5
  6
Continuous
 62
     2
100
AcDbMText
 10
1064.082491720743
 20
1053.014838936978
 30
0.0
 40
9.072000000000002
 41
0.0
 71
     7
 72
     5
  1
 
  7
ACISOTS
 73
     1
 44
1.0
1001
ACAD
1000
MTEXTBEGIN
1070
    73
1070
     1
1070
    44
1040
1.0
1070
    74
1070
     0
1000
MTEXTEND
  0
ENDBLK
  5
492E
330
4927
100
AcDbEntity
  8
0
 48
0.5
100
AcDbBlockEnd
  0
BLOCK
  5
4938
330
4932
100
AcDbEntity
  8
0
 48
0.5
100
AcDbBlockBegin
  2
*S14
 70
     1
 10
0.0
 20
0.0
 30
0.0
  3
*S14
  1

  0
LINE
  5
4933
330
4932
100
AcDbEntity
  8
AM_5
  6
Continuous
 62
     3
100
AcDbLine
 10
2810.082491720744
 20
1046.214167953875
 30
0.0
 11
2757.570275394427
 21
1046.214167953875
 31
0.0
  0
LINE
  5
4934
330
4932
100
AcDbEntity
  8
AM_5
  6
Continuous
 62
     3
100
AcDbLine
 10
2757.570275394427
 20
1046.214167953875
 30
0.0
 11
2694.638039815506
 21
1046.214167953875
 31
0.0
  0
LINE
  5
4935
330
4932
100
AcDbEntity
  8
AM_5
  6
Continuous
 62
     3
100
AcDbLine
 10
2694.638039815506
 20
1046.214167953875
 30
0.0
 11
2627.484556723112
 21
844.161572390492
 31
0.0
  0
TRACE
  5
4936
330
4932
100
AcDbEntity
  8
AM_5
  6
Continuous
 62
     3
100
AcDbTrace
 10
2626.351163727737
 20
844.5382628613058
 30
0.0
 11
2628.617949718487
 21
843.784881919678
 31
0.0
 12
2624.623308517437
 22
835.5525978461272
 32
0.0
 13
2624.623308517437
 23
835.5525978461272
 33
0.0
  0
MTEXT
  5
4937
330
4932
100
AcDbEntity
  8
AM_5
  6
Continuous
 62
     2
100
AcDbMText
 10
2810.082491720744
 20
1050.750167953875
 30
0.0
 40
9.072000000000002
 41
0.0
 71
     7
 72
     5
  1
 
  7
ACISOTS
 73
     1
 44
1.0
1001
ACAD
1000
MTEXTBEGIN
1070
    73
1070
     1
1070
    44
1040
1.0
1070
    74
1070
     0
1000
MTEXTEND
  0
ENDBLK
  5
4939
330
4932
100
AcDbEntity
  8
0
 48
0.5
100
AcDbBlockEnd
  0
ENDSEC
  0
SECTION
  2
ENTITIES
  0
MTEXT
  5
4531
330
1F
100
AcDbEntity
  8
FV
  6
Continuous
 62
     7
100
AcDbMText
 10
613.5403473323285
 20
1484.569416149833
 30
0.0
 40
36.0
 41
0.0
 71
     1
 72
     1
  1
\A1;{\W0.838;\LRS-03 外観寸法図}
  7
MX_NOTE_STANDARD
 73
     1
 44
0.9359252199155145
1001
ACAD
1000
MTEXTBEGIN
1070
    73
1070
     1
1070
    44
1040
0.9359252199155145
1070
    74
1070
     0
1000
MTEXTEND
  0
LINE
  5
4532
330
1F
100
AcDbEntity
  8
FV
  6
Continuous
 62
     3
100
AcDbLine
 10
981.4076624454552
 20
1602.801552780199
 30
0.0
 11
988.5671951852659
 21
1602.801552780199
 31
0.0
  0
LINE
  5
4533
330
1F
100
AcDbEntity
  8
FV
  6
Continuous
 62
     3
100
AcDbLine
 10
982.0056713638994
 20
1620.629980319426
 30
0.0
 11
989.8188868597586
 21
1620.629980319426
 31
0.0
  0
ARC
  5
4534
330
1F
100
AcDbEntity
  8
FV
  6
Continuous
 62
     3
100
AcDbCircle
 10
982.4433112833199
 20
1636.743181015487
 30
0.0
 40
4.392344151352514
100
AcDbArc
 50
230.509944478547
 51
341.6481534344254
  0
LINE
  5
4535
330
1F
100
AcDbEntity
  8
FV
  6
Continuous
 62
     3
100
AcDbLine
 10
986.6122650247499
 20
1635.360245064064
 30
0.0
 11
989.0127418566311
 21
1642.59664444987
 31
0.0
  0
ARC
  5
4536
330
1F
100
AcDbEntity
  8
FV
  6
Continuous
 62
     3
100
AcDbCircle
 10
989.1665103073263
 20
1642.377027186385
 30
0.0
 40
0.2196172075676257
100
AcDbArc
 50
90.0
 51
150.0004403130621
  0
ARC
  5
4537
330
1F
100
AcDbEntity
  8
FV
  6
Continuous
 62
     3
100
AcDbCircle
 10
989.6260532601539
 20
1642.377027186385
 30
0.0
 40
0.2196172075676257
100
AcDbArc
 50
0.0
 51
90.0
  0
LINE
  5
4538
330
1F
100
AcDbEntity
  8
FV
  6
Continuous
 62
     3
100
AcDbLine
 10
989.1665103073263
 20
1642.596644393952
 30
0.0
 11
989.6260532601539
 21
1642.596644393952
 31
0.0
  0
LINE
  5
4539
330
1F
100
AcDbEntity
  8
FV
  6
Continuous
 62
     3
100
AcDbLine
 10
989.8456704677217
 20
1642.377027186385
 30
0.0
 11
989.8456704677217
 21
1620.629980319426
 31
0.0
  0
ELLIPSE
  5
453A
330
1F
100
AcDbEntity
  8
FV
  6
Continuous
 62
     3
100
AcDbEllipse
 10
957.1996398778676
 20
1612.143861984764
 30
0.0
 11
27.45215094595314
 21
-0.0000019382983818
 31
0.0
210
0.0
220
0.0
230
1.0
 40
0.7216510581970216
 41
0.4426733724477122
 42
5.792109617456229
  0
ELLIPSE
  5
453B
330
1F
100
AcDbEntity
  8
FV
  6
Continuous
 62
     3
100
AcDbEllipse
 10
952.32799570008
 20
1612.143862784493
 30
0.0
 11
38.07516882332446
 21
-0.0000023051034193
 31
0.0
210
0.0
220
0.0
230
1.0
 40
0.7998068702141571
 41
0.7704730626730815
 42
5.971377141295468
  0
ARC
  5
453C
330
1F
100
AcDbEntity
  8
FV
  6
Continuous
 62
     3
100
AcDbCircle
 10
762.7224063955402
 20
1598.916521765669
 30
0.0
 40
0.1098086037838128
100
AcDbArc
 50
350.2609202919984
 51
146.6766537949446
  0
ARC
  5
453D
330
1F
100
AcDbEntity
  8
FV
  6
Continuous
 62
     3
100
AcDbCircle
 10
749.6810264439091
 20
1599.268758593202
 30
0.0
 40
10.98086037838128
100
AcDbArc
 50
270.0
 51
326.6766537949446
  0
LINE
  5
453E
330
1F
100
AcDbEntity
  8
FV
  6
Continuous
 62
     3
100
AcDbLine
 10
758.8564530997866
 20
1593.236276489448
 30
0.0
 11
762.6306521289814
 21
1598.976846586707
 31
0.0
  0
ARC
  5
453F
330
1F
100
AcDbEntity
  8
FV
  6
Continuous
 62
     3
100
AcDbCircle
 10
615.9576028079113
 20
1594.333311117459
 30
0.0
 40
5.490430189190639
100
AcDbArc
 50
202.6932775652407
 51
234.0160489480045
  0
ARC
  5
4540
330
1F
100
AcDbEntity
  8
FV
  6
Continuous
 62
     3
100
AcDbCircle
 10
615.4400816339582
 20
1595.570893147679
 30
0.0
 40
5.490430189190639
100
AcDbArc
 50
180.0
 51
202.6932775652407
  0
ARC
  5
4541
330
1F
100
AcDbEntity
  8
FV
  6
Continuous
 62
     3
100
AcDbCircle
 10
623.6726563197882
 20
1588.731297739409
 30
0.0
 40
5.490430189190639
100
AcDbArc
 50
234.0160489480045
 51
253.9178076732326
  0
ARC
  5
4542
330
1F
100
AcDbEntity
  8
FV
  6
Continuous
 62
     3
100
AcDbCircle
 10
631.1131232675568
 20
1586.586222253902
 30
0.0
 40
5.490430189190639
100
AcDbArc
 50
253.9178076732326
 51
261.6064190568191
  0
LINE
  5
4543
330
1F
100
AcDbEntity
  8
FV
  6
Continuous
 62
     3
100
AcDbLine
 10
612.7316532341308
 20
1589.890556002691
 30
0.0
 11
620.4467067460077
 21
1584.288542624641
 31
0.0
  0
LINE
  5
4544
330
1F
100
AcDbEntity
  8
FV
  6
Continuous
 62
     3
100
AcDbLine
 10
622.1517191604932
 20
1583.455733900362
 30
0.0
 11
629.5921861082624
 21
1581.310658414855
 31
0.0
  0
LINE
  5
4545
330
1F
100
AcDbEntity
  8
FV
  6
Continuous
 62
     3
100
AcDbLine
 10
610.8922232710174
 20
1592.215115231902
 30
0.0
 11
610.3747020970643
 21
1593.452697262122
 31
0.0
  0
ARC
  5
4546
330
1F
100
AcDbEntity
  8
FV
  6
Continuous
 62
     3
100
AcDbCircle
 10
673.1681204274787
 20
1588.817928873356
 30
0.0
 40
5.490430189190639
100
AcDbArc
 50
284.4688421409768
 51
305.135308842286
  0
ARC
  5
4547
330
1F
100
AcDbEntity
  8
FV
  6
Continuous
 62
     3
100
AcDbCircle
 10
875.922560597994
 20
1589.52965070238
 30
0.0
 40
5.490430189190639
100
AcDbArc
 50
310.2915552042307
 51
29.66165865505375
  0
ARC
  5
4548
330
1F
100
AcDbEntity
  8
FV
  6
Continuous
 62
     3
100
AcDbCircle
 10
909.3571616753971
 20
1592.388208100334
 30
0.0
 40
5.490430189190639
100
AcDbArc
 50
211.3286928667059
 51
241.0759065697478
  0
ARC
  5
4549
330
1F
100
AcDbEntity
  8
FV
  6
Continuous
 62
     3
100
AcDbCircle
 10
877.3739268904678
 20
1583.130171303529
 30
0.0
 40
0.3294258113514385
100
AcDbArc
 50
130.2915552042307
 51
180.0
  0
ARC
  5
454A
330
1F
100
AcDbEntity
  8
FV
  6
Continuous
 62
     3
100
AcDbCircle
 10
914.1537730413213
 20
1583.088425167759
 30
0.0
 40
0.3294258113514385
100
AcDbArc
 50
0.0
 51
61.07590656974778
  0
ARC
  5
454B
330
1F
100
AcDbEntity
  8
FV
  6
Continuous
 62
     3
100
AcDbCircle
 10
914.2635816451052
 20
1582.503119962709
 30
0.0
 40
0.2196172075676257
100
AcDbArc
 50
270.0
 51
0.0
  0
LINE
  5
454C
330
1F
100
AcDbEntity
  8
FV
  6
Continuous
 62
     3
100
AcDbLine
 10
914.483198852673
 20
1582.503119962709
 30
0.0
 11
914.483198852673
 21
1583.088425167759
 31
0.0
  0
ARC
  5
454D
330
1F
100
AcDbEntity
  8
FV
  6
Continuous
 62
     3
100
AcDbCircle
 10
877.264118286684
 20
1582.503119962709
 30
0.0
 40
0.2196172075676257
100
AcDbArc
 50
180.0
 51
270.0
  0
LINE
  5
454E
330
1F
100
AcDbEntity
  8
FV
  6
Continuous
 62
     3
100
AcDbLine
 10
877.1608946754172
 20
1583.38144533827
 30
0.0
 11
879.4730975155111
 21
1585.341750123364
 31
0.0
  0
LINE
  5
454F
330
1F
100
AcDbEntity
  8
FV
  6
Continuous
 62
     3
100
AcDbLine
 10
906.7017124689485
 20
1587.582647448927
 30
0.0
 11
914.3130999937083
 21
1583.376758806843
 31
0.0
  0
LINE
  5
4550
330
1F
100
AcDbEntity
  8
FV
  6
Continuous
 62
     3
100
AcDbLine
 10
877.0445010791167
 20
1582.503119962709
 30
0.0
 11
877.0445010791167
 21
1583.130171303529
 31
0.0
  0
ARC
  5
4551
330
1F
100
AcDbEntity
  8
FV
  6
Continuous
 62
     3
100
AcDbCircle
 10
818.5372302000093
 20
1582.503119962709
 30
0.0
 40
0.2196172075676257
100
AcDbArc
 50
180.0
 51
270.0
  0
ARC
  5
4552
330
1F
100
AcDbEntity
  8
FV
  6
Continuous
 62
     3
100
AcDbCircle
 10
839.5701748868855
 20
1582.503119962709
 30
0.0
 40
0.2196172075676257
100
AcDbArc
 50
270.0
 51
0.0
  0
ARC
  5
4553
330
1F
100
AcDbEntity
  8
FV
  6
Continuous
 62
     3
100
AcDbCircle
 10
818.6470388037932
 20
1583.100316281859
 30
0.0
 40
0.3294258113514385
100
AcDbArc
 50
122.0410322243685
 51
180.0
  0
ARC
  5
4554
330
1F
100
AcDbEntity
  8
FV
  6
Continuous
 62
     3
100
AcDbCircle
 10
839.4603662831016
 20
1583.123366638016
 30
0.0
 40
0.3294258113514385
100
AcDbArc
 50
0.0
 51
51.64187206940108
  0
ARC
  5
4555
330
1F
100
AcDbEntity
  8
FV
  6
Continuous
 62
     3
100
AcDbCircle
 10
822.27087652705
 20
1592.23407422453
 30
0.0
 40
5.490430189190639
100
AcDbArc
 50
302.0410322243685
 51
329.360043973911
  0
ARC
  5
4556
330
1F
100
AcDbEntity
  8
FV
  6
Continuous
 62
     3
100
AcDbCircle
 10
840.6337951704747
 20
1589.61660616106
 30
0.0
 40
5.490430189190639
100
AcDbArc
 50
149.360043973911
 51
231.6418720694011
  0
LINE
  5
4557
330
1F
100
AcDbEntity
  8
FV
  6
Continuous
 62
     3
100
AcDbLine
 10
837.2265720762955
 20
1585.311300777133
 30
0.0
 11
839.6647996687523
 21
1583.381684961052
 31
0.0
  0
LINE
  5
4558
330
1F
100
AcDbEntity
  8
FV
  6
Continuous
 62
     3
100
AcDbLine
 10
818.4722696956665
 20
1583.379560125174
 30
0.0
 11
825.1836949958299
 21
1587.580010169286
 31
0.0
  0
LINE
  5
4559
330
1F
100
AcDbEntity
  8
FV
  6
Continuous
 62
     3
100
AcDbLine
 10
818.3176129924415
 20
1582.503119962709
 30
0.0
 11
818.3176129924415
 21
1583.100316281859
 31
0.0
  0
LINE
  5
455A
330
1F
100
AcDbEntity
  8
FV
  6
Continuous
 62
     3
100
AcDbLine
 10
839.7897920944533
 20
1582.503119962709
 30
0.0
 11
839.7897920944533
 21
1583.123366638016
 31
0.0
  0
ARC
  5
455B
330
1F
100
AcDbEntity
  8
FV
  6
Continuous
 62
     3
100
AcDbCircle
 10
817.5364581425633
 20
1629.763705168252
 30
0.0
 40
5.490430189190639
100
AcDbArc
 50
329.9129623574337
 51
54.32124068793038
  0
ARC
  5
455C
330
1F
100
AcDbEntity
  8
FV
  6
Continuous
 62
     3
100
AcDbCircle
 10
836.131405362622
 20
1627.246891645221
 30
0.0
 40
5.490430189190639
100
AcDbArc
 50
118.8516001623743
 51
149.9129623574337
  0
ARC
  5
455D
330
1F
100
AcDbEntity
  8
FV
  6
Continuous
 62
     3
100
AcDbCircle
 10
819.050669859971
 20
1636.142333198554
 30
0.0
 40
0.2196172075676257
100
AcDbArc
 50
90.0
 51
180.0
  0
ARC
  5
455E
330
1F
100
AcDbEntity
  8
FV
  6
Continuous
 62
     3
100
AcDbCircle
 10
839.6833725108452
 20
1636.142333198554
 30
0.0
 40
0.2196172075676257
100
AcDbArc
 50
0.0
 51
90.0
  0
ARC
  5
455F
330
1F
100
AcDbEntity
  8
FV
  6
Continuous
 62
     3
100
AcDbCircle
 10
819.1604784637549
 20
1635.762305921109
 30
0.0
 40
0.3294258113514385
100
AcDbArc
 50
180.0
 51
234.3212406879303
  0
ARC
  5
4560
330
1F
100
AcDbEntity
  8
FV
  6
Continuous
 62
     3
100
AcDbCircle
 10
839.5735639070613
 20
1635.787911854498
 30
0.0
 40
0.3294258113514385
100
AcDbArc
 50
298.8516001623743
 51
0.0
  0
LINE
  5
4561
330
1F
100
AcDbEntity
  8
FV
  6
Continuous
 62
     3
100
AcDbLine
 10
818.9683441154253
 20
1635.494713399957
 30
0.0
 11
820.7386972813933
 21
1634.223580520784
 31
0.0
  0
LINE
  5
4562
330
1F
100
AcDbEntity
  8
FV
  6
Continuous
 62
     3
100
AcDbLine
 10
833.4820384974381
 20
1632.055808246291
 30
0.0
 11
839.7325259189722
 21
1635.499376858434
 31
0.0
  0
LINE
  5
4563
330
1F
100
AcDbEntity
  8
FV
  6
Continuous
 62
     3
100
AcDbLine
 10
818.8310526524032
 20
1635.762305921109
 30
0.0
 11
818.8310526524032
 21
1636.142333198554
 31
0.0
  0
LINE
  5
4564
330
1F
100
AcDbEntity
  8
FV
  6
Continuous
 62
     3
100
AcDbLine
 10
839.902989718413
 20
1635.787911854498
 30
0.0
 11
839.902989718413
 21
1636.142333198554
 31
0.0
  0
ARC
  5
4565
330
1F
100
AcDbEntity
  8
FV
  6
Continuous
 62
     3
100
AcDbCircle
 10
780.7948037589337
 20
1635.819859426811
 30
0.0
 40
0.3294258113514385
100
AcDbArc
 50
300.622597440123
 51
0.0
  0
ARC
  5
4566
330
1F
100
AcDbEntity
  8
FV
  6
Continuous
 62
     3
100
AcDbCircle
 10
780.9046123627177
 20
1636.142333198554
 30
0.0
 40
0.2196172075676257
100
AcDbArc
 50
0.0
 51
90.0
  0
ARC
  5
4567
330
1F
100
AcDbEntity
  8
FV
  6
Continuous
 62
     3
100
AcDbCircle
 10
745.3034036046887
 20
1636.142333198554
 30
0.0
 40
0.2196172075676257
100
AcDbArc
 50
90.0
 51
180.0
  0
ARC
  5
4568
330
1F
100
AcDbEntity
  8
FV
  6
Continuous
 62
     3
100
AcDbCircle
 10
745.4132122084727
 20
1635.796886601549
 30
0.0
 40
0.3294258113514385
100
AcDbArc
 50
180.0
 51
243.4349631224983
  0
ARC
  5
4569
330
1F
100
AcDbEntity
  8
FV
  6
Continuous
 62
     3
100
AcDbCircle
 10
781.364498914329
 20
1629.394061064777
 30
0.0
 40
5.490430189190639
100
AcDbArc
 50
120.622597440123
 51
210.6745406927765
  0
ARC
  5
456A
330
1F
100
AcDbEntity
  8
FV
  6
Continuous
 62
     3
100
AcDbCircle
 10
749.7324051574103
 20
1627.130495468261
 30
0.0
 40
5.490430189190639
100
AcDbArc
 50
30.67454069277652
 51
63.43496312249836
  0
LINE
  5
456B
330
1F
100
AcDbEntity
  8
FV
  6
Continuous
 62
     3
100
AcDbLine
 10
778.5677789035498
 20
1634.118802416817
 30
0.0
 11
780.9626069595806
 21
1635.536374945689
 31
0.0
  0
LINE
  5
456C
330
1F
100
AcDbEntity
  8
FV
  6
Continuous
 62
     3
100
AcDbLine
 10
745.2658885804642
 20
1635.502239161691
 30
0.0
 11
752.1877989575507
 21
1632.041286132565
 31
0.0
  0
LINE
  5
456D
330
1F
100
AcDbEntity
  8
FV
  6
Continuous
 62
     3
100
AcDbLine
 10
781.1242295702848
 20
1635.819859426811
 30
0.0
 11
781.1242295702848
 21
1636.142333198554
 31
0.0
  0
LINE
  5
456E
330
1F
100
AcDbEntity
  8
FV
  6
Continuous
 62
     3
100
AcDbLine
 10
745.0837863971217
 20
1635.796886601549
 30
0.0
 11
745.0837863971217
 21
1636.142333198554
 31
0.0
  0
LINE
  5
456F
330
1F
100
AcDbEntity
  8
FV
  6
Continuous
 62
     3
100
AcDbLine
 10
630.9903932585305
 20
1592.274852340282
 30
0.0
 11
630.6576803741568
 21
1592.705559685395
 31
0.0
  0
ARC
  5
4570
330
1F
100
AcDbEntity
  8
FV
  6
Continuous
 62
     3
100
AcDbCircle
 10
635.0026948466624
 20
1596.061997215886
 30
0.0
 40
5.490430189190639
100
AcDbArc
 50
180.0
 51
217.6853747661212
  0
ARC
  5
4571
330
1F
100
AcDbEntity
  8
FV
  6
Continuous
 62
     3
100
AcDbCircle
 10
635.3354077310369
 20
1595.631289870773
 30
0.0
 40
5.490430189190639
100
AcDbArc
 50
217.6853747661212
 51
257.6356445680883
  0
LINE
  5
4572
330
1F
100
AcDbEntity
  8
FV
  6
Continuous
 62
     3
100
AcDbLine
 10
640.9237003206806
 20
1588.78546733423
 30
0.0
 11
634.1597546353714
 21
1590.268206479567
 31
0.0
  0
ARC
  5
4573
330
1F
100
AcDbEntity
  8
FV
  6
Continuous
 62
     3
100
AcDbCircle
 10
655.3240737857001
 20
1691.69444430578
 30
0.0
 40
103.9116369556962
100
AcDbArc
 50
262.0341483002016
 51
264.3484656952643
  0
ARC
  5
4574
330
1F
100
AcDbEntity
  8
FV
  6
Continuous
 62
     3
100
AcDbCircle
 10
666.6107889515794
 20
1595.631289870773
 30
0.0
 40
5.490430189190639
100
AcDbArc
 50
282.3643554319117
 51
322.3146252338788
  0
ARC
  5
4575
330
1F
100
AcDbEntity
  8
FV
  6
Continuous
 62
     3
100
AcDbCircle
 10
666.9435018359538
 20
1596.061997215886
 30
0.0
 40
5.490430189190639
100
AcDbArc
 50
322.3146252338788
 51
0.0
  0
LINE
  5
4576
330
1F
100
AcDbEntity
  8
FV
  6
Continuous
 62
     3
100
AcDbLine
 10
661.0224963619357
 20
1588.78546733423
 30
0.0
 11
667.7864420472449
 21
1590.268206479567
 31
0.0
  0
LINE
  5
4577
330
1F
100
AcDbEntity
  8
FV
  6
Continuous
 62
     3
100
AcDbLine
 10
670.9558034240851
 20
1592.274852340282
 30
0.0
 11
671.2885163084595
 21
1592.705559685395
 31
0.0
  0
ARC
  5
4578
330
1F
100
AcDbEntity
  8
FV
  6
Continuous
 62
     3
100
AcDbCircle
 10
603.8444447825752
 20
1636.142333198554
 30
0.0
 40
0.2196172075676257
100
AcDbArc
 50
90.0
 51
180.0
  0
ARC
  5
4579
330
1F
100
AcDbEntity
  8
FV
  6
Continuous
 62
     3
100
AcDbCircle
 10
635.6160438306151
 20
1636.142333198554
 30
0.0
 40
0.2196172075676257
100
AcDbArc
 50
0.0
 51
90.0
  0
ARC
  5
457A
330
1F
100
AcDbEntity
  8
FV
  6
Continuous
 62
     3
100
AcDbCircle
 10
603.9542533863591
 20
1635.753062554204
 30
0.0
 40
0.3294258113514385
100
AcDbArc
 50
180.0
 51
236.0496694967415
  0
ARC
  5
457B
330
1F
100
AcDbEntity
  8
FV
  6
Continuous
 62
     3
100
AcDbCircle
 10
635.5062352268312
 20
1635.753343707127
 30
0.0
 40
0.3294258113514385
100
AcDbArc
 50
303.9582570957641
 51
0.0
  0
ARC
  5
457C
330
1F
100
AcDbEntity
  8
FV
  6
Continuous
 62
     3
100
AcDbCircle
 10
604.4592212555767
 20
1628.397178976034
 30
0.0
 40
5.490430189190639
100
AcDbArc
 50
0.0
 51
56.04966949674146
  0
ARC
  5
457D
330
1F
100
AcDbEntity
  8
FV
  6
Continuous
 62
     3
100
AcDbCircle
 10
635.0026948466624
 20
1628.397666341467
 30
0.0
 40
5.490430189190639
100
AcDbArc
 50
123.9582570957641
 51
180.0
  0
LINE
  5
457E
330
1F
100
AcDbEntity
  8
FV
  6
Continuous
 62
     3
100
AcDbLine
 10
631.9358022616342
 20
1632.951674854225
 30
0.0
 11
635.6902487819326
 21
1635.480103196361
 31
0.0
  0
LINE
  5
457F
330
1F
100
AcDbEntity
  8
FV
  6
Continuous
 62
     3
100
AcDbLine
 10
603.7702776345147
 20
1635.479796588673
 30
0.0
 11
607.5254837863226
 21
1632.951611734888
 31
0.0
  0
LINE
  5
4580
330
1F
100
AcDbEntity
  8
FV
  6
Continuous
 62
     3
100
AcDbLine
 10
635.8356610381822
 20
1635.753343707127
 30
0.0
 11
635.8356610381822
 21
1636.142333198554
 31
0.0
  0
LINE
  5
4581
330
1F
100
AcDbEntity
  8
FV
  6
Continuous
 62
     3
100
AcDbLine
 10
603.6248275750081
 20
1635.753062554204
 30
0.0
 11
603.6248275750081
 21
1636.142333198554
 31
0.0
  0
ARC
  5
4582
330
1F
100
AcDbEntity
  8
FV
  6
Continuous
 62
     3
100
AcDbCircle
 10
666.9435018359538
 20
1628.534069703678
 30
0.0
 40
5.490430189190639
100
AcDbArc
 50
0.0
 51
53.80036358700816
  0
ARC
  5
4583
330
1F
100
AcDbEntity
  8
FV
  6
Continuous
 62
     3
100
AcDbCircle
 10
666.9100079502036
 20
1636.138059237642
 30
0.0
 40
0.2196172075676257
100
AcDbArc
 50
90.0
 51
180.0
  0
ARC
  5
4584
330
1F
100
AcDbEntity
  8
FV
  6
Continuous
 62
     3
100
AcDbCircle
 10
667.2394337615546
 20
1635.801674225154
 30
0.0
 40
0.5490430189190643
100
AcDbArc
 50
180.0
 51
233.8003635870081
  0
LINE
  5
4585
330
1F
100
AcDbEntity
  8
FV
  6
Continuous
 62
     3
100
AcDbLine
 10
666.9151686543605
 20
1635.3586162415
 30
0.0
 11
670.186152907896
 21
1632.964649540225
 31
0.0
  0
ARC
  5
4586
330
1F
100
AcDbEntity
  8
FV
  6
Continuous
 62
     3
100
AcDbCircle
 10
687.4636928256486
 20
1635.848844844395
 30
0.0
 40
0.5490430189190643
100
AcDbArc
 50
303.5113754732157
 51
0.0
  0
ARC
  5
4587
330
1F
100
AcDbEntity
  8
FV
  6
Continuous
 62
     3
100
AcDbCircle
 10
687.7931186370004
 20
1636.138059237642
 30
0.0
 40
0.2196172075676257
100
AcDbArc
 50
0.0
 51
90.0
  0
LINE
  5
4588
330
1F
100
AcDbEntity
  8
FV
  6
Continuous
 62
     3
100
AcDbLine
 10
683.1116159480027
 20
1632.308523588438
 30
0.0
 11
687.7668208674906
 21
1635.391065829069
 31
0.0
  0
ARC
  5
4589
330
1F
100
AcDbEntity
  8
FV
  6
Continuous
 62
     3
100
AcDbCircle
 10
685.1180009397232
 20
1629.695755748875
 30
0.0
 40
3.294258113514385
100
AcDbArc
 50
127.5212181517819
 51
180.0
  0
LINE
  5
458A
330
1F
100
AcDbEntity
  8
FV
  6
Continuous
 62
     3
100
AcDbLine
 10
666.6903907426358
 20
1635.801674225154
 30
0.0
 11
666.6903907426358
 21
1636.138059237642
 31
0.0
  0
LINE
  5
458B
330
1F
100
AcDbEntity
  8
FV
  6
Continuous
 62
     3
100
AcDbLine
 10
688.0127358445674
 20
1635.848844844395
 30
0.0
 11
688.0127358445674
 21
1636.138059237642
 31
0.0
  0
LINE
  5
458C
330
1F
100
AcDbEntity
  8
FV
  6
Continuous
 62
     3
100
AcDbLine
 10
678.3277882593757
 20
1585.735258341046
 30
0.0
 11
676.3279142387805
 21
1584.327881353292
 31
0.0
  0
ARC
  5
458D
330
1F
100
AcDbEntity
  8
FV
  6
Continuous
 62
     3
100
AcDbCircle
 10
673.5880975424229
 20
1592.470329621142
 30
0.0
 40
8.235645283785961
100
AcDbArc
 50
305.135308842286
 51
0.0
  0
LINE
  5
458E
330
1F
100
AcDbEntity
  8
FV
  6
Continuous
 62
     3
100
AcDbLine
 10
681.8237428262088
 20
1592.470329621142
 30
0.0
 11
681.8237428262088
 21
1629.695755748875
 31
0.0
  0
ARC
  5
458F
330
1F
100
AcDbEntity
  8
FV
  6
Continuous
 62
     3
100
AcDbCircle
 10
728.2144351746312
 20
1597.621629536445
 30
0.0
 40
9.333731321624091
100
AcDbArc
 50
180.0
 51
270.0
  0
ARC
  5
4590
330
1F
100
AcDbEntity
  8
FV
  6
Continuous
 62
     3
100
AcDbCircle
 10
693.3039144459142
 20
1582.712785403715
 30
0.0
 40
1.098086037838128
100
AcDbArc
 50
125.135308842286
 51
180.0
  0
ARC
  5
4591
330
1F
100
AcDbEntity
  8
FV
  6
Continuous
 62
     3
100
AcDbCircle
 10
691.0824453565167
 20
1592.562751522722
 30
0.0
 40
8.235645283785961
100
AcDbArc
 50
305.135308842286
 51
0.0
  0
ARC
  5
4592
330
1F
100
AcDbEntity
  8
FV
  6
Continuous
 62
     3
100
AcDbCircle
 10
692.4254456156436
 20
1582.503119962709
 30
0.0
 40
0.2196172075676257
100
AcDbArc
 50
180.0
 51
270.0
  0
LINE
  5
4593
330
1F
100
AcDbEntity
  8
FV
  6
Continuous
 62
     3
100
AcDbLine
 10
692.2058284080764
 20
1582.712785403715
 30
0.0
 11
692.2058284080764
 21
1582.503119962709
 31
0.0
  0
LINE
  5
4594
330
1F
100
AcDbEntity
  8
FV
  6
Continuous
 62
     3
100
AcDbLine
 10
695.8221360734701
 20
1585.827680242626
 30
0.0
 11
692.6719556836542
 21
1583.610794907728
 31
0.0
  0
LINE
  5
4595
330
1F
100
AcDbEntity
  8
FV
  6
Continuous
 62
     3
100
AcDbLine
 10
645.0910624815576
 20
1588.28789821482
 30
0.0
 11
656.8551342294909
 21
1588.28789821482
 31
0.0
  0
ARC
  5
4596
330
1F
100
AcDbEntity
  8
FV
  6
Continuous
 62
     3
100
AcDbCircle
 10
696.0238325267889
 20
1629.611101517669
 30
0.0
 40
3.294258113514385
100
AcDbArc
 50
0.0
 51
54.82366186721253
  0
ARC
  5
4597
330
1F
100
AcDbEntity
  8
FV
  6
Continuous
 62
     3
100
AcDbCircle
 10
722.174961966522
 20
1629.617857034282
 30
0.0
 40
3.294258113514385
100
AcDbArc
 50
125.3616783504064
 51
180.0
  0
LINE
  5
4598
330
1F
100
AcDbEntity
  8
FV
  6
Continuous
 62
     3
100
AcDbLine
 10
724.8467868430957
 20
1635.553417523957
 30
0.0
 11
720.2684566852624
 21
1632.304374134728
 31
0.0
  0
LINE
  5
4599
330
1F
100
AcDbEntity
  8
FV
  6
Continuous
 62
     3
100
AcDbLine
 10
693.3102399231731
 20
1635.553903624086
 30
0.0
 11
697.9216375109133
 21
1632.303771709261
 31
0.0
  0
ARC
  5
459A
330
1F
100
AcDbEntity
  8
FV
  6
Continuous
 62
     3
100
AcDbCircle
 10
693.4914816332622
 20
1636.072169655336
 30
0.0
 40
0.5490430189190643
100
AcDbArc
 50
180.0
 51
250.724866313083
  0
ARC
  5
459B
330
1F
100
AcDbEntity
  8
FV
  6
Continuous
 62
     3
100
AcDbCircle
 10
693.1620558219113
 20
1636.142333198554
 30
0.0
 40
0.2196172075676257
100
AcDbArc
 50
90.0
 51
180.0
  0
ARC
  5
459C
330
1F
100
AcDbEntity
  8
FV
  6
Continuous
 62
     3
100
AcDbCircle
 10
724.9938791971462
 20
1636.142333198554
 30
0.0
 40
0.2196172075676257
100
AcDbArc
 50
0.0
 51
90.0
  0
ARC
  5
459D
330
1F
100
AcDbEntity
  8
FV
  6
Continuous
 62
     3
100
AcDbCircle
 10
724.6644533857952
 20
1636.071300471131
 30
0.0
 40
0.5490430189190643
100
AcDbArc
 50
289.3958740160566
 51
0.0
  0
LINE
  5
459E
330
1F
100
AcDbEntity
  8
FV
  6
Continuous
 62
     3
100
AcDbLine
 10
692.9424386143434
 20
1636.072169655336
 30
0.0
 11
692.9424386143434
 21
1636.142333198554
 31
0.0
  0
LINE
  5
459F
330
1F
100
AcDbEntity
  8
FV
  6
Continuous
 62
     3
100
AcDbLine
 10
725.213496404714
 20
1636.071300471131
 30
0.0
 11
725.213496404714
 21
1636.142333198554
 31
0.0
  0
LINE
  5
45A0
330
1F
100
AcDbEntity
  8
FV
  6
Continuous
 62
     3
100
AcDbLine
 10
666.9100079502036
 20
1636.357676445209
 30
0.0
 11
687.7931186370004
 21
1636.357676445209
 31
0.0
  0
ARC
  5
45A1
330
1F
100
AcDbEntity
  8
FV
  6
Continuous
 62
     3
100
AcDbCircle
 10
646.6221228969154
 20
1691.69444430578
 30
0.0
 40
111.7366885346515
100
AcDbArc
 50
261.6064190568191
 51
284.4688421409768
  0
ARC
  5
45A2
330
1F
100
AcDbEntity
  8
FV
  6
Continuous
 62
     3
100
AcDbCircle
 10
646.6221228969154
 20
1691.69444430578
 30
0.0
 40
103.9116369556962
100
AcDbArc
 50
275.6515343047357
 51
277.9658516997984
  0
LINE
  5
45A3
330
1F
100
AcDbEntity
  8
FV
  6
Continuous
 62
     3
100
AcDbLine
 10
603.8444447825752
 20
1636.361950406122
 30
0.0
 11
635.6160438306151
 21
1636.361950406122
 31
0.0
  0
LINE
  5
45A4
330
1F
100
AcDbEntity
  8
FV
  6
Continuous
 62
     3
100
AcDbLine
 10
692.4254456156436
 20
1582.283502755142
 30
0.0
 11
759.9790089441069
 21
1582.283502755142
 31
0.0
  0
LINE
  5
45A5
330
1F
100
AcDbEntity
  8
FV
  6
Continuous
 62
     3
100
AcDbLine
 10
759.9790089466027
 20
1582.283502769687
 30
0.0
 11
762.8306324726816
 21
1598.897946360118
 31
0.0
  0
LINE
  5
45A6
330
1F
100
AcDbEntity
  8
FV
  6
Continuous
 62
     3
100
AcDbLine
 10
728.2144351746312
 20
1588.28789821482
 30
0.0
 11
749.6810264439091
 21
1588.28789821482
 31
0.0
  0
LINE
  5
45A7
330
1F
100
AcDbEntity
  8
FV
  6
Continuous
 62
     3
100
AcDbLine
 10
672.4339320251442
 20
1596.061997215886
 30
0.0
 11
672.4339320251442
 21
1628.534069703678
 31
0.0
  0
LINE
  5
45A8
330
1F
100
AcDbEntity
  8
FV
  6
Continuous
 62
     3
100
AcDbLine
 10
699.3180906403033
 20
1592.562751522722
 30
0.0
 11
699.3180906403033
 21
1629.611101517669
 31
0.0
  0
LINE
  5
45A9
330
1F
100
AcDbEntity
  8
FV
  6
Continuous
 62
     3
100
AcDbLine
 10
718.8807038530076
 20
1597.621629536445
 30
0.0
 11
718.8807038530076
 21
1629.617857034282
 31
0.0
  0
LINE
  5
45AA
330
1F
100
AcDbEntity
  8
FV
  6
Continuous
 62
     3
100
AcDbLine
 10
782.7172891690779
 20
1582.283502755142
 30
0.0
 11
803.7352539972285
 21
1582.283502755142
 31
0.0
  0
LINE
  5
45AB
330
1F
100
AcDbEntity
  8
FV
  6
Continuous
 62
     3
100
AcDbLine
 10
782.7172891604504
 20
1582.283502769687
 30
0.0
 11
754.4546091155755
 21
1629.931497688871
 31
0.0
  0
LINE
  5
45AC
330
1F
100
AcDbEntity
  8
FV
  6
Continuous
 62
     3
100
AcDbLine
 10
799.6103215612854
 20
1587.871309411808
 30
0.0
 11
776.6422949561638
 21
1626.593058844166
 31
0.0
  0
LINE
  5
45AD
330
1F
100
AcDbEntity
  8
FV
  6
Continuous
 62
     3
100
AcDbLine
 10
799.6103215612854
 20
1587.871309411808
 30
0.0
 11
822.2871344412267
 21
1627.011270179429
 31
0.0
  0
LINE
  5
45AE
330
1F
100
AcDbEntity
  8
FV
  6
Continuous
 62
     3
100
AcDbLine
 10
803.735253967735
 20
1582.283502704236
 30
0.0
 11
831.3807290639585
 21
1629.999326634044
 31
0.0
  0
LINE
  5
45AF
330
1F
100
AcDbEntity
  8
FV
  6
Continuous
 62
     3
100
AcDbLine
 10
873.6665919169727
 20
1604.585470497857
 30
0.0
 11
858.6930601977568
 21
1630.8777323224
 31
0.0
  0
LINE
  5
45B0
330
1F
100
AcDbEntity
  8
FV
  6
Continuous
 62
     3
100
AcDbLine
 10
843.1191016010105
 20
1604.585470497857
 30
0.0
 11
858.6930601994746
 21
1630.8777323253
 31
0.0
  0
LINE
  5
45B1
330
1F
100
AcDbEntity
  8
FV
  6
Continuous
 62
     3
100
AcDbLine
 10
819.050669859971
 20
1636.361950406122
 30
0.0
 11
839.6833725108452
 21
1636.361950406122
 31
0.0
  0
LINE
  5
45B2
330
1F
100
AcDbEntity
  8
FV
  6
Continuous
 62
     3
100
AcDbLine
 10
745.3034036046887
 20
1636.361950406122
 30
0.0
 11
780.9046123627177
 21
1636.361950406122
 31
0.0
  0
LINE
  5
45B3
330
1F
100
AcDbEntity
  8
FV
  6
Continuous
 62
     3
100
AcDbLine
 10
854.7909338867425
 20
1636.361950406122
 30
0.0
 11
876.162955179441
 21
1636.361950406122
 31
0.0
  0
LINE
  5
45B4
330
1F
100
AcDbEntity
  8
FV
  6
Continuous
 62
     3
100
AcDbLine
 10
877.264118286684
 20
1582.283502755142
 30
0.0
 11
914.2635816451052
 21
1582.283502755142
 31
0.0
  0
LINE
  5
45B5
330
1F
100
AcDbEntity
  8
FV
  6
Continuous
 62
     3
100
AcDbLine
 10
818.5372302000093
 20
1582.283502755142
 30
0.0
 11
839.5701748868855
 21
1582.283502755142
 31
0.0
  0
LINE
  5
45B6
330
1F
100
AcDbEntity
  8
FV
  6
Continuous
 62
     3
100
AcDbLine
 10
835.9099013420763
 20
1592.414757472265
 30
0.0
 11
839.5316935148157
 21
1598.529137929115
 31
0.0
  0
LINE
  5
45B7
330
1F
100
AcDbEntity
  8
FV
  6
Continuous
 62
     3
100
AcDbLine
 10
880.6935405853476
 20
1592.246739884327
 30
0.0
 11
877.1156937259132
 21
1598.529137929115
 31
0.0
  0
LINE
  5
45B8
330
1F
100
AcDbEntity
  8
FV
  6
Continuous
 62
     3
100
AcDbLine
 10
826.9947703554482
 20
1589.435922913325
 30
0.0
 11
854.7909339185942
 21
1636.361950459894
 31
0.0
  0
LINE
  5
45B9
330
1F
100
AcDbEntity
  8
FV
  6
Continuous
 62
     3
100
AcDbLine
 10
904.6672441380334
 20
1589.53347568641
 30
0.0
 11
876.1629551467095
 21
1636.361950459894
 31
0.0
  0
LINE
  5
45BA
330
1F
100
AcDbEntity
  8
FV
  6
Continuous
 62
     3
100
AcDbLine
 10
629.512264657472
 20
1596.061997215886
 30
0.0
 11
629.512264657472
 21
1628.397666341467
 31
0.0
  0
LINE
  5
45BB
330
1F
100
AcDbEntity
  8
FV
  6
Continuous
 62
     3
100
AcDbLine
 10
609.9496514447678
 20
1595.570893147679
 30
0.0
 11
609.9496514447678
 21
1628.397178976034
 31
0.0
  0
LINE
  5
45BC
330
1F
100
AcDbEntity
  8
FV
  6
Continuous
 62
     3
100
AcDbLine
 10
843.1191016010105
 20
1604.585470497857
 30
0.0
 11
873.6665919263771
 21
1604.585470497857
 31
0.0
  0
LINE
  5
45BD
330
1F
100
AcDbEntity
  8
FV
  6
Continuous
 62
     3
100
AcDbLine
 10
839.5316935148157
 20
1598.529137929115
 30
0.0
 11
877.1156937367077
 21
1598.529137929115
 31
0.0
  0
LINE
  5
45BE
330
1F
100
AcDbEntity
  8
FV
  6
Continuous
 62
     3
100
AcDbLine
 10
693.1620558219113
 20
1636.361950406122
 30
0.0
 11
724.9938791971462
 21
1636.361950406122
 31
0.0
  0
POINT
  5
45BF
330
1F
100
AcDbEntity
  8
FV
  6
Continuous
 62
     7
100
AcDbPoint
 10
797.2301773326233
 20
1618.206196468117
 30
0.0
  0
LINE
  5
45C0
330
1F
100
AcDbEntity
  8
FV
  6
Continuous
 62
     7
100
AcDbLine
 10
575.2301773326232
 20
1552.206196468117
 30
0.0
 11
1019.230177332623
 21
1552.206196468117
 31
0.0
  0
LINE
  5
45C1
330
1F
100
AcDbEntity
  8
FV
  6
Continuous
 62
     7
100
AcDbLine
 10
1019.230177332623
 20
1684.206196468117
 30
0.0
 11
1019.230177332623
 21
1552.206196468117
 31
0.0
  0
LINE
  5
45C2
330
1F
100
AcDbEntity
  8
DEFPOINTS
  6
NON_PLOTING
 62
     3
100
AcDbLine
 10
500.2301773326232
 20
-37.79380353188299
 30
0.0
 11
3023.230177332624
 21
-37.79380353188299
 31
0.0
  0
LINE
  5
45C3
330
1F
100
AcDbEntity
  8
DEFPOINTS
  6
NON_PLOTING
 62
     3
100
AcDbLine
 10
3023.230177332624
 20
1744.206196468117
 30
0.0
 11
3023.230177332624
 21
-37.79380353188299
 31
0.0
  0
LINE
  5
45C4
330
1F
100
AcDbEntity
  8
FV
  6
Continuous
 62
     1
100
AcDbLine
 10
2963.230177332624
 20
1684.206196468117
 30
0.0
 11
2963.230177332624
 21
22.20619646811702
 31
0.0
  0
LINE
  5
45C5
330
1F
100
AcDbEntity
  8
FV
  6
Continuous
 62
     1
100
AcDbLine
 10
575.2301773326232
 20
1684.206196468117
 30
0.0
 11
575.2301773326232
 21
22.20619646811702
 31
0.0
  0
LINE
  5
45C6
330
1F
100
AcDbEntity
  8
FV
  6
Continuous
 62
     1
100
AcDbLine
 10
575.2301773326232
 20
22.20619646811702
 30
0.0
 11
2963.230177332624
 21
22.20619646811702
 31
0.0
  0
LINE
  5
45C7
330
1F
100
AcDbEntity
  8
FV
  6
Continuous
 62
     1
100
AcDbLine
 10
575.2301773326232
 20
1684.206196468117
 30
0.0
 11
2963.230177332624
 21
1684.206196468117
 31
0.0
  0
POINT
  5
45C8
330
1F
100
AcDbEntity
  8
FV
  6
Continuous
 62
     7
100
AcDbPoint
 10
2963.230177332624
 20
1684.206196468117
 30
0.0
  0
POINT
  5
45C9
330
1F
100
AcDbEntity
  8
FV
  6
Continuous
 62
     7
100
AcDbPoint
 10
575.2301773326232
 20
22.20619646811702
 30
0.0
  0
POINT
  5
45CA
330
1F
100
AcDbEntity
  8
FV
  6
Continuous
 62
     7
100
AcDbPoint
 10
3023.230177332624
 20
-37.79380353188299
 30
0.0
  0
MTEXT
  5
45CB
330
1F
100
AcDbEntity
  8
FV
  6
Continuous
370
     0
100
AcDbMText
 10
2193.082491720743
 20
94.47470473294561
 30
0.0
 40
25.0
 41
469.0
 71
     1
 72
     5
  1
{\L重量：12.5Kg}
  7
MX_NOTE_STANDARD
 73
     1
 44
1.0
1001
ACAD
1000
MTEXTBEGIN
1070
    73
1070
     1
1070
    44
1040
1.0
1070
    74
1070
     0
1000
MTEXTEND
  0
LINE
  5
45CC
102
{ACAD_REACTORS
330
4766
102
}
330
1F
100
AcDbEntity
  8
PV
 62
     7
100
AcDbLine
 10
1810.836881575207
 20
681.4251047329453
 30
0.0
 11
2272.212881575208
 21
681.4251047329453
 31
0.0
  0
LINE
  5
45CD
330
1F
100
AcDbEntity
  8
PV
 62
     7
100
AcDbLine
 10
1810.836881575207
 20
895.5243047329451
 30
0.0
 11
2272.212881575208
 21
895.5243047329451
 31
0.0
  0
LINE
  5
45CE
330
1F
100
AcDbEntity
  8
PV
 62
     7
100
AcDbLine
 10
2272.212881575208
 20
749.2707047329458
 30
0.0
 11
2272.212881575208
 21
681.4251047329453
 31
0.0
  0
LINE
  5
45CF
330
1F
100
AcDbEntity
  8
PV
 62
     7
100
AcDbLine
 10
2272.212881575208
 20
895.5243047329451
 30
0.0
 11
2272.212881575208
 21
749.2707047329458
 31
0.0
  0
LINE
  5
45D0
330
1F
100
AcDbEntity
  8
PV
 62
     7
100
AcDbLine
 10
2272.212881575208
 20
749.2707047329458
 30
0.0
 11
2311.092881575207
 21
749.2707047329458
 31
0.0
  0
LINE
  5
45D1
330
1F
100
AcDbEntity
  8
PV
 62
     7
100
AcDbLine
 10
2272.212881575208
 20
827.6787047329458
 30
0.0
 11
2311.092881575207
 21
827.6787047329458
 31
0.0
  0
LINE
  5
45D2
330
1F
100
AcDbEntity
  8
PV
 62
     7
100
AcDbLine
 10
2311.092881575207
 20
824.1147047329455
 30
0.0
 11
2311.092881575207
 21
827.6787047329458
 31
0.0
  0
LINE
  5
45D3
330
1F
100
AcDbEntity
  8
PV
 62
     7
100
AcDbLine
 10
2311.092881575207
 20
824.1147047329455
 30
0.0
 11
2311.092881575207
 21
749.2707047329458
 31
0.0
  0
POINT
  5
45D4
330
1F
100
AcDbEntity
  8
PV
  6
Continuous
 62
     7
100
AcDbPoint
 10
2337.012881575208
 20
788.4747047329455
 30
0.0
  0
LINE
  5
45D5
330
1F
100
AcDbEntity
  8
PV
 62
     7
100
AcDbLine
 10
1196.532881575207
 20
749.2707047329458
 30
0.0
 11
1157.652881575208
 21
749.2707047329458
 31
0.0
  0
LINE
  5
45D6
330
1F
100
AcDbEntity
  8
PV
 62
     7
100
AcDbLine
 10
1196.532881575207
 20
827.6787047329458
 30
0.0
 11
1157.652881575208
 21
827.6787047329458
 31
0.0
  0
LINE
  5
45D7
330
1F
100
AcDbEntity
  8
PV
 62
     7
100
AcDbLine
 10
1196.532881575207
 20
615.1995047329456
 30
0.0
 11
1810.836881575207
 21
615.1995047329456
 31
0.0
  0
LINE
  5
45D8
330
1F
100
AcDbEntity
  8
PV
 62
     7
100
AcDbLine
 10
1196.532881575207
 20
961.7499047329461
 30
0.0
 11
1196.532881575207
 21
827.6787047329458
 31
0.0
  0
LINE
  5
45D9
102
{ACAD_REACTORS
330
4734
102
}
330
1F
100
AcDbEntity
  8
PV
 62
     7
100
AcDbLine
 10
1196.532881575207
 20
827.6787047329458
 30
0.0
 11
1196.532881575207
 21
615.1995047329456
 31
0.0
  0
LINE
  5
45DA
330
1F
100
AcDbEntity
  8
PV
 62
     7
100
AcDbLine
 10
1157.652881575208
 20
752.8347047329457
 30
0.0
 11
1157.652881575208
 21
749.2707047329458
 31
0.0
  0
LINE
  5
45DB
330
1F
100
AcDbEntity
  8
PV
 62
     7
100
AcDbLine
 10
1157.652881575208
 20
752.8347047329457
 30
0.0
 11
1157.652881575208
 21
827.6787047329458
 31
0.0
  0
LINE
  5
45DC
330
1F
100
AcDbEntity
  8
PV
 62
     7
100
AcDbLine
 10
1810.836881575207
 20
961.7499047329461
 30
0.0
 11
1810.836881575207
 21
895.5243047329451
 31
0.0
  0
LINE
  5
45DD
102
{ACAD_REACTORS
330
4766
102
}
330
1F
100
AcDbEntity
  8
PV
 62
     7
100
AcDbLine
 10
1810.836881575207
 20
895.5243047329451
 30
0.0
 11
1810.836881575207
 21
615.1995047329456
 31
0.0
  0
LINE
  5
45DE
102
{ACAD_REACTORS
330
4734
102
}
330
1F
100
AcDbEntity
  8
PV
 62
     7
100
AcDbLine
 10
1196.532881575207
 20
961.7499047329461
 30
0.0
 11
1810.836881575207
 21
961.7499047329461
 31
0.0
  0
DIMENSION
  5
45DF
330
1F
100
AcDbEntity
  8
DIMENSION
100
AcDbDimension
  2
*D6
 10
2272.212881575208
 20
1034.128123427272
 30
0.0
 11
2304.612881575208
 21
1046.128123427272
 31
0.0
 70
    32
  1
50\P
 71
     5
 42
64.79999999999972
  3
MXDIMSTYLE$0
100
AcDbAlignedDimension
 13
2337.012881575208
 23
837.0747047329455
 33
0.0
 14
2272.212881575208
 24
895.5243047329451
 34
0.0
100
AcDbRotatedDimension
1001
ACAD
1000
DSTYLE
1002
{
1070
    41
1040
10.0
1070
   140
1040
10.0
1070
   144
1040
1.0
1070
   278
1070
     0
1070
   371
1070
     0
1070
   372
1070
     0
1002
}
  0
DIMENSION
  5
45E0
330
1F
100
AcDbEntity
  8
DIMENSION
100
AcDbDimension
  2
*D7
 10
1810.836881575207
 20
1034.128123427272
 30
0.0
 11
2041.524881575208
 21
1046.128123427272
 31
0.0
 70
    32
  1
356
 71
     5
 42
461.3760000000001
  3
MXDIMSTYLE$0
100
AcDbAlignedDimension
 13
2272.212881575208
 23
895.5243047329451
 33
0.0
 14
1810.836881575207
 24
961.7499047329461
 34
0.0
100
AcDbRotatedDimension
1001
ACAD
1000
DSTYLE
1002
{
1070
    41
1040
10.0
1070
   140
1040
10.0
1070
   144
1040
1.0
1070
   278
1070
     0
1070
   371
1070
     0
1070
   372
1070
     0
1002
}
  0
DIMENSION
  5
45E1
330
1F
100
AcDbEntity
  8
DIMENSION
100
AcDbDimension
  2
*D8
 10
1196.532881575207
 20
1034.128123427272
 30
0.0
 11
1503.684881575208
 21
1046.128123427272
 31
0.0
 70
    32
  1
474
 71
     5
 42
614.3039999999996
  3
MXDIMSTYLE$0
100
AcDbAlignedDimension
 13
1810.836881575207
 23
961.7499047329461
 33
0.0
 14
1196.532881575207
 24
961.7499047329461
 34
0.0
100
AcDbRotatedDimension
1001
ACAD
1000
DSTYLE
1002
{
1070
    41
1040
10.0
1070
   140
1040
10.0
1070
   144
1040
1.0
1070
   278
1070
     0
1070
   371
1070
     0
1070
   372
1070
     0
1002
}
  0
DIMENSION
  5
45E2
330
1F
100
AcDbEntity
  8
DIMENSION
100
AcDbDimension
  2
*D9
 10
1196.532881575207
 20
1034.128123427272
 30
0.0
 11
1164.132881575207
 21
1046.128123427272
 31
0.0
 70
    32
  1
50
 71
     5
 42
64.79999999999995
  3
MXDIMSTYLE$0
100
AcDbAlignedDimension
 13
1131.732881575207
 23
837.0747047329455
 33
0.0
 14
1196.532881575207
 24
961.7499047329461
 34
0.0
100
AcDbRotatedDimension
1001
ACAD
1000
DSTYLE
1002
{
1070
    41
1040
10.0
1070
   140
1040
10.0
1070
   144
1040
1.0
1070
   278
1070
     0
1070
   371
1070
     0
1070
   372
1070
     0
1002
}
  0
DIMENSION
  5
45E3
330
1F
100
AcDbEntity
  8
DIMENSION
100
AcDbDimension
  2
*D10
 10
2337.012881575208
 20
1082.785932025644
 30
0.0
 11
1734.372881575208
 21
1082.785932025644
 31
0.0
 70
   160
  1
（930）
 71
     5
 42
1205.279999999999
  3
MXDIMSTYLE$0
100
AcDbAlignedDimension
 13
1131.732881575207
 23
837.0747047329455
 33
0.0
 14
2337.012881575208
 24
837.0747047329455
 34
0.0
100
AcDbRotatedDimension
1001
ACAD
1000
DSTYLE
1002
{
1070
    41
1040
10.0
1070
   140
1040
10.0
1070
   144
1040
1.0
1070
   278
1070
     0
1070
   371
1070
     0
1070
   372
1070
     0
1002
}
  0
LINE
  5
45E4
330
1F
100
AcDbEntity
  8
PV
370
     0
100
AcDbLine
 10
1157.652881575208
 20
827.6787047329458
 30
0.0
 11
1139.093503109115
 21
827.6787047329458
 31
0.0
  0
LINE
  5
45E5
330
1F
100
AcDbEntity
  8
PV
370
     0
100
AcDbLine
 10
1139.093503109115
 20
749.2707047329458
 30
0.0
 11
1139.093503109115
 21
827.6787047329458
 31
0.0
  0
LINE
  5
45E6
330
1F
100
AcDbEntity
  8
PV
370
     0
100
AcDbLine
 10
1157.652881575208
 20
749.2707047329458
 30
0.0
 11
1139.093503109115
 21
749.2707047329458
 31
0.0
  0
LINE
  5
45E7
330
1F
100
AcDbEntity
  8
PV
370
     0
100
AcDbLine
 10
1139.093503109115
 20
749.2707047329458
 30
0.0
 11
1135.620881575208
 21
739.8747047329456
 31
0.0
  0
LINE
  5
45E8
330
1F
100
AcDbEntity
  8
PV
370
     0
100
AcDbLine
 10
1135.620881575208
 20
739.8747047329456
 30
0.0
 11
1131.732881575207
 21
739.8747047329456
 31
0.0
  0
LINE
  5
45E9
330
1F
100
AcDbEntity
  8
PV
370
     0
100
AcDbLine
 10
1131.732881575207
 20
739.8747047329456
 30
0.0
 11
1131.732881575207
 21
837.0747047329455
 31
0.0
  0
LINE
  5
45EA
330
1F
100
AcDbEntity
  8
PV
370
     0
100
AcDbLine
 10
1131.732881575207
 20
837.0747047329455
 30
0.0
 11
1135.620881575208
 21
837.0747047329455
 31
0.0
  0
LINE
  5
45EB
330
1F
100
AcDbEntity
  8
PV
370
     0
100
AcDbLine
 10
1135.620881575208
 20
837.0747047329455
 30
0.0
 11
1139.093503109115
 21
827.6787047329458
 31
0.0
  0
LINE
  5
45EC
330
1F
100
AcDbEntity
  8
PV
370
     0
100
AcDbLine
 10
1135.620881575208
 20
837.0747047329455
 30
0.0
 11
1135.620881575208
 21
739.8747047329456
 31
0.0
  0
LINE
  5
45ED
330
1F
100
AcDbEntity
  8
PV
370
     0
100
AcDbLine
 10
2329.6522600413
 20
827.6787047329458
 30
0.0
 11
2311.092881575207
 21
827.6787047329458
 31
0.0
  0
LINE
  5
45EE
330
1F
100
AcDbEntity
  8
PV
370
     0
100
AcDbLine
 10
2329.6522600413
 20
749.2707047329458
 30
0.0
 11
2329.6522600413
 21
827.6787047329458
 31
0.0
  0
LINE
  5
45EF
330
1F
100
AcDbEntity
  8
PV
370
     0
100
AcDbLine
 10
2329.6522600413
 20
749.2707047329458
 30
0.0
 11
2311.092881575207
 21
749.2707047329458
 31
0.0
  0
LINE
  5
45F0
330
1F
100
AcDbEntity
  8
PV
370
     0
100
AcDbLine
 10
2329.6522600413
 20
749.2707047329458
 30
0.0
 11
2333.124881575207
 21
739.8747047329456
 31
0.0
  0
LINE
  5
45F1
330
1F
100
AcDbEntity
  8
PV
370
     0
100
AcDbLine
 10
2333.124881575207
 20
739.8747047329456
 30
0.0
 11
2337.012881575208
 21
739.8747047329456
 31
0.0
  0
LINE
  5
45F2
330
1F
100
AcDbEntity
  8
PV
370
     0
100
AcDbLine
 10
2337.012881575208
 20
739.8747047329456
 30
0.0
 11
2337.012881575208
 21
837.0747047329455
 31
0.0
  0
LINE
  5
45F3
330
1F
100
AcDbEntity
  8
PV
370
     0
100
AcDbLine
 10
2337.012881575208
 20
837.0747047329455
 30
0.0
 11
2333.124881575207
 21
837.0747047329455
 31
0.0
  0
LINE
  5
45F4
330
1F
100
AcDbEntity
  8
PV
370
     0
100
AcDbLine
 10
2333.124881575207
 20
837.0747047329455
 30
0.0
 11
2329.6522600413
 21
827.6787047329458
 31
0.0
  0
LINE
  5
45F5
330
1F
100
AcDbEntity
  8
PV
370
     0
100
AcDbLine
 10
2333.124881575207
 20
837.0747047329455
 30
0.0
 11
2333.124881575207
 21
739.8747047329456
 31
0.0
  0
CIRCLE
  5
45F6
330
1F
100
AcDbEntity
  8
PV
370
     0
100
AcDbCircle
 10
2612.555500927658
 20
788.4747047329455
 30
0.0
 40
173.2752
  0
CIRCLE
  5
45F7
330
1F
100
AcDbEntity
  8
PV
370
     0
100
AcDbCircle
 10
2612.555500927658
 20
788.4747047329455
 30
0.0
 40
107.0495999999999
  0
CIRCLE
  5
45F8
330
1F
100
AcDbEntity
  8
PV
370
     0
100
AcDbCircle
 10
2612.555500927658
 20
788.4747047329455
 30
0.0
 40
48.6
  0
CIRCLE
  5
45F9
330
1F
100
AcDbEntity
  8
PV
370
     0
100
AcDbCircle
 10
2612.555500927658
 20
788.4747047329455
 30
0.0
 40
35.64
  0
CIRCLE
  5
45FA
330
1F
100
AcDbEntity
  8
PV
370
     0
100
AcDbCircle
 10
2612.555500927658
 20
788.4747047329455
 30
0.0
 40
33.8256
  0
CIRCLE
  5
45FB
330
1F
100
AcDbEntity
  8
PV
370
     0
100
AcDbCircle
 10
864.3576917207429
 20
788.4747047329455
 30
0.0
 40
173.2752
  0
CIRCLE
  5
45FC
330
1F
100
AcDbEntity
  8
PV
370
     0
100
AcDbCircle
 10
864.3576917207429
 20
788.4747047329455
 30
0.0
 40
48.6
  0
CIRCLE
  5
45FD
330
1F
100
AcDbEntity
  8
PV
370
     0
100
AcDbCircle
 10
864.3576917207429
 20
788.4747047329455
 30
0.0
 40
35.64
  0
CIRCLE
  5
45FE
330
1F
100
AcDbEntity
  8
PV
370
     0
100
AcDbCircle
 10
864.3576917207429
 20
788.4747047329455
 30
0.0
 40
33.8256
  0
INSERT
  5
460A
330
1F
100
AcDbEntity
  8
AM_5
 48
0.5
100
AcDbBlockReference
  2
*S13
 10
0.0
 20
0.0
 30
0.0
  0
MTEXT
  5
460C
330
1F
100
AcDbEntity
  8
PV
  6
Continuous
370
     0
100
AcDbMText
 10
958.7477325240033
 20
1082.474704732945
 30
0.0
 40
25.0
 41
53.68087160584449
 71
     1
 72
     5
  1
NW50
  7
MX_NOTE_STANDARD
 73
     1
 44
1.0
1001
ACAD
1000
MTEXTBEGIN
1070
    73
1070
     1
1070
    44
1040
1.0
1070
    74
1070
     0
1000
MTEXTEND
  0
INSERT
  5
460D
330
1F
100
AcDbEntity
  8
AM_5
 48
0.5
100
AcDbBlockReference
  2
*S14
 10
0.0
 20
0.0
 30
0.0
  0
MTEXT
  5
460E
330
1F
100
AcDbEntity
  8
PV
  6
Continuous
370
     0
100
AcDbMText
 10
2703.889403788584
 20
1089.474704732945
 30
0.0
 40
25.0
 41
53.68087160584449
 71
     1
 72
     5
  1
NW50
  7
MX_NOTE_STANDARD
 73
     1
 44
1.0
1001
ACAD
1000
MTEXTBEGIN
1070
    73
1070
     1
1070
    44
1040
1.0
1070
    74
1070
     0
1000
MTEXTEND
  0
POINT
  5
460F
330
1F
100
AcDbEntity
  8
NONPLOT
 48
0.5
100
AcDbPoint
 10
1725.30090068823
 20
788.4747047329455
 30
0.0
 50
180.0
  0
LINE
  5
4610
330
1F
100
AcDbEntity
  8
PV
  6
Continuous
 62
     3
100
AcDbLine
 10
1771.956891751906
 20
814.3947047297055
 30
0.0
 11
1771.956891751906
 21
762.5547047297059
 31
0.0
  0
LINE
  5
4611
330
1F
100
AcDbEntity
  8
PV
  6
Continuous
 62
     3
100
AcDbLine
 10
1699.380881698191
 20
814.3947047361857
 30
0.0
 11
1699.380881698191
 21
762.5547047297059
 31
0.0
  0
LINE
  5
4612
330
1F
100
AcDbEntity
  8
PV
  6
Continuous
 62
     3
100
AcDbLine
 10
1771.956891751906
 20
762.5547047297059
 30
0.0
 11
1699.380881698191
 21
762.5547047297059
 31
0.0
  0
LINE
  5
4613
330
1F
100
AcDbEntity
  8
PV
  6
Continuous
 62
     3
100
AcDbLine
 10
1771.956891751906
 20
814.3947047361857
 30
0.0
 11
1699.380881698191
 21
814.3947047361857
 31
0.0
  0
LINE
  5
4614
330
1F
100
AcDbEntity
  8
PV
  6
Continuous
 62
     3
100
AcDbLine
 10
1761.588861616681
 20
814.3947047361857
 30
0.0
 11
1761.588861616681
 21
762.5547047297059
 31
0.0
  0
LINE
  5
4615
330
1F
100
AcDbEntity
  8
PV
  6
Continuous
 62
     3
100
AcDbLine
 10
1717.524871655816
 20
814.3947047361857
 30
0.0
 11
1717.524871655816
 21
762.5547047297059
 31
0.0
  0
LINE
  5
4616
330
1F
100
AcDbEntity
  8
PV
  6
Continuous
 62
     3
100
AcDbLine
 10
1712.665072548065
 20
814.3947047361857
 30
0.0
 11
1712.665072548065
 21
762.5547047297059
 31
0.0
  0
LWPOLYLINE
  5
4617
330
1F
100
AcDbEntity
  8
PV
  6
Continuous
 62
     2
100
AcDbPolyline
 90
        2
 70
     0
 43
0.3888000154495239
 10
1718.835697548836
 20
806.7117583066542
 10
1718.835697548836
 20
770.2376511592383
  0
LINE
  5
4618
330
1F
100
AcDbEntity
  8
PV
  6
Continuous
 62
     3
100
AcDbLine
 10
1721.44414062952
 20
806.7117583066542
 30
0.0
 11
1721.44414062952
 21
770.2376511592383
 31
0.0
  0
LWPOLYLINE
  5
4619
330
1F
100
AcDbEntity
  8
PV
  6
Continuous
 62
     2
100
AcDbPolyline
 90
        2
 70
     0
 43
0.3888000154495239
 10
1726.22744940555
 20
810.9789373712205
 10
1757.814471623451
 20
792.7419532740295
  0
LINE
  5
461A
330
1F
100
AcDbEntity
  8
PV
  6
Continuous
 62
     3
100
AcDbLine
 10
1724.923232055807
 20
808.7203616389874
 30
0.0
 11
1756.51106755596
 21
790.4833814320109
 31
0.0
  0
LINE
  5
461B
330
1F
100
AcDbEntity
  8
PV
  6
Continuous
 62
     3
100
AcDbLine
 10
1725.170063870376
 20
805.5653648866245
 30
0.0
 11
1753.655701202309
 21
789.1197605145235
 31
0.0
  0
LWPOLYLINE
  5
461C
330
1F
100
AcDbEntity
  8
PV
  6
Continuous
 62
     2
100
AcDbPolyline
 90
        2
 70
     0
 43
0.3888000154495239
 10
1757.814323954949
 20
784.2065009641228
 10
1726.227345231504
 20
765.9695419787531
  0
LINE
  5
461D
330
1F
100
AcDbEntity
  8
PV
  6
Continuous
 62
     3
100
AcDbLine
 10
1756.511032253654
 20
786.4652436312821
 30
0.0
 11
1724.923240248237
 21
768.2282885356398
 31
0.0
  0
LINE
  5
461E
330
1F
100
AcDbEntity
  8
PV
  6
Continuous
 62
     3
100
AcDbLine
 10
1753.655709739438
 20
787.8286839528596
 30
0.0
 11
1725.170072407506
 21
771.3830795807593
 31
0.0
  0
LINE
  5
461F
330
1F
100
AcDbEntity
  8
PV
  6
Continuous
 62
     3
100
AcDbLine
 10
1724.984073665677
 20
798.3925841984706
 30
0.0
 11
1724.984073665677
 21
778.556021695993
 31
0.0
  0
LINE
  5
4620
330
1F
100
AcDbEntity
  8
PV
  6
Continuous
 62
     3
100
AcDbLine
 10
1725.885931924718
 20
798.3925841984706
 30
0.0
 11
1725.885931924718
 21
778.556021695993
 31
0.0
  0
LINE
  5
4621
330
1F
100
AcDbEntity
  8
PV
  6
Continuous
 62
     3
100
AcDbLine
 10
1724.984073665677
 20
778.556021695993
 30
0.0
 11
1725.885931924718
 21
778.556021695993
 31
0.0
  0
LINE
  5
4622
330
1F
100
AcDbEntity
  8
PV
  6
Continuous
 62
     3
100
AcDbLine
 10
1724.984073665677
 20
798.3925841984706
 30
0.0
 11
1725.885931924718
 21
798.3925841984706
 31
0.0
  0
LINE
  5
4623
330
1F
100
AcDbEntity
  8
PV
  6
Continuous
 62
     3
100
AcDbLine
 10
1763.209062509741
 20
809.8631645570481
 30
0.0
 11
1763.209062509741
 21
804.7944368778425
 31
0.0
  0
LINE
  5
4624
330
1F
100
AcDbEntity
  8
PV
  6
Continuous
 62
     3
100
AcDbLine
 10
1764.667177680631
 20
803.9526684151219
 30
0.0
 11
1769.057143816944
 21
806.4870818593144
 31
0.0
  0
LINE
  5
4625
330
1F
100
AcDbEntity
  8
PV
  6
Continuous
 62
     3
100
AcDbLine
 10
1764.667206042757
 20
810.7050347509984
 30
0.0
 11
1769.057128683914
 21
808.1706464174098
 31
0.0
  0
LWPOLYLINE
  5
4626
330
1F
100
AcDbEntity
  8
PV
  6
Continuous
 62
     2
100
AcDbPolyline
 90
        2
 70
     0
 43
0.3888000154495239
 10
1726.227405348716
 20
810.9790285264853
 42
0.5773780249785317
 10
1718.835679892678
 20
806.7116924570937
 42
0.5773780249785317
  0
ARC
  5
4627
330
1F
100
AcDbEntity
  8
PV
  6
Continuous
 62
     3
100
AcDbCircle
 10
1723.76339844231
 20
806.7117583066542
 30
0.0
 40
2.31926821056474
100
AcDbArc
 50
59.99607681534442
 51
180.0031698910455
  0
ARC
  5
4628
330
1F
100
AcDbEntity
  8
PV
  6
Continuous
 62
     3
100
AcDbCircle
 10
1724.797243308511
 20
804.9207984850017
 30
0.0
 40
0.7446347809768685
100
AcDbArc
 50
59.95663930304377
 51
180.0407359314195
  0
LWPOLYLINE
  5
4629
330
1F
100
AcDbEntity
  8
PV
  6
Continuous
 62
     2
100
AcDbPolyline
 90
        2
 70
     0
 43
0.3888000154495239
 10
1757.814426655488
 20
784.2065543715193
 42
0.5773672561974057
 10
1757.814426791144
 20
792.742051444628
 42
0.5773672561974057
  0
ARC
  5
462A
330
1F
100
AcDbEntity
  8
PV
  6
Continuous
 62
     3
100
AcDbCircle
 10
1755.350585946259
 20
788.4743029472333
 30
0.0
 40
2.320067465935934
100
AcDbArc
 50
300.0114414016749
 51
59.98856360722491
  0
ARC
  5
462B
330
1F
100
AcDbEntity
  8
PV
  6
Continuous
 62
     3
100
AcDbCircle
 10
1753.282645097786
 20
788.4743029472333
 30
0.0
 40
0.7455727387406574
100
AcDbArc
 50
300.0235854779898
 51
59.97641953092871
  0
LWPOLYLINE
  5
462C
330
1F
100
AcDbEntity
  8
PV
  6
Continuous
 62
     2
100
AcDbPolyline
 90
        2
 70
     0
 43
0.3888000154495239
 10
1718.835675976198
 20
770.2377248257162
 42
0.5773505270355182
 10
1726.227401875484
 20
765.969564581167
 42
0.5773505270355182
  0
ARC
  5
462D
330
1F
100
AcDbEntity
  8
PV
  6
Continuous
 62
     3
100
AcDbCircle
 10
1723.76375000481
 20
770.2374502663801
 30
0.0
 40
2.31962350056897
100
AcDbArc
 50
179.9916919854714
 51
299.9887310227149
  0
ARC
  5
462E
330
1F
100
AcDbEntity
  8
PV
  6
Continuous
 62
     3
100
AcDbCircle
 10
1724.79759487101
 20
772.0284100880335
 30
0.0
 40
0.7449909538110368
100
AcDbArc
 50
180.0067593827732
 51
299.9958788156574
  0
ARC
  5
462F
330
1F
100
AcDbEntity
  8
PV
  6
Continuous
 62
     3
100
AcDbCircle
 10
1743.07176340008
 20
793.7127850907431
 30
0.0
 40
0.3382957976627878
100
AcDbArc
 50
235.7202675180262
 51
57.90475485372405
  0
ARC
  5
4630
330
1F
100
AcDbEntity
  8
PV
  6
Continuous
 62
     3
100
AcDbCircle
 10
1727.292232148108
 20
793.7129859836013
 30
0.0
 40
0.3379184859561977
100
AcDbArc
 50
53.03585450396926
 51
239.2352260715514
  0
ARC
  5
4631
330
1F
100
AcDbEntity
  8
PV
  6
Continuous
 62
     3
100
AcDbCircle
 10
1743.071914069724
 20
788.7537449115516
 30
0.0
 40
0.337955417675301
100
AcDbArc
 50
235.6476933430272
 51
57.90095726858186
  0
ARC
  5
4632
330
1F
100
AcDbEntity
  8
PV
  6
Continuous
 62
     3
100
AcDbCircle
 10
1727.292232148108
 20
788.7535440186966
 30
0.0
 40
0.337920104477752
100
AcDbArc
 50
53.03085480545484
 51
239.2402530907686
  0
ARC
  5
4633
330
1F
100
AcDbEntity
  8
PV
  6
Continuous
 62
     3
100
AcDbCircle
 10
1743.071914069724
 20
783.7943029466469
 30
0.0
 40
0.3379548536450625
100
AcDbArc
 50
235.6526144943071
 51
57.89603953237982
  0
ARC
  5
4634
330
1F
100
AcDbEntity
  8
PV
  6
Continuous
 62
     3
100
AcDbCircle
 10
1727.292181924894
 20
783.7943029466469
 30
0.0
 40
0.3379216984762525
100
AcDbArc
 50
53.02585510701805
 51
239.2452527892343
  0
ARC
  5
4635
330
1F
100
AcDbEntity
  8
PV
  6
Continuous
 62
     3
100
AcDbCircle
 10
1768.570641751483
 20
807.3289011638749
 30
0.0
 40
0.9722510965745168
100
AcDbArc
 50
300.0248968743257
 51
59.97510813459617
  0
ARC
  5
4636
330
1F
100
AcDbEntity
  8
PV
  6
Continuous
 62
     3
100
AcDbCircle
 10
1764.180982152719
 20
809.863566342763
 30
0.0
 40
0.9719014959187809
100
AcDbArc
 50
59.98293553139751
 51
180.0139342691569
  0
ARC
  5
4637
330
1F
100
AcDbEntity
  8
PV
  6
Continuous
 62
     3
100
AcDbCircle
 10
1764.181132822362
 20
804.7944368778425
 30
0.0
 40
0.9720469666742403
100
AcDbArc
 50
180.0009332314476
 51
300.0022035708399
  0
ARC
  5
4638
330
1F
100
AcDbEntity
  8
PV
  6
Continuous
 62
     3
100
AcDbCircle
 10
1765.521690858244
 20
807.3284993781609
 30
0.0
 40
0.5468014200076638
100
AcDbArc
 50
89.60751501849562
 51
270.3925000083826
  0
ARC
  5
4639
330
1F
100
AcDbEntity
  8
PV
  6
Continuous
 62
     3
100
AcDbCircle
 10
1768.456785724682
 20
807.3284993781609
 30
0.0
 40
0.7039163099896358
100
AcDbArc
 50
267.2940352914262
 51
92.70596203358804
  0
ELLIPSE
  5
463A
330
1F
100
AcDbEntity
  8
PV
  6
Continuous
 62
     3
100
AcDbEllipse
 10
1764.240747777727
 20
807.3290016103037
 30
0.0
 11
-0.0000000000000001
 21
-0.7229129465189357
 31
0.0
210
0.0
220
0.0
230
1.0
 40
0.9089898568848131
 41
0.0
 42
6.283185307179586
  0
SPLINE
  5
463B
330
1F
100
AcDbEntity
  8
PV
  6
Continuous
 62
     3
100
AcDbSpline
210
0.0
220
0.0
230
1.0
 70
     8
 71
     3
 72
    11
 73
     7
 74
     5
 42
0.0000000001
 43
0.0000000001
 44
0.000001
 12
-0.9997829907164005
 22
-0.0208319820029183
 32
0.0
 13
-0.9899786160636242
 23
0.1412173492767486
 33
0.0
 40
0.0
 40
0.0
 40
0.0
 40
0.0
 40
0.3625791877445858
 40
0.7253545053946905
 40
1.834378066576475
 40
2.942675072036394
 40
2.942675072036394
 40
2.942675072036394
 40
2.942675072036394
 10
1768.457640173406
 20
806.6243300400625
 30
0.0
 10
1768.336806671841
 20
806.6218122923578
 30
0.0
 10
1768.095020708712
 20
806.6190317909118
 30
0.0
 10
1767.483559474434
 20
806.6223549398941
 30
0.0
 10
1766.623703918677
 20
806.6546182103067
 30
0.0
 10
1765.887644333756
 20
806.7297141468413
 30
0.0
 10
1765.521914221872
 20
806.7818844019489
 30
0.0
 11
1768.457640173406
 21
806.6243300400625
 31
0.0
 11
1768.095086181874
 21
806.6200556266418
 31
0.0
 11
1767.732315858521
 21
806.6219591994995
 31
0.0
 11
1766.62418617474
 21
806.6664773214407
 31
0.0
 11
1765.521914221872
 21
806.7818844019489
 31
0.0
  0
SPLINE
  5
463C
330
1F
100
AcDbEntity
  8
PV
  6
Continuous
 62
     3
100
AcDbSpline
210
0.0
220
0.0
230
1.0
 70
     8
 71
     3
 72
    11
 73
     7
 74
     5
 42
0.0000000001
 43
0.0000000001
 44
0.000001
 12
-0.9997638445950084
 22
0.0217314297874741
 32
0.0
 13
-0.9899430457032385
 23
-0.1414664845954549
 33
0.0
 40
0.0
 40
0.0
 40
0.0
 40
0.0
 40
0.3625812283585454
 40
0.7253572286878839
 40
1.834396472743812
 40
2.942730246543709
 40
2.942730246543709
 40
2.942730246543709
 40
2.942730246543709
 10
1768.457639851096
 20
808.0328146536876
 30
0.0
 10
1768.336807983483
 20
808.0354411231898
 30
0.0
 10
1768.095023512612
 20
808.038459791701
 30
0.0
 10
1767.483552827553
 20
808.0353654694413
 30
0.0
 10
1766.623683502519
 20
808.0026759597794
 30
0.0
 10
1765.8876490744
 20
807.9272391742028
 30
0.0
 10
1765.521919970503
 20
807.8749751466235
 30
0.0
 11
1768.457639851096
 21
808.0328146536876
 31
0.0
 11
1768.095087605234
 21
808.0373989941854
 31
0.0
 11
1767.732315858521
 21
808.0356422353926
 31
0.0
 11
1766.624182592246
 21
807.9908236116644
 31
0.0
 11
1765.521919970503
 21
807.8749751466235
 31
0.0
  0
MTEXT
  5
463D
330
1F
100
AcDbEntity
  8
PV
  6
Continuous
 62
     7
100
AcDbMText
 10
1770.40275447444
 20
796.3868882951397
 30
0.0
 40
7.776
 41
0.0
 71
     1
 72
     1
  1
\W0.711;\A1;警　告
  7
MX_NOTE_STANDARD
 11
-0.0000000000000002
 21
-1.0
 31
0.0
 73
     1
 44
0.9000721192377119
1001
ACAD
1000
MTEXTBEGIN
1070
    73
1070
     1
1070
    44
1040
0.9000721192377119
1070
    74
1070
     0
1000
MTEXTEND
  0
MTEXT
  5
463E
330
1F
100
AcDbEntity
  8
PV
  6
Continuous
 62
     7
100
AcDbMText
 10
1700.764330359077
 20
813.2085636083642
 30
0.0
 40
2.332800092697143
 41
0.0
 71
     4
 72
     1
  1
\W0.935;\A1;P/N 100064955-01
  7
MX_NOTE_STANDARD
 11
-0.0000000000000002
 21
-1.0
 31
0.0
 73
     1
 44
0.9000000810623165
1001
ACAD
1000
MTEXTBEGIN
1070
    73
1070
     1
1070
    44
1040
0.9000000810623165
1070
    74
1070
     0
1000
MTEXTEND
  0
MTEXT
  5
463F
330
1F
100
AcDbEntity
  8
PV
  6
Continuous
 62
     7
100
AcDbMText
 10
1715.094871655512
 20
788.474704732947
 30
0.0
 40
3.888
 41
0.0
 71
     5
 72
     1
  1
\W0.711;\A1;高温加熱部あり
  7
MX_NOTE_STANDARD
 11
-0.0000000000000002
 21
-1.0
 31
0.0
 73
     1
 44
0.9000721907632874
1001
ACAD
1000
MTEXTBEGIN
1070
    73
1070
     1
1070
    44
1040
0.9000721907632874
1070
    74
1070
     0
1000
MTEXTEND
  0
MTEXT
  5
4640
330
1F
100
AcDbEntity
  8
PV
  6
Continuous
 62
     7
100
AcDbMText
 10
1707.262159600962
 20
788.474704732947
 30
0.0
 40
3.110400046348572
 41
0.0
 71
     5
 72
     1
  1
\W0.694;\A1;火傷の危険あり触るな
  7
MX_NOTE_STANDARD
 11
-0.0000000000000002
 21
-1.0
 31
0.0
 73
     1
 44
0.8000000488758093
1001
ACAD
1000
MTEXTBEGIN
1070
    73
1070
     1
1070
    44
1040
0.8000000488758093
1070
    74
1070
     0
1000
MTEXTEND
  0
HATCH
  5
4641
330
1F
100
AcDbEntity
  8
PV
  6
Continuous
 62
     7
100
AcDbHatch
 10
0.0
 20
0.0
 30
0.0
210
0.0
220
0.0
230
1.0
  2
SOLID
 70
     1
 71
     0
 91
        2
 92
        1
 93
        6
 72
     1
 10
1721.443762582122
 20
806.7117582789959
 11
1721.443762582122
 21
770.2376512606242
 72
     2
 10
1723.763197549453
 20
770.2376511592383
 40
2.319434967330944
 50
539.9999974955218
 51
660.0000008348261
 73
     1
 72
     1
 10
1724.922915062386
 20
768.2289615720015
 11
1756.510303459192
 21
786.4660151457101
 72
     2
 10
1755.350585946259
 20
788.474704732947
 40
2.319434967330944
 50
300.000000834826
 51
419.999997343941
 73
     1
 72
     1
 10
1756.51030352304
 20
790.4833942833197
 11
1724.922915126235
 21
808.7204478570274
 72
     2
 10
1723.763197549453
 20
806.7117583066542
 40
2.319434967330944
 50
419.999997343941
 51
540.0000006832453
 73
     1
 97
        0
 92
        1
 93
        6
 72
     1
 10
1724.051993096974
 20
804.9207984761155
 11
1724.051993096974
 21
772.0286110134638
 72
     2
 10
1724.797193085296
 20
772.0286109808908
 40
0.7451999883220842
 50
539.9999974955218
 51
660.0000008348261
 73
     1
 72
     1
 10
1725.16979308886
 20
771.383248865533
 11
1753.65524510135
 21
787.8293426175883
 72
     2
 10
1753.282645097786
 20
788.474704732947
 40
0.7451999883220842
 50
300.000000834826
 51
419.999997343941
 73
     1
 72
     1
 10
1753.655245121864
 20
789.1200668364599
 11
1725.169793109375
 21
805.5661605885152
 72
     2
 10
1724.797193085296
 20
804.9207984850017
 40
0.7451999883220842
 50
419.999997343941
 51
540.0000006832453
 73
     1
 97
        0
 75
     0
 76
     1
 98
        1
 10
1141.257152429401
 20
3157.258529874461
  0
SOLID
  5
4642
330
1F
100
AcDbEntity
  8
PV
  6
Continuous
 62
     7
100
AcDbTrace
 10
1725.885178576504
 20
798.3933877698996
 30
0.0
 11
1725.885178576504
 21
778.556021695993
 31
0.0
 12
1724.983470987105
 22
798.3933877698996
 32
0.0
 13
1724.983470987105
 23
778.556021695993
 33
0.0
  0
HATCH
  5
4643
330
1F
100
AcDbEntity
  8
PV
  6
Continuous
 62
     7
100
AcDbHatch
 10
0.0
 20
0.0
 30
0.0
210
0.0
220
0.0
230
1.0
  2
SOLID
 70
     1
 71
     0
 91
        1
 92
        1
 93
       10
 72
     2
 10
1727.292232148108
 20
793.7127850907431
 40
0.3381345095375932
 50
-235.5610214301711
 51
-53.13983730385034
 73
     0
 72
     2
 10
1731.630483646436
 20
799.657633850979
 40
7.021355147993277
 50
593.915552758172
 51
628.350254974003
 73
     1
 72
     2
 10
1730.400813668293
 20
802.0655136791406
 40
9.482162757288529
 50
276.2210375600617
 51
301.6278480318369
 73
     1
 72
     2
 10
1740.345747963468
 20
785.917941404477
 40
9.482167141323829
 50
-121.6281543269234
 51
-96.22132861410138
 73
     0
 72
     2
 10
1739.115525952704
 20
788.3262291770525
 40
7.020961030839681
 50
-88.34605031887177
 51
-53.91437749351538
 73
     0
 72
     2
 10
1743.071923307695
 20
793.7130001103278
 40
0.3383068852797133
 50
-58.07419570170712
 51
124.4383487611179
 73
     0
 72
     2
 10
1739.108283461405
 20
788.307217579309
 40
6.365073780619718
 50
413.6540444795476
 51
447.9701802112416
 73
     1
 72
     2
 10
1740.371896113408
 20
785.8464875192603
 40
8.882686263118786
 50
456.7117849751269
 51
481.8744022180903
 73
     1
 72
     2
 10
1730.421966322453
 20
802.005265555922
 40
10.09396535704602
 50
58.59804301393545
 51
84.18929396950435
 73
     0
 72
     2
 10
1731.628942547993
 20
799.656875703673
 40
7.695935662318327
 50
-268.6222479065191
 51
-233.9597058231356
 73
     0
 97
        0
 75
     0
 76
     1
 98
        1
 10
1141.257152429401
 20
3157.258529874461
  0
HATCH
  5
4644
330
1F
100
AcDbEntity
  8
PV
  6
Continuous
 62
     7
100
AcDbHatch
 10
0.0
 20
0.0
 30
0.0
210
0.0
220
0.0
230
1.0
  2
SOLID
 70
     1
 71
     0
 91
        1
 92
        1
 93
       10
 72
     2
 10
1727.292232148108
 20
788.7535440186966
 40
0.3381345095375932
 50
-235.5610214301711
 51
-53.13983730385034
 73
     0
 72
     2
 10
1731.630479883214
 20
794.6983940650093
 40
7.021353970886727
 50
593.9155837565428
 51
628.3502191648108
 73
     1
 72
     2
 10
1730.400772669079
 20
797.1062757696677
 40
9.482166890900778
 50
276.2212347118406
 51
301.6279578929715
 73
     1
 72
     2
 10
1740.345706507656
 20
780.9586861190132
 40
9.482177563353978
 50
-121.6279870575928
 51
-96.22102930551561
 73
     0
 72
     2
 10
1739.115521970166
 20
783.3669894661762
 40
7.020961491798311
 50
-88.34596356393403
 51
-53.9143720071414
 73
     0
 72
     2
 10
1743.071922609467
 20
788.7537579706913
 40
0.3383076208320994
 50
-58.07476609307704
 51
124.4383466548142
 73
     0
 72
     2
 10
1739.108538640135
 20
783.3476868190187
 40
6.365153879600493
 50
413.6574390598192
 51
447.9725313864229
 73
     1
 72
     2
 10
1740.371469092025
 20
780.8870969758718
 40
8.882586144590943
 50
456.7091071470136
 51
481.8714993634421
 73
     1
 72
     2
 10
1730.421600990749
 20
797.0457005890289
 40
10.0938807656989
 50
58.59526692165475
 51
84.18717685844935
 73
     0
 72
     2
 10
1731.62926364376
 20
794.6975258827133
 40
7.696036652379134
 50
-268.6198536512033
 51
-233.9572965083597
 73
     0
 97
        0
 75
     0
 76
     1
 98
        1
 10
1141.257152429401
 20
3157.258529874461
  0
HATCH
  5
4645
330
1F
100
AcDbEntity
  8
PV
  6
Continuous
 62
     7
100
AcDbHatch
 10
0.0
 20
0.0
 30
0.0
210
0.0
220
0.0
230
1.0
  2
SOLID
 70
     1
 71
     0
 91
        1
 92
        1
 93
       10
 72
     2
 10
1727.292232148108
 20
783.7943029466469
 40
0.3381345095375932
 50
-235.5610214301711
 51
-53.13983730385034
 73
     0
 72
     2
 10
1731.630743145681
 20
789.738862126941
 40
7.021273973411865
 50
593.9124496351639
 51
628.348117421832
 73
     1
 72
     2
 10
1730.40082041952
 20
792.1468329568815
 40
9.48216432676415
 50
276.2209954904987
 51
301.6278913396784
 73
     1
 72
     2
 10
1740.345754714844
 20
775.9992606822879
 40
9.482165571833421
 50
-121.6281110201305
 51
-96.22135702426918
 73
     0
 72
     2
 10
1739.115525457537
 20
778.4075463093326
 40
7.020961185726049
 50
-88.34602796474673
 51
-53.91437341446749
 73
     0
 72
     2
 10
1743.07192275728
 20
783.7943162316783
 40
0.3383078907248997
 50
-58.07419196734755
 51
124.4383456657259
 73
     0
 72
     2
 10
1739.108279618539
 20
778.3885358796287
 40
6.365072972585705
 50
413.6540085178531
 51
447.9701725357506
 73
     1
 72
     2
 10
1740.371904754138
 20
775.9278075069387
 40
8.882685118115837
 50
456.7118615739632
 51
481.8743642293088
 73
     1
 72
     2
 10
1730.421974456552
 20
792.0865852574738
 40
10.09396647320667
 50
58.5980062305825
 51
84.18932482859839
 73
     0
 72
     2
 10
1731.629260000996
 20
789.7382860445327
 40
7.696035506700051
 50
-268.6199228499924
 51
-233.9573238417623
 73
     0
 97
        0
 75
     0
 76
     1
 98
        1
 10
1141.257152429401
 20
3157.258529874461
  0
HATCH
  5
4646
330
1F
100
AcDbEntity
  8
PV
  6
Continuous
 62
     7
100
AcDbHatch
 10
0.0
 20
0.0
 30
0.0
210
0.0
220
0.0
230
1.0
  2
SOLID
 70
     1
 71
     0
 91
        3
 92
        1
 93
        6
 72
     1
 10
1763.208881725788
 20
809.8633654383148
 11
1763.208881725788
 21
804.7946378131891
 72
     2
 10
1764.180881706291
 20
804.7946377707008
 40
0.9719999805030568
 50
539.9999974955218
 51
660.0000008348261
 73
     1
 72
     1
 10
1764.666881708808
 20
803.9528611021887
 11
1769.056641753999
 21
806.4871244953637
 72
     2
 10
1768.570641751483
 20
807.3289011638749
 40
0.9719999805030568
 50
300.000000834826
 51
419.999997343941
 73
     1
 72
     1
 10
1769.056641780756
 20
808.1706778169396
 11
1764.666881735564
 21
810.7051421029691
 72
     2
 10
1764.180881706291
 20
809.8633654499062
 40
0.9719999805030568
 50
419.999997343941
 51
540.0000006832453
 73
     1
 97
        0
 92
        1
 93
        6
 72
     2
 10
1765.521690858244
 20
807.3289011638749
 40
0.5466733606204408
 50
449.6681397775637
 51
630.3190891351789
 73
     1
 72
     2
 10
1767.874372070866
 20
823.8939945051557
 40
17.27232069633575
 50
622.1815383014597
 51
629.5278823155576
 73
     1
 72
     2
 10
1768.021126748587
 20
827.5937759242319
 40
20.97350800763114
 50
629.210269265476
 51
631.1913293837281
 73
     1
 72
     2
 10
1768.456785140855
 20
807.3289250667416
 40
0.7041236591904223
 50
270.0329044738514
 51
452.7654857109451
 73
     1
 72
     2
 10
1767.970367331573
 20
787.0694719044554
 40
20.96763884538204
 50
448.7635607438178
 51
450.6512010436023
 73
     1
 72
     2
 10
1767.876131437712
 20
790.764527172057
 40
17.27183019306812
 50
450.4779245145071
 51
457.8241682615026
 73
     1
 97
        0
 92
        1
 93
        4
 72
     2
 10
1764.206244429508
 20
807.297561878156
 40
0.6923371125133001
 50
272.856066012999
 51
362.5966833325661
 73
     1
 72
     2
 10
1764.206244259129
 20
807.3604415299092
 40
0.6923439473713367
 50
357.3911842049708
 51
447.1432635329856
 73
     1
 72
     2
 10
1764.275247707135
 20
807.3604375817835
 40
0.6923475050186975
 50
452.8560806723317
 51
542.5958611470963
 73
     1
 72
     2
 10
1764.275241338633
 20
807.2975726464759
 40
0.6923479964086762
 50
537.3916354182088
 51
627.1437644910936
 73
     1
 97
        0
 75
     0
 76
     1
 98
        1
 10
1141.257152429401
 20
3157.258529874461
  0
SPLINE
  5
4647
330
1F
100
AcDbEntity
  8
PV
  6
Continuous
 62
     3
100
AcDbSpline
210
0.0
220
0.0
230
1.0
 70
     8
 71
     3
 72
    71
 73
    67
 74
    65
 42
0.0000000001
 43
0.0000000001
 44
0.000001
 12
-0.8247288411887145
 22
0.5655283710933698
 32
0.0
 13
-0.8247288386802772
 23
0.5655283747515072
 33
0.0
 40
0.0
 40
0.0
 40
0.0
 40
0.0
 40
0.2426095293709512
 40
0.4874396912116888
 40
0.7337914810821572
 40
0.9809875268014909
 40
1.228374179859586
 40
1.475324380160209
 40
1.721241398055714
 40
1.965563598918647
 40
2.207770418089319
 40
2.447389775987597
 40
2.684007199470436
 40
2.917276936784573
 40
3.146935343573574
 40
3.372816752170082
 40
3.594871882582306
 40
3.813188571931947
 40
4.030241016882453
 40
4.249109061500208
 40
4.470718692192164
 40
4.695775535776392
 40
4.924783111415369
 40
5.158065950775319
 40
5.395794648120801
 40
5.63801069877208
 40
5.884649785011954
 40
6.135562829686521
 40
6.390534612531314
 40
6.649300045266026
 40
6.911558366476646
 40
7.176985587904608
 40
7.445245535119696
 40
7.715999802872263
 40
7.988923496336087
 40
8.26368890548837
 40
8.540003906709397
 40
8.817607913417951
 40
9.096279521634164
 40
9.375843922844712
 40
9.656179994469095
 40
9.937226895791164
 40
10.21898991490381
 40
10.50154524337964
 40
10.78504332277712
 40
11.06971044339373
 40
11.35584841892217
 40
11.64383244074914
 40
11.93410763090109
 40
12.22718529802255
 40
12.52151109772652
 40
12.81535152644464
 40
13.10894177013454
 40
13.40244059213539
 40
13.69593122964549
 40
13.9894239440908
 40
14.28285989647504
 40
14.57611598279921
 40
14.86901029283602
 40
15.16130791681857
 40
15.45272689720604
 40
15.74294419394941
 40
16.03160159556025
 40
16.3183115635268
 40
16.60266304543169
 40
16.88422733549836
 40
16.88422733549836
 40
16.88422733549836
 40
16.88422733549836
 10
1742.880564083326
 20
793.4334840263455
 30
0.0
 10
1742.813868391319
 20
793.4792182169977
 30
0.0
 10
1742.678536079144
 20
793.5691819948388
 30
0.0
 10
1742.470980143401
 20
793.698659666813
 30
0.0
 10
1742.258377236485
 20
793.8227409189508
 30
0.0
 10
1742.041377266305
 20
793.9407588039448
 30
0.0
 10
1741.820632637976
 20
794.0520645851515
 30
0.0
 10
1741.5968022475
 20
794.1560262870357
 30
0.0
 10
1741.370550512671
 20
794.2520309868898
 30
0.0
 10
1741.142547000087
 20
794.339486919412
 30
0.0
 10
1740.913464864931
 20
794.4178263943854
 30
0.0
 10
1740.683978207099
 20
794.4865091493953
 30
0.0
 10
1740.454757885597
 20
794.5450260134042
 30
0.0
 10
1740.226465324577
 20
794.5929025694632
 30
0.0
 10
1739.999744174368
 20
794.6297021544284
 30
0.0
 10
1739.775208434197
 20
794.6550279115504
 30
0.0
 10
1739.553430791318
 20
794.6685209748792
 30
0.0
 10
1739.33417477122
 20
794.6698646740624
 30
0.0
 10
1739.116272655816
 20
794.6585157615829
 30
0.0
 10
1738.898242488635
 20
794.6351549446307
 30
0.0
 10
1738.679065513114
 20
794.6002799747067
 30
0.0
 10
1738.458481331214
 20
794.5544187182122
 30
0.0
 10
1738.236322601952
 20
794.4981236124253
 30
0.0
 10
1738.012496761361
 20
794.4319845973787
 30
0.0
 10
1737.786964447177
 20
794.3566366819274
 30
0.0
 10
1737.55972052848
 20
794.2727613716384
 30
0.0
 10
1737.330777955747
 20
794.1810844130052
 30
0.0
 10
1737.100155044362
 20
794.082371285034
 30
0.0
 10
1736.867865914575
 20
793.9774217436388
 30
0.0
 10
1736.633913638313
 20
793.8670642639582
 30
0.0
 10
1736.3982854948
 20
793.7521509857464
 30
0.0
 10
1736.160949899091
 20
793.6335532691603
 30
0.0
 10
1735.921854153447
 20
793.5121587747316
 30
0.0
 10
1735.680922196509
 20
793.3888662295425
 30
0.0
 10
1735.438055825772
 20
793.2645936346412
 30
0.0
 10
1735.193134443792
 20
793.1402690931941
 30
0.0
 10
1734.946019091088
 20
793.0168284256588
 30
0.0
 10
1734.696543898525
 20
792.895220823111
 30
0.0
 10
1734.44452152992
 20
792.7764114029046
 30
0.0
 10
1734.189744668446
 20
792.6613853570552
 30
0.0
 10
1733.931988993248
 20
792.5511524687822
 30
0.0
 10
1733.671017717602
 20
792.44675267942
 30
0.0
 10
1733.406588387517
 20
792.3492621927792
 30
0.0
 10
1733.138462534531
 20
792.259799630061
 30
0.0
 10
1732.866418766403
 20
792.1795313114597
 30
0.0
 10
1732.590269517376
 20
792.1096743812203
 30
0.0
 10
1732.309881446748
 20
792.0514959054473
 30
0.0
 10
1732.02519737827
 20
792.0063064325767
 30
0.0
 10
1731.736260960429
 20
791.9754443207148
 30
0.0
 10
1731.443936098443
 20
791.9602934518726
 30
0.0
 10
1731.150035125089
 20
791.9620090996499
 30
0.0
 10
1730.856516622524
 20
791.9797760277579
 30
0.0
 10
1730.564591157941
 20
792.012607688425
 30
0.0
 10
1730.274733663613
 20
792.0595578248374
 30
0.0
 10
1729.987373852695
 20
792.1197236453799
 30
0.0
 10
1729.702913338713
 20
792.1922449458405
 30
0.0
 10
1729.421736630198
 20
792.2763019257229
 30
0.0
 10
1729.144220010723
 20
792.3711114336598
 30
0.0
 10
1728.870737683553
 20
792.4759228305506
 30
0.0
 10
1728.601665918771
 20
792.5900139096259
 30
0.0
 10
1728.337385620558
 20
792.7126871984841
 30
0.0
 10
1728.078283597869
 20
792.8432669027554
 30
0.0
 10
1727.824753346116
 20
792.9810962447731
 30
0.0
 10
1727.577193772074
 20
793.1255364708885
 30
0.0
 10
1727.336012768578
 20
793.2759629716929
 30
0.0
 10
1727.178889567795
 20
793.380406496258
 30
0.0
 10
1727.101484837809
 20
793.4334840280412
 30
0.0
 11
1742.880564083326
 21
793.4334840263455
 31
0.0
 11
1742.678522888781
 21
793.5677924007996
 31
0.0
 11
1742.47079081554
 21
793.6973655226029
 31
0.0
 11
1742.258012752468
 21
793.8215214739211
 31
0.0
 11
1742.040838375141
 21
793.9395942262891
 31
0.0
 11
1741.81992296064
 21
794.0509339575042
 31
0.0
 11
1741.595927907322
 21
794.154908076965
 31
0.0
 11
1741.369520825833
 21
794.2509029369444
 31
0.0
 11
1741.141375018961
 21
794.3383262098268
 31
0.0
 11
1740.912168107347
 21
794.4166098921669
 31
0.0
 11
1740.682579488337
 21
794.4852138475994
 31
0.0
 11
1740.453286243932
 21
794.5436297115902
 31
0.0
 11
1740.224957055848
 21
794.591384839226
 31
0.0
 11
1739.99824366891
 21
794.6280457720003
 31
0.0
 11
1739.773769511324
 21
794.6532204284153
 31
0.0
 11
1739.552115292601
 21
794.666557904361
 31
0.0
 11
1739.333801827742
 21
794.6677444580942
 31
0.0
 11
1739.117036584745
 21
794.6565823217574
 31
0.0
 11
1738.89939788425
 21
794.63341732658
 31
0.0
 11
1738.680515150681
 21
794.5987593208556
 31
0.0
 11
1738.460134045025
 21
794.5531221527358
 31
0.0
 11
1738.238097992548
 21
794.4970466580839
 31
0.0
 11
1738.014326009996
 21
794.4311150043449
 31
0.0
 11
1737.788790485495
 21
794.3559574316773
 31
0.0
 11
1737.561497242667
 21
794.2722532086167
 31
0.0
 11
1737.332469014903
 21
794.1807277490534
 31
0.0
 11
1737.101732570277
 21
794.0821475831516
 31
0.0
 11
1736.869309189555
 21
793.9773144674822
 31
0.0
 11
1736.635207943526
 21
793.8670595093799
 31
0.0
 11
1736.399421150804
 21
793.7522378414691
 31
0.0
 11
1736.161921442053
 21
793.6337241366986
 31
0.0
 11
1735.922659953448
 21
793.5124090949666
 31
0.0
 11
1735.681565285727
 21
793.38919694174
 31
0.0
 11
1735.438535509045
 21
793.2650040671478
 31
0.0
 11
1735.19346231244
 21
793.1407657543259
 31
0.0
 11
1734.946205641387
 21
793.0174202293997
 31
0.0
 11
1734.696602987539
 21
792.8959192016973
 31
0.0
 11
1734.444470432275
 21
792.7772303656533
 31
0.0
 11
1734.189604453429
 21
792.6623409089939
 31
0.0
 11
1733.931784857774
 21
792.5522619866237
 31
0.0
 11
1733.670779314456
 21
792.448034029242
 31
0.0
 11
1733.406350060684
 21
792.3507325971404
 31
0.0
 11
1733.138263395143
 21
792.2614742451001
 31
0.0
 11
1732.866302509367
 21
792.1814215272825
 31
0.0
 11
1732.590283952301
 21
792.1117858631755
 31
0.0
 11
1732.310077487992
 21
792.0538265809264
 31
0.0
 11
1732.025628226374
 21
792.0088442022347
 31
0.0
 11
1731.736978709086
 21
791.978166161441
 31
0.0
 11
1731.44428731871
 21
791.9631239220612
 31
0.0
 11
1731.149965690863
 21
791.9646910062556
 31
0.0
 11
1730.856653207941
 21
791.9822973946138
 31
0.0
 11
1730.564886326095
 21
792.0149672254646
 31
0.0
 11
1730.275141911956
 21
792.0617618083911
 31
0.0
 11
1729.987854353909
 21
792.1217835819207
 31
0.0
 11
1729.70342989949
 21
792.194176282936
 31
0.0
 11
1729.422257977884
 21
792.2781227459481
 31
0.0
 11
1729.144719689982
 21
792.3728414395327
 31
0.0
 11
1728.871193857765
 21
792.4775825296665
 31
0.0
 11
1728.602061090758
 21
792.5916239901485
 31
0.0
 11
1728.337706309755
 21
792.7142680763932
 31
0.0
 11
1728.078520110182
 21
792.8448383382455
 31
0.0
 11
1727.824899276251
 21
792.982677259095
 31
0.0
 11
1727.577246687738
 21
793.1271445603565
 31
0.0
 11
1727.335970801032
 21
793.2776161914234
 31
0.0
 11
1727.101484837809
 21
793.4334840280412
 31
0.0
  0
SPLINE
  5
4648
330
1F
100
AcDbEntity
  8
PV
  6
Continuous
 62
     3
100
AcDbSpline
210
0.0
220
0.0
230
1.0
 70
     8
 71
     3
 72
    15
 73
    11
 74
     9
 42
0.0000000001
 43
0.0000000001
 44
0.000001
 12
-0.8247288411887145
 22
0.5655283710933698
 32
0.0
 13
-0.8247288386802772
 23
0.5655283747515072
 33
0.0
 40
0.0
 40
0.0
 40
0.0
 40
0.0
 40
2.13130770525349
 40
4.217964961739187
 40
6.265346336806204
 40
8.413894970657384
 40
10.56234952652126
 40
12.60967669869853
 40
14.69627285913615
 40
16.82744260115897
 40
16.82744260115897
 40
16.82744260115897
 40
16.82744260115897
 10
1743.263013400105
 20
793.9912225907796
 30
0.0
 10
1742.677096422115
 20
794.3929942490632
 30
0.0
 10
1741.427085670785
 20
795.0605262299102
 30
0.0
 10
1739.326081921433
 20
795.5081721300468
 30
0.0
 10
1737.251029141454
 20
794.9600343778654
 30
0.0
 10
1735.373567053852
 20
793.9911723217204
 30
0.0
 10
1733.495882872609
 20
793.0227002540219
 30
0.0
 10
1731.420861273418
 20
792.4750244260792
 30
0.0
 10
1729.31994334592
 20
792.9222216463402
 30
0.0
 10
1728.06981320585
 20
793.5894769372711
 30
0.0
 10
1727.483934157061
 20
793.9912225907796
 30
0.0
 11
1743.263013400105
 21
793.9912225907796
 31
0.0
 11
1741.371870955697
 21
794.9741024356407
 31
0.0
 11
1739.31823103354
 21
795.3438341980905
 31
0.0
 11
1737.318770573153
 21
794.9034612171735
 31
0.0
 11
1735.37349889019
 21
793.9912225907796
 31
0.0
 11
1733.428186062972
 21
793.0792933265957
 31
0.0
 11
1731.428716523625
 21
792.6392136620384
 31
0.0
 11
1729.375088016027
 21
793.0086639151618
 31
0.0
 11
1727.483934157061
 21
793.9912225907796
 31
0.0
  0
SPLINE
  5
4649
330
1F
100
AcDbEntity
  8
PV
  6
Continuous
 62
     3
100
AcDbSpline
210
0.0
220
0.0
230
1.0
 70
     8
 71
     3
 72
    71
 73
    67
 74
    65
 42
0.0000000001
 43
0.0000000001
 44
0.000001
 12
-0.8247288355466375
 22
0.5655283793213983
 32
0.0
 13
-0.8247288386802772
 23
0.5655283747515072
 33
0.0
 40
0.0
 40
0.0
 40
0.0
 40
0.0
 40
0.2426203646680847
 40
0.4874623703514346
 40
0.733826507232263
 40
0.9810349193371916
 40
1.228433496361815
 40
1.475394740153619
 40
1.72132150989707
 40
1.965651791485543
 40
2.207864679256515
 40
2.447487800320513
 40
2.684106448135085
 40
2.917374713255543
 40
3.14702888928984
 40
3.372903366669063
 40
3.594949072505831
 40
3.813254232316848
 40
4.030295427895409
 40
4.249153813692981
 40
4.470755935322832
 40
4.695807764533977
 40
4.924812980259951
 40
5.158096123477093
 40
5.395827682333773
 40
5.638048962719067
 40
5.884695401830879
 40
6.135617644675518
 40
6.390600178984646
 40
6.649377625347396
 40
6.911648944434158
 40
7.17708989370883
 40
7.44536407727169
 40
7.716132909625712
 40
7.989056603089329
 40
8.263822012241611
 40
8.540137013462638
 40
8.817741020171789
 40
9.096412628387831
 40
9.375977029598379
 40
9.65631310122294
 40
9.937360002544545
 40
10.2191230216567
 40
10.50167835013383
 40
10.78517642953036
 40
11.06984355014664
 40
11.3559815256757
 40
11.6439655475017
 40
11.93424073765394
 40
12.22731840477527
 40
12.52164420447924
 40
12.81548463319684
 40
13.1090748768874
 40
13.40257369888818
 40
13.69606433639771
 40
13.98955705084368
 40
14.28299300322778
 40
14.57624908955152
 40
14.86914339958882
 40
15.16144102357101
 40
15.45286000395845
 40
15.7430773007008
 40
16.03173470231289
 40
16.31844467027876
 40
16.60279615218412
 40
16.8843604422508
 40
16.8843604422508
 40
16.8843604422508
 40
16.8843604422508
 10
1742.880564077762
 20
788.4740420652542
 30
0.0
 10
1742.813865407485
 20
788.519778299128
 30
0.0
 10
1742.67852749258
 20
788.6097472592102
 30
0.0
 10
1742.470964361195
 20
788.7392354054543
 30
0.0
 10
1742.258354975311
 20
788.8633296813143
 30
0.0
 10
1742.041349307426
 20
788.9813626062392
 30
0.0
 10
1741.820599838632
 20
789.092684907337
 30
0.0
 10
1741.596765550903
 20
789.1966640756707
 30
0.0
 10
1741.370510960281
 20
789.29268666157
 30
0.0
 10
1741.142505743926
 20
789.3801603844853
 30
0.0
 10
1740.913423178825
 20
789.4585170566101
 30
0.0
 10
1740.683937494719
 20
789.5272159424648
 30
0.0
 10
1740.4547196825
 20
789.5857474299938
 30
0.0
 10
1740.226431290446
 20
789.633636700355
 30
0.0
 10
1739.99971607096
 20
789.6704467351237
 30
0.0
 10
1739.775188082812
 20
789.6957803674568
 30
0.0
 10
1739.553420007226
 20
789.7092784813139
 30
0.0
 10
1739.334174666311
 20
789.7106241531969
 30
0.0
 10
1739.116283385213
 20
789.6992738420525
 30
0.0
 10
1738.898263157892
 20
789.6759086987271
 30
0.0
 10
1738.679094760511
 20
789.6410266120133
 30
0.0
 10
1738.458517630794
 20
789.5951556606791
 30
0.0
 10
1738.236364360122
 20
789.5388485234049
 30
0.0
 10
1738.012542383153
 20
789.472695441304
 30
0.0
 10
1737.787012372212
 20
789.3973317824649
 30
0.0
 10
1737.559769242586
 20
789.3134394664138
 30
0.0
 10
1737.330825984646
 20
789.2217446992987
 30
0.0
 10
1737.100200935258
 20
789.1230134560276
 30
0.0
 10
1736.867908211266
 20
789.0180460142528
 30
0.0
 10
1736.633950850169
 20
788.9076713938802
 30
0.0
 10
1736.398316073723
 20
788.7927422785763
 30
0.0
 10
1736.160972180582
 20
788.674130637724
 30
0.0
 10
1735.921866434053
 20
788.5527245401711
 30
0.0
 10
1735.680926677838
 20
788.4294261654088
 30
0.0
 10
1735.438055782604
 20
788.3051517538819
 30
0.0
 10
1735.193134455462
 20
788.1808271055382
 30
0.0
 10
1734.946019087938
 20
788.0573864668942
 30
0.0
 10
1734.696543899375
 20
787.935778856547
 30
0.0
 10
1734.44452152969
 20
787.816969438445
 30
0.0
 10
1734.189744668507
 20
787.7019433920295
 30
0.0
 10
1733.931988993231
 20
787.5917105039072
 30
0.0
 10
1733.671017717604
 20
787.4873107145072
 30
0.0
 10
1733.406588387516
 20
787.3898202278764
 30
0.0
 10
1733.138462534531
 20
787.3003576651531
 30
0.0
 10
1732.866418766403
 20
787.2200893465563
 30
0.0
 10
1732.590269517375
 20
787.1502324163141
 30
0.0
 10
1732.309881446748
 20
787.0920539405442
 30
0.0
 10
1732.025197378269
 20
787.0468644676742
 30
0.0
 10
1731.73626096043
 20
787.016002355807
 30
0.0
 10
1731.443936098443
 20
787.00085148697
 30
0.0
 10
1731.150035125089
 20
787.0025671347439
 30
0.0
 10
1730.856516622525
 20
787.0203340628503
 30
0.0
 10
1730.564591157941
 20
787.0531657235213
 30
0.0
 10
1730.274733663613
 20
787.1001158599311
 30
0.0
 10
1729.987373852696
 20
787.1602816804759
 30
0.0
 10
1729.702913338713
 20
787.2328029809356
 30
0.0
 10
1729.421736630198
 20
787.3168599608182
 30
0.0
 10
1729.144220010722
 20
787.4116694687525
 30
0.0
 10
1728.870737683553
 20
787.5164808656461
 30
0.0
 10
1728.601665918771
 20
787.6305719447188
 30
0.0
 10
1728.337385620559
 20
787.7532452335797
 30
0.0
 10
1728.078283597868
 20
787.8838249378479
 30
0.0
 10
1727.824753346117
 20
788.0216542798681
 30
0.0
 10
1727.577193772074
 20
788.1660945059811
 30
0.0
 10
1727.336012768578
 20
788.316521006787
 30
0.0
 10
1727.178889567795
 20
788.4209645313519
 30
0.0
 10
1727.101484837809
 20
788.4740420631351
 30
0.0
 11
1742.880564077762
 21
788.4740420652542
 31
0.0
 11
1742.678514826447
 21
788.6083578922994
 31
0.0
 11
1742.4707753585
 21
788.7379415378873
 31
0.0
 11
1742.25799062297
 21
788.862110552809
 31
0.0
 11
1742.040810361985
 21
788.9801983729007
 31
0.0
 11
1741.81988992843
 21
789.0915546387855
 31
0.0
 11
1741.595890807938
 21
789.1955462247606
 31
0.0
 11
1741.369480711385
 21
789.2915589544149
 31
0.0
 11
1741.141333055247
 21
789.3789999831124
 31
0.0
 11
1740.912125586381
 21
789.4573008082574
 31
0.0
 11
1740.682537837967
 21
789.5259208193802
 31
0.0
 11
1740.453247031663
 21
789.5843512107703
 31
0.0
 11
1740.224921983067
 21
789.6321189372829
 31
0.0
 11
1739.99821455061
 21
789.6687901881278
 31
0.0
 11
1739.773748235572
 21
789.6939725816742
 31
0.0
 11
1739.552103753797
 21
789.7073149644989
 31
0.0
 11
1739.333801828808
 21
789.7085033860694
 31
0.0
 11
1739.117047914879
 21
789.6973399916624
 31
0.0
 11
1738.899419374548
 21
789.6741707994546
 31
0.0
 11
1738.680545347148
 21
789.6395058251919
 31
0.0
 11
1738.460171340979
 21
789.5938591031172
 31
0.0
 11
1738.238140729681
 21
789.5377717027827
 31
0.0
 11
1738.014372544653
 21
789.4718260867139
 31
0.0
 11
1737.78883922326
 21
789.3966528533273
 31
0.0
 11
1737.561546647646
 21
789.3129316866953
 31
0.0
 11
1737.332517600859
 21
789.2213884638195
 31
0.0
 11
1737.101778880079
 21
789.1227902149162
 31
0.0
 11
1736.869351767907
 21
789.0179392238369
 31
0.0
 11
1736.635245306517
 21
788.9076671444995
 31
0.0
 11
1736.399451754477
 21
788.7928296696409
 31
0.0
 11
1736.161943651261
 21
788.6743020422354
 31
0.0
 11
1735.922672011601
 21
788.5529755405104
 31
0.0
 11
1735.681565285727
 21
788.4297549768334
 31
0.0
 11
1735.438535509045
 21
788.3055621022418
 31
0.0
 11
1735.19346231244
 21
788.1813237894198
 31
0.0
 11
1734.946205641387
 21
788.0579782644936
 31
0.0
 11
1734.696602987539
 21
787.9364772367899
 31
0.0
 11
1734.444470432274
 21
787.8177884007473
 31
0.0
 11
1734.189604453429
 21
787.7028989440877
 31
0.0
 11
1733.931784857774
 21
787.5928200217172
 31
0.0
 11
1733.670779314456
 21
787.4885920643373
 31
0.0
 11
1733.406350060684
 21
787.3912906322352
 31
0.0
 11
1733.138263395142
 21
787.3020322801935
 31
0.0
 11
1732.866302509366
 21
787.2219795623777
 31
0.0
 11
1732.590283952301
 21
787.1523438982704
 31
0.0
 11
1732.310077487991
 21
787.0943846160225
 31
0.0
 11
1732.025628226374
 21
787.0494022373313
 31
0.0
 11
1731.736978709086
 21
787.018724196535
 31
0.0
 11
1731.44428731871
 21
787.0036819571573
 31
0.0
 11
1731.149965690863
 21
787.00524904135
 31
0.0
 11
1730.856653207942
 21
787.0228554297073
 31
0.0
 11
1730.564886326095
 21
787.0555252605599
 31
0.0
 11
1730.275141911956
 21
787.1023198434859
 31
0.0
 11
1729.98785435391
 21
787.162341617016
 31
0.0
 11
1729.70342989949
 21
787.2347343180313
 31
0.0
 11
1729.422257977884
 21
787.3186807810429
 31
0.0
 11
1729.144719689982
 21
787.4133994746261
 31
0.0
 11
1728.871193857765
 21
787.5181405647613
 31
0.0
 11
1728.602061090758
 21
787.6321820252424
 31
0.0
 11
1728.337706309756
 21
787.7548261114879
 31
0.0
 11
1728.078520110183
 21
787.8853963733385
 31
0.0
 11
1727.824899276251
 21
788.0232352941893
 31
0.0
 11
1727.577246687738
 21
788.1677025954496
 31
0.0
 11
1727.335970801032
 21
788.3181742265174
 31
0.0
 11
1727.101484837809
 21
788.4740420631351
 31
0.0
  0
SPLINE
  5
464A
330
1F
100
AcDbEntity
  8
PV
  6
Continuous
 62
     3
100
AcDbSpline
210
0.0
220
0.0
230
1.0
 70
     8
 71
     3
 72
    15
 73
    11
 74
     9
 42
0.0000000001
 43
0.0000000001
 44
0.000001
 12
-0.8247288355466375
 22
0.5655283793213983
 32
0.0
 13
-0.8247288386802772
 23
0.5655283747515072
 33
0.0
 40
0.0
 40
0.0
 40
0.0
 40
0.0
 40
2.131354064777103
 40
4.21802910780156
 40
6.265423967006597
 40
8.414023652543891
 40
10.562478208407
 40
12.60980538058407
 40
14.69640154102177
 40
16.82757128304312
 40
16.82757128304312
 40
16.82757128304312
 40
16.82757128304312
 10
1743.263013400105
 20
789.0317806258718
 30
0.0
 10
1742.677083681445
 20
789.4335610292096
 30
0.0
 10
1741.42710821659
 20
790.1011717225004
 30
0.0
 10
1739.326080748692
 20
790.5489858775171
 30
0.0
 10
1737.251018312913
 20
790.000678636267
 30
0.0
 10
1735.37359449349
 20
789.031719375008
 30
0.0
 10
1733.495879742589
 20
788.0632630551082
 30
0.0
 10
1731.420862115911
 20
787.5155811783347
 30
0.0
 10
1729.319943097696
 20
787.9627800594001
 30
0.0
 10
1728.06981320585
 20
788.6300349723634
 30
0.0
 10
1727.483934157061
 20
789.0317806258718
 30
0.0
 11
1743.263013400105
 21
789.0317806258718
 31
0.0
 11
1741.371870955517
 21
790.014760993793
 31
0.0
 11
1739.31823103354
 21
790.3845931260425
 31
0.0
 11
1737.318778039226
 21
789.944123566338
 31
0.0
 11
1735.37349889019
 21
789.0317806258718
 31
0.0
 11
1733.428186062972
 21
788.1198513616896
 31
0.0
 11
1731.428716523625
 21
787.6797716971332
 31
0.0
 11
1729.375088016027
 21
788.0492219502571
 31
0.0
 11
1727.483934157061
 21
789.0317806258718
 31
0.0
  0
SPLINE
  5
464B
330
1F
100
AcDbEntity
  8
PV
  6
Continuous
 62
     3
100
AcDbSpline
210
0.0
220
0.0
230
1.0
 70
     8
 71
     3
 72
    71
 73
    67
 74
    65
 42
0.0000000001
 43
0.0000000001
 44
0.000001
 12
-0.824728854353567
 22
0.5655283518946268
 32
0.0
 13
-0.8247288305300797
 23
0.5655283866372115
 33
0.0
 40
0.0
 40
0.0
 40
0.0
 40
0.0
 40
0.2426205179604665
 40
0.4874626229465959
 40
0.7338268119636747
 40
0.9810352359162182
 40
1.228433791482459
 40
1.475394987638418
 40
1.721321690890962
 40
1.965651894677236
 40
2.207864701141459
 40
2.447487745489919
 40
2.68410632957928
 40
2.917374552654517
 40
3.147028717271827
 40
3.372903222972186
 40
3.594949005980668
 40
3.813254300673099
 40
4.03029587751499
 40
4.249153994462515
 40
4.470755325672861
 40
4.695805980376475
 40
4.924809777549732
 40
5.158091396201577
 40
5.395821457639622
 40
5.63804139454375
 40
5.884686764054291
 40
6.135608324391728
 40
6.390590670255075
 40
6.649368523540851
 40
6.911640941121701
 40
7.17708377199918
 40
7.445360707375821
 40
7.71613324443161
 40
7.989065656467425
 40
8.263836714498536
 40
8.540154663203932
 40
8.817759281329717
 40
9.096429517584427
 40
9.37599089406367
 40
9.656322587388782
 40
9.937364015521188
 40
10.21912067608695
 40
10.50166891345625
 40
10.78515925944464
 40
11.0698180289384
 40
11.35594699486194
 40
11.64392124662533
 40
11.93418575051077
 40
12.22725161461126
 40
12.52156578994976
 40
12.81539598746842
 40
13.10897707636111
 40
13.40246757096061
 40
13.69595053371967
 40
13.98943612851869
 40
14.28286549594416
 40
14.57611558638479
 40
14.86900461503766
 40
15.16129786407391
 40
15.45271362967534
 40
15.742929182747
 40
16.03158667585464
 40
16.31829898406839
 40
16.60265551512965
 40
16.88422806760617
 40
16.88422806760617
 40
16.88422806760617
 40
16.88422806760617
 10
1742.88056409631
 20
783.5146000876311
 30
0.0
 10
1742.81386538237
 20
783.5603363481838
 30
0.0
 10
1742.678527397226
 20
783.6503053545541
 30
0.0
 10
1742.470964184694
 20
783.7797935625269
 30
0.0
 10
1742.25835475975
 20
783.9038878793619
 30
0.0
 10
1742.041349088376
 20
784.0219208275116
 30
0.0
 10
1741.820599645141
 20
784.133243136929
 30
0.0
 10
1741.596765405435
 20
784.237222301428
 30
0.0
 10
1741.370510878609
 20
784.3332448739988
 30
0.0
 10
1741.14250573498
 20
784.4207185766832
 30
0.0
 10
1740.913423244461
 20
784.4990752241653
 30
0.0
 10
1740.683937629456
 20
784.5677740833312
 30
0.0
 10
1740.454719873179
 20
784.6263055443737
 30
0.0
 10
1740.22643151586
 20
784.6741947901529
 30
0.0
 10
1739.99971630144
 20
784.7110048045512
 30
0.0
 10
1739.77518827994
 20
784.736338418854
 30
0.0
 10
1739.55342012331
 20
784.7498365275907
 30
0.0
 10
1739.334174585155
 20
784.7511821692217
 30
0.0
 10
1739.116283220061
 20
784.7398319405421
 30
0.0
 10
1738.898263194206
 20
784.7164670567001
 30
0.0
 10
1738.679095487535
 20
784.6815853712231
 30
0.0
 10
1738.458519400881
 20
784.6357149448711
 30
0.0
 10
1738.236367392042
 20
784.5794084148624
 30
0.0
 10
1738.012546767845
 20
784.5132559767709
 30
0.0
 10
1737.787018080304
 20
784.4378929475875
 30
0.0
 10
1737.559776132101
 20
784.3540011939934
 30
0.0
 10
1737.330833808181
 20
784.262306869238
 30
0.0
 10
1737.100209346388
 20
784.1635758964496
 30
0.0
 10
1736.867916769369
 20
784.0586085046309
 30
0.0
 10
1736.633959026866
 20
783.9482336638509
 30
0.0
 10
1736.398323249348
 20
783.8333040251857
 30
0.0
 10
1736.160977675973
 20
783.7146914732096
 30
0.0
 10
1735.921869406962
 20
783.5932842034812
 30
0.0
 10
1735.680925350661
 20
783.4699831288409
 30
0.0
 10
1735.438048332472
 20
783.3457074550412
 30
0.0
 10
1735.193119156144
 20
783.221385504836
 30
0.0
 10
1734.945996973536
 20
783.0979516237078
 30
0.0
 10
1734.696515876769
 20
782.9763544480223
 30
0.0
 10
1734.444488524212
 20
782.8575585354807
 30
0.0
 10
1734.18970762853
 20
782.7425485108834
 30
0.0
 10
1733.931948933941
 20
782.6323335791959
 30
0.0
 10
1733.670975754165
 20
782.5279530862099
 30
0.0
 10
1733.406545768707
 20
782.4304826142329
 30
0.0
 10
1733.138420669866
 20
782.3410401260705
 30
0.0
 10
1732.866379242448
 20
782.2607912341529
 30
0.0
 10
1732.590234096214
 20
782.1909523133832
 30
0.0
 10
1732.309852038348
 20
782.13278959003
 30
0.0
 10
1732.025175979866
 20
782.087612700559
 30
0.0
 10
1731.736249555137
 20
782.0567590301728
 30
0.0
 10
1731.443936015428
 20
782.0416114197832
 30
0.0
 10
1731.150046349799
 20
782.0433243191487
 30
0.0
 10
1730.856537799966
 20
782.061083272415
 30
0.0
 10
1730.564620320961
 20
782.0939027216186
 30
0.0
 10
1730.274768855857
 20
782.1408373470039
 30
0.0
 10
1729.987413198846
 20
782.2009852404739
 30
0.0
 10
1729.702955085287
 20
782.273487026747
 30
0.0
 10
1729.421779166189
 20
782.3575236843049
 30
0.0
 10
1729.144261873132
 20
782.4523127982474
 30
0.0
 10
1728.870777553137
 20
782.557104431902
 30
0.0
 10
1728.601702609831
 20
782.6711770550909
 30
0.0
 10
1728.33741806781
 20
782.7938338536479
 30
0.0
 10
1728.078310842336
 20
782.9243996795739
 30
0.0
 10
1727.824774521883
 20
783.0622183949047
 30
0.0
 10
1727.577208093468
 20
783.2066518842846
 30
0.0
 10
1727.336019524021
 20
783.3570761758631
 30
0.0
 10
1727.178891830408
 20
783.4615210133017
 30
0.0
 10
1727.101484829771
 20
783.5146001037428
 30
0.0
 11
1742.88056409631
 21
783.5146000876311
 31
0.0
 11
1742.678514716493
 21
783.6489159982711
 31
0.0
 11
1742.470775168812
 21
783.7784997036642
 31
0.0
 11
1742.257990395785
 21
783.902668757772
 31
0.0
 11
1742.040810133035
 21
784.0207565994187
 31
0.0
 11
1741.819889726925
 21
784.1321128720774
 31
0.0
 11
1741.595890656512
 21
784.2361044527988
 31
0.0
 11
1741.369480625989
 21
784.332117167849
 31
0.0
 11
1741.141333044989
 21
784.4195581751978
 31
0.0
 11
1740.912125653307
 21
784.4978589747693
 31
0.0
 11
1740.682537976776
 21
784.5664789585057
 31
0.0
 11
1740.453247229362
 21
784.6249093229316
 31
0.0
 11
1740.224922218581
 21
784.6726770248665
 31
0.0
 11
1739.998214794354
 21
784.7093482550972
 31
0.0
 11
1739.773748449064
 21
784.7345306330075
 31
0.0
 11
1739.552103889351
 21
784.7478730054344
 31
0.0
 11
1739.333801829447
 21
784.7490614211797
 31
0.0
 11
1739.117047530153
 21
784.7378980965918
 31
0.0
 11
1738.899419234522
 21
784.7147291455062
 31
0.0
 11
1738.680545944468
 21
784.6800645685548
 31
0.0
 11
1738.460173028994
 21
784.6344183714718
 31
0.0
 11
1738.238143725924
 21
784.5783315842782
 31
0.0
 11
1738.014376937569
 21
784.512386622147
 31
0.0
 11
1737.788844980337
 21
784.4372140315404
 31
0.0
 11
1737.561553623627
 21
784.3534934426843
 31
0.0
 11
1737.332525545238
 21
784.2619506788496
 31
0.0
 11
1737.101787443569
 21
784.1633527180174
 31
0.0
 11
1736.869360507841
 21
784.0585017940811
 31
0.0
 11
1736.635253691348
 21
783.94822951369
 31
0.0
 11
1736.399459167637
 21
783.83339152515
 31
0.0
 11
1736.161949394668
 21
783.7148630298075
 31
0.0
 11
1735.922675309119
 21
783.5935352669507
 31
0.0
 11
1735.68156528686
 21
783.470313012508
 31
0.0
 11
1735.438526827443
 21
783.346117969194
 31
0.0
 11
1735.193445988457
 21
783.2218822388531
 31
0.0
 11
1734.946182640953
 21
783.0985434949066
 31
0.0
 11
1734.696574234835
 21
782.9770528878635
 31
0.0
 11
1734.444436843318
 21
782.8583775476568
 31
0.0
 11
1734.189566970604
 21
782.7435040903155
 31
0.0
 11
1733.93174448495
 21
782.633443088258
 31
0.0
 11
1733.67073715174
 21
782.5292343729925
 31
0.0
 11
1733.40630733683
 21
782.43195288061
 31
0.0
 11
1733.13822149428
 21
782.3427145062155
 31
0.0
 11
1732.86626298703
 21
782.2626810969231
 31
0.0
 11
1732.590248534037
 21
782.1930633061774
 31
0.0
 11
1732.310048042654
 21
782.1351196286155
 31
0.0
 11
1732.02560670647
 21
782.0901496836686
 31
0.0
 11
1731.736967053331
 21
782.0594799452942
 31
0.0
 11
1731.444287318178
 21
782.0444408850954
 31
0.0
 11
1731.149977300821
 21
782.0460053301162
 31
0.0
 11
1730.856674597292
 21
782.0636038833726
 31
0.0
 11
1730.564915576858
 21
782.0962616504548
 31
0.0
 11
1730.275177116739
 21
782.1430408675082
 31
0.0
 11
1729.98789368237
 21
782.2030448487694
 31
0.0
 11
1729.703471638672
 21
782.275418154712
 31
0.0
 11
1729.422300552376
 21
782.3593443955355
 31
0.0
 11
1729.144761667637
 21
782.4540427746183
 31
0.0
 11
1728.871233945866
 21
782.5587641598663
 31
0.0
 11
1728.602098126439
 21
782.6727872019824
 31
0.0
 11
1728.337739247519
 21
782.795414815419
 31
0.0
 11
1728.078548008525
 21
782.9259711973909
 31
0.0
 11
1727.824921284797
 21
783.0637994722056
 31
0.0
 11
1727.577262035883
 21
783.2082600000617
 31
0.0
 11
1727.335978788832
 21
783.3587293705318
 31
0.0
 11
1727.101484829771
 21
783.5146001037428
 31
0.0
  0
SPLINE
  5
464C
330
1F
100
AcDbEntity
  8
PV
  6
Continuous
 62
     3
100
AcDbSpline
210
0.0
220
0.0
230
1.0
 70
     8
 71
     3
 72
    15
 73
    11
 74
     9
 42
0.0000000001
 43
0.0000000001
 44
0.000001
 12
-0.824728854353567
 22
0.5655283518946268
 32
0.0
 13
-0.8247288305300797
 23
0.5655283866372115
 33
0.0
 40
0.0
 40
0.0
 40
0.0
 40
0.0
 40
2.131354135461481
 40
4.218029151323823
 40
6.265416141833279
 40
8.414023981014874
 40
10.56243583891311
 40
12.6097414802637
 40
14.69631986272943
 40
16.8274432845858
 40
16.8274432845858
 40
16.8274432845858
 40
16.8274432845858
 10
1743.263013400105
 20
784.0723386609684
 30
0.0
 10
1742.677083648651
 20
784.4741190581455
 30
0.0
 10
1741.427108005773
 20
785.141730522409
 30
0.0
 10
1739.326084335694
 20
785.5895415886124
 30
0.0
 10
1737.251017176856
 20
785.0412442814317
 30
0.0
 10
1735.373621882968
 20
784.0722663604035
 30
0.0
 10
1733.495866824229
 20
783.1039045736111
 30
0.0
 10
1731.420858121128
 20
782.5563958969764
 30
0.0
 10
1729.319965663569
 20
783.0034253725253
 30
0.0
 10
1728.069800466202
 20
783.670601730806
 30
0.0
 10
1727.483934157061
 20
784.0723386609684
 30
0.0
 11
1743.263013400105
 21
784.0723386609684
 31
0.0
 11
1741.37187095552
 21
785.0553191821568
 31
0.0
 11
1739.31823103354
 21
785.4251511611364
 31
0.0
 11
1737.318785256458
 21
784.984685415116
 31
0.0
 11
1735.37349889019
 21
784.0723386609684
 31
0.0
 11
1733.428186112018
 21
783.1605098907266
 31
0.0
 11
1731.428716523625
 21
782.7205306250844
 31
0.0
 11
1729.375088016027
 21
783.0898804578355
 31
0.0
 11
1727.483934157061
 21
784.0723386609684
 31
0.0
  0
LINE
  5
464D
330
1F
100
AcDbEntity
  8
PV
100
AcDbLine
 10
1630.692844361842
 20
814.3947037029775
 30
0.0
 11
1630.692844361842
 21
762.5547057629141
 31
0.0
  0
LINE
  5
464E
330
1F
100
AcDbEntity
  8
PV
100
AcDbLine
 10
1676.052842559398
 20
814.3947037029775
 30
0.0
 11
1676.052842559398
 21
762.5547057629141
 31
0.0
  0
LINE
  5
464F
330
1F
100
AcDbEntity
  8
PV
100
AcDbLine
 10
1613.844871398509
 20
762.5547057629141
 30
0.0
 11
1613.844871398509
 21
814.3947037029775
 31
0.0
  0
LINE
  5
4650
330
1F
100
AcDbEntity
  8
PV
100
AcDbLine
 10
1686.420881698191
 20
762.5547057629141
 30
0.0
 11
1686.420881698191
 21
814.3947037029775
 31
0.0
  0
LINE
  5
4651
330
1F
100
AcDbEntity
  8
PV
100
AcDbLine
 10
1686.420881698191
 20
814.3947037029775
 30
0.0
 11
1613.844871398509
 21
814.3947037029775
 31
0.0
  0
LINE
  5
4652
330
1F
100
AcDbEntity
  8
PV
100
AcDbLine
 10
1686.420881698191
 20
762.5547057629141
 30
0.0
 11
1613.844871398509
 21
762.5547057629141
 31
0.0
  0
LWPOLYLINE
  5
4653
330
1F
100
AcDbEntity
  8
PV
  6
Continuous
100
AcDbPolyline
 90
        2
 70
     0
 43
0.194400007724762
 10
1638.616582640174
 20
804.0384966825326
 10
1638.616582640174
 20
775.3152486825333
  0
LINE
  5
4654
330
1F
100
AcDbEntity
  8
PV
100
AcDbLine
 10
1640.670742640174
 20
804.0384966825326
 30
0.0
 11
1640.670742640174
 21
775.3152486825333
 31
0.0
  0
LWPOLYLINE
  5
4655
330
1F
100
AcDbEntity
  8
PV
  6
Continuous
100
AcDbPolyline
 90
        2
 70
     0
 43
0.194400007724762
 10
1644.437566640174
 20
807.3996726825329
 10
1669.312342640173
 20
793.0380486825324
  0
LINE
  5
4656
330
1F
100
AcDbEntity
  8
PV
100
AcDbLine
 10
1643.410486640174
 20
805.6209126825333
 30
0.0
 11
1668.285910640174
 21
791.2592886825332
 31
0.0
  0
LINE
  5
4657
330
1F
100
AcDbEntity
  8
PV
100
AcDbLine
 10
1643.604886640174
 20
803.1364806825335
 30
0.0
 11
1666.037350640174
 21
790.1855526825343
 31
0.0
  0
LWPOLYLINE
  5
4658
330
1F
100
AcDbEntity
  8
PV
  6
Continuous
100
AcDbPolyline
 90
        2
 70
     0
 43
0.194400007724762
 10
1669.312342640173
 20
786.3163446825328
 10
1644.437566640174
 20
771.9547206825327
  0
LINE
  5
4659
330
1F
100
AcDbEntity
  8
PV
100
AcDbLine
 10
1668.285910640174
 20
788.0951046825335
 30
0.0
 11
1643.410486640174
 21
773.7334806825328
 31
0.0
  0
LINE
  5
465A
330
1F
100
AcDbEntity
  8
PV
100
AcDbLine
 10
1666.037350640174
 20
789.1688406825328
 30
0.0
 11
1643.604886640174
 21
776.2179126825335
 31
0.0
  0
LINE
  5
465B
330
1F
100
AcDbEntity
  8
PV
100
AcDbLine
 10
1648.124686640173
 20
789.1118166825326
 30
0.0
 11
1658.168038640173
 21
788.2331286825333
 31
0.0
  0
LINE
  5
465C
330
1F
100
AcDbEntity
  8
PV
100
AcDbLine
 10
1648.079974640174
 20
790.0540086825331
 30
0.0
 11
1658.168038640173
 21
790.9365846825335
 31
0.0
  0
LWPOLYLINE
  5
465D
330
1F
100
AcDbEntity
  8
PV
  6
Continuous
100
AcDbPolyline
 90
        2
 70
     0
 43
0.194400007724762
 10
1644.437566640174
 20
807.3996726825329
 42
0.5773505893950813
 10
1638.616582640174
 20
804.0384966825326
 42
0.5773505893950813
  0
ARC
  5
465E
330
1F
100
AcDbEntity
  8
PV
100
AcDbCircle
 10
1642.497445812637
 20
804.0387619318476
 30
0.0
 40
1.826703191721278
100
AcDbArc
 50
60.01125475729404
 51
180.0083197239529
  0
ARC
  5
465F
330
1F
100
AcDbEntity
  8
PV
100
AcDbCircle
 10
1643.31158408248
 20
802.6283776128234
 30
0.0
 40
0.5866814466113619
100
AcDbArc
 50
60.00430380385329
 51
179.9930592752653
  0
LWPOLYLINE
  5
4660
330
1F
100
AcDbEntity
  8
PV
  6
Continuous
100
AcDbPolyline
 90
        2
 70
     0
 43
0.194400007724762
 10
1669.312342640173
 20
786.3163446825328
 42
0.5773672750388129
 10
1669.312342640173
 20
793.0380486825324
 42
0.5773672750388129
  0
ARC
  5
4661
330
1F
100
AcDbEntity
  8
PV
100
AcDbCircle
 10
1667.37206813142
 20
789.6771966825331
 30
0.0
 40
1.827053153925615
100
AcDbArc
 50
300.011440873551
 51
59.98855912644898
  0
ARC
  5
4662
330
1F
100
AcDbEntity
  8
PV
100
AcDbCircle
 10
1665.743572098861
 20
789.6771966825331
 30
0.0
 40
0.5871385305627851
100
AcDbArc
 50
300.0235842748986
 51
59.97641572510147
  0
LWPOLYLINE
  5
4663
330
1F
100
AcDbEntity
  8
PV
  6
Continuous
100
AcDbPolyline
 90
        2
 70
     0
 43
0.194400007724762
 10
1638.616582640174
 20
775.3152486825333
 42
0.5773784189788391
 10
1644.437566640174
 20
771.9547206825327
 42
0.5773784189788391
  0
ARC
  5
4664
330
1F
100
AcDbEntity
  8
PV
100
AcDbCircle
 10
1642.497165242255
 20
775.3151454877784
 30
0.0
 40
1.826422604997332
100
AcDbArc
 50
179.9967627295175
 51
300.0039881244628
  0
ARC
  5
4665
330
1F
100
AcDbEntity
  8
PV
100
AcDbCircle
 10
1643.311303465869
 20
776.7255296841831
 30
0.0
 40
0.5864009725432488
100
AcDbArc
 50
179.9594515408327
 51
300.0431853801099
  0
CIRCLE
  5
4666
330
1F
100
AcDbEntity
  8
PV
100
AcDbCircle
 10
1645.950433105506
 20
789.5846007098776
 30
0.0
 40
1.399738763809204
  0
ARC
  5
4667
330
1F
100
AcDbEntity
  8
PV
100
AcDbCircle
 10
1657.805127191232
 20
789.5848566825334
 30
0.0
 40
1.399597551354011
100
AcDbArc
 50
285.0283528234427
 51
74.97164717655727
  0
ARC
  5
4668
330
1F
100
AcDbEntity
  8
PV
100
AcDbCircle
 10
1648.403007536259
 20
789.5971813935585
 30
0.0
 40
0.5595010490662902
100
AcDbArc
 50
125.2649935574658
 51
240.1689061551058
  0
ARC
  5
4669
330
1F
100
AcDbEntity
  8
PV
100
AcDbCircle
 10
1652.516486933502
 20
789.5874129564958
 30
0.0
 40
0.1179490438768919
100
AcDbArc
 50
125.025800737744
 51
240.1962550440494
  0
HATCH
  5
466A
330
1F
100
AcDbEntity
  8
PV
100
AcDbHatch
 10
0.0
 20
0.0
 30
0.0
210
0.0
220
0.0
230
1.0
  2
SOLID
 70
     1
 71
     0
 91
        2
 92
        1
 93
        6
 72
     1
 10
1640.670442277945
 20
804.0385029097746
 11
1640.670442277945
 21
775.3152425133512
 72
     2
 10
1642.496997314491
 20
775.3152424335103
 40
1.8265550365448
 50
539.9999974955218
 51
660.0000008348261
 73
     1
 72
     1
 10
1643.410274855811
 20
773.7333993837583
 11
1668.28534568711
 21
788.0950296327819
 72
     2
 10
1667.372068145789
 20
789.6768726825339
 40
1.8265550365448
 50
300.000000834826
 51
419.999997343941
 73
     1
 72
     1
 10
1668.285345737391
 20
791.2587157032544
 11
1643.410274906092
 21
805.620345952278
 72
     2
 10
1642.496997314491
 20
804.038502931557
 40
1.8265550365448
 50
419.999997343941
 51
540.0000006832453
 73
     1
 97
        0
 92
        1
 93
        6
 72
     1
 10
1642.724399088897
 20
802.6281813913547
 11
1642.724399088897
 21
776.7255639923641
 72
     2
 10
1643.311244079627
 20
776.7255639667137
 40
0.5868449907302857
 50
539.9999974955218
 51
660.0000008348261
 73
     1
 72
     1
 10
1643.604666582397
 20
776.2173413009318
 11
1666.036994646362
 21
789.168650016752
 72
     2
 10
1665.743572143592
 20
789.6768726825339
 40
0.5868449907302857
 50
300.000000834826
 51
419.999997343941
 73
     1
 72
     1
 10
1666.036994662517
 20
790.1850953389871
 11
1643.604666598552
 21
803.1364040548073
 72
     2
 10
1643.311244079627
 20
802.6281813983537
 40
0.5868449907302857
 50
419.999997343941
 51
540.0000006832453
 73
     1
 97
        0
 75
     0
 76
     1
 98
        1
 10
1680.449518640173
 20
810.0888726825342
  0
HATCH
  5
466B
330
1F
100
AcDbEntity
  8
PV
100
AcDbHatch
 10
0.0
 20
0.0
 30
0.0
210
0.0
220
0.0
230
1.0
  2
SOLID
 70
     1
 71
     0
 91
        1
 92
        1
 93
        4
 72
     1
 10
1648.124584444944
 20
789.1112343479307
 11
1658.167521174704
 21
788.2325876877321
 72
     2
 10
1657.805127197303
 20
789.5846007098776
 40
1.399738763809204
 50
285.0048703422913
 51
434.9951312515705
 73
     1
 72
     1
 10
1658.167521137094
 20
790.9366137421039
 11
1648.079615639989
 21
790.0540401312951
 72
     2
 10
1648.4030166016
 20
789.5969899921038
 40
0.5598955364227296
 50
485.2825802431734
 51
600.1789296308608
 73
     1
 97
        0
 75
     0
 76
     1
 98
        1
 10
1680.449518640173
 20
810.0888726825342
  0
HATCH
  5
466C
330
1F
100
AcDbEntity
  8
PV
100
AcDbHatch
 10
0.0
 20
0.0
 30
0.0
210
0.0
220
0.0
230
1.0
  2
SOLID
 70
     1
 71
     0
 91
        1
 92
        1
 93
        1
 72
     2
 10
1645.950433105506
 20
789.5846007098776
 40
1.399738763809204
 50
270.0
 51
630.0
 73
     1
 97
        0
 75
     0
 76
     1
 98
        1
 10
1680.449518640173
 20
810.0888726825342
  0
LINE
  5
466D
330
1F
100
AcDbEntity
  8
PV
  6
Continuous
 62
     3
100
AcDbLine
 10
1221.156881575206
 20
807.9147047329453
 30
0.0
 11
1231.524881575206
 21
807.9147047329456
 31
0.0
  0
ARC
  5
466E
330
1F
100
AcDbEntity
  8
PV
  6
Continuous
 62
     3
100
AcDbCircle
 10
1231.524881575206
 20
806.6187047329467
 30
0.0
 40
1.296
100
AcDbArc
 50
0.0
 51
90.0
  0
MTEXT
  5
466F
330
1F
100
AcDbEntity
  8
PV
  6
Continuous
 62
     7
100
AcDbMText
 10
1226.340881575928
 20
796.874388741
 30
0.0
 40
4.665600185394287
 41
0.0
 71
     4
 72
     1
  1
\A1;{\W0.886;RS-03}
  7
MX_NOTE_STANDARD
 11
0.0000000000000564
 21
-1.0
 31
0.0
 73
     1
 44
0.9359251708042602
1001
ACAD
1000
MTEXTBEGIN
1070
    73
1070
     1
1070
    44
1040
0.9359251708042602
1070
    74
1070
     0
1000
MTEXTEND
  0
ARC
  5
4670
330
1F
100
AcDbEntity
  8
PV
  6
Continuous
 62
     3
100
AcDbCircle
 10
1231.524881575208
 20
770.3307047329458
 30
0.0
 40
1.296
100
AcDbArc
 50
270.0
 51
0.0
  0
LINE
  5
4671
330
1F
100
AcDbEntity
  8
PV
  6
Continuous
 62
     3
100
AcDbLine
 10
1210.788881575209
 20
769.0347047329447
 30
0.0
 11
1231.524881575209
 21
769.0347047329469
 31
0.0
  0
LINE
  5
4672
330
1F
100
AcDbEntity
  8
PV
  6
Continuous
 62
     3
100
AcDbLine
 10
1221.156881575206
 20
806.6187047329462
 30
0.0
 11
1221.156881575209
 21
770.3307047329449
 31
0.0
  0
LINE
  5
4673
330
1F
100
AcDbEntity
  8
PV
  6
Continuous
 62
     3
100
AcDbLine
 10
1221.156881575209
 20
770.3307047329449
 30
0.0
 11
1231.524881575208
 21
770.3307047329458
 31
0.0
  0
LINE
  5
4674
330
1F
100
AcDbEntity
  8
PV
  6
Continuous
 62
     3
100
AcDbLine
 10
1231.524881575206
 20
806.6187047329467
 30
0.0
 11
1231.524881575208
 21
770.3307047329458
 31
0.0
  0
LINE
  5
4675
330
1F
100
AcDbEntity
  8
PV
  6
Continuous
 62
     3
100
AcDbLine
 10
1221.156881575206
 20
806.6187047329462
 30
0.0
 11
1231.524881575206
 21
806.6187047329467
 31
0.0
  0
LINE
  5
4676
330
1F
100
AcDbEntity
  8
PV
  6
Continuous
 62
     3
100
AcDbLine
 10
1209.492881575206
 20
806.6187047329453
 30
0.0
 11
1209.492881575208
 21
770.3307047329444
 31
0.0
  0
ARC
  5
4677
330
1F
100
AcDbEntity
  8
PV
  6
Continuous
 62
     3
100
AcDbCircle
 10
1210.788881575207
 20
806.6187047329453
 30
0.0
 40
1.296
100
AcDbArc
 50
90.0
 51
180.0
  0
MTEXT
  5
4678
330
1F
100
AcDbEntity
  8
PV
  6
Continuous
 62
     7
100
AcDbMText
 10
1215.972881575927
 20
805.4820023784678
 30
0.0
 40
3.888
 41
0.0
 71
     4
 72
     1
  1
\A1;{\W0.886;Ser.}
  7
MX_NOTE_STANDARD
 11
0.0000000000000564
 21
-1.0
 31
0.0
 73
     1
 44
0.9359251708042602
1001
ACAD
1000
MTEXTBEGIN
1070
    73
1070
     1
1070
    44
1040
0.9359251708042602
1070
    74
1070
     0
1000
MTEXTEND
  0
ARC
  5
4679
330
1F
100
AcDbEntity
  8
PV
  6
Continuous
 62
     3
100
AcDbCircle
 10
1210.788881575208
 20
770.3307047329444
 30
0.0
 40
1.296
100
AcDbArc
 50
180.0
 51
270.0
  0
LINE
  5
467A
330
1F
100
AcDbEntity
  8
PV
  6
Continuous
 62
     3
100
AcDbLine
 10
1210.788881575207
 20
806.6187047329453
 30
0.0
 11
1210.788881575208
 21
770.3307047329444
 31
0.0
  0
LINE
  5
467B
330
1F
100
AcDbEntity
  8
PV
  6
Continuous
 62
     3
100
AcDbLine
 10
1210.788881575208
 20
770.3307047329444
 30
0.0
 11
1221.156881575209
 21
770.3307047329449
 31
0.0
  0
LINE
  5
467C
330
1F
100
AcDbEntity
  8
PV
  6
Continuous
 62
     3
100
AcDbLine
 10
1210.788881575207
 20
807.9147047329456
 30
0.0
 11
1231.524881575206
 21
807.914704732947
 31
0.0
  0
LINE
  5
467D
330
1F
100
AcDbEntity
  8
PV
  6
Continuous
 62
     3
100
AcDbLine
 10
1210.78888254124
 20
806.6187059622556
 30
0.0
 11
1221.15688254124
 21
806.6187059622565
 31
0.0
  0
LINE
  5
467E
330
1F
100
AcDbEntity
  8
PV
  6
Continuous
 62
     3
100
AcDbLine
 10
1232.820882048916
 20
806.6187059622565
 30
0.0
 11
1232.820882048918
 21
770.3307059622552
 31
0.0
  0
LEADER
  5
471F
330
1F
100
AcDbEntity
  8
PV
  6
Continuous
 62
     7
100
AcDbLeader
  3
MXDIMSTYLE
 74
     0
 76
     3
 10
1712.665072548065
 20
762.5547047297059
 30
0.0
 10
2079.448984673684
 20
314.8368454076762
 30
0.0
 10
2317.182843969106
 20
314.8368454076762
 30
0.0
1001
ACAD
1000
DSTYLE
1002
{
1070
     6
1000
_OPEN30
1070
     7
1000
_OPEN30
1070
    41
1040
2.77
1070
   173
1070
     1
1070
   341
1005
69
1002
}
  0
MTEXT
  5
4720
330
1F
100
AcDbEntity
  8
PV
  6
Continuous
 62
     7
100
AcDbMText
 10
2088.43184058663
 20
320.8368454076762
 30
0.0
 40
25.00199890136719
 41
0.0
 71
     7
 72
     1
  1
\A1;{\W0.813;警告銘板（高温注意）}
  7
MX_NOTE_STANDARD
 73
     1
 44
0.9359251894303499
1001
ACAD
1000
MTEXTBEGIN
1070
    73
1070
     1
1070
    44
1040
0.9359251894303499
1070
    74
1070
     0
1000
MTEXTEND
  0
LEADER
  5
4721
330
1F
100
AcDbEntity
  8
PV
  6
Continuous
 62
     7
100
AcDbLeader
  3
MXDIMSTYLE
 74
     0
 76
     3
 10
1630.692844361842
 20
762.5547057629141
 30
0.0
 10
1780.220038872069
 20
314.8368443374369
 30
0.0
 10
2016.239780610402
 20
314.8368443374369
 30
0.0
1001
ACAD
1000
DSTYLE
1002
{
1070
     6
1000
_OPEN30
1070
     7
1000
_OPEN30
1070
    41
1040
2.77
1070
   173
1070
     1
1070
   341
1005
69
1002
}
  0
MTEXT
  5
4722
330
1F
100
AcDbEntity
  8
PV
  6
Continuous
 62
     7
100
AcDbMText
 10
1789.202894785016
 20
320.8368443374369
 30
0.0
 40
25.00199890136719
 41
0.0
 71
     7
 72
     1
  1
\A1;{\W0.813;警告銘板（破裂注意）}
  7
MX_NOTE_STANDARD
 73
     1
 44
0.9359251894303499
1001
ACAD
1000
MTEXTBEGIN
1070
    73
1070
     1
1070
    44
1040
0.9359251894303499
1070
    74
1070
     0
1000
MTEXTEND
  0
LEADER
  5
4723
330
1F
100
AcDbEntity
  8
PV
  6
Continuous
 62
     7
100
AcDbLeader
  3
MXDIMSTYLE
 74
     0
 76
     3
 10
1221.15688157521
 20
769.0347047329457
 30
0.0
 10
1536.168946234643
 20
314.8368419578178
 30
0.0
 10
1663.322700596326
 20
314.8368419578178
 30
0.0
1001
ACAD
1000
DSTYLE
1002
{
1070
     6
1000
_OPEN30
1070
     7
1000
_OPEN30
1070
    41
1040
2.77
1070
   173
1070
     1
1070
   341
1005
69
1002
}
  0
MTEXT
  5
4724
330
1F
100
AcDbEntity
  8
PV
  6
Continuous
 62
     7
100
AcDbMText
 10
1545.15180214759
 20
320.8368419578178
 30
0.0
 40
25.00199890136719
 41
0.0
 71
     7
 72
     1
  1
\A1;{\W0.813;機種銘板}
  7
MX_NOTE_STANDARD
 73
     1
 44
0.9359251894303499
1001
ACAD
1000
MTEXTBEGIN
1070
    73
1070
     1
1070
    44
1040
0.9359251894303499
1070
    74
1070
     0
1000
MTEXTEND
  0
DIMENSION
  5
4726
102
{ACAD_XDICTIONARY
360
4733
102
}
102
{ACAD_REACTORS
330
4734
102
}
330
1F
100
AcDbEntity
  8
PV
100
AcDbDimension
  2
*D11
 10
1410.007162611263
 20
615.1995047329454
 30
0.0
 11
1395.007162611263
 21
788.4747047329459
 31
0.0
 70
    32
  1
%%c267.4
 71
     5
 42
346.5504000000005
  3
ULVAC$0
100
AcDbAlignedDimension
 13
1196.532881575207
 23
961.7499047329461
 33
0.0
 14
1196.532881575207
 24
615.1995047329456
 34
0.0
 50
90.00000000000003
100
AcDbRotatedDimension
1001
ACAD
1000
DSTYLE
1002
{
1070
    41
1040
15.0
1070
   140
1040
28.0
1002
}
  0
DIMENSION
  5
4758
102
{ACAD_XDICTIONARY
360
4765
102
}
102
{ACAD_REACTORS
330
4766
102
}
330
1F
100
AcDbEntity
  8
PV
100
AcDbDimension
  2
*D12
 10
1977.953979715821
 20
681.4251047329453
 30
0.0
 11
1962.953979715821
 21
788.4747047329455
 31
0.0
 70
    32
  1
%%c165.2
 71
     5
 42
214.0991999999999
  3
ULVAC$0
100
AcDbAlignedDimension
 13
1810.836881575207
 23
895.5243047329451
 33
0.0
 14
1810.836881575207
 24
681.4251047329453
 34
0.0
 50
90.0
100
AcDbRotatedDimension
1001
ACAD
1000
DSTYLE
1002
{
1070
    41
1040
15.0
1070
   140
1040
28.0
1002
}
  0
VIEWPORT
  5
19A2
102
{ACAD_XDICTIONARY
360
4953
102
}
330
1B
100
AcDbEntity
 67
     1
  8
0
100
AcDbViewport
 10
133.3499908447265
 20
101.5999970436096
 30
0.0
 40
381.6322014063393
 41
228.4221935424805
 68
     1
 69
     1
 12
133.3499908447265
 22
101.5999970436096
 13
0.0
 23
0.0
 14
10.0
 24
10.0
 15
10.0
 25
10.0
 16
0.0
 26
0.0
 36
1.0
 17
0.0
 27
0.0
 37
0.0
 42
50.0
 43
0.0
 44
0.0
 45
228.4221935424805
 50
0.0
 51
0.0
 72
   100
 90
    32800
  1

281
     0
 71
     1
 74
     0
110
0.0
120
0.0
130
0.0
111
1.0
121
0.0
131
0.0
112
0.0
122
1.0
132
0.0
 79
     0
146
0.0
  0
ENDSEC
  0
SECTION
  2
OBJECTS
  0
DICTIONARY
  5
C
330
0
100
AcDbDictionary
281
     1
  3
ACAD_2007HEADERVARS_RT
350
4943
  3
ACAD_COLOR
350
C5
  3
ACAD_FIELDLIST
350
2FF9
  3
ACAD_GROUP
350
D
  3
ACAD_LAYOUT
350
1A
  3
ACAD_MATERIAL
350
C4
  3
ACAD_MLEADERSTYLE
350
48D2
  3
ACAD_MLINESTYLE
350
17
  3
ACAD_PLOTSETTINGS
350
19
  3
ACAD_PLOTSTYLENAME
350
E
  3
ACAD_SCALELIST
350
48C0
  3
ACAD_TABLESTYLE
350
121
  3
ACAD_VISUALSTYLE
350
3739
  3
ACDB_RECOMPOSE_DATA
350
4941
  3
AcDbVariableDictionary
350
34
  3
AcmDictionary
350
49
  3
AMG
350
2B
  3
AMGSNAPSETTINGS
350
1C4
  3
ASE_INDEX_DICTIONARY
350
3710
  3
DWGPROPS
350
4942
  0
DICTIONARY
  5
BF
330
2
100
AcDbDictionary
280
     1
281
     1
  3
ACAD_LAYERSTATES
360
19A6
  3
AMLAYER_GROUPCOLORS
360
C0
  0
DICTIONARY
  5
48F5
330
10
100
AcDbDictionary
280
     1
281
     1
  3
ADSK_XREC_LAYER_RECONCILED
360
48F6
  0
DICTIONARY
  5
48F7
330
81
100
AcDbDictionary
280
     1
281
     1
  3
ADSK_XREC_LAYER_RECONCILED
360
48F8
  0
DICTIONARY
  5
48F9
330
1BC
100
AcDbDictionary
280
     1
281
     1
  3
ADSK_XREC_LAYER_RECONCILED
360
48FA
  0
DICTIONARY
  5
48FB
330
1A29
100
AcDbDictionary
280
     1
281
     1
  3
ADSK_XREC_LAYER_RECONCILED
360
48FC
  0
DICTIONARY
  5
48FD
330
1A3F
100
AcDbDictionary
280
     1
281
     1
  3
ADSK_XREC_LAYER_RECONCILED
360
48FE
  0
DICTIONARY
  5
48FF
330
1A6C
100
AcDbDictionary
280
     1
281
     1
  3
ADSK_XREC_LAYER_RECONCILED
360
4900
  0
DICTIONARY
  5
4901
330
1A6D
100
AcDbDictionary
280
     1
281
     1
  3
ADSK_XREC_LAYER_RECONCILED
360
4902
  0
DICTIONARY
  5
4903
330
1A6E
100
AcDbDictionary
280
     1
281
     1
  3
ADSK_XREC_LAYER_RECONCILED
360
4904
  0
DICTIONARY
  5
4905
330
1A72
100
AcDbDictionary
280
     1
281
     1
  3
ADSK_XREC_LAYER_RECONCILED
360
4906
  0
DICTIONARY
  5
4907
330
1AE0
100
AcDbDictionary
280
     1
281
     1
  3
ADSK_XREC_LAYER_RECONCILED
360
4908
  0
DICTIONARY
  5
4909
330
1AE1
100
AcDbDictionary
280
     1
281
     1
  3
ADSK_XREC_LAYER_RECONCILED
360
490A
  0
DICTIONARY
  5
490B
330
1AE3
100
AcDbDictionary
280
     1
281
     1
  3
ADSK_XREC_LAYER_RECONCILED
360
490C
  0
DICTIONARY
  5
490D
330
1CA2
100
AcDbDictionary
280
     1
281
     1
  3
ADSK_XREC_LAYER_RECONCILED
360
490E
  0
DICTIONARY
  5
490F
330
1CA3
100
AcDbDictionary
280
     1
281
     1
  3
ADSK_XREC_LAYER_RECONCILED
360
4910
  0
DICTIONARY
  5
4911
330
1CA4
100
AcDbDictionary
280
     1
281
     1
  3
ADSK_XREC_LAYER_RECONCILED
360
4912
  0
DICTIONARY
  5
4913
330
1CA5
100
AcDbDictionary
280
     1
281
     1
  3
ADSK_XREC_LAYER_RECONCILED
360
4914
  0
DICTIONARY
  5
4915
330
393E
100
AcDbDictionary
280
     1
281
     1
  3
ADSK_XREC_LAYER_RECONCILED
360
4916
  0
DICTIONARY
  5
4917
330
3C35
100
AcDbDictionary
280
     1
281
     1
  3
ADSK_XREC_LAYER_RECONCILED
360
4918
  0
DICTIONARY
  5
4919
330
42C0
100
AcDbDictionary
280
     1
281
     1
  3
ADSK_XREC_LAYER_RECONCILED
360
491A
  0
DICTIONARY
  5
491B
330
42DF
100
AcDbDictionary
280
     1
281
     1
  3
ADSK_XREC_LAYER_RECONCILED
360
491C
  0
DICTIONARY
  5
491D
330
42E0
100
AcDbDictionary
280
     1
281
     1
  3
ADSK_XREC_LAYER_RECONCILED
360
491E
  0
DICTIONARY
  5
491F
330
43AE
100
AcDbDictionary
280
     1
281
     1
  3
ADSK_XREC_LAYER_RECONCILED
360
4920
  0
DICTIONARY
  5
4921
330
43AF
100
AcDbDictionary
280
     1
281
     1
  3
ADSK_XREC_LAYER_RECONCILED
360
4922
  0
DICTIONARY
  5
4923
330
43B0
100
AcDbDictionary
280
     1
281
     1
  3
ADSK_XREC_LAYER_RECONCILED
360
4924
  0
DICTIONARY
  5
4925
330
43B1
100
AcDbDictionary
280
     1
281
     1
  3
ADSK_XREC_LAYER_RECONCILED
360
4926
  0
DICTIONARY
  5
82
330
1F
100
AcDbDictionary
280
     1
281
     1
  3
ACAD_SORTENTS
360
3064
  0
DICTIONARY
  5
380F
330
2851
100
AcDbDictionary
280
     1
281
     1
  0
DICTIONARY
  5
4733
330
4726
100
AcDbDictionary
280
     1
281
     1
  3
ACAD_DIMASSOC
360
4734
  0
DICTIONARY
  5
4765
330
4758
100
AcDbDictionary
280
     1
281
     1
  3
ACAD_DIMASSOC
360
4766
  0
DICTIONARY
  5
4953
330
19A2
100
AcDbDictionary
280
     1
281
     1
  3
ACAD_XREC_ROUNDTRIP
360
4954
  0
DICTIONARY
  5
4943
102
{ACAD_REACTORS
330
C
102
}
330
C
100
AcDbDictionary
281
     1
  3
DIMARCSYM
350
4944
  3
DIMLTEX1
350
4947
  3
DIMLTEX2
350
4948
  3
DIMLTYPE
350
4946
  3
DIMTFILLCLR
350
4945
  0
DICTIONARY
  5
C5
102
{ACAD_REACTORS
330
C
102
}
330
C
100
AcDbDictionary
281
     1
  0
FIELDLIST
  5
2FF9
102
{ACAD_REACTORS
330
C
102
}
330
C
100
AcDbIdSet
 90
        0
100
AcDbFieldList
  0
DICTIONARY
  5
D
102
{ACAD_REACTORS
330
C
102
}
330
C
100
AcDbDictionary
281
     1
  0
DICTIONARY
  5
1A
102
{ACAD_REACTORS
330
C
102
}
330
C
100
AcDbDictionary
281
     1
  3
Model
350
22
  3
レイアウト1
350
1E
  3
レイアウト2
350
26
  0
DICTIONARY
  5
C4
102
{ACAD_REACTORS
330
C
102
}
330
C
100
AcDbDictionary
281
     1
  3
ByBlock
350
3737
  3
ByLayer
350
3736
  3
Global
350
3738
  0
DICTIONARY
  5
48D2
102
{ACAD_REACTORS
330
C
102
}
330
C
100
AcDbDictionary
281
     1
  3
Standard
350
48D3
  0
DICTIONARY
  5
17
102
{ACAD_REACTORS
330
C
102
}
330
C
100
AcDbDictionary
281
     1
  3
Standard
350
18
  0
DICTIONARY
  5
19
102
{ACAD_REACTORS
330
C
102
}
330
C
100
AcDbDictionary
281
     1
  3
A1_フィット
350
432C
  3
A2_フィット
350
432D
  3
A3_フィット
350
432E
  3
A4_フィット_横
350
432F
  3
A4_フィット_縦
350
4330
  0
ACDBDICTIONARYWDFLT
  5
E
102
{ACAD_REACTORS
330
C
102
}
330
C
100
AcDbDictionary
281
     1
  3
Normal
350
F
100
AcDbDictionaryWithDefault
340
F
  0
DICTIONARY
  5
48C0
102
{ACAD_REACTORS
330
C
102
}
330
C
100
AcDbDictionary
281
     1
  3
A0
350
48C1
  3
A1
350
48C2
  3
A2
350
48C3
  3
A3
350
48C4
  3
A4
350
48C5
  3
A5
350
48C6
  3
A6
350
48C7
  3
A7
350
48C8
  3
A8
350
48C9
  3
A9
350
48CA
  3
B0
350
48CB
  3
B1
350
48CC
  3
B2
350
48CD
  3
B3
350
48CE
  3
B4
350
48CF
  3
B5
350
48D0
  3
B6
350
48D1
  0
DICTIONARY
  5
121
102
{ACAD_REACTORS
330
C
102
}
330
C
100
AcDbDictionary
281
     1
  3
Standard
350
122
  0
DICTIONARY
  5
3739
102
{ACAD_REACTORS
330
C
102
}
330
C
100
AcDbDictionary
281
     1
  3
2dWireframe
350
373F
  3
3D Hidden
350
3741
  3
3dWireframe
350
3740
  3
Basic
350
373E
  3
Brighten
350
3745
  3
ColorChange
350
3749
  3
Conceptual
350
3742
  3
Dim
350
3744
  3
EdgeColorOff
350
48BF
  3
Facepattern
350
3748
  3
Flat
350
373A
  3
FlatWithEdges
350
373B
  3
Gouraud
350
373C
  3
GouraudWithEdges
350
373D
  3
JitterOff
350
48BD
  3
Linepattern
350
3747
  3
OverhangOff
350
48BE
  3
Realistic
350
3743
  3
Thicken
350
3746
  0
XRECORD
  5
4941
102
{ACAD_REACTORS
330
C
102
}
330
C
100
AcDbXrecord
280
     1
 90
        1
330
122
  0
DICTIONARY
  5
34
102
{ACAD_REACTORS
330
C
102
}
330
C
100
AcDbDictionary
281
     1
  3
CANNOSCALE
350
493C
  3
CMLEADERSTYLE
350
493B
  3
CTABLESTYLE
350
140
  3
DIMASSOC
350
AC
  3
INDEXCTL
350
35
  3
SORTENTS
350
493D
  3
XCLIPFRAME
350
493E
  0
DICTIONARY
  5
49
102
{ACAD_REACTORS
330
C
102
}
330
C
100
AcDbDictionary
281
     1
  3
AcmBOM
350
1C1
  3
AcmStdDictionary
350
4A
  3
AMDTSECTSYM_ARROWCOLOR
350
12B
  0
DICTIONARY
  5
2B
102
{ACAD_REACTORS
330
C
102
}
330
C
100
AcDbDictionary
281
     1
  0
DICTIONARY
  5
1C4
102
{ACAD_REACTORS
330
C
102
}
330
C
100
AcDbDictionary
281
     1
  0
DICTIONARY
  5
3710
102
{ACAD_REACTORS
330
C
102
}
330
C
100
AcDbDictionary
281
     1
  3
ASEBlockHierarchyIndexRecord
350
3711
1001
DCO15
1040
1573990560.732
  0
XRECORD
  5
4942
102
{ACAD_REACTORS
330
C
102
}
330
C
100
AcDbXrecord
280
     1
  1
DWGPROPS COOKIE
  2

  3

  4

  6
ULVAC JIS テンプレート Revision 11
  7

  8
UJ35116
  9

300
AmdtFileType=84
301
=
302
=
303
=
304
=
305
=
306
=
307
=
308
=
309
=
 40
0.0580439236111111
 41
2454875.549772049
 42
2457137.475676389
  1

 90
        1
  0
DICTIONARY
  5
19A6
102
{ACAD_REACTORS
330
BF
102
}
330
BF
100
AcDbDictionary
281
     1
  0
DICTIONARY
  5
C0
102
{ACAD_REACTORS
330
BF
102
}
330
BF
100
AcDbDictionary
280
     1
281
     1
  0
XRECORD
  5
48F6
102
{ACAD_REACTORS
330
48F5
102
}
330
48F5
100
AcDbXrecord
280
     1
290
     1
  0
XRECORD
  5
48F8
102
{ACAD_REACTORS
330
48F7
102
}
330
48F7
100
AcDbXrecord
280
     1
290
     1
  0
XRECORD
  5
48FA
102
{ACAD_REACTORS
330
48F9
102
}
330
48F9
100
AcDbXrecord
280
     1
290
     1
  0
XRECORD
  5
48FC
102
{ACAD_REACTORS
330
48FB
102
}
330
48FB
100
AcDbXrecord
280
     1
290
     1
  0
XRECORD
  5
48FE
102
{ACAD_REACTORS
330
48FD
102
}
330
48FD
100
AcDbXrecord
280
     1
290
     1
  0
XRECORD
  5
4900
102
{ACAD_REACTORS
330
48FF
102
}
330
48FF
100
AcDbXrecord
280
     1
290
     1
  0
XRECORD
  5
4902
102
{ACAD_REACTORS
330
4901
102
}
330
4901
100
AcDbXrecord
280
     1
290
     1
  0
XRECORD
  5
4904
102
{ACAD_REACTORS
330
4903
102
}
330
4903
100
AcDbXrecord
280
     1
290
     1
  0
XRECORD
  5
4906
102
{ACAD_REACTORS
330
4905
102
}
330
4905
100
AcDbXrecord
280
     1
290
     1
  0
XRECORD
  5
4908
102
{ACAD_REACTORS
330
4907
102
}
330
4907
100
AcDbXrecord
280
     1
290
     1
  0
XRECORD
  5
490A
102
{ACAD_REACTORS
330
4909
102
}
330
4909
100
AcDbXrecord
280
     1
290
     1
  0
XRECORD
  5
490C
102
{ACAD_REACTORS
330
490B
102
}
330
490B
100
AcDbXrecord
280
     1
290
     1
  0
XRECORD
  5
490E
102
{ACAD_REACTORS
330
490D
102
}
330
490D
100
AcDbXrecord
280
     1
290
     1
  0
XRECORD
  5
4910
102
{ACAD_REACTORS
330
490F
102
}
330
490F
100
AcDbXrecord
280
     1
290
     1
  0
XRECORD
  5
4912
102
{ACAD_REACTORS
330
4911
102
}
330
4911
100
AcDbXrecord
280
     1
290
     1
  0
XRECORD
  5
4914
102
{ACAD_REACTORS
330
4913
102
}
330
4913
100
AcDbXrecord
280
     1
290
     1
  0
XRECORD
  5
4916
102
{ACAD_REACTORS
330
4915
102
}
330
4915
100
AcDbXrecord
280
     1
290
     1
  0
XRECORD
  5
4918
102
{ACAD_REACTORS
330
4917
102
}
330
4917
100
AcDbXrecord
280
     1
290
     1
  0
XRECORD
  5
491A
102
{ACAD_REACTORS
330
4919
102
}
330
4919
100
AcDbXrecord
280
     1
290
     1
  0
XRECORD
  5
491C
102
{ACAD_REACTORS
330
491B
102
}
330
491B
100
AcDbXrecord
280
     1
290
     1
  0
XRECORD
  5
491E
102
{ACAD_REACTORS
330
491D
102
}
330
491D
100
AcDbXrecord
280
     1
290
     1
  0
XRECORD
  5
4920
102
{ACAD_REACTORS
330
491F
102
}
330
491F
100
AcDbXrecord
280
     1
290
     1
  0
XRECORD
  5
4922
102
{ACAD_REACTORS
330
4921
102
}
330
4921
100
AcDbXrecord
280
     1
290
     1
  0
XRECORD
  5
4924
102
{ACAD_REACTORS
330
4923
102
}
330
4923
100
AcDbXrecord
280
     1
290
     1
  0
XRECORD
  5
4926
102
{ACAD_REACTORS
330
4925
102
}
330
4925
100
AcDbXrecord
280
     1
290
     1
  0
SORTENTSTABLE
  5
3064
102
{ACAD_REACTORS
330
82
102
}
330
82
100
AcDbSortentsTable
330
1F
  0
DIMASSOC
  5
4734
102
{ACAD_REACTORS
330
4733
102
}
330
4733
100
AcDbDimAssoc
330
4726
 90
        3
 70
     0
 71
     0
  1
AcDbOsnapPointRef
 72
    13
331
45DE
 73
     0
 91
        0
 40
0.0
 10
0.0
 20
0.0
 30
2.000000000000000E+50
 75
     0
  1
AcDbOsnapPointRef
 72
     1
331
45D9
 73
     0
 91
        0
 40
0.0
 10
0.0
 20
0.0
 30
2.000000000000000E+50
 75
     0
  0
DIMASSOC
  5
4766
102
{ACAD_REACTORS
330
4765
102
}
330
4765
100
AcDbDimAssoc
330
4758
 90
        3
 70
     0
 71
     0
  1
AcDbOsnapPointRef
 72
    13
331
45DD
 73
     0
 91
        0
 40
0.0
 10
0.0
 20
0.0
 30
2.000000000000000E+50
 75
     0
  1
AcDbOsnapPointRef
 72
    13
331
45CC
 73
     0
 91
        0
 40
0.0
 10
0.0
 20
0.0
 30
2.000000000000000E+50
 75
     0
  0
XRECORD
  5
4954
102
{ACAD_REACTORS
330
4953
102
}
330
4953
100
AcDbXrecord
280
     1
102
SHADEPLOT
 70
     0
  0
XRECORD
  5
4944
102
{ACAD_REACTORS
330
4943
102
}
330
4943
100
AcDbXrecord
280
     1
 70
     1
  0
XRECORD
  5
4947
102
{ACAD_REACTORS
330
4943
102
}
330
4943
100
AcDbXrecord
280
     1
340
15
  0
XRECORD
  5
4948
102
{ACAD_REACTORS
330
4943
102
}
330
4943
100
AcDbXrecord
280
     1
340
15
  0
XRECORD
  5
4946
102
{ACAD_REACTORS
330
4943
102
}
330
4943
100
AcDbXrecord
280
     1
340
15
  0
XRECORD
  5
4945
102
{ACAD_REACTORS
330
4943
102
}
330
4943
100
AcDbXrecord
280
     1
1004
1800000001000000000000C0000000000000000000000000
  0
LAYOUT
  5
22
102
{ACAD_XDICTIONARY
360
494A
102
}
102
{ACAD_REACTORS
330
1A
102
}
330
1A
100
AcDbPlotSettings
  1

  2
Adobe PDF
  4
A4
  6

 40
3.174999952316284
 41
3.174999952316284
 42
3.175003051757812
 43
3.17498779296875
 44
209.9098358154297
 45
297.0318298339844
 46
0.0
 47
1.239987738256161
 48
0.0
 49
0.0
140
0.0
141
0.0
142
1.0
143
8.754717175957267
 70
 11956
 72
     1
 73
     1
 74
     1
  7
monochrome_ULVAC.ctb
 75
     0
147
0.1142241353891203
148
-500.1966142622059
149
37.84818170712288
100
AcDbLayout
  1
Model
 70
     1
 71
     0
 10
0.0
 20
0.0
 11
12.0
 21
9.0
 12
0.0
 22
0.0
 32
0.0
 14
0.0
 24
0.0
 34
0.0
 15
0.0
 25
0.0
 35
0.0
146
0.0
 13
0.0
 23
0.0
 33
0.0
 16
1.0
 26
0.0
 36
0.0
 17
0.0
 27
1.0
 37
0.0
 76
     0
330
1F
331
3734
1001
ACAD_PSEXT
1000
Adobe PDF
1000
Adobe PDF Converter
1000
My Documents
1000
Adobe PDF の作成
1070
     0
  0
LAYOUT
  5
1E
102
{ACAD_XDICTIONARY
360
19A8
102
}
102
{ACAD_REACTORS
330
1A
102
}
330
1A
100
AcDbPlotSettings
  1

  2
none_device
  4
Letter_(8.50_x_11.00_Inches)
  6

 40
6.349999904632568
 41
6.349999904632568
 42
6.350006103515625
 43
6.350006103515625
 44
215.8999938964844
 45
279.3999938964844
 46
0.0
 47
0.0
 48
0.0
 49
0.0
140
0.0
141
0.0
142
1.0
143
1.0
 70
   688
 72
     1
 73
     1
 74
     5
  7
monochrome_ULVAC.ctb
 75
    16
147
1.0
148
0.0
149
0.0
100
AcDbLayout
  1
レイアウト1
 70
     1
 71
     1
 10
-6.350006103515625
 20
-6.349999904632568
 11
273.0499877929688
 21
209.5499939918518
 12
0.0
 22
0.0
 32
0.0
 14
1.000000000000000E+20
 24
1.000000000000000E+20
 34
1.000000000000000E+20
 15
-1.000000000000000E+20
 25
-1.000000000000000E+20
 35
-1.000000000000000E+20
146
0.0
 13
0.0
 23
0.0
 33
0.0
 16
1.0
 26
0.0
 36
0.0
 17
0.0
 27
1.0
 37
0.0
 76
     0
330
1B
331
19A2
  0
LAYOUT
  5
26
102
{ACAD_XDICTIONARY
360
494C
102
}
102
{ACAD_REACTORS
330
1A
102
}
330
1A
100
AcDbPlotSettings
  1

  2
none_device
  4
Letter_(8.50_x_11.00_Inches)
  6

 40
6.349999904632568
 41
6.349999904632568
 42
6.350006103515625
 43
6.350006103515625
 44
215.8999938964844
 45
279.3999938964844
 46
0.0
 47
0.0
 48
0.0
 49
0.0
140
0.0
141
0.0
142
1.0
143
1.0
 70
 15024
 72
     1
 73
     1
 74
     5
  7
monochrome_ULVAC.ctb
 75
    16
147
1.0
148
0.0
149
0.0
100
AcDbLayout
  1
レイアウト2
 70
     1
 71
     2
 10
0.0
 20
0.0
 11
12.0
 21
9.0
 12
0.0
 22
0.0
 32
0.0
 14
0.0
 24
0.0
 34
0.0
 15
0.0
 25
0.0
 35
0.0
146
0.0
 13
0.0
 23
0.0
 33
0.0
 16
1.0
 26
0.0
 36
0.0
 17
0.0
 27
1.0
 37
0.0
 76
     0
330
23
  0
MATERIAL
  5
3737
102
{ACAD_XDICTIONARY
360
4957
102
}
102
{ACAD_REACTORS
330
C4
102
}
330
C4
100
AcDbMaterial
  1
ByBlock
 73
     1
 78
     1
172
     1
176
     1
270
     1
274
     1
  0
MATERIAL
  5
3736
102
{ACAD_XDICTIONARY
360
4955
102
}
102
{ACAD_REACTORS
330
C4
102
}
330
C4
100
AcDbMaterial
  1
ByLayer
 73
     1
 78
     1
172
     1
176
     1
270
     1
274
     1
  0
MATERIAL
  5
3738
102
{ACAD_XDICTIONARY
360
4959
102
}
102
{ACAD_REACTORS
330
C4
102
}
330
C4
100
AcDbMaterial
  1
Global
 73
     1
 78
     1
172
     1
176
     1
270
     1
274
     1
  0
MLEADERSTYLE
  5
48D3
102
{ACAD_REACTORS
330
48D2
102
}
330
48D2
100
AcDbMLeaderStyle
170
     2
171
     1
172
     0
 90
        2
 40
0.0
 41
0.0
173
     1
 91
-1056964608
340
14
 92
       -2
290
     1
 42
2.0
291
     1
 43
0.36
  3
Standard
 44
4.0
300

342
11
174
     1
178
     6
175
     1
176
     0
 93
-1056964608
 45
4.0
292
     0
297
     0
 46
4.0
 94
-1056964608
 47
1.0
 49
1.0
140
1.0
293
     1
141
0.0
294
     1
177
     0
142
1.0
295
     0
296
     0
143
0.125
1001
ACAD_MLEADERVER
1070
     2
  0
MLINESTYLE
  5
18
102
{ACAD_REACTORS
330
17
102
}
330
17
100
AcDbMlineStyle
  2
STANDARD
 70
     0
  3

 62
   256
 51
90.0
 52
90.0
 71
     2
 49
0.5
 62
   256
  6
BYLAYER
 49
-0.5
 62
   256
  6
BYLAYER
  0
PLOTSETTINGS
  5
432C
102
{ACAD_XDICTIONARY
360
497B
102
}
102
{ACAD_REACTORS
330
19
102
}
330
19
100
AcDbPlotSettings
  1
A1_フィット
  2
SII LP-2160
  4
User258
  6

 40
5.746749877929687
 41
5.873733520507812
 42
5.873779296875
 43
5.74676513671875
 44
593.97900390625
 45
840.9939575195313
 46
0.0
 47
2.918110934170783
 48
0.0
 49
0.0
140
0.0
141
0.0
142
1.0
143
0.5099951539933571
 70
 11956
 72
     1
 73
     1
 74
     2
  7
monochrome_ULVAC.ctb
 75
     0
147
1.960802945223721
148
0.0
149
0.0
1001
ACAD_PSEXT
1000
SII LP-2160
1000
SII LP-2165 (C2 VR)
1000
IP_192.168.12.27
1000

1070
     0
  0
PLOTSETTINGS
  5
432D
102
{ACAD_XDICTIONARY
360
497D
102
}
102
{ACAD_REACTORS
330
19
102
}
330
19
100
AcDbPlotSettings
  1
A2_フィット
  2
SII LP-2160
  4
User259
  6

 40
5.746749877929687
 41
5.873794555664062
 42
5.873748779296875
 43
5.74676513671875
 44
419.9889831542968
 45
593.97900390625
 46
0.0
 47
2.43382902819701
 48
0.0
 49
0.0
140
0.0
141
0.0
142
1.0
143
0.7272843308801679
 70
 11956
 72
     1
 73
     1
 74
     2
  7
monochrome_ULVAC.ctb
 75
     0
147
1.374978062279698
148
0.0
149
0.0
1001
ACAD_PSEXT
1000
SII LP-2160
1000
SII LP-2165 (C2 VR)
1000
IP_192.168.12.27
1000

1070
     0
  0
PLOTSETTINGS
  5
432E
102
{ACAD_XDICTIONARY
360
497F
102
}
102
{ACAD_REACTORS
330
19
102
}
330
19
100
AcDbPlotSettings
  1
A3_フィット
  2
SII LP-2160
  4
A3
  6

 40
5.746749877929687
 41
5.873733520507812
 42
5.873779296875
 43
5.746734619140625
 44
296.989501953125
 45
419.9889831542968
 46
0.0
 47
2.408216148915926
 48
0.0
 49
0.0
140
0.0
141
0.0
142
1.0
143
1.040757855026919
 70
 11956
 72
     1
 73
     1
 74
     2
  7
monochrome_ULVAC.ctb
 75
     0
147
0.9608382921828965
148
0.0
149
0.0
1001
ACAD_PSEXT
1000
SII LP-2160
1000
SII LP-2165 (C2 VR)
1000
IP_192.168.12.27
1000

1070
     0
  0
PLOTSETTINGS
  5
432F
102
{ACAD_XDICTIONARY
360
4981
102
}
102
{ACAD_REACTORS
330
19
102
}
330
19
100
AcDbPlotSettings
  1
A4_フィット_横
  2
SII LP-2160
  4
A4
  6

 40
5.746749877929687
 41
5.873764038085937
 42
5.873733520507812
 43
5.74676513671875
 44
209.9944915771484
 45
296.989501953125
 46
0.0
 47
2.420036161788772
 48
0.0
 49
0.0
140
0.0
141
0.0
142
1.0
143
1.497171946702004
 70
 11956
 72
     1
 73
     1
 74
     2
  7
monochrome_ULVAC.ctb
 75
     0
147
0.6679259534636733
148
0.0
149
0.0
1001
ACAD_PSEXT
1000
SII LP-2160
1000
SII LP-2165 (C2 VR)
1000
IP_192.168.12.27
1000

1070
     0
  0
PLOTSETTINGS
  5
4330
102
{ACAD_XDICTIONARY
360
4983
102
}
102
{ACAD_REACTORS
330
19
102
}
330
19
100
AcDbPlotSettings
  1
A4_フィット_縦
  2
SII LP-2160
  4
A4
  6

 40
5.746749877929687
 41
5.873764038085937
 42
5.873733520507812
 43
5.74676513671875
 44
209.9944915771484
 45
296.989501953125
 46
0.0
 47
72.54510492597308
 48
0.0
 49
0.0
140
0.0
141
0.0
142
1.0
143
2.117212853922026
 70
 11956
 72
     1
 73
     0
 74
     2
  7
monochrome_ULVAC.ctb
 75
     0
147
0.472319067092169
148
0.0
149
0.0
1001
ACAD_PSEXT
1000
SII LP-2160
1000
SII LP-2165 (C2 VR)
1000
IP_192.168.12.27
1000

1070
     0
  0
ACDBPLACEHOLDER
  5
F
102
{ACAD_REACTORS
330
E
102
}
330
E
  0
SCALE
  5
48C1
102
{ACAD_REACTORS
330
48C0
102
}
330
48C0
100
AcDbScale
 70
     0
300
1:1
140
1.0
141
1.0
290
     1
  0
SCALE
  5
48C2
102
{ACAD_REACTORS
330
48C0
102
}
330
48C0
100
AcDbScale
 70
     0
300
1:2
140
1.0
141
2.0
290
     0
  0
SCALE
  5
48C3
102
{ACAD_REACTORS
330
48C0
102
}
330
48C0
100
AcDbScale
 70
     0
300
1:4
140
1.0
141
4.0
290
     0
  0
SCALE
  5
48C4
102
{ACAD_REACTORS
330
48C0
102
}
330
48C0
100
AcDbScale
 70
     0
300
1:5
140
1.0
141
5.0
290
     0
  0
SCALE
  5
48C5
102
{ACAD_REACTORS
330
48C0
102
}
330
48C0
100
AcDbScale
 70
     0
300
1:8
140
1.0
141
8.0
290
     0
  0
SCALE
  5
48C6
102
{ACAD_REACTORS
330
48C0
102
}
330
48C0
100
AcDbScale
 70
     0
300
1:10
140
1.0
141
10.0
290
     0
  0
SCALE
  5
48C7
102
{ACAD_REACTORS
330
48C0
102
}
330
48C0
100
AcDbScale
 70
     0
300
1:16
140
1.0
141
16.0
290
     0
  0
SCALE
  5
48C8
102
{ACAD_REACTORS
330
48C0
102
}
330
48C0
100
AcDbScale
 70
     0
300
1:20
140
1.0
141
20.0
290
     0
  0
SCALE
  5
48C9
102
{ACAD_REACTORS
330
48C0
102
}
330
48C0
100
AcDbScale
 70
     0
300
1:30
140
1.0
141
30.0
290
     0
  0
SCALE
  5
48CA
102
{ACAD_REACTORS
330
48C0
102
}
330
48C0
100
AcDbScale
 70
     0
300
1:40
140
1.0
141
40.0
290
     0
  0
SCALE
  5
48CB
102
{ACAD_REACTORS
330
48C0
102
}
330
48C0
100
AcDbScale
 70
     0
300
1:50
140
1.0
141
50.0
290
     0
  0
SCALE
  5
48CC
102
{ACAD_REACTORS
330
48C0
102
}
330
48C0
100
AcDbScale
 70
     0
300
1:100
140
1.0
141
100.0
290
     0
  0
SCALE
  5
48CD
102
{ACAD_REACTORS
330
48C0
102
}
330
48C0
100
AcDbScale
 70
     0
300
2:1
140
2.0
141
1.0
290
     0
  0
SCALE
  5
48CE
102
{ACAD_REACTORS
330
48C0
102
}
330
48C0
100
AcDbScale
 70
     0
300
4:1
140
4.0
141
1.0
290
     0
  0
SCALE
  5
48CF
102
{ACAD_REACTORS
330
48C0
102
}
330
48C0
100
AcDbScale
 70
     0
300
8:1
140
8.0
141
1.0
290
     0
  0
SCALE
  5
48D0
102
{ACAD_REACTORS
330
48C0
102
}
330
48C0
100
AcDbScale
 70
     0
300
10:1
140
10.0
141
1.0
290
     0
  0
SCALE
  5
48D1
102
{ACAD_REACTORS
330
48C0
102
}
330
48C0
100
AcDbScale
 70
     0
300
100:1
140
100.0
141
1.0
290
     0
  0
TABLESTYLE
  5
122
102
{ACAD_XDICTIONARY
360
493F
102
}
102
{ACAD_REACTORS
330
121
102
}
330
121
100
AcDbTableStyle
  3
Standard
 70
     0
 71
     0
 40
1.5
 41
1.5
280
     0
281
     0
  7
STANDARD
140
4.5
170
     2
 62
     0
 63
     7
283
     0
274
    -2
284
     1
 64
     0
275
    -2
285
     1
 65
     0
276
    -2
286
     1
 66
     0
277
    -2
287
     1
 67
     0
278
    -2
288
     1
 68
     0
279
    -2
289
     1
 69
     0
  7
STANDARD
140
6.0
170
     5
 62
     0
 63
     7
283
     0
274
    -2
284
     1
 64
     0
275
    -2
285
     1
 65
     0
276
    -2
286
     1
 66
     0
277
    -2
287
     1
 67
     0
278
    -2
288
     1
 68
     0
279
    -2
289
     1
 69
     0
  7
STANDARD
140
4.5
170
     5
 62
     0
 63
     7
283
     0
274
    -2
284
     1
 64
     0
275
    -2
285
     1
 65
     0
276
    -2
286
     1
 66
     0
277
    -2
287
     1
 67
     0
278
    -2
288
     1
 68
     0
279
    -2
289
     1
 69
     0
  0
VISUALSTYLE
  5
373F
102
{ACAD_XDICTIONARY
360
4965
102
}
102
{ACAD_REACTORS
330
3739
102
}
330
3739
100
AcDbVisualStyle
  2
2dWireframe
 70
     4
 71
     0
 72
     2
 73
     0
 90
        0
 40
-0.6
 41
-30.0
 62
     5
 63
     7
 74
     1
 91
        4
 64
     7
 65
   257
 75
     1
175
     1
 42
1.0
 92
        0
 66
   257
 43
1.0
 76
     1
 77
     6
 78
     2
 67
     7
 79
     5
170
     0
171
     0
290
     0
174
     0
 93
        1
 44
0.0
173
     0
291
     0
 45
0.0
1001
ACAD
1000
AcDbSavedByObjectVersion
1070
     0
  0
VISUALSTYLE
  5
3741
102
{ACAD_XDICTIONARY
360
4969
102
}
102
{ACAD_REACTORS
330
3739
102
}
330
3739
100
AcDbVisualStyle
  2
3D Hidden
 70
     6
 71
     1
 72
     2
 73
     2
 90
        0
 40
-0.6
 41
-30.0
 62
     5
 63
     7
 74
     2
 91
        2
 64
     7
 65
   257
 75
     2
175
     1
 42
40.0
 92
        0
 66
   257
 43
1.0
 76
     1
 77
     6
 78
     2
 67
     7
 79
     3
170
     0
171
     0
290
     0
174
     0
 93
        1
 44
0.0
173
     0
291
     0
 45
0.0
1001
ACAD
1000
AcDbSavedByObjectVersion
1070
     0
  0
VISUALSTYLE
  5
3740
102
{ACAD_XDICTIONARY
360
4967
102
}
102
{ACAD_REACTORS
330
3739
102
}
330
3739
100
AcDbVisualStyle
  2
3dWireframe
 70
     5
 71
     0
 72
     2
 73
     0
 90
        0
 40
-0.6
 41
-30.0
 62
     5
 63
     7
 74
     1
 91
        4
 64
     7
 65
   257
 75
     1
175
     1
 42
1.0
 92
        0
 66
   257
 43
1.0
 76
     1
 77
     6
 78
     2
 67
     7
 79
     5
170
     0
171
     0
290
     0
174
     0
 93
        1
 44
0.0
173
     0
291
     0
 45
0.0
1001
ACAD
1000
AcDbSavedByObjectVersion
1070
     0
  0
VISUALSTYLE
  5
373E
102
{ACAD_XDICTIONARY
360
4963
102
}
102
{ACAD_REACTORS
330
3739
102
}
330
3739
100
AcDbVisualStyle
  2
Basic
 70
     7
 71
     1
 72
     0
 73
     1
 90
        0
 40
-0.6
 41
-30.0
 62
     5
 63
     7
 74
     0
 91
        4
 64
     7
 65
   257
 75
     1
175
     1
 42
1.0
 92
        8
 66
     7
 43
1.0
 76
     1
 77
     6
 78
     2
 67
     7
 79
     5
170
     0
171
     0
290
     0
174
     0
 93
        1
 44
0.0
173
     0
291
     1
 45
0.0
1001
ACAD
1000
AcDbSavedByObjectVersion
1070
     0
  0
VISUALSTYLE
  5
3745
102
{ACAD_XDICTIONARY
360
4971
102
}
102
{ACAD_REACTORS
330
3739
102
}
330
3739
100
AcDbVisualStyle
  2
Brighten
 70
    12
 71
     2
 72
     2
 73
     0
 90
        0
 40
-0.6
 41
-30.0
 62
     5
 63
     7
 74
     1
 91
        4
 64
     7
 65
   257
 75
     1
175
     1
 42
1.0
 92
        8
 66
     7
 43
1.0
 76
     1
 77
     6
 78
     2
 67
     7
 79
     5
170
     0
171
     0
290
     0
174
     0
 93
        1
 44
50.0
173
     0
291
     1
 45
0.0
1001
ACAD
1000
AcDbSavedByObjectVersion
1070
     0
  0
VISUALSTYLE
  5
3749
102
{ACAD_XDICTIONARY
360
4979
102
}
102
{ACAD_REACTORS
330
3739
102
}
330
3739
100
AcDbVisualStyle
  2
ColorChange
 70
    16
 71
     2
 72
     2
 73
     3
 90
        0
 40
-0.6
 41
-30.0
 62
     5
 63
     8
 74
     1
 91
        4
 64
     7
 65
   257
 75
     1
175
     1
 42
1.0
 92
        8
 66
     8
 43
1.0
 76
     1
 77
     6
 78
     2
 67
     7
 79
     5
170
     0
171
     0
290
     0
174
     0
 93
        1
 44
0.0
173
     0
291
     1
 45
0.0
1001
ACAD
1000
AcDbSavedByObjectVersion
1070
     0
  0
VISUALSTYLE
  5
3742
102
{ACAD_XDICTIONARY
360
496B
102
}
102
{ACAD_REACTORS
330
3739
102
}
330
3739
100
AcDbVisualStyle
  2
Conceptual
 70
     9
 71
     3
 72
     2
 73
     0
 90
        0
 40
-0.6
 41
-30.0
 62
     5
 63
     7
 74
     2
 91
        2
 64
     7
 65
   257
 75
     1
175
     1
 42
40.0
 92
        8
 66
     7
 43
1.0
 76
     1
 77
     6
 78
     2
 67
     7
 79
     3
170
     0
171
     0
290
     0
174
     0
 93
        1
 44
0.0
173
     0
291
     0
 45
0.0
1001
ACAD
1000
AcDbSavedByObjectVersion
1070
     0
  0
VISUALSTYLE
  5
3744
102
{ACAD_XDICTIONARY
360
496F
102
}
102
{ACAD_REACTORS
330
3739
102
}
330
3739
100
AcDbVisualStyle
  2
Dim
 70
    11
 71
     2
 72
     2
 73
     0
 90
        0
 40
-0.6
 41
-30.0
 62
     5
 63
     7
 74
     1
 91
        4
 64
     7
 65
   257
 75
     1
175
     1
 42
1.0
 92
        8
 66
     7
 43
1.0
 76
     1
 77
     6
 78
     2
 67
     7
 79
     5
170
     0
171
     0
290
     0
174
     0
 93
        1
 44
-50.0
173
     0
291
     1
 45
0.0
1001
ACAD
1000
AcDbSavedByObjectVersion
1070
     0
  0
VISUALSTYLE
  5
48BF
102
{ACAD_XDICTIONARY
360
4989
102
}
102
{ACAD_REACTORS
330
3739
102
}
330
3739
100
AcDbVisualStyle
  2
EdgeColorOff
 70
    22
 71
     2
 72
     2
 73
     0
 90
        0
 40
-0.6
 41
-30.0
 62
     5
 63
     7
 74
     1
 91
        4
 64
     7
 65
   257
 75
     1
175
     1
 42
1.0
 92
        8
 66
     7
 43
1.0
 76
     1
 77
     6
 78
     2
 67
     7
 79
     5
170
     0
171
     0
290
     0
174
     0
 93
        1
 44
0.0
173
     0
291
     1
 45
0.0
1001
ACAD
1000
AcDbSavedByObjectVersion
1070
     0
  0
VISUALSTYLE
  5
3748
102
{ACAD_XDICTIONARY
360
4977
102
}
102
{ACAD_REACTORS
330
3739
102
}
330
3739
100
AcDbVisualStyle
  2
Facepattern
 70
    15
 71
     2
 72
     2
 73
     0
 90
        0
 40
-0.6
 41
-30.0
 62
     5
 63
     7
 74
     1
 91
        4
 64
     7
 65
   257
 75
     1
175
     1
 42
1.0
 92
        8
 66
     7
 43
1.0
 76
     1
 77
     6
 78
     2
 67
     7
 79
     5
170
     0
171
     0
290
     0
174
     0
 93
        1
 44
0.0
173
     0
291
     1
 45
0.0
1001
ACAD
1000
AcDbSavedByObjectVersion
1070
     0
  0
VISUALSTYLE
  5
373A
102
{ACAD_XDICTIONARY
360
495B
102
}
102
{ACAD_REACTORS
330
3739
102
}
330
3739
100
AcDbVisualStyle
  2
Flat
 70
     0
 71
     2
 72
     1
 73
     1
 90
        2
 40
-0.6
 41
30.0
 62
     5
 63
     7
 74
     0
 91
        4
 64
     7
 65
   257
 75
     1
175
     1
 42
1.0
 92
        8
 66
     7
 43
1.0
 76
     1
 77
     6
 78
     2
 67
     7
 79
     5
170
     0
171
     0
290
     0
174
     0
 93
       13
 44
0.0
173
     0
291
     1
 45
0.0
1001
ACAD
1000
AcDbSavedByObjectVersion
1070
     0
  0
VISUALSTYLE
  5
373B
102
{ACAD_XDICTIONARY
360
495D
102
}
102
{ACAD_REACTORS
330
3739
102
}
330
3739
100
AcDbVisualStyle
  2
FlatWithEdges
 70
     1
 71
     2
 72
     1
 73
     1
 90
        2
 40
-0.6
 41
30.0
 62
     5
 63
     7
 74
     1
 91
        4
 64
     7
 65
   257
 75
     1
175
     1
 42
1.0
 92
        0
 66
   257
 43
1.0
 76
     1
 77
     6
 78
     2
 67
     7
 79
     5
170
     0
171
     0
290
     0
174
     0
 93
       13
 44
0.0
173
     0
291
     1
 45
0.0
1001
ACAD
1000
AcDbSavedByObjectVersion
1070
     0
  0
VISUALSTYLE
  5
373C
102
{ACAD_XDICTIONARY
360
495F
102
}
102
{ACAD_REACTORS
330
3739
102
}
330
3739
100
AcDbVisualStyle
  2
Gouraud
 70
     2
 71
     2
 72
     2
 73
     1
 90
        2
 40
-0.6
 41
30.0
 62
     5
 63
     7
 74
     0
 91
        4
 64
     7
 65
   257
 75
     1
175
     1
 42
1.0
 92
        0
 66
     7
 43
1.0
 76
     1
 77
     6
 78
     2
 67
     7
 79
     5
170
     0
171
     0
290
     0
174
     0
 93
       13
 44
0.0
173
     0
291
     1
 45
0.0
1001
ACAD
1000
AcDbSavedByObjectVersion
1070
     0
  0
VISUALSTYLE
  5
373D
102
{ACAD_XDICTIONARY
360
4961
102
}
102
{ACAD_REACTORS
330
3739
102
}
330
3739
100
AcDbVisualStyle
  2
GouraudWithEdges
 70
     3
 71
     2
 72
     2
 73
     1
 90
        2
 40
-0.6
 41
30.0
 62
     5
 63
     7
 74
     1
 91
        4
 64
     7
 65
   257
 75
     1
175
     1
 42
1.0
 92
        0
 66
   257
 43
1.0
 76
     1
 77
     6
 78
     2
 67
     7
 79
     5
170
     0
171
     0
290
     0
174
     0
 93
       13
 44
0.0
173
     0
291
     1
 45
0.0
1001
ACAD
1000
AcDbSavedByObjectVersion
1070
     0
  0
VISUALSTYLE
  5
48BD
102
{ACAD_XDICTIONARY
360
4985
102
}
102
{ACAD_REACTORS
330
3739
102
}
330
3739
100
AcDbVisualStyle
  2
JitterOff
 70
    20
 71
     2
 72
     2
 73
     0
 90
        0
 40
-0.6
 41
-30.0
 62
     5
 63
     7
 74
     1
 91
        4
 64
     7
 65
   257
 75
     1
175
     1
 42
1.0
 92
       10
 66
     7
 43
1.0
 76
     1
 77
     6
 78
     2
 67
     7
 79
     5
170
     0
171
     0
290
     0
174
     0
 93
        1
 44
0.0
173
     0
291
     1
 45
0.0
1001
ACAD
1000
AcDbSavedByObjectVersion
1070
     0
  0
VISUALSTYLE
  5
3747
102
{ACAD_XDICTIONARY
360
4975
102
}
102
{ACAD_REACTORS
330
3739
102
}
330
3739
100
AcDbVisualStyle
  2
Linepattern
 70
    14
 71
     2
 72
     2
 73
     0
 90
        0
 40
-0.6
 41
-30.0
 62
     5
 63
     7
 74
     1
 91
        4
 64
     7
 65
   257
 75
     7
175
     7
 42
1.0
 92
        8
 66
     7
 43
1.0
 76
     1
 77
     6
 78
     2
 67
     7
 79
     5
170
     0
171
     0
290
     0
174
     0
 93
        1
 44
0.0
173
     0
291
     1
 45
0.0
1001
ACAD
1000
AcDbSavedByObjectVersion
1070
     0
  0
VISUALSTYLE
  5
48BE
102
{ACAD_XDICTIONARY
360
4987
102
}
102
{ACAD_REACTORS
330
3739
102
}
330
3739
100
AcDbVisualStyle
  2
OverhangOff
 70
    21
 71
     2
 72
     2
 73
     0
 90
        0
 40
-0.6
 41
-30.0
 62
     5
 63
     7
 74
     1
 91
        4
 64
     7
 65
   257
 75
     1
175
     1
 42
1.0
 92
        9
 66
     7
 43
1.0
 76
     1
 77
     6
 78
     2
 67
     7
 79
     5
170
     0
171
     0
290
     0
174
     0
 93
        1
 44
0.0
173
     0
291
     1
 45
0.0
1001
ACAD
1000
AcDbSavedByObjectVersion
1070
     0
  0
VISUALSTYLE
  5
3743
102
{ACAD_XDICTIONARY
360
496D
102
}
102
{ACAD_REACTORS
330
3739
102
}
330
3739
100
AcDbVisualStyle
  2
Realistic
 70
     8
 71
     2
 72
     2
 73
     0
 90
        0
 40
-0.6
 41
-30.0
 62
     5
 63
     7
 74
     1
 91
        0
 64
     7
 65
   257
 75
     1
175
     1
 42
1.0
 92
        8
 66
     8
 43
1.0
 76
     1
 77
     6
 78
     2
 67
     7
 79
     5
170
     0
171
     0
290
     0
174
     0
 93
       13
 44
0.0
173
     0
291
     0
 45
0.0
1001
ACAD
1000
AcDbSavedByObjectVersion
1070
     0
  0
VISUALSTYLE
  5
3746
102
{ACAD_XDICTIONARY
360
4973
102
}
102
{ACAD_REACTORS
330
3739
102
}
330
3739
100
AcDbVisualStyle
  2
Thicken
 70
    13
 71
     2
 72
     2
 73
     0
 90
        0
 40
-0.6
 41
-30.0
 62
     5
 63
     7
 74
     1
 91
        4
 64
     7
 65
   257
 75
     1
175
     1
 42
1.0
 92
       12
 66
     7
 43
1.0
 76
     1
 77
     6
 78
     2
 67
     7
 79
     5
170
     0
171
     0
290
     0
174
     0
 93
        1
 44
0.0
173
     0
291
     1
 45
0.0
1001
ACAD
1000
AcDbSavedByObjectVersion
1070
     0
  0
DICTIONARYVAR
  5
493C
102
{ACAD_REACTORS
330
34
102
}
330
34
100
DictionaryVariables
280
     0
  1
1:1
  0
DICTIONARYVAR
  5
493B
102
{ACAD_REACTORS
330
34
102
}
330
34
100
DictionaryVariables
280
     0
  1
STANDARD
  0
DICTIONARYVAR
  5
140
102
{ACAD_REACTORS
330
34
102
}
330
34
100
DictionaryVariables
280
     0
  1
STANDARD
  0
DICTIONARYVAR
  5
AC
102
{ACAD_REACTORS
330
34
102
}
330
34
100
DictionaryVariables
280
     0
  1
2
  0
DICTIONARYVAR
  5
35
102
{ACAD_REACTORS
330
34
102
}
330
34
100
DictionaryVariables
280
     0
  1
0
  0
DICTIONARYVAR
  5
493D
102
{ACAD_REACTORS
330
34
102
}
330
34
100
DictionaryVariables
280
     0
  1
127
  0
DICTIONARYVAR
  5
493E
102
{ACAD_REACTORS
330
34
102
}
330
34
100
DictionaryVariables
280
     0
  1
0
  0
DICTIONARY
  5
1C1
102
{ACAD_REACTORS
330
49
102
}
330
49
100
AcDbDictionary
281
     1
  0
DICTIONARY
  5
4A
102
{ACAD_REACTORS
330
49
102
}
330
49
100
AcDbDictionary
281
     1
  0
XRECORD
  5
12B
102
{ACAD_REACTORS
330
49
102
}
330
49
100
AcDbXrecord
280
     1
 90
-1023410169
  0
XRECORD
  5
3711
102
{ACAD_REACTORS
330
3710
102
}
330
3710
100
AcDbXrecord
280
     1
  0
DICTIONARY
  5
494A
330
22
100
AcDbDictionary
280
     1
281
     1
  3
ACAD_XREC_ROUNDTRIP
360
494B
  0
DICTIONARY
  5
19A8
330
1E
100
AcDbDictionary
280
     1
281
     1
  3
ACAD_XREC_ROUNDTRIP
360
4949
  3
ADSK_XREC_LAYOUTTHUMBNAIL
360
19A9
  0
DICTIONARY
  5
494C
330
26
100
AcDbDictionary
280
     1
281
     1
  3
ACAD_XREC_ROUNDTRIP
360
494D
  0
DICTIONARY
  5
4957
330
3737
100
AcDbDictionary
280
     1
281
     1
  3
ACAD_XREC_ROUNDTRIP
360
4958
  0
DICTIONARY
  5
4955
330
3736
100
AcDbDictionary
280
     1
281
     1
  3
ACAD_XREC_ROUNDTRIP
360
4956
  0
DICTIONARY
  5
4959
330
3738
100
AcDbDictionary
280
     1
281
     1
  3
ACAD_XREC_ROUNDTRIP
360
495A
  0
DICTIONARY
  5
497B
330
432C
100
AcDbDictionary
280
     1
281
     1
  3
ACAD_XREC_ROUNDTRIP
360
497C
  0
DICTIONARY
  5
497D
330
432D
100
AcDbDictionary
280
     1
281
     1
  3
ACAD_XREC_ROUNDTRIP
360
497E
  0
DICTIONARY
  5
497F
330
432E
100
AcDbDictionary
280
     1
281
     1
  3
ACAD_XREC_ROUNDTRIP
360
4980
  0
DICTIONARY
  5
4981
330
432F
100
AcDbDictionary
280
     1
281
     1
  3
ACAD_XREC_ROUNDTRIP
360
4982
  0
DICTIONARY
  5
4983
330
4330
100
AcDbDictionary
280
     1
281
     1
  3
ACAD_XREC_ROUNDTRIP
360
4984
  0
DICTIONARY
  5
493F
330
122
100
AcDbDictionary
280
     1
281
     1
  3
ACAD_ROUNDTRIP_2008_TABLESTYLE_CELLSTYLEMAP
360
4940
  3
ACAD_XREC_ROUNDTRIP
360
494E
  0
DICTIONARY
  5
4965
330
373F
100
AcDbDictionary
280
     1
281
     1
  3
ACAD_XREC_ROUNDTRIP
360
4966
  0
DICTIONARY
  5
4969
330
3741
100
AcDbDictionary
280
     1
281
     1
  3
ACAD_XREC_ROUNDTRIP
360
496A
  0
DICTIONARY
  5
4967
330
3740
100
AcDbDictionary
280
     1
281
     1
  3
ACAD_XREC_ROUNDTRIP
360
4968
  0
DICTIONARY
  5
4963
330
373E
100
AcDbDictionary
280
     1
281
     1
  3
ACAD_XREC_ROUNDTRIP
360
4964
  0
DICTIONARY
  5
4971
330
3745
100
AcDbDictionary
280
     1
281
     1
  3
ACAD_XREC_ROUNDTRIP
360
4972
  0
DICTIONARY
  5
4979
330
3749
100
AcDbDictionary
280
     1
281
     1
  3
ACAD_XREC_ROUNDTRIP
360
497A
  0
DICTIONARY
  5
496B
330
3742
100
AcDbDictionary
280
     1
281
     1
  3
ACAD_XREC_ROUNDTRIP
360
496C
  0
DICTIONARY
  5
496F
330
3744
100
AcDbDictionary
280
     1
281
     1
  3
ACAD_XREC_ROUNDTRIP
360
4970
  0
DICTIONARY
  5
4989
330
48BF
100
AcDbDictionary
280
     1
281
     1
  3
ACAD_XREC_ROUNDTRIP
360
498A
  0
DICTIONARY
  5
4977
330
3748
100
AcDbDictionary
280
     1
281
     1
  3
ACAD_XREC_ROUNDTRIP
360
4978
  0
DICTIONARY
  5
495B
330
373A
100
AcDbDictionary
280
     1
281
     1
  3
ACAD_XREC_ROUNDTRIP
360
495C
  0
DICTIONARY
  5
495D
330
373B
100
AcDbDictionary
280
     1
281
     1
  3
ACAD_XREC_ROUNDTRIP
360
495E
  0
DICTIONARY
  5
495F
330
373C
100
AcDbDictionary
280
     1
281
     1
  3
ACAD_XREC_ROUNDTRIP
360
4960
  0
DICTIONARY
  5
4961
330
373D
100
AcDbDictionary
280
     1
281
     1
  3
ACAD_XREC_ROUNDTRIP
360
4962
  0
DICTIONARY
  5
4985
330
48BD
100
AcDbDictionary
280
     1
281
     1
  3
ACAD_XREC_ROUNDTRIP
360
4986
  0
DICTIONARY
  5
4975
330
3747
100
AcDbDictionary
280
     1
281
     1
  3
ACAD_XREC_ROUNDTRIP
360
4976
  0
DICTIONARY
  5
4987
330
48BE
100
AcDbDictionary
280
     1
281
     1
  3
ACAD_XREC_ROUNDTRIP
360
4988
  0
DICTIONARY
  5
496D
330
3743
100
AcDbDictionary
280
     1
281
     1
  3
ACAD_XREC_ROUNDTRIP
360
496E
  0
DICTIONARY
  5
4973
330
3746
100
AcDbDictionary
280
     1
281
     1
  3
ACAD_XREC_ROUNDTRIP
360
4974
  0
XRECORD
  5
494B
102
{ACAD_REACTORS
330
494A
102
}
330
494A
100
AcDbXrecord
280
     1
102
SHADEPLOT
 70
     0
102
SHADEPLOTRESLEVEL
 70
     2
102
SHADEPLOTCUSTOMDPI
 70
   300
  0
XRECORD
  5
4949
102
{ACAD_REACTORS
330
19A8
102
}
330
19A8
100
AcDbXrecord
280
     1
102
SHADEPLOT
 70
     0
102
SHADEPLOTRESLEVEL
 70
     2
102
SHADEPLOTCUSTOMDPI
 70
   300
  0
XRECORD
  5
19A9
102
{ACAD_REACTORS
330
19A8
102
}
330
19A8
100
AcDbXrecord
280
     1
310
28000000B40000008B0000000100080000000000BC61000000000000000000000001000000000000FFFFFF0000000000FFFFFF000000000000000000000000000000000000000000000000000000000000000000330000006600000099000000CC000000FF00000000330000333300006633000099330000CC330000FF3300
310
0000660000336600006666000099660000CC660000FF66000000990000339900006699000099990000CC990000FF99000000CC000033CC000066CC000099CC0000CCCC0000FFCC000000FF000033FF000066FF000099FF0000CCFF0000FFFF000000003300330033006600330099003300CC003300FF003300003333003333
310
33006633330099333300CC333300FF33330000663300336633006666330099663300CC663300FF66330000993300339933006699330099993300CC993300FF99330000CC330033CC330066CC330099CC3300CCCC3300FFCC330000FF330033FF330066FF330099FF3300CCFF3300FFFF330000006600330066006600660099
310
006600CC006600FF00660000336600333366006633660099336600CC336600FF33660000666600336666006666660099666600CC666600FF66660000996600339966006699660099996600CC996600FF99660000CC660033CC660066CC660099CC6600CCCC6600FFCC660000FF660033FF660066FF660099FF6600CCFF6600
310
FFFF660000009900330099006600990099009900CC009900FF00990000339900333399006633990099339900CC339900FF33990000669900336699006666990099669900CC669900FF66990000999900339999006699990099999900CC999900FF99990000CC990033CC990066CC990099CC9900CCCC9900FFCC990000FF99
310
0033FF990066FF990099FF9900CCFF9900FFFF99000000CC003300CC006600CC009900CC00CC00CC00FF00CC000033CC003333CC006633CC009933CC00CC33CC00FF33CC000066CC003366CC006666CC009966CC00CC66CC00FF66CC000099CC003399CC006699CC009999CC00CC99CC00FF99CC0000CCCC0033CCCC0066CC
310
CC0099CCCC00CCCCCC00FFCCCC0000FFCC0033FFCC0066FFCC0099FFCC00CCFFCC00FFFFCC000000FF003300FF006600FF009900FF00CC00FF00FF00FF000033FF003333FF006633FF009933FF00CC33FF00FF33FF000066FF003366FF006666FF009966FF00CC66FF00FF66FF000099FF003399FF006699FF009999FF00CC
310
99FF00FF99FF0000CCFF0033CCFF0066CCFF0099CCFF00CCCCFF00FFCCFF0000FFFF0033FFFF0066FFFF0099FFFF00CCFFFF00FFFFFF00000000000D0D0D001A1A1A00282828003535350043434300505050005D5D5D006B6B6B00787878008686860093939300A1A1A100AEAEAE00BBBBBB00C9C9C900D6D6D600E4E4E400
310
F1F1F100FFFFFF0000000000000000000000000000000000000000000000000000000000000000000000000000000000E2E2E2E2E2E2E2E2E2E2E2E2E2E2E2E2E2E2E2E2E2E2E2E2E2E2E2E2E2E2E2E2E2E2E2E2E2E2E2E2E2E2E2E2E2E2E2E2E2E2E2E2E2E2E2E2E2E2E2E2E2E2E2E2E2E2E2E2E2E2E2E2E2E2E2E2E2E2E2
310
E2E2E2E2E2E2E2E2E2E2E2E2E2E2E2E2E2E2E2E2E2E2E2E2E2E2E2E2E2E2E2E2E2E2E2E2E2E2E2E2E2E2E2E2E2E2E2E2E2E2E2E2E2E2E2E2E2E2E2E2E2E2E2E2E2E2E2E2E2E2E2E2E2E2E2E2E2E2E2E2E2E2E2E2E2E2E2E2E2E2E2E2E2E2E2E2E2E2E2E2E2E2F5F5F5F5F5F5F5F5F5F5F5F5F5F5F5F5F5F5F5F5F5F5F5F5F5
310
F5F5F5F5F5F5F5F5F5F5F5F5F5F5F5F5F5F5F5F5F5F5F5F5F5F5F5F5F5F5F5F5F5F5F5F5F5F5F5F5F5F5F5F5F5F5F5F5F5F5F5F5F5F5F5F5F5F5F5F5F5F5F5F5F5F5F5F5F5F5F5F5F5F5F5F5F5F5F5F5F5F5F5F5F5F5F5F5F5F5F5F5F5F5F5F5F5F5F5F5F5F5F5F5F5F5F5F5F5F5F5F5F5F5F5F5F5F5F5F5F5F5F5F5F5F5F5
310
F5F5F5F5F5F5F5F5F5F5F5F5F5F5F5F5F5F5F5F5F5F5F5F5F5E2E2E2F5F5F5F5F5F5F5F5F5F5F5F5F5F5F5F5F5F5F5F5F5F5F5F5F5F5F5F5F5F5F5F5F5F5F5F5F5F5F5F5F5F5F5F5F5F5F5F5F5F5F5F5F5F5F5F5F5F5F5F5F5F5F5F5F5F5F5F5F5F5F5F5F5F5F5F5F5F5F5F5F5F5F5F5F5F5F5F5F5F5F5F5F5F5F5F5F5F5F5
310
F5F5F5F5F5F5F5F5F5F5F5F5F5F5F5F5F5F5F5F5F5F5F5F5F5F5F5F5F5F5F5F5F5F5F5F5F5F5F5F5F5F5F5F5F5F5F5F5F5F5F5F5F5F5F5F5F5F5F5F5F5F5F5F5F5F5F5F5F5F5F5F5F5F5F5F5F5F5E2E2E2F5F5F5F5F5F5F5F5F5F5F5F5F5F5F5F5F5F5F5F5F5F5F5F5F5F5F5F5F5F5F5F5F5F5F5F5F5F5F5F5F5F5F5F5F5F5
310
F5F5F5F5F5F5F5F5F5F5F5F5F5F5F5F5F5F5F5F5F5F5F5F5F5F5F5F5F5F5F5F5F5F5F5F5F5F5F5F5F5F5F5F5F5F5F5F5F5F5F5F5F5F5F5F5F5F5F5F5F5F5F5F5F5F5F5F5F5F5F5F5F5F5F5F5F5F5F5F5F5F5F5F5F5F5F5F5F5F5F5F5F5F5F5F5F5F5F5F5F5F5F5F5F5F5F5F5F5F5F5F5F5F5F5F5F5F5F5F5F5F5F5F5F5F5F5
310
F5F5F5F5E2E2E2F5F5F5F5F5F5F5F5F5F5F5F5F5F5F5F5F5F5F5F5F5F5F5F5F5F5F5F5F5F5F5F5F5F5F5F5F5F5F5F5F5F5F5F5F5F5F5F5F5F5F5F5F5F5F5F5F5F5F5F5F5F5F5F5F5F5F5F5F5F5F5F5F5F5F5F5F5F5F5F5F5F5F5F5F5F5F5F5F5F5F5F5F5F5F5F5F5F5F5F5F5F5F5F5F5F5F5F5F5F5F5F5F5F5F5F5F5F5F5F5
310
F5F5F5F5F5F5F5F5F5F5F5F5F5F5F5F5F5F5F5F5F5F5F5F5F5F5F5F5F5F5F5F5F5F5F5F5F5F5F5F5F5F5F5F5F5F5F5F5F5F5F5F5F5F5F5F5F5E2E2E2F5F5F5E2E2E2E2E2E2E2E2F5F5F5F5F5F5F5F5F5E2E2E2E2E2E2E2E2E2E2E2E2E2E2E2E2F5F5F5F5F5F5F5F5E2E2E2E2E2E2E2E2E2E2E2E2E2E2E2E2F5F5F5F5F5F5F5
310
F5F5E2E2E2E2E2E2E2E2E2E2E2E2E2E2E2F5F5F5F5F5F5F5F5F5E2E2E2E2E2E2E2E2E2E2E2E2E2E2E2F5F5F5F5F5F5F5F5F5E2E2E2E2E2E2E2E2E2E2E2E2E2E2E2E2F5F5F5F5F5F5F5F5E2E2E2E2E2E2E2E2E2E2E2E2E2E2E2E2F5F5F5F5F5F5F5F5F5E2E2E2E2E2E2E2E2F5F5F5E2E2E2F5F5F5E2F5F5F5F5F5F5F5F5F5F5
310
F5F5F5F5F5F5F5F5F5F5F5F5F5F5F5F5F5F5F5F5F5F5F5F5F5F5F5F5F5F5F5F5F5F5F5F5F5F5F5F5F5F5F5F5F5F5F5F5F5F5F5F5F5F5F5F5F5F5F5F5F5F5F5F5F5F5F5F5F5F5F5F5F5F5F5F5F5F5F5F5F5F5F5F5F5F5F5F5F5F5F5F5F5F5F5F5F5F5F5F5F5F5F5F5F5F5F5F5F5F5F5F5F5F5F5F5F5F5F5F5F5F5F5F5F5F5F5
310
F5F5F5F5F5F5F5F5F5F5F5F5F5F5F5F5F5F5F5F5F5F5F5F5F5F5F5F5F5F5F5F5E2F5F5F5E2E2E2F5F5F5E2F5F5F5F5F5F5F5F5F5F5F5F5F5F5F5F5F5F5F5F5F5F5F5F5F5F5F5F5F5F5F5F5F5F5F5F5F5F5F5F5F5F5F5F5F5F5F5F5F5F5F5F5F5F5F5F5F5F5F5F5F5F5F5F5F5F5F5F5F5F5F5F5F5F5F5F5F5F5F5F5F5F5F5F5
310
F5F5F5F5F5F5F5F5F5F5F5F5F5F5F5F5F5F5F5F5F5F5F5F5F5F5F5F5F5F5F5F5F5F5F5F5F5F5F5F5F5F5F5F5F5F5F5F5F5F5F5F5F5F5F5F5F5F5F5F5F5F5F5F5F5F5F5F5F5F5F5F5F5F5F5F5F5F5F5F5F5F5F5F5F5E2F5F5F5E2E2E2F5F5F5E2F5F5F5F5F5F5F5F5F5F5F5F5F5F5F5F5F5F5F5F5F5F5F5F5F5F5F5F5F5F5F5
310
F5F5F5F5F5F5F5F5F5F5F5F5F5F5F5F5F5F5F5F5F5F5F5F5F5F5F5F5F5F5F5F5F5F5F5F5F5F5F5F5F5F5F5F5F5F5F5F5F5F5F5F5F5F5F5F5F5F5F5F5F5F5F5F5F5F5F5F5F5F5F5F5F5F5F5F5F5F5F5F5F5F5F5F5F5F5F5F5F5F5F5F5F5F5F5F5F5F5F5F5F5F5F5F5F5F5F5F5F5F5F5F5F5F5F5F5F5F5F5F5F5F5F5F5F5F5F5
310
F5F5F5F5F5F5F5F5F5F5F5E2F5F5F5E2E2E2F5F5F5E2F5F5F5F5F5F5F5F5F5F5F5F5F5F5F5F5F5F5F5F5F5F5F5F5F5F5F5F5F5F5F5F5F5F5F5F5F5F5F5F5F5F5F5F5F5F5F5F5F5F5F5F5F5F5F5F5F5F5F5F5F5F5F5F5F5F5F5F5F5F5F5F5F5F5F5F5F5F5F5F5F5F5F5F5F5F5F5F5F5F5F5F5F5F5F5F5F5F5F5F5F5F5F5F5F5
310
F5F5F5F5F5F5F5F5F5F5F5F5F5F5F5F5F5F5F5F5F5F5F5F5F5F5F5F5F5F5F5F5F5F5F5F5F5F5F5F5F5F5F5F5F5F5F5F5F5F5F5F5F5F5F5F5F5F5F5F5F5F5F5F5E2F5F5F5E2E2E2F5F5F5E2F5F5F5F5F5F5F5F5F5F5F5F5F5F5F5F5F5F5F5F5F5F5F5F5F5F5F5F5F5F5F5F5F5F5F5F5F5F5F5F5F5F5F5F5F5F5F5F5F5F5F5F5
310
F5F5F5F5F5F5F5F5F5F5F5F5F5F5F5F5F5F5F5F5F5F5F5F5F5F5F5F5F5F5F5F5F5F5F5F5F5F5F5F5F5F5F5F5F5F5F5F5F5F5F5F5F5F5F5F5F5F5F5F5F5F5F5F5F5F5F5F5F5F5F5F5F5F5F5F5F5F5F5F5F5F5F5F5F5F5F5F5F5F5F5F5F5F5F5F5F5F5F5F5F5F5F5F5F5F5F5F5F5F5F5F5F5F5F5F5F5E2F5F5F5E2E2E2F5F5F5
310
E2F5F5F5F5F5F5F5F5F5F5F5F5F5F5F5F5F5F5F5F5F5F5F5F5F5F5F5F5F5F5F5F5F5F5F5F5F5F5F5F5F5F5F5F5F5F5F5F5F5F5F5F5F5F5F5F5F5F5F5F5F5F5F5F5F5F5F5F5F5F5F5F5F5F5F5F5F5F5F5F5F5F5F5F5F5F5F5F5F5F5F5F5F5F5F5F5F5F5F5F5F5F5F5F5F5F5F5F5F5F5F5F5F5F5F5F5F5F5F5F5F5F5F5F5F5F5
310
F5F5F5F5F5F5F5F5F5F5F5F5F5F5F5F5F5F5F5F5F5F5F5F5F5F5F5F5F5F5F5F5F5F5F5F5F5F5F5F5F5F5F5E2F5F5F5E2E2E2F5F5F5E2F5F5F5F5F5F5F5F5F5F5F5F5F5F5F5F5F5F5F5F5F5F5F5F5F5F5F5F5F5F5F5F5F5F5F5F5F5F5F5F5F5F5F5F5F5F5F5F5F5F5F5F5F5F5F5F5F5F5F5F5F5F5F5F5F5F5F5F5F5F5F5F5F5
310
F5F5F5F5F5F5F5F5F5F5F5F5F5F5F5F5F5F5F5F5F5F5F5F5F5F5F5F5F5F5F5F5F5F5F5F5F5F5F5F5F5F5F5F5F5F5F5F5F5F5F5F5F5F5F5F5F5F5F5F5F5F5F5F5F5F5F5F5F5F5F5F5F5F5F5F5F5F5F5F5F5F5F5F5F5F5F5F5F5F5F5F5F5F5F5F5E2F5F5F5E2E2E2F5F5F5E2F5F5F5F5F5F5F5F5F5F5F5F5F5F5F5F5F5F5F5F5
310
F5F5F5F5F5F5F5F5F5F5F5F5F5F5F5F5F5F5F5F5F5F5F5F5F5F5F5F5F5F5F5F5F5F5F5F5F5F5F5F5F5F5F5F5F5F5F5F5F5F5F5F5F5F5F5F5F5F5F5F5F5F5F5F5F5F5F5F5F5F5F5F5F5F5F5F5F5F5F5F5F5F5F5F5F5F5F5F5F5F5F5F5F5F5F5F5F5F5F5F5F5F5F5F5F5F5F5F5F5F5F5F5F5F5F5F5F5F5F5F5F5F5F5F5F5F5F5
310
F5F5F5F5F5F5F5F5F5F5F5F5F5F5F5F5F5F5F5F5F5F5E2F5F5F5E2E2E2F5F5F5F5F5F5F5F5F5F5F5F5F5F5F5F5F5F5F5F5F5F5F5F5F5F5F5F5F5F5F5F5F5F5F5F5F5F5F5F5F5F5F5F5F5F5F5F5F5F5F5F5F5F5F5F5F5F5F5F5F5F5F5F5F5F5F5F5F5F5F5F5F5F5F5F5F5F5F5F5F5F5F5F5F5F5F5F5F5F5F5F5F5F5F5F5F5F5
310
F5F5F5F5F5F5F5F5F5F5F5F5F5F5F5F5F5F5F5F5F5F5F5F5F5F5F5F5F5F5F5F5F5F5F5F5F5F5F5F5F5F5F5F5F5F5F5F5F5F5F5F5F5F5F5F5F5F5F5F5F5F5F5F5F5F5F5F5F5F5F5F5F5F5F5F5F5F5F5E2E2E2F5F5F5F5F5F5F5F5F5F5F5F5F5F5F5F5F5F5F5F5F5F5F5F5F5F5F5F5F5F5F5F5F5F5F5F5F5F5F5F5F5F5F5F5F5
310
F5F5F5F5F5F5F5F5F5F5F5F5F5F5F5F5F5F5F5F5F5F5F5F5F5F5F5F5F5F5F5F5F5F5F5F5F5F5F5F5F5F5F5F5F5F5F5F5F5F5F5F5F5F5F5F5F5F5F5F5F5F5F5F5F5F5F5F5F5F5F5F5F5F5F5F5F5F5F5F5F5F5F5F5F5F5F5F5F5F5F5F5F5F5F5F5F5F5F5F5F5F5F5F5F5F5F5F5F5F5F5F5F5F5F5F5F5F5F5F5F5F5F5F5F5F5F5
310
F5F5F5F5F5E2E2E2F5F5F5F5F5F5F5F5F5F5F5F5F5F5F5F5F5F5F5F5F5F5F5F5F5F5F5F5F5F5F5F5F5F5F5F5F5F5F5F5F5F5F5F5F5F5F5F5F5F5F5F5F5F5F5F5F5F5F5F5F5F5F5F5F5F5F5F5F5F5F5F5F5F5F5F5F5F5F5F5F5F5F5F5F5F5F5F5F5F5F5F5F5F5F5F5F5F5F5F5F5F5F5F5F5F5F5F5F5F5F5F5F5F5F5F5F5F5F5
310
F5F5F5F5F5F5F5F5F5F5F5F5F5F5F5F5F5F5F5F5F5F5F5F5F5F5F5F5F5F5F5F5F5F5F5F5F5F5F5F5F5F5F5F5F5F5F5F5F5F5F5F5F5F5F5F5F5F5E2E2E2F5F5F5F5F5F5F5F5F5F5F5F5F5F5F5F5F5F5F5F5F5F5F5F5F5F5F5F5F5F5F5F5F5F5F5F5F5F5F5F5F5F5F5F5F5F5F5F5F5F5F5F5F5F5F5F5F5F5F5F5F5F5F5F5F5F5
310
F5F5F5F5F5F5F5F5F5F5F5F5F5F5F5F5F5F5F5F5F5F5F5F5F5F5F5F5F5F5F5F5F5F5F5F5F5F5F5F5F5F5F5F5F5F5F5F5F5F5F5F5F5F5F5F5F5F5F5F5F5F5F5F5F5F5F5F5F5F5F5F5F5F5F5F5F5F5F5F5F5F5F5F5F5F5F5F5F5F5F5F5F5F5F5F5F5F5F5F5F5F5F5F5F5F5F5F5F5F5F5E2E2E2F5F5F5F5F5F5F5F5F5F5F5F5F5
310
F5F5F5F5F5F5F5F5F5F5F5F5F5F5F5F5F5F5F5F5F5F5F5F5F5F5F5F5F5F5F5F5F5F5F5F5F5F5F5F5F5F5F5F5F5F5F5F5F5F5F5F5F5F5F5F5F5F5F5F5F5F5F5F5F5F5F5F5F5F5F5F5F5F5F5F5F5F5F5F5F5F5F5F5F5F5F5F5F5F5F5F5F5F5F5F5F5F5F5F5F5F5F5F5F5F5F5F5F5F5F5F5F5F5F5F5F5F5F5F5F5F5F5F5F5F5F5
310
F5F5F5F5F5F5F5F5F5F5F5F5F5F5F5F5F5F5F5F5F5F5F5F5F5F5F5F5F5F5F5F5F5F5F5F5F5E2E2E2F5F5F5F5F5F5F5F5F5F5F5F5F5F5F5F5F5F5F5F5F5F5F5F5F5F5F5F5F5F5F5F5F5F5F5F5F5F5F5F5F5F5F5F5F5F5F5F5F5F5F5F5F5F5F5F5F5F5F5F5F5F5F5F5F5F5F5F5F5F5F5F5F5F5F5F5F5F5F5F5F5F5F5F5F5F5F5
310
F5F5F5F5F5F5F5F5F5F5F5F5F5F5F5F5F5F5F5F5F5F5F5F5F5F5F5F5F5F5F5F5F5F5F5F5F5F5F5F5F5F5F5F5F5F5F5F5F5F5F5F5F5F5F5F5F5F5F5F5F5F5F5F5F5F5F5F5F5F5F5F5F5F5F5F5F5F5F5F5F5F5F5F5F5F5F5F5F5F5E2E2E2F5F5F5F5F5F5F5F5F5F5F5F5F5F5F5F5F5F5F5F5F5F5F5F5F5F5F5F5F5F5F5F5F5F5
310
F5F5F5F5F5F5F5F5F5F5F5F5F5F5F5F5F5F5F5F5F5F5F5F5F5F5F5F5F5F5F5F5F5F5F5F5F5F5F5F5F5F5F5F5F5F5F5F5F5F5F5F5F5F5F5F5F5F5F5F5F5F5F5F5F5F5F5F5F5F5F5F5F5F5F5F5F5F5F5F5F5F5F5F5F5F5F5F5F5F5F5F5F5F5F5F5F5F5F5F5F5F5F5F5F5F5F5F5F5F5F5F5F5F5F5F5F5F5F5F5F5F5F5F5F5F5F5
310
F5F5F5F5F5F5F5F5F5F5F5F5F5F5F5F5E2E2E2F5F5F5F5F5F5F5F5F5F5F5F5F5F5F5F5F5F5F5F5F5F5F5F5F5F5F5F5F5F5F5F5F5F5F5F5F5F5F5F5F5F5F5F5F5F5F5F5F5F5F5F5F5F5F5F5F5F5F5F5F5F5F5F5F5F5F5F5F5F5F5F5F5F5F5F5F5F5F5F5F5F5F5F5F5F5F5F5F5F5F5F5F5F5F5F5F5F5F5F5F5F5F5F5F5F5F5F5
310
F5F5F5F5F5F5F5F5F5F5F5F5F5F5F5F5F5F5F5F5F5F5F5F5F5F5F5F5F5F5F5F5F5F5F5F5F5F5F5F5F5F5F5F5F5F5F5F5F5F5F5F5F5F5F5F5F5F5F5F5F5F5F5F5F5F5F5F5F5E2E2E2F5F5F5F5F5F5F5F5F5F5F5F5F5F5F5F5F5F5F5F5F5F5F5F5F5F5F5F5F5F5F5F5F5F5F5F5F5F5F5F5F5F5F5F5F5F5F5F5F5F5F5F5F5F5F5
310
F5F5F5F5F5F5F5F5F5F5F5F5F5F5F5F5F5F5F5F5F5F5F5F5F5F5F5F5F5F5F5F5F5F5F5F5F5F5F5F5F5F5F5F5F5F5F5F5F5F5F5F5F5F5F5F5F5F5F5F5F5F5F5F5F5F5F5F5F5F5F5F5F5F5F5F5F5F5F5F5F5F5F5F5F5F5F5F5F5F5F5F5F5F5F5F5F5F5F5F5F5F5F5F5F5F5F5F5F5F5F5F5F5F5F5F5F5F5F5F5F5F5E2E2E2F5F5
310
F5E2F5F5F5F5F5F5F5F5F5F5F5F5F5F5F5F5F5F5F5F5F5F5F5F5F5F5F5F5F5F5F5F5F5F5F5F5F5F5F5F5F5F5F5F5F5F5F5F5F5F5F5F5F5F5F5F5F5F5F5F5F5F5F5F5F5F5F5F5F5F5F5F5F5F5F5F5F5F5F5F5F5F5F5F5F5F5F5F5F5F5F5F5F5F5F5F5F5F5F5F5F5F5F5F5F5F5F5F5F5F5F5F5F5F5F5F5F5F5F5F5F5F5F5F5F5
310
F5F5F5F5F5F5F5F5F5F5F5F5F5F5F5F5F5F5F5F5F5F5F5F5F5F5F5F5F5F5F5F5F5F5F5F5F5F5F5F5F5F5F5F5E2F5F5F5E2E2E2F5F5F5E2F5F5F5F5F5F5F5F5F5F5F5F5F5F5F5F5F5F5F5F5F5F5F5F5F5F5F5F5F5F5F5F5F5F5F5F5F5F5F5F5F5F5F5F5F5F5F5F5F5F5F5F5F5F5F5F5F5F5F5F5F5F5F5F5F5F5F5F5F5F5F5F5
310
F5F5F5F5F5F5F5F5F5F5F5F5F5F5F5F5F5F5F5F5F5F5F5F5F5F5F5F5F5F5F5F5F5F5F5F5F5F5F5F5F5F5F5F5F5F5F5F5F5F5F5F5F5F5F5F5F5F5F5F5F5F5F5F5F5F5F5F5F5F5F5F5F5F5F5F5F5F5F5F5F5F5F5F5F5F5F5F5F5F5F5F5F5F5F5F5F5E2F5F5F5E2E2E2F5F5F5E2F5F5F5F5F5F5F5F5F5F5F5F5F5F5F5F5F5F5F5
310
F5F5F5F5F5F5F5F5F5F5F5F5F5F5F5F5F5F5F5F5F5F5F5F5F5F5F5F5F5F5F5F5F5F5F5F5F5F5F5F5F5F5F5F5F5F5F5F5F5F5F5F5F5F5F5F5F5F5F5F5F5F5F5F5F5F5F5F5F5F5F5F5F5F5F5F5F5F5F5F5F5F5F5F5F5F5F5F5F5F5F5F5F5F5F5F5F5F5F5F5F5F5F5F5F5F5F5F5F5F5F5F5F5F5F5F5F5F5F5F5F5F5F5F5F5F5F5
310
F5F5F5F5F5F5F5F5F5F5F5F5F5F5F5F5F5F5F5F5F5F5F5E2F5F5F5E2E2E2F5F5F5E2F5F5F5F5F5F5F5F5F5F5F5F5F5F5F5F5F5F5F5F5F5F5F5F5F5F5F5F5F5F5F5F5F5F5F5F5F5F5F5F5F5F5F5F5F5F5F5F5F5F5F5F5F5F5F5F5F5F5F5F5F5F5F5F5F5F5F5F5F5F5F5F5F5F5F5F5F5F5F5F5F5F5F5F5F5F5F5F5F5F5F5F5F5
310
F5F5F5F5F5F5F5F5F5F5F5F5F5F5F5F5F5F5F5F5F5F5F5F5F5F5F5F5F5F5F5F5F5F5F5F5F5F5F5F5F5F5F5F5F5F5F5F5F5F5F5F5F5F5F5F5F5F5F5F5F5F5F5F5F5F5F5F5F5F5F5F5F5F5F5F5E2F5F5F5E2E2E2F5F5F5E2F5F5F5F5F5F5F5F5F5F5F5F5F5F5F5F5F5F5F5F5F5F5F5F5F5F5F5F5F5F5F5F5F5F5F5F5F5F5F5F5
310
F5F5F5F5F5F5F5F5F5F5F5F5F5F5F5F5F5F5F5F5F5F5F5F5F5F5F5F5F5F5F5F5F5F5F5F5F5F5F5F5F5F5F5F5F5F5F5F5F5F5F5F5F5F5F5F5F5F5F5F5F5F5F5F5F5F5F5F5F5F5F5F5F5F5F5F5F5F5F5F5F5F5F5F5F5F5F5F5F5F5F5F5F5F5F5F5F5F5F5F5F5F5F5F5F5F5F5F5F5F5F5F5F5F5F5F5F5F5F5F5F5F5F5F5F5F5F5
310
F5F5E2F5F5F5E2E2E2F5F5F5E2F5F5F5F5F5F5F5F5F5F5F5F5F5F5F5F5F5F5F5F5F5F5F5F5F5F5F5F5F5F5F5F5F5F5F5F5F5F5F5F5F5F5F5F5F5F5F5F5F5F5F5F5F5F5F5F5F5F5F5F5F5F5F5F5F5F5F5F5F5F5F5F5F5F5F5F5F5F5F5F5F5F5F5F5F5F5F5F5F5F5F5F5F5F5F5F5F5F5F5F5F5F5F5F5F5F5F5F5F5F5F5F5F5F5
310
F5F5F5F5F5F5F5F5F5F5F5F5F5F5F5F5F5F5F5F5F5F5F5F5F5F5F5F5F5F5F5F5F5F5F5F5F5F5F5F5F5F5F5F5F5F5F5F5F5F5F5F5F5F5F5E2F5F5F5E2E2E2F5F5F5E2F5F5F5F5F5F5F5F5F5F5F5F5F5F5F5F5F5F5F5F5F5F5F5F5F5F5F5F5F5F5F5F5F5F5F5F5F5F5F5F5F5F5F5F5F5F5F5F5F5F5F5F5F5F5F5F5F5F5F5F5F5
310
F5F5F5F5F5F5F5F5F5F5F5F5F5F5F5F5F5F5F5F5F5F5F5F5F5F5F5F5F5F5F5F5F5F5F5F5F5F5F5F5F5F5F5F5F5F5F5F5F5F5F5F5F5F5F5F5F5F5F5F5F5F5F5F5F5F5F5F5F5F5F5F5F5F5F5F5F5F5F5F5F5F5F5F5F5F5F5F5F5F5F5F5F5F5F5F5F5F5F5F5F5F5F5F5F5F5F5F5E2F5F5F5E2E2E2F5F5F5E2F5F5F5F5F5F5F5F5
310
F5F5F5F5F5F5F5F5F5F5F5F5F5F5F5F5F5F5F5F5F5F5F5F5F5F5F5F5F5F5F5F5F5F5F5F5F5F5F5F5F5F5F5F5F5F5F5F5F5F5F5F5F5F5F5F5F5F5F5F5F5F5F5F5F5F5F5F5F5F5F5F5F5F5F5F5F5F5F5F5F5F5F5F5F5F5F5F5F5F5F5F5F5F5F5F5F5F5F5F5F5F5F5F5F5F5F5F5F5F5F5F5F5F5F5F5F5F5F5F5F5F5F5F5F5F5F5
310
F5F5F5F5F5F5F5F5F5F5F5F5F5F5F5F5F5F5F5F5F5F5F5F5F5F5F5F5F5F5F5F5F5F5E2F5F5F5E2E2E2F5F5F5E2F5F5F5F5F5F5F5F5F5F5F5F5F5F5F5F5F5F5F5F5F5F5F5F5F5F5F5F5F5F5F5F5F5F5F5F5F5F5F5F5F5F5F5F5F5F5F5F5F5F5F5F5F5F5F5F5F5F5F5F5F5F5F5F5F5F5F5F5F5F5F5F5F5F5F5F5F5F5F5F5F5F5
310
F5F5F5F5F5F5F5F5F5F5F5F5F5F5F5F5F5F5F5F5F5F5F5F5F5F5F5F5F5F5F5F5F5F5F5F5F5F5F5F5F5F5F5F5F5F5F5F5F5F5F5F5F5F5F5F5F5F5F5F5F5F5F5F5F5F5F5F5F5F5F5F5F5F5F5F5F5F5F5F5F5F5F5F5F5F5F5E2F5F5F5E2E2E2F5F5F5E2F5F5F5F5F5F5F5F5F5F5F5F5F5F5F5F5F5F5F5F5F5F5F5F5F5F5F5F5F5
310
F5F5F5F5F5F5F5F5F5F5F5F5F5F5F5F5F5F5F5F5F5F5F5F5F5F5F5F5F5F5F5F5F5F5F5F5F5F5F5F5F5F5F5F5F5F5F5F5F5F5F5F5F5F5F5F5F5F5F5F5F5F5F5F5F5F5F5F5F5F5F5F5F5F5F5F5F5F5F5F5F5F5F5F5F5F5F5F5F5F5F5F5F5F5F5F5F5F5F5F5F5F5F5F5F5F5F5F5F5F5F5F5F5F5F5F5F5F5F5F5F5F5F5F5F5F5F5
310
F5F5F5F5F5F5F5F5F5F5F5F5F5E2F5F5F5E2E2E2F5F5F5E2F5F5F5F5F5F5F5F5F5F5F5F5F5F5F5F5F5F5F5F5F5F5F5F5F5F5F5F5F5F5F5F5F5F5F5F5F5F5F5F5F5F5F5F5F5F5F5F5F5F5F5F5F5F5F5F5F5F5F5F5F5F5F5F5F5F5F5F5F5F5F5F5F5F5F5F5F5F5F5F5F5F5F5F5F5F5F5F5F5F5F5F5F5F5F5F5F5F5F5F5F5F5F5
310
F5F5F5F5F5F5F5F5F5F5F5F5F5F5F5F5F5F5F5F5F5F5F5F5F5F5F5F5F5F5F5F5F5F5F5F5F5F5F5F5F5F5F5F5F5F5F5F5F5F5F5F5F5F5F5F5F5F5F5F5F5F5F5F5F5F5E2F5F5F5E2E2E2F5F5F5E2F5F5F5F5F5F5F5F5F5F5F5F5F5F5F5F5F5F5F5F5F5F5F5F5F5F5F5F5F5F5F5F5F5F5F5F5F5F5F5F5F5F5F5F5F5F5F5F5F5F5
310
F5F5F5F5F5F5F5F5F5F5F5F5F5F5F5F5F5F5F5F5F5F5F5F5F5F5F5F5F5F5F5F5F5F5F5F5F5F5F5F5F5F5F5F5F5F5F5F5F5F5F5F5F5F5F5F5F5F5F5F5F5F5F5F5F5F5F5F5F5F5F5F5F5F5F5F5F5F5F5F5F5F5F5F5F5F5F5F5F5F5F5F5F5F5F5F5F5F5F5F5F5F5F5F5F5F5F5F5F5F5F5F5F5F5F5F5F5F5F5E2F5F5F5E2E2E2F5
310
F5F5E2F5F5F5F5F5F5F5F5F5F5F5F5F5F5F5F5F5F5F5F5F5F5F5F5F5F5F5F5F5F5F5F5F5F5F5F5F5F5F5F5F5F5F5F5F5F5F5F5F5F5F5F5F5F5F5F5F5F5F5F5F5F5F5F5F5F5F5F5F5F5F5F5F5F5F5F5F5F5F5F5F5F5F5F5F5F5F5F5F5F5F5F5F5F5F5F5F5F5F5F5F5F5F5F5F5F5F5F5F5F5F5F5F5F5F5F5F5F5F5F5F5F5F5F5
310
F5F5F5F5F5F5F5F5F5F5F5F5F5F5F5F5F5F5F5F5F5F5F5F5F5F5F5F5F5F5F5F5F5F5F5F5F5F5F5F5F5F5F5F5F5E2F5F5F5E2E2E2F5F5F5E2F5F5F5F5F5F5F5F5F5F5F5F5F5F5F5F5F5F5F5F5F5F5F5F5F5F5F5F5F5F5F5F5F5F5F5F5F5F5F5F5F5F5F5F5F5F5F5F5F5F5F5F5F5F5F5F5F5F5F5F5F5F5F5F5F5F5F5F5F5F5F5
310
F5F5F5F5F5F5F5F5F5F5F5F5F5F5F5F5F5F5F5F5F5F5F5F5F5F5F5F5F5F5F5F5F5F5F5F5F5F5F5F5F5F5F5F5F5F5F5F5F5F5F5F5F5F5F5F5F5F5F5F5F5F5F5F5F5F5F5F5F5F5F5F5F5F5F5F5F5F5F5F5F5F5F5F5F5F5F5F5F5F5F5F5F5F5F5F5F5F5E2F5F5F5E2E2E2F5F5F5E2F5F5F5F5F5F5F5F5F5F5F5F5F5F5F5F5F5F5
310
F5F5F5F5F5F5F5F5F5F5F5F5F5F5F5F5F5F5F5F5F5F5F5F5F5F5F5F5F5F5F5F5F5F5F5F5F5F5F5F5F5F5F5F5F5F5F5F5F5F5F5F5F5F5F5F5F5F5F5F5F5F5F5F5F5F5F5F5F5F5F5F5F5F5F5F5F5F5F5F5F5F5F5F5F5F5F5F5F5F5F5F5F5F5F5F5F5F5F5F5F5F5F5F5F5F5F5F5F5F5F5F5F5F5F5F5F5F5F5F5F5F5F5F5F5F5F5
310
F5F5F5F5F5F5F5F5F5F5F5F5F5F5F5F5F5F5F5F5F5F5F5F5E2F5F5F5E2E2E2F5F5F5E2F5F5F5F5F5F5F5F5F5F5F5F5F5F5F5F5F5F5F5F5F5F5F5F5F5F5F5F5F5F5F5F5F5F5F5F5F5F5F5F5F5F5F5F5F5F5F5F5F5F5F5F5F5F5F5F5F5F5F5F5F5F5F5F5F5F5F5F5F5F5F5F5F5F5F5F5F5F5F5F5F5F5F5F5F5F5F5F5F5F5F5F5
310
F5F5F5F5F5F5F5F5F5F5F5F5F5F5F5F5F5F5F5F5F5F5F5F5F5F5F5F5F5F5F5F5F5F5F5F5F5F5F5F5F5F5F5F5F5F5F5F5F5F5F5F5F5F5F5F5F5F5F5F5F5F5F5F5F5F5F5F5F5F5F5F5F5F5F5F5F5E2F5F5F5E2E2E2F5F5F5E2F5F5F5F5F5F5F5F5F5F5F5F5F5F5F5F5F5F5F5F5F5F5F5F5F5F5F5F5F5F5F5F5F5F5F5F5F5F5F5
310
F5F5F5F5F5F5F5F5F5F5F5F5F5F5F5F5F5F5F5F5F5F5F5F5F5F5F5F5F5F5F5F5F5F5F5F5F5F5F5F5F5F5F5F5F5F5F5F5F5F5F5F5F5F5F5F5F5F5F5F5F5F5F5F5F5F5F5F5F5F5F5F5F5F5F5F5F5F5F5F5F5F5F5F5F5F5F5F5F5F5F5F5F5F5F5F5F5F5F5F5F5F5F5F5F5F5F5F5F5F5F5F5F5F5F5F5F5F5F5F5F5F5F5F5F5F5F5
310
F5F5F5E2F5F5F5E2E2E2F5F5F5F5F5F5F5F5F5F5F5F5F5F5F5F5F5F5F5F5F5F5F5F5F5F5F5F5F5F5F5F5F5F5F5F5F5F5F5F5F5F5F5F5F5F5F5F5F5F5F5F5F5F5F5F5F5F5F5F5F5F5F5F5F5F5F5F5F5F5F5F5F5F5F5F5F5F5F5F5F5F5F5F5F5F5F5F5F5F5F5F5F5F5F5F5F5F5F5F5F5F5F5F5F5F5F5F5F5F5F5F5F5F5F5F5F5
310
F5F5F5F5F5F5F5F5F5F5F5F5F5F5F5F5F5F5F5F5F5F5F5F5F5F5F5F5F5F5F5F5F5F5F5F5F5F5F5F5F5F5F5F5F5F5F5F5F5F5F5F5F5F5F5F5F5F5F5F5E2E2E2F5F5F5F5F5F5F5F5F5F5F5F5F5F5F5F5F5F5F5F5F5F5F5F5F5F5F5F5F5F5F5F5F5F5F5F5F5F5F5F5F5F5F5F5F5F5F5F5F5F5F5F5F5F5F5F5F5F5F5F5F5F5F5F5
310
F5F5F5F5F5F5F5F5F5F5F5F5F5F5F5F5F5F5F5F5F5F5F5F5F5F5F5F5F5F5F5F5F5F5F5F5F5F5F5F5F5F5F5F5F5F5F5F5F5F5F5F5F5F5F5F5F5F5F5F5F5F5F5F5F5F5F5F5F5F5F5F5F5F5F5F5F5F5F5F5F5F5F5F5F5F5F5F5F5F5F5F5F5F5F5F5F5F5F5F5F5F5F5F5F5F5F5F5F5F5F5F5F5E2E2E2F5F5F5F5F5F5F5F5F5F5F5
310
F5F5F5F5F5F5F5F5F5F5F5F5F5F5F5F5F5F5F5F5F5F5F5F5F5F5F5F5F5F5F5F5F5F5F5F5F5F5F5F5F5F5F5F5F5F5F5F5F5F5F5F5F5F5F5F5F5F5F5F5F5F5F5F5F5F5F5F5F5F5F5F5F5F5F5F5F5F5F5F5F5F5F5F5F5F5F5F5F5F5F5F5F5F5F5F5F5F5F5F5F5F5F5F5F5F5F5F5F5F5F5F5F5F5F5F5F5F5F5F5F5F5F5F5F5F5F5
310
F5F5F5F5F5F5F5F5F5F5F5F5F5F5F5F5F5F5F5F5F5F5F5F5F5F5F5F5F5F5F5F5F5F5F5F5F5F5F5E2E2E2F5F5F5F5F5F5F5F5F5F5F5F5F5F5F5F5F5F5F5F5F5F5F5F5F5F5F5F5F5F5F5F5F5F5F5F5F5F5F5F5F5F5F5F5F5F5F5F5F5F5F5F5F5F5F5F5F5F5F5F5F5F5F5F5F5F5F5F5F5F5F5F5F5F5F5F5F5F5F5F5F5F5F5F5F5
310
F5F5F5F5F5F5F5F5F5F5F5F5F5F5F5F5F5F5F5F5F5F5F5F5F5F5F5F5F5F5F5F5F5F5F5F5F5F5F5F5F5F5F5F5F5F5F5F5F5F5F5F5F5F5F5F5F5F5F5F5F5F5F5F5F5F5F5F5F5F5F5F5F5F5F5F5F5F5F5F5F5F5F5F5F5F5F5F5F5F5F5F5E2E2E2F5F5F5F5F5F5F5F5F5F5F5F5F5F5F5F5F5F5F5F5F5F5F5F5F5F5F5F5F5F5F5F5
310
F5F5F5F5F5F5F5F5F5F5F5F5F5F5F5F5F5F5F5F5F5F5F5F5F5F5F5F5F5F5F5F5F5F5F5F5F5F5F5F5F5F5F5F5F5F5F5F5F5F5F5F5F5F5F5F5F5F5F5F5F5F5F5F5F5F5F5F5F5F5F5F5F5F5F5F5F5F5F5F5F5F5F5F5F5F5F5F5F5F5F5F5F5F5F5F5F5F5F5F5F5F5F5F5F5F5F5F5F5F5F5F5F5F5F5F5F5F5F5F5F5F5F5F5F5F5F5
310
F5F5F5F5F5F5F5F5F5F5F5F5F5F5F5F5F5F5E2E2E2F5F5F5F5F5F5F5F5F5F5F5F5F5F5F5F5F5F5F5F5F5F5F5F5F5F5F5F5F5F5F5F5F5F5F5F5F5F5F5F5F5F5F5F5F5F5F5F5F5F5F5F5F5F5F5F5F5F5F5F5F5F5F5F5F5F5F5F5F5F5F5F5F5F5F5F5F5F5F5F5F5F5F5F5F5F5F5F5F5F5F5F5F5F5F5F5F5F5F5F5F5F5F5F5F5F5
310
F5F5F5F5F5F5F5F5F5F5F5F5F5F5F5F5F5F5F5F5F5F5F5F5F5F5F5F5F5F5F5F5F5F5F5F5F5F5F5F5F5F5F5F5F5F5F5F5F5F5F5F5F5F5F5F5F5F5F5F5F5F5F5F5F5F5F5F5F5F5F5E2E2E2F5F5F5F5F5F5F5F5F5F5F5F5F5F5F5F5F5F5F5F5F5F5F5F5F5F5F5F5F5F5F5F5F5F5F5F5F5F5F5F5F5F5F5F5F5F5F5F5F5F5F5F5F5
310
F5F5F5F5F5F5F5F5F5F5F5F5F5F5F5F5F5F5F5F5F5F5F5F5F5F5F5F5F5F5F5F5F5F5F5F5F5F5F5F5F5F5F5F5F5F5F5F5F5F5F5F5F5F5F5F5F5F5F5F5F5F5F5F5F5F5F5F5F5F5F5F5F5F5F5F5F5F5F5F5F5F5F5F5F5F5F5F5F5F5F5F5F5F5F5F5F5F5F5F5F5F5F5F5F5F5F5F5F5F5F5F5F5F5F5F5F5F5F5F5F5F5F5F5E2E2E2
310
F5F5F5F5F5F5F5F5F5F5F5F5F5F5F5F5F5F5F5F5F5F5F5F5F5F5F5F5F5F5F5F5F5F5F5F5F5F5F5F5F5F5F5F5F5F5F5F5F5F5F5F5F5F5F5F5F5F5F5F5F5F5F5F5F5F5F5F5F5F5F5F5F5F5F5F5F5F5F5F5F5F5F5F5F5F5F5F5F5F5F5F5F5F5F5F5F5F5F5F5F5F5F5F5F5F5F5F5F5F5F5F5F5F5F5F5F5F5F5F5F5F5F5F5F5F5F5
310
F5F5F5F5F5F5F5F5F5F5F5F5F5F5F5F5F5F5F5F5F5F5F5F5F5F5F5F5F5F5F5F5F5F5F5F5F5F5F5F5F5F5F5F5F5F5F5F5F5F5E2E2E2F5F5F5F5F5F5F5F5F5F5F5F5F5F5F5F5F5F5F5F5F5F5F5F5F5F5F5F5F5F5F5F5F5F5F5F5F5F5F5F5F5F5F5F5F5F5F5F5F5F5F5F5F5F5F5F5F5F5F5F5F5F5F5F5F5F5F5F5F5F5F5F5F5F5
310
F5F5F5F5F5F5F5F5F5F5F5F5F5F5F5F5F5F5F5F5F5F5F5F5F5F5F5F5F5F5F5F5F5F5F5F5F5F5F5F5F5F5F5F5F5F5F5F5F5F5F5F5F5F5F5F5F5F5F5F5F5F5F5F5F5F5F5F5F5F5F5F5F5F5F5F5F5F5F5F5F5F5F5F5F5F5F5F5F5F5F5F5F5F5F5F5F5F5F5F5F5F5F5E2E2E2F5F5F5E2F5F5F5F5F5F5F5F5F5F5F5F5F5F5F5F5F5
310
F5F5F5F5F5F5F5F5F5F5F5F5F5F5F5F5F5F5F5F5F5F5F5F5F5F5F5F5F5F5F5F5F5F5F5F5F5F5F5F5F5F5F5F5F5F5F5F5F5F5F5F5F5F5F5F5F5F5F5F5F5F5F5F5F5F5F5F5F5F5F5F5F5F5F5F5F5F5F5F5F5F5F5F5F5F5F5F5F5F5F5F5F5F5F5F5F5F5F5F5F5F5F5F5F5F5F5F5F5F5F5F5F5F5F5F5F5F5F5F5F5F5F5F5F5F5F5
310
F5F5F5F5F5F5F5F5F5F5F5F5F5F5F5F5F5F5F5F5F5F5F5F5F5E2F5F5F5E2E2E2F5F5F5E2F5F5F5F5F5F5F5F5F5F5F5F5F5F5F5F5F5F5F5F5F5F5F5F5F5F5F5F5F5F5F5F5F5F5F5F5F5F5F5F5F5F5F5F5F5F5F5F5F5F5F5F5F5F5F5F5F5F5F5F5F5F5F5F5F5F5F5F5F5F5F5F5F5F5F5F5F5F5F5F5F5F5F5F5F5F5F5F5F5F5F5
310
F5F5F5F5F5F5F5F5F5F5F5F5F5F5F5F5F5F5F5F5F5F5F5F5F5F5F5F5F5F5F5F5F5F5F5F5F5F5F5F5F5F5F5F5F5F5F5F5F5F5F5F5F5F5F5F5F5F5F5F5F5F5F5F5F5F5F5F5F5F5F5F5F5F5F5F5F5F5E2F5F5F5E2E2E2F5F5F5E2F5F5F5F5F5F5F5F5F5F5F5F5F5F5F5F5F5F5F5F5F5F5F5F5F5F5F5F5F5F5F5F5F5F5F5F5F5F5
310
F5F5F5F5F5F5F5F5F5F5F5F5F5F5F5F5F5F5F5F5F5F5F5F5F5F5F5F5F5F5F5F5F5F5F5F5F5F5F5F5F5F5F5F5F5F5F5F5F5F5F5F5F5F5F5F5F5F5F5F5F5F5F5F5F5F5F5F5F5F5F5F5F5F5F5F5F5F5F5F5F5F5F5F5F5F5F5F5F5F5F5F5F5F5F5F5F5F5F5F5F5F5F5F5F5F5F5F5F5F5F5F5F5F5F5F5F5F5F5F5F5F5F5F5F5F5F5
310
F5F5F5F5E2F5F5F5E2E2E2F5F5F5E2F5F5F5F5F5F5F5F5F5F5F5F5F5F5F5F5F5F5F5F5F5F5F5F5F5F5F5F5F5F5F5F5F5F5F5F5F5F5F5F5F5F5F5F5F5F5F5F5F5F5F5F5F5F5F5F5F5F5F5F5F5F5F5F5F5F5F5F5F5F5F5F5F5F5F5F5F5F5F5F5F5F5F5F5F5F5F5F5F5F5F5F5F5F5F5F5F5F5F5F5F5F5F5F5F5F5F5F5F5F5F5F5
310
F5F5F5F5F5F5F5F5F5F5F5F5F5F5F5F5F5F5F5F5F5F5F5F5F5F5F5F5F5F5F5F5F5F5F5F5F5F5F5F5F5F5F5F5F5F5F5F5F5F5F5F5F5F5F5F5F5E2F5F5F5E2E2E2F5F5F5E2F5F5F5F5F5F5F5F5F5F5F5F5F5F5F5F5F5F5F5F5F5F5F5F5F5F5F5F5F5F5F5F5F5F5F5F5F5F5F5F5F5F5F5F5F5F5F5F5F5F5F5F5F5F5F5F5F5F5F5
310
F5F5F5F5F5F5F5F5F5F5F5F5F5F5F5F5F5F5F5F5F5F5F5F5F5F5F5F5F5F5F5F5F5F5F5F5F5F5F5F5F5F5F5F5F5F5F5F5F5F5F5F5F5F5F5F5F5F5F5F5F5F5F5F5F5F5F5F5F5F5F5F5F5F5F5F5F5F5F5F5F5F5F5F5F5F5F5F5F5F5F5F5F5F5F5F5F5F5F5F5F5F5F5F5F5F5F5F5F5F5E2F5F5F5E2E2E2F5F5F5E2F5F5F5F5F5F5
310
F5F5F5F5F5F5F5F5F5F5F5F5F5F5F5F5F5F5F5F5F5F5F5F5F5F5F5F5F5F5F5F5F5F5F5F5F5F5F5F5F5F5F5F5F5F5F5F5F5F5F5F5F5F5F5F5F5F5F5F5F5F5F5F5F5F5F5F5F5F5F5F5F5F5F5F5F5F5F5F5F5F5F5F5F5F5F5F5F5F5F5F5F5F5F5F5F5F5F5F5F5F5F5F5F5F5F5F5F5F5F5F5F5F5F5F5F5F5F5F5F5F5F5F5F5F5F5
310
F5F5F5F5F5F5F5F5F5F5F5F5F5F5F5F5F5F5F5F5F5F5F5F5F5F5F5F5F5F5F5F5F5F5F5F5E2F5F5F5E2E2E2F5F5F5E2F5F5F5F5F5F5F5F5F5F5F5F5F5F5F5F5F5F5F5F5F5F5F5F5F5F5F5F5F5F5F5F5F5F5F5F5F5F5F5F5F5F5F5F5F5F5F5F5F5F5F5F5F5F5F5F5F5F5F5F5F5F5F5F5F5F5F5F5F5F5F5F5F5F5F5F5F5F5F5F5
310
F5F5F5F5F5F5F5F5F5F5F5F5F5F5F5F5F5F5F5F5F5F5F5F5F5F5F5F5F5F5F5F5F5F5F5F5F5F5F5F5F5F5F5F5F5F5F5F5F5F5F5F5F5F5F5F5F5F5F5F5F5F5F5F5F5F5F5F5F5F5F5F5F5F5F5F5F5F5F5F5F5F5F5F5F5F5F5F5F5E2F5F5F5E2E2E2F5F5F5E2F5F5F5F5F5F5F5F5F5F5F5F5F5F5F5F5F5F5F5F5F5F5F5F5F5F5F5
310
F5F5F5F5F5F5F5F5F5F5F5F5F5F5F5F5F5F5F5F5F5F5F5F5F5F5F5F5F5F5F5F5F5F5F5F5F5F5F5F5F5F5F5F5F5F5F5F5F5F5F5F5F5F5F5F5F5F5F5F5F5F5F5F5F5F5F5F5F5F5F5F5F5F5F5F5F5F5F5F5F5F5F5F5F5F5F5F5F5F5F5F5F5F5F5F5F5F5F5F5F5F5F5F5F5F5F5F5F5F5F5F5F5F5F5F5F5F5F5F5F5F5F5F5F5F5F5
310
F5F5F5F5F5F5F5F5F5F5F5F5F5F5F5E2F5F5F5E2E2E2F5F5F5E2F5F5F5F5F5F5F5F5F5F5F5F5F5F5F5F5F5F5F5F5F5F5F5F5F5F5F5F5F5F5F5F5F5F5F5F5F5F5F5F5F5F5F5F5F5F5F5F5F5F5F5F5F5F5F5F5F5F5F5F5F5F5F5F5F5F5F5F5F5F5F5F5F5F5F5F5F5F5F5F5F5F5F5F5F5F5F5F5F5F5F5F5F5F5F5F5F5F5F5F5F5
310
F5F5F5F5F5F5F5F5F5F5F5F5F5F5F5F5F5F5F5F5F5F5F5F5F5F5F5F5F5F5F5F5F5F5F5F5F5F5F5F5F5F5F5F5F5F5F5F5F5F5F5F5F5F5F5F5F5F5F5F5F5F5F5F5F5F5F5F5E2F5F5F5E2E2E2F5F5F5E2F5F5F5F5F5F5F5F5F5F5F5F5F5F5F5F5F5F5F5F5F5F5F5F5F5F5F5F5F5F5F5F5F5F5F5F5F5F5F5F5F5F5F5F5F5F5F5F5
310
F5F5F5F5F5F5F5F5F5F5F5F5F5F5F5F5F5F5F5F5F5F5F5F5F5F5F5F5F5F5F5F5F5F5F5F5F5F5F5F5F5F5F5F5F5F5F5F5F5F5F5F5F5F5F5F5F5F5F5F5F5F5F5F5F5F5F5F5F5F5F5F5F5F5F5F5F5F5F5F5F5F5F5F5F5F5F5F5F5F5F5F5F5F5F5F5F5F5F5F5F5F5F5F5F5F5F5F5F5F5F5F5F5F5F5F5F5F5F5F5F5E2F5F5F5E2E2
310
E2F5F5F5E2F5F5F5F5F5F5F5F5F5F5F5F5F5F5F5F5F5F5F5F5F5F5F5F5F5F5F5F5F5F5F5F5F5F5F5F5F5F5F5F5F5F5F5F5F5F5F5F5F5F5F5F5F5F5F5F5F5F5F5F5F5F5F5F5F5F5F5F5F5F5F5F5F5F5F5F5F5F5F5F5F5F5F5F5F5F5F5F5F5F5F5F5F5F5F5F5F5F5F5F5F5F5F5F5F5F5F5F5F5F5F5F5F5F5F5F5F5F5F5F5F5F5
310
F5F5F5F5F5F5F5F5F5F5F5F5F5F5F5F5F5F5F5F5F5F5F5F5F5F5F5F5F5F5F5F5F5F5F5F5F5F5F5F5F5F5F5F5F5F5F5E2F5F5F5E2E2E2F5F5F5E2F5F5F5F5F5F5F5F5F5F5F5F5F5F5F5F5F5F5F5F5F5F5F5F5F5F5F5F5F5F5F5F5F5F5F5F5F5F5F5F5F5F5F5F5F5F5F5F5F5F5F5F5F5F5F5F5F5F5F5F5F5F5F5F5F5F5F5F5F5
310
F5F5F5F5F5F5F5F5F5F5F5F5F5F5F5F5F5F5F5F5F5F5F5F5F5F5F5F5F5F5F5F5F5F5F5F5F5F5F5F5F5F5F5F5F5F5F5F5F5F5F5F5F5F5F5F5F5F5F5F5F5F5F5F5F5F5F5F5F5F5F5F5F5F5F5F5F5F5F5F5F5F5F5F5F5F5F5F5F5F5F5F5F5F5F5F5F5F5F5F5E2F5F5F5E2E2E2F5F5F5E2F5F5F5F5F5F5F5F5F5F5F5F5F5F5F5F5
310
F5F5F5F5F5F5F5F5F5F5F5F5F5F5F5F5F5F5F5F5F5F5F5F5F5F5F5F5F5F5F5F5F5F5F5F5F5F5F5F5F5F5F5F5F5F5F5F5F5F5F5F5F5F5F5F5F5F5F5F5F5F5F5F5F5F5F5F5F5F5F5F5F5F5F5F5F5F5F5F5F5F5F5F5F5F5F5F5F5F5F5F5F5F5F5F5F5F5F5F5F5F5F5F5F5F5F5F5F5F5F5F5F5F5F5F5F5F5F5F5F5F5F5F5F5F5F5
310
F5F5F5F5F5F5F5F5F5F5F5F5F5F5F5F5F5F5F5F5F5F5F5F5F5F5E2F5F5F5E2E2E2F5F5F5E2F5F5F5F5F5F5F5F5F5F5F5F5F5F5F5F5F5F5F5F5F5F5F5F5F5F5F5F5F5F5F5F5F5F5F5F5F5F5F5F5F5F5F5F5F5F5F5F5F5F5F5F5F5F5F5F5F5F5F5F5F5F5F5F5F5F5F5F5F5F5F5F5F5F5F5F5F5F5F5F5F5F5F5F5F5F5F5F5F5F5
310
F5F5F5F5F5F5F5F5F5F5F5F5F5F5F5F5F5F5F5F5F5F5F5F5F5F5F5F5F5F5F5F5F5F5F5F5F5F5F5F5F5F5F5F5F5F5F5F5F5F5F5F5F5F5F5F5F5F5F5F5F5F5F5F5F5F5F5F5F5F5F5F5F5F5F5F5F5F5F5E2F5F5F5E2E2E2F5F5F5E2F5F5F5F5F5F5F5F5F5F5F5F5F5F5F5F5F5F5F5F5F5F5F5F5F5F5F5F5F5F5F5F5F5F5F5F5F5
310
F5F5F5F5F5F5F5F5F5F5F5F5F5F5F5F5F5F5F5F5F5F5F5F5F5F5F5F5F5F5F5F5F5F5F5F5F5F5F5F5F5F5F5F5F5F5F5F5F5F5F5F5F5F5F5F5F5F5F5F5F5F5F5F5F5F5F5F5F5F5F5F5F5F5F5F5F5F5F5F5F5F5F5F5F5F5F5F5F5F5F5F5F5F5F5F5F5F5F5F5F5F5F5F5F5F5F5F5F5F5F5F5F5F5F5F5F5F5F5F5F5F5F5F5F5F5F5
310
F5F5F5F5F5E2F5F5F5E2E2E2F5F5F5E2F5F5F5F5F5F5F5F5F5F5F5F5F5F5F5F5F5F5F5F5F5F5F5F5F5F5F5F5F5F5F5F5F5F5F5F5F5F5F5F5F5F5F5F5F5F5F5F5F5F5F5F5F5F5F5F5F5F5F5F5F5F5F5F5F5F5F5F5F5F5F5F5F5F5F5F5F5F5F5F5F5F5F5F5F5F5F5F5F5F5F5F5F5F5F5F5F5F5F5F5F5F5F5F5F5F5F5F5F5F5F5
310
F5F5F5F5F5F5F5F5F5F5F5F5F5F5F5F5F5F5F5F5F5F5F5F5F5F5F5F5F5F5F5F5F5F5F5F5F5F5F5F5F5F5F5F5F5F5F5F5F5F5F5F5F5F5F5F5F5F5E2F5F5F5E2E2E2F5F5F5F5F5F5F5F5F5F5F5F5F5F5F5F5F5F5F5F5F5F5F5F5F5F5F5F5F5F5F5F5F5F5F5F5F5F5F5F5F5F5F5F5F5F5F5F5F5F5F5F5F5F5F5F5F5F5F5F5F5F5
310
F5F5F5F5F5F5F5F5F5F5F5F5F5F5F5F5F5F5F5F5F5F5F5F5F5F5F5F5F5F5F5F5F5F5F5F5F5F5F5F5F5F5F5F5F5F5F5F5F5F5F5F5F5F5F5F5F5F5F5F5F5F5F5F5F5F5F5F5F5F5F5F5F5F5F5F5F5F5F5F5F5F5F5F5F5F5F5F5F5F5F5F5F5F5F5F5F5F5F5F5F5F5F5F5F5F5F5F5F5F5F5F5F5F5F5E2E2E2F5F5F5F5F5F5F5F5F5
310
F5F5F5F5F5F5F5F5F5F5F5F5F5F5F5F5F5F5F5F5F5F5F5F5F5F5F5F5F5F5F5F5F5F5F5F5F5F5F5F5F5F5F5F5F5F5F5F5F5F5F5F5F5F5F5F5F5F5F5F5F5F5F5F5F5F5F5F5F5F5F5F5F5F5F5F5F5F5F5F5F5F5F5F5F5F5F5F5F5F5F5F5F5F5F5F5F5F5F5F5F5F5F5F5F5F5F5F5F5F5F5F5F5F5F5F5F5F5F5F5F5F5F5F5F5F5F5
310
F5F5F5F5F5F5F5F5F5F5F5F5F5F5F5F5F5F5F5F5F5F5F5F5F5F5F5F5F5F5F5F5F5F5F5F5F5F5F5F5F5E2E2E2F5F5F5F5F5F5F5F5F5F5F5F5F5F5F5F5F5F5F5F5F5F5F5F5F5F5F5F5F5F5F5F5F5F5F5F5F5F5F5F5F5F5F5F5F5F5F5F5F5F5F5F5F5F5F5F5F5F5F5F5F5F5F5F5F5F5F5F5F5F5F5F5F5F5F5F5F5F5F5F5F5F5F5
310
F5F5F5F5F5F5F5F5F5F5F5F5F5F5F5F5F5F5F5F5F5F5F5F5F5F5F5F5F5F5F5F5F5F5F5F5F5F5F5F5F5F5F5F5F5F5F5F5F5F5F5F5F5F5F5F5F5F5F5F5F5F5F5F5F5F5F5F5F5F5F5F5F5F5F5F5F5F5F5F5F5F5F5F5F5F5F5F5F5F5F5F5F5F5E2E2E2F5F5F5F5F5F5F5F5F5F5F5F5F5F5F5F5F5F5F5F5F5F5F5F5F5F5F5F5F5F5
310
F5F5F5F5F5F5F5F5F5F5F5F5F5F5F5F5F5F5F5F5F5F5F5F5F5F5F5F5F5F5F5F5F5F5F5F5F5F5F5F5F5F5F5F5F5F5F5F5F5F5F5F5F5F5F5F5F5F5F5F5F5F5F5F5F5F5F5F5F5F5F5F5F5F5F5F5F5F5F5F5F5F5F5F5F5F5F5F5F5F5F5F5F5F5F5F5F5F5F5F5F5F5F5F5F5F5F5F5F5F5F5F5F5F5F5F5F5F5F5F5F5F5F5F5F5F5F5
310
F5F5F5F5F5F5F5F5F5F5F5F5F5F5F5F5F5F5F5F5E2E2E2F5F5F5F5F5F5F5F5F5F5F5F5F5F5F5F5F5F5F5F5F5F5F5F5F5F5F5F5F5F5F5F5F5F5F5F5F5F5F5F5F5F5F5F5F5F5F5F5F5F5F5F5F5F5F5F5F5F5F5F5F5F5F5F5F5F5F5F5F5F5F5F5F5F5F5F5F5F5F5F5F5F5F5F5F5F5F5F5F5F5F5F5F5F5F5F5F5F5F5F5F5F5F5F5
310
F5F5F5F5F5F5F5F5F5F5F5F5F5F5F5F5F5F5F5F5F5F5F5F5F5F5F5F5F5F5F5F5F5F5F5F5F5F5F5F5F5F5F5F5F5F5F5F5F5F5F5F5F5F5F5F5F5F5F5F5F5F5F5F5F5F5F5F5F5F5F5F5F5E2E2E2F5F5F5F5F5F5F5F5F5F5F5F5F5F5F5F5F5F5F5F5F5F5F5F5F5F5F5F5F5F5F5F5F5F5F5F5F5F5F5F5F5F5F5F5F5F5F5F5F5F5F5
310
F5F5F5F5F5F5F5F5F5F5F5F5F5F5F5F5F5F5F5F5F5F5F5F5F5F5F5F5F5F5F5F5F5F5F5F5F5F5F5F5F5F5F5F5F5F5F5F5F5F5F5F5F5F5F5F5F5F5F5F5F5F5F5F5F5F5F5F5F5F5F5F5F5F5F5F5F5F5F5F5F5F5F5F5F5F5F5F5F5F5F5F5F5F5F5F5F5F5F5F5F5F5F5F5F5F5F5F5F5F5F5F5F5F5F5F5F5F5F5F5F5F5F5F5F5F5E2
310
E2E2F5F5F5F5F5F5F5F5F5F5F5F5F5F5F5F5F5F5F5F5F5F5F5F5F5F5F5F5F5F5F5F5F5F5F5F5F5F5F5F5F5F5F5F5F5F5F5F5F5F5F5F5F5F5F5F5F5F5F5F5F5F5F5F5F5F5F5F5F5F5F5F5F5F5F5F5F5F5F5F5F5F5F5F5F5F5F5F5F5F5F5F5F5F5F5F5F5F5F5F5F5F5F5F5F5F5F5F5F5F5F5F5F5F5F5F5F5F5F5F5F5F5F5F5F5
310
F5F5F5F5F5F5F5F5F5F5F5F5F5F5F5F5F5F5F5F5F5F5F5F5F5F5F5F5F5F5F5F5F5F5F5F5F5F5F5F5F5F5F5F5F5F5F5F5F5F5F5F5E2E2E2F5F5F5F5F5F5F5F5F5F5F5F5F5F5F5F5F5F5F5F5F5F5F5F5F5F5F5F5F5F5F5F5F5F5F5F5F5F5F5F5F5F5F5F5F5F5F5F5F5F5F5F5F5F5F5F5F5F5F5F5F5F5F5F5F5F5F5F5F5F5F5F5
310
F5F5F5F5F5F5F5F5F5F5F5F5F5F5F5F5F5F5F5F5F5F5F5F5F5F5F5F5F5F5F5F5F5F5F5F5F5F5F5F5F5F5F5F5F5F5F5F5F5F5F5F5F5F5F5F5F5F5F5F5F5F5F5F5F5F5F5F5F5F5F5F5F5F5F5F5F5F5F5F5F5F5F5F5F5F5F5F5F5F5F5F5F5F5F5F5F5F5F5F5F5F5F5F5F5E2E2E2F5F5F5F5F5F5F5F5F5F5F5F5F5F5F5F5F5F5F5
310
F5F5F5F5F5F5F5F5F5F5F5F5F5F5F5F5F5F5F5F5F5F5F5F5F5F5F5F5F5F5F5F5F5F5F5F5F5F5F5F5F5F5F5F5F5F5F5F5F5F5F5F5F5F5F5F5F5F5F5F5F5F5F5F5F5F5F5F5F5F5F5F5F5F5F5F5F5F5F5F5F5F5F5F5F5F5F5F5F5F5F5F5F5F5F5F5F5F5F5F5F5F5F5F5F5F5F5F5F5F5F5F5F5F5F5F5F5F5F5F5F5F5F5F5F5F5F5
310
F5F5F5F5F5F5F5F5F5F5F5F5F5F5F5F5F5F5F5F5F5F5F5F5F5F5F5F5F5F5F5E2E2E2F5F5F5F5F5F5F5F5F5F5F5F5F5F5F5F5F5F5F5F5F5F5F5F5F5F5F5F5F5F5F5F5F5F5F5F5F5F5F5F5F5F5F5F5F5F5F5F5F5F5F5F5F5F5F5F5F5F5F5F5F5F5F5F5F5F5F5F5F5F5F5F5F5F5F5F5F5F5F5F5F5F5F5F5F5F5F5F5F5F5F5F5F5
310
F5F5F5F5F5F5F5F5F5F5F5F5F5F5F5F5F5F5F5F5F5F5F5F5F5F5F5F5F5F5F5F5F5F5F5F5F5F5F5F5F5F5F5F5F5F5F5F5F5F5F5F5F5F5F5F5F5F5F5F5F5F5F5F5F5F5F5F5F5F5F5F5F5F5F5F5F5F5F5F5F5F5F5F5E2E2E2F5F5F5E2F5F5F5F5F5F5F5F5F5F5F5F5F5F5F5F5F5F5F5F5F5F5F5F5F5F5F5F5F5F5F5F5F5F5F5F5
310
F5F5F5F5F5F5F5F5F5F5F5F5F5F5F5F5F5F5F5F5F5F5F5F5F5F5F5F5F5F5F5F5F5F5F5F5F5F5F5F5F5F5F5F5F5F5F5F5F5F5F5F5F5F5F5F5F5F5F5F5F5F5F5F5F5F5F5F5F5F5F5F5F5F5F5F5F5F5F5F5F5F5F5F5F5F5F5F5F5F5F5F5F5F5F5F5F5F5F5F5F5F5F5F5F5F5F5F5F5F5F5F5F5F5F5F5F5F5F5F5F5F5F5F5F5F5F5
310
F5F5F5F5F5F5E2F5F5F5E2E2E2F5F5F5E2F5F5F5F5F5F5F5F5F5F5F5F5F5F5F5F5F5F5F5F5F5F5F5F5F5F5F5F5F5F5F5F5F5F5F5F5F5F5F5F5F5F5F5F5F5F5F5F5F5F5F5F5F5F5F5F5F5F5F5F5F5F5F5F5F5F5F5F5F5F5F5F5F5F5F5F5F5F5F5F5F5F5F5F5F5F5F5F5F5F5F5F5F5F5F5F5F5F5F5F5F5F5F5F5F5F5F5F5F5F5
310
F5F5F5F5F5F5F5F5F5F5F5F5F5F5F5F5F5F5F5F5F5F5F5F5F5F5F5F5F5F5F5F5F5F5F5F5F5F5F5F5F5F5F5F5F5F5F5F5F5F5F5F5F5F5F5F5F5F5F5E2F5F5F5E2E2E2F5F5F5E2F5F5F5F5F5F5F5F5F5F5F5F5F5F5F5F5F5F5F5F5F5F5F5F5F5F5F5F5F5F5F5F5F5F5F5F5F5F5F5F5F5F5F5F5F5F5F5F5F5F5F5F5F5F5F5F5F5
310
F5F5F5F5F5F5F5F5F5F5F5F5F5F5F5F5F5F5F5F5F5F5F5F5F5F5F5F5F5F5F5F5F5F5F5F5F5F5F5F5F5F5F5F5F5F5F5F5F5F5F5F5F5F5F5F5F5F5F5F5F5F5F5F5F5F5F5F5F5F5F5F5F5F5F5F5F5F5F5F5F5F5F5F5F5F5F5F5F5F5F5F5F5F5F5F5F5F5F5F5F5F5F5F5F5F5F5F5F5F5F5F5E2F5F5F5E2E2E2F5F5F5E2F5F5F5F5
310
F5F5F5F5F5F5F5F5F5F5F5F5F5F5F5F5F5F5F5F5F5F5F5F5F5F5F5F5F5F5F5F5F5F5F5F5F5F5F5F5F5F5F5F5F5F5F5F5F5F5F5F5F5F5F5F5F5F5F5F5F5F5F5F5F5F5F5F5F5F5F5F5F5F5F5F5F5F5F5F5F5F5F5F5F5F5F5F5F5F5F5F5F5F5F5F5F5F5F5F5F5F5F5F5F5F5F5F5F5F5F5F5F5F5F5F5F5F5F5F5F5F5F5F5F5F5F5
310
F5F5F5F5F5F5F5F5F5F5F5F5F5F5F5F5F5F5F5F5F5F5F5F5F5F5F5F5F5F5F5F5F5F5F5F5F5F5E2F5F5F5E2E2E2F5F5F5E2F5F5F5F5F5F5F5F5F5F5F5F5F5F5F5F5F5F5F5F5F5F5F5F5F5F5F5F5F5F5F5F5F5F5F5F5F5F5F5F5F5F5F5F5F5F5F5F5F5F5F5F5F5F5F5F5F5F5F5F5F5F5F5F5F5F5F5F5F5F5F5F5F5F5F5F5F5F5
310
F5F5F5F5F5F5F5F5F5F5F5F5F5F5F5F5F5F5F5F5F5F5F5F5F5F5F5F5F5F5F5F5F5F5F5F5F5F5F5F5F5F5F5F5F5F5F5F5F5F5F5F5F5F5F5F5F5F5F5F5F5F5F5F5F5F5F5F5F5F5F5F5F5F5F5F5F5F5F5F5F5F5F5F5F5F5F5F5F5F5F5E2F5F5F5E2E2E2F5F5F5E2F5F5F5F5F5F5F5F5F5F5F5F5F5F5F5F5F5F5F5F5F5F5F5F5F5
310
F5F5F5F5F5F5F5F5F5F5F5F5F5F5F5F5F5F5F5F5F5F5F5F5F5F5F5F5F5F5F5F5F5F5F5F5F5F5F5F5F5F5F5F5F5F5F5F5F5F5F5F5F5F5F5F5F5F5F5F5F5F5F5F5F5F5F5F5F5F5F5F5F5F5F5F5F5F5F5F5F5F5F5F5F5F5F5F5F5F5F5F5F5F5F5F5F5F5F5F5F5F5F5F5F5F5F5F5F5F5F5F5F5F5F5F5F5F5F5F5F5F5F5F5F5F5F5
310
F5F5F5F5F5F5F5F5F5F5F5F5F5F5F5F5F5E2F5F5F5E2E2E2F5F5F5E2F5F5F5F5F5F5F5F5F5F5F5F5F5F5F5F5F5F5F5F5F5F5F5F5F5F5F5F5F5F5F5F5F5F5F5F5F5F5F5F5F5F5F5F5F5F5F5F5F5F5F5F5F5F5F5F5F5F5F5F5F5F5F5F5F5F5F5F5F5F5F5F5F5F5F5F5F5F5F5F5F5F5F5F5F5F5F5F5F5F5F5F5F5F5F5F5F5F5F5
310
F5F5F5F5F5F5F5F5F5F5F5F5F5F5F5F5F5F5F5F5F5F5F5F5F5F5F5F5F5F5F5F5F5F5F5F5F5F5F5F5F5F5F5F5F5F5F5F5F5F5F5F5F5F5F5F5F5F5F5F5F5F5F5F5F5F5F5F5F5F5E2F5F5F5E2E2E2F5F5F5E2F5F5F5F5F5F5F5F5F5F5F5F5F5F5F5F5F5F5F5F5F5F5F5F5F5F5F5F5F5F5F5F5F5F5F5F5F5F5F5F5F5F5F5F5F5F5
310
F5F5F5F5F5F5F5F5F5F5F5F5F5F5F5F5F5F5F5F5F5F5F5F5F5F5F5F5F5F5F5F5F5F5F5F5F5F5F5F5F5F5F5F5F5F5F5F5F5F5F5F5F5F5F5F5F5F5F5F5F5F5F5F5F5F5F5F5F5F5F5F5F5F5F5F5F5F5F5F5F5F5F5F5F5F5F5F5F5F5F5F5F5F5F5F5F5F5F5F5F5F5F5F5F5F5F5F5F5F5F5F5F5F5F5F5F5F5F5F5F5F5F5E2F5F5F5
310
E2E2E2F5F5F5E2F5F5F5F5F5F5F5F5F5F5F5F5F5F5F5F5F5F5F5F5F5F5F5F5F5F5F5F5F5F5F5F5F5F5F5F5F5F5F5F5F5F5F5F5F5F5F5F5F5F5F5F5F5F5F5F5F5F5F5F5F5F5F5F5F5F5F5F5F5F5F5F5F5F5F5F5F5F5F5F5F5F5F5F5F5F5F5F5F5F5F5F5F5F5F5F5F5F5F5F5F5F5F5F5F5F5F5F5F5F5F5F5F5F5F5F5F5F5F5F5
310
F5F5F5F5F5F5F5F5F5F5F5F5F5F5F5F5F5F5F5F5F5F5F5F5F5F5F5F5F5F5F5F5F5F5F5F5F5F5F5F5F5F5F5F5F5F5F5F5F5E2F5F5F5E2E2E2F5F5F5E2F5F5F5F5F5F5F5F5F5F5F5F5F5F5F5F5F5F5F5F5F5F5F5F5F5F5F5F5F5F5F5F5F5F5F5F5F5F5F5F5F5F5F5F5F5F5F5F5F5F5F5F5F5F5F5F5F5F5F5F5F5F5F5F5F5F5F5
310
F5F5F5F5F5F5F5F5F5F5F5F5F5F5F5F5F5F5F5F5F5F5F5F5F5F5F5F5F5F5F5F5F5F5F5F5F5F5F5F5F5F5F5F5F5F5F5F5F5F5F5F5F5F5F5F5F5F5F5F5F5F5F5F5F5F5F5F5F5F5F5F5F5F5F5F5F5F5F5F5F5F5F5F5F5F5F5F5F5F5F5F5F5F5F5F5F5F5F5F5F5F5E2F5F5F5E2E2E2F5F5F5E2F5F5F5F5F5F5F5F5F5F5F5F5F5F5
310
F5F5F5F5F5F5F5F5F5F5F5F5F5F5F5F5F5F5F5F5F5F5F5F5F5F5F5F5F5F5F5F5F5F5F5F5F5F5F5F5F5F5F5F5F5F5F5F5F5F5F5F5F5F5F5F5F5F5F5F5F5F5F5F5F5F5F5F5F5F5F5F5F5F5F5F5F5F5F5F5F5F5F5F5F5F5F5F5F5F5F5F5F5F5F5F5F5F5F5F5F5F5F5F5F5F5F5F5F5F5F5F5F5F5F5F5F5F5F5F5F5F5F5F5F5F5F5
310
F5F5F5F5F5F5F5F5F5F5F5F5F5F5F5F5F5F5F5F5F5F5F5F5F5F5F5F5E2F5F5F5E2E2E2F5F5F5E2F5F5F5F5F5F5F5F5F5F5F5F5F5F5F5F5F5F5F5F5F5F5F5F5F5F5F5F5F5F5F5F5F5F5F5F5F5F5F5F5F5F5F5F5F5F5F5F5F5F5F5F5F5F5F5F5F5F5F5F5F5F5F5F5F5F5F5F5F5F5F5F5F5F5F5F5F5F5F5F5F5F5F5F5F5F5F5F5
310
F5F5F5F5F5F5F5F5F5F5F5F5F5F5F5F5F5F5F5F5F5F5F5F5F5F5F5F5F5F5F5F5F5F5F5F5F5F5F5F5F5F5F5F5F5F5F5F5F5F5F5F5F5F5F5F5F5F5F5F5F5F5F5F5F5F5F5F5F5F5F5F5F5F5F5F5F5F5F5F5F5E2F5F5F5E2E2E2F5F5F5E2F5F5F5F5F5F5F5F5F5F5F5F5F5F5F5F5F5F5F5F5F5F5F5F5F5F5F5F5F5F5F5F5F5F5F5
310
F5F5F5F5F5F5F5F5F5F5F5F5F5F5F5F5F5F5F5F5F5F5F5F5F5F5F5F5F5F5F5F5F5F5F5F5F5F5F5F5F5F5F5F5F5F5F5F5F5F5F5F5F5F5F5F5F5F5F5F5F5F5F5F5F5F5F5F5F5F5F5F5F5F5F5F5F5F5F5F5F5F5F5F5F5F5F5F5F5F5F5F5F5F5F5F5F5F5F5F5F5F5F5F5F5F5F5F5F5F5F5F5F5F5F5F5F5F5F5F5F5F5F5F5F5F5F5
310
F5F5F5F5F5F5F5E2F5F5F5E2E2E2F5F5F5E2F5F5F5F5F5F5F5F5F5F5F5F5F5F5F5F5F5F5F5F5F5F5F5F5F5F5F5F5F5F5F5F5F5F5F5F5F5F5F5F5F5F5F5F5F5F5F5F5F5F5F5F5F5F5F5F5F5F5F5F5F5F5F5F5F5F5F5F5F5F5F5F5F5F5F5F5F5F5F5F5F5F5F5F5F5F5F5F5F5F5F5F5F5F5F5F5F5F5F5F5F5F5F5F5F5F5F5F5F5
310
F5F5F5F5F5F5F5F5F5F5F5F5F5F5F5F5F5F5F5F5F5F5F5F5F5F5F5F5F5F5F5F5F5F5F5F5F5F5F5F5F5F5F5F5F5F5F5F5F5F5F5F5F5F5F5F5F5F5F5F5E2F5F5F5E2E2E2F5F5F5E2F5F5F5F5F5F5F5F5F5F5F5F5F5F5F5F5F5F5F5F5F5F5F5F5F5F5F5F5F5F5F5F5F5F5F5F5F5F5F5F5F5F5F5F5F5F5F5F5F5F5F5F5F5F5F5F5
310
F5F5F5F5F5F5F5F5F5F5F5F5F5F5F5F5F5F5F5F5F5F5F5F5F5F5F5F5F5F5F5F5F5F5F5F5F5F5F5F5F5F5F5F5F5F5F5F5F5F5F5F5F5F5F5F5F5F5F5F5F5F5F5F5F5F5F5F5F5F5F5F5F5F5F5F5F5F5F5F5F5F5F5F5F5F5F5F5F5F5F5F5F5F5F5F5F5F5F5F5F5F5F5F5F5F5F5F5F5F5F5F5F5E2F5F5F5E2E2E2F5F5F5E2F5F5F5
310
F5F5F5F5F5F5F5F5F5F5F5F5F5F5F5F5F5F5F5F5F5F5F5F5F5F5F5F5F5F5F5F5F5F5F5F5F5F5F5F5F5F5F5F5F5F5F5F5F5F5F5F5F5F5F5F5F5F5F5F5F5F5F5F5F5F5F5F5F5F5F5F5F5F5F5F5F5F5F5F5F5F5F5F5F5F5F5F5F5F5F5F5F5F5F5F5F5F5F5F5F5F5F5F5F5F5F5F5F5F5F5F5F5F5F5F5F5F5F5F5F5F5F5F5F5F5F5
310
F5F5F5F5F5F5F5F5F5F5F5F5F5F5F5F5F5F5F5F5F5F5F5F5F5F5F5F5F5F5F5F5F5F5F5F5F5F5F5E2F5F5F5E2E2E2F5F5F5F5F5F5F5F5F5F5F5F5F5F5F5F5F5F5F5F5F5F5F5F5F5F5F5F5F5F5F5F5F5F5F5F5F5F5F5F5F5F5F5F5F5F5F5F5F5F5F5F5F5F5F5F5F5F5F5F5F5F5F5F5F5F5F5F5F5F5F5F5F5F5F5F5F5F5F5F5F5
310
F5F5F5F5F5F5F5F5F5F5F5F5F5F5F5F5F5F5F5F5F5F5F5F5F5F5F5F5F5F5F5F5F5F5F5F5F5F5F5F5F5F5F5F5F5F5F5F5F5F5F5F5F5F5F5F5F5F5F5F5F5F5F5F5F5F5F5F5F5F5F5F5F5F5F5F5F5F5F5F5F5F5F5F5F5F5F5F5F5F5F5F5F5F5F5F5E2E2E2F5F5F5F5F5F5F5F5F5F5F5F5F5F5F5F5F5F5F5F5F5F5F5F5F5F5F5F5
310
F5F5F5F5F5F5F5F5F5F5F5F5F5F5F5F5F5F5F5F5F5F5F5F5F5F5F5F5F5F5F5F5F5F5F5F5F5F5F5F5F5F5F5F5F5F5F5F5F5F5F5F5F5F5F5F5F5F5F5F5F5F5F5F5F5F5F5F5F5F5F5F5F5F5F5F5F5F5F5F5F5F5F5F5F5F5F5F5F5F5F5F5F5F5F5F5F5F5F5F5F5F5F5F5F5F5F5F5F5F5F5F5F5F5F5F5F5F5F5F5F5F5F5F5F5F5F5
310
F5F5F5F5F5F5F5F5F5F5F5F5F5F5F5F5F5F5F5F5F5F5E2E2E2F5F5F5F5F5F5F5F5F5F5F5F5F5F5F5F5F5F5F5F5F5F5F5F5F5F5F5F5F5F5F5F5F5F5F5F5F5F5F5F5F5F5F5F5F5F5F5F5F5F5F5F5F5F5F5F5F5F5F5F5F5F5F5F5F5F5F5F5F5F5F5F5F5F5F5F5F5F5F5F5F5F5F5F5F5F5F5F5F5F5F5F5F5F5F5F5F5F5F5F5F5F5
310
F5F5F5F5F5F5F5F5F5F5F5F5F5F5F5F5F5F5F5F5F5F5F5F5F5F5F5F5F5F5F5F5F5F5F5F5F5F5F5F5F5F5F5F5F5F5F5F5F5F5F5F5F5F5F5F5F5F5F5F5F5F5F5F5F5F5F5F5F5F5F5F5F5F5F5E2E2E2F5F5F5F5F5F5F5F5F5F5F5F5F5F5F5F5F5F5F5F5F5F5F5F5F5F5F5F5F5F5F5F5F5F5F5F5F5F5F5F5F5F5F5F5F5F5F5F5F5
310
F5F5F5F5F5F5F5F5F5F5F5F5F5F5F5F5F5F5F5F5F5F5F5F5F5F5F5F5F5F5F5F5F5F5F5F5F5F5F5F5F5F5F5F5F5F5F5F5F5F5F5F5F5F5F5F5F5F5F5F5F5F5F5F5F5F5F5F5F5F5F5F5F5F5F5F5F5F5F5F5F5F5F5F5F5F5F5F5F5F5F5F5F5F5F5F5F5F5F5F5F5F5F5F5F5F5F5F5F5F5F5F5F5F5F5F5F5F5F5F5F5F5F5F5F5F5F5
310
F5E2E2E2F5F5F5F5F5F5F5F5F5F5F5F5F5F5F5F5F5F5F5F5F5F5F5F5F5F5F5F5F5F5F5F5F5F5F5F5F5F5F5F5F5F5F5F5F5F5F5F5F5F5F5F5F5F5F5F5F5F5F5F5F5F5F5F5F5F5F5F5F5F5F5F5F5F5F5F5F5F5F5F5F5F5F5F5F5F5F5F5F5F5F5F5F5F5F5F5F5F5F5F5F5F5F5F5F5F5F5F5F5F5F5F5F5F5F5F5F5F5F5F5F5F5F5
310
F5F5F5F5F5F5F5F5F5F5F5F5F5F5F5F5F5F5F5F5F5F5F5F5F5F5F5F5F5F5F5F5F5F5F5F5F5F5F5F5F5F5F5F5F5F5F5F5F5F5F5F5F5F5E2E2E2F5F5F5F5F5F5F5F5F5F5F5F5F5F5F5F5F5F5F5F5F5F5F5F5F5F5F5F5F5F5F5F5F5F5F5F5F5F5F5F5F5F5F5F5F5F5F5F5F5F5F5F5F5F5F5F5F5F5F5F5F5F5F5F5F5F5F5F5F5F5
310
F5F5F5F5F5F5F5F5F5F5F5F5F5F5F5F5F5F5F5F5F5F5F5F5F5F5F5F5F5F5F5F5F5F5F5F5F5F5F5F5F5F5F5F5F5F5F5F5F5F5F5F5F5F5F5F5F5F5F5F5F5F5F5F5F5F5F5F5F5F5F5F5F5F5F5F5F5F5F5F5F5F5F5F5F5F5F5F5F5F5F5F5F5F5F5F5F5F5F5F5F5F5F5F5F5F5F5E2E2E2F5F5F5F5F5F5F5F5F5F5F5F5F5F5F5F5F5
310
F5F5F5F5F5F5F5F5F5F5F5F5F5F5F5F5F5F5F5F5F5F5F5F5F5F5F5F5F5F5F5F5F5F5F5F5F5F5F5F5F5F5F5F5F5F5F5F5F5F5F5F5F5F5F5F5F5F5F5F5F5F5F5F5F5F5F5F5F5F5F5F5F5F5F5F5F5F5F5F5F5F5F5F5F5F5F5F5F5F5F5F5F5F5F5F5F5F5F5F5F5F5F5F5F5F5F5F5F5F5F5F5F5F5F5F5F5F5F5F5F5F5F5F5F5F5F5
310
F5F5F5F5F5F5F5F5F5F5F5F5F5F5F5F5F5F5F5F5F5F5F5F5F5F5F5F5F5F5F5F5F5E2E2E2F5F5F5F5F5F5F5F5F5F5F5F5F5F5F5F5F5F5F5F5F5F5F5F5F5F5F5F5F5F5F5F5F5F5F5F5F5F5F5F5F5F5F5F5F5F5F5F5F5F5F5F5F5F5F5F5F5F5F5F5F5F5F5F5F5F5F5F5F5F5F5F5F5F5F5F5F5F5F5F5F5F5F5F5F5F5F5F5F5F5F5
310
F5F5F5F5F5F5F5F5F5F5F5F5F5F5F5F5F5F5F5F5F5F5F5F5F5F5F5F5F5F5F5F5F5F5F5F5F5F5F5F5F5F5F5F5F5F5F5F5F5F5F5F5F5F5F5F5F5F5F5F5F5F5F5F5F5F5F5F5F5F5F5F5F5F5F5F5F5F5F5F5F5F5F5F5F5F5E2E2E2F5F5F5F5F5F5F5F5F5F5F5F5F5F5F5F5F5F5F5F5F5F5F5F5F5F5F5F5F5F5F5F5F5F5F5F5F5F5
310
F5F5F5F5F5F5F5F5F5F5F5F5F5F5F5F5F5F5F5F5F5F5F5F5F5F5F5F5F5F5F5F5F5F5F5F5F5F5F5F5F5F5F5F5F5F5F5F5F5F5F5F5F5F5F5F5F5F5F5F5F5F5F5F5F5F5F5F5F5F5F5F5F5F5F5F5F5F5F5F5F5F5F5F5F5F5F5F5F5F5F5F5F5F5F5F5F5F5F5F5F5F5F5F5F5F5F5F5F5F5F5F5F5F5F5F5F5F5F5F5F5F5F5F5F5F5F5
310
F5F5F5F5F5F5F5F5F5F5F5F5E2E2E2F5F5F5E2F5F5F5F5F5F5F5F5F5F5F5F5F5F5F5F5F5F5F5F5F5F5F5F5F5F5F5F5F5F5F5F5F5F5F5F5F5F5F5F5F5F5F5F5F5F5F5F5F5F5F5F5F5F5F5F5F5F5F5F5F5F5F5F5F5F5F5F5F5F5F5F5F5F5F5F5F5F5F5F5F5F5F5F5F5F5F5F5F5F5F5F5F5F5F5F5F5F5F5F5F5F5F5F5F5F5F5F5
310
F5F5F5F5F5F5F5F5F5F5F5F5F5F5F5F5F5F5F5F5F5F5F5F5F5F5F5F5F5F5F5F5F5F5F5F5F5F5F5F5F5F5F5F5F5F5F5F5F5F5F5F5F5F5F5F5F5F5F5F5F5E2F5F5F5E2E2E2F5F5F5E2F5F5F5F5F5F5F5F5F5F5F5F5F5F5F5F5F5F5F5F5F5F5F5F5F5F5F5F5F5F5F5F5F5F5F5F5F5F5F5F5F5F5F5F5F5F5F5F5F5F5F5F5F5F5F5
310
F5F5F5F5F5F5F5F5F5F5F5F5F5F5F5F5F5F5F5F5F5F5F5F5F5F5F5F5F5F5F5F5F5F5F5F5F5F5F5F5F5F5F5F5F5F5F5F5F5F5F5F5F5F5F5F5F5F5F5F5F5F5F5F5F5F5F5F5F5F5F5F5F5F5F5F5F5F5F5F5F5F5F5F5F5F5F5F5F5F5F5F5F5F5F5F5F5F5F5F5F5F5F5F5F5F5F5F5F5F5F5F5F5F5E2F5F5F5E2E2E2F5F5F5E2F5F5
310
F5F5F5F5F5F5F5F5F5F5F5F5F5F5F5F5F5F5F5F5F5F5F5F5F5F5F5F5F5F5F5F5F5F5F5F5F5F5F5F5F5F5F5F5F5F5F5F5F5F5F5F5F5F5F5F5F5F5F5F5F5F5F5F5F5F5F5F5F5F5F5F5F5F5F5F5F5F5F5F5F5F5F5F5F5F5F5F5F5F5F5F5F5F5F5F5F5F5F5F5F5F5F5F5F5F5F5F5F5F5F5F5F5F5F5F5F5F5F5F5F5F5F5F5F5F5F5
310
F5F5F5F5F5F5F5F5F5F5F5F5F5F5F5F5F5F5F5F5F5F5F5F5F5F5F5F5F5F5F5F5F5F5F5F5F5F5F5F5E2F5F5F5E2E2E2F5F5F5E2F5F5F5F5F5F5F5F5F5F5F5F5F5F5F5F5F5F5F5F5F5F5F5F5F5F5F5F5F5F5F5F5F5F5F5F5F5F5F5F5F5F5F5F5F5F5F5F5F5F5F5F5F5F5F5F5F5F5F5F5F5F5F5F5F5F5F5F5F5F5F5F5F5F5F5F5
310
F5F5F5F5F5F5F5F5F5F5F5F5F5F5F5F5F5F5F5F5F5F5F5F5F5F5F5F5F5F5F5F5F5F5F5F5F5F5F5F5F5F5F5F5F5F5F5F5F5F5F5F5F5F5F5F5F5F5F5F5F5F5F5F5F5F5F5F5F5F5F5F5F5F5F5F5F5F5F5F5F5F5F5F5F5F5F5F5F5F5F5F5F5E2F5F5F5E2E2E2F5F5F5E2F5F5F5F5F5F5F5F5F5F5F5F5F5F5F5F5F5F5F5F5F5F5F5
310
F5F5F5F5F5F5F5F5F5F5F5F5F5F5F5F5F5F5F5F5F5F5F5F5F5F5F5F5F5F5F5F5F5F5F5F5F5F5F5F5F5F5F5F5F5F5F5F5F5F5F5F5F5F5F5F5F5F5F5F5F5F5F5F5F5F5F5F5F5F5F5F5F5F5F5F5F5F5F5F5F5F5F5F5F5F5F5F5F5F5F5F5F5F5F5F5F5F5F5F5F5F5F5F5F5F5F5F5F5F5F5F5F5F5F5F5F5F5F5F5F5F5F5F5F5F5F5
310
F5F5F5F5F5F5F5F5F5F5F5F5F5F5F5F5F5F5F5E2F5F5F5E2E2E2F5F5F5E2F5F5F5F5F5F5F5F5F5F5F5F5F5F5F5F5F5F5F5F5F5F5F5F5F5F5F5F5F5F5F5F5F5F5F5F5F5F5F5F5F5F5F5F5F5F5F5F5F5F5F5F5F5F5F5F5F5F5F5F5F5F5F5F5F5F5F5F5F5F5F5F5F5F5F5F5F5F5F5F5F5F5F5F5F5F5F5F5F5F5F5F5F5F5F5F5F5
310
F5F5F5F5F5F5F5F5F5F5F5F5F5F5F5F5F5F5F5F5F5F5F5F5F5F5F5F5F5F5F5F5F5F5F5F5F5F5F5F5F5F5F5F5F5F5F5F5F5F5F5F5F5F5F5F5F5F5F5F5F5F5F5F5F5F5F5F5F5F5F5F5E2F5F5F5E2E2E2F5F5F5E2F5F5F5F5F5F5F5F5F5F5F5F5F5F5F5F5F5F5F5F5F5F5F5F5F5F5F5F5F5F5F5F5F5F5F5F5F5F5F5F5F5F5F5F5
310
F5F5F5F5F5F5F5F5F5F5F5F5F5F5F5F5F5F5F5F5F5F5F5F5F5F5F5F5F5F5F5F5F5F5F5F5F5F5F5F5F5F5F5F5F5F5F5F5F5F5F5F5F5F5F5F5F5F5F5F5F5F5F5F5F5F5F5F5F5F5F5F5F5F5F5F5F5F5F5F5F5F5F5F5F5F5F5F5F5F5F5F5F5F5F5F5F5F5F5F5F5F5F5F5F5F5F5F5F5F5F5F5F5F5F5F5F5F5F5F5F5F5F5F5F5E2F5
310
F5F5E2E2E2F5F5F5E2F5F5F5F5F5F5F5F5F5F5F5F5F5F5F5F5F5F5F5F5F5F5F5F5F5F5F5F5F5F5F5F5F5F5F5F5F5F5F5F5F5F5F5F5F5F5F5F5F5F5F5F5F5F5F5F5F5F5F5F5F5F5F5F5F5F5F5F5F5F5F5F5F5F5F5F5F5F5F5F5F5F5F5F5F5F5F5F5F5F5F5F5F5F5F5F5F5F5F5F5F5F5F5F5F5F5F5F5F5F5F5F5F5F5F5F5F5F5
310
F5F5F5F5F5F5F5F5F5F5F5F5F5F5F5F5F5F5F5F5F5F5F5F5F5F5F5F5F5F5F5F5F5F5F5F5F5F5F5F5F5F5F5F5F5F5F5F5F5F5F5E2F5F5F5E2E2E2F5F5F5E2F5F5F5F5F5F5F5F5F5F5F5F5F5F5F5F5F5F5F5F5F5F5F5F5F5F5F5F5F5F5F5F5F5F5F5F5F5F5F5F5F5F5F5F5F5F5F5F5F5F5F5F5F5F5F5F5F5F5F5F5F5F5F5F5F5
310
F5F5F5F5F5F5F5F5F5F5F5F5F5F5F5F5F5F5F5F5F5F5F5F5F5F5F5F5F5F5F5F5F5F5F5F5F5F5F5F5F5F5F5F5F5F5F5F5F5F5F5F5F5F5F5F5F5F5F5F5F5F5F5F5F5F5F5F5F5F5F5F5F5F5F5F5F5F5F5F5F5F5F5F5F5F5F5F5F5F5F5F5F5F5F5F5F5F5F5F5F5F5F5F5E2F5F5F5E2E2E2F5F5F5E2F5F5F5F5F5F5F5F5F5F5F5F5
310
F5F5F5F5F5F5F5F5F5F5F5F5F5F5F5F5F5F5F5F5F5F5F5F5F5F5F5F5F5F5F5F5F5F5F5F5F5F5F5F5F5F5F5F5F5F5F5F5F5F5F5F5F5F5F5F5F5F5F5F5F5F5F5F5F5F5F5F5F5F5F5F5F5F5F5F5F5F5F5F5F5F5F5F5F5F5F5F5F5F5F5F5F5F5F5F5F5F5F5F5F5F5F5F5F5F5F5F5F5F5F5F5F5F5F5F5F5F5F5F5F5F5F5F5F5F5F5
310
F5F5F5F5F5F5F5F5F5F5F5F5F5F5F5F5F5F5F5F5F5F5F5F5F5F5F5F5F5F5E2F5F5F5E2E2E2F5F5F5E2F5F5F5F5F5F5F5F5F5F5F5F5F5F5F5F5F5F5F5F5F5F5F5F5F5F5F5F5F5F5F5F5F5F5F5F5F5F5F5F5F5F5F5F5F5F5F5F5F5F5F5F5F5F5F5F5F5F5F5F5F5F5F5F5F5F5F5F5F5F5F5F5F5F5F5F5F5F5F5F5F5F5F5F5F5F5
310
F5F5F5F5F5F5F5F5F5F5F5F5F5F5F5F5F5F5F5F5F5F5F5F5F5F5F5F5F5F5F5F5F5F5F5F5F5F5F5F5F5F5F5F5F5F5F5F5F5F5F5F5F5F5F5F5F5F5F5F5F5F5F5F5F5F5F5F5F5F5F5F5F5F5F5F5F5F5F5F5F5F5F5E2F5F5F5E2E2E2F5F5F5E2F5F5F5F5F5F5F5F5F5F5F5F5F5F5F5F5F5F5F5F5F5F5F5F5F5F5F5F5F5F5F5F5F5
310
F5F5F5F5F5F5F5F5F5F5F5F5F5F5F5F5F5F5F5F5F5F5F5F5F5F5F5F5F5F5F5F5F5F5F5F5F5F5F5F5F5F5F5F5F5F5F5F5F5F5F5F5F5F5F5F5F5F5F5F5F5F5F5F5F5F5F5F5F5F5F5F5F5F5F5F5F5F5F5F5F5F5F5F5F5F5F5F5F5F5F5F5F5F5F5F5F5F5F5F5F5F5F5F5F5F5F5F5F5F5F5F5F5F5F5F5F5F5F5F5F5F5F5F5F5F5F5
310
F5F5F5F5F5F5F5F5F5E2F5F5F5E2E2E2F5F5F5E2F5F5F5F5F5F5F5F5F5F5F5F5F5F5F5F5F5F5F5F5F5F5F5F5F5F5F5F5F5F5F5F5F5F5F5F5F5F5F5F5F5F5F5F5F5F5F5F5F5F5F5F5F5F5F5F5F5F5F5F5F5F5F5F5F5F5F5F5F5F5F5F5F5F5F5F5F5F5F5F5F5F5F5F5F5F5F5F5F5F5F5F5F5F5F5F5F5F5F5F5F5F5F5F5F5F5F5
310
F5F5F5F5F5F5F5F5F5F5F5F5F5F5F5F5F5F5F5F5F5F5F5F5F5F5F5F5F5F5F5F5F5F5F5F5F5F5F5F5F5F5F5F5F5F5F5F5F5F5F5F5F5F5F5F5F5F5F5F5F5F5E2F5F5F5E2E2E2F5F5F5E2F5F5F5F5F5F5F5F5F5F5F5F5F5F5F5F5F5F5F5F5F5F5F5F5F5F5F5F5F5F5F5F5F5F5F5F5F5F5F5F5F5F5F5F5F5F5F5F5F5F5F5F5F5F5
310
F5F5F5F5F5F5F5F5F5F5F5F5F5F5F5F5F5F5F5F5F5F5F5F5F5F5F5F5F5F5F5F5F5F5F5F5F5F5F5F5F5F5F5F5F5F5F5F5F5F5F5F5F5F5F5F5F5F5F5F5F5F5F5F5F5F5F5F5F5F5F5F5F5F5F5F5F5F5F5F5F5F5F5F5F5F5F5F5F5F5F5F5F5F5F5F5F5F5F5F5F5F5F5F5F5F5F5F5F5F5F5F5F5F5F5E2F5F5F5E2E2E2F5F5F5E2F5
310
F5F5F5F5F5F5F5F5F5F5F5F5F5F5F5F5F5F5F5F5F5F5F5F5F5F5F5F5F5F5F5F5F5F5F5F5F5F5F5F5F5F5F5F5F5F5F5F5F5F5F5F5F5F5F5F5F5F5F5F5F5F5F5F5F5F5F5F5F5F5F5F5F5F5F5F5F5F5F5F5F5F5F5F5F5F5F5F5F5F5F5F5F5F5F5F5F5F5F5F5F5F5F5F5F5F5F5F5F5F5F5F5F5F5F5F5F5F5F5F5F5F5F5F5F5F5F5
310
F5F5F5F5F5F5F5F5F5F5F5F5F5F5F5F5F5F5F5F5F5F5F5F5F5F5F5F5F5F5F5F5F5F5F5F5F5F5F5F5F5E2F5F5F5E2E2E2F5F5F5E2F5F5F5F5F5F5F5F5F5F5F5F5F5F5F5F5F5F5F5F5F5F5F5F5F5F5F5F5F5F5F5F5F5F5F5F5F5F5F5F5F5F5F5F5F5F5F5F5F5F5F5F5F5F5F5F5F5F5F5F5F5F5F5F5F5F5F5F5F5F5F5F5F5F5F5
310
F5F5F5F5F5F5F5F5F5F5F5F5F5F5F5F5F5F5F5F5F5F5F5F5F5F5F5F5F5F5F5F5F5F5F5F5F5F5F5F5F5F5F5F5F5F5F5F5F5F5F5F5F5F5F5F5F5F5F5F5F5F5F5F5F5F5F5F5F5F5F5F5F5F5F5F5F5F5F5F5F5F5F5F5F5F5F5F5F5F5F5F5F5F5E2F5F5F5E2E2E2F5F5F5E2F5F5F5F5F5F5F5F5F5F5F5F5F5F5F5F5F5F5F5F5F5F5
310
F5F5F5F5F5F5F5F5F5F5F5F5F5F5F5F5F5F5F5F5F5F5F5F5F5F5F5F5F5F5F5F5F5F5F5F5F5F5F5F5F5F5F5F5F5F5F5F5F5F5F5F5F5F5F5F5F5F5F5F5F5F5F5F5F5F5F5F5F5F5F5F5F5F5F5F5F5F5F5F5F5F5F5F5F5F5F5F5F5F5F5F5F5F5F5F5F5F5F5F5F5F5F5F5F5F5F5F5F5F5F5F5F5F5F5F5F5F5F5F5F5F5F5F5F5F5F5
310
F5F5F5F5F5F5F5F5F5F5F5F5F5F5F5F5F5F5F5F5E2F5F5F5E2E2E2F5F5F5F5F5F5F5F5F5F5F5F5F5F5F5F5F5F5F5F5F5F5F5F5F5F5F5F5F5F5F5F5F5F5F5F5F5F5F5F5F5F5F5F5F5F5F5F5F5F5F5F5F5F5F5F5F5F5F5F5F5F5F5F5F5F5F5F5F5F5F5F5F5F5F5F5F5F5F5F5F5F5F5F5F5F5F5F5F5F5F5F5F5F5F5F5F5F5F5F5
310
F5F5F5F5F5F5F5F5F5F5F5F5F5F5F5F5F5F5F5F5F5F5F5F5F5F5F5F5F5F5F5F5F5F5F5F5F5F5F5F5F5F5F5F5F5F5F5F5F5F5F5F5F5F5F5F5F5F5F5F5F5F5F5F5F5F5F5F5F5F5F5F5F5F5F5F5F5E2E2E2F5F5F5F5F5F5F5F5F5F5F5F5F5F5F5F5F5F5F5F5F5F5F5F5F5F5F5F5F5F5F5F5F5F5F5F5F5F5F5F5F5F5F5F5F5F5F5
310
F5F5F5F5F5F5F5F5F5F5F5F5F5F5F5F5F5F5F5F5F5F5F5F5F5F5F5F5F5F5F5F5F5F5F5F5F5F5F5F5F5F5F5F5F5F5F5F5F5F5F5F5F5F5F5F5F5F5F5F5F5F5F5F5F5F5F5F5F5F5F5F5F5F5F5F5F5F5F5F5F5F5F5F5F5F5F5F5F5F5F5F5F5F5F5F5F5F5F5F5F5F5F5F5F5F5F5F5F5F5F5F5F5F5F5F5F5F5F5F5F5F5F5F5F5F5F5
310
F5F5F5E2E2E2F5F5F5F5F5F5F5F5F5F5F5F5F5F5F5F5F5F5F5F5F5F5F5F5F5F5F5F5F5F5F5F5F5F5F5F5F5F5F5F5F5F5F5F5F5F5F5F5F5F5F5F5F5F5F5F5F5F5F5F5F5F5F5F5F5F5F5F5F5F5F5F5F5F5F5F5F5F5F5F5F5F5F5F5F5F5F5F5F5F5F5F5F5F5F5F5F5F5F5F5F5F5F5F5F5F5F5F5F5F5F5F5F5F5F5F5F5F5F5F5F5
310
F5F5F5F5F5F5F5F5F5F5F5F5F5F5F5F5F5F5F5F5F5F5F5F5F5F5F5F5F5F5F5F5F5F5F5F5F5F5F5F5F5F5F5F5F5F5F5F5F5F5F5F5F5F5F5F5E2E2E2F5F5F5F5F5F5F5F5F5F5F5F5F5F5F5F5F5F5F5F5F5F5F5F5F5F5F5F5F5F5F5F5F5F5F5F5F5F5F5F5F5F5F5F5F5F5F5F5F5F5F5F5F5F5F5F5F5F5F5F5F5F5F5F5F5F5F5F5
310
F5F5F5F5F5F5F5F5F5F5F5F5F5F5F5F5F5F5F5F5F5F5F5F5F5F5F5F5F5F5F5F5F5F5F5F5F5F5F5F5F5F5F5F5F5F5F5F5F5F5F5F5F5F5F5F5F5F5F5F5F5F5F5F5F5F5F5F5F5F5F5F5F5F5F5F5F5F5F5F5F5F5F5F5F5F5F5F5F5F5F5F5F5F5F5F5F5F5F5F5F5F5F5F5F5F5F5F5F5E2E2E2F5F5F5F5F5F5F5F5F5F5F5F5F5F5F5
310
F5F5F5F5F5F5F5F5F5F5F5F5F5F5F5F5F5F5F5F5F5F5F5F5F5F5F5F5F5F5F5F5F5F5F5F5F5F5F5F5F5F5F5F5F5F5F5F5F5F5F5F5F5F5F5F5F5F5F5F5F5F5F5F5F5F5F5F5F5F5F5F5F5F5F5F5F5F5F5F5F5F5F5F5F5F5F5F5F5F5F5F5F5F5F5F5F5F5F5F5F5F5F5F5F5F5F5F5F5F5F5F5F5F5F5F5F5F5F5F5F5F5F5F5F5F5F5
310
F5F5F5F5F5F5F5F5F5F5F5F5F5F5F5F5F5F5F5F5F5F5F5F5F5F5F5F5F5F5F5F5F5F5F5E2E2E2F5F5F5F5F5F5F5F5F5F5F5F5F5F5F5F5F5F5F5F5F5F5F5F5F5F5F5F5F5F5F5F5F5F5F5F5F5F5F5F5F5F5F5F5F5F5F5F5F5F5F5F5F5F5F5F5F5F5F5F5F5F5F5F5F5F5F5F5F5F5F5F5F5F5F5F5F5F5F5F5F5F5F5F5F5F5F5F5F5
310
F5F5F5F5F5F5F5F5F5F5F5F5F5F5F5F5F5F5F5F5F5F5F5F5F5F5F5F5F5F5F5F5F5F5F5F5F5F5F5F5F5F5F5F5F5F5F5F5F5F5F5F5F5F5F5F5F5F5F5F5F5F5F5F5F5F5F5F5F5F5F5F5F5F5F5F5F5F5F5F5F5F5F5F5F5F5F5F5E2E2E2F5F5F5F5F5F5F5F5F5F5F5F5F5F5F5F5F5F5F5F5F5F5F5F5F5F5F5F5F5F5F5F5F5F5F5F5
310
F5F5F5F5F5F5F5F5F5F5F5F5F5F5F5F5F5F5F5F5F5F5F5F5F5F5F5F5F5F5F5F5F5F5F5F5F5F5F5F5F5F5F5F5F5F5F5F5F5F5F5F5F5F5F5F5F5F5F5F5F5F5F5F5F5F5F5F5F5F5F5F5F5F5F5F5F5F5F5F5F5F5F5F5F5F5F5F5F5F5F5F5F5F5F5F5F5F5F5F5F5F5F5F5F5F5F5F5F5F5F5F5F5F5F5F5F5F5F5F5F5F5F5F5F5F5F5
310
F5F5F5F5F5F5F5F5F5F5F5F5F5F5E2E2E2F5F5F5F5F5F5F5F5F5F5F5F5F5F5F5F5F5F5F5F5F5F5F5F5F5F5F5F5F5F5F5F5F5F5F5F5F5F5F5F5F5F5F5F5F5F5F5F5F5F5F5F5F5F5F5F5F5F5F5F5F5F5F5F5F5F5F5F5F5F5F5F5F5F5F5F5F5F5F5F5F5F5F5F5F5F5F5F5F5F5F5F5F5F5F5F5F5F5F5F5F5F5F5F5F5F5F5F5F5F5
310
F5F5F5F5F5F5F5F5F5F5F5F5F5F5F5F5F5F5F5F5F5F5F5F5F5F5F5F5F5F5F5F5F5F5F5F5F5F5F5F5F5F5F5F5F5F5F5F5F5F5F5F5F5F5F5F5F5F5F5F5F5F5F5F5F5F5F5E2E2E2F5F5F5F5F5F5F5F5F5F5F5F5F5F5F5F5F5F5F5F5F5F5F5F5F5F5F5F5F5F5F5F5F5F5F5F5F5F5F5F5F5F5F5F5F5F5F5F5F5F5F5F5F5F5F5F5F5
310
F5F5F5F5F5F5F5F5F5F5F5F5F5F5F5F5F5F5F5F5F5F5F5F5F5F5F5F5F5F5F5F5F5F5F5F5F5F5F5F5F5F5F5F5F5F5F5F5F5F5F5F5F5F5F5F5F5F5F5F5F5F5F5F5F5F5F5F5F5F5F5F5F5F5F5F5F5F5F5F5F5F5F5F5F5F5F5F5F5F5F5F5F5F5F5F5F5F5F5F5F5F5F5F5F5F5F5F5F5F5F5F5F5F5F5F5F5F5F5F5E2E2E2F5F5F5E2
310
F5F5F5F5F5F5F5F5F5F5F5F5F5F5F5F5F5F5F5F5F5F5F5F5F5F5F5F5F5F5F5F5F5F5F5F5F5F5F5F5F5F5F5F5F5F5F5F5F5F5F5F5F5F5F5F5F5F5F5F5F5F5F5F5F5F5F5F5F5F5F5F5F5F5F5F5F5F5F5F5F5F5F5F5F5F5F5F5F5F5F5F5F5F5F5F5F5F5F5F5F5F5F5F5F5F5F5F5F5F5F5F5F5F5F5F5F5F5F5F5F5F5F5F5F5F5F5
310
F5F5F5F5F5F5F5F5F5F5F5F5F5F5F5F5F5F5F5F5F5F5F5F5F5F5F5F5F5F5F5F5F5F5F5F5F5F5F5F5F5F5E2F5F5F5E2E2E2F5F5F5E2F5F5F5F5F5F5F5F5F5F5F5F5F5F5F5F5F5F5F5F5F5F5F5F5F5F5F5F5F5F5F5F5F5F5F5F5F5F5F5F5F5F5F5F5F5F5F5F5F5F5F5F5F5F5F5F5F5F5F5F5F5F5F5F5F5F5F5F5F5F5F5F5F5F5
310
F5F5F5F5F5F5F5F5F5F5F5F5F5F5F5F5F5F5F5F5F5F5F5F5F5F5F5F5F5F5F5F5F5F5F5F5F5F5F5F5F5F5F5F5F5F5F5F5F5F5F5F5F5F5F5F5F5F5F5F5F5F5F5F5F5F5F5F5F5F5F5F5F5F5F5F5F5F5F5F5F5F5F5F5F5F5F5F5F5F5F5F5F5F5F5E2F5F5F5E2E2E2F5F5F5E2F5F5F5F5F5F5F5F5F5F5F5F5F5F5F5F5F5F5F5F5F5
310
F5F5F5F5F5F5F5F5F5F5F5F5F5F5F5F5F5F5F5F5F5F5F5F5F5F5F5F5F5F5F5F5F5F5F5F5F5F5F5F5F5F5F5F5F5F5F5F5F5F5F5F5F5F5F5F5F5F5F5F5F5F5F5F5F5F5F5F5F5F5F5F5F5F5F5F5F5F5F5F5F5F5F5F5F5F5F5F5F5F5F5F5F5F5F5F5F5F5F5F5F5F5F5F5F5F5F5F5F5F5F5F5F5F5F5F5F5F5F5F5F5F5F5F5F5F5F5
310
F5F5F5F5F5F5F5F5F5F5F5F5F5F5F5F5F5F5F5F5F5E2F5F5F5E2E2E2F5F5F5E2F5F5F5F5F5F5F5F5F5F5F5F5F5F5F5F5F5F5F5F5F5F5F5F5F5F5F5F5F5F5F5F5F5F5F5F5F5F5F5F5F5F5F5F5F5F5F5F5F5F5F5F5F5F5F5F5F5F5F5F5F5F5F5F5F5F5F5F5F5F5F5F5F5F5F5F5F5F5F5F5F5F5F5F5F5F5F5F5F5F5F5F5F5F5F5
310
F5F5F5F5F5F5F5F5F5F5F5F5F5F5F5F5F5F5F5F5F5F5F5F5F5F5F5F5F5F5F5F5F5F5F5F5F5F5F5F5F5F5F5F5F5F5F5F5F5F5F5F5F5F5F5F5F5F5F5F5F5F5F5F5F5F5F5F5F5F5F5F5F5F5E2F5F5F5E2E2E2F5F5F5E2F5F5F5F5F5F5F5F5F5F5F5F5F5F5F5F5F5F5F5F5F5F5F5F5F5F5F5F5F5F5F5F5F5F5F5F5F5F5F5F5F5F5
310
F5F5F5F5F5F5F5F5F5F5F5F5F5F5F5F5F5F5F5F5F5F5F5F5F5F5F5F5F5F5F5F5F5F5F5F5F5F5F5F5F5F5F5F5F5F5F5F5F5F5F5F5F5F5F5F5F5F5F5F5F5F5F5F5F5F5F5F5F5F5F5F5F5F5F5F5F5F5F5F5F5F5F5F5F5F5F5F5F5F5F5F5F5F5F5F5F5F5F5F5F5F5F5F5F5F5F5F5F5F5F5F5F5F5F5F5F5F5F5F5F5F5F5F5F5F5F5
310
E2F5F5F5E2E2E2F5F5F5E2F5F5F5F5F5F5F5F5F5F5F5F5F5F5F5F5F5F5F5F5F5F5F5F5F5F5F5F5F5F5F5F5F5F5F5F5F5F5F5F5F5F5F5F5F5F5F5F5F5F5F5F5F5F5F5F5F5F5F5F5F5F5F5F5F5F5F5F5F5F5F5F5F5F5F5F5F5F5F5F5F5F5F5F5F5F5F5F5F5F5F5F5F5F5F5F5F5F5F5F5F5F5F5F5F5F5F5F5F5F5F5F5F5F5F5F5
310
F5F5F5F5F5F5F5F5F5F5F5F5F5F5F5F5F5F5F5F5F5F5F5F5F5F5F5F5F5F5F5F5F5F5F5F5F5F5F5F5F5F5F5F5F5F5F5F5F5F5F5F5F5E2F5F5F5E2E2E2F5F5F5E2F5F5F5F5F5F5F5F5F5F5F5F5F5F5F5F5F5F5F5F5F5F5F5F5F5F5F5F5F5F5F5F5F5F5F5F5F5F5F5F5F5F5F5F5F5F5F5F5F5F5F5F5F5F5F5F5F5F5F5F5F5F5F5
310
F5F5F5F5F5F5F5F5F5F5F5F5F5F5F5F5F5F5F5F5F5F5F5F5F5F5F5F5F5F5F5F5F5F5F5F5F5F5F5F5F5F5F5F5F5F5F5F5F5F5F5F5F5F5F5F5F5F5F5F5F5F5F5F5F5F5F5F5F5F5F5F5F5F5F5F5F5F5F5F5F5F5F5F5F5F5F5F5F5F5F5F5F5F5F5F5F5F5F5F5F5F5F5F5F5F5E2F5F5F5E2E2E2F5F5F5E2F5F5F5F5F5F5F5F5F5F5
310
F5F5F5F5F5F5F5F5F5F5F5F5F5F5F5F5F5F5F5F5F5F5F5F5F5F5F5F5F5F5F5F5F5F5F5F5F5F5F5F5F5F5F5F5F5F5F5F5F5F5F5F5F5F5F5F5F5F5F5F5F5F5F5F5F5F5F5F5F5F5F5F5F5F5F5F5F5F5F5F5F5F5F5F5F5F5F5F5F5F5F5F5F5F5F5F5F5F5F5F5F5F5F5F5F5F5F5F5F5F5F5F5F5F5F5F5F5F5F5F5F5F5F5F5F5F5F5
310
F5F5F5F5F5F5F5F5F5F5F5F5F5F5F5F5F5F5F5F5F5F5F5F5F5F5F5F5F5F5F5F5E2F5F5F5E2E2E2F5F5F5E2E2E2E2E2E2E2E2F5F5F5F5F5F5F5F5F5E2E2E2E2E2E2E2E2E2E2E2E2E2E2E2E2F5F5F5F5F5F5F5F5E2E2E2E2E2E2E2E2E2E2E2E2E2E2E2E2F5F5F5F5F5F5F5F5F5E2E2E2E2E2E2E2E2E2E2E2E2E2E2E2F5F5F5F5
310
F5F5F5F5F5E2E2E2E2E2E2E2E2E2E2E2E2E2E2E2F5F5F5F5F5F5F5F5F5E2E2E2E2E2E2E2E2E2E2E2E2E2E2E2E2F5F5F5F5F5F5F5F5E2E2E2E2E2E2E2E2E2E2E2E2E2E2E2E2F5F5F5F5F5F5F5F5F5E2E2E2E2E2E2E2E2F5F5F5E2E2E2F5F5F5F5F5F5F5F5F5F5F5F5F5F5F5F5F5F5F5F5F5F5F5F5F5F5F5F5F5F5F5F5F5F5F5
310
F5F5F5F5F5F5F5F5F5F5F5F5F5F5F5F5F5F5F5F5F5F5F5F5F5F5F5F5F5F5F5F5F5F5F5F5F5F5F5F5F5F5F5F5F5F5F5F5F5F5F5F5F5F5F5F5F5F5F5F5F5F5F5F5F5F5F5F5F5F5F5F5F5F5F5F5F5F5F5F5F5F5F5F5F5F5F5F5F5F5F5F5F5F5F5F5F5F5F5F5F5F5F5F5F5F5F5F5F5F5F5F5F5F5F5F5F5F5F5F5F5F5F5F5F5F5F5
310
F5F5F5F5F5F5F5F5F5F5F5F5F5F5F5E2E2E2F5F5F5F5F5F5F5F5F5F5F5F5F5F5F5F5F5F5F5F5F5F5F5F5F5F5F5F5F5F5F5F5F5F5F5F5F5F5F5F5F5F5F5F5F5F5F5F5F5F5F5F5F5F5F5F5F5F5F5F5F5F5F5F5F5F5F5F5F5F5F5F5F5F5F5F5F5F5F5F5F5F5F5F5F5F5F5F5F5F5F5F5F5F5F5F5F5F5F5F5F5F5F5F5F5F5F5F5F5
310
F5F5F5F5F5F5F5F5F5F5F5F5F5F5F5F5F5F5F5F5F5F5F5F5F5F5F5F5F5F5F5F5F5F5F5F5F5F5F5F5F5F5F5F5F5F5F5F5F5F5F5F5F5F5F5F5F5F5F5F5F5F5F5F5F5F5F5F5E2E2E2F5F5F5F5F5F5F5F5F5F5F5F5F5F5F5F5F5F5F5F5F5F5F5F5F5F5F5F5F5F5F5F5F5F5F5F5F5F5F5F5F5F5F5F5F5F5F5F5F5F5F5F5F5F5F5F5
310
F5F5F5F5F5F5F5F5F5F5F5F5F5F5F5F5F5F5F5F5F5F5F5F5F5F5F5F5F5F5F5F5F5F5F5F5F5F5F5F5F5F5F5F5F5F5F5F5F5F5F5F5F5F5F5F5F5F5F5F5F5F5F5F5F5F5F5F5F5F5F5F5F5F5F5F5F5F5F5F5F5F5F5F5F5F5F5F5F5F5F5F5F5F5F5F5F5F5F5F5F5F5F5F5F5F5F5F5F5F5F5F5F5F5F5F5F5F5F5F5F5E2EFE2F5F5F5
310
F5F5F5F5F5F5F5F5F5F5F5F5F5F5F5F5F5F5F5F5F5F5F5F5F5F5F5F5F5F5F5F5F5F5F5F5F5F5F5F5F5F5F5F5F5F5F5F5F5F5F5F5F5F5F5F5F5F5F5F5F5F5F5F5F5F5F5F5F5F5F5F5F5F5F5F5F5F5F5F5F5F5F5F5F5F5F5F5F5F5F5F5F5F5F5F5F5F5F5F5F5F5F5F5F5F5F5F5F5F5F5F5F5F5F5F5F5F5F5F5F5F5F5F5F5F5F5
310
F5F5F5F5F5F5F5F5F5F5F5F5F5F5F5F5F5F5F5F5F5F5F5F5F5F5F5F5F5F5F5F5F5F5F5F5F5F5F5F5F5F5F5F5F5F5F5E2EF
  0
XRECORD
  5
494D
102
{ACAD_REACTORS
330
494C
102
}
330
494C
100
AcDbXrecord
280
     1
102
SHADEPLOT
 70
     0
102
SHADEPLOTRESLEVEL
 70
     2
102
SHADEPLOTCUSTOMDPI
 70
   300
  0
XRECORD
  5
4958
102
{ACAD_REACTORS
330
4957
102
}
330
4957
100
AcDbXrecord
280
     1
102
MATERIAL
148
0.0
149
0.0
149
0.0
 93
        0
 94
       63
282
     0
 72
     1
 77
     1
171
     1
175
     1
179
     1
273
     0
  0
XRECORD
  5
4956
102
{ACAD_REACTORS
330
4955
102
}
330
4955
100
AcDbXrecord
280
     1
102
MATERIAL
148
0.0
149
0.0
149
0.0
 93
        0
 94
       63
282
     0
 72
     1
 77
     1
171
     1
175
     1
179
     1
273
     0
  0
XRECORD
  5
495A
102
{ACAD_REACTORS
330
4959
102
}
330
4959
100
AcDbXrecord
280
     1
102
MATERIAL
148
0.0
149
0.0
149
0.0
 93
        0
 94
       63
282
     0
 72
     1
 77
     1
171
     1
175
     1
179
     1
273
     0
  0
XRECORD
  5
497C
102
{ACAD_REACTORS
330
497B
102
}
330
497B
100
AcDbXrecord
280
     1
102
SHADEPLOT
 70
     0
102
SHADEPLOTRESLEVEL
 70
     2
102
SHADEPLOTCUSTOMDPI
 70
   300
  0
XRECORD
  5
497E
102
{ACAD_REACTORS
330
497D
102
}
330
497D
100
AcDbXrecord
280
     1
102
SHADEPLOT
 70
     0
102
SHADEPLOTRESLEVEL
 70
     2
102
SHADEPLOTCUSTOMDPI
 70
   300
  0
XRECORD
  5
4980
102
{ACAD_REACTORS
330
497F
102
}
330
497F
100
AcDbXrecord
280
     1
102
SHADEPLOT
 70
     0
102
SHADEPLOTRESLEVEL
 70
     2
102
SHADEPLOTCUSTOMDPI
 70
   300
  0
XRECORD
  5
4982
102
{ACAD_REACTORS
330
4981
102
}
330
4981
100
AcDbXrecord
280
     1
102
SHADEPLOT
 70
     0
102
SHADEPLOTRESLEVEL
 70
     2
102
SHADEPLOTCUSTOMDPI
 70
   300
  0
XRECORD
  5
4984
102
{ACAD_REACTORS
330
4983
102
}
330
4983
100
AcDbXrecord
280
     1
102
SHADEPLOT
 70
     0
102
SHADEPLOTRESLEVEL
 70
     2
102
SHADEPLOTCUSTOMDPI
 70
   300
  0
CELLSTYLEMAP
  5
4940
102
{ACAD_REACTORS
330
493F
102
}
330
493F
100
AcDbCellStyleMap
 90
        3
300
CELLSTYLE
  1
TABLEFORMAT_BEGIN
 90
        5
170
     1
 91
        0
 92
    32768
 62
   257
 93
        1
300
CONTENTFORMAT
  1
CONTENTFORMAT_BEGIN
 90
        0
 91
        0
 92
        4
 93
        0
300

 40
0.0
140
1.0
 94
        5
 62
     0
340
11
144
6.0
309
CONTENTFORMAT_END
171
     1
301
MARGIN
  1
CELLMARGIN_BEGIN
 40
1.5
 40
1.5
 40
1.5
 40
1.5
 40
0.18
 40
0.18
309
CELLMARGIN_END
 94
        6
 95
        1
302
GRIDFORMAT
  1
GRIDFORMAT_BEGIN
 90
        0
 91
        1
 62
     0
 92
       -2
340
0
 93
        0
 40
0.045
309
GRIDFORMAT_END
 95
        2
302
GRIDFORMAT
  1
GRIDFORMAT_BEGIN
 90
        0
 91
        1
 62
     0
 92
       -2
340
0
 93
        0
 40
0.045
309
GRIDFORMAT_END
 95
        4
302
GRIDFORMAT
  1
GRIDFORMAT_BEGIN
 90
        0
 91
        1
 62
     0
 92
       -2
340
0
 93
        0
 40
0.045
309
GRIDFORMAT_END
 95
        8
302
GRIDFORMAT
  1
GRIDFORMAT_BEGIN
 90
        0
 91
        1
 62
     0
 92
       -2
340
0
 93
        0
 40
0.045
309
GRIDFORMAT_END
 95
       16
302
GRIDFORMAT
  1
GRIDFORMAT_BEGIN
 90
        0
 91
        1
 62
     0
 92
       -2
340
0
 93
        0
 40
0.045
309
GRIDFORMAT_END
 95
       32
302
GRIDFORMAT
  1
GRIDFORMAT_BEGIN
 90
        0
 91
        1
 62
     0
 92
       -2
340
0
 93
        0
 40
0.045
309
GRIDFORMAT_END
309
TABLEFORMAT_END
  1
CELLSTYLE_BEGIN
 90
        1
 91
        1
300
_TITLE
309
CELLSTYLE_END
300
CELLSTYLE
  1
TABLEFORMAT_BEGIN
 90
        5
170
     1
 91
        0
 92
        0
 62
   257
 93
        1
300
CONTENTFORMAT
  1
CONTENTFORMAT_BEGIN
 90
        0
 91
        0
 92
        4
 93
        0
300

 40
0.0
140
1.0
 94
        5
 62
     0
340
11
144
4.5
309
CONTENTFORMAT_END
171
     1
301
MARGIN
  1
CELLMARGIN_BEGIN
 40
1.5
 40
1.5
 40
1.5
 40
1.5
 40
0.18
 40
0.18
309
CELLMARGIN_END
 94
        6
 95
        1
302
GRIDFORMAT
  1
GRIDFORMAT_BEGIN
 90
        0
 91
        1
 62
     0
 92
       -2
340
0
 93
        0
 40
0.045
309
GRIDFORMAT_END
 95
        2
302
GRIDFORMAT
  1
GRIDFORMAT_BEGIN
 90
        0
 91
        1
 62
     0
 92
       -2
340
0
 93
        0
 40
0.045
309
GRIDFORMAT_END
 95
        4
302
GRIDFORMAT
  1
GRIDFORMAT_BEGIN
 90
        0
 91
        1
 62
     0
 92
       -2
340
0
 93
        0
 40
0.045
309
GRIDFORMAT_END
 95
        8
302
GRIDFORMAT
  1
GRIDFORMAT_BEGIN
 90
        0
 91
        1
 62
     0
 92
       -2
340
0
 93
        0
 40
0.045
309
GRIDFORMAT_END
 95
       16
302
GRIDFORMAT
  1
GRIDFORMAT_BEGIN
 90
        0
 91
        1
 62
     0
 92
       -2
340
0
 93
        0
 40
0.045
309
GRIDFORMAT_END
 95
       32
302
GRIDFORMAT
  1
GRIDFORMAT_BEGIN
 90
        0
 91
        1
 62
     0
 92
       -2
340
0
 93
        0
 40
0.045
309
GRIDFORMAT_END
309
TABLEFORMAT_END
  1
CELLSTYLE_BEGIN
 90
        2
 91
        1
300
_HEADER
309
CELLSTYLE_END
300
CELLSTYLE
  1
TABLEFORMAT_BEGIN
 90
        5
170
     1
 91
        0
 92
        0
 62
   257
 93
        1
300
CONTENTFORMAT
  1
CONTENTFORMAT_BEGIN
 90
        0
 91
        0
 92
        4
 93
        0
300

 40
0.0
140
1.0
 94
        2
 62
     0
340
11
144
4.5
309
CONTENTFORMAT_END
171
     1
301
MARGIN
  1
CELLMARGIN_BEGIN
 40
1.5
 40
1.5
 40
1.5
 40
1.5
 40
0.18
 40
0.18
309
CELLMARGIN_END
 94
        6
 95
        1
302
GRIDFORMAT
  1
GRIDFORMAT_BEGIN
 90
        0
 91
        1
 62
     0
 92
       -2
340
0
 93
        0
 40
0.045
309
GRIDFORMAT_END
 95
        2
302
GRIDFORMAT
  1
GRIDFORMAT_BEGIN
 90
        0
 91
        1
 62
     0
 92
       -2
340
0
 93
        0
 40
0.045
309
GRIDFORMAT_END
 95
        4
302
GRIDFORMAT
  1
GRIDFORMAT_BEGIN
 90
        0
 91
        1
 62
     0
 92
       -2
340
0
 93
        0
 40
0.045
309
GRIDFORMAT_END
 95
        8
302
GRIDFORMAT
  1
GRIDFORMAT_BEGIN
 90
        0
 91
        1
 62
     0
 92
       -2
340
0
 93
        0
 40
0.045
309
GRIDFORMAT_END
 95
       16
302
GRIDFORMAT
  1
GRIDFORMAT_BEGIN
 90
        0
 91
        1
 62
     0
 92
       -2
340
0
 93
        0
 40
0.045
309
GRIDFORMAT_END
 95
       32
302
GRIDFORMAT
  1
GRIDFORMAT_BEGIN
 90
        0
 91
        1
 62
     0
 92
       -2
340
0
 93
        0
 40
0.045
309
GRIDFORMAT_END
309
TABLEFORMAT_END
  1
CELLSTYLE_BEGIN
 90
        3
 91
        2
300
_DATA
309
CELLSTYLE_END
  0
XRECORD
  5
494E
102
{ACAD_REACTORS
330
493F
102
}
330
493F
100
AcDbXrecord
280
     1
102
ACAD_ROUNDTRIP_PRE2007_TABLESTYLE
 90
        4
 91
        0
  1

 92
        4
 93
        0
  2

 94
        4
 95
        0
  3

  0
XRECORD
  5
4966
102
{ACAD_REACTORS
330
4965
102
}
330
4965
100
AcDbXrecord
280
     1
102
RTVSPropertyOp0
 70
     1
102
RTVSPropertyOp1
 70
     1
102
RTVSPropertyOp2
 70
     1
102
RTVSPropertyOp3
 70
     1
102
RTVSPropertyOp4
 70
     1
102
RTVSPropertyOp5
 70
     1
102
RTVSPropertyOp6
 70
     1
102
RTVSPropertyOp7
 70
     1
102
RTVSPropertyOp8
 70
     1
102
RTVSPropertyOp9
 70
     1
102
RTVSPropertyOp10
 70
     1
102
RTVSPropertyOp11
 70
     1
102
RTVSPropertyOp12
 70
     1
102
RTVSPropertyOp13
 70
     1
102
RTVSPropertyOp14
 70
     1
102
RTVSPropertyOp15
 70
     1
102
RTVSPropertyOp16
 70
     1
102
RTVSPropertyOp17
 70
     1
102
RTVSPropertyOp18
 70
     1
102
RTVSPropertyOp19
 70
     1
102
RTVSPropertyOp20
 70
     1
102
RTVSPropertyOp21
 70
     1
102
RTVSPropertyOp22
 70
     1
102
RTVSPropertyOp23
 70
     1
102
RTVSPropertyOp24
 70
     1
102
RTVSPropertyOp25
 70
     1
102
RTVSPropertyOp26
 70
     1
102
RTVSPropertyOp27
 70
     1
  0
XRECORD
  5
496A
102
{ACAD_REACTORS
330
4969
102
}
330
4969
100
AcDbXrecord
280
     1
102
RTVSPropertyOp0
 70
     1
102
RTVSPropertyOp1
 70
     1
102
RTVSPropertyOp2
 70
     1
102
RTVSPropertyOp3
 70
     1
102
RTVSPropertyOp4
 70
     1
102
RTVSPropertyOp5
 70
     1
102
RTVSPropertyOp6
 70
     1
102
RTVSPropertyOp7
 70
     1
102
RTVSPropertyOp8
 70
     1
102
RTVSPropertyOp9
 70
     1
102
RTVSPropertyOp10
 70
     1
102
RTVSPropertyOp11
 70
     1
102
RTVSPropertyOp12
 70
     1
102
RTVSPropertyOp13
 70
     1
102
RTVSPropertyOp14
 70
     1
102
RTVSPropertyOp15
 70
     1
102
RTVSPropertyOp16
 70
     1
102
RTVSPropertyOp17
 70
     1
102
RTVSPropertyOp18
 70
     1
102
RTVSPropertyOp19
 70
     1
102
RTVSPropertyOp20
 70
     1
102
RTVSPropertyOp21
 70
     1
102
RTVSPropertyOp22
 70
     1
102
RTVSPropertyOp23
 70
     1
102
RTVSPropertyOp24
 70
     1
102
RTVSPropertyOp25
 70
     1
102
RTVSPropertyOp26
 70
     1
102
RTVSPropertyOp27
 70
     1
  0
XRECORD
  5
4968
102
{ACAD_REACTORS
330
4967
102
}
330
4967
100
AcDbXrecord
280
     1
102
RTVSPropertyOp0
 70
     1
102
RTVSPropertyOp1
 70
     1
102
RTVSPropertyOp2
 70
     1
102
RTVSPropertyOp3
 70
     1
102
RTVSPropertyOp4
 70
     1
102
RTVSPropertyOp5
 70
     1
102
RTVSPropertyOp6
 70
     1
102
RTVSPropertyOp7
 70
     1
102
RTVSPropertyOp8
 70
     1
102
RTVSPropertyOp9
 70
     1
102
RTVSPropertyOp10
 70
     1
102
RTVSPropertyOp11
 70
     1
102
RTVSPropertyOp12
 70
     1
102
RTVSPropertyOp13
 70
     1
102
RTVSPropertyOp14
 70
     1
102
RTVSPropertyOp15
 70
     1
102
RTVSPropertyOp16
 70
     1
102
RTVSPropertyOp17
 70
     1
102
RTVSPropertyOp18
 70
     1
102
RTVSPropertyOp19
 70
     1
102
RTVSPropertyOp20
 70
     1
102
RTVSPropertyOp21
 70
     1
102
RTVSPropertyOp22
 70
     1
102
RTVSPropertyOp23
 70
     1
102
RTVSPropertyOp24
 70
     1
102
RTVSPropertyOp25
 70
     1
102
RTVSPropertyOp26
 70
     1
102
RTVSPropertyOp27
 70
     1
  0
XRECORD
  5
4964
102
{ACAD_REACTORS
330
4963
102
}
330
4963
100
AcDbXrecord
280
     1
102
RTVSPropertyOp0
 70
     1
102
RTVSPropertyOp1
 70
     1
102
RTVSPropertyOp2
 70
     1
102
RTVSPropertyOp3
 70
     1
102
RTVSPropertyOp4
 70
     1
102
RTVSPropertyOp5
 70
     1
102
RTVSPropertyOp6
 70
     1
102
RTVSPropertyOp7
 70
     1
102
RTVSPropertyOp8
 70
     1
102
RTVSPropertyOp9
 70
     1
102
RTVSPropertyOp10
 70
     1
102
RTVSPropertyOp11
 70
     1
102
RTVSPropertyOp12
 70
     1
102
RTVSPropertyOp13
 70
     1
102
RTVSPropertyOp14
 70
     1
102
RTVSPropertyOp15
 70
     1
102
RTVSPropertyOp16
 70
     1
102
RTVSPropertyOp17
 70
     1
102
RTVSPropertyOp18
 70
     1
102
RTVSPropertyOp19
 70
     1
102
RTVSPropertyOp20
 70
     1
102
RTVSPropertyOp21
 70
     1
102
RTVSPropertyOp22
 70
     1
102
RTVSPropertyOp23
 70
     1
102
RTVSPropertyOp24
 70
     1
102
RTVSPropertyOp25
 70
     1
102
RTVSPropertyOp26
 70
     1
102
RTVSPropertyOp27
 70
     1
  0
XRECORD
  5
4972
102
{ACAD_REACTORS
330
4971
102
}
330
4971
100
AcDbXrecord
280
     1
102
RTVSPropertyOp0
 70
     1
102
RTVSPropertyOp1
 70
     1
102
RTVSPropertyOp2
 70
     1
102
RTVSPropertyOp3
 70
     1
102
RTVSPropertyOp4
 70
     1
102
RTVSPropertyOp5
 70
     1
102
RTVSPropertyOp6
 70
     1
102
RTVSPropertyOp7
 70
     1
102
RTVSPropertyOp8
 70
     1
102
RTVSPropertyOp9
 70
     1
102
RTVSPropertyOp10
 70
     1
102
RTVSPropertyOp11
 70
     1
102
RTVSPropertyOp12
 70
     1
102
RTVSPropertyOp13
 70
     1
102
RTVSPropertyOp14
 70
     1
102
RTVSPropertyOp15
 70
     1
102
RTVSPropertyOp16
 70
     1
102
RTVSPropertyOp17
 70
     1
102
RTVSPropertyOp18
 70
     1
102
RTVSPropertyOp19
 70
     1
102
RTVSPropertyOp20
 70
     1
102
RTVSPropertyOp21
 70
     1
102
RTVSPropertyOp22
 70
     1
102
RTVSPropertyOp23
 70
     1
102
RTVSPropertyOp24
 70
     1
102
RTVSPropertyOp25
 70
     1
102
RTVSPropertyOp26
 70
     1
102
RTVSPropertyOp27
 70
     1
  0
XRECORD
  5
497A
102
{ACAD_REACTORS
330
4979
102
}
330
4979
100
AcDbXrecord
280
     1
102
RTVSPropertyOp0
 70
     1
102
RTVSPropertyOp1
 70
     1
102
RTVSPropertyOp2
 70
     1
102
RTVSPropertyOp3
 70
     1
102
RTVSPropertyOp4
 70
     1
102
RTVSPropertyOp5
 70
     1
102
RTVSPropertyOp6
 70
     1
102
RTVSPropertyOp7
 70
     1
102
RTVSPropertyOp8
 70
     1
102
RTVSPropertyOp9
 70
     1
102
RTVSPropertyOp10
 70
     1
102
RTVSPropertyOp11
 70
     1
102
RTVSPropertyOp12
 70
     1
102
RTVSPropertyOp13
 70
     1
102
RTVSPropertyOp14
 70
     1
102
RTVSPropertyOp15
 70
     1
102
RTVSPropertyOp16
 70
     1
102
RTVSPropertyOp17
 70
     1
102
RTVSPropertyOp18
 70
     1
102
RTVSPropertyOp19
 70
     1
102
RTVSPropertyOp20
 70
     1
102
RTVSPropertyOp21
 70
     1
102
RTVSPropertyOp22
 70
     1
102
RTVSPropertyOp23
 70
     1
102
RTVSPropertyOp24
 70
     1
102
RTVSPropertyOp25
 70
     1
102
RTVSPropertyOp26
 70
     1
102
RTVSPropertyOp27
 70
     1
  0
XRECORD
  5
496C
102
{ACAD_REACTORS
330
496B
102
}
330
496B
100
AcDbXrecord
280
     1
102
RTVSPropertyOp0
 70
     1
102
RTVSPropertyOp1
 70
     1
102
RTVSPropertyOp2
 70
     1
102
RTVSPropertyOp3
 70
     1
102
RTVSPropertyOp4
 70
     1
102
RTVSPropertyOp5
 70
     1
102
RTVSPropertyOp6
 70
     1
102
RTVSPropertyOp7
 70
     1
102
RTVSPropertyOp8
 70
     1
102
RTVSPropertyOp9
 70
     1
102
RTVSPropertyOp10
 70
     1
102
RTVSPropertyOp11
 70
     1
102
RTVSPropertyOp12
 70
     1
102
RTVSPropertyOp13
 70
     1
102
RTVSPropertyOp14
 70
     1
102
RTVSPropertyOp15
 70
     1
102
RTVSPropertyOp16
 70
     1
102
RTVSPropertyOp17
 70
     1
102
RTVSPropertyOp18
 70
     1
102
RTVSPropertyOp19
 70
     1
102
RTVSPropertyOp20
 70
     1
102
RTVSPropertyOp21
 70
     1
102
RTVSPropertyOp22
 70
     1
102
RTVSPropertyOp23
 70
     1
102
RTVSPropertyOp24
 70
     1
102
RTVSPropertyOp25
 70
     1
102
RTVSPropertyOp26
 70
     1
102
RTVSPropertyOp27
 70
     1
  0
XRECORD
  5
4970
102
{ACAD_REACTORS
330
496F
102
}
330
496F
100
AcDbXrecord
280
     1
102
RTVSPropertyOp0
 70
     1
102
RTVSPropertyOp1
 70
     1
102
RTVSPropertyOp2
 70
     1
102
RTVSPropertyOp3
 70
     1
102
RTVSPropertyOp4
 70
     1
102
RTVSPropertyOp5
 70
     1
102
RTVSPropertyOp6
 70
     1
102
RTVSPropertyOp7
 70
     1
102
RTVSPropertyOp8
 70
     1
102
RTVSPropertyOp9
 70
     1
102
RTVSPropertyOp10
 70
     1
102
RTVSPropertyOp11
 70
     1
102
RTVSPropertyOp12
 70
     1
102
RTVSPropertyOp13
 70
     1
102
RTVSPropertyOp14
 70
     1
102
RTVSPropertyOp15
 70
     1
102
RTVSPropertyOp16
 70
     1
102
RTVSPropertyOp17
 70
     1
102
RTVSPropertyOp18
 70
     1
102
RTVSPropertyOp19
 70
     1
102
RTVSPropertyOp20
 70
     1
102
RTVSPropertyOp21
 70
     1
102
RTVSPropertyOp22
 70
     1
102
RTVSPropertyOp23
 70
     1
102
RTVSPropertyOp24
 70
     1
102
RTVSPropertyOp25
 70
     1
102
RTVSPropertyOp26
 70
     1
102
RTVSPropertyOp27
 70
     1
  0
XRECORD
  5
498A
102
{ACAD_REACTORS
330
4989
102
}
330
4989
100
AcDbXrecord
280
     1
102
RTVSPropertyOp0
 70
     0
102
RTVSPropertyOp1
 70
     0
102
RTVSPropertyOp2
 70
     0
102
RTVSPropertyOp3
 70
     0
102
RTVSPropertyOp4
 70
     0
102
RTVSPropertyOp5
 70
     0
102
RTVSPropertyOp6
 70
     0
102
RTVSPropertyOp7
 70
     0
102
RTVSPropertyOp8
 70
     0
102
RTVSPropertyOp9
 70
     0
102
RTVSPropertyOp10
 70
     0
102
RTVSPropertyOp11
 70
     0
102
RTVSPropertyOp12
 70
     0
102
RTVSPropertyOp13
 70
     0
102
RTVSPropertyOp14
 70
     2
102
RTVSPropertyOp15
 70
     0
102
RTVSPropertyOp16
 70
     0
102
RTVSPropertyOp17
 70
     0
102
RTVSPropertyOp18
 70
     0
102
RTVSPropertyOp19
 70
     0
102
RTVSPropertyOp20
 70
     0
102
RTVSPropertyOp21
 70
     0
102
RTVSPropertyOp22
 70
     0
102
RTVSPropertyOp23
 70
     0
102
RTVSPropertyOp24
 70
     0
102
RTVSPropertyOp25
 70
     0
102
RTVSPropertyOp26
 70
     0
102
RTVSPropertyOp27
 70
     0
  0
XRECORD
  5
4978
102
{ACAD_REACTORS
330
4977
102
}
330
4977
100
AcDbXrecord
280
     1
102
RTVSPropertyOp0
 70
     1
102
RTVSPropertyOp1
 70
     1
102
RTVSPropertyOp2
 70
     1
102
RTVSPropertyOp3
 70
     1
102
RTVSPropertyOp4
 70
     1
102
RTVSPropertyOp5
 70
     1
102
RTVSPropertyOp6
 70
     1
102
RTVSPropertyOp7
 70
     1
102
RTVSPropertyOp8
 70
     1
102
RTVSPropertyOp9
 70
     1
102
RTVSPropertyOp10
 70
     1
102
RTVSPropertyOp11
 70
     1
102
RTVSPropertyOp12
 70
     1
102
RTVSPropertyOp13
 70
     1
102
RTVSPropertyOp14
 70
     1
102
RTVSPropertyOp15
 70
     1
102
RTVSPropertyOp16
 70
     1
102
RTVSPropertyOp17
 70
     1
102
RTVSPropertyOp18
 70
     1
102
RTVSPropertyOp19
 70
     1
102
RTVSPropertyOp20
 70
     1
102
RTVSPropertyOp21
 70
     1
102
RTVSPropertyOp22
 70
     1
102
RTVSPropertyOp23
 70
     1
102
RTVSPropertyOp24
 70
     1
102
RTVSPropertyOp25
 70
     1
102
RTVSPropertyOp26
 70
     1
102
RTVSPropertyOp27
 70
     1
  0
XRECORD
  5
495C
102
{ACAD_REACTORS
330
495B
102
}
330
495B
100
AcDbXrecord
280
     1
102
RTVSPropertyOp0
 70
     1
102
RTVSPropertyOp1
 70
     1
102
RTVSPropertyOp2
 70
     1
102
RTVSPropertyOp3
 70
     1
102
RTVSPropertyOp4
 70
     1
102
RTVSPropertyOp5
 70
     1
102
RTVSPropertyOp6
 70
     1
102
RTVSPropertyOp7
 70
     1
102
RTVSPropertyOp8
 70
     1
102
RTVSPropertyOp9
 70
     1
102
RTVSPropertyOp10
 70
     1
102
RTVSPropertyOp11
 70
     1
102
RTVSPropertyOp12
 70
     1
102
RTVSPropertyOp13
 70
     1
102
RTVSPropertyOp14
 70
     1
102
RTVSPropertyOp15
 70
     1
102
RTVSPropertyOp16
 70
     1
102
RTVSPropertyOp17
 70
     1
102
RTVSPropertyOp18
 70
     1
102
RTVSPropertyOp19
 70
     1
102
RTVSPropertyOp20
 70
     1
102
RTVSPropertyOp21
 70
     1
102
RTVSPropertyOp22
 70
     1
102
RTVSPropertyOp23
 70
     1
102
RTVSPropertyOp24
 70
     1
102
RTVSPropertyOp25
 70
     1
102
RTVSPropertyOp26
 70
     1
102
RTVSPropertyOp27
 70
     1
  0
XRECORD
  5
495E
102
{ACAD_REACTORS
330
495D
102
}
330
495D
100
AcDbXrecord
280
     1
102
RTVSPropertyOp0
 70
     1
102
RTVSPropertyOp1
 70
     1
102
RTVSPropertyOp2
 70
     1
102
RTVSPropertyOp3
 70
     1
102
RTVSPropertyOp4
 70
     1
102
RTVSPropertyOp5
 70
     1
102
RTVSPropertyOp6
 70
     1
102
RTVSPropertyOp7
 70
     1
102
RTVSPropertyOp8
 70
     1
102
RTVSPropertyOp9
 70
     1
102
RTVSPropertyOp10
 70
     1
102
RTVSPropertyOp11
 70
     1
102
RTVSPropertyOp12
 70
     1
102
RTVSPropertyOp13
 70
     1
102
RTVSPropertyOp14
 70
     1
102
RTVSPropertyOp15
 70
     1
102
RTVSPropertyOp16
 70
     1
102
RTVSPropertyOp17
 70
     1
102
RTVSPropertyOp18
 70
     1
102
RTVSPropertyOp19
 70
     1
102
RTVSPropertyOp20
 70
     1
102
RTVSPropertyOp21
 70
     1
102
RTVSPropertyOp22
 70
     1
102
RTVSPropertyOp23
 70
     1
102
RTVSPropertyOp24
 70
     1
102
RTVSPropertyOp25
 70
     1
102
RTVSPropertyOp26
 70
     1
102
RTVSPropertyOp27
 70
     1
  0
XRECORD
  5
4960
102
{ACAD_REACTORS
330
495F
102
}
330
495F
100
AcDbXrecord
280
     1
102
RTVSPropertyOp0
 70
     1
102
RTVSPropertyOp1
 70
     1
102
RTVSPropertyOp2
 70
     1
102
RTVSPropertyOp3
 70
     1
102
RTVSPropertyOp4
 70
     1
102
RTVSPropertyOp5
 70
     1
102
RTVSPropertyOp6
 70
     1
102
RTVSPropertyOp7
 70
     1
102
RTVSPropertyOp8
 70
     1
102
RTVSPropertyOp9
 70
     1
102
RTVSPropertyOp10
 70
     1
102
RTVSPropertyOp11
 70
     1
102
RTVSPropertyOp12
 70
     1
102
RTVSPropertyOp13
 70
     1
102
RTVSPropertyOp14
 70
     1
102
RTVSPropertyOp15
 70
     1
102
RTVSPropertyOp16
 70
     1
102
RTVSPropertyOp17
 70
     1
102
RTVSPropertyOp18
 70
     1
102
RTVSPropertyOp19
 70
     1
102
RTVSPropertyOp20
 70
     1
102
RTVSPropertyOp21
 70
     1
102
RTVSPropertyOp22
 70
     1
102
RTVSPropertyOp23
 70
     1
102
RTVSPropertyOp24
 70
     1
102
RTVSPropertyOp25
 70
     1
102
RTVSPropertyOp26
 70
     1
102
RTVSPropertyOp27
 70
     1
  0
XRECORD
  5
4962
102
{ACAD_REACTORS
330
4961
102
}
330
4961
100
AcDbXrecord
280
     1
102
RTVSPropertyOp0
 70
     1
102
RTVSPropertyOp1
 70
     1
102
RTVSPropertyOp2
 70
     1
102
RTVSPropertyOp3
 70
     1
102
RTVSPropertyOp4
 70
     1
102
RTVSPropertyOp5
 70
     1
102
RTVSPropertyOp6
 70
     1
102
RTVSPropertyOp7
 70
     1
102
RTVSPropertyOp8
 70
     1
102
RTVSPropertyOp9
 70
     1
102
RTVSPropertyOp10
 70
     1
102
RTVSPropertyOp11
 70
     1
102
RTVSPropertyOp12
 70
     1
102
RTVSPropertyOp13
 70
     1
102
RTVSPropertyOp14
 70
     1
102
RTVSPropertyOp15
 70
     1
102
RTVSPropertyOp16
 70
     1
102
RTVSPropertyOp17
 70
     1
102
RTVSPropertyOp18
 70
     1
102
RTVSPropertyOp19
 70
     1
102
RTVSPropertyOp20
 70
     1
102
RTVSPropertyOp21
 70
     1
102
RTVSPropertyOp22
 70
     1
102
RTVSPropertyOp23
 70
     1
102
RTVSPropertyOp24
 70
     1
102
RTVSPropertyOp25
 70
     1
102
RTVSPropertyOp26
 70
     1
102
RTVSPropertyOp27
 70
     1
  0
XRECORD
  5
4986
102
{ACAD_REACTORS
330
4985
102
}
330
4985
100
AcDbXrecord
280
     1
102
RTVSPropertyOp0
 70
     0
102
RTVSPropertyOp1
 70
     0
102
RTVSPropertyOp2
 70
     0
102
RTVSPropertyOp3
 70
     0
102
RTVSPropertyOp4
 70
     0
102
RTVSPropertyOp5
 70
     0
102
RTVSPropertyOp6
 70
     0
102
RTVSPropertyOp7
 70
     0
102
RTVSPropertyOp8
 70
     0
102
RTVSPropertyOp9
 70
     0
102
RTVSPropertyOp10
 70
     0
102
RTVSPropertyOp11
 70
     0
102
RTVSPropertyOp12
 70
     0
102
RTVSPropertyOp13
 70
     0
102
RTVSPropertyOp14
 70
     2
102
RTVSPropertyOp15
 70
     0
102
RTVSPropertyOp16
 70
     0
102
RTVSPropertyOp17
 70
     0
102
RTVSPropertyOp18
 70
     0
102
RTVSPropertyOp19
 70
     0
102
RTVSPropertyOp20
 70
     0
102
RTVSPropertyOp21
 70
     0
102
RTVSPropertyOp22
 70
     0
102
RTVSPropertyOp23
 70
     0
102
RTVSPropertyOp24
 70
     0
102
RTVSPropertyOp25
 70
     0
102
RTVSPropertyOp26
 70
     0
102
RTVSPropertyOp27
 70
     0
  0
XRECORD
  5
4976
102
{ACAD_REACTORS
330
4975
102
}
330
4975
100
AcDbXrecord
280
     1
102
RTVSPropertyOp0
 70
     1
102
RTVSPropertyOp1
 70
     1
102
RTVSPropertyOp2
 70
     1
102
RTVSPropertyOp3
 70
     1
102
RTVSPropertyOp4
 70
     1
102
RTVSPropertyOp5
 70
     1
102
RTVSPropertyOp6
 70
     1
102
RTVSPropertyOp7
 70
     1
102
RTVSPropertyOp8
 70
     1
102
RTVSPropertyOp9
 70
     1
102
RTVSPropertyOp10
 70
     1
102
RTVSPropertyOp11
 70
     1
102
RTVSPropertyOp12
 70
     1
102
RTVSPropertyOp13
 70
     1
102
RTVSPropertyOp14
 70
     1
102
RTVSPropertyOp15
 70
     1
102
RTVSPropertyOp16
 70
     1
102
RTVSPropertyOp17
 70
     1
102
RTVSPropertyOp18
 70
     1
102
RTVSPropertyOp19
 70
     1
102
RTVSPropertyOp20
 70
     1
102
RTVSPropertyOp21
 70
     1
102
RTVSPropertyOp22
 70
     1
102
RTVSPropertyOp23
 70
     1
102
RTVSPropertyOp24
 70
     1
102
RTVSPropertyOp25
 70
     1
102
RTVSPropertyOp26
 70
     1
102
RTVSPropertyOp27
 70
     1
  0
XRECORD
  5
4988
102
{ACAD_REACTORS
330
4987
102
}
330
4987
100
AcDbXrecord
280
     1
102
RTVSPropertyOp0
 70
     0
102
RTVSPropertyOp1
 70
     0
102
RTVSPropertyOp2
 70
     0
102
RTVSPropertyOp3
 70
     0
102
RTVSPropertyOp4
 70
     0
102
RTVSPropertyOp5
 70
     0
102
RTVSPropertyOp6
 70
     0
102
RTVSPropertyOp7
 70
     0
102
RTVSPropertyOp8
 70
     0
102
RTVSPropertyOp9
 70
     0
102
RTVSPropertyOp10
 70
     0
102
RTVSPropertyOp11
 70
     0
102
RTVSPropertyOp12
 70
     0
102
RTVSPropertyOp13
 70
     0
102
RTVSPropertyOp14
 70
     2
102
RTVSPropertyOp15
 70
     0
102
RTVSPropertyOp16
 70
     0
102
RTVSPropertyOp17
 70
     0
102
RTVSPropertyOp18
 70
     0
102
RTVSPropertyOp19
 70
     0
102
RTVSPropertyOp20
 70
     0
102
RTVSPropertyOp21
 70
     0
102
RTVSPropertyOp22
 70
     0
102
RTVSPropertyOp23
 70
     0
102
RTVSPropertyOp24
 70
     0
102
RTVSPropertyOp25
 70
     0
102
RTVSPropertyOp26
 70
     0
102
RTVSPropertyOp27
 70
     0
  0
XRECORD
  5
496E
102
{ACAD_REACTORS
330
496D
102
}
330
496D
100
AcDbXrecord
280
     1
102
RTVSPropertyOp0
 70
     1
102
RTVSPropertyOp1
 70
     1
102
RTVSPropertyOp2
 70
     1
102
RTVSPropertyOp3
 70
     1
102
RTVSPropertyOp4
 70
     1
102
RTVSPropertyOp5
 70
     1
102
RTVSPropertyOp6
 70
     1
102
RTVSPropertyOp7
 70
     1
102
RTVSPropertyOp8
 70
     1
102
RTVSPropertyOp9
 70
     1
102
RTVSPropertyOp10
 70
     1
102
RTVSPropertyOp11
 70
     1
102
RTVSPropertyOp12
 70
     1
102
RTVSPropertyOp13
 70
     1
102
RTVSPropertyOp14
 70
     1
102
RTVSPropertyOp15
 70
     1
102
RTVSPropertyOp16
 70
     1
102
RTVSPropertyOp17
 70
     1
102
RTVSPropertyOp18
 70
     1
102
RTVSPropertyOp19
 70
     1
102
RTVSPropertyOp20
 70
     1
102
RTVSPropertyOp21
 70
     1
102
RTVSPropertyOp22
 70
     1
102
RTVSPropertyOp23
 70
     1
102
RTVSPropertyOp24
 70
     1
102
RTVSPropertyOp25
 70
     1
102
RTVSPropertyOp26
 70
     1
102
RTVSPropertyOp27
 70
     1
  0
XRECORD
  5
4974
102
{ACAD_REACTORS
330
4973
102
}
330
4973
100
AcDbXrecord
280
     1
102
RTVSPropertyOp0
 70
     1
102
RTVSPropertyOp1
 70
     1
102
RTVSPropertyOp2
 70
     1
102
RTVSPropertyOp3
 70
     1
102
RTVSPropertyOp4
 70
     1
102
RTVSPropertyOp5
 70
     1
102
RTVSPropertyOp6
 70
     1
102
RTVSPropertyOp7
 70
     1
102
RTVSPropertyOp8
 70
     1
102
RTVSPropertyOp9
 70
     1
102
RTVSPropertyOp10
 70
     1
102
RTVSPropertyOp11
 70
     1
102
RTVSPropertyOp12
 70
     1
102
RTVSPropertyOp13
 70
     1
102
RTVSPropertyOp14
 70
     1
102
RTVSPropertyOp15
 70
     1
102
RTVSPropertyOp16
 70
     1
102
RTVSPropertyOp17
 70
     1
102
RTVSPropertyOp18
 70
     1
102
RTVSPropertyOp19
 70
     1
102
RTVSPropertyOp20
 70
     1
102
RTVSPropertyOp21
 70
     1
102
RTVSPropertyOp22
 70
     1
102
RTVSPropertyOp23
 70
     1
102
RTVSPropertyOp24
 70
     1
102
RTVSPropertyOp25
 70
     1
102
RTVSPropertyOp26
 70
     1
102
RTVSPropertyOp27
 70
     1
  0
ENDSEC
  0
EOF
