  0
SECTION
  2
HEADER
  9
$ACADVER
  1
AC1015
  9
$ACADMAINTVER
 70
    20
  9
$DWGCODEPAGE
  3
ANSI_932
  9
$INSBASE
 10
0.0
 20
0.0
 30
0.0
  9
$EXTMIN
 10
663.4746106089076
 20
-97.49673666604486
 30
0.0
  9
$EXTMAX
 10
3186.474610608908
 20
1684.503263333955
 30
0.0
  9
$LIMMIN
 10
0.0
 20
0.0
  9
$LIMMAX
 10
420.0
 20
297.0
  9
$ORTHOMODE
 70
     0
  9
$REGENMODE
 70
     1
  9
$FILLMODE
 70
     1
  9
$QTEXTMODE
 70
     0
  9
$MIRRTEXT
 70
     0
  9
$LTSCALE
 40
1.0
  9
$ATTMODE
 70
     1
  9
$TEXTSIZE
 40
4.0
  9
$TRACEWID
 40
1.0
  9
$TEXTSTYLE
  7
ULVAC
  9
$CLAYER
  8
PROFILE2
  9
$CELTYPE
  6
ByLayer
  9
$CECOLOR
 62
   256
  9
$CELTSCALE
 40
0.5
  9
$DISPSILH
 70
     0
  9
$DIMSCALE
 40
1.0
  9
$DIMASZ
 40
2.9
  9
$DIMEXO
 40
1.269999980926513
  9
$DIMDLI
 40
10.0
  9
$DIMRND
 40
0.0
  9
$DIMDLE
 40
0.0
  9
$DIMEXE
 40
1.200000047683715
  9
$DIMTP
 40
0.0
  9
$DIMTM
 40
0.0
  9
$DIMTXT
 40
4.0
  9
$DIMCEN
 40
0.0
  9
$DIMTSZ
 40
0.0
  9
$DIMTOL
 70
     0
  9
$DIMLIM
 70
     0
  9
$DIMTIH
 70
     0
  9
$DIMTOH
 70
     0
  9
$DIMSE1
 70
     0
  9
$DIMSE2
 70
     0
  9
$DIMTAD
 70
     1
  9
$DIMZIN
 70
     9
  9
$DIMBLK
  1
Open30
  9
$DIMASO
 70
     1
  9
$DIMSHO
 70
     1
  9
$DIMPOST
  1

  9
$DIMAPOST
  1

  9
$DIMALT
 70
     0
  9
$DIMALTD
 70
     4
  9
$DIMALTF
 40
0.03937007874016
  9
$DIMLFAC
 40
1.0
  9
$DIMTOFL
 70
     1
  9
$DIMTVP
 40
0.0
  9
$DIMTIX
 70
     0
  9
$DIMSOXD
 70
     0
  9
$DIMSAH
 70
     0
  9
$DIMBLK1
  1

  9
$DIMBLK2
  1

  9
$DIMSTYLE
  2
ULVAC
  9
$DIMCLRD
 70
     0
  9
$DIMCLRE
 70
     0
  9
$DIMCLRT
 70
     0
  9
$DIMTFAC
 40
0.75
  9
$DIMGAP
 40
1.0
  9
$DIMJUST
 70
     0
  9
$DIMSD1
 70
     0
  9
$DIMSD2
 70
     0
  9
$DIMTOLJ
 70
     1
  9
$DIMTZIN
 70
     8
  9
$DIMALTZ
 70
     0
  9
$DIMALTTZ
 70
     0
  9
$DIMUPT
 70
     1
  9
$DIMDEC
 70
     2
  9
$DIMTDEC
 70
     2
  9
$DIMALTU
 70
     2
  9
$DIMALTTD
 70
     4
  9
$DIMTXSTY
  7
ULVAC
  9
$DIMAUNIT
 70
     0
  9
$DIMADEC
 70
     2
  9
$DIMALTRND
 40
0.0
  9
$DIMAZIN
 70
     2
  9
$DIMDSEP
 70
    46
  9
$DIMATFIT
 70
     3
  9
$DIMFRAC
 70
     0
  9
$DIMLDRBLK
  1
Open30
  9
$DIMLUNIT
 70
     2
  9
$DIMLWD
 70
    -1
  9
$DIMLWE
 70
    -1
  9
$DIMTMOVE
 70
     0
  9
$LUNITS
 70
     2
  9
$LUPREC
 70
     2
  9
$SKETCHINC
 40
1.0
  9
$FILLETRAD
 40
0.0
  9
$AUNITS
 70
     0
  9
$AUPREC
 70
     0
  9
$MENU
  1
.
  9
$ELEVATION
 40
0.0
  9
$PELEVATION
 40
0.0
  9
$THICKNESS
 40
0.0
  9
$LIMCHECK
 70
     0
  9
$CHAMFERA
 40
2.5
  9
$CHAMFERB
 40
2.5
  9
$CHAMFERC
 40
10.00000000000004
  9
$CHAMFERD
 40
0.7853981633974439
  9
$SKPOLY
 70
     0
  9
$TDCREATE
 40
2454875.544084803
  9
$TDUCREATE
 40
2454875.169084803
  9
$TDUPDATE
 40
2457137.475108877
  9
$TDUUPDATE
 40
2457137.100108877
  9
$TDINDWG
 40
0.0638627083
  9
$TDUSRTIMER
 40
0.0638625231
  9
$USRTIMER
 70
     1
  9
$ANGBASE
 50
0.0
  9
$ANGDIR
 70
     0
  9
$PDMODE
 70
     0
  9
$PDSIZE
 40
0.0
  9
$PLINEWID
 40
0.0
  9
$SPLFRAME
 70
     0
  9
$SPLINETYPE
 70
     6
  9
$SPLINESEGS
 70
     8
  9
$HANDSEED
  5
48FF
  9
$SURFTAB1
 70
     6
  9
$SURFTAB2
 70
     6
  9
$SURFTYPE
 70
     6
  9
$SURFU
 70
     6
  9
$SURFV
 70
     6
  9
$UCSBASE
  2

  9
$UCSNAME
  2

  9
$UCSORG
 10
0.0
 20
0.0
 30
0.0
  9
$UCSXDIR
 10
1.0
 20
0.0
 30
0.0
  9
$UCSYDIR
 10
0.0
 20
1.0
 30
0.0
  9
$UCSORTHOREF
  2

  9
$UCSORTHOVIEW
 70
     0
  9
$UCSORGTOP
 10
0.0
 20
0.0
 30
0.0
  9
$UCSORGBOTTOM
 10
0.0
 20
0.0
 30
0.0
  9
$UCSORGLEFT
 10
0.0
 20
0.0
 30
0.0
  9
$UCSORGRIGHT
 10
0.0
 20
0.0
 30
0.0
  9
$UCSORGFRONT
 10
0.0
 20
0.0
 30
0.0
  9
$UCSORGBACK
 10
0.0
 20
0.0
 30
0.0
  9
$PUCSBASE
  2

  9
$PUCSNAME
  2

  9
$PUCSORG
 10
0.0
 20
0.0
 30
0.0
  9
$PUCSXDIR
 10
1.0
 20
0.0
 30
0.0
  9
$PUCSYDIR
 10
0.0
 20
1.0
 30
0.0
  9
$PUCSORTHOREF
  2

  9
$PUCSORTHOVIEW
 70
     0
  9
$PUCSORGTOP
 10
0.0
 20
0.0
 30
0.0
  9
$PUCSORGBOTTOM
 10
0.0
 20
0.0
 30
0.0
  9
$PUCSORGLEFT
 10
0.0
 20
0.0
 30
0.0
  9
$PUCSORGRIGHT
 10
0.0
 20
0.0
 30
0.0
  9
$PUCSORGFRONT
 10
0.0
 20
0.0
 30
0.0
  9
$PUCSORGBACK
 10
0.0
 20
0.0
 30
0.0
  9
$USERI1
 70
     0
  9
$USERI2
 70
     0
  9
$USERI3
 70
     0
  9
$USERI4
 70
     0
  9
$USERI5
 70
     0
  9
$USERR1
 40
0.0
  9
$USERR2
 40
0.0
  9
$USERR3
 40
0.0
  9
$USERR4
 40
0.0
  9
$USERR5
 40
0.0
  9
$WORLDVIEW
 70
     1
  9
$SHADEDGE
 70
     3
  9
$SHADEDIF
 70
    70
  9
$TILEMODE
 70
     1
  9
$MAXACTVP
 70
    64
  9
$PINSBASE
 10
0.0
 20
0.0
 30
0.0
  9
$PLIMCHECK
 70
     0
  9
$PEXTMIN
 10
1.000000000000000E+20
 20
1.000000000000000E+20
 30
1.000000000000000E+20
  9
$PEXTMAX
 10
-1.000000000000000E+20
 20
-1.000000000000000E+20
 30
-1.000000000000000E+20
  9
$PLIMMIN
 10
-6.350006103515625
 20
-6.349999904632568
  9
$PLIMMAX
 10
273.0499877929688
 20
209.5499939918518
  9
$UNITMODE
 70
     0
  9
$VISRETAIN
 70
     1
  9
$PLINEGEN
 70
     0
  9
$PSLTSCALE
 70
     1
  9
$TREEDEPTH
 70
  3020
  9
$CMLSTYLE
  2
Standard
  9
$CMLJUST
 70
     0
  9
$CMLSCALE
 40
20.0
  9
$PROXYGRAPHICS
 70
     1
  9
$MEASUREMENT
 70
     1
  9
$CELWEIGHT
370
    -1
  9
$ENDCAPS
280
     0
  9
$JOINSTYLE
280
     0
  9
$LWDISPLAY
290
     1
  9
$INSUNITS
 70
     4
  9
$HYPERLINKBASE
  1

  9
$STYLESHEET
  1
monochrome_ULVAC.ctb
  9
$XEDIT
290
     1
  9
$CEPSNTYPE
380
     0
  9
$PSTYLEMODE
290
     1
  9
$FINGERPRINTGUID
  2
{EE64EB8F-5938-4AC5-BD7E-E99979D79AEE}
  9
$VERSIONGUID
  2
{842F4533-7B07-4DE6-AA01-64E2F243AFD7}
  9
$EXTNAMES
290
     1
  9
$PSVPSCALE
 40
0.0
  9
$OLESTARTUP
290
     0
  0
ENDSEC
  0
SECTION
  2
CLASSES
  0
CLASS
  1
ACDBDICTIONARYWDFLT
  2
AcDbDictionaryWithDefault
  3
ObjectDBX Classes
 90
        0
280
     0
281
     0
  0
CLASS
  1
ACDBPLACEHOLDER
  2
AcDbPlaceHolder
  3
ObjectDBX Classes
 90
        0
280
     0
281
     0
  0
CLASS
  1
LAYOUT
  2
AcDbLayout
  3
ObjectDBX Classes
 90
        0
280
     0
281
     0
  0
CLASS
  1
AMGSETTINGSOBJ
  2
AmgSettingsObj
  3
"AcadM|Product Description: AutoCAD Mechanical|Company: Autodesk, Inc."
 90
     1024
280
     0
281
     0
  0
CLASS
  1
ACME_DOCUMENT
  2
AcMeDbDoc
  3
AcMeServices
 90
     1024
280
     0
281
     0
  0
CLASS
  1
ACMESCOPE
  2
AcMeScope
  3
AcMeServices
 90
     1024
280
     0
281
     0
  0
CLASS
  1
ACMECOMMANDHISTORY
  2
AcMeCommandHistory
  3
AcMeServices
 90
     1024
280
     0
281
     0
  0
CLASS
  1
DICTIONARYVAR
  2
AcDbDictionaryVar
  3
ObjectDBX Classes
 90
        0
280
     0
281
     0
  0
CLASS
  1
ACIMSYSVARMAN
  2
AcImSysVarManager
  3
AcMeServices
 90
     1024
280
     0
281
     0
  0
CLASS
  1
ACIMREALSYSVAR
  2
AcImRealSysVar
  3
AcMeServices
 90
     1024
280
     0
281
     0
  0
CLASS
  1
ACIMINTSYSVAR
  2
AcImIntSysVar
  3
AcMeServices
 90
     1024
280
     0
281
     0
  0
CLASS
  1
ACMEDRAWINGMAN
  2
AcMeDrawingMan
  3
AcMeServices
 90
     1024
280
     0
281
     0
  0
CLASS
  1
ACMEVIEW
  2
AcMeView
  3
AcMeServices
 90
     1024
280
     0
281
     0
  0
CLASS
  1
ACDBENTITYCACHE
  2
AcMeEntityCache
  3
AcMeServices
 90
     1024
280
     0
281
     0
  0
CLASS
  1
GSMANAGER
  2
AcMeGSManager
  3
AcMeServices
 90
    32768
280
     0
281
     0
  0
CLASS
  1
AMDTINTERNALREACTOR
  2
AmdtInternalReactor
  3
AcMeServices
 90
     1024
280
     0
281
     0
  0
CLASS
  1
ACMESTATEMGR
  2
AcMeStateMgr
  3
AcMeServices
 90
     1024
280
     0
281
     0
  0
CLASS
  1
ACGREFMASTER
  2
AcGrefMaster
  3
AcAttribServices
 90
     1024
280
     0
281
     0
  0
CLASS
  1
ACME_DATABASE
  2
AcMeDbDatabase
  3
AcMeServices
 90
     1024
280
     0
281
     0
  0
CLASS
  1
ACRFINSADJUSTERMGR
  2
AcRfInsAdjusterMgr
  3
AcMeServices
 90
     1024
280
     0
281
     0
  0
CLASS
  1
ACGREFACADMASTER
  2
AcGrefacadMaster
  3
AcGrefServices
 90
     1024
280
     0
281
     0
  0
CLASS
  1
AMIMASTER
  2
AmiMaster
  3
AmiServices
 90
     1024
280
     0
281
     0
  0
CLASS
  1
ACIMSTRSYSVAR
  2
AcImStrSysVar
  3
AcMeServices
 90
     1024
280
     0
281
     0
  0
CLASS
  1
ACMSTANDARDJIS
  2
AcmStandardJIS
  3
"Amdt_StdImp|Product Description: AutoCAD Mechanical|Company: Autodesk, Inc."
 90
     1024
280
     0
281
     0
  0
CLASS
  1
AMGOBJPROPCFG
  2
AmgObjPropCfg
  3
"AmgLay|Product Description: AutoCAD Mechanical|Company: Autodesk, Inc."
 90
     1025
280
     0
281
     0
  0
CLASS
  1
ACMSURFSTANDARDJIS
  2
AcmSurfTextStdJIS
  3
"Amdt_StdImp|Product Description: AutoCAD Mechanical|Company: Autodesk, Inc."
 90
     1024
280
     0
281
     0
  0
CLASS
  1
ACMFCFSTANDARDJIS
  2
AcmFCFStdJIS
  3
"Amdt_StdImp|Product Description: AutoCAD Mechanical|Company: Autodesk, Inc."
 90
    33792
280
     0
281
     0
  0
CLASS
  1
ACMWELDSTANDARDJIS
  2
AcmWeldingStdJIS
  3
"Amdt_StdImp|Product Description: AutoCAD Mechanical|Company: Autodesk, Inc."
 90
     1024
280
     0
281
     0
  0
CLASS
  1
ACMIDSTANDARDJIS
  2
AcmIdStdJIS
  3
"Amdt_StdImp|Product Description: AutoCAD Mechanical|Company: Autodesk, Inc."
 90
     1024
280
     0
281
     0
  0
CLASS
  1
ACMDATUMSTANDARDJIS
  2
AcmDatumStdJIS
  3
"Amdt_StdImp|Product Description: AutoCAD Mechanical|Company: Autodesk, Inc."
 90
     1024
280
     0
281
     0
  0
CLASS
  1
ACMBOMSTANDARDJIS
  2
AcmBOMStdJIS
  3
"Amdt_StdImp|Product Description: AutoCAD Mechanical|Company: Autodesk, Inc."
 90
     1024
280
     0
281
     0
  0
CLASS
  1
ACMDETAILSTANDARDJIS
  2
AmdtDetailSymStdJIS
  3
"Amdt_StdImp|Product Description: AutoCAD Mechanical|Company: Autodesk, Inc."
 90
     1024
280
     0
281
     0
  0
CLASS
  1
ACMSECTIONSTANDARDJIS
  2
AmdtSectionSymStdJIS
  3
"Amdt_StdImp|Product Description: AutoCAD Mechanical|Company: Autodesk, Inc."
 90
     1024
280
     0
281
     0
  0
CLASS
  1
ACMCENTERLINESTANDARDJIS
  2
AmdtCenterLineStdJIS
  3
"Amdt_StdImp|Product Description: AutoCAD Mechanical|Company: Autodesk, Inc."
 90
     1024
280
     0
281
     0
  0
CLASS
  1
ACMTHREADLINESTANDARDJIS
  2
AmdtThreadLineStdJIS
  3
"Amdt_StdImp|Product Description: AutoCAD Mechanical|Company: Autodesk, Inc."
 90
     1024
280
     0
281
     0
  0
CLASS
  1
ACAMGLAYSTD
  2
AcAmgLayStd
  3
"AmgLay|Product Description: AutoCAD Mechanical|Company: Autodesk, Inc."
 90
     1024
280
     0
281
     0
  0
CLASS
  1
ACAMGDIMSTD
  2
AcAmgDimStd
  3
"AmgDim|Product Description: AutoCAD Mechanical|Company: Autodesk, Inc."
 90
     1024
280
     0
281
     0
  0
CLASS
  1
ACAMGTITLESTD
  2
AcAmgTitleStd
  3
"AmgTitle|Product Description: AutoCAD Mechanical|Company: Autodesk, Inc."
 90
     4095
280
     0
281
     0
  0
CLASS
  1
ACMDATADICTIONARY
  2
AcmDataDictionary
  3
"AcmSymBB|Product Description: AutoCAD Mechanical|Company: Autodesk, Inc."
 90
     1024
280
     0
281
     0
  0
CLASS
  1
ACMDATAENTRYBLOCK
  2
AcmDataEntryBlock
  3
AcmSymBB|Product Description: AutoCAD Mechanical|Company: Autodesk, Inc.
 90
     1024
280
     0
281
     0
  0
CLASS
  1
LAYER_INDEX
  2
AcDbLayerIndex
  3
ObjectDBX Classes
 90
    32768
280
     0
281
     0
  0
CLASS
  1
IDBUFFER
  2
AcDbIdBuffer
  3
ObjectDBX Classes
 90
    32768
280
     0
281
     0
  0
CLASS
  1
ACMNOTESTANDARDJIS
  2
AmdtNoteStdJIS
  3
"Amdt_StdImp|Product Description: AutoCAD Mechanical|Company: Autodesk, Inc."
 90
     1024
280
     0
281
     0
  0
CLASS
  1
ACAMGHOLECHARTSTDJIS
  2
AcAmgHoleChartStdJIS
  3
AmgDim|Product Description: AutoCAD Mechanical|Company: Autodesk, Inc.
 90
     1024
280
     0
281
     0
  0
CLASS
  1
AM_DRAWING_MGR
  2
AcDmDwgMgr
  3
AcMechDwgViewMgmt
 90
     1024
280
     0
281
     0
  0
CLASS
  1
AM_DWG_DOCUMENT
  2
AcDmDwgDocument
  3
AcMechDwgViewMgmt
 90
     1024
280
     0
281
     0
  0
CLASS
  1
AM_DWG_SHEET
  2
AcDmSheet
  3
AcMechDwgViewMgmt
 90
     1024
280
     0
281
     0
  0
CLASS
  1
AM_VIEWDIMPARMAP
  2
AcDmViewDimParMap
  3
AcMechDwgViewMgmt
 90
     1024
280
     0
281
     0
  0
CLASS
  1
AM_DWGMGR_NAME
  2
AcDmDwgMgrName
  3
AcMechDwgViewMgmt
 90
     1024
280
     0
281
     0
  0
CLASS
  1
AMDTMENUSTATEMGR
  2
AmdtMenuStateMgr
  3
McadcomServices
 90
     1024
280
     0
281
     0
  0
CLASS
  1
AMDTMCOMMENUSTATE
  2
AmdtMcomMenuState
  3
McadcomServices
 90
     1024
280
     0
281
     0
  0
CLASS
  1
MAPIAMMOUDLE
  2
MApiAmModule
  3
MApiAmServices
 90
     1024
280
     0
281
     0
  0
CLASS
  1
AMDTADMENUSTATE
  2
AmdtAdMenuState
  3
DesignerServices
 90
     1024
280
     0
281
     0
  0
CLASS
  1
ADAPPL
  2
AcAdAppl
  3
DesignerServices
 90
     1024
280
     0
281
     0
  0
CLASS
  1
DEPMGR
  2
AcAdDepMgr
  3
DesignerServices
 90
     1024
280
     0
281
     0
  0
CLASS
  1
PARAMMGR
  2
AcAdParamMgr
  3
DesignerServices
 90
     1024
280
     0
281
     0
  0
CLASS
  1
PARAMSCOPE
  2
AcAdParamScope
  3
DesignerServices
 90
     1024
280
     0
281
     0
  0
CLASS
  1
NAMEDAPPL
  2
AcAdNamedAppl
  3
DesignerServices
 90
     1024
280
     0
281
     0
  0
CLASS
  1
AMDTDMMENUSTATE
  2
AmdtDmMenuState
  3
AcMechDwgViewMgmt
 90
     1024
280
     0
281
     0
  0
CLASS
  1
AMDTAMMENUSTATE
  2
AmdtAmMenuState
  3
DesignerAssemblies
 90
     1024
280
     0
281
     0
  0
CLASS
  1
ACAMPROJECT
  2
AcAmProject
  3
DesignerAssemblies
 90
     1024
280
     0
281
     0
  0
CLASS
  1
ACAMGRCOMPDEF
  2
AcAmGrCompDef
  3
DesignerAssemblies
 90
     1024
280
     0
281
     0
  0
CLASS
  1
ACCMCONTEXT
  2
AcCmContext
  3
DesignerAssemblies
 90
     1024
280
     0
281
     0
  0
CLASS
  1
ACAMCOMPDEF
  2
AcAmCompDef
  3
DesignerAssemblies
 90
     1024
280
     0
281
     0
  0
CLASS
  1
ACAMCOMPDEFMGR
  2
AcAmCompDefMgr
  3
DesignerAssemblies
 90
     1024
280
     0
281
     0
  0
CLASS
  1
AMCONTEXTMGR
  2
AcAmContextMgr
  3
DesignerAssemblies
 90
     1024
280
     0
281
     0
  0
CLASS
  1
ACAMCONTEXTMODELER
  2
AcAmContextModeler
  3
DesignerAssemblies
 90
     1024
280
     0
281
     0
  0
CLASS
  1
CATALOGSTATE
  2
AcAmCatalogState
  3
DesignerAssemblies
 90
     1024
280
     0
281
     0
  0
CLASS
  1
ACAMGRCOMPDEFSET
  2
AcAmGrCompDefSet
  3
DesignerAssemblies
 90
     1024
280
     0
281
     0
  0
CLASS
  1
AMDTBROWSERDBTAB
  2
AmdtBrowserDbTab
  3
McadcomServices
 90
     1024
280
     0
281
     0
  0
CLASS
  1
CBROWSERAPPOBJECT
  2
CBrowserAppObject
  3
McadcomServices
 90
     1024
280
     0
281
     0
  0
CLASS
  1
DM_PLACEHOLDER
  2
AcDmSelsetPlaceholder
  3
AcMechDwgViewMgmt
 90
     1024
280
     0
281
     0
  0
CLASS
  1
TABLESTYLE
  2
AcDbTableStyle
  3
ObjectDBX Classes
 90
     4095
280
     0
281
     0
  0
CLASS
  1
VAACXREFPANELOBJECT
  2
VaAcXREFPanelObject
  3
VAAC_ADDIN
 90
    32768
280
     0
281
     0
  0
CLASS
  1
VAACIMAGEINVENTORY
  2
VaAcImageInventory
  3
VAAC_ADDIN
 90
    32768
280
     0
281
     0
  0
CLASS
  1
AMDTNOTETEMPLATEDB
  2
AmdtNoteTemplateDB
  3
AcmSymBB|Product Description: AutoCAD Mechanical|Company: Autodesk, Inc.
 90
     1024
280
     0
281
     0
  0
CLASS
  1
ACMBOM
  2
AcmBom
  3
"AcmSymBB|Product Description: AutoCAD Mechanical|Company: Autodesk, Inc."
 90
     1024
280
     0
281
     0
  0
CLASS
  1
AMDTFORMULAUPDATEDISPATCHER
  2
AmdtFormulaUpdateDispatcher
  3
AcMeServices
 90
     1024
280
     0
281
     0
  0
CLASS
  1
ACMPARTLIST
  2
AcmPartList
  3
"AcmSymBB|Product Description: AutoCAD Mechanical|Company: Autodesk, Inc."
 90
    36863
280
     0
281
     1
  0
CLASS
  1
ACAMGFILTERDAT
  2
AcAmgFilterDat
  3
"AcadM|Product Description: AutoCAD Mechanical|Company: Autodesk, Inc."
 90
     1024
280
     0
281
     0
  0
CLASS
  1
ACMFCFSTANDARDJIS98
  2
AcmFCFStdJIS98
  3
"Amdt_StdImp|Product Description: AutoCAD Mechanical|Company: Autodesk, Inc."
 90
     1024
280
     0
281
     0
  0
CLASS
  1
AMDTNOTE
  2
AmdtNote
  3
"AcmSymBB|Product Description: AutoCAD Mechanical|Company: Autodesk, Inc."
 90
    36863
280
     0
281
     1
  0
CLASS
  1
AC_AM_MVD_DEP_MGR
  2
AcAmMVDdepMgr
  3
DesignerAssemblies
 90
    33792
280
     0
281
     0
  0
CLASS
  1
AC_AM_MASTER_VIEW_DEF
  2
AcAmMasterViewDef
  3
DesignerAssemblies
 90
    33792
280
     0
281
     0
  0
CLASS
  1
AC_AM_DIRTY_NODES
  2
AcAmDirtyNodes
  3
DesignerAssemblies
 90
    33792
280
     0
281
     0
  0
CLASS
  1
AC_AM_MAPPER_CACHE
  2
AcAmMapperCache
  3
DesignerAssemblies
 90
    33792
280
     0
281
     0
  0
CLASS
  1
ACAMMVDBACKUPOBJECT
  2
AcAmMVDBackupObject
  3
DesignerAssemblies
 90
    33792
280
     0
281
     0
  0
CLASS
  1
AC_AM_HIDE_SITUATION
  2
AcAmHideSituation
  3
DesignerAssemblies
 90
    33792
280
     0
281
     0
  0
CLASS
  1
AC_AM_2D_XREF_MGR
  2
AcAmXrefMgr2d
  3
DesignerAssemblies
 90
    33792
280
     0
281
     0
  0
CLASS
  1
ACMDATAENTRYPART
  2
AcmDataEntryPart
  3
AcmSymBB|Product Description: AutoCAD Mechanical|Company: Autodesk, Inc.
 90
    33792
280
     0
281
     0
  0
CLASS
  1
ACMPARTREF
  2
AcmPartRef
  3
"AcmSymBB|Product Description: AutoCAD Mechanical|Company: Autodesk, Inc."
 90
    36863
280
     0
281
     1
  0
CLASS
  1
ACMBOMROW
  2
AcmBomRow
  3
"AcmSymBB|Product Description: AutoCAD Mechanical|Company: Autodesk, Inc."
 90
    33792
280
     0
281
     0
  0
CLASS
  1
ACMBALLOON
  2
AcmBalloon
  3
"AcmSymBB|Product Description: AutoCAD Mechanical|Company: Autodesk, Inc."
 90
    36863
280
     0
281
     1
  0
CLASS
  1
STDPART2D
  2
AmgStdPart
  3
AmgStdPart|Product Description: AutoCAD Mechanical|Company: Autodesk, Inc.
 90
    36863
280
     0
281
     1
  0
CLASS
  1
ACAMSTDPCOMPDEF
  2
AcAmStdpCompDef
  3
DesignerAssemblies
 90
    33792
280
     0
281
     0
  0
CLASS
  1
ACRFATTGENMGR
  2
AcRfAttGeneralMgr
  3
AcAttribServices
 90
     1024
280
     0
281
     0
  0
CLASS
  1
ACRFOBJATTMGR
  2
AcRfObjAttGroupMgr
  3
AcAttribServices
 90
     1024
280
     0
281
     0
  0
CLASS
  1
ACRFMCADAPIATTHOLDER
  2
AcRfMCADAPIAttHolder
  3
AcAttribServices
 90
     1024
280
     0
281
     0
  0
CLASS
  1
AMDTSYSATTR
  2
AmdtSystemAttribute
  3
AcAttribServices
 90
     1024
280
     0
281
     0
  0
CLASS
  1
ACAMCOMP
  2
AcAmComp
  3
DesignerAssemblies
 90
    33792
280
     0
281
     0
  0
CLASS
  1
AC_AM_STDP_VIEW_DEF
  2
AcAmStdpViewDef
  3
DesignerAssemblies
 90
    33792
280
     0
281
     0
  0
CLASS
  1
AC_AM_COMP_VIEW_INST
  2
AcAmCompView
  3
DesignerAssemblies
 90
    33792
280
     0
281
     0
  0
CLASS
  1
ACDBSTDPARTRES_ARC
  2
AcDbStdPartRes_Arc
  3
AmgStdPart|Product Description: AutoCAD Mechanical|Company: Autodesk, Inc.
 90
    33792
280
     0
281
     0
  0
CLASS
  1
ACMSURFSYM
  2
AcmSurfaceTexture
  3
"AcmSymBB|Product Description: AutoCAD Mechanical|Company: Autodesk, Inc."
 90
    36863
280
     0
281
     1
  0
CLASS
  1
ACMSTANDARDANSI
  2
AcmStandardANSI
  3
"Amdt_StdImp|Product Description: AutoCAD Mechanical|Company: Autodesk, Inc."
 90
    33792
280
     0
281
     0
  0
CLASS
  1
ACMSURFSTANDARDANSI
  2
AcmSurfTextStdANSI
  3
"Amdt_StdImp|Product Description: AutoCAD Mechanical|Company: Autodesk, Inc."
 90
    33792
280
     0
281
     0
  0
CLASS
  1
ACMFCFSTANDARDANSI
  2
AcmFCFStdANSI
  3
"Amdt_StdImp|Product Description: AutoCAD Mechanical|Company: Autodesk, Inc."
 90
    33792
280
     0
281
     0
  0
CLASS
  1
ACMWELDSTANDARDANSI
  2
AcmWeldingStdANSI
  3
"Amdt_StdImp|Product Description: AutoCAD Mechanical|Company: Autodesk, Inc."
 90
    33792
280
     0
281
     0
  0
CLASS
  1
ACMIDSTANDARDANSI
  2
AcmIdStdANSI
  3
"Amdt_StdImp|Product Description: AutoCAD Mechanical|Company: Autodesk, Inc."
 90
    33792
280
     0
281
     0
  0
CLASS
  1
ACMDATUMSTANDARDANSI
  2
AcmDatumStdANSI
  3
"Amdt_StdImp|Product Description: AutoCAD Mechanical|Company: Autodesk, Inc."
 90
    33792
280
     0
281
     0
  0
CLASS
  1
ACMBOMSTANDARDANSI
  2
AcmBOMStdANSI
  3
"Amdt_StdImp|Product Description: AutoCAD Mechanical|Company: Autodesk, Inc."
 90
    33792
280
     0
281
     0
  0
CLASS
  1
ACMDETAILSTANDARDANSI
  2
AmdtDetailSymStdANSI
  3
"Amdt_StdImp|Product Description: AutoCAD Mechanical|Company: Autodesk, Inc."
 90
    33792
280
     0
281
     0
  0
CLASS
  1
ACMSECTIONSTANDARDANSI
  2
AmdtSectionSymStdANSI
  3
"Amdt_StdImp|Product Description: AutoCAD Mechanical|Company: Autodesk, Inc."
 90
    33792
280
     0
281
     0
  0
CLASS
  1
ACMCENTERLINESTANDARDANSI
  2
AmdtCenterLineStdANSI
  3
"Amdt_StdImp|Product Description: AutoCAD Mechanical|Company: Autodesk, Inc."
 90
    33792
280
     0
281
     0
  0
CLASS
  1
ACMTHREADLINESTANDARDANSI
  2
AmdtThreadLineStdANSI
  3
"Amdt_StdImp|Product Description: AutoCAD Mechanical|Company: Autodesk, Inc."
 90
    33792
280
     0
281
     0
  0
CLASS
  1
ACMNOTESTANDARDANSI
  2
AmdtNoteStdANSI
  3
"Amdt_StdImp|Product Description: AutoCAD Mechanical|Company: Autodesk, Inc."
 90
    33792
280
     0
281
     0
  0
CLASS
  1
ACAMGHOLECHARTSTDANSI
  2
AcAmgHoleChartStdANSI
  3
AmgDim|Product Description: AutoCAD Mechanical|Company: Autodesk, Inc.
 90
    33792
280
     0
281
     0
  0
CLASS
  1
SORTENTSTABLE
  2
AcDbSortentsTable
  3
ObjectDBX Classes
 90
        0
280
     0
281
     0
  0
CLASS
  1
ACMSTANDARDISO
  2
AcmStandardISO
  3
"Amdt_StdImp|Product Description: AutoCAD Mechanical|Company: Autodesk, Inc."
 90
     1024
280
     0
281
     0
  0
CLASS
  1
AMDTEDGESTANDARDISO13715
  2
AmdtEdgeStdISO13715
  3
"Amdt_StdImp|Product Description: AutoCAD Mechanical|Company: Autodesk, Inc."
 90
     1024
280
     0
281
     0
  0
CLASS
  1
ACMSURFSTANDARDISO
  2
AcmSurfTextStdISO
  3
"Amdt_StdImp|Product Description: AutoCAD Mechanical|Company: Autodesk, Inc."
 90
     1024
280
     0
281
     0
  0
CLASS
  1
ACMFCFSTANDARDISO
  2
AcmFCFStdISO
  3
"Amdt_StdImp|Product Description: AutoCAD Mechanical|Company: Autodesk, Inc."
 90
     1024
280
     0
281
     0
  0
CLASS
  1
ACMWELDSTANDARDISO
  2
AcmWeldingStdISO
  3
"Amdt_StdImp|Product Description: AutoCAD Mechanical|Company: Autodesk, Inc."
 90
     1024
280
     0
281
     0
  0
CLASS
  1
ACMIDSTANDARDISO
  2
AcmIdStdISO
  3
"Amdt_StdImp|Product Description: AutoCAD Mechanical|Company: Autodesk, Inc."
 90
     1024
280
     0
281
     0
  0
CLASS
  1
ACMDATUMSTANDARDISO
  2
AcmDatumStdISO
  3
"Amdt_StdImp|Product Description: AutoCAD Mechanical|Company: Autodesk, Inc."
 90
     1024
280
     0
281
     0
  0
CLASS
  1
ACMBOMSTANDARDISO
  2
AcmBOMStdISO
  3
"Amdt_StdImp|Product Description: AutoCAD Mechanical|Company: Autodesk, Inc."
 90
     1024
280
     0
281
     0
  0
CLASS
  1
ACMDETAILSTANDARDISO
  2
AmdtDetailSymStdISO
  3
"Amdt_StdImp|Product Description: AutoCAD Mechanical|Company: Autodesk, Inc."
 90
     1024
280
     0
281
     0
  0
CLASS
  1
ACMSECTIONSTANDARDISO
  2
AmdtSectionSymStdISO
  3
"Amdt_StdImp|Product Description: AutoCAD Mechanical|Company: Autodesk, Inc."
 90
     1024
280
     0
281
     0
  0
CLASS
  1
ACMCENTERLINESTANDARDISO
  2
AmdtCenterLineStdISO
  3
"Amdt_StdImp|Product Description: AutoCAD Mechanical|Company: Autodesk, Inc."
 90
     1024
280
     0
281
     0
  0
CLASS
  1
ACMTHREADLINESTANDARDISO
  2
AmdtThreadLineStdISO
  3
"Amdt_StdImp|Product Description: AutoCAD Mechanical|Company: Autodesk, Inc."
 90
     1024
280
     0
281
     0
  0
CLASS
  1
ACMNOTESTANDARDISO
  2
AmdtNoteStdISO
  3
"Amdt_StdImp|Product Description: AutoCAD Mechanical|Company: Autodesk, Inc."
 90
     1024
280
     0
281
     0
  0
CLASS
  1
ACAMGHOLECHARTSTDISO
  2
AcAmgHoleChartStdISO
  3
AmgDim|Product Description: AutoCAD Mechanical|Company: Autodesk, Inc.
 90
     1024
280
     0
281
     0
  0
CLASS
  1
AMDTSECTIONSYM
  2
AmdtSectionSym
  3
"AcmSymBB|Product Description: AutoCAD Mechanical|Company: Autodesk, Inc."
 90
    36863
280
     0
281
     1
  0
CLASS
  1
AMDTSECTIONSYMLABEL
  2
AmdtSectionSymLabel
  3
"AcmSymBB|Product Description: AutoCAD Mechanical|Company: Autodesk, Inc."
 90
    36863
280
     0
281
     1
  0
CLASS
  1
PLOTSETTINGS
  2
AcDbPlotSettings
  3
ObjectDBX Classes
 90
        0
280
     0
281
     0
  0
CLASS
  1
FIELD
  2
AcDbField
  3
ObjectDBX Classes
 90
    33920
280
     0
281
     0
  0
CLASS
  1
FIELDLIST
  2
AcDbFieldList
  3
ObjectDBX Classes
 90
     1152
280
     0
281
     0
  0
CLASS
  1
MATERIAL
  2
AcDbMaterial
  3
ObjectDBX Classes
 90
     1153
280
     0
281
     0
  0
CLASS
  1
VISUALSTYLE
  2
AcDbVisualStyle
  3
ObjectDBX Classes
 90
     4095
280
     0
281
     0
  0
CLASS
  1
ACMTAPERSTANDARDJIS
  2
AcmTaperStdJIS
  3
"Amdt_StdImp|Product Description: AutoCAD Mechanical|Company: Autodesk, Inc."
 90
     1024
280
     0
281
     0
  0
CLASS
  1
CAMSSTRUCTBTNSTATE
  2
StructBtnState
  3
DesignerAssemblies
 90
     1024
280
     0
281
     0
  0
CLASS
  1
ACAD_EVALUATION_GRAPH
  2
AcDbEvalGraph
  3
ObjectDBX Classes
 90
    33921
280
     0
281
     0
  0
CLASS
  1
ACAECUSTOBJ
  2
AcAeEditorObj
  3
AcAeEditorObj
 90
    33792
280
     0
281
     0
  0
CLASS
  1
ACDB_DYNAMICBLOCKPURGEPREVENTER_VERSION
  2
AcDbDynamicBlockPurgePreventer
  3
ObjectDBX Classes
 90
    33921
280
     0
281
     0
  0
CLASS
  1
ACDBSTDPARTRES_LINE
  2
AcDbStdPartRes_Line
  3
AmgStdPart|Product Description: AutoCAD Mechanical|Company: Autodesk, Inc.
 90
    33792
280
     0
281
     0
  0
CLASS
  1
ACMTAPERSTANDARDISO
  2
AcmTaperStdISO
  3
"Amdt_StdImp|Product Description: AutoCAD Mechanical|Company: Autodesk, Inc."
 90
     1024
280
     0
281
     0
  0
CLASS
  1
DIMASSOC
  2
AcDbDimAssoc
  3
"AcDbDimAssoc|Product Desc:     AcDim ARX App For Dimension|Company:          Autodesk, Inc.|WEB Address:      www.autodesk.com"
 90
        0
280
     0
281
     0
  0
CLASS
  1
SCALE
  2
AcDbScale
  3
ObjectDBX Classes
 90
     1153
280
     0
281
     0
  0
CLASS
  1
MLEADERSTYLE
  2
AcDbMLeaderStyle
  3
ACDB_MLEADERSTYLE_CLASS
 90
     4095
280
     0
281
     0
  0
CLASS
  1
ACMANOOTATIONVIEWSTANDARDJIS
  2
AmdtAnViewStdJIS
  3
"Amdt_StdImp|Product Description: AutoCAD Mechanical|Company: Autodesk, Inc."
 90
     1024
280
     0
281
     0
  0
CLASS
  1
AMDTEDGESTANDARDJIS
  2
AmdtEdgeStdJIS
  3
"Amdt_StdImp|Product Description: AutoCAD Mechanical|Company: Autodesk, Inc."
 90
     1024
280
     0
281
     0
  0
CLASS
  1
ACMANOOTATIONVIEWSTANDARDISO
  2
AmdtAnViewStdISO
  3
"Amdt_StdImp|Product Description: AutoCAD Mechanical|Company: Autodesk, Inc."
 90
     1024
280
     0
281
     0
  0
CLASS
  1
CELLSTYLEMAP
  2
AcDbCellStyleMap
  3
ObjectDBX Classes
 90
     1152
280
     0
281
     0
  0
ENDSEC
  0
SECTION
  2
TABLES
  0
TABLE
  2
VPORT
  5
8
330
0
100
AcDbSymbolTable
 70
     1
  0
VPORT
  5
3734
330
8
100
AcDbSymbolTableRecord
100
AcDbViewportTableRecord
  2
*Active
 70
     0
 10
0.0
 20
0.0
 11
1.0
 21
1.0
 12
2749.085552072849
 22
523.5167818692723
 13
0.0
 23
0.0
 14
2.5
 24
2.5
 15
10.0
 25
10.0
 16
0.0
 26
0.0
 36
1.0
 17
0.0
 27
0.0
 37
0.0
 40
2726.515113688897
 41
1.864057672502574
 42
50.0
 43
0.0
 44
0.0
 50
0.0
 51
0.0
 71
     0
 72
   100
 73
     1
 74
     3
 75
     0
 76
     0
 77
     0
 78
     0
281
     0
 65
     1
110
0.0
120
0.0
130
0.0
111
1.0
121
0.0
131
0.0
112
0.0
122
1.0
132
0.0
 79
     0
146
0.0
  0
ENDTAB
  0
TABLE
  2
LTYPE
  5
5
330
0
100
AcDbSymbolTable
 70
    20
  0
LTYPE
  5
14
330
5
100
AcDbSymbolTableRecord
100
AcDbLinetypeTableRecord
  2
ByBlock
 70
     0
  3

 72
    65
 73
     0
 40
0.0
  0
LTYPE
  5
15
330
5
100
AcDbSymbolTableRecord
100
AcDbLinetypeTableRecord
  2
ByLayer
 70
     0
  3

 72
    65
 73
     0
 40
0.0
  0
LTYPE
  5
16
330
5
100
AcDbSymbolTableRecord
100
AcDbLinetypeTableRecord
  2
Continuous
 70
     0
  3
Solid line
 72
    65
 73
     0
 40
0.0
  0
LTYPE
  5
4D
330
5
100
AcDbSymbolTableRecord
100
AcDbLinetypeTableRecord
  2
AM_ISO02W050
 70
     0
  3
__ __ __ __ __ __ __ __ __ __ __ __ __ __ __
 72
    65
 73
     2
 40
7.5
 49
6.0
 74
     0
 49
-1.5
 74
     0
  0
LTYPE
  5
4E
330
5
100
AcDbSymbolTableRecord
100
AcDbLinetypeTableRecord
  2
AM_ISO08W050
 70
     0
  3
____ . ____ . ____ . ____ . ____ . ____ . ____
 72
    65
 73
     4
 40
18.0
 49
12.0
 74
     0
 49
-1.5
 74
     0
 49
3.0
 74
     0
 49
-1.5
 74
     0
  0
LTYPE
  5
4F
330
5
100
AcDbSymbolTableRecord
100
AcDbLinetypeTableRecord
  2
AM_ISO09W050
 70
     0
  3
_____ . . _____ . . _____ . . ____ .. ____
 72
    65
 73
     6
 40
22.5
 49
12.0
 74
     0
 49
-1.5
 74
     0
 49
3.0
 74
     0
 49
-1.5
 74
     0
 49
3.0
 74
     0
 49
-1.5
 74
     0
  0
LTYPE
  5
50
330
5
100
AcDbSymbolTableRecord
100
AcDbLinetypeTableRecord
  2
Amconstr
 70
     0
  3
_______________________
 72
    65
 73
     2
 40
9999.0
 49
9999.0
 74
     0
 49
0.0
 74
     0
  0
LTYPE
  5
51
330
5
100
AcDbSymbolTableRecord
100
AcDbLinetypeTableRecord
  2
AM_ISO08W050x2
 70
     0
  3
__ . __ . __ . __ . __ . __
 72
    65
 73
     4
 40
9.0
 49
6.0
 74
     0
 49
-0.75
 74
     0
 49
1.5
 74
     0
 49
-0.75
 74
     0
  0
LTYPE
  5
52
330
5
100
AcDbSymbolTableRecord
100
AcDbLinetypeTableRecord
  2
AM_ISO02W050x2
 70
     0
  3
 _ _ _ _ _ _ _ _ _ _ _ _
 72
    65
 73
     2
 40
3.75
 49
3.0
 74
     0
 49
-0.75
 74
     0
  0
LTYPE
  5
55
330
5
100
AcDbSymbolTableRecord
100
AcDbLinetypeTableRecord
  2
Amzigzag
 70
     0
  3
/\/-/\/-/\/-/\/-/\/-/\/
 72
    65
 73
     2
 40
11.0001
 49
0.0001
 74
     4
 75
   135
340
54
 46
0.04
 50
0.0
 44
0.0
 45
0.0
 49
-11.0
 74
     0
  0
LTYPE
  5
62
330
5
100
AcDbSymbolTableRecord
100
AcDbLinetypeTableRecord
  2
ACJISTGB
 70
     0
  3
__ . . __ . .
 72
    65
 73
     6
 40
9.0
 49
4.0
 74
     0
 49
-1.0
 74
     0
 49
1.0
 74
     0
 49
-1.0
 74
     0
 49
1.0
 74
     0
 49
-1.0
 74
     0
  0
LTYPE
  5
63
330
5
100
AcDbSymbolTableRecord
100
AcDbLinetypeTableRecord
  2
ACJISTGL
 70
     0
  3
_ _ _ _ _
 72
    65
 73
     2
 40
3.0
 49
2.0
 74
     0
 49
-1.0
 74
     0
  0
LTYPE
  5
65
330
5
100
AcDbSymbolTableRecord
100
AcDbLinetypeTableRecord
  2
CENTER
 70
     0
  3
__ . __
 72
    65
 73
     4
 40
7.0
 49
4.0
 74
     0
 49
-1.0
 74
     0
 49
1.0
 74
     0
 49
-1.0
 74
     0
  0
LTYPE
  5
E0
330
5
100
AcDbSymbolTableRecord
100
AcDbLinetypeTableRecord
  2
HIDDEN
 70
     0
  3
Hidden __ __ __ __ __ __ __ __ __ __ __ __ __ _
 72
    65
 73
     2
 40
9.524999999999998
 49
6.349999999999999
 74
     0
 49
-3.174999999999999
 74
     0
  0
LTYPE
  5
E1
330
5
100
AcDbSymbolTableRecord
100
AcDbLinetypeTableRecord
  2
PHANTOM2
 70
     0
  3
Phantom (.5x) ___ _ _ ___ _ _ ___ _ _ ___ _ _
 72
    65
 73
     6
 40
31.75
 49
15.875
 74
     0
 49
-3.174999999999999
 74
     0
 49
3.174999999999999
 74
     0
 49
-3.174999999999999
 74
     0
 49
3.174999999999999
 74
     0
 49
-3.174999999999999
 74
     0
  0
LTYPE
  5
217
330
5
100
AcDbSymbolTableRecord
100
AcDbLinetypeTableRecord
  2
ACJISWELD
 70
     0
  3
_ _ _ _ _
 72
    65
 73
     2
 40
2.0
 49
2.0
 74
     0
 49
-1.0
 74
     0
  0
LTYPE
  5
39B8
330
5
100
AcDbSymbolTableRecord
100
AcDbLinetypeTableRecord
  2
HIDDEN2
 70
     0
  3
Hidden (.5x) _ _ _ _ _ _ _ _ _ _ _ _ _ _ _ _ _
 72
    65
 73
     2
 40
4.762499999999999
 49
3.174999999999999
 74
     0
 49
-1.587499999999999
 74
     0
  0
LTYPE
  5
3B62
330
5
100
AcDbSymbolTableRecord
100
AcDbLinetypeTableRecord
  2
CENTER2
 70
     0
  3
Center (.5x) ___ _ ___ _ ___ _ ___ _ ___ _ ___
 72
    65
 73
     4
 40
28.575
 49
19.05
 74
     0
 49
-3.174999999999999
 74
     0
 49
3.174999999999999
 74
     0
 49
-3.174999999999999
 74
     0
  0
LTYPE
  5
43A7
330
5
100
AcDbSymbolTableRecord
100
AcDbLinetypeTableRecord
  2
NON_PLOTING
 70
     0
  3
Solid line
 72
    65
 73
     0
 40
0.0
  0
LTYPE
  5
43A8
330
5
100
AcDbSymbolTableRecord
100
AcDbLinetypeTableRecord
  2
ACISOWELD
 70
     0
  3
_ _ _ _ _
 72
    65
 73
     2
 40
2.0
 49
2.0
 74
     0
 49
-1.0
 74
     0
  0
LTYPE
  5
43A9
330
5
100
AcDbSymbolTableRecord
100
AcDbLinetypeTableRecord
  2
ACISOTGB
 70
     0
  3
__ . . __ . .
 72
    65
 73
     6
 40
9.0
 49
4.0
 74
     0
 49
-1.0
 74
     0
 49
1.0
 74
     0
 49
-1.0
 74
     0
 49
1.0
 74
     0
 49
-1.0
 74
     0
  0
LTYPE
  5
43AA
330
5
100
AcDbSymbolTableRecord
100
AcDbLinetypeTableRecord
  2
ACISOTGL
 70
     0
  3
_ _ _ _ _
 72
    65
 73
     2
 40
3.0
 49
2.0
 74
     0
 49
-1.0
 74
     0
  0
ENDTAB
  0
TABLE
  2
LAYER
  5
2
102
{ACAD_XDICTIONARY
360
BF
102
}
330
0
100
AcDbSymbolTable
 70
    24
  0
LAYER
  5
10
102
{ACAD_XDICTIONARY
360
4880
102
}
330
2
100
AcDbSymbolTableRecord
100
AcDbLayerTableRecord
  2
0
 70
     0
 62
     7
  6
Continuous
370
    -3
390
F
  0
LAYER
  5
81
102
{ACAD_XDICTIONARY
360
4882
102
}
330
2
100
AcDbSymbolTableRecord
100
AcDbLayerTableRecord
  2
PROFILE2
 70
     0
 62
     4
  6
Continuous
370
    35
390
F
  0
LAYER
  5
1BC
102
{ACAD_XDICTIONARY
360
4884
102
}
330
2
100
AcDbSymbolTableRecord
100
AcDbLayerTableRecord
  2
DIMENSION
 70
     0
 62
     7
  6
Continuous
370
    18
390
F
  0
LAYER
  5
1A29
102
{ACAD_XDICTIONARY
360
4886
102
}
330
2
100
AcDbSymbolTableRecord
100
AcDbLayerTableRecord
  2
HIDDEN1
 70
     0
 62
     3
  6
HIDDEN
370
    18
390
F
  0
LAYER
  5
1A3F
102
{ACAD_XDICTIONARY
360
4888
102
}
330
2
100
AcDbSymbolTableRecord
100
AcDbLayerTableRecord
  2
CENTER1
 70
     0
 62
     7
  6
CENTER2
370
    18
390
F
  0
LAYER
  5
1A6C
102
{ACAD_XDICTIONARY
360
488A
102
}
330
2
100
AcDbSymbolTableRecord
100
AcDbLayerTableRecord
  2
SECTION1
 70
     0
 62
     3
  6
Continuous
370
    18
390
F
  0
LAYER
  5
1A6D
102
{ACAD_XDICTIONARY
360
488C
102
}
330
2
100
AcDbSymbolTableRecord
100
AcDbLayerTableRecord
  2
HATCH
 70
     0
 62
     7
  6
Continuous
370
    18
390
F
  0
LAYER
  5
1A6E
102
{ACAD_XDICTIONARY
360
488E
102
}
330
2
100
AcDbSymbolTableRecord
100
AcDbLayerTableRecord
  2
TEXT
 70
     0
 62
     7
  6
Continuous
370
    18
390
F
  0
LAYER
  5
1A72
102
{ACAD_XDICTIONARY
360
4890
102
}
330
2
100
AcDbSymbolTableRecord
100
AcDbLayerTableRecord
  2
NONPLOT
 70
     0
 62
     7
  6
Continuous
290
     0
370
    18
390
F
  0
LAYER
  5
1AE0
102
{ACAD_XDICTIONARY
360
4892
102
}
330
2
100
AcDbSymbolTableRecord
100
AcDbLayerTableRecord
  2
PROFILE1
 70
     0
 62
     2
  6
Continuous
370
    18
390
F
  0
LAYER
  5
1AE1
102
{ACAD_XDICTIONARY
360
4894
102
}
330
2
100
AcDbSymbolTableRecord
100
AcDbLayerTableRecord
  2
PROFILE3
 70
     0
 62
     5
  6
Continuous
370
    60
390
F
  0
LAYER
  5
1AE3
102
{ACAD_XDICTIONARY
360
4896
102
}
330
2
100
AcDbSymbolTableRecord
100
AcDbLayerTableRecord
  2
PHANTOM1
 70
     0
 62
     2
  6
PHANTOM2
370
    18
390
F
  0
LAYER
  5
1CA2
102
{ACAD_XDICTIONARY
360
4898
102
}
330
2
100
AcDbSymbolTableRecord
100
AcDbLayerTableRecord
  2
PHANTOM2
 70
     0
 62
     4
  6
PHANTOM2
370
    35
390
F
  0
LAYER
  5
1CA3
102
{ACAD_XDICTIONARY
360
489A
102
}
330
2
100
AcDbSymbolTableRecord
100
AcDbLayerTableRecord
  2
HIDDEN2
 70
     0
 62
     4
  6
HIDDEN
370
    35
390
F
  0
LAYER
  5
1CA4
102
{ACAD_XDICTIONARY
360
489C
102
}
330
2
100
AcDbSymbolTableRecord
100
AcDbLayerTableRecord
  2
SECTION2
 70
     0
 62
     4
  6
Continuous
370
    35
390
F
  0
LAYER
  5
1CA5
102
{ACAD_XDICTIONARY
360
489E
102
}
330
2
100
AcDbSymbolTableRecord
100
AcDbLayerTableRecord
  2
CENTER2
 70
     0
 62
     4
  6
CENTER2
370
    35
390
F
  0
LAYER
  5
393E
102
{ACAD_XDICTIONARY
360
48A0
102
}
330
2
100
AcDbSymbolTableRecord
100
AcDbLayerTableRecord
  2
BALLOON
 70
     0
 62
     7
  6
Continuous
370
    18
390
F
1001
AcAecLayerStandard
1000

1000

  0
LAYER
  5
3C35
102
{ACAD_XDICTIONARY
360
48A2
102
}
330
2
100
AcDbSymbolTableRecord
100
AcDbLayerTableRecord
  2
PARTSLIST
 70
     0
 62
     7
  6
Continuous
370
    18
390
F
1001
AcAecLayerStandard
1000

1000

  0
LAYER
  5
42C0
102
{ACAD_XDICTIONARY
360
48A4
102
}
330
2
100
AcDbSymbolTableRecord
100
AcDbLayerTableRecord
  2
CUTTING1
 70
     0
 62
     7
  6
CENTER2
370
    18
390
F
1001
AcAecLayerStandard
1000

1000

  0
LAYER
  5
42DF
102
{ACAD_XDICTIONARY
360
48A6
102
}
330
2
100
AcDbSymbolTableRecord
100
AcDbLayerTableRecord
  2
CUTTING2
 70
     0
 62
     7
  6
CENTER2
370
    35
390
F
1001
AcAecLayerStandard
1000

1000

  0
LAYER
  5
42E0
102
{ACAD_XDICTIONARY
360
48A8
102
}
330
2
100
AcDbSymbolTableRecord
100
AcDbLayerTableRecord
  2
FORMAT
 70
     0
 62
     7
  6
Continuous
370
    60
390
F
1001
AcAecLayerStandard
1000

1000

  0
LAYER
  5
43AB
330
2
100
AcDbSymbolTableRecord
100
AcDbLayerTableRecord
  2
DEFPOINTS
 70
     0
 62
     7
  6
Continuous
290
     0
370
    -3
390
F
  0
LAYER
  5
43AC
102
{ACAD_XDICTIONARY
360
48AA
102
}
330
2
100
AcDbSymbolTableRecord
100
AcDbLayerTableRecord
  2
PV
 70
     0
 62
     7
  6
Continuous
370
    -3
390
F
  0
LAYER
  5
43AD
102
{ACAD_XDICTIONARY
360
48AC
102
}
330
2
100
AcDbSymbolTableRecord
100
AcDbLayerTableRecord
  2
FV
 70
     0
 62
     7
  6
Continuous
370
    -3
390
F
  0
ENDTAB
  0
TABLE
  2
STYLE
  5
3
330
0
100
AcDbSymbolTable
 70
    12
  0
STYLE
  5
11
330
3
100
AcDbSymbolTableRecord
100
AcDbTextStyleTableRecord
  2
STANDARD
 70
     0
 40
0.0
 41
1.0
 50
0.0
 71
     0
 42
4.0
  3
ISOCP.SHX
  4
EXTFONT.SHX
  0
STYLE
  5
54
330
3
100
AcDbSymbolTableRecord
100
AcDbTextStyleTableRecord
  2

 70
     1
 40
0.0
 41
1.0
 50
0.0
 71
     0
 42
2.5
  3
ltypeshp.shx
  4

  0
STYLE
  5
56
330
3
100
AcDbSymbolTableRecord
100
AcDbTextStyleTableRecord
  2
ACJISTS
 70
     0
 40
1.0
 41
1.0
 50
0.0
 71
     0
 42
2.5
  3
isocp.shx
  4
extfont.shx
  0
STYLE
  5
61
330
3
100
AcDbSymbolTableRecord
100
AcDbTextStyleTableRecord
  2
ACJISGDT
 70
     0
 40
0.0
 41
1.0
 50
0.0
 71
     0
 42
2.5
  3
amgdt.shx
  4
extfont.shx
  0
STYLE
  5
56B
330
3
100
AcDbSymbolTableRecord
100
AcDbTextStyleTableRecord
  2
ULVAC
 70
     0
 40
0.0
 41
1.0
 50
0.0
 71
     0
 42
4.0
  3
extslim2.shx
  4
extfont2.shx
  0
STYLE
  5
434F
330
3
100
AcDbSymbolTableRecord
100
AcDbTextStyleTableRecord
  2
USER1
 70
     0
 40
0.0
 41
1.0
 50
0.0
 71
     0
 42
4.0
  3
TXT.SHX
  4

  0
STYLE
  5
4350
330
3
100
AcDbSymbolTableRecord
100
AcDbTextStyleTableRecord
  2
USER2
 70
     0
 40
0.0
 41
1.0
 50
0.0
 71
     0
 42
4.0
  3
SIMPLEX.SHX
  4

  0
STYLE
  5
4351
330
3
100
AcDbSymbolTableRecord
100
AcDbTextStyleTableRecord
  2
USER3
 70
     0
 40
0.0
 41
1.0
 50
0.0
 71
     0
 42
4.0
  3
ITALIC.SHX
  4

  0
STYLE
  5
43AE
330
3
100
AcDbSymbolTableRecord
100
AcDbTextStyleTableRecord
  2
MX_NOTE_STANDARD
 70
     0
 40
0.0
 41
1.0
 50
0.0
 71
     0
 42
12.50099945068359
  3
txt.shx
  4
extfont.shx
  0
STYLE
  5
43AF
330
3
100
AcDbSymbolTableRecord
100
AcDbTextStyleTableRecord
  2

 70
     1
 40
0.0
 41
1.0
 50
0.0
 71
     0
 42
12.50099945068359
  3
genltshp.shx
  4

  0
STYLE
  5
43B0
330
3
100
AcDbSymbolTableRecord
100
AcDbTextStyleTableRecord
  2
ACISOTS
 70
     0
 40
1.0
 41
1.0
 50
0.0
 71
     0
 42
12.50099945068359
  3
isocp.shx
  4
extfont.shx
  0
STYLE
  5
43B1
330
3
100
AcDbSymbolTableRecord
100
AcDbTextStyleTableRecord
  2
ACISOGDT
 70
     0
 40
0.0
 41
1.0
 50
0.0
 71
     0
 42
12.50099945068359
  3
amgdt.shx
  4

  0
ENDTAB
  0
TABLE
  2
VIEW
  5
6
330
0
100
AcDbSymbolTable
 70
     0
  0
ENDTAB
  0
TABLE
  2
UCS
  5
7
330
0
100
AcDbSymbolTable
 70
     0
  0
ENDTAB
  0
TABLE
  2
APPID
  5
9
330
0
100
AcDbSymbolTable
 70
    48
  0
APPID
  5
12
330
9
100
AcDbSymbolTableRecord
100
AcDbRegAppTableRecord
  2
ACAD
 70
     0
  0
APPID
  5
30
330
9
100
AcDbSymbolTableRecord
100
AcDbRegAppTableRecord
  2
MCAD_NO_VIS
 70
     0
  0
APPID
  5
31
330
9
100
AcDbSymbolTableRecord
100
AcDbRegAppTableRecord
  2
ACAD_TEMP_GRAPHIC
 70
     0
  0
APPID
  5
44
330
9
100
AcDbSymbolTableRecord
100
AcDbRegAppTableRecord
  2
ACATTRIBSERVICES
 70
     0
  0
APPID
  5
F6
330
9
100
AcDbSymbolTableRecord
100
AcDbRegAppTableRecord
  2
AD_DRAW
 70
     0
  0
APPID
  5
114
330
9
100
AcDbSymbolTableRecord
100
AcDbRegAppTableRecord
  2
DESIGNERASSEMBLIES
 70
     0
  0
APPID
  5
118
330
9
100
AcDbSymbolTableRecord
100
AcDbRegAppTableRecord
  2
ACADM_DIM_EDIT
 70
     0
  0
APPID
  5
119
330
9
100
AcDbSymbolTableRecord
100
AcDbRegAppTableRecord
  2
AMDT_DM_ADJ
 70
     0
  0
APPID
  5
22A
330
9
100
AcDbSymbolTableRecord
100
AcDbRegAppTableRecord
  2
DCO15
 70
     0
  0
APPID
  5
24F
330
9
100
AcDbSymbolTableRecord
100
AcDbRegAppTableRecord
  2
CONTENTBLOCKDESCRIPTION
 70
     0
  0
APPID
  5
250
330
9
100
AcDbSymbolTableRecord
100
AcDbRegAppTableRecord
  2
ACAD_DSTYLE_DIMTEXT_FILL
 70
     0
  0
APPID
  5
251
330
9
100
AcDbSymbolTableRecord
100
AcDbRegAppTableRecord
  2
GENIUS_GENREC_14
 70
     0
  0
APPID
  5
252
330
9
100
AcDbSymbolTableRecord
100
AcDbRegAppTableRecord
  2
GENIUS_GENOBJ-N-REC_13
 70
     0
  0
APPID
  5
253
330
9
100
AcDbSymbolTableRecord
100
AcDbRegAppTableRecord
  2
GENIUS_GENODEF_13
 70
     0
  0
APPID
  5
254
330
9
100
AcDbSymbolTableRecord
100
AcDbRegAppTableRecord
  2
GENIUS_GENOENT_13
 70
     0
  0
APPID
  5
255
330
9
100
AcDbSymbolTableRecord
100
AcDbRegAppTableRecord
  2
GENIUS_GENOBJ-N-TIT_13
 70
     0
  0
APPID
  5
256
330
9
100
AcDbSymbolTableRecord
100
AcDbRegAppTableRecord
  2
GENIUS_GENOLIS_13
 70
     0
  0
APPID
  5
257
330
9
100
AcDbSymbolTableRecord
100
AcDbRegAppTableRecord
  2
GENIUS_GENTITLE_13
 70
     0
  0
APPID
  5
258
330
9
100
AcDbSymbolTableRecord
100
AcDbRegAppTableRecord
  2
GENIUS_GENOREF_13
 70
     0
  0
APPID
  5
259
330
9
100
AcDbSymbolTableRecord
100
AcDbRegAppTableRecord
  2
GENIUS_GENSCREG_15
 70
     0
  0
APPID
  5
25A
330
9
100
AcDbSymbolTableRecord
100
AcDbRegAppTableRecord
  2
GENIUS_GENOBJ-N-SDF_13
 70
     0
  0
APPID
  5
25B
330
9
100
AcDbSymbolTableRecord
100
AcDbRegAppTableRecord
  2
GENIUS_GENDTOL_13
 70
     0
  0
APPID
  5
D55
330
9
100
AcDbSymbolTableRecord
100
AcDbRegAppTableRecord
  2
ACAD_PSEXT
 70
     0
  0
APPID
  5
1A26
330
9
100
AcDbSymbolTableRecord
100
AcDbRegAppTableRecord
  2
GENIUS_GENBH_13
 70
     0
  0
APPID
  5
1A2C
330
9
100
AcDbSymbolTableRecord
100
AcDbRegAppTableRecord
  2
GENIUS_GENOBJ-NBEHI-BHF_13
 70
     0
  0
APPID
  5
1A2E
330
9
100
AcDbSymbolTableRecord
100
AcDbRegAppTableRecord
  2
GENIUS_GENOBJ-NBEHI-BHB_13
 70
     0
  0
APPID
  5
1A38
330
9
100
AcDbSymbolTableRecord
100
AcDbRegAppTableRecord
  2
GEVID1137384586
 70
     0
  0
APPID
  5
1A39
330
9
100
AcDbSymbolTableRecord
100
AcDbRegAppTableRecord
  2
GEVDC
 70
     0
  0
APPID
  5
1A4E
330
9
100
AcDbSymbolTableRecord
100
AcDbRegAppTableRecord
  2
GENIUS_GENOBJ-N-CEN_13
 70
     0
  0
APPID
  5
1A4F
330
9
100
AcDbSymbolTableRecord
100
AcDbRegAppTableRecord
  2
GENIUS_GENCEN_19
 70
     0
  0
APPID
  5
1A5F
330
9
100
AcDbSymbolTableRecord
100
AcDbRegAppTableRecord
  2
GEVID1137384587
 70
     0
  0
APPID
  5
1A60
330
9
100
AcDbSymbolTableRecord
100
AcDbRegAppTableRecord
  2
GEVCON
 70
     0
  0
APPID
  5
1A70
330
9
100
AcDbSymbolTableRecord
100
AcDbRegAppTableRecord
  2
GENIUS_GENOBJ-F-SCPASSM_13
 70
     0
  0
APPID
  5
380E
330
9
100
AcDbSymbolTableRecord
100
AcDbRegAppTableRecord
  2
ACAUTHENVIRON
 70
     0
  0
APPID
  5
3812
330
9
100
AcDbSymbolTableRecord
100
AcDbRegAppTableRecord
  2
AcDbDynamicBlockTrueName
 70
     0
  0
APPID
  5
3813
330
9
100
AcDbSymbolTableRecord
100
AcDbRegAppTableRecord
  2
AcDbDynamicBlockGUID
 70
     0
  0
APPID
  5
3815
330
9
100
AcDbSymbolTableRecord
100
AcDbRegAppTableRecord
  2
ACDBBLOCKREPETAG
 70
     0
  0
APPID
  5
393F
330
9
100
AcDbSymbolTableRecord
100
AcDbRegAppTableRecord
  2
AcAecLayerStandard
 70
     0
  0
APPID
  5
3DA4
330
9
100
AcDbSymbolTableRecord
100
AcDbRegAppTableRecord
  2
GEVID1176237129
 70
     0
  0
APPID
  5
3DAA
330
9
100
AcDbSymbolTableRecord
100
AcDbRegAppTableRecord
  2
GEVID1176237130
 70
     0
  0
APPID
  5
3DBC
330
9
100
AcDbSymbolTableRecord
100
AcDbRegAppTableRecord
  2
GEVID1176237132
 70
     0
  0
APPID
  5
3DE8
330
9
100
AcDbSymbolTableRecord
100
AcDbRegAppTableRecord
  2
GENIUS_GENFIL_13
 70
     0
  0
APPID
  5
3DEA
330
9
100
AcDbSymbolTableRecord
100
AcDbRegAppTableRecord
  2
GENIUS_GENOBJ-N-CHA_13
 70
     0
  0
APPID
  5
48C2
330
9
100
AcDbSymbolTableRecord
100
AcDbRegAppTableRecord
  2
ACAD_DSTYLE_DIMARC_LENGTH_SYMBOL
 70
     0
  0
APPID
  5
48C3
330
9
100
AcDbSymbolTableRecord
100
AcDbRegAppTableRecord
  2
ACAD_DSTYLE_DIM_LINETYPE
 70
     0
  0
APPID
  5
48C4
330
9
100
AcDbSymbolTableRecord
100
AcDbRegAppTableRecord
  2
ACAD_DSTYLE_DIM_EXT1_LINETYPE
 70
     0
  0
APPID
  5
48C5
330
9
100
AcDbSymbolTableRecord
100
AcDbRegAppTableRecord
  2
ACAD_DSTYLE_DIM_EXT2_LINETYPE
 70
     0
  0
APPID
  5
48FE
330
9
100
AcDbSymbolTableRecord
100
AcDbRegAppTableRecord
  2
ACAD_MLEADERVER
 70
     0
  0
ENDTAB
  0
TABLE
  2
DIMSTYLE
  5
A
330
0
100
AcDbSymbolTable
 70
    18
100
AcDbDimStyleTable
 71
     3
340
24E
340
1361
340
1348
  0
DIMSTYLE
105
24D
330
A
100
AcDbSymbolTableRecord
100
AcDbDimStyleTableRecord
  2
Standard
 70
     0
340
11
  0
DIMSTYLE
105
24E
330
A
100
AcDbSymbolTableRecord
100
AcDbDimStyleTableRecord
  2
ULVAC
 70
     0
 41
2.9
 42
1.269999980926513
 43
10.0
 44
1.200000047683715
 73
     0
 74
     0
 77
     1
 78
     9
 79
     2
140
4.0
141
0.0
143
0.03937007874016
146
0.75
147
1.0
171
     4
172
     1
179
     2
271
     2
272
     2
274
     4
284
     8
288
     1
340
56B
341
69
342
69
371
    -1
372
    -1
1001
ACAD_DSTYLE_DIMARC_LENGTH_SYMBOL
1070
   379
1070
     1
1001
ACAD_DSTYLE_DIM_LINETYPE
1070
   380
1005
15
1001
ACAD_DSTYLE_DIM_EXT1_LINETYPE
1070
   381
1005
15
1001
ACAD_DSTYLE_DIM_EXT2_LINETYPE
1070
   382
1005
15
  0
DIMSTYLE
105
623
330
A
100
AcDbSymbolTableRecord
100
AcDbDimStyleTableRecord
  2
ULVAC$2
 70
     0
 41
2.9
 42
1.269999980926513
 43
10.0
 44
1.200000047683715
 73
     0
 74
     0
 77
     1
 78
     9
 79
     2
140
4.0
141
0.0
143
0.03937007874016
146
0.75
147
1.0
171
     4
172
     1
179
     2
274
     4
284
     8
340
56B
341
69
342
69
371
    -1
372
    -1
1001
ACAD_DSTYLE_DIMARC_LENGTH_SYMBOL
1070
   379
1070
     1
1001
ACAD_DSTYLE_DIM_LINETYPE
1070
   380
1005
15
1001
ACAD_DSTYLE_DIM_EXT1_LINETYPE
1070
   381
1005
15
1001
ACAD_DSTYLE_DIM_EXT2_LINETYPE
1070
   382
1005
15
  0
DIMSTYLE
105
68C
102
{ACAD_REACTORS
330
45E2
330
45E3
330
45EB
330
45EC
330
45ED
330
46F8
330
472A
102
}
330
A
100
AcDbSymbolTableRecord
100
AcDbDimStyleTableRecord
  2
ULVAC$0
 70
     0
 41
2.9
 42
1.269999980926513
 43
10.0
 44
1.200000047683715
 73
     0
 74
     0
 77
     1
 78
     9
140
4.0
141
0.0
143
0.03937007874016
146
0.75
147
1.0
171
     4
172
     1
179
     2
271
     2
272
     2
274
     4
284
     8
288
     1
340
56B
341
69
342
69
371
    -1
372
    -1
1001
ACAD_DSTYLE_DIMARC_LENGTH_SYMBOL
1070
   379
1070
     1
1001
ACAD_DSTYLE_DIM_LINETYPE
1070
   380
1005
15
1001
ACAD_DSTYLE_DIM_EXT1_LINETYPE
1070
   381
1005
15
1001
ACAD_DSTYLE_DIM_EXT2_LINETYPE
1070
   382
1005
15
  0
DIMSTYLE
105
1103
330
A
100
AcDbSymbolTableRecord
100
AcDbDimStyleTableRecord
  2
ULVAC$4
 70
     0
 41
2.9
 42
1.269999980926513
 43
10.0
 44
1.200000047683715
 73
     0
 74
     0
 77
     1
 78
     9
140
4.0
141
0.0
143
0.03937007874016
146
0.75
147
1.0
171
     4
172
     1
179
     2
271
     2
272
     2
274
     4
284
     8
288
     1
289
     0
340
56B
341
69
342
69
371
    -1
372
    -1
1001
ACAD_DSTYLE_DIMARC_LENGTH_SYMBOL
1070
   379
1070
     1
1001
ACAD_DSTYLE_DIM_LINETYPE
1070
   380
1005
15
1001
ACAD_DSTYLE_DIM_EXT1_LINETYPE
1070
   381
1005
15
1001
ACAD_DSTYLE_DIM_EXT2_LINETYPE
1070
   382
1005
15
  0
DIMSTYLE
105
112A
330
A
100
AcDbSymbolTableRecord
100
AcDbDimStyleTableRecord
  2
ULVAC$6
 70
     0
 41
2.9
 42
1.269999980926513
 43
10.0
 44
1.200000047683715
 73
     0
 74
     0
 77
     1
 78
     9
140
4.0
141
0.0
143
0.03937007874016
146
0.75
147
1.0
171
     4
172
     1
176
   256
179
     2
271
     2
272
     2
274
     4
284
     8
288
     1
340
56B
341
69
342
69
371
    -1
372
    -1
1001
ACAD_DSTYLE_DIMARC_LENGTH_SYMBOL
1070
   379
1070
     1
1001
ACAD_DSTYLE_DIM_LINETYPE
1070
   380
1005
15
1001
ACAD_DSTYLE_DIM_EXT1_LINETYPE
1070
   381
1005
15
1001
ACAD_DSTYLE_DIM_EXT2_LINETYPE
1070
   382
1005
15
  0
DIMSTYLE
105
113C
330
A
100
AcDbSymbolTableRecord
100
AcDbDimStyleTableRecord
  2
ULVAC$7
 70
     0
 41
2.9
 42
1.269999980926513
 43
10.0
 44
1.200000047683715
 73
     0
 74
     0
 77
     1
 78
     1
140
4.0
141
0.0
143
0.03937007874016
147
1.0
171
     4
172
     1
177
   256
179
     2
271
     2
272
     2
274
     4
288
     1
340
56B
341
69
342
69
371
    -1
1001
ACAD_DSTYLE_DIMARC_LENGTH_SYMBOL
1070
   379
1070
     1
1001
ACAD_DSTYLE_DIM_LINETYPE
1070
   380
1005
15
1001
ACAD_DSTYLE_DIM_EXT1_LINETYPE
1070
   381
1005
15
1001
ACAD_DSTYLE_DIM_EXT2_LINETYPE
1070
   382
1005
15
  0
DIMSTYLE
105
128D
330
A
100
AcDbSymbolTableRecord
100
AcDbDimStyleTableRecord
  2
ULVAC$3
 70
     0
 41
2.9
 42
1.269999980926513
 43
10.0
 44
1.200000047683715
 73
     0
 74
     0
 77
     1
 78
     9
140
4.0
141
0.0
143
0.03937007874016
146
0.75
147
1.0
171
     4
172
     1
179
     2
271
     2
272
     2
274
     4
284
     8
288
     1
289
     2
340
56B
341
69
342
69
371
    -1
372
    -1
1001
ACAD_DSTYLE_DIMARC_LENGTH_SYMBOL
1070
   379
1070
     1
1001
ACAD_DSTYLE_DIM_LINETYPE
1070
   380
1005
15
1001
ACAD_DSTYLE_DIM_EXT1_LINETYPE
1070
   381
1005
15
1001
ACAD_DSTYLE_DIM_EXT2_LINETYPE
1070
   382
1005
15
  0
DIMSTYLE
105
1348
330
A
100
AcDbSymbolTableRecord
100
AcDbDimStyleTableRecord
  2
ULVAC$SH
 70
     0
 41
2.9
 42
1.269999980926513
 43
10.0
 44
1.200000047683715
 73
     0
 74
     0
 77
     1
 78
     9
 79
     2
140
4.0
141
0.0
143
0.03937007874016
146
0.75
147
1.0
171
     4
172
     1
179
     2
271
     2
272
     2
274
     4
284
     8
288
     1
340
56B
341
69
342
69
371
    -1
372
    -1
1001
ACAD_DSTYLE_DIMARC_LENGTH_SYMBOL
1070
   379
1070
     1
1001
ACAD_DSTYLE_DIM_LINETYPE
1070
   380
1005
15
1001
ACAD_DSTYLE_DIM_EXT1_LINETYPE
1070
   381
1005
15
1001
ACAD_DSTYLE_DIM_EXT2_LINETYPE
1070
   382
1005
15
  0
DIMSTYLE
105
1361
330
A
100
AcDbSymbolTableRecord
100
AcDbDimStyleTableRecord
  2
ULVAC$SF
 70
     0
 41
2.9
 42
1.269999980926513
 43
10.0
 44
1.200000047683715
 73
     0
 74
     0
 77
     1
 78
     9
 79
     2
140
4.0
141
0.0
143
0.03937007874016
146
0.75
147
1.0
171
     4
172
     1
179
     2
271
     2
272
     2
274
     4
284
     8
288
     1
340
56B
341
69
342
69
371
    -1
372
    -1
1001
ACAD_DSTYLE_DIMARC_LENGTH_SYMBOL
1070
   379
1070
     1
1001
ACAD_DSTYLE_DIM_LINETYPE
1070
   380
1005
15
1001
ACAD_DSTYLE_DIM_EXT1_LINETYPE
1070
   381
1005
15
1001
ACAD_DSTYLE_DIM_EXT2_LINETYPE
1070
   382
1005
15
  0
DIMSTYLE
105
43B2
330
A
100
AcDbSymbolTableRecord
100
AcDbDimStyleTableRecord
  2
MXDIMSTYLE
 70
     0
 40
3.0
 41
2.5
 42
1.269999980926513
 43
3.75
 44
1.200000047683715
 73
     0
 74
     0
 77
     1
 78
     8
140
4.166999816894531
141
2.5
143
0.03937007874016
144
0.3333333333333333
147
1.0
171
     4
172
     1
274
     4
288
     1
340
43AE
  0
DIMSTYLE
105
43B3
330
A
100
AcDbSymbolTableRecord
100
AcDbDimStyleTableRecord
  2
AM_ISO
 70
     0
  4
"
 41
2.5
 42
1.0
 43
10.0
 44
1.0
 47
0.1
 48
0.1
 73
     0
 74
     0
 77
     1
 78
     8
 79
     2
140
3.5
141
0.0
143
0.0393701
146
0.71
147
1.5
172
     1
176
   256
177
   256
178
     2
271
     2
272
     3
274
     4
283
     0
284
     8
340
43AE
371
    -1
372
    -1
1001
ACAD_DSTYLE_DIMARC_LENGTH_SYMBOL
1070
   379
1070
     1
  0
DIMSTYLE
105
43B4
330
A
100
AcDbSymbolTableRecord
100
AcDbDimStyleTableRecord
  2
AM_ISO$3
 70
     0
  4
"
 41
2.5
 42
1.0
 43
10.0
 44
1.0
 47
0.1
 48
0.1
 73
     0
 77
     1
 78
     8
 79
     2
140
3.5
141
0.0
143
0.0393701
146
0.71
147
1.5
176
   256
177
   256
178
     2
271
     2
272
     3
274
     4
283
     0
284
     8
288
     1
289
     0
340
43AE
371
    -1
372
    -1
1001
ACAD_DSTYLE_DIMARC_LENGTH_SYMBOL
1070
   379
1070
     1
  0
DIMSTYLE
105
43B5
330
A
100
AcDbSymbolTableRecord
100
AcDbDimStyleTableRecord
  2
AM_ISO$4
 70
     0
  4
"
 41
2.5
 42
1.0
 43
10.0
 44
1.0
 47
0.1
 48
0.1
 73
     0
 77
     1
 78
     8
 79
     2
140
3.5
141
0.0
143
0.0393701
146
0.71
147
1.5
176
   256
177
   256
178
     2
271
     2
272
     3
274
     4
283
     0
284
     8
288
     1
289
     0
340
43AE
371
    -1
372
    -1
1001
ACAD_DSTYLE_DIMARC_LENGTH_SYMBOL
1070
   379
1070
     1
  0
DIMSTYLE
105
43B6
330
A
100
AcDbSymbolTableRecord
100
AcDbDimStyleTableRecord
  2
AM_ISO$6
 70
     0
  4
"
 41
2.5
 42
1.0
 43
10.0
 44
1.0
 47
0.1
 48
0.1
 73
     0
 74
     0
 78
     8
 79
     2
140
3.5
141
0.0
143
0.0393701
146
0.71
147
1.5
172
     1
176
   256
177
   256
178
     2
271
     2
272
     3
274
     4
283
     0
284
     8
340
43AE
371
    -1
372
    -1
1001
ACAD_DSTYLE_DIMARC_LENGTH_SYMBOL
1070
   379
1070
     1
  0
DIMSTYLE
105
43B7
330
A
100
AcDbSymbolTableRecord
100
AcDbDimStyleTableRecord
  2
AM_ISO$7
 70
     0
  4
"
 41
2.5
 42
1.0
 43
10.0
 44
1.0
 47
0.1
 48
0.1
 73
     0
 74
     0
 77
     1
 78
     8
 79
     2
140
5.0
141
0.0
143
0.0393701
146
0.71
147
1.5
172
     1
176
   256
177
   256
178
     2
271
     2
272
     3
274
     4
283
     0
284
     8
340
43AE
371
    -1
372
    -1
1001
ACAD_DSTYLE_DIMARC_LENGTH_SYMBOL
1070
   379
1070
     1
  0
DIMSTYLE
105
43B8
330
A
100
AcDbSymbolTableRecord
100
AcDbDimStyleTableRecord
  2
AM_ISO$SF
 70
     0
  4
"
 41
2.5
 42
1.0
 43
10.0
 44
1.0
 47
0.1
 48
0.1
 73
     0
 74
     0
 75
     1
 76
     1
 77
     1
 78
     8
 79
     2
140
3.5
141
0.0
143
0.0393701
146
0.71
147
1.5
172
     1
176
   256
177
   256
178
     2
271
     2
272
     3
274
     4
283
     0
284
     8
340
43AE
371
    -1
372
    -1
1001
ACAD_DSTYLE_DIMARC_LENGTH_SYMBOL
1070
   379
1070
     1
  0
DIMSTYLE
105
43B9
330
A
100
AcDbSymbolTableRecord
100
AcDbDimStyleTableRecord
  2
AM_ISO$SH
 70
     0
  4
"
 41
2.5
 42
1.0
 43
10.0
 44
1.0
 47
0.1
 48
0.1
 73
     0
 74
     0
 75
     1
 76
     1
 77
     1
 78
     8
 79
     2
140
3.5
141
0.0
143
0.0393701
144
2.0
146
0.71
147
1.5
172
     1
173
     1
176
   256
177
   256
178
     2
271
     2
272
     3
274
     4
283
     0
284
     8
340
43AE
343
4353
371
    -1
372
    -1
1001
ACAD_DSTYLE_DIMARC_LENGTH_SYMBOL
1070
   379
1070
     1
  0
ENDTAB
  0
TABLE
  2
BLOCK_RECORD
  5
1
330
0
100
AcDbSymbolTable
 70
    13
  0
BLOCK_RECORD
  5
1F
102
{ACAD_XDICTIONARY
360
82
102
}
330
1
100
AcDbSymbolTableRecord
100
AcDbBlockTableRecord
  2
*Model_Space
340
22
  0
BLOCK_RECORD
  5
1B
330
1
100
AcDbSymbolTableRecord
100
AcDbBlockTableRecord
  2
*Paper_Space
340
1E
  0
BLOCK_RECORD
  5
23
330
1
100
AcDbSymbolTableRecord
100
AcDbBlockTableRecord
  2
*Paper_Space0
340
26
  0
BLOCK_RECORD
  5
69
330
1
100
AcDbSymbolTableRecord
100
AcDbBlockTableRecord
  2
_Open30
340
0
102
{BLKREFS
331
46BF
331
46C0
331
46C8
331
46C9
331
46D1
331
46D2
331
46F1
331
46F2
331
47B9
331
47BA
331
47CB
331
47CC
331
480B
331
480C
102
}
  0
BLOCK_RECORD
  5
2851
102
{ACAD_XDICTIONARY
360
380F
102
}
330
1
100
AcDbSymbolTableRecord
100
AcDbBlockTableRecord
  2
ULVAC_ballon
340
0
310
2800000020000000200000000100080000000000000400000000000000000000000000000000000000000000000080000080000000808000800000008000800080800000C0C0C000C0DCC000F0CAA6000020400000206000002080000020A0000020C0000020E00000400000004020000040400000406000004080000040A0
310
000040C0000040E00000600000006020000060400000606000006080000060A0000060C0000060E00000800000008020000080400000806000008080000080A0000080C0000080E00000A0000000A0200000A0400000A0600000A0800000A0A00000A0C00000A0E00000C0000000C0200000C0400000C0600000C0800000C0
310
A00000C0C00000C0E00000E0000000E0200000E0400000E0600000E0800000E0A00000E0C00000E0E00040000000400020004000400040006000400080004000A0004000C0004000E00040200000402020004020400040206000402080004020A0004020C0004020E000404000004040200040404000404060004040800040
310
40A0004040C0004040E00040600000406020004060400040606000406080004060A0004060C0004060E00040800000408020004080400040806000408080004080A0004080C0004080E00040A0000040A0200040A0400040A0600040A0800040A0A00040A0C00040A0E00040C0000040C0200040C0400040C0600040C08000
310
40C0A00040C0C00040C0E00040E0000040E0200040E0400040E0600040E0800040E0A00040E0C00040E0E00080000000800020008000400080006000800080008000A0008000C0008000E00080200000802020008020400080206000802080008020A0008020C0008020E00080400000804020008040400080406000804080
310
008040A0008040C0008040E00080600000806020008060400080606000806080008060A0008060C0008060E00080800000808020008080400080806000808080008080A0008080C0008080E00080A0000080A0200080A0400080A0600080A0800080A0A00080A0C00080A0E00080C0000080C0200080C0400080C0600080C0
310
800080C0A00080C0C00080C0E00080E0000080E0200080E0400080E0600080E0800080E0A00080E0C00080E0E000C0000000C0002000C0004000C0006000C0008000C000A000C000C000C000E000C0200000C0202000C0204000C0206000C0208000C020A000C020C000C020E000C0400000C0402000C0404000C0406000C0
310
408000C040A000C040C000C040E000C0600000C0602000C0604000C0606000C0608000C060A000C060C000C060E000C0800000C0802000C0804000C0806000C0808000C080A000C080C000C080E000C0A00000C0A02000C0A04000C0A06000C0A08000C0A0A000C0A0C000C0A0E000C0C00000C0C02000C0C04000C0C06000
310
C0C08000C0C0A000F0FBFF00A4A0A000808080000000FF0000FF000000FFFF00FF000000FF00FF00FFFF0000FFFFFF00000000000000000000000000000000000000000000000000000000000000000000000000000000000000000000000000000000000000000000000000000000000000000000000000000000FFFFFFFF
310
FFFFFFFFFFFF0000000000000000000000000000000000000000FFFF00000000000000000000FFFF0000000000000000000000000000000000FF0000000000000000000000000000FF000000000000000000000000000000FF00000000000000000000000000000000FF000000000000000000000000FFFF00000000000000
310
0000000000000000000000FFFF000000000000000000FF00000000000000000000000000000000000000000000FF0000000000000000FF00000000000000000000000000000000000000000000FF00000000000000FF000000000000000000000000000000000000000000000000FF000000000000FF000000000000000000
310
000000000000000000000000000000FF000000000000FFFFFFFF0000000000FF00000000FFFFFFFFFF00FF0000FF00FFFF00000000FF0000FF000000000000FF00000000FF0000000000FF0000FF00FFFF00000000FF0000FF000000000000FF00000000FF0000000000FF00FFFF00FFFF000000FF000000FF000000000000
310
FF00000000FF0000000000FF00FF00FFFF00FF0000FF000000FF000000000000FF00000000FF0000000000FF00FF00FFFF00FF0000FF000000FF000000000000FF00000000FFFFFFFFFF00FFFF0000FFFF00FF000000FF0000FF000000000000FF00000000FF0000000000FFFF0000FFFFFF00000000FF0000FF0000000000
310
00FF00000000FF0000000000FFFF000000FFFF00000000FF0000FF000000000000FF00000000FF0000000000FF00000000FFFF0000000000FFFFFFFF000000FFFFFFFFFF0000FFFFFFFFFF00FF00000000FF000000000000FF000000000000000000000000000000000000000000000000FF000000000000FF000000000000
310
000000000000000000000000000000000000FF00000000000000FF00000000000000000000000000000000000000000000FF0000000000000000FF00000000000000000000000000000000000000000000FF000000000000000000FFFF000000000000000000000000000000000000FFFF000000000000000000000000FF00
310
000000000000000000000000000000FF000000000000000000000000000000FF0000000000000000000000000000FF0000000000000000000000000000000000FFFF00000000000000000000FFFF0000000000000000000000000000000000000000FFFFFFFFFFFFFFFFFFFF00000000000000000000000000000000000000
310
0000000000000000000000000000000000000000000000000000000000000000000000000000000000000000000000000000000000000000
1001
AcDbDynamicBlockGUID
1000
{097EF819-7202-4916-9A65-16771620EB1C}
1001
ACDBBLOCKREPETAG
1070
     1
1071
        2
1001
ACAD
1000
DesignCenter Data
1002
{
1070
     1
1070
     4
1002
}
  0
BLOCK_RECORD
  5
4225
330
1
100
AcDbSymbolTableRecord
100
AcDbBlockTableRecord
  2
GENDOT
340
0
  0
BLOCK_RECORD
  5
4353
330
1
100
AcDbSymbolTableRecord
100
AcDbBlockTableRecord
  2
GENAXEH
340
0
  0
BLOCK_RECORD
  5
4663
330
1
100
AcDbSymbolTableRecord
100
AcDbBlockTableRecord
  2
*D6
340
0
  0
BLOCK_RECORD
  5
466F
330
1
100
AcDbSymbolTableRecord
100
AcDbBlockTableRecord
  2
*D7
340
0
  0
BLOCK_RECORD
  5
467B
330
1
100
AcDbSymbolTableRecord
100
AcDbBlockTableRecord
  2
*D8
340
0
  0
BLOCK_RECORD
  5
4687
330
1
100
AcDbSymbolTableRecord
100
AcDbBlockTableRecord
  2
*D9
340
0
  0
BLOCK_RECORD
  5
4693
330
1
100
AcDbSymbolTableRecord
100
AcDbBlockTableRecord
  2
*D10
340
0
  0
BLOCK_RECORD
  5
46F9
330
1
100
AcDbSymbolTableRecord
100
AcDbBlockTableRecord
  2
*D11
340
0
  0
BLOCK_RECORD
  5
472B
330
1
100
AcDbSymbolTableRecord
100
AcDbBlockTableRecord
  2
*D12
340
0
  0
ENDTAB
  0
ENDSEC
  0
SECTION
  2
BLOCKS
  0
BLOCK
  5
20
330
1F
100
AcDbEntity
  8
0
100
AcDbBlockBegin
  2
*Model_Space
 70
     0
 10
0.0
 20
0.0
 30
0.0
  3
*Model_Space
  1

  0
ENDBLK
  5
21
330
1F
100
AcDbEntity
  8
0
100
AcDbBlockEnd
  0
BLOCK
  5
1C
330
1B
100
AcDbEntity
 67
     1
  8
0
100
AcDbBlockBegin
  2
*Paper_Space
 70
     0
 10
0.0
 20
0.0
 30
0.0
  3
*Paper_Space
  1

  0
ENDBLK
  5
1D
330
1B
100
AcDbEntity
 67
     1
  8
0
100
AcDbBlockEnd
  0
BLOCK
  5
24
330
23
100
AcDbEntity
 67
     1
  8
0
100
AcDbBlockBegin
  2
*Paper_Space0
 70
     0
 10
0.0
 20
0.0
 30
0.0
  3
*Paper_Space0
  1

  0
ENDBLK
  5
25
330
23
100
AcDbEntity
 67
     1
  8
0
100
AcDbBlockEnd
  0
BLOCK
  5
6D
330
69
100
AcDbEntity
  8
0
100
AcDbBlockBegin
  2
_Open30
 70
     0
 10
0.0
 20
0.0
 30
0.0
  3
_Open30
  1

  0
LINE
  5
6A
330
69
100
AcDbEntity
  8
0
  6
ByBlock
 62
     0
370
    -2
100
AcDbLine
 10
-1.0
 20
0.26794919
 30
0.0
 11
0.0
 21
0.0
 31
0.0
  0
LINE
  5
6B
330
69
100
AcDbEntity
  8
0
  6
ByBlock
 62
     0
370
    -2
100
AcDbLine
 10
0.0
 20
0.0
 30
0.0
 11
-1.0
 21
-0.26794919
 31
0.0
  0
LINE
  5
6C
330
69
100
AcDbEntity
  8
0
  6
ByBlock
 62
     0
370
    -2
100
AcDbLine
 10
0.0
 20
0.0
 30
0.0
 11
-1.0
 21
0.0
 31
0.0
  0
ENDBLK
  5
6E
330
69
100
AcDbEntity
  8
0
100
AcDbBlockEnd
  0
BLOCK
  5
2852
330
2851
100
AcDbEntity
  8
0
100
AcDbBlockBegin
  2
ULVAC_ballon
 70
     2
 10
0.0
 20
0.0
 30
0.0
  3
ULVAC_ballon
  1

  0
CIRCLE
  5
3F7C
330
2851
100
AcDbEntity
  8
0
  6
ByBlock
 62
     0
370
    -2
100
AcDbCircle
 10
0.0
 20
0.0
 30
0.0
 40
5.0
1001
ACDBBLOCKREPETAG
1070
     1
1071
        0
1005
3F7C
  0
ATTDEF
  5
3F7D
330
2851
100
AcDbEntity
  8
0
  6
ByBlock
 62
     0
370
    -2
100
AcDbText
 10
-0.0000000000000001
 20
-2.0
 30
0.0
 40
4.0
  1

 41
0.76
  7
ULVAC
 72
     1
 11
0.0
 21
0.0
 31
0.0
100
AcDbAttributeDefinition
  3
部番
  2
ITEM
 70
     0
 74
     2
1001
ACDBBLOCKREPETAG
1070
     1
1071
        1
1005
0
  0
ENDBLK
  5
2853
330
2851
100
AcDbEntity
  8
0
100
AcDbBlockEnd
  0
BLOCK
  5
4228
330
4225
100
AcDbEntity
  8
0
 48
0.5
100
AcDbBlockBegin
  2
GENDOT
 70
     0
 10
0.0
 20
0.0
 30
0.0
  3
GENDOT
  1

  0
LINE
  5
4226
330
4225
100
AcDbEntity
  8
0
100
AcDbLine
 10
0.0
 20
0.0
 30
0.0
 11
-1.0
 21
0.0
 31
0.0
  0
LWPOLYLINE
  5
4227
330
4225
100
AcDbEntity
  8
0
100
AcDbPolyline
 90
        2
 70
     1
 43
0.25
 10
-0.125
 20
0.0
 42
1.0
 10
0.125
 20
0.0
 42
1.0
  0
ENDBLK
  5
4229
330
4225
100
AcDbEntity
  8
0
 48
0.5
100
AcDbBlockEnd
  0
BLOCK
  5
4354
330
4353
100
AcDbEntity
  8
0
370
     0
100
AcDbBlockBegin
  2
GENAXEH
 70
     0
 10
0.0
 20
0.0
 30
0.0
  3
GENAXEH
  1

  0
LINE
  5
4355
330
4353
100
AcDbEntity
  8
0
100
AcDbLine
 10
-1.0
 20
0.0
 30
0.0
 11
1.0
 21
0.0
 31
0.0
  0
ENDBLK
  5
4356
330
4353
100
AcDbEntity
  8
0
370
     0
100
AcDbBlockEnd
  0
BLOCK
  5
466D
330
4663
100
AcDbEntity
  8
0
 48
0.5
100
AcDbBlockBegin
  2
*D6
 70
     1
 10
0.0
 20
0.0
 30
0.0
  3
*D6
  1

  0
LINE
  5
46EE
330
4663
100
AcDbEntity
  8
DIMENSION
 62
     0
 48
0.5
100
AcDbLine
 10
1322.835797254712
 20
822.4475029134746
 30
0.0
 11
1322.835797254712
 21
990.187652649879
 31
0.0
  0
LINE
  5
46EF
330
4663
100
AcDbEntity
  8
DIMENSION
 62
     0
 48
0.5
100
AcDbLine
 10
1392.83579621163
 20
937.2476547384257
 30
0.0
 11
1392.83579621163
 21
990.187652649879
 31
0.0
  0
LINE
  5
46F0
330
4663
100
AcDbEntity
  8
DIMENSION
 62
     0
 48
0.5
100
AcDbLine
 10
1331.535797254712
 20
986.5876525068278
 30
0.0
 11
1384.13579621163
 21
986.5876525068278
 31
0.0
  0
INSERT
  5
46F1
330
4663
100
AcDbEntity
  8
DIMENSION
 62
     0
 48
0.5
100
AcDbBlockReference
  2
_Open30
 10
1322.835797254712
 20
986.5876525068278
 30
0.0
 41
8.699999999999999
 42
8.699999999999999
 43
8.699999999999999
 50
180.0
  0
INSERT
  5
46F2
330
4663
100
AcDbEntity
  8
DIMENSION
 62
     0
 48
0.5
100
AcDbBlockReference
  2
_Open30
 10
1392.83579621163
 20
986.5876525068278
 30
0.0
 41
8.699999999999999
 42
8.699999999999999
 43
8.699999999999999
  0
MTEXT
  5
46F3
330
4663
100
AcDbEntity
  8
DIMENSION
 62
     0
 48
0.5
100
AcDbMText
 10
1357.835797254712
 20
1004.587652506828
 30
0.0
 40
30.0
 41
0.0
 71
     5
 72
     1
  1
\A1;35\P
  7
ULVAC
 73
     1
 44
0.9359251894303499
1001
ACAD
1000
MTEXTBEGIN
1070
    73
1070
     1
1070
    44
1040
0.9359251894303499
1070
    74
1070
     0
1000
MTEXTEND
  0
POINT
  5
46F4
330
4663
100
AcDbEntity
  8
DEFPOINTS
 62
     0
 48
0.5
100
AcDbPoint
 10
1322.835797254712
 20
818.6375029706951
 30
0.0
  0
POINT
  5
46F5
330
4663
100
AcDbEntity
  8
DEFPOINTS
 62
     0
 48
0.5
100
AcDbPoint
 10
1392.83579621163
 20
933.4376547956463
 30
0.0
  0
POINT
  5
46F6
330
4663
100
AcDbEntity
  8
DEFPOINTS
 62
     0
 48
0.5
100
AcDbPoint
 10
1392.83579621163
 20
986.5876525068278
 30
0.0
  0
ENDBLK
  5
466E
330
4663
100
AcDbEntity
  8
0
 48
0.5
100
AcDbBlockEnd
  0
BLOCK
  5
4679
330
466F
100
AcDbEntity
  8
0
 48
0.5
100
AcDbBlockBegin
  2
*D7
 70
     1
 10
0.0
 20
0.0
 30
0.0
  3
*D7
  1

  0
LINE
  5
46BC
330
466F
100
AcDbEntity
  8
DIMENSION
 62
     0
 48
0.5
100
AcDbLine
 10
2516.835796211631
 20
887.5476616048809
 30
0.0
 11
2516.835796211631
 21
990.187652649879
 31
0.0
  0
LINE
  5
46BD
330
466F
100
AcDbEntity
  8
DIMENSION
 62
     0
 48
0.5
100
AcDbLine
 10
2586.835795168549
 20
822.4475029134746
 30
0.0
 11
2586.835795168549
 21
990.187652649879
 31
0.0
  0
LINE
  5
46BE
330
466F
100
AcDbEntity
  8
DIMENSION
 62
     0
 48
0.5
100
AcDbLine
 10
2525.535796211631
 20
986.5876525068278
 30
0.0
 11
2578.13579516855
 21
986.5876525068278
 31
0.0
  0
INSERT
  5
46BF
330
466F
100
AcDbEntity
  8
DIMENSION
 62
     0
 48
0.5
100
AcDbBlockReference
  2
_Open30
 10
2516.835796211631
 20
986.5876525068278
 30
0.0
 41
8.699999999999999
 42
8.699999999999999
 43
8.699999999999999
 50
180.0
  0
INSERT
  5
46C0
330
466F
100
AcDbEntity
  8
DIMENSION
 62
     0
 48
0.5
100
AcDbBlockReference
  2
_Open30
 10
2586.835795168549
 20
986.5876525068278
 30
0.0
 41
8.699999999999999
 42
8.699999999999999
 43
8.699999999999999
  0
MTEXT
  5
46C1
330
466F
100
AcDbEntity
  8
DIMENSION
 62
     0
 48
0.5
100
AcDbMText
 10
2551.835796211631
 20
1004.587652506828
 30
0.0
 40
30.0
 41
0.0
 71
     5
 72
     1
  1
\A1;35
  7
ULVAC
 73
     1
 44
0.9359251894303499
1001
ACAD
1000
MTEXTBEGIN
1070
    73
1070
     1
1070
    44
1040
0.9359251894303499
1070
    74
1070
     0
1000
MTEXTEND
  0
POINT
  5
46C2
330
466F
100
AcDbEntity
  8
DEFPOINTS
 62
     0
 48
0.5
100
AcDbPoint
 10
2516.835796211631
 20
883.7376616621012
 30
0.0
  0
POINT
  5
46C3
330
466F
100
AcDbEntity
  8
DEFPOINTS
 62
     0
 48
0.5
100
AcDbPoint
 10
2586.835795168549
 20
818.6375029706951
 30
0.0
  0
POINT
  5
46C4
330
466F
100
AcDbEntity
  8
DEFPOINTS
 62
     0
 48
0.5
100
AcDbPoint
 10
2586.835795168549
 20
986.5876525068278
 30
0.0
  0
ENDBLK
  5
467A
330
466F
100
AcDbEntity
  8
0
 48
0.5
100
AcDbBlockEnd
  0
BLOCK
  5
4685
330
467B
100
AcDbEntity
  8
0
 48
0.5
100
AcDbBlockBegin
  2
*D8
 70
     1
 10
0.0
 20
0.0
 30
0.0
  3
*D8
  1

  0
LINE
  5
46C5
330
467B
100
AcDbEntity
  8
DIMENSION
 62
     0
 48
0.5
100
AcDbLine
 10
1392.83579621163
 20
932.6476944112773
 30
0.0
 11
1392.83579621163
 21
990.187652649879
 31
0.0
  0
LINE
  5
46C6
330
467B
100
AcDbEntity
  8
DIMENSION
 62
     0
 48
0.5
100
AcDbLine
 10
2036.835796211631
 20
932.6476944112773
 30
0.0
 11
2036.835796211631
 21
990.187652649879
 31
0.0
  0
LINE
  5
46C7
330
467B
100
AcDbEntity
  8
DIMENSION
 62
     0
 48
0.5
100
AcDbLine
 10
1401.535796211631
 20
986.5876525068278
 30
0.0
 11
2028.135796211631
 21
986.5876525068278
 31
0.0
  0
INSERT
  5
46C8
330
467B
100
AcDbEntity
  8
DIMENSION
 62
     0
 48
0.5
100
AcDbBlockReference
  2
_Open30
 10
1392.83579621163
 20
986.5876525068278
 30
0.0
 41
8.699999999999999
 42
8.699999999999999
 43
8.699999999999999
 50
180.0
  0
INSERT
  5
46C9
330
467B
100
AcDbEntity
  8
DIMENSION
 62
     0
 48
0.5
100
AcDbBlockReference
  2
_Open30
 10
2036.835796211631
 20
986.5876525068278
 30
0.0
 41
8.699999999999999
 42
8.699999999999999
 43
8.699999999999999
  0
MTEXT
  5
46CA
330
467B
100
AcDbEntity
  8
DIMENSION
 62
     0
 48
0.5
100
AcDbMText
 10
1714.83579621163
 20
1004.587652506828
 30
0.0
 40
30.0
 41
0.0
 71
     5
 72
     1
  1
\A1;322\P
  7
ULVAC
 73
     1
 44
0.9359251894303499
1001
ACAD
1000
MTEXTBEGIN
1070
    73
1070
     1
1070
    44
1040
0.9359251894303499
1070
    74
1070
     0
1000
MTEXTEND
  0
POINT
  5
46CB
330
467B
100
AcDbEntity
  8
DEFPOINTS
 62
     0
 48
0.5
100
AcDbPoint
 10
1392.83579621163
 20
928.8376944684978
 30
0.0
  0
POINT
  5
46CC
330
467B
100
AcDbEntity
  8
DEFPOINTS
 62
     0
 48
0.5
100
AcDbPoint
 10
2036.835796211631
 20
928.8376944684978
 30
0.0
  0
POINT
  5
46CD
330
467B
100
AcDbEntity
  8
DEFPOINTS
 62
     0
 48
0.5
100
AcDbPoint
 10
2036.835796211631
 20
986.5876525068278
 30
0.0
  0
ENDBLK
  5
4686
330
467B
100
AcDbEntity
  8
0
 48
0.5
100
AcDbBlockEnd
  0
BLOCK
  5
4691
330
4687
100
AcDbEntity
  8
0
 48
0.5
100
AcDbBlockBegin
  2
*D9
 70
     1
 10
0.0
 20
0.0
 30
0.0
  3
*D9
  1

  0
LINE
  5
46CE
330
4687
100
AcDbEntity
  8
DIMENSION
 62
     0
 48
0.5
100
AcDbLine
 10
2036.835796211631
 20
932.6476944112773
 30
0.0
 11
2036.835796211631
 21
990.187652649879
 31
0.0
  0
LINE
  5
46CF
330
4687
100
AcDbEntity
  8
DIMENSION
 62
     0
 48
0.5
100
AcDbLine
 10
2516.835796211631
 20
881.7475746297832
 30
0.0
 11
2516.835796211631
 21
990.187652649879
 31
0.0
  0
LINE
  5
46D0
330
4687
100
AcDbEntity
  8
DIMENSION
 62
     0
 48
0.5
100
AcDbLine
 10
2045.53579621163
 20
986.5876525068278
 30
0.0
 11
2508.135796211631
 21
986.5876525068278
 31
0.0
  0
INSERT
  5
46D1
330
4687
100
AcDbEntity
  8
DIMENSION
 62
     0
 48
0.5
100
AcDbBlockReference
  2
_Open30
 10
2036.835796211631
 20
986.5876525068278
 30
0.0
 41
8.699999999999999
 42
8.699999999999999
 43
8.699999999999999
 50
180.0
  0
INSERT
  5
46D2
330
4687
100
AcDbEntity
  8
DIMENSION
 62
     0
 48
0.5
100
AcDbBlockReference
  2
_Open30
 10
2516.835796211631
 20
986.5876525068278
 30
0.0
 41
8.699999999999999
 42
8.699999999999999
 43
8.699999999999999
  0
MTEXT
  5
46D3
330
4687
100
AcDbEntity
  8
DIMENSION
 62
     0
 48
0.5
100
AcDbMText
 10
2276.835796211631
 20
1004.587652506828
 30
0.0
 40
30.0
 41
0.0
 71
     5
 72
     1
  1
\A1;240
  7
ULVAC
 73
     1
 44
0.9359251894303499
1001
ACAD
1000
MTEXTBEGIN
1070
    73
1070
     1
1070
    44
1040
0.9359251894303499
1070
    74
1070
     0
1000
MTEXTEND
  0
POINT
  5
46D4
330
4687
100
AcDbEntity
  8
DEFPOINTS
 62
     0
 48
0.5
100
AcDbPoint
 10
2036.835796211631
 20
928.8376944684978
 30
0.0
  0
POINT
  5
46D5
330
4687
100
AcDbEntity
  8
DEFPOINTS
 62
     0
 48
0.5
100
AcDbPoint
 10
2516.835796211631
 20
877.9375746870037
 30
0.0
  0
POINT
  5
46D6
330
4687
100
AcDbEntity
  8
DEFPOINTS
 62
     0
 48
0.5
100
AcDbPoint
 10
2516.835796211631
 20
986.5876525068278
 30
0.0
  0
ENDBLK
  5
4692
330
4687
100
AcDbEntity
  8
0
 48
0.5
100
AcDbBlockEnd
  0
BLOCK
  5
469D
330
4693
100
AcDbEntity
  8
0
 48
0.5
100
AcDbBlockBegin
  2
*D10
 70
     1
 10
0.0
 20
0.0
 30
0.0
  3
*D10
  1

  0
LINE
  5
4808
330
4693
100
AcDbEntity
  8
DIMENSION
 62
     0
 48
0.5
100
AcDbLine
 10
1322.835797254712
 20
822.4474937582012
 30
0.0
 11
1322.835797254712
 21
1056.337652649879
 31
0.0
  0
LINE
  5
4809
330
4693
100
AcDbEntity
  8
DIMENSION
 62
     0
 48
0.5
100
AcDbLine
 10
2586.835795168549
 20
822.4474937582012
 30
0.0
 11
2586.835795168549
 21
1056.337652649879
 31
0.0
  0
LINE
  5
480A
330
4693
100
AcDbEntity
  8
DIMENSION
 62
     0
 48
0.5
100
AcDbLine
 10
1331.535797254712
 20
1052.737652506828
 30
0.0
 11
2578.13579516855
 21
1052.737652506828
 31
0.0
  0
INSERT
  5
480B
330
4693
100
AcDbEntity
  8
DIMENSION
 62
     0
 48
0.5
100
AcDbBlockReference
  2
_Open30
 10
1322.835797254712
 20
1052.737652506828
 30
0.0
 41
8.699999999999999
 42
8.699999999999999
 43
8.699999999999999
 50
180.0
  0
INSERT
  5
480C
330
4693
100
AcDbEntity
  8
DIMENSION
 62
     0
 48
0.5
100
AcDbBlockReference
  2
_Open30
 10
2586.835795168549
 20
1052.737652506828
 30
0.0
 41
8.699999999999999
 42
8.699999999999999
 43
8.699999999999999
  0
MTEXT
  5
480D
330
4693
100
AcDbEntity
  8
DIMENSION
 62
     0
 48
0.5
100
AcDbMText
 10
1954.835797254712
 20
1070.737652506828
 30
0.0
 40
30.0
 41
0.0
 71
     5
 72
     1
  1
\A1;（632）
  7
ULVAC
 73
     1
 44
0.9359251894303499
1001
ACAD
1000
MTEXTBEGIN
1070
    73
1070
     1
1070
    44
1040
0.9359251894303499
1070
    74
1070
     0
1000
MTEXTEND
  0
POINT
  5
480E
330
4693
100
AcDbEntity
  8
DEFPOINTS
 62
     0
 48
0.5
100
AcDbPoint
 10
1322.835797254712
 20
818.6374938154218
 30
0.0
  0
POINT
  5
480F
330
4693
100
AcDbEntity
  8
DEFPOINTS
 62
     0
 48
0.5
100
AcDbPoint
 10
2586.835795168549
 20
818.6374938154218
 30
0.0
  0
POINT
  5
4810
330
4693
100
AcDbEntity
  8
DEFPOINTS
 62
     0
 48
0.5
100
AcDbPoint
 10
2586.835795168549
 20
1052.737652506828
 30
0.0
  0
ENDBLK
  5
469E
330
4693
100
AcDbEntity
  8
0
 48
0.5
100
AcDbBlockEnd
  0
BLOCK
  5
4703
330
46F9
100
AcDbEntity
  8
0
 48
0.5
100
AcDbBlockBegin
  2
*D11
 70
     1
 10
0.0
 20
0.0
 30
0.0
  3
*D11
  1

  0
LINE
  5
47C8
330
46F9
100
AcDbEntity
  8
DIMENSION
 62
     0
100
AcDbLine
 10
1394.105796192557
 20
928.8376927697649
 30
0.0
 11
1478.142942767192
 21
928.8376927697649
 31
0.0
  0
LINE
  5
47C9
330
46F9
100
AcDbEntity
  8
DIMENSION
 62
     0
100
AcDbLine
 10
1394.105796132953
 20
598.4376122438911
 30
0.0
 11
1478.142942767192
 21
598.4376122438911
 31
0.0
  0
LINE
  5
47CA
330
46F9
100
AcDbEntity
  8
DIMENSION
 62
     0
100
AcDbLine
 10
1476.942942719508
 20
918.837692769765
 30
0.0
 11
1476.942942719508
 21
608.4376122438912
 31
0.0
  0
INSERT
  5
47CB
330
46F9
100
AcDbEntity
  8
DIMENSION
 62
     0
100
AcDbBlockReference
  2
_Open30
 10
1476.942942719508
 20
928.8376927697649
 30
0.0
 41
10.0
 42
10.0
 43
10.0
 50
90.0
  0
INSERT
  5
47CC
330
46F9
100
AcDbEntity
  8
DIMENSION
 62
     0
100
AcDbBlockReference
  2
_Open30
 10
1476.942942719508
 20
598.4376122438911
 30
0.0
 41
10.0
 42
10.0
 43
10.0
 50
270.0
  0
MTEXT
  5
47CD
330
46F9
100
AcDbEntity
  8
DIMENSION
 62
     0
100
AcDbMText
 10
1460.942942719508
 20
763.637652506828
 30
0.0
 40
30.0
 41
0.0
 71
     5
 72
     1
  1
\A1;%%c165.2
  7
ULVAC
 11
0.0000000000000001
 21
1.0
 31
0.0
 73
     1
 44
1.0
1001
ACAD
1000
MTEXTBEGIN
1070
    73
1070
     1
1070
    44
1040
1.0
1070
    74
1070
     0
1000
MTEXTEND
  0
POINT
  5
47CE
330
46F9
100
AcDbEntity
  8
DEFPOINTS
 62
     0
100
AcDbPoint
 10
1392.83579621163
 20
928.8376927697649
 30
0.0
  0
POINT
  5
47CF
330
46F9
100
AcDbEntity
  8
DEFPOINTS
 62
     0
100
AcDbPoint
 10
1392.835796152026
 20
598.4376122438911
 30
0.0
  0
POINT
  5
47D0
330
46F9
100
AcDbEntity
  8
DEFPOINTS
 62
     0
100
AcDbPoint
 10
1476.942942719508
 20
598.4376122438911
 30
0.0
  0
ENDBLK
  5
4704
330
46F9
100
AcDbEntity
  8
0
 48
0.5
100
AcDbBlockEnd
  0
BLOCK
  5
4735
330
472B
100
AcDbEntity
  8
0
 48
0.5
100
AcDbBlockBegin
  2
*D12
 70
     1
 10
0.0
 20
0.0
 30
0.0
  3
*D12
  1

  0
LINE
  5
47B6
330
472B
100
AcDbEntity
  8
DIMENSION
 62
     0
100
AcDbLine
 10
2515.565796230704
 20
649.3377274522172
 30
0.0
 11
2349.948221785018
 21
649.3377274522172
 31
0.0
  0
LINE
  5
47B7
330
472B
100
AcDbEntity
  8
DIMENSION
 62
     0
100
AcDbLine
 10
2515.565796230704
 20
877.937577561439
 30
0.0
 11
2349.948221785018
 21
877.937577561439
 31
0.0
  0
LINE
  5
47B8
330
472B
100
AcDbEntity
  8
DIMENSION
 62
     0
100
AcDbLine
 10
2351.148221832702
 20
659.3377274522172
 30
0.0
 11
2351.148221832702
 21
867.9375775614388
 31
0.0
  0
INSERT
  5
47B9
330
472B
100
AcDbEntity
  8
DIMENSION
 62
     0
100
AcDbBlockReference
  2
_Open30
 10
2351.148221832702
 20
649.3377274522172
 30
0.0
 41
10.0
 42
10.0
 43
10.0
 50
270.0
  0
INSERT
  5
47BA
330
472B
100
AcDbEntity
  8
DIMENSION
 62
     0
100
AcDbBlockReference
  2
_Open30
 10
2351.148221832702
 20
877.937577561439
 30
0.0
 41
10.0
 42
10.0
 43
10.0
 50
90.0
  0
MTEXT
  5
47BB
330
472B
100
AcDbEntity
  8
DIMENSION
 62
     0
100
AcDbMText
 10
2335.148221832702
 20
763.6376525068286
 30
0.0
 40
30.0
 41
0.0
 71
     5
 72
     1
  1
\A1;%%c114.3
  7
ULVAC
 11
0.0000000000000001
 21
1.0
 31
0.0
 73
     1
 44
1.0
1001
ACAD
1000
MTEXTBEGIN
1070
    73
1070
     1
1070
    44
1040
1.0
1070
    74
1070
     0
1000
MTEXTEND
  0
POINT
  5
47BC
330
472B
100
AcDbEntity
  8
DEFPOINTS
 62
     0
100
AcDbPoint
 10
2516.835796211631
 20
649.3377274522172
 30
0.0
  0
POINT
  5
47BD
330
472B
100
AcDbEntity
  8
DEFPOINTS
 62
     0
100
AcDbPoint
 10
2516.835796211631
 20
877.937577561439
 30
0.0
  0
POINT
  5
47BE
330
472B
100
AcDbEntity
  8
DEFPOINTS
 62
     0
100
AcDbPoint
 10
2351.148221832702
 20
877.937577561439
 30
0.0
  0
ENDBLK
  5
4736
330
472B
100
AcDbEntity
  8
0
 48
0.5
100
AcDbBlockEnd
  0
ENDSEC
  0
SECTION
  2
ENTITIES
  0
MTEXT
  5
451E
330
1F
100
AcDbEntity
  8
FV
  6
Continuous
 62
     7
100
AcDbMText
 10
776.7847806086129
 20
1424.866483015672
 30
0.0
 40
36.0
 41
0.0
 71
     1
 72
     1
  1
\A1;{\W0.838;\LRS-02 外観寸法図}
  7
MX_NOTE_STANDARD
 73
     1
 44
0.9359252199155145
1001
ACAD
1000
MTEXTBEGIN
1070
    73
1070
     1
1070
    44
1040
0.9359252199155145
1070
    74
1070
     0
1000
MTEXTEND
  0
LINE
  5
451F
330
1F
100
AcDbEntity
  8
FV
  6
Continuous
 62
     3
100
AcDbLine
 10
1144.652095721739
 20
1543.098619646037
 30
0.0
 11
1151.81162846155
 21
1543.098619646037
 31
0.0
  0
LINE
  5
4520
330
1F
100
AcDbEntity
  8
FV
  6
Continuous
 62
     3
100
AcDbLine
 10
1145.250104640183
 20
1560.927047185265
 30
0.0
 11
1153.063320136043
 21
1560.927047185265
 31
0.0
  0
ARC
  5
4521
330
1F
100
AcDbEntity
  8
FV
  6
Continuous
 62
     3
100
AcDbCircle
 10
1145.687744559604
 20
1577.040247881325
 30
0.0
 40
4.392344151352514
100
AcDbArc
 50
230.5099444785495
 51
341.6481534344244
  0
LINE
  5
4522
330
1F
100
AcDbEntity
  8
FV
  6
Continuous
 62
     3
100
AcDbLine
 10
1149.856698301034
 20
1575.657311929902
 30
0.0
 11
1152.257175132915
 21
1582.893711315708
 31
0.0
  0
ARC
  5
4523
330
1F
100
AcDbEntity
  8
FV
  6
Continuous
 62
     3
100
AcDbCircle
 10
1152.41094358361
 20
1582.674094052223
 30
0.0
 40
0.2196172075676257
100
AcDbArc
 50
90.0
 51
150.000440313064
  0
ARC
  5
4524
330
1F
100
AcDbEntity
  8
FV
  6
Continuous
 62
     3
100
AcDbCircle
 10
1152.870486536438
 20
1582.674094052223
 30
0.0
 40
0.2196172075676257
100
AcDbArc
 50
0.0
 51
90.0
  0
LINE
  5
4525
330
1F
100
AcDbEntity
  8
FV
  6
Continuous
 62
     3
100
AcDbLine
 10
1152.41094358361
 20
1582.89371125979
 30
0.0
 11
1152.870486536438
 21
1582.89371125979
 31
0.0
  0
LINE
  5
4526
330
1F
100
AcDbEntity
  8
FV
  6
Continuous
 62
     3
100
AcDbLine
 10
1153.090103744006
 20
1582.674094052223
 30
0.0
 11
1153.090103744006
 21
1560.927047185265
 31
0.0
  0
ELLIPSE
  5
4527
330
1F
100
AcDbEntity
  8
FV
  6
Continuous
 62
     3
100
AcDbEllipse
 10
1120.444073154152
 20
1552.440928850602
 30
0.0
 11
27.45215094595314
 21
-0.0000019382983818
 31
0.0
210
0.0
220
0.0
230
1.0
 40
0.7216510581970216
 41
0.4426733724477122
 42
5.792109617456229
  0
ELLIPSE
  5
4528
330
1F
100
AcDbEntity
  8
FV
  6
Continuous
 62
     3
100
AcDbEllipse
 10
1115.572428976364
 20
1552.440929650331
 30
0.0
 11
38.07516882332446
 21
-0.0000023051034193
 31
0.0
210
0.0
220
0.0
230
1.0
 40
0.7998068702141571
 41
0.7704730626730815
 42
5.971377141295468
  0
ARC
  5
4529
330
1F
100
AcDbEntity
  8
FV
  6
Continuous
 62
     3
100
AcDbCircle
 10
925.9668396718245
 20
1539.213588631508
 30
0.0
 40
0.1098086037838128
100
AcDbArc
 50
350.2609202919985
 51
146.6766537949449
  0
ARC
  5
452A
330
1F
100
AcDbEntity
  8
FV
  6
Continuous
 62
     3
100
AcDbCircle
 10
912.9254597201933
 20
1539.56582545904
 30
0.0
 40
10.98086037838128
100
AcDbArc
 50
270.0
 51
326.676653794945
  0
LINE
  5
452B
330
1F
100
AcDbEntity
  8
FV
  6
Continuous
 62
     3
100
AcDbLine
 10
922.100886376071
 20
1533.533343355286
 30
0.0
 11
925.8750854052657
 21
1539.273913452545
 31
0.0
  0
ARC
  5
452C
330
1F
100
AcDbEntity
  8
FV
  6
Continuous
 62
     3
100
AcDbCircle
 10
779.2020360841957
 20
1534.630377983298
 30
0.0
 40
5.490430189190639
100
AcDbArc
 50
202.6932775652407
 51
234.0160489480047
  0
ARC
  5
452D
330
1F
100
AcDbEntity
  8
FV
  6
Continuous
 62
     3
100
AcDbCircle
 10
778.6845149102425
 20
1535.867960013517
 30
0.0
 40
5.490430189190639
100
AcDbArc
 50
180.0
 51
202.6932775652407
  0
ARC
  5
452E
330
1F
100
AcDbEntity
  8
FV
  6
Continuous
 62
     3
100
AcDbCircle
 10
786.9170895960726
 20
1529.028364605247
 30
0.0
 40
5.490430189190639
100
AcDbArc
 50
234.0160489480047
 51
253.9178076732326
  0
ARC
  5
452F
330
1F
100
AcDbEntity
  8
FV
  6
Continuous
 62
     3
100
AcDbCircle
 10
794.3575565438411
 20
1526.88328911974
 30
0.0
 40
5.490430189190639
100
AcDbArc
 50
253.9178076732326
 51
261.606419056819
  0
LINE
  5
4530
330
1F
100
AcDbEntity
  8
FV
  6
Continuous
 62
     3
100
AcDbLine
 10
775.9760865104151
 20
1530.187622868529
 30
0.0
 11
783.6911400222921
 21
1524.585609490479
 31
0.0
  0
LINE
  5
4531
330
1F
100
AcDbEntity
  8
FV
  6
Continuous
 62
     3
100
AcDbLine
 10
785.3961524367775
 20
1523.752800766201
 30
0.0
 11
792.8366193845468
 21
1521.607725280693
 31
0.0
  0
LINE
  5
4532
330
1F
100
AcDbEntity
  8
FV
  6
Continuous
 62
     3
100
AcDbLine
 10
774.1366565473017
 20
1532.51218209774
 30
0.0
 11
773.6191353733486
 21
1533.74976412796
 31
0.0
  0
ARC
  5
4533
330
1F
100
AcDbEntity
  8
FV
  6
Continuous
 62
     3
100
AcDbCircle
 10
836.4125537037629
 20
1529.114995739194
 30
0.0
 40
5.490430189190639
100
AcDbArc
 50
284.4688421409767
 51
305.1353088422834
  0
ARC
  5
4534
330
1F
100
AcDbEntity
  8
FV
  6
Continuous
 62
     3
100
AcDbCircle
 10
1039.166993874278
 20
1529.826717568219
 30
0.0
 40
5.490430189190639
100
AcDbArc
 50
310.2915552042332
 51
29.66165865505249
  0
ARC
  5
4535
330
1F
100
AcDbEntity
  8
FV
  6
Continuous
 62
     3
100
AcDbCircle
 10
1072.601594951681
 20
1532.685274966172
 30
0.0
 40
5.490430189190639
100
AcDbArc
 50
211.3286928667059
 51
241.075906569748
  0
ARC
  5
4536
330
1F
100
AcDbEntity
  8
FV
  6
Continuous
 62
     3
100
AcDbCircle
 10
1040.618360166752
 20
1523.427238169367
 30
0.0
 40
0.3294258113514385
100
AcDbArc
 50
130.2915552042331
 51
180.0
  0
ARC
  5
4537
330
1F
100
AcDbEntity
  8
FV
  6
Continuous
 62
     3
100
AcDbCircle
 10
1077.398206317605
 20
1523.385492033597
 30
0.0
 40
0.3294258113514385
100
AcDbArc
 50
0.0
 51
61.07590656974798
  0
ARC
  5
4538
330
1F
100
AcDbEntity
  8
FV
  6
Continuous
 62
     3
100
AcDbCircle
 10
1077.508014921389
 20
1522.800186828548
 30
0.0
 40
0.2196172075676257
100
AcDbArc
 50
270.0
 51
0.0
  0
LINE
  5
4539
330
1F
100
AcDbEntity
  8
FV
  6
Continuous
 62
     3
100
AcDbLine
 10
1077.727632128957
 20
1522.800186828548
 30
0.0
 11
1077.727632128957
 21
1523.385492033597
 31
0.0
  0
ARC
  5
453A
330
1F
100
AcDbEntity
  8
FV
  6
Continuous
 62
     3
100
AcDbCircle
 10
1040.508551562968
 20
1522.800186828548
 30
0.0
 40
0.2196172075676257
100
AcDbArc
 50
180.0
 51
270.0
  0
LINE
  5
453B
330
1F
100
AcDbEntity
  8
FV
  6
Continuous
 62
     3
100
AcDbLine
 10
1040.405327951701
 20
1523.678512204108
 30
0.0
 11
1042.717530791795
 21
1525.638816989202
 31
0.0
  0
LINE
  5
453C
330
1F
100
AcDbEntity
  8
FV
  6
Continuous
 62
     3
100
AcDbLine
 10
1069.946145745233
 20
1527.879714314765
 30
0.0
 11
1077.557533269993
 21
1523.673825672681
 31
0.0
  0
LINE
  5
453D
330
1F
100
AcDbEntity
  8
FV
  6
Continuous
 62
     3
100
AcDbLine
 10
1040.288934355401
 20
1522.800186828548
 30
0.0
 11
1040.288934355401
 21
1523.427238169367
 31
0.0
  0
ARC
  5
453E
330
1F
100
AcDbEntity
  8
FV
  6
Continuous
 62
     3
100
AcDbCircle
 10
981.7816634762937
 20
1522.800186828548
 30
0.0
 40
0.2196172075676257
100
AcDbArc
 50
180.0
 51
270.0
  0
ARC
  5
453F
330
1F
100
AcDbEntity
  8
FV
  6
Continuous
 62
     3
100
AcDbCircle
 10
1002.81460816317
 20
1522.800186828548
 30
0.0
 40
0.2196172075676257
100
AcDbArc
 50
270.0
 51
0.0
  0
ARC
  5
4540
330
1F
100
AcDbEntity
  8
FV
  6
Continuous
 62
     3
100
AcDbCircle
 10
981.8914720800776
 20
1523.397383147697
 30
0.0
 40
0.3294258113514385
100
AcDbArc
 50
122.0410322243712
 51
180.0
  0
ARC
  5
4541
330
1F
100
AcDbEntity
  8
FV
  6
Continuous
 62
     3
100
AcDbCircle
 10
1002.704799559386
 20
1523.420433503854
 30
0.0
 40
0.3294258113514385
100
AcDbArc
 50
0.0
 51
51.64187206940108
  0
ARC
  5
4542
330
1F
100
AcDbEntity
  8
FV
  6
Continuous
 62
     3
100
AcDbCircle
 10
985.5153098033342
 20
1532.531141090368
 30
0.0
 40
5.490430189190639
100
AcDbArc
 50
302.0410322243713
 51
329.3600439739127
  0
ARC
  5
4543
330
1F
100
AcDbEntity
  8
FV
  6
Continuous
 62
     3
100
AcDbCircle
 10
1003.878228446759
 20
1529.913673026898
 30
0.0
 40
5.490430189190639
100
AcDbArc
 50
149.3600439739126
 51
231.6418720694011
  0
LINE
  5
4544
330
1F
100
AcDbEntity
  8
FV
  6
Continuous
 62
     3
100
AcDbLine
 10
1000.47100535258
 20
1525.608367642971
 30
0.0
 11
1002.909232945036
 21
1523.67875182689
 31
0.0
  0
LINE
  5
4545
330
1F
100
AcDbEntity
  8
FV
  6
Continuous
 62
     3
100
AcDbLine
 10
981.7167029719508
 20
1523.676626991012
 30
0.0
 11
988.4281282721142
 21
1527.877077035124
 31
0.0
  0
LINE
  5
4546
330
1F
100
AcDbEntity
  8
FV
  6
Continuous
 62
     3
100
AcDbLine
 10
981.562046268726
 20
1522.800186828548
 30
0.0
 11
981.562046268726
 21
1523.397383147697
 31
0.0
  0
LINE
  5
4547
330
1F
100
AcDbEntity
  8
FV
  6
Continuous
 62
     3
100
AcDbLine
 10
1003.034225370737
 20
1522.800186828548
 30
0.0
 11
1003.034225370737
 21
1523.420433503854
 31
0.0
  0
ARC
  5
4548
330
1F
100
AcDbEntity
  8
FV
  6
Continuous
 62
     3
100
AcDbCircle
 10
980.7808914188477
 20
1570.06077203409
 30
0.0
 40
5.490430189190639
100
AcDbArc
 50
329.912962357432
 51
54.32124068792797
  0
ARC
  5
4549
330
1F
100
AcDbEntity
  8
FV
  6
Continuous
 62
     3
100
AcDbCircle
 10
999.3758386389062
 20
1567.543958511059
 30
0.0
 40
5.490430189190639
100
AcDbArc
 50
118.8516001623743
 51
149.9129623574321
  0
ARC
  5
454A
330
1F
100
AcDbEntity
  8
FV
  6
Continuous
 62
     3
100
AcDbCircle
 10
982.2951031362554
 20
1576.439400064392
 30
0.0
 40
0.2196172075676257
100
AcDbArc
 50
90.0
 51
180.0
  0
ARC
  5
454B
330
1F
100
AcDbEntity
  8
FV
  6
Continuous
 62
     3
100
AcDbCircle
 10
1002.927805787129
 20
1576.439400064392
 30
0.0
 40
0.2196172075676257
100
AcDbArc
 50
0.0
 51
90.0
  0
ARC
  5
454C
330
1F
100
AcDbEntity
  8
FV
  6
Continuous
 62
     3
100
AcDbCircle
 10
982.4049117400393
 20
1576.059372786947
 30
0.0
 40
0.3294258113514385
100
AcDbArc
 50
180.0
 51
234.321240687928
  0
ARC
  5
454D
330
1F
100
AcDbEntity
  8
FV
  6
Continuous
 62
     3
100
AcDbCircle
 10
1002.817997183345
 20
1576.084978720337
 30
0.0
 40
0.3294258113514385
100
AcDbArc
 50
298.8516001623743
 51
0.0
  0
LINE
  5
454E
330
1F
100
AcDbEntity
  8
FV
  6
Continuous
 62
     3
100
AcDbLine
 10
982.2127773917095
 20
1575.791780265795
 30
0.0
 11
983.9831305576776
 21
1574.520647386622
 31
0.0
  0
LINE
  5
454F
330
1F
100
AcDbEntity
  8
FV
  6
Continuous
 62
     3
100
AcDbLine
 10
996.7264717737226
 20
1572.352875112129
 30
0.0
 11
1002.976959195256
 21
1575.796443724272
 31
0.0
  0
LINE
  5
4550
330
1F
100
AcDbEntity
  8
FV
  6
Continuous
 62
     3
100
AcDbLine
 10
982.0754859286877
 20
1576.059372786947
 30
0.0
 11
982.0754859286877
 21
1576.439400064392
 31
0.0
  0
LINE
  5
4551
330
1F
100
AcDbEntity
  8
FV
  6
Continuous
 62
     3
100
AcDbLine
 10
1003.147422994697
 20
1576.084978720337
 30
0.0
 11
1003.147422994697
 21
1576.439400064392
 31
0.0
  0
ARC
  5
4552
330
1F
100
AcDbEntity
  8
FV
  6
Continuous
 62
     3
100
AcDbCircle
 10
944.0392370352181
 20
1576.116926292649
 30
0.0
 40
0.3294258113514385
100
AcDbArc
 50
300.62259744012
 51
0.0
  0
ARC
  5
4553
330
1F
100
AcDbEntity
  8
FV
  6
Continuous
 62
     3
100
AcDbCircle
 10
944.149045639002
 20
1576.439400064392
 30
0.0
 40
0.2196172075676257
100
AcDbArc
 50
0.0
 51
90.0
  0
ARC
  5
4554
330
1F
100
AcDbEntity
  8
FV
  6
Continuous
 62
     3
100
AcDbCircle
 10
908.5478368809731
 20
1576.439400064392
 30
0.0
 40
0.2196172075676257
100
AcDbArc
 50
90.0
 51
180.0
  0
ARC
  5
4555
330
1F
100
AcDbEntity
  8
FV
  6
Continuous
 62
     3
100
AcDbCircle
 10
908.657645484757
 20
1576.093953467387
 30
0.0
 40
0.3294258113514385
100
AcDbArc
 50
180.0
 51
243.4349631224956
  0
ARC
  5
4556
330
1F
100
AcDbEntity
  8
FV
  6
Continuous
 62
     3
100
AcDbCircle
 10
944.6089321906134
 20
1569.691127930615
 30
0.0
 40
5.490430189190639
100
AcDbArc
 50
120.62259744012
 51
210.6745406927748
  0
ARC
  5
4557
330
1F
100
AcDbEntity
  8
FV
  6
Continuous
 62
     3
100
AcDbCircle
 10
912.9768384336946
 20
1567.427562334099
 30
0.0
 40
5.490430189190639
100
AcDbArc
 50
30.67454069277486
 51
63.43496312249564
  0
LINE
  5
4558
330
1F
100
AcDbEntity
  8
FV
  6
Continuous
 62
     3
100
AcDbLine
 10
941.8122121798342
 20
1574.415869282655
 30
0.0
 11
944.207040235865
 21
1575.833441811527
 31
0.0
  0
LINE
  5
4559
330
1F
100
AcDbEntity
  8
FV
  6
Continuous
 62
     3
100
AcDbLine
 10
908.5103218567486
 20
1575.799306027529
 30
0.0
 11
915.432232233835
 21
1572.338352998403
 31
0.0
  0
LINE
  5
455A
330
1F
100
AcDbEntity
  8
FV
  6
Continuous
 62
     3
100
AcDbLine
 10
944.3686628465691
 20
1576.116926292649
 30
0.0
 11
944.3686628465691
 21
1576.439400064392
 31
0.0
  0
LINE
  5
455B
330
1F
100
AcDbEntity
  8
FV
  6
Continuous
 62
     3
100
AcDbLine
 10
908.328219673406
 20
1576.093953467387
 30
0.0
 11
908.328219673406
 21
1576.439400064392
 31
0.0
  0
LINE
  5
455C
330
1F
100
AcDbEntity
  8
FV
  6
Continuous
 62
     3
100
AcDbLine
 10
794.2348265348148
 20
1532.57191920612
 30
0.0
 11
793.9021136504411
 21
1533.002626551233
 31
0.0
  0
ARC
  5
455D
330
1F
100
AcDbEntity
  8
FV
  6
Continuous
 62
     3
100
AcDbCircle
 10
798.2471281229468
 20
1536.359064081725
 30
0.0
 40
5.490430189190639
100
AcDbArc
 50
180.0
 51
217.6853747661212
  0
ARC
  5
455E
330
1F
100
AcDbEntity
  8
FV
  6
Continuous
 62
     3
100
AcDbCircle
 10
798.5798410073211
 20
1535.928356736612
 30
0.0
 40
5.490430189190639
100
AcDbArc
 50
217.6853747661212
 51
257.6356445680882
  0
LINE
  5
455F
330
1F
100
AcDbEntity
  8
FV
  6
Continuous
 62
     3
100
AcDbLine
 10
804.1681335969649
 20
1529.082534200069
 30
0.0
 11
797.4041879116557
 21
1530.565273345406
 31
0.0
  0
ARC
  5
4560
330
1F
100
AcDbEntity
  8
FV
  6
Continuous
 62
     3
100
AcDbCircle
 10
818.5685070619845
 20
1631.991511171618
 30
0.0
 40
103.9116369556962
100
AcDbArc
 50
262.0341483002016
 51
264.3484656952643
  0
ARC
  5
4561
330
1F
100
AcDbEntity
  8
FV
  6
Continuous
 62
     3
100
AcDbCircle
 10
829.8552222278638
 20
1535.928356736612
 30
0.0
 40
5.490430189190639
100
AcDbArc
 50
282.3643554319118
 51
322.3146252338788
  0
ARC
  5
4562
330
1F
100
AcDbEntity
  8
FV
  6
Continuous
 62
     3
100
AcDbCircle
 10
830.1879351122382
 20
1536.359064081725
 30
0.0
 40
5.490430189190639
100
AcDbArc
 50
322.3146252338788
 51
0.0
  0
LINE
  5
4563
330
1F
100
AcDbEntity
  8
FV
  6
Continuous
 62
     3
100
AcDbLine
 10
824.2669296382199
 20
1529.082534200069
 30
0.0
 11
831.0308753235291
 21
1530.565273345406
 31
0.0
  0
LINE
  5
4564
330
1F
100
AcDbEntity
  8
FV
  6
Continuous
 62
     3
100
AcDbLine
 10
834.2002367003695
 20
1532.57191920612
 30
0.0
 11
834.5329495847439
 21
1533.002626551233
 31
0.0
  0
ARC
  5
4565
330
1F
100
AcDbEntity
  8
FV
  6
Continuous
 62
     3
100
AcDbCircle
 10
767.0888780588596
 20
1576.439400064392
 30
0.0
 40
0.2196172075676257
100
AcDbArc
 50
90.0
 51
180.0
  0
ARC
  5
4566
330
1F
100
AcDbEntity
  8
FV
  6
Continuous
 62
     3
100
AcDbCircle
 10
798.8604771068994
 20
1576.439400064392
 30
0.0
 40
0.2196172075676257
100
AcDbArc
 50
0.0
 51
90.0
  0
ARC
  5
4567
330
1F
100
AcDbEntity
  8
FV
  6
Continuous
 62
     3
100
AcDbCircle
 10
767.1986866626435
 20
1576.050129420042
 30
0.0
 40
0.3294258113514385
100
AcDbArc
 50
180.0
 51
236.0496694967417
  0
ARC
  5
4568
330
1F
100
AcDbEntity
  8
FV
  6
Continuous
 62
     3
100
AcDbCircle
 10
798.7506685031156
 20
1576.050410572965
 30
0.0
 40
0.3294258113514385
100
AcDbArc
 50
303.9582570957668
 51
0.0
  0
ARC
  5
4569
330
1F
100
AcDbEntity
  8
FV
  6
Continuous
 62
     3
100
AcDbCircle
 10
767.703654531861
 20
1568.694245841872
 30
0.0
 40
5.490430189190639
100
AcDbArc
 50
0.0
 51
56.04966949674169
  0
ARC
  5
456A
330
1F
100
AcDbEntity
  8
FV
  6
Continuous
 62
     3
100
AcDbCircle
 10
798.2471281229468
 20
1568.694733207305
 30
0.0
 40
5.490430189190639
100
AcDbArc
 50
123.9582570957668
 51
180.0
  0
LINE
  5
456B
330
1F
100
AcDbEntity
  8
FV
  6
Continuous
 62
     3
100
AcDbLine
 10
795.1802355379186
 20
1573.248741720063
 30
0.0
 11
798.934682058217
 21
1575.777170062199
 31
0.0
  0
LINE
  5
456C
330
1F
100
AcDbEntity
  8
FV
  6
Continuous
 62
     3
100
AcDbLine
 10
767.0147109107991
 20
1575.776863454511
 30
0.0
 11
770.7699170626069
 21
1573.248678600726
 31
0.0
  0
LINE
  5
456D
330
1F
100
AcDbEntity
  8
FV
  6
Continuous
 62
     3
100
AcDbLine
 10
799.0800943144665
 20
1576.050410572965
 30
0.0
 11
799.0800943144665
 21
1576.439400064392
 31
0.0
  0
LINE
  5
456E
330
1F
100
AcDbEntity
  8
FV
  6
Continuous
 62
     3
100
AcDbLine
 10
766.8692608512924
 20
1576.050129420042
 30
0.0
 11
766.8692608512924
 21
1576.439400064392
 31
0.0
  0
ARC
  5
456F
330
1F
100
AcDbEntity
  8
FV
  6
Continuous
 62
     3
100
AcDbCircle
 10
830.1879351122382
 20
1568.831136569517
 30
0.0
 40
5.490430189190639
100
AcDbArc
 50
0.0
 51
53.80036358701078
  0
ARC
  5
4570
330
1F
100
AcDbEntity
  8
FV
  6
Continuous
 62
     3
100
AcDbCircle
 10
830.1544412264879
 20
1576.43512610348
 30
0.0
 40
0.2196172075676257
100
AcDbArc
 50
90.0
 51
180.0
  0
ARC
  5
4571
330
1F
100
AcDbEntity
  8
FV
  6
Continuous
 62
     3
100
AcDbCircle
 10
830.4838670378389
 20
1576.098741090993
 30
0.0
 40
0.5490430189190643
100
AcDbArc
 50
180.0
 51
233.8003635870108
  0
LINE
  5
4572
330
1F
100
AcDbEntity
  8
FV
  6
Continuous
 62
     3
100
AcDbLine
 10
830.1596019306447
 20
1575.655683107338
 30
0.0
 11
833.4305861841803
 21
1573.261716406063
 31
0.0
  0
ARC
  5
4573
330
1F
100
AcDbEntity
  8
FV
  6
Continuous
 62
     3
100
AcDbCircle
 10
850.708126101933
 20
1576.145911710233
 30
0.0
 40
0.5490430189190643
100
AcDbArc
 50
303.5113754732157
 51
0.0
  0
ARC
  5
4574
330
1F
100
AcDbEntity
  8
FV
  6
Continuous
 62
     3
100
AcDbCircle
 10
851.0375519132846
 20
1576.43512610348
 30
0.0
 40
0.2196172075676257
100
AcDbArc
 50
0.0
 51
90.0
  0
LINE
  5
4575
330
1F
100
AcDbEntity
  8
FV
  6
Continuous
 62
     3
100
AcDbLine
 10
846.3560492242871
 20
1572.605590454277
 30
0.0
 11
851.0112541437749
 21
1575.688132694907
 31
0.0
  0
ARC
  5
4576
330
1F
100
AcDbEntity
  8
FV
  6
Continuous
 62
     3
100
AcDbCircle
 10
848.3624342160076
 20
1569.992822614714
 30
0.0
 40
3.294258113514385
100
AcDbArc
 50
127.5212181517845
 51
180.0
  0
LINE
  5
4577
330
1F
100
AcDbEntity
  8
FV
  6
Continuous
 62
     3
100
AcDbLine
 10
829.9348240189202
 20
1576.098741090993
 30
0.0
 11
829.9348240189202
 21
1576.43512610348
 31
0.0
  0
LINE
  5
4578
330
1F
100
AcDbEntity
  8
FV
  6
Continuous
 62
     3
100
AcDbLine
 10
851.2571691208517
 20
1576.145911710233
 30
0.0
 11
851.2571691208517
 21
1576.43512610348
 31
0.0
  0
LINE
  5
4579
330
1F
100
AcDbEntity
  8
FV
  6
Continuous
 62
     3
100
AcDbLine
 10
841.57222153566
 20
1526.032325206884
 30
0.0
 11
839.5723475150647
 21
1524.62494821913
 31
0.0
  0
ARC
  5
457A
330
1F
100
AcDbEntity
  8
FV
  6
Continuous
 62
     3
100
AcDbCircle
 10
836.8325308187072
 20
1532.76739648698
 30
0.0
 40
8.235645283785961
100
AcDbArc
 50
305.1353088422834
 51
0.0
  0
LINE
  5
457B
330
1F
100
AcDbEntity
  8
FV
  6
Continuous
 62
     3
100
AcDbLine
 10
845.0681761024933
 20
1532.76739648698
 30
0.0
 11
845.0681761024933
 21
1569.992822614714
 31
0.0
  0
ARC
  5
457C
330
1F
100
AcDbEntity
  8
FV
  6
Continuous
 62
     3
100
AcDbCircle
 10
891.4588684509155
 20
1537.918696402283
 30
0.0
 40
9.333731321624091
100
AcDbArc
 50
180.0
 51
270.0
  0
ARC
  5
457D
330
1F
100
AcDbEntity
  8
FV
  6
Continuous
 62
     3
100
AcDbCircle
 10
856.5483477221984
 20
1523.009852269553
 30
0.0
 40
1.098086037838128
100
AcDbArc
 50
125.1353088422833
 51
180.0
  0
ARC
  5
457E
330
1F
100
AcDbEntity
  8
FV
  6
Continuous
 62
     3
100
AcDbCircle
 10
854.326878632801
 20
1532.85981838856
 30
0.0
 40
8.235645283785961
100
AcDbArc
 50
305.1353088422834
 51
0.0
  0
ARC
  5
457F
330
1F
100
AcDbEntity
  8
FV
  6
Continuous
 62
     3
100
AcDbCircle
 10
855.6698788919279
 20
1522.800186828548
 30
0.0
 40
0.2196172075676257
100
AcDbArc
 50
180.0
 51
270.0
  0
LINE
  5
4580
330
1F
100
AcDbEntity
  8
FV
  6
Continuous
 62
     3
100
AcDbLine
 10
855.4502616843608
 20
1523.009852269553
 30
0.0
 11
855.4502616843608
 21
1522.800186828548
 31
0.0
  0
LINE
  5
4581
330
1F
100
AcDbEntity
  8
FV
  6
Continuous
 62
     3
100
AcDbLine
 10
859.0665693497545
 20
1526.124747108464
 30
0.0
 11
855.9163889599386
 21
1523.907861773566
 31
0.0
  0
LINE
  5
4582
330
1F
100
AcDbEntity
  8
FV
  6
Continuous
 62
     3
100
AcDbLine
 10
808.335495757842
 20
1528.584965080659
 30
0.0
 11
820.0995675057752
 21
1528.584965080659
 31
0.0
  0
ARC
  5
4583
330
1F
100
AcDbEntity
  8
FV
  6
Continuous
 62
     3
100
AcDbCircle
 10
859.2682658030733
 20
1569.908168383507
 30
0.0
 40
3.294258113514385
100
AcDbArc
 50
0.0
 51
54.82366186720986
  0
ARC
  5
4584
330
1F
100
AcDbEntity
  8
FV
  6
Continuous
 62
     3
100
AcDbCircle
 10
885.4193952428063
 20
1569.91492390012
 30
0.0
 40
3.294258113514385
100
AcDbArc
 50
125.3616783504039
 51
180.0
  0
LINE
  5
4585
330
1F
100
AcDbEntity
  8
FV
  6
Continuous
 62
     3
100
AcDbLine
 10
888.0912201193801
 20
1575.850484389795
 30
0.0
 11
883.5128899615467
 21
1572.601441000565
 31
0.0
  0
LINE
  5
4586
330
1F
100
AcDbEntity
  8
FV
  6
Continuous
 62
     3
100
AcDbLine
 10
856.5546731994574
 20
1575.850970489924
 30
0.0
 11
861.1660707871976
 21
1572.600838575099
 31
0.0
  0
ARC
  5
4587
330
1F
100
AcDbEntity
  8
FV
  6
Continuous
 62
     3
100
AcDbCircle
 10
856.7359149095466
 20
1576.369236521174
 30
0.0
 40
0.5490430189190643
100
AcDbArc
 50
180.0
 51
250.724866313083
  0
ARC
  5
4588
330
1F
100
AcDbEntity
  8
FV
  6
Continuous
 62
     3
100
AcDbCircle
 10
856.4064890981956
 20
1576.439400064392
 30
0.0
 40
0.2196172075676257
100
AcDbArc
 50
90.0
 51
180.0
  0
ARC
  5
4589
330
1F
100
AcDbEntity
  8
FV
  6
Continuous
 62
     3
100
AcDbCircle
 10
888.2383124734305
 20
1576.439400064392
 30
0.0
 40
0.2196172075676257
100
AcDbArc
 50
0.0
 51
90.0
  0
ARC
  5
458A
330
1F
100
AcDbEntity
  8
FV
  6
Continuous
 62
     3
100
AcDbCircle
 10
887.9088866620795
 20
1576.368367336969
 30
0.0
 40
0.5490430189190643
100
AcDbArc
 50
289.3958740160595
 51
0.0
  0
LINE
  5
458B
330
1F
100
AcDbEntity
  8
FV
  6
Continuous
 62
     3
100
AcDbLine
 10
856.1868718906278
 20
1576.369236521174
 30
0.0
 11
856.1868718906278
 21
1576.439400064392
 31
0.0
  0
LINE
  5
458C
330
1F
100
AcDbEntity
  8
FV
  6
Continuous
 62
     3
100
AcDbLine
 10
888.4579296809985
 20
1576.368367336969
 30
0.0
 11
888.4579296809985
 21
1576.439400064392
 31
0.0
  0
LINE
  5
458D
330
1F
100
AcDbEntity
  8
FV
  6
Continuous
 62
     3
100
AcDbLine
 10
830.1544412264879
 20
1576.654743311048
 30
0.0
 11
851.0375519132846
 21
1576.654743311048
 31
0.0
  0
ARC
  5
458E
330
1F
100
AcDbEntity
  8
FV
  6
Continuous
 62
     3
100
AcDbCircle
 10
809.8665561731998
 20
1631.991511171618
 30
0.0
 40
111.7366885346515
100
AcDbArc
 50
261.606419056819
 51
284.4688421409767
  0
ARC
  5
458F
330
1F
100
AcDbEntity
  8
FV
  6
Continuous
 62
     3
100
AcDbCircle
 10
809.8665561731998
 20
1631.991511171618
 30
0.0
 40
103.9116369556962
100
AcDbArc
 50
275.6515343047357
 51
277.9658516997984
  0
LINE
  5
4590
330
1F
100
AcDbEntity
  8
FV
  6
Continuous
 62
     3
100
AcDbLine
 10
767.0888780588596
 20
1576.65901727196
 30
0.0
 11
798.8604771068994
 21
1576.65901727196
 31
0.0
  0
LINE
  5
4591
330
1F
100
AcDbEntity
  8
FV
  6
Continuous
 62
     3
100
AcDbLine
 10
855.6698788919279
 20
1522.58056962098
 30
0.0
 11
923.2234422203912
 21
1522.58056962098
 31
0.0
  0
LINE
  5
4592
330
1F
100
AcDbEntity
  8
FV
  6
Continuous
 62
     3
100
AcDbLine
 10
923.223442222887
 20
1522.580569635525
 30
0.0
 11
926.0750657489658
 21
1539.195013225955
 31
0.0
  0
LINE
  5
4593
330
1F
100
AcDbEntity
  8
FV
  6
Continuous
 62
     3
100
AcDbLine
 10
891.4588684509155
 20
1528.584965080659
 30
0.0
 11
912.9254597201933
 21
1528.584965080659
 31
0.0
  0
LINE
  5
4594
330
1F
100
AcDbEntity
  8
FV
  6
Continuous
 62
     3
100
AcDbLine
 10
835.6783653014286
 20
1536.359064081725
 30
0.0
 11
835.6783653014286
 21
1568.831136569517
 31
0.0
  0
LINE
  5
4595
330
1F
100
AcDbEntity
  8
FV
  6
Continuous
 62
     3
100
AcDbLine
 10
862.5625239165877
 20
1532.85981838856
 30
0.0
 11
862.5625239165877
 21
1569.908168383507
 31
0.0
  0
LINE
  5
4596
330
1F
100
AcDbEntity
  8
FV
  6
Continuous
 62
     3
100
AcDbLine
 10
882.125137129292
 20
1537.918696402283
 30
0.0
 11
882.125137129292
 21
1569.91492390012
 31
0.0
  0
LINE
  5
4597
330
1F
100
AcDbEntity
  8
FV
  6
Continuous
 62
     3
100
AcDbLine
 10
945.9617224453623
 20
1522.58056962098
 30
0.0
 11
966.9796872735128
 21
1522.58056962098
 31
0.0
  0
LINE
  5
4598
330
1F
100
AcDbEntity
  8
FV
  6
Continuous
 62
     3
100
AcDbLine
 10
945.9617224367347
 20
1522.580569635525
 30
0.0
 11
917.6990423918597
 21
1570.22856455471
 31
0.0
  0
LINE
  5
4599
330
1F
100
AcDbEntity
  8
FV
  6
Continuous
 62
     3
100
AcDbLine
 10
962.8547548375697
 20
1528.168376277646
 30
0.0
 11
939.8867282324481
 21
1566.890125710004
 31
0.0
  0
LINE
  5
459A
330
1F
100
AcDbEntity
  8
FV
  6
Continuous
 62
     3
100
AcDbLine
 10
962.8547548375697
 20
1528.168376277646
 30
0.0
 11
985.5315677175111
 21
1567.308337045267
 31
0.0
  0
LINE
  5
459B
330
1F
100
AcDbEntity
  8
FV
  6
Continuous
 62
     3
100
AcDbLine
 10
966.9796872440192
 20
1522.580569570074
 30
0.0
 11
994.625162340243
 21
1570.296393499882
 31
0.0
  0
LINE
  5
459C
330
1F
100
AcDbEntity
  8
FV
  6
Continuous
 62
     3
100
AcDbLine
 10
1036.911025193257
 20
1544.882537363695
 30
0.0
 11
1021.937493474041
 21
1571.174799188238
 31
0.0
  0
LINE
  5
459D
330
1F
100
AcDbEntity
  8
FV
  6
Continuous
 62
     3
100
AcDbLine
 10
1006.363534877295
 20
1544.882537363695
 30
0.0
 11
1021.937493475759
 21
1571.174799191138
 31
0.0
  0
LINE
  5
459E
330
1F
100
AcDbEntity
  8
FV
  6
Continuous
 62
     3
100
AcDbLine
 10
982.2951031362554
 20
1576.65901727196
 30
0.0
 11
1002.927805787129
 21
1576.65901727196
 31
0.0
  0
LINE
  5
459F
330
1F
100
AcDbEntity
  8
FV
  6
Continuous
 62
     3
100
AcDbLine
 10
908.5478368809731
 20
1576.65901727196
 30
0.0
 11
944.149045639002
 21
1576.65901727196
 31
0.0
  0
LINE
  5
45A0
330
1F
100
AcDbEntity
  8
FV
  6
Continuous
 62
     3
100
AcDbLine
 10
1018.035367163027
 20
1576.65901727196
 30
0.0
 11
1039.407388455725
 21
1576.65901727196
 31
0.0
  0
LINE
  5
45A1
330
1F
100
AcDbEntity
  8
FV
  6
Continuous
 62
     3
100
AcDbLine
 10
1040.508551562968
 20
1522.58056962098
 30
0.0
 11
1077.508014921389
 21
1522.58056962098
 31
0.0
  0
LINE
  5
45A2
330
1F
100
AcDbEntity
  8
FV
  6
Continuous
 62
     3
100
AcDbLine
 10
981.7816634762937
 20
1522.58056962098
 30
0.0
 11
1002.81460816317
 21
1522.58056962098
 31
0.0
  0
LINE
  5
45A3
330
1F
100
AcDbEntity
  8
FV
  6
Continuous
 62
     3
100
AcDbLine
 10
999.1543346183608
 20
1532.711824338103
 30
0.0
 11
1002.7761267911
 21
1538.826204794953
 31
0.0
  0
LINE
  5
45A4
330
1F
100
AcDbEntity
  8
FV
  6
Continuous
 62
     3
100
AcDbLine
 10
1043.937973861632
 20
1532.543806750165
 30
0.0
 11
1040.360127002197
 21
1538.826204794953
 31
0.0
  0
LINE
  5
45A5
330
1F
100
AcDbEntity
  8
FV
  6
Continuous
 62
     3
100
AcDbLine
 10
990.2392036317326
 20
1529.732989779163
 30
0.0
 11
1018.035367194878
 21
1576.659017325732
 31
0.0
  0
LINE
  5
45A6
330
1F
100
AcDbEntity
  8
FV
  6
Continuous
 62
     3
100
AcDbLine
 10
1067.911677414318
 20
1529.830542552248
 30
0.0
 11
1039.407388422993
 21
1576.659017325732
 31
0.0
  0
LINE
  5
45A7
330
1F
100
AcDbEntity
  8
FV
  6
Continuous
 62
     3
100
AcDbLine
 10
792.7566979337564
 20
1536.359064081725
 30
0.0
 11
792.7566979337564
 21
1568.694733207305
 31
0.0
  0
LINE
  5
45A8
330
1F
100
AcDbEntity
  8
FV
  6
Continuous
 62
     3
100
AcDbLine
 10
773.1940847210521
 20
1535.867960013517
 30
0.0
 11
773.1940847210521
 21
1568.694245841872
 31
0.0
  0
LINE
  5
45A9
330
1F
100
AcDbEntity
  8
FV
  6
Continuous
 62
     3
100
AcDbLine
 10
1006.363534877295
 20
1544.882537363695
 30
0.0
 11
1036.911025202661
 21
1544.882537363695
 31
0.0
  0
LINE
  5
45AA
330
1F
100
AcDbEntity
  8
FV
  6
Continuous
 62
     3
100
AcDbLine
 10
1002.7761267911
 20
1538.826204794953
 30
0.0
 11
1040.360127012992
 21
1538.826204794953
 31
0.0
  0
LINE
  5
45AB
330
1F
100
AcDbEntity
  8
FV
  6
Continuous
 62
     3
100
AcDbLine
 10
856.4064890981956
 20
1576.65901727196
 30
0.0
 11
888.2383124734305
 21
1576.65901727196
 31
0.0
  0
POINT
  5
45AC
330
1F
100
AcDbEntity
  8
FV
  6
Continuous
 62
     7
100
AcDbPoint
 10
960.4746106089075
 20
1558.503263333955
 30
0.0
  0
LINE
  5
45AD
330
1F
100
AcDbEntity
  8
FV
  6
Continuous
 62
     7
100
AcDbLine
 10
738.4746106089076
 20
1492.503263333955
 30
0.0
 11
1182.474610608907
 21
1492.503263333955
 31
0.0
  0
LINE
  5
45AE
330
1F
100
AcDbEntity
  8
FV
  6
Continuous
 62
     7
100
AcDbLine
 10
1182.474610608907
 20
1624.503263333955
 30
0.0
 11
1182.474610608907
 21
1492.503263333955
 31
0.0
  0
LINE
  5
45AF
330
1F
100
AcDbEntity
  8
DEFPOINTS
  6
NON_PLOTING
 62
     3
100
AcDbLine
 10
663.4746106089076
 20
-97.49673666604486
 30
0.0
 11
3186.474610608908
 21
-97.49673666604486
 31
0.0
  0
LINE
  5
45B0
330
1F
100
AcDbEntity
  8
DEFPOINTS
  6
NON_PLOTING
 62
     3
100
AcDbLine
 10
3186.474610608908
 20
1684.503263333955
 30
0.0
 11
3186.474610608908
 21
-97.49673666604486
 31
0.0
  0
LINE
  5
45B1
330
1F
100
AcDbEntity
  8
FV
  6
Continuous
 62
     1
100
AcDbLine
 10
3126.474610608908
 20
1624.503263333955
 30
0.0
 11
3126.474610608908
 21
-37.49673666604485
 31
0.0
  0
LINE
  5
45B2
330
1F
100
AcDbEntity
  8
FV
  6
Continuous
 62
     1
100
AcDbLine
 10
738.4746106089076
 20
1624.503263333955
 30
0.0
 11
738.4746106089076
 21
-37.49673666604485
 31
0.0
  0
LINE
  5
45B3
330
1F
100
AcDbEntity
  8
FV
  6
Continuous
 62
     1
100
AcDbLine
 10
738.4746106089076
 20
-37.49673666604485
 30
0.0
 11
3126.474610608908
 21
-37.49673666604485
 31
0.0
  0
LINE
  5
45B4
330
1F
100
AcDbEntity
  8
FV
  6
Continuous
 62
     1
100
AcDbLine
 10
738.4746106089076
 20
1624.503263333955
 30
0.0
 11
3126.474610608908
 21
1624.503263333955
 31
0.0
  0
POINT
  5
45B5
330
1F
100
AcDbEntity
  8
FV
  6
Continuous
 62
     7
100
AcDbPoint
 10
3126.474610608908
 20
1624.503263333955
 30
0.0
  0
POINT
  5
45B6
330
1F
100
AcDbEntity
  8
FV
  6
Continuous
 62
     7
100
AcDbPoint
 10
738.4746106089076
 20
-37.49673666604485
 30
0.0
  0
POINT
  5
45B7
330
1F
100
AcDbEntity
  8
FV
  6
Continuous
 62
     7
100
AcDbPoint
 10
3186.474610608908
 20
-97.49673666604486
 30
0.0
  0
MTEXT
  5
45B8
330
1F
100
AcDbEntity
  8
FV
  6
Continuous
370
     0
100
AcDbMText
 10
2356.326924997027
 20
34.77177159878375
 30
0.0
 40
25.0
 41
469.0
 71
     1
 72
     5
  1
{\L重量：8.3Kg}
  7
MX_NOTE_STANDARD
 73
     1
 44
1.0
1001
ACAD
1000
MTEXTBEGIN
1070
    73
1070
     1
1070
    44
1040
1.0
1070
    74
1070
     0
1000
MTEXTEND
  0
LINE
  5
45BA
330
1F
100
AcDbEntity
  8
PV
 48
0.5
100
AcDbLine
 10
1392.743366098262
 20
718.6376531773803
 30
0.0
 11
1331.514996344132
 21
718.6376531773803
 31
0.0
  0
LINE
  5
45BB
330
1F
100
AcDbEntity
  8
PV
 48
0.5
100
AcDbLine
 10
1322.835797254712
 20
708.6378059142803
 30
0.0
 11
1328.835553024683
 21
708.6378059142803
 31
0.0
  0
LINE
  5
45BC
330
1F
100
AcDbEntity
  8
PV
 48
0.5
100
AcDbLine
 10
1331.515231102673
 20
718.6377639533516
 30
0.0
 11
1328.83577380471
 21
708.6378909615382
 31
0.0
  0
LINE
  5
45BD
330
1F
100
AcDbEntity
  8
PV
 48
0.5
100
AcDbLine
 10
1392.973354192979
 20
808.6376518362758
 30
0.0
 11
1331.514996344132
 21
808.6376518362758
 31
0.0
  0
LINE
  5
45BE
330
1F
100
AcDbEntity
  8
PV
 48
0.5
100
AcDbLine
 10
1331.514996344132
 20
808.6376518362758
 30
0.0
 11
1331.514996344132
 21
763.637652506828
 31
0.0
  0
LINE
  5
45BF
330
1F
100
AcDbEntity
  8
PV
 48
0.5
100
AcDbLine
 10
1328.835623457496
 20
818.6372794743647
 30
0.0
 11
1331.515080755459
 21
808.6374064825509
 31
0.0
  0
LINE
  5
45C0
330
1F
100
AcDbEntity
  8
PV
 48
0.5
100
AcDbLine
 10
1322.835797254712
 20
818.6374990993758
 30
0.0
 11
1328.835553024683
 21
818.6374990993758
 31
0.0
  0
LINE
  5
45C1
330
1F
100
AcDbEntity
  8
PV
 48
0.5
100
AcDbLine
 10
1322.835797254712
 20
818.6374990993758
 30
0.0
 11
1322.835797254712
 21
708.6378059142803
 31
0.0
  0
LINE
  5
45C2
330
1F
100
AcDbEntity
  8
PV
 48
0.5
100
AcDbLine
 10
2516.835796211631
 20
877.937577561439
 30
0.0
 11
2516.835796211631
 21
808.6376518362758
 31
0.0
  0
LINE
  5
45C3
330
1F
100
AcDbEntity
  8
PV
 48
0.5
100
AcDbLine
 10
2036.835796211631
 20
598.4376122438911
 30
0.0
 11
2036.835796211631
 21
763.637652506828
 31
0.0
  0
CIRCLE
  5
45C5
330
1F
100
AcDbEntity
  8
PV
 48
0.5
100
AcDbCircle
 10
1058.59645633663
 20
763.637652506828
 30
0.0
 40
165.2000402629369
  0
CIRCLE
  5
45C6
330
1F
100
AcDbEntity
  8
PV
 48
0.5
100
AcDbCircle
 10
1058.59645633663
 20
763.637652506828
 30
0.0
 40
54.9998465925478
  0
POINT
  5
45C7
330
1F
100
AcDbEntity
  8
NONPLOT
 48
0.5
100
AcDbPoint
 10
1720.835758958727
 20
763.637652506828
 30
0.0
  0
LINE
  5
45C8
330
1F
100
AcDbEntity
  8
PV
 48
0.5
100
AcDbLine
 10
2516.835796211631
 20
718.6376531773803
 30
0.0
 11
2578.156596079129
 21
718.6376531773803
 31
0.0
  0
LINE
  5
45C9
330
1F
100
AcDbEntity
  8
PV
 48
0.5
100
AcDbLine
 10
2516.835796211631
 20
808.6376518362758
 30
0.0
 11
2578.156596079129
 21
808.6376518362758
 31
0.0
  0
LINE
  5
45CA
330
1F
100
AcDbEntity
  8
PV
 48
0.5
100
AcDbLine
 10
2586.835795168549
 20
818.6374990993758
 30
0.0
 11
2586.835795168549
 21
708.6378059142803
 31
0.0
  0
LINE
  5
45CB
330
1F
100
AcDbEntity
  8
PV
 48
0.5
100
AcDbLine
 10
2586.835795168549
 20
818.6374990993758
 30
0.0
 11
2580.836039398578
 21
818.6374990993758
 31
0.0
  0
LINE
  5
45CC
330
1F
100
AcDbEntity
  8
PV
 48
0.5
100
AcDbLine
 10
2580.835968965766
 20
818.6372794743647
 30
0.0
 11
2578.156511667802
 21
808.6374064825509
 31
0.0
  0
LINE
  5
45CD
330
1F
100
AcDbEntity
  8
PV
 48
0.5
100
AcDbLine
 10
2578.156596079129
 20
808.6376518362758
 30
0.0
 11
2578.156596079129
 21
763.637652506828
 31
0.0
  0
LINE
  5
45CE
330
1F
100
AcDbEntity
  8
PV
 48
0.5
100
AcDbLine
 10
2578.156361320588
 20
718.6377639533516
 30
0.0
 11
2580.835818618552
 21
708.6378909615382
 31
0.0
  0
LINE
  5
45CF
330
1F
100
AcDbEntity
  8
PV
 48
0.5
100
AcDbLine
 10
2586.835795168549
 20
708.6378059142803
 30
0.0
 11
2580.836039398578
 21
708.6378059142803
 31
0.0
  0
CIRCLE
  5
45D1
330
1F
100
AcDbEntity
  8
PV
 48
0.5
100
AcDbCircle
 10
2829.835723941
 20
763.637652506828
 30
0.0
 40
165.2000402629369
  0
CIRCLE
  5
45D2
330
1F
100
AcDbEntity
  8
PV
 48
0.5
100
AcDbCircle
 10
2829.835723941
 20
763.637652506828
 30
0.0
 40
54.9998465925478
  0
CIRCLE
  5
45D4
330
1F
100
AcDbEntity
  8
PV
 48
0.5
100
AcDbCircle
 10
2829.835723941
 20
763.637652506828
 30
0.0
 40
114.2999250546108
  0
LEADER
  5
45D5
330
1F
100
AcDbEntity
  8
DIMENSION
 48
0.5
100
AcDbLeader
  3
ULVAC$7
 74
     0
 76
     3
 10
1071.225931752797
 20
801.0219801149641
 30
0.0
 10
1124.810758958728
 20
959.6376525068281
 30
0.0
 10
1219.954759012134
 20
959.6376525068281
 30
0.0
1001
ACAD
1000
DSTYLE
1002
{
1070
    40
1040
3.0
1070
    41
1040
2.77
1070
   173
1070
     1
1070
   341
1005
69
1070
   343
1005
69
1070
   344
1005
69
1002
}
  0
MTEXT
  5
45D6
330
1F
100
AcDbEntity
  8
TEXT
 48
0.5
100
AcDbMText
 10
1134.610759149463
 20
985.137652506828
 30
0.0
 40
25.00199890136719
 41
0.0
 71
     4
 72
     1
  1
\W0.711;\A1;NW40
  7
ULVAC
 73
     1
 44
0.9359251894303499
1001
ACAD
1000
MTEXTBEGIN
1070
    73
1070
     1
1070
    44
1040
0.9359251894303499
1070
    74
1070
     0
1000
MTEXTEND
  0
LINE
  5
45D7
330
1F
100
AcDbEntity
  8
PV
 48
0.5
100
AcDbLine
 10
2516.835796211631
 20
649.3377274522172
 30
0.0
 11
2516.835796211631
 21
718.6376531773803
 31
0.0
  0
LINE
  5
45D8
330
1F
100
AcDbEntity
  8
PV
 48
0.5
100
AcDbLine
 10
1392.83579621163
 20
598.4376122438911
 30
0.0
 11
1392.83579621163
 21
763.637652506828
 31
0.0
  0
LINE
  5
45D9
330
1F
100
AcDbEntity
  8
PV
 48
0.5
100
AcDbLine
 10
2516.835796211631
 20
763.637652506828
 30
0.0
 11
2516.835796211631
 21
877.937577561439
 31
0.0
  0
LINE
  5
45DA
330
1F
100
AcDbEntity
  8
PV
 48
0.5
100
AcDbLine
 10
2578.156596079129
 20
763.637652506828
 30
0.0
 11
2578.156596079129
 21
718.6378057652687
 31
0.0
  0
LINE
  5
45DB
330
1F
100
AcDbEntity
  8
PV
 48
0.5
100
AcDbLine
 10
2516.835796211631
 20
763.637652506828
 30
0.0
 11
2516.835796211631
 21
649.3377274522172
 31
0.0
  0
LINE
  5
45DC
330
1F
100
AcDbEntity
  8
PV
 48
0.5
100
AcDbLine
 10
2036.835796211631
 20
763.637652506828
 30
0.0
 11
2036.835796211631
 21
928.8376927697649
 31
0.0
  0
LINE
  5
45DD
330
1F
100
AcDbEntity
  8
PV
 48
0.5
100
AcDbLine
 10
1331.514996344132
 20
763.637652506828
 30
0.0
 11
1331.514996344132
 21
718.6378057652687
 31
0.0
  0
LINE
  5
45DE
102
{ACAD_REACTORS
330
4706
102
}
330
1F
100
AcDbEntity
  8
PV
 48
0.5
100
AcDbLine
 10
1392.83579621163
 20
763.637652506828
 30
0.0
 11
1392.83579621163
 21
928.8376927697649
 31
0.0
  0
CIRCLE
  5
45DF
330
1F
100
AcDbEntity
  8
PV
 48
0.5
100
AcDbCircle
 10
2829.835723941
 20
763.637652506828
 30
0.0
 40
39.46
  0
CIRCLE
  5
45E0
330
1F
100
AcDbEntity
  8
PV
 48
0.5
100
AcDbCircle
 10
2829.835723941
 20
763.637652506828
 30
0.0
 40
45.06
  0
CIRCLE
  5
45E1
330
1F
100
AcDbEntity
  8
PV
 48
0.5
100
AcDbCircle
 10
1058.59645633663
 20
763.637652506828
 30
0.0
 40
39.46
  0
DIMENSION
  5
45E2
330
1F
100
AcDbEntity
  8
DIMENSION
 48
0.5
100
AcDbDimension
  2
*D6
 10
1392.83579621163
 20
986.5876525068278
 30
0.0
 11
1357.835797254712
 21
986.5876525068278
 31
0.0
 70
   160
  1
35\P
 71
     5
 41
0.9359251894303499
 42
69.99999895691871
  3
ULVAC$0
100
AcDbAlignedDimension
 13
1322.835797254712
 23
818.6375029706951
 33
0.0
 14
1392.83579621163
 24
933.4376547956463
 34
0.0
100
AcDbRotatedDimension
1001
ACAD
1000
DSTYLE
1002
{
1070
   140
1040
10.0
1070
   146
1040
1.0
1070
    48
1040
0.0
1070
    47
1040
0.0
1070
   147
1040
1.0
1070
    72
1070
     0
1070
    71
1070
     0
1070
   144
1040
1.0
1070
    40
1040
3.0
1002
}
  0
DIMENSION
  5
45E3
330
1F
100
AcDbEntity
  8
DIMENSION
 48
0.5
100
AcDbDimension
  2
*D7
 10
2586.835795168549
 20
986.5876525068278
 30
0.0
 11
2551.835796211631
 21
986.5876525068278
 31
0.0
 70
   160
  1
35
 71
     5
 41
0.9359251894303499
 42
69.99999895691871
  3
ULVAC$0
100
AcDbAlignedDimension
 13
2516.835796211631
 23
883.7376616621012
 33
0.0
 14
2586.835795168549
 24
818.6375029706951
 34
0.0
100
AcDbRotatedDimension
1001
ACAD
1000
DSTYLE
1002
{
1070
   140
1040
10.0
1070
   146
1040
1.0
1070
    48
1040
0.0
1070
    47
1040
0.0
1070
   147
1040
1.0
1070
    72
1070
     0
1070
    71
1070
     0
1070
   144
1040
1.0
1070
    40
1040
3.0
1002
}
  0
LINE
  5
45E4
330
1F
100
AcDbEntity
  8
PV
 48
0.5
100
AcDbLine
 10
1392.835796152026
 20
928.8376927697649
 30
0.0
 11
2036.835796211631
 21
928.8376927697649
 31
0.0
  0
LINE
  5
45E5
102
{ACAD_REACTORS
330
4706
102
}
330
1F
100
AcDbEntity
  8
PV
 48
0.5
100
AcDbLine
 10
1392.835796152026
 20
598.4376122438911
 30
0.0
 11
2036.835796211631
 21
598.4376122438911
 31
0.0
  0
LINE
  5
45E6
102
{ACAD_REACTORS
330
4738
102
}
330
1F
100
AcDbEntity
  8
PV
 48
0.5
100
AcDbLine
 10
2036.835796152026
 20
877.937577561439
 30
0.0
 11
2516.835796211631
 21
877.937577561439
 31
0.0
  0
LINE
  5
45E7
102
{ACAD_REACTORS
330
4738
102
}
330
1F
100
AcDbEntity
  8
PV
 48
0.5
100
AcDbLine
 10
2036.835796152026
 20
649.3377274522172
 30
0.0
 11
2516.835796211631
 21
649.3377274522172
 31
0.0
  0
CIRCLE
  5
45E8
330
1F
100
AcDbEntity
  8
PV
 48
0.5
100
AcDbCircle
 10
1058.59645633663
 20
763.637652506828
 30
0.0
 40
45.0
  0
LEADER
  5
45E9
330
1F
100
AcDbEntity
  8
DIMENSION
 48
0.5
100
AcDbLeader
  3
ULVAC$7
 74
     0
 76
     3
 10
2836.825228349544
 20
802.4736979816566
 30
0.0
 10
2865.110758958728
 20
959.6376525068281
 30
0.0
 10
2970.054759202869
 20
959.6376525068281
 30
0.0
1001
ACAD
1000
DSTYLE
1002
{
1070
    40
1040
3.0
1070
    41
1040
2.77
1070
   173
1070
     1
1070
   341
1005
69
1070
   343
1005
69
1070
   344
1005
69
1002
}
  0
MTEXT
  5
45EA
330
1F
100
AcDbEntity
  8
TEXT
 48
0.5
100
AcDbMText
 10
2884.710759340198
 20
985.137652506828
 30
0.0
 40
25.00199890136719
 41
0.0
 71
     4
 72
     1
  1
\W0.711;\A1;NW40
  7
ULVAC
 73
     1
 44
0.9359251894303499
1001
ACAD
1000
MTEXTBEGIN
1070
    73
1070
     1
1070
    44
1040
0.9359251894303499
1070
    74
1070
     0
1000
MTEXTEND
  0
DIMENSION
  5
45EB
330
1F
100
AcDbEntity
  8
DIMENSION
 48
0.5
100
AcDbDimension
  2
*D8
 10
2036.835796211631
 20
986.5876525068278
 30
0.0
 11
1714.83579621163
 21
986.5876525068278
 31
0.0
 70
   160
  1
322\P
 71
     5
 41
0.9359251894303499
 42
644.0
  3
ULVAC$0
100
AcDbAlignedDimension
 13
1392.83579621163
 23
928.8376944684978
 33
0.0
 14
2036.835796211631
 24
928.8376944684978
 34
0.0
100
AcDbRotatedDimension
1001
ACAD
1000
DSTYLE
1002
{
1070
   140
1040
10.0
1070
   146
1040
1.0
1070
    48
1040
0.0
1070
    47
1040
0.0
1070
   147
1040
1.0
1070
    72
1070
     0
1070
    71
1070
     0
1070
   144
1040
1.0
1070
    40
1040
3.0
1002
}
  0
DIMENSION
  5
45EC
330
1F
100
AcDbEntity
  8
DIMENSION
 48
0.5
100
AcDbDimension
  2
*D9
 10
2516.835796211631
 20
986.5876525068278
 30
0.0
 11
2276.835796211631
 21
986.5876525068278
 31
0.0
 70
   160
  1
240
 71
     5
 41
0.9359251894303499
 42
480.0
  3
ULVAC$0
100
AcDbAlignedDimension
 13
2036.835796211631
 23
928.8376944684978
 33
0.0
 14
2516.835796211631
 24
877.9375746870037
 34
0.0
100
AcDbRotatedDimension
1001
ACAD
1000
DSTYLE
1002
{
1070
   140
1040
10.0
1070
   146
1040
1.0
1070
    48
1040
0.0
1070
    47
1040
0.0
1070
   147
1040
1.0
1070
    72
1070
     0
1070
    71
1070
     0
1070
   144
1040
1.0
1070
    40
1040
3.0
1002
}
  0
DIMENSION
  5
45ED
330
1F
100
AcDbEntity
  8
DIMENSION
 48
0.5
100
AcDbDimension
  2
*D10
 10
2586.835795168549
 20
1052.737652506828
 30
0.0
 11
1954.835797254712
 21
1052.737652506828
 31
0.0
 70
   160
  1
（632）
 71
     5
 41
0.9359251894303499
 42
1263.999997913837
  3
ULVAC$0
100
AcDbAlignedDimension
 13
1322.835797254712
 23
818.6374938154218
 33
0.0
 14
2586.835795168549
 24
818.6374938154218
 34
0.0
100
AcDbRotatedDimension
1001
ACAD
1000
DSTYLE
1002
{
1070
   140
1040
10.0
1070
   146
1040
1.0
1070
    48
1040
0.0
1070
    47
1040
0.0
1070
   147
1040
1.0
1070
    72
1070
     0
1070
    71
1070
     0
1070
   144
1040
1.0
1070
    40
1040
3.0
1002
}
  0
LINE
  5
45F2
330
1F
100
AcDbEntity
  8
PV
  6
Continuous
 62
     3
100
AcDbLine
 10
1648.835772749352
 20
723.6376525118284
 30
0.0
 11
1648.835772749352
 21
803.6376525118285
 31
0.0
  0
LINE
  5
45F3
330
1F
100
AcDbEntity
  8
PV
  6
Continuous
 62
     3
100
AcDbLine
 10
1760.835788264345
 20
723.6376525018276
 30
0.0
 11
1760.835788264345
 21
803.6376525118285
 31
0.0
  0
LINE
  5
45F4
330
1F
100
AcDbEntity
  8
PV
  6
Continuous
 62
     3
100
AcDbLine
 10
1648.835772749352
 20
803.6376525118285
 30
0.0
 11
1760.835788264345
 21
803.6376525118285
 31
0.0
  0
LINE
  5
45F5
330
1F
100
AcDbEntity
  8
PV
  6
Continuous
 62
     3
100
AcDbLine
 10
1648.835772749352
 20
723.6376525018276
 30
0.0
 11
1760.835788264345
 21
723.6376525018276
 31
0.0
  0
LINE
  5
45F6
330
1F
100
AcDbEntity
  8
PV
  6
Continuous
 62
     3
100
AcDbLine
 10
1664.835819254329
 20
723.6376525018276
 30
0.0
 11
1664.835819254329
 21
803.6376525118285
 31
0.0
  0
LINE
  5
45F7
330
1F
100
AcDbEntity
  8
PV
  6
Continuous
 62
     3
100
AcDbLine
 10
1732.835803761837
 20
723.6376525018276
 30
0.0
 11
1732.835803761837
 21
803.6376525118285
 31
0.0
  0
LINE
  5
45F8
330
1F
100
AcDbEntity
  8
PV
  6
Continuous
 62
     3
100
AcDbLine
 10
1740.335493742933
 20
723.6376525018276
 30
0.0
 11
1740.335493742933
 21
803.6376525118285
 31
0.0
  0
LWPOLYLINE
  5
45F9
330
1F
100
AcDbEntity
  8
PV
  6
Continuous
 62
     2
100
AcDbPolyline
 90
        2
 70
     0
 43
0.6000000238418579
 10
1730.812924297298
 20
735.494051312833
 10
1730.812924297298
 20
791.7812537008212
  0
LINE
  5
45FA
330
1F
100
AcDbEntity
  8
PV
  6
Continuous
 62
     3
100
AcDbLine
 10
1726.787549172787
 20
735.494051312833
 30
0.0
 11
1726.787549172787
 21
791.7812537008212
 31
0.0
  0
LWPOLYLINE
  5
45FB
330
1F
100
AcDbEntity
  8
PV
  6
Continuous
 62
     2
100
AcDbPolyline
 90
        2
 70
     0
 43
0.6000000238418579
 10
1719.405899827062
 20
728.9088984354166
 10
1670.660495169807
 20
757.0523924125628
  0
LINE
  5
45FC
330
1F
100
AcDbEntity
  8
PV
  6
Continuous
 62
     3
100
AcDbLine
 10
1721.418580922344
 20
732.3943548123188
 30
0.0
 11
1672.671921199885
 21
760.5378427860487
 31
0.0
  0
LINE
  5
45FD
330
1F
100
AcDbEntity
  8
PV
  6
Continuous
 62
     3
100
AcDbLine
 10
1721.037667628257
 20
737.263176961027
 30
0.0
 11
1677.078350757991
 21
762.6421960537754
 31
0.0
  0
LWPOLYLINE
  5
45FE
330
1F
100
AcDbEntity
  8
PV
  6
Continuous
 62
     2
100
AcDbPolyline
 90
        2
 70
     0
 43
0.6000000238418579
 10
1670.660723053298
 20
770.224386717975
 10
1719.406060589479
 20
798.3678419423104
  0
LINE
  5
45FF
330
1F
100
AcDbEntity
  8
PV
  6
Continuous
 62
     3
100
AcDbLine
 10
1672.671975678754
 20
766.7386727254452
 30
0.0
 11
1721.418568279705
 21
794.8821219471156
 31
0.0
  0
LINE
  5
4600
330
1F
100
AcDbEntity
  8
PV
  6
Continuous
 62
     3
100
AcDbLine
 10
1677.078337583408
 20
764.6345981551093
 30
0.0
 11
1721.037654453673
 21
790.013617247856
 31
0.0
  0
LINE
  5
4601
330
1F
100
AcDbEntity
  8
PV
  6
Continuous
 62
     3
100
AcDbLine
 10
1721.324689549088
 20
748.3322829612643
 30
0.0
 11
1721.324689549088
 21
778.9442621317557
 31
0.0
  0
LINE
  5
4602
330
1F
100
AcDbEntity
  8
PV
  6
Continuous
 62
     3
100
AcDbLine
 10
1719.932932976494
 20
748.3322829612643
 30
0.0
 11
1719.932932976494
 21
778.9442621317557
 31
0.0
  0
LINE
  5
4603
330
1F
100
AcDbEntity
  8
PV
  6
Continuous
 62
     3
100
AcDbLine
 10
1721.324689549088
 20
778.9442621317557
 30
0.0
 11
1719.932932976494
 21
778.9442621317557
 31
0.0
  0
LINE
  5
4604
330
1F
100
AcDbEntity
  8
PV
  6
Continuous
 62
     3
100
AcDbLine
 10
1721.324689549088
 20
748.3322829612643
 30
0.0
 11
1719.932932976494
 21
748.3322829612643
 31
0.0
  0
LINE
  5
4605
330
1F
100
AcDbEntity
  8
PV
  6
Continuous
 62
     3
100
AcDbLine
 10
1662.335509234175
 20
730.6307700622255
 30
0.0
 11
1662.335509234175
 21
738.4528806782837
 31
0.0
  0
LINE
  5
4606
330
1F
100
AcDbEntity
  8
PV
  6
Continuous
 62
     3
100
AcDbLine
 10
1660.085331501321
 20
739.7519060837167
 30
0.0
 11
1653.310692402072
 21
735.8407742253948
 31
0.0
  0
LINE
  5
4607
330
1F
100
AcDbEntity
  8
PV
  6
Continuous
 62
     3
100
AcDbLine
 10
1660.085287732606
 20
729.3315876641536
 30
0.0
 11
1653.310715755512
 21
733.2426807715437
 31
0.0
  0
LWPOLYLINE
  5
4608
330
1F
100
AcDbEntity
  8
PV
  6
Continuous
 62
     2
100
AcDbPolyline
 90
        2
 70
     0
 43
0.6000000238418579
 10
1719.405967816004
 20
728.908757763711
 42
0.5773780249785317
 10
1730.812951544457
 20
735.494152932526
 42
0.5773780249785317
  0
ARC
  5
4609
330
1F
100
AcDbEntity
  8
PV
  6
Continuous
 62
     3
100
AcDbCircle
 10
1723.20844760984
 20
735.494051312833
 30
0.0
 40
3.579117608896204
100
AcDbArc
 50
239.9960768153472
 51
0.0031698910455491
  0
ARC
  5
460A
330
1F
100
AcDbEntity
  8
PV
  6
Continuous
 62
     3
100
AcDbCircle
 10
1721.613008001505
 20
738.2578781980992
 30
0.0
 40
1.149127748421093
100
AcDbArc
 50
239.956639303041
 51
0.0407359314195302
  0
LWPOLYLINE
  5
460B
330
1F
100
AcDbEntity
  8
PV
  6
Continuous
 62
     2
100
AcDbPolyline
 90
        2
 70
     0
 43
0.6000000238418579
 10
1670.660564564813
 20
770.2243042991522
 42
0.5773672561974057
 10
1670.660564355466
 20
757.0522409147251
 42
0.5773672561974057
  0
ARC
  5
460C
330
1F
100
AcDbEntity
  8
PV
  6
Continuous
 62
     3
100
AcDbCircle
 10
1674.462787881524
 20
763.6382725465082
 30
0.0
 40
3.580351027678911
100
AcDbArc
 50
120.0114414016637
 51
239.9885636072219
  0
ARC
  5
460D
330
1F
100
AcDbEntity
  8
PV
  6
Continuous
 62
     3
100
AcDbCircle
 10
1677.654054622994
 20
763.6382725465082
 30
0.0
 40
1.150575214105952
100
AcDbArc
 50
120.0235854779983
 51
239.9764195309287
  0
LWPOLYLINE
  5
460E
330
1F
100
AcDbEntity
  8
PV
  6
Continuous
 62
     2
100
AcDbPolyline
 90
        2
 70
     0
 43
0.6000000238418579
 10
1730.812957588408
 20
791.7811400179853
 42
0.5773505270355182
 10
1719.405973175929
 20
798.3678070620426
 42
0.5773505270355182
  0
ARC
  5
460F
330
1F
100
AcDbEntity
  8
PV
  6
Continuous
 62
     3
100
AcDbCircle
 10
1723.207905075117
 20
791.781563720664
 30
0.0
 40
3.579665895939768
100
AcDbArc
 50
359.9916919854714
 51
119.988731022712
  0
ARC
  5
4610
330
1F
100
AcDbEntity
  8
PV
  6
Continuous
 62
     3
100
AcDbCircle
 10
1721.612465466783
 20
789.0177368353961
 30
0.0
 40
1.149677397856538
100
AcDbArc
 50
0.0067593827731798
 51
119.9958788156571
  0
ARC
  5
4611
330
1F
100
AcDbEntity
  8
PV
  6
Continuous
 62
     3
100
AcDbCircle
 10
1693.411588107107
 20
755.5541951645482
 30
0.0
 40
0.5220614161462775
100
AcDbArc
 50
55.72026751802893
 51
237.904754853724
  0
ARC
  5
4612
330
1F
100
AcDbEntity
  8
PV
  6
Continuous
 62
     3
100
AcDbCircle
 10
1717.762716582373
 20
755.5538851447054
 30
0.0
 40
0.5214791449941322
100
AcDbArc
 50
233.0358545039602
 51
59.23522607154286
  0
ARC
  5
4613
330
1F
100
AcDbEntity
  8
PV
  6
Continuous
 62
     3
100
AcDbCircle
 10
1693.411355592226
 20
763.2070349472505
 30
0.0
 40
0.5215361383878103
100
AcDbArc
 50
55.64769334302746
 51
237.9009572685819
  0
ARC
  5
4614
330
1F
100
AcDbEntity
  8
PV
  6
Continuous
 62
     3
100
AcDbCircle
 10
1717.762716582373
 20
763.2073449670897
 30
0.0
 40
0.5214816427125803
100
AcDbArc
 50
233.0308548054574
 51
59.24025309076601
  0
ARC
  5
4615
330
1F
100
AcDbEntity
  8
PV
  6
Continuous
 62
     3
100
AcDbCircle
 10
1693.411355592226
 20
770.8604947696349
 30
0.0
 40
0.5215352679707754
100
AcDbArc
 50
55.65261449430714
 51
237.8960395323828
  0
ARC
  5
4616
330
1F
100
AcDbEntity
  8
PV
  6
Continuous
 62
     3
100
AcDbCircle
 10
1717.762794087335
 20
770.8604947696349
 30
0.0
 40
0.5214841025868094
100
AcDbArc
 50
233.0258551070091
 51
59.24525278923692
  0
ARC
  5
4617
330
1F
100
AcDbEntity
  8
PV
  6
Continuous
 62
     3
100
AcDbCircle
 10
1654.06146719445
 20
734.5416703603332
 30
0.0
 40
1.50038749471376
100
AcDbArc
 50
120.0248968743396
 51
239.9751081345851
  0
ARC
  5
4618
330
1F
100
AcDbEntity
  8
PV
  6
Continuous
 62
     3
100
AcDbCircle
 10
1660.835633241924
 20
730.6301500225417
 30
0.0
 40
1.499847987528983
100
AcDbArc
 50
239.9829355313949
 51
0.0139342691569009
  0
ARC
  5
4619
330
1F
100
AcDbEntity
  8
PV
  6
Continuous
 62
     3
100
AcDbCircle
 10
1660.835400727043
 20
738.4528806782837
 30
0.0
 40
1.500072479435555
100
AcDbArc
 50
0.0009332314476311
 51
120.0022035708425
  0
ARC
  5
461A
330
1F
100
AcDbEntity
  8
PV
  6
Continuous
 62
     3
100
AcDbCircle
 10
1658.766638325991
 20
734.5422904000152
 30
0.0
 40
0.8438293518636786
100
AcDbArc
 50
269.6075150184956
 51
90.39250000838254
  0
ARC
  5
461B
330
1F
100
AcDbEntity
  8
PV
  6
Continuous
 62
     3
100
AcDbCircle
 10
1654.237170939513
 20
734.5422904000152
 30
0.0
 40
1.086290601835857
100
AcDbArc
 50
87.29403529142622
 51
272.7059620335881
  0
ELLIPSE
  5
461C
330
1F
100
AcDbEntity
  8
PV
  6
Continuous
 62
     3
100
AcDbEllipse
 10
1660.743402339135
 20
734.5415153504109
 30
0.0
 11
0.0000000000000001
 21
1.115606398948974
 31
0.0
210
0.0
220
0.0
230
1.0
 40
0.9089898568848131
 41
0.0
 42
6.283185307179586
  0
SPLINE
  5
461D
330
1F
100
AcDbEntity
  8
PV
  6
Continuous
 62
     3
100
AcDbSpline
210
0.0
220
0.0
230
1.0
 70
     8
 71
     3
 72
    11
 73
     7
 74
     5
 42
0.0000000001
 43
0.0000000001
 44
0.000001
 12
0.9997829907164007
 22
0.0208319820029185
 32
0.0
 13
0.9899786160636244
 23
-0.1412173492767485
 33
0.0
 40
0.0
 40
0.0
 40
0.0
 40
0.0
 40
0.5595357835563418
 40
1.119374236718971
 40
2.830830349654866
 40
4.54116523462403
 40
4.54116523462403
 40
4.54116523462403
 40
4.54116523462403
 10
1654.235852345803
 20
735.6289714773265
 30
0.0
 10
1654.422323798835
 20
735.6328568904508
 30
0.0
 10
1654.795450285145
 20
735.637147787744
 30
0.0
 10
1655.739063301007
 20
735.6320194714141
 30
0.0
 10
1657.066000887051
 20
735.582230473863
 30
0.0
 10
1658.201895308226
 20
735.4663416829151
 30
0.0
 10
1658.766293629035
 20
735.3858320299714
 30
0.0
 11
1654.235852345803
 21
735.6289714773265
 31
0.0
 11
1654.795349246314
 21
735.6355677943338
 31
0.0
 11
1655.355179992231
 21
735.632630181899
 31
0.0
 11
1657.065256664732
 21
735.5639293764343
 31
0.0
 11
1658.766293629035
 21
735.3858320299714
 31
0.0
  0
SPLINE
  5
461E
330
1F
100
AcDbEntity
  8
PV
  6
Continuous
 62
     3
100
AcDbSpline
210
0.0
220
0.0
230
1.0
 70
     8
 71
     3
 72
    11
 73
     7
 74
     5
 42
0.0000000001
 43
0.0000000001
 44
0.000001
 12
0.9997638445950084
 22
-0.021731429787474
 32
0.0
 13
0.9899430457032385
 23
0.1414664845954551
 33
0.0
 40
0.0
 40
0.0
 40
0.0
 40
0.0
 40
0.5595389326526758
 40
1.119378439333137
 40
2.830858754235608
 40
4.541250380469631
 40
4.541250380469631
 40
4.541250380469631
 40
4.541250380469631
 10
1654.235852843193
 20
733.4553841106208
 30
0.0
 10
1654.422321774696
 20
733.4513309169446
 30
0.0
 10
1654.795445958138
 20
733.446672477885
 30
0.0
 10
1655.73907355854
 20
733.4514476665582
 30
0.0
 10
1657.066032393467
 20
733.5018944407281
 30
0.0
 10
1658.201887992418
 20
733.6183092332828
 30
0.0
 10
1658.766284757691
 20
733.6989635968311
 30
0.0
 11
1654.235852843193
 21
733.4553841106208
 31
0.0
 11
1654.795347049772
 21
733.4483095110881
 31
0.0
 11
1655.355179992231
 21
733.4510205586084
 31
0.0
 11
1657.065262193272
 21
733.5201851013989
 31
0.0
 11
1658.766284757691
 21
733.6989635968311
 31
0.0
  0
MTEXT
  5
461F
330
1F
100
AcDbEntity
  8
PV
  6
Continuous
 62
     7
100
AcDbMText
 10
1651.234132745442
 20
751.4274926886282
 30
0.0
 40
12.0
 41
0.0
 71
     1
 72
     1
  1
\W0.711;\A1;警　告
  7
MX_NOTE_STANDARD
 11
0.0000000000000001
 21
1.0
 31
0.0
 73
     1
 44
0.9000721192377119
1001
ACAD
1000
MTEXTBEGIN
1070
    73
1070
     1
1070
    44
1040
0.9000721192377119
1070
    74
1070
     0
1000
MTEXTEND
  0
MTEXT
  5
4620
330
1F
100
AcDbEntity
  8
PV
  6
Continuous
 62
     7
100
AcDbMText
 10
1758.700836627174
 20
725.4681172052569
 30
0.0
 40
3.600000143051147
 41
0.0
 71
     4
 72
     1
  1
\W0.935;\A1;P/N 100064955-01
  7
MX_NOTE_STANDARD
 11
0.0000000000000001
 21
1.0
 31
0.0
 73
     1
 44
0.9000000810623165
1001
ACAD
1000
MTEXTBEGIN
1070
    73
1070
     1
1070
    44
1040
0.9000000810623165
1070
    74
1070
     0
1000
MTEXTEND
  0
MTEXT
  5
4621
330
1F
100
AcDbEntity
  8
PV
  6
Continuous
 62
     7
100
AcDbMText
 10
1736.585803762305
 20
763.6376525068262
 30
0.0
 40
6.0
 41
0.0
 71
     5
 72
     1
  1
\W0.711;\A1;高温加熱部あり
  7
MX_NOTE_STANDARD
 11
0.0000000000000001
 21
1.0
 31
0.0
 73
     1
 44
0.9000721907632874
1001
ACAD
1000
MTEXTBEGIN
1070
    73
1070
     1
1070
    44
1040
0.9000721907632874
1070
    74
1070
     0
1000
MTEXTEND
  0
MTEXT
  5
4622
330
1F
100
AcDbEntity
  8
PV
  6
Continuous
 62
     7
100
AcDbMText
 10
1748.673322365007
 20
763.6376525068262
 30
0.0
 40
4.800000071525573
 41
0.0
 71
     5
 72
     1
  1
\W0.694;\A1;火傷の危険あり触るな
  7
MX_NOTE_STANDARD
 11
0.0000000000000001
 21
1.0
 31
0.0
 73
     1
 44
0.8000000488758093
1001
ACAD
1000
MTEXTBEGIN
1070
    73
1070
     1
1070
    44
1040
0.8000000488758093
1070
    74
1070
     0
1000
MTEXTEND
  0
HATCH
  5
4623
330
1F
100
AcDbEntity
  8
PV
  6
Continuous
 62
     7
100
AcDbHatch
 10
0.0
 20
0.0
 30
0.0
210
0.0
220
0.0
230
1.0
  2
SOLID
 70
     1
 71
     0
 91
        2
 92
        1
 93
        6
 72
     1
 10
1726.788132579266
 20
735.4940513555156
 11
1726.788132579266
 21
791.7812535443609
 72
     2
 10
1723.208757629681
 20
791.7812537008212
 40
3.579374949584791
 50
359.9999974955218
 51
480.000000834826
 73
     1
 72
     1
 10
1721.419070109722
 20
794.8810833107545
 11
1672.673100361565
 21
766.7374821167595
 72
     2
 10
1674.462787881524
 20
763.6376525068262
 40
3.579374949584791
 50
120.000000834826
 51
239.9999973439411
 73
     1
 72
     1
 10
1672.673100263034
 20
760.5378229537818
 11
1721.419070011191
 21
732.3942217597886
 72
     2
 10
1723.208757629681
 20
735.494051312833
 40
3.579374949584791
 50
239.9999973439411
 51
360.0000006832453
 73
     1
 97
        0
 92
        1
 93
        6
 72
     1
 10
1722.763085488444
 20
738.2578782118125
 11
1722.763085488444
 21
789.0174267652874
 72
     2
 10
1721.613085506466
 20
789.0174268155552
 40
1.149999981978524
 50
359.9999974955218
 51
480.000000834826
 73
     1
 72
     1
 10
1721.038085500965
 20
790.0133560059221
 11
1677.079054617494
 21
764.633581697195
 72
     2
 10
1677.654054622994
 20
763.6376525068262
 40
1.149999981978524
 50
120.000000834826
 51
239.9999973439411
 73
     1
 72
     1
 10
1677.079054585837
 20
762.6417233347383
 11
1721.038085469308
 21
737.2619490260112
 72
     2
 10
1721.613085506466
 20
738.2578781980992
 40
1.149999981978524
 50
239.9999973439411
 51
360.0000006832453
 73
     1
 97
        0
 75
     0
 76
     1
 98
        1
 10
2622.13783960507
 20
-2891.892941847362
  0
SOLID
  5
4624
330
1F
100
AcDbEntity
  8
PV
  6
Continuous
 62
     7
100
AcDbTrace
 10
1719.934095550899
 20
748.3310428818986
 30
0.0
 11
1719.934095550899
 21
778.9442621317557
 31
0.0
 12
1721.325619608612
 22
748.3310428818986
 32
0.0
 13
1721.325619608612
 23
778.9442621317557
 33
0.0
  0
HATCH
  5
4625
330
1F
100
AcDbEntity
  8
PV
  6
Continuous
 62
     7
100
AcDbHatch
 10
0.0
 20
0.0
 30
0.0
210
0.0
220
0.0
230
1.0
  2
SOLID
 70
     1
 71
     0
 91
        1
 92
        1
 93
       10
 72
     2
 10
1717.762716582373
 20
755.5541951645482
 40
0.5218125147185081
 50
-55.56102143017113
 51
126.8601626961496
 73
     0
 72
     2
 10
1711.067884023226
 20
746.380045843196
 40
10.83542461110074
 50
413.9155527581721
 51
448.350254974003
 73
     1
 72
     2
 10
1712.965522878385
 20
742.6641819108481
 40
14.63296721803785
 50
96.2210375600617
 51
121.6278480318369
 73
     1
 72
     2
 10
1697.618402052498
 20
767.5832749273049
 40
14.63297398352443
 50
58.37184567307659
 51
83.77867138589861
 73
     0
 72
     2
 10
1699.516892809849
 20
763.8667814511081
 40
10.83481640561679
 50
91.65394968112821
 51
126.0856225064846
 73
     0
 72
     2
 10
1693.411341336098
 20
755.5538633442011
 40
0.522078526666224
 50
121.9258042982928
 51
304.4383487611179
 73
     0
 72
     2
 10
1699.528069493953
 20
763.8961203365142
 40
9.822644723178578
 50
233.6540444795476
 51
267.9701802112417
 73
     1
 72
     2
 10
1697.578049969256
 20
767.6935432686877
 40
13.70784917147961
 50
276.711784975127
 51
301.8744022180903
 73
     1
 72
     2
 10
1712.93287989357
 20
742.7571574096418
 40
15.57710703247842
 50
238.5980430139354
 51
264.1892939695043
 73
     0
 72
     2
 10
1711.070262261564
 20
746.3812158236069
 40
11.87644392333075
 50
-88.62224790651913
 51
-53.95970582313567
 73
     0
 97
        0
 75
     0
 76
     1
 98
        1
 10
2622.13783960507
 20
-2891.892941847362
  0
HATCH
  5
4626
330
1F
100
AcDbEntity
  8
PV
  6
Continuous
 62
     7
100
AcDbHatch
 10
0.0
 20
0.0
 30
0.0
210
0.0
220
0.0
230
1.0
  2
SOLID
 70
     1
 71
     0
 91
        1
 92
        1
 93
       10
 72
     2
 10
1717.762716582373
 20
763.2073449670897
 40
0.5218125147185081
 50
-55.56102143017113
 51
126.8601626961496
 73
     0
 72
     2
 10
1711.067889830667
 20
754.033193661051
 40
10.83542279457828
 50
413.915583756543
 51
448.3502191648108
 73
     1
 72
     2
 10
1712.965586148776
 20
750.3173268328737
 40
14.6329735970691
 50
96.22123471184064
 51
121.6279578929714
 73
     1
 72
     2
 10
1697.618466027515
 20
775.236446664132
 40
14.63299006690428
 50
58.37201294240715
 51
83.7789706944844
 73
     0
 72
     2
 10
1699.51689895574
 20
771.5199291530771
 40
10.8348171169727
 50
91.65403643606598
 51
126.0856279928586
 73
     0
 72
     2
 10
1693.411342413609
 20
763.2070147942576
 40
0.5220796617779311
 50
121.9252339069229
 51
304.4383466548142
 73
     0
 72
     2
 10
1699.527675699615
 20
771.5497171888146
 40
9.82276833271681
 50
233.6574390598193
 51
267.9725313864229
 73
     1
 72
     2
 10
1697.578708952872
 20
775.3469237368808
 40
13.70769466757861
 50
276.7091071470136
 51
301.8714993634422
 73
     1
 72
     2
 10
1712.933443677065
 20
750.4108070499096
 40
15.57697649027608
 50
238.5952669216548
 51
264.1871768584493
 73
     0
 72
     2
 10
1711.069766743405
 20
754.0345334485445
 40
11.87659977219002
 50
-88.61985365120329
 51
-53.95729650835975
 73
     0
 97
        0
 75
     0
 76
     1
 98
        1
 10
2622.13783960507
 20
-2891.892941847362
  0
HATCH
  5
4627
330
1F
100
AcDbEntity
  8
PV
  6
Continuous
 62
     7
100
AcDbHatch
 10
0.0
 20
0.0
 30
0.0
210
0.0
220
0.0
230
1.0
  2
SOLID
 70
     1
 71
     0
 91
        1
 92
        1
 93
       10
 72
     2
 10
1717.762716582373
 20
770.8604947696349
 40
0.5218125147185081
 50
-55.56102143017113
 51
126.8601626961496
 73
     0
 72
     2
 10
1711.067483561428
 20
761.6867923309091
 40
10.83529934168497
 50
413.9124496351639
 51
448.348117421832
 73
     1
 72
     2
 10
1712.965512459824
 20
757.9707879637171
 40
14.63296964006813
 50
96.22099549049877
 51
121.6278913396784
 73
     1
 72
     2
 10
1697.618391633706
 20
782.8898809800648
 40
14.63297156147133
 50
58.37188897986945
 51
83.77864297573081
 73
     0
 72
     2
 10
1699.516893573996
 20
779.1733908148726
 40
10.83481664463896
 50
91.65397203525328
 51
126.0856265855325
 73
     0
 72
     2
 10
1693.411342185503
 20
770.8604742680436
 40
0.5220800782791662
 50
121.9258080326524
 51
304.4383456657259
 73
     0
 72
     2
 10
1699.528075424302
 20
779.2027278977493
 40
9.822643476212506
 50
233.6540085178531
 51
267.9701725357507
 73
     1
 72
     2
 10
1697.578036634797
 20
783.000148225974
 40
13.70784740449974
 50
276.7118615739633
 51
301.8743642293088
 73
     1
 72
     2
 10
1712.932867340948
 20
758.0637628084823
 40
15.57710875494856
 50
238.5980062305825
 51
264.1893248285984
 73
     0
 72
     2
 10
1711.069772364955
 20
761.6876813469716
 40
11.87659800416674
 50
-88.61992284999233
 51
-53.95732384176232
 73
     0
 97
        0
 75
     0
 76
     1
 98
        1
 10
2622.13783960507
 20
-2891.892941847362
  0
HATCH
  5
4628
330
1F
100
AcDbEntity
  8
PV
  6
Continuous
 62
     7
100
AcDbHatch
 10
0.0
 20
0.0
 30
0.0
210
0.0
220
0.0
230
1.0
  2
SOLID
 70
     1
 71
     0
 91
        3
 92
        1
 93
        6
 72
     1
 10
1662.335788221757
 20
730.6304600602707
 11
1662.335788221757
 21
738.4525705928718
 72
     2
 10
1660.835788251844
 20
738.4525706584408
 40
1.499999969912124
 50
359.9999974955218
 51
480.000000834826
 73
     1
 72
     1
 10
1660.085788247961
 20
739.7516087271323
 11
1653.311467190567
 21
735.8407084290229
 72
     2
 10
1654.06146719445
 20
734.5416703603332
 40
1.499999969912124
 50
120.000000834826
 51
239.9999973439411
 73
     1
 72
     1
 10
1653.311467149275
 20
733.2426323154796
 11
1660.085788206669
 21
729.3314219975327
 72
     2
 10
1660.835788251844
 20
730.6304600423827
 40
1.499999969912124
 50
239.9999973439411
 51
360.0000006832453
 73
     1
 97
        0
 92
        1
 93
        6
 72
     2
 10
1658.766638325991
 20
734.5416703603332
 40
0.843631729352532
 50
269.6681397775638
 51
450.3190891351789
 73
     1
 72
     2
 10
1655.135957442316
 20
708.9782547102077
 40
26.65481588940703
 50
442.1815383014596
 51
449.5278823155574
 73
     1
 72
     2
 10
1654.909484174227
 20
703.2687154832383
 40
32.36652470313448
 50
449.210269265476
 51
451.191329383728
 73
     1
 72
     2
 10
1654.237171840481
 20
734.5416334731926
 40
1.086610585170404
 50
90.03290447385138
 51
272.7654857109452
 73
     1
 72
     2
 10
1654.987816607891
 20
765.8062216865964
 40
32.35746735398462
 50
268.7635607438179
 51
270.6512010436023
 73
     1
 72
     2
 10
1655.133242370021
 20
760.103975903261
 40
26.65405893991995
 50
270.4779245145072
 51
277.8241682615026
 73
     1
 97
        0
 92
        1
 93
        4
 72
     2
 10
1660.796648246879
 20
734.5900334555771
 40
1.068421469927931
 50
92.85606601299905
 51
182.5966833325661
 73
     1
 72
     2
 10
1660.79664850981
 20
734.4929969559579
 40
1.068432017548358
 50
177.3911842049708
 51
267.1432635329856
 73
     1
 72
     2
 10
1660.690161707332
 20
734.4930030487448
 40
1.068437507744903
 50
272.8560806723317
 51
362.5958611470964
 73
     1
 72
     2
 10
1660.690171535267
 20
734.5900168377993
 40
1.068438266062771
 50
357.3916354182088
 51
447.1437644910936
 73
     1
 97
        0
 75
     0
 76
     1
 98
        1
 10
2622.13783960507
 20
-2891.892941847362
  0
SPLINE
  5
4629
330
1F
100
AcDbEntity
  8
PV
  6
Continuous
 62
     3
100
AcDbSpline
210
0.0
220
0.0
230
1.0
 70
     8
 71
     3
 72
    71
 73
    67
 74
    65
 42
0.0000000001
 43
0.0000000001
 44
0.000001
 12
0.8247288411887147
 22
-0.5655283710933697
 32
0.0
 13
0.8247288386802773
 23
-0.5655283747515071
 33
0.0
 40
0.0
 40
0.0
 40
0.0
 40
0.0
 40
0.3743974218697296
 40
0.7522217456980948
 40
1.132394260929392
 40
1.513869640127188
 40
1.895639166451478
 40
2.276735154569025
 40
2.656236725395581
 40
3.03327715882589
 40
3.407053114336053
 40
3.776836074056095
 40
4.141986418937225
 40
4.501970581458918
 40
4.856381703047177
 40
5.204964123719883
 40
5.547641794109497
 40
5.884550265327909
 40
6.219507742103281
 40
6.557267070217489
 40
6.899257241038671
 40
7.246567184841848
 40
7.599973937370481
 40
7.959978319098955
 40
8.326843592780207
 40
8.700633794402044
 40
9.08124966822959
 40
9.46846115692492
 40
9.861936130450555
 40
10.26126550195555
 40
10.66598513345273
 40
11.07559504306383
 40
11.48957644308725
 40
11.9074071031993
 40
12.32858564249431
 40
12.75260633563057
 40
13.1790183745525
 40
13.6074196194725
 40
14.03746839758485
 40
14.46889494266286
 40
14.9015123371449
 40
15.335226691036
 40
15.77004616497574
 40
16.20608833855062
 40
16.6435853746567
 40
17.08288648671989
 40
17.52445743661007
 40
17.96887722337906
 40
18.41683276373769
 40
18.86911311423209
 40
19.32331959525853
 40
19.77677704698274
 40
20.22984841070275
 40
20.68277869156731
 40
21.13569634204578
 40
21.58861719767154
 40
22.04145045752493
 40
22.49400614629518
 40
22.94600353832831
 40
23.39708011854883
 40
23.84680076729383
 40
24.29466696597235
 40
24.74012591907473
 40
25.18257957334537
 40
25.62139358863045
 40
26.05590638194329
 40
26.05590638194329
 40
26.05590638194329
 40
26.05590638194329
 10
1693.706648781111
 20
755.9852153256561
 30
0.0
 10
1693.809574231738
 20
755.9146378709456
 30
0.0
 10
1694.018420392504
 20
755.7758048804507
 30
0.0
 10
1694.338722762476
 20
755.5759936582676
 30
0.0
 10
1694.666813668212
 20
755.384510244474
 30
0.0
 10
1695.001690165402
 20
755.2023838787428
 30
0.0
 10
1695.342345456035
 20
755.0306156978684
 30
0.0
 10
1695.687762725288
 20
754.8701809727381
 30
0.0
 10
1696.036916637061
 20
754.72202557173
 30
0.0
 10
1696.388773909567
 20
754.5870627128989
 30
0.0
 10
1696.742295723079
 20
754.4661684613961
 30
0.0
 10
1697.09644179998
 20
754.360176555517
 30
0.0
 10
1697.450176864026
 20
754.2698727530344
 30
0.0
 10
1697.802480198935
 20
754.1959891788692
 30
0.0
 10
1698.152358517158
 20
754.1391996958965
 30
0.0
 10
1698.498864289025
 20
754.1001167373779
 30
0.0
 10
1698.841113737914
 20
754.0792941087816
 30
0.0
 10
1699.17947179362
 20
754.0772204989333
 30
0.0
 10
1699.515740490232
 20
754.0947342527571
 30
0.0
 10
1699.85220679761
 20
754.1307848962039
 30
0.0
 10
1700.190442870945
 20
754.1846042942331
 30
0.0
 10
1700.530850559062
 20
754.2553778382072
 30
0.0
 10
1700.873688104219
 20
754.3422530014577
 30
0.0
 10
1701.219098352047
 20
754.4443193827035
 30
0.0
 10
1701.567142046772
 20
754.5605970300035
 30
0.0
 10
1701.917827106493
 20
754.6900342372413
 30
0.0
 10
1702.271133545895
 20
754.8315110252538
 30
0.0
 10
1702.627033100499
 20
754.9838460992855
 30
0.0
 10
1702.985503979801
 20
755.1458052681035
 30
0.0
 10
1703.346541443168
 20
755.3161100206978
 30
0.0
 10
1703.71016512143
 20
755.4934453265802
 30
0.0
 10
1704.076423756784
 20
755.676466494151
 30
0.0
 10
1704.445398672899
 20
755.8638036769119
 30
0.0
 10
1704.817207248422
 20
756.0540699503526
 30
0.0
 10
1705.192001030422
 20
756.2458486461857
 30
0.0
 10
1705.569966126073
 20
756.4377075064445
 30
0.0
 10
1705.951316979008
 20
756.6282023637523
 30
0.0
 10
1706.336309560124
 20
756.815868417068
 30
0.0
 10
1706.725232968466
 20
756.9992162877549
 30
0.0
 10
1707.118407137407
 20
757.1767256177702
 30
0.0
 10
1707.516178241109
 20
757.3468380996729
 30
0.0
 10
1707.91891169118
 20
757.5079488857264
 30
0.0
 10
1708.326981645014
 20
757.6583971675786
 30
0.0
 10
1708.740756109499
 20
757.7964566779476
 30
0.0
 10
1709.160576739326
 20
757.9203275399837
 30
0.0
 10
1709.586732987825
 20
758.0281314446756
 30
0.0
 10
1710.019430627682
 20
758.1179130430911
 30
0.0
 10
1710.458757893853
 20
758.1876498839403
 30
0.0
 10
1710.904647427557
 20
758.2352765997756
 30
0.0
 10
1711.355766041734
 20
758.2586575702124
 30
0.0
 10
1711.809316926539
 20
758.2560099656189
 30
0.0
 10
1712.262277578645
 20
758.2285918666864
 30
0.0
 10
1712.712779838805
 20
758.1779257236806
 30
0.0
 10
1713.160090786842
 20
758.1054718094645
 30
0.0
 10
1713.603547285171
 20
758.0126233209723
 30
0.0
 10
1714.042529559835
 20
757.9007077338425
 30
0.0
 10
1714.47644423347
 20
757.7709901722955
 30
0.0
 10
1714.904710621549
 20
757.6246792032564
 30
0.0
 10
1715.326751249897
 20
757.4629332204007
 30
0.0
 10
1715.741985454807
 20
757.2868667403459
 30
0.0
 10
1716.149825421186
 20
757.0975561093924
 30
0.0
 10
1716.549674221631
 20
756.896044220084
 30
0.0
 10
1716.940924610139
 20
756.6833446182057
 30
0.0
 10
1717.322960989834
 20
756.4604430346936
 30
0.0
 10
1717.695153896465
 20
756.2283033729596
 30
0.0
 10
1717.937627971745
 20
756.0671250943088
 30
0.0
 10
1718.057079715552
 20
755.9852153230385
 30
0.0
 11
1693.706648781111
 21
755.9852153256561
 31
0.0
 11
1694.018440748002
 21
755.7779493156958
 31
0.0
 11
1694.339014935102
 21
755.5779907943943
 31
0.0
 11
1694.667376143546
 21
755.3863921040884
 31
0.0
 11
1695.002521787571
 21
755.2041810664832
 31
0.0
 11
1695.34344063711
 21
755.0323604936202
 31
0.0
 11
1695.689112015686
 21
754.8719066055637
 31
0.0
 11
1696.038505659959
 21
754.7237663895466
 31
0.0
 11
1696.390582522414
 21
754.5888539313946
 31
0.0
 11
1696.74429689219
 21
754.4680457796348
 31
0.0
 11
1697.098600316588
 21
754.3621754780415
 31
0.0
 11
1697.452447915979
 21
754.2720275397841
 31
0.0
 11
1697.804807774133
 21
754.1983313551609
 31
0.0
 11
1698.154674112001
 21
754.1417558416196
 31
0.0
 11
1698.501084849015
 21
754.1029060632027
 31
0.0
 11
1698.843143828527
 21
754.0823235385942
 31
0.0
 11
1699.18004732368
 21
754.080492437155
 31
0.0
 11
1699.514561587563
 21
754.0977179561923
 31
0.0
 11
1699.850423779686
 21
754.1334664055412
 31
0.0
 11
1700.188205775935
 21
754.1869509822754
 31
0.0
 11
1700.528300074787
 21
754.2573787108558
 31
0.0
 11
1700.870948303917
 21
754.3439149680343
 31
0.0
 11
1701.216275437485
 21
754.4456613472611
 31
0.0
 11
1701.564324086407
 21
754.5616452556987
 31
0.0
 11
1701.915085263609
 21
754.6908184394342
 31
0.0
 11
1702.268523886703
 21
754.8320614325875
 31
0.0
 11
1702.624598646928
 21
754.984191318239
 31
0.0
 11
1702.983276703597
 21
755.145970817728
 31
0.0
 11
1703.344544058581
 21
755.3161173580101
 31
0.0
 11
1703.708412565868
 21
755.4933112899707
 31
0.0
 11
1704.074924462088
 21
755.6762028096782
 31
0.0
 11
1704.444155154379
 21
755.8634173802529
 31
0.0
 11
1704.816214826788
 21
756.0535595920228
 31
0.0
 11
1705.191260778459
 21
756.2452152626883
 31
0.0
 11
1705.569460155934
 21
756.4369410540803
 31
0.0
 11
1705.951029092745
 21
756.6272890863747
 31
0.0
 11
1706.336218373374
 21
756.8147906723352
 31
0.0
 11
1706.725311822858
 21
756.9979524563532
 31
0.0
 11
1707.118623518607
 21
757.1752510005808
 31
0.0
 11
1707.516493264988
 21
757.3451258807818
 31
0.0
 11
1707.919279597267
 21
757.5059714940253
 31
0.0
 11
1708.327349433336
 21
757.6561280250461
 31
0.0
 11
1708.74106342337
 21
757.7938723954794
 31
0.0
 11
1709.160756148332
 21
757.917410540258
 31
0.0
 11
1709.586710711705
 21
758.0248729848681
 31
0.0
 11
1710.019128094899
 21
758.1143163216729
 31
0.0
 11
1710.458093004802
 21
758.1837335727396
 31
0.0
 11
1710.903539790742
 21
758.231076228285
 31
0.0
 11
1711.355224035146
 21
758.254289560662
 31
0.0
 11
1711.809424078122
 21
758.2518712208566
 31
0.0
 11
1712.26206679868
 21
758.2247008684516
 31
0.0
 11
1712.712324332394
 21
758.174284462817
 31
0.0
 11
1713.159460773965
 21
758.1020706002764
 31
0.0
 11
1713.602805770951
 21
758.009444406558
 31
0.0
 11
1714.041732398143
 21
757.8977272753618
 31
0.0
 11
1714.475639684572
 21
757.7681802645401
 31
0.0
 11
1714.903939511581
 21
757.6220094411073
 31
0.0
 11
1715.326047277347
 21
757.4603719563328
 31
0.0
 11
1715.741375621495
 21
757.2843820481812
 31
0.0
 11
1716.149330530449
 21
757.0951164829893
 31
0.0
 11
1716.549309233494
 21
756.8936191653156
 31
0.0
 11
1716.940699409312
 21
756.6809047812894
 31
0.0
 11
1717.322879329859
 21
756.4579614151443
 31
0.0
 11
1717.695218661195
 21
756.2257521079427
 31
0.0
 11
1718.057079715552
 21
755.9852153230385
 31
0.0
  0
SPLINE
  5
462A
330
1F
100
AcDbEntity
  8
PV
  6
Continuous
 62
     3
100
AcDbSpline
210
0.0
220
0.0
230
1.0
 70
     8
 71
     3
 72
    15
 73
    11
 74
     9
 42
0.0000000001
 43
0.0000000001
 44
0.000001
 12
0.8247288411887147
 22
-0.5655283710933697
 32
0.0
 13
0.8247288386802773
 23
-0.5655283747515071
 33
0.0
 40
0.0
 40
0.0
 40
0.0
 40
0.0
 40
3.289055100699642
 40
6.50920518786777
 40
9.66874434692183
 40
12.98440581891531
 40
16.29992210882798
 40
19.45937762144662
 40
22.67943342459206
 40
25.96827561907176
 40
25.96827561907176
 40
25.96827561907176
 40
25.96827561907176
 10
1693.116449218181
 20
755.1245076644918
 30
0.0
 10
1694.02064208545
 20
754.5044896733135
 30
0.0
 10
1695.949671022687
 20
753.4743477275631
 30
0.0
 10
1699.191960759342
 20
752.7835361532774
 30
0.0
 10
1702.394202703753
 20
753.629427746149
 30
0.0
 10
1705.291520740176
 20
755.1245852402001
 30
0.0
 10
1708.189181513699
 20
756.6191409002292
 30
0.0
 10
1711.391375339611
 20
757.4643196470533
 30
0.0
 10
1714.633532635134
 20
756.7742004799851
 30
0.0
 10
1716.562745814253
 20
755.7444855248445
 30
0.0
 10
1717.466880148805
 20
755.1245076644918
 30
0.0
 11
1693.116449218181
 21
755.1245076644918
 31
0.0
 11
1696.034878916341
 21
753.6077177804473
 31
0.0
 11
1699.204076327077
 21
753.0371440729632
 31
0.0
 11
1702.289663457303
 21
753.7167320064764
 31
0.0
 11
1705.291625931013
 21
755.1245076644918
 31
0.0
 11
1708.293651898941
 21
756.5318059116889
 31
0.0
 11
1711.379253039909
 21
757.2109411964993
 31
0.0
 11
1714.548432835586
 21
756.6408019169885
 31
0.0
 11
1717.466880148805
 21
755.1245076644918
 31
0.0
  0
SPLINE
  5
462B
330
1F
100
AcDbEntity
  8
PV
  6
Continuous
 62
     3
100
AcDbSpline
210
0.0
220
0.0
230
1.0
 70
     8
 71
     3
 72
    71
 73
    67
 74
    65
 42
0.0000000001
 43
0.0000000001
 44
0.000001
 12
0.8247288355466377
 22
-0.5655283793213981
 32
0.0
 13
0.8247288386802773
 23
-0.5655283747515071
 33
0.0
 40
0.0
 40
0.0
 40
0.0
 40
0.0
 40
0.3744141430057836
 40
0.752256744368111
 40
1.132448313628999
 40
1.51394277675366
 40
1.895730704260948
 40
2.276843734804386
 40
2.656360354778263
 40
3.033413258464888
 40
3.407198579098843
 40
3.776987346172458
 40
4.142139580455594
 40
4.502121471073063
 40
4.856526063718836
 40
5.205097788069737
 40
5.547760914360028
 40
5.884651593080738
 40
6.219591709715108
 40
6.557336132242394
 40
6.89931471500436
 40
7.246616920576342
 40
7.60002003126449
 40
7.960024881908208
 40
8.326894571502512
 40
8.700692843701746
 40
9.081320064552285
 40
9.468545747954989
 40
9.86203731324738
 40
10.26138522430104
 40
10.66612491424989
 40
11.07575600881014
 40
11.48975937850596
 40
11.90761251485425
 40
12.32879105414926
 40
12.75281174728552
 40
13.17922378620745
 40
13.60762503112824
 40
14.03767380924064
 40
14.46910035431865
 40
14.90171774880069
 40
15.33543210269196
 40
15.77025157663
 40
16.20629375020545
 40
16.64379078631188
 40
17.0830918983742
 40
17.52466284826401
 40
17.96908263503391
 40
18.41703817539201
 40
18.86931852588622
 40
19.32352500691266
 40
19.77698245863676
 40
20.23005382235696
 40
20.68298410322153
 40
21.13590175369999
 40
21.58882260932575
 40
22.04165586917915
 40
22.49421155794882
 40
22.94620894998174
 40
23.39728553020239
 40
23.84700617894816
 40
24.29487237762423
 40
24.74033133072915
 40
25.18278498499795
 40
25.621599000284
 40
26.05611179359684
 40
26.05611179359684
 40
26.05611179359684
 40
26.05611179359684
 10
1693.706648789698
 20
763.6386751421541
 30
0.0
 10
1693.809578836422
 20
763.5680945343245
 30
0.0
 10
1694.018433643375
 20
763.4292535465435
 30
0.0
 10
1694.338747117732
 20
763.2294261603632
 30
0.0
 10
1694.666848021876
 20
763.0379226482358
 30
0.0
 10
1695.00173331182
 20
762.8557730727329
 30
0.0
 10
1695.342396072306
 20
762.6839793982003
 30
0.0
 10
1695.687819355837
 20
762.523517718672
 30
0.0
 10
1696.0369776747
 20
762.3753347157411
 30
0.0
 10
1696.388837576481
 20
762.2403444025997
 30
0.0
 10
1696.742360053489
 20
762.1194236122845
 30
0.0
 10
1697.096504627727
 20
762.0134068131244
 30
0.0
 10
1697.450235819424
 20
761.923080443482
 30
0.0
 10
1697.80253272074
 20
761.8491772484806
 30
0.0
 10
1698.152401886615
 20
761.7923716392696
 30
0.0
 10
1698.498895695486
 20
761.7532765276443
 30
0.0
 10
1698.841130380031
 20
761.7324461050241
 30
0.0
 10
1699.179471955516
 20
761.7303694508852
 30
0.0
 10
1699.515723932522
 20
761.7478853631448
 30
0.0
 10
1699.852174900608
 20
761.783942683091
 30
0.0
 10
1700.190397736073
 20
761.8377730638221
 30
0.0
 10
1700.530794541191
 20
761.9085615689672
 30
0.0
 10
1700.873623662599
 20
761.9954552993308
 30
0.0
 10
1701.219027948046
 20
762.0975433889898
 30
0.0
 10
1701.567068088386
 20
762.2138453316448
 30
0.0
 10
1701.917751930401
 20
762.3433087823409
 30
0.0
 10
1702.271059427223
 20
762.4848130525777
 30
0.0
 10
1702.626962281214
 20
762.6371760823202
 30
0.0
 10
1702.985438707131
 20
762.7991628751815
 30
0.0
 10
1703.346484017465
 20
762.9694940794588
 30
0.0
 10
1703.710117931734
 20
763.1468538253
 30
0.0
 10
1704.076389371765
 20
763.329896480936
 30
0.0
 10
1704.445379721348
 20
763.5172515697522
 30
0.0
 10
1704.817200332789
 20
763.7075268394471
 30
0.0
 10
1705.19200109704
 20
763.8993083387163
 30
0.0
 10
1705.569966108062
 20
764.0911673639376
 30
0.0
 10
1705.95131698387
 20
764.2816621766611
 30
0.0
 10
1706.336309558813
 20
764.469328242012
 30
0.0
 10
1706.72523296882
 20
764.652676109452
 30
0.0
 10
1707.118407137313
 20
764.8301854403414
 30
0.0
 10
1707.516178241134
 20
765.0002979220094
 30
0.0
 10
1707.918911691175
 20
765.1614087081233
 30
0.0
 10
1708.326981645017
 20
765.3118569899593
 30
0.0
 10
1708.740756109498
 20
765.4499165003357
 30
0.0
 10
1709.160576739327
 20
765.5737873623668
 30
0.0
 10
1709.586732987824
 20
765.6815912670606
 30
0.0
 10
1710.019430627683
 20
765.7713728654735
 30
0.0
 10
1710.458757893853
 20
765.8411097063212
 30
0.0
 10
1710.904647427557
 20
765.8887364221644
 30
0.0
 10
1711.355766041734
 20
765.912117392593
 30
0.0
 10
1711.809316926539
 20
765.9094697880034
 30
0.0
 10
1712.262277578645
 20
765.8820516890736
 30
0.0
 10
1712.712779838805
 20
765.8313855460639
 30
0.0
 10
1713.160090786842
 20
765.7589316318491
 30
0.0
 10
1713.603547285171
 20
765.6660831433566
 30
0.0
 10
1714.042529559834
 20
765.5541675562269
 30
0.0
 10
1714.47644423347
 20
765.424449994679
 30
0.0
 10
1714.904710621549
 20
765.2781390256438
 30
0.0
 10
1715.326751249896
 20
765.1163930427833
 30
0.0
 10
1715.741985454808
 20
764.9403265627336
 30
0.0
 10
1716.149825421183
 20
764.7510159317751
 30
0.0
 10
1716.549674221633
 20
764.5495040424736
 30
0.0
 10
1716.940924610137
 20
764.3368044405884
 30
0.0
 10
1717.322960989836
 20
764.113902857083
 30
0.0
 10
1717.695153896463
 20
763.8817631953449
 30
0.0
 10
1717.937627971745
 20
763.7205849166949
 30
0.0
 10
1718.057079715552
 20
763.6386751454247
 30
0.0
 11
1693.706648789698
 21
763.6386751421541
 31
0.0
 11
1694.018453189874
 21
763.4313976312824
 31
0.0
 11
1694.339038788558
 21
763.2314228695722
 31
0.0
 11
1694.667410294006
 21
763.0398040193849
 31
0.0
 11
1695.002565017747
 21
762.8575697291198
 31
0.0
 11
1695.34349161274
 21
762.6857236397918
 31
0.0
 11
1695.689169267822
 21
762.5252427972372
 31
0.0
 11
1696.03856756497
 21
762.3770750045605
 31
0.0
 11
1696.390647281233
 21
762.2421351454595
 31
0.0
 11
1696.744362510964
 21
762.1213005387544
 31
0.0
 11
1697.09866459185
 21
762.0154054598606
 31
0.0
 11
1697.452508428741
 21
761.9252351027771
 31
0.0
 11
1697.804861898795
 21
761.8515194754436
 31
0.0
 11
1698.154719047649
 21
761.7949280389548
 31
0.0
 11
1698.501117681967
 21
761.7560663205185
 31
0.0
 11
1698.843161635322
 21
761.7354762235663
 31
0.0
 11
1699.180047322035
 21
761.7336422396619
 31
0.0
 11
1699.51454410279
 21
761.7508697001667
 31
0.0
 11
1699.850390615646
 21
761.7866246264129
 31
0.0
 11
1700.188159176448
 21
761.8401199570653
 31
0.0
 11
1700.528242519301
 21
761.9105624294024
 31
0.0
 11
1700.870882351551
 21
761.9971170595491
 31
0.0
 11
1701.216203624742
 21
762.0988849855803
 31
0.0
 11
1701.564248873806
 21
762.2148930617949
 31
0.0
 11
1701.915009021358
 21
762.3440923930175
 31
0.0
 11
1702.268448908374
 21
762.4853627986886
 31
0.0
 11
1702.624527181183
 21
762.6375205902077
 31
0.0
 11
1702.983210996263
 21
762.7993276752058
 31
0.0
 11
1703.344486399643
 21
762.9695006371457
 31
0.0
 11
1703.708365337976
 21
763.1467189625454
 31
0.0
 11
1704.07489018862
 21
763.329631967801
 31
0.0
 11
1704.44413654612
 21
763.5168642235494
 31
0.0
 11
1704.816214826788
 21
763.7070194144089
 31
0.0
 11
1705.191260778459
 21
763.8986750850745
 31
0.0
 11
1705.569460155934
 21
764.0904008764664
 31
0.0
 11
1705.951029092745
 21
764.2807489087608
 31
0.0
 11
1706.336218373374
 21
764.4682504947232
 31
0.0
 11
1706.725311822859
 21
764.6514122787394
 31
0.0
 11
1707.118623518608
 21
764.8287108229669
 31
0.0
 11
1707.516493264989
 21
764.9985857031679
 31
0.0
 11
1707.919279597269
 21
765.1594313164096
 31
0.0
 11
1708.327349433336
 21
765.3095878474305
 31
0.0
 11
1708.74106342337
 21
765.4473322178655
 31
0.0
 11
1709.160756148333
 21
765.5708703626423
 31
0.0
 11
1709.586710711705
 21
765.6783328072524
 31
0.0
 11
1710.019128094899
 21
765.7677761440554
 31
0.0
 11
1710.458093004803
 21
765.8371933951221
 31
0.0
 11
1710.903539790742
 21
765.8845360506711
 31
0.0
 11
1711.355224035146
 21
765.9077493830445
 31
0.0
 11
1711.809424078122
 21
765.9053310432409
 31
0.0
 11
1712.26206679868
 21
765.8781606908378
 31
0.0
 11
1712.712324332394
 21
765.8277442852013
 31
0.0
 11
1713.159460773965
 21
765.7555304226607
 31
0.0
 11
1713.602805770951
 21
765.6629042289424
 31
0.0
 11
1714.041732398143
 21
765.5511870977461
 31
0.0
 11
1714.475639684572
 21
765.4216400869245
 31
0.0
 11
1714.903939511581
 21
765.2754692634935
 31
0.0
 11
1715.326047277346
 21
765.1138317787172
 31
0.0
 11
1715.741375621495
 21
764.9378418705673
 31
0.0
 11
1716.149330530449
 21
764.7485763053737
 31
0.0
 11
1716.549309233492
 21
764.5470789877036
 31
0.0
 11
1716.940699409312
 21
764.3343646036737
 31
0.0
 11
1717.322879329859
 21
764.1114212375323
 31
0.0
 11
1717.695218661195
 21
763.8792119303289
 31
0.0
 11
1718.057079715552
 21
763.6386751454247
 31
0.0
  0
SPLINE
  5
462C
330
1F
100
AcDbEntity
  8
PV
  6
Continuous
 62
     3
100
AcDbSpline
210
0.0
220
0.0
230
1.0
 70
     8
 71
     3
 72
    15
 73
    11
 74
     9
 42
0.0000000001
 43
0.0000000001
 44
0.000001
 12
0.8247288355466377
 22
-0.5655283793213981
 32
0.0
 13
0.8247288386802773
 23
-0.5655283747515071
 33
0.0
 40
0.0
 40
0.0
 40
0.0
 40
0.0
 40
3.289126643173095
 40
6.509304178704447
 40
9.6688641466143
 40
12.98460440207304
 40
16.30012069198494
 40
19.45957620460319
 40
22.67963200774863
 40
25.96847420222665
 40
25.96847420222665
 40
25.96847420222665
 40
25.96847420222665
 10
1693.116449218181
 20
762.7779674868797
 30
0.0
 10
1694.020661746978
 20
762.1579360002477
 30
0.0
 10
1695.949636229778
 20
761.1276725846762
 30
0.0
 10
1699.191962569127
 20
760.436601357799
 30
0.0
 10
1702.394219414465
 20
761.2827545078737
 30
0.0
 10
1705.291478395057
 20
762.7780620098175
 30
0.0
 10
1708.189186343976
 20
764.2725933676887
 30
0.0
 10
1711.391374039468
 20
765.1177814491274
 30
0.0
 10
1714.633533018195
 20
764.4276597190915
 30
0.0
 10
1716.562745814253
 20
763.3979453472322
 30
0.0
 10
1717.466880148805
 20
762.7779674868797
 30
0.0
 11
1693.116449218181
 21
762.7779674868797
 31
0.0
 11
1696.034878916619
 21
761.2610224746568
 31
0.0
 11
1699.204076327077
 21
760.6902938755065
 31
0.0
 11
1702.289651935588
 21
761.3700308503576
 31
0.0
 11
1705.291625931013
 21
762.7779674868797
 31
0.0
 11
1708.293651898941
 21
764.185265734075
 31
0.0
 11
1711.379253039909
 21
764.8644010188836
 31
0.0
 11
1714.548432835586
 21
764.2942617393728
 31
0.0
 11
1717.466880148805
 21
762.7779674868797
 31
0.0
  0
SPLINE
  5
462D
330
1F
100
AcDbEntity
  8
PV
  6
Continuous
 62
     3
100
AcDbSpline
210
0.0
220
0.0
230
1.0
 70
     8
 71
     3
 72
    71
 73
    67
 74
    65
 42
0.0000000001
 43
0.0000000001
 44
0.000001
 12
0.8247288543535672
 22
-0.5655283518946265
 32
0.0
 13
0.8247288305300797
 23
-0.5655283866372112
 33
0.0
 40
0.0
 40
0.0
 40
0.0
 40
0.0
 40
0.3744143795686823
 40
0.7522571341780447
 40
1.132448783894373
 40
1.513943265302553
 40
1.895731159694729
 40
2.276844116727464
 40
2.656360634091982
 40
3.033413417712934
 40
3.407198612872641
 40
3.77698726155878
 40
4.142139397498846
 40
4.502121223233015
 40
4.856525798259969
 40
5.205097566315704
 40
5.547760811699745
 40
5.884651698570869
 40
6.219592403573919
 40
6.557336411208154
 40
6.899313774187856
 40
7.246614167248604
 40
7.600015088811574
 40
7.960017586731829
 40
8.326884965493437
 40
8.700681164420664
 40
9.081306734651661
 40
9.468531364802645
 40
9.862022639283233
 40
10.26137117830432
 40
10.66611256345958
 40
11.0757465617278
 40
11.48975417805012
 40
11.90761303153093
 40
12.32880502541327
 40
12.75283443595494
 40
13.17925102346414
 40
13.60765321192906
 40
14.03769987281576
 40
14.4691217500983
 40
14.90173238794639
 40
15.33543829555816
 40
15.77024795692519
 40
16.20627918743318
 40
16.64376428926695
 40
17.08305251379449
 40
17.52460955997302
 40
17.96901426948462
 40
18.41695331868998
 40
18.86921545464785
 40
19.32340399683683
 40
19.77684565967478
 40
20.22990289561965
 40
20.6828203255573
 40
21.13572613228312
 40
21.58863600080064
 40
22.04145909868038
 40
22.49400553454453
 40
22.94599477629365
 40
23.3970646050531
 40
23.84678029270987
 40
24.29464380053645
 40
24.74010289483819
 40
25.18256016060004
 40
25.62138196779309
 40
26.05590751173879
 40
26.05590751173879
 40
26.05590751173879
 40
26.05590751173879
 10
1693.706648761074
 20
771.2921349841654
 30
0.0
 10
1693.809578875179
 20
771.2215543351643
 30
0.0
 10
1694.018433790525
 20
771.0827132759507
 30
0.0
 10
1694.33874739011
 20
770.8828857945117
 30
0.0
 10
1694.666848354531
 20
770.6913822191491
 30
0.0
 10
1695.00173364986
 20
770.5092326078067
 30
0.0
 10
1695.342396370904
 20
770.3374389204343
 30
0.0
 10
1695.687819580325
 20
770.1769772468247
 30
0.0
 10
1696.036977800736
 20
770.0287942644613
 30
0.0
 10
1696.388837590288
 20
769.8938039825418
 30
0.0
 10
1696.742359952198
 20
769.772883230253
 30
0.0
 10
1697.096504419799
 20
769.6668664722835
 30
0.0
 10
1697.450235525165
 20
769.5765401435121
 30
0.0
 10
1697.802532372879
 20
769.5026369864464
 30
0.0
 10
1698.152401530936
 20
769.4458314086715
 30
0.0
 10
1698.498895391274
 20
769.4067363248721
 30
0.0
 10
1698.84113020089
 20
769.3859059101527
 30
0.0
 10
1699.179472080759
 20
769.3838293026993
 30
0.0
 10
1699.515724187383
 20
769.4013450876967
 30
0.0
 10
1699.85217484457
 20
769.4374020072075
 30
0.0
 10
1700.190396614123
 20
769.4912317687465
 30
0.0
 10
1700.530791809575
 20
769.5620194637331
 30
0.0
 10
1700.87361898371
 20
769.6489122569578
 30
0.0
 10
1701.219021181544
 20
769.7509993527765
 30
0.0
 10
1701.567059279604
 20
769.8673003237382
 30
0.0
 10
1701.917741298433
 20
769.9967629064468
 30
0.0
 10
1702.271047353867
 20
770.1382664940311
 30
0.0
 10
1702.626949301077
 20
770.2906291063593
 30
0.0
 10
1702.985425500181
 20
770.4526158221285
 30
0.0
 10
1703.346471399105
 20
770.6229473665419
 30
0.0
 10
1703.710106858238
 20
770.8003079200383
 30
0.0
 10
1704.076380891224
 20
770.9833519817294
 30
0.0
 10
1704.445375133525
 20
771.1707088794589
 30
0.0
 10
1704.817202380902
 20
771.3609883156309
 30
0.0
 10
1705.192012594157
 20
771.5527717628544
 30
0.0
 10
1705.56998971812
 20
771.7446266242805
 30
0.0
 10
1705.951351111034
 20
771.9351110087382
 30
0.0
 10
1706.336352803576
 20
772.1227609712153
 30
0.0
 10
1706.725283903201
 20
772.306087996743
 30
0.0
 10
1707.118464297771
 20
772.4835726026039
 30
0.0
 10
1707.516240061026
 20
772.6536573737257
 30
0.0
 10
1707.91897644957
 20
772.8147383814218
 30
0.0
 10
1708.327047414783
 20
772.9651557764452
 30
0.0
 10
1708.740820715465
 20
773.1031843075616
 30
0.0
 10
1709.160637733083
 20
773.2270251901496
 30
0.0
 10
1709.586787650113
 20
773.3348013024494
 30
0.0
 10
1710.019476011017
 20
773.424558591575
 30
0.0
 10
1710.458790916081
 20
773.4942760135981
 30
0.0
 10
1710.904665028317
 20
773.5418897024644
 30
0.0
 10
1711.355766169842
 20
773.565265644425
 30
0.0
 10
1711.809299604455
 20
773.5626222812058
 30
0.0
 10
1712.262244897408
 20
773.5352164891272
 30
0.0
 10
1712.712734834144
 20
773.4845691909761
 30
0.0
 10
1713.160036477822
 20
773.4121392135275
 30
0.0
 10
1713.603486565804
 20
773.3193183902738
 30
0.0
 10
1714.042465136107
 20
773.2074329176269
 30
0.0
 10
1714.47637859151
 20
773.0777467176958
 30
0.0
 10
1714.904646019063
 20
772.9314672208663
 30
0.0
 10
1715.326689722762
 20
772.7697517368344
 30
0.0
 10
1715.741928832802
 20
772.5937137380853
 30
0.0
 10
1716.149775348264
 20
772.4044285551262
 30
0.0
 10
1716.549632177701
 20
772.2029380830199
 30
0.0
 10
1716.940891931487
 20
771.9902548803481
 30
0.0
 10
1717.322938888916
 20
771.7673636930326
 30
0.0
 10
1717.695143471397
 20
771.5352274405984
 30
0.0
 10
1717.937624480059
 20
771.3740471359084
 30
0.0
 10
1718.057079727957
 20
771.2921349593016
 30
0.0
 11
1693.706648761074
 21
771.2921349841654
 31
0.0
 11
1694.018453359557
 21
771.084857344289
 31
0.0
 11
1694.339039081288
 21
770.8848824902871
 31
0.0
 11
1694.6674106446
 21
770.6932635796274
 31
0.0
 11
1695.002565371066
 21
770.5110292560984
 31
0.0
 11
1695.343491923705
 21
770.3391831563167
 31
0.0
 11
1695.689169501505
 21
770.1787023218694
 31
0.0
 11
1696.038567696755
 21
770.0305345517299
 31
0.0
 11
1696.390647297064
 21
769.8955947255744
 31
0.0
 11
1696.744362407683
 21
769.7747601583341
 31
0.0
 11
1697.098664377639
 21
769.6688651217045
 31
0.0
 11
1697.452508123647
 21
769.5786948062322
 31
0.0
 11
1697.804861535348
 21
769.5049792168265
 31
0.0
 11
1698.1547186715
 21
769.44838781215
 31
0.0
 11
1698.501117352504
 21
769.4095261178444
 31
0.0
 11
1698.843161426134
 21
769.3889360369376
 31
0.0
 11
1699.180047321049
 21
769.3871020620226
 31
0.0
 11
1699.514544696502
 21
769.4043294147814
 31
0.0
 11
1699.850390831735
 21
769.440083968926
 31
0.0
 11
1700.188158254658
 21
769.4935786864443
 31
0.0
 11
1700.52823991434
 21
769.5640203486091
 31
0.0
 11
1700.87087772772
 21
769.6505740325501
 31
0.0
 11
1701.216196845551
 21
769.7523409494188
 31
0.0
 11
1701.564239989427
 21
769.8683480336876
 31
0.0
 11
1701.914998255956
 21
769.9975464732816
 31
0.0
 11
1702.268436648531
 21
770.1388161705563
 31
0.0
 11
1702.624513965922
 21
770.2909735175198
 31
0.0
 11
1702.983197508712
 21
770.4527804989029
 31
0.0
 11
1703.34447346009
 21
770.6229537711115
 31
0.0
 11
1703.708353897914
 21
770.8001728892286
 31
0.0
 11
1704.074881325336
 21
770.9830872338934
 31
0.0
 11
1704.444131457357
 21
771.1703214358331
 31
0.0
 11
1704.81621482504
 21
771.3604792358982
 31
0.0
 11
1705.191274175992
 21
771.5521382533588
 31
0.0
 11
1705.569485347268
 21
771.7438600594396
 31
0.0
 11
1705.951064587242
 21
771.9341976272589
 31
0.0
 11
1706.336262744832
 21
772.1216831319543
 31
0.0
 11
1706.725363657667
 21
772.3048240890639
 31
0.0
 11
1707.118681362473
 21
772.482097942986
 31
0.0
 11
1707.516555568729
 21
772.6519451683834
 31
0.0
 11
1707.919344663189
 21
772.8127610870033
 31
0.0
 11
1708.32741536521
 21
772.9628868468517
 31
0.0
 11
1708.741128085195
 21
773.1006003875846
 31
0.0
 11
1709.160817139593
 21
773.2241087352576
 31
0.0
 11
1709.586765369521
 21
773.33154359752
 31
0.0
 11
1710.019173535235
 21
773.420962853017
 31
0.0
 11
1710.458126214532
 21
773.4903609162065
 31
0.0
 11
1710.903557778017
 21
773.5376907593763
 31
0.0
 11
1711.355224035969
 21
773.5608991856097
 31
0.0
 11
1711.809406161521
 21
773.5584849186015
 31
0.0
 11
1712.262033790423
 21
773.531326657403
 31
0.0
 11
1712.712279192327
 21
773.4809288686975
 31
0.0
 11
1713.159406445598
 21
773.4087387189228
 31
0.0
 11
1713.602745078881
 21
773.3161399824093
 31
0.0
 11
1714.041667985824
 21
773.2044527818798
 31
0.0
 11
1714.475573983195
 21
773.0749369781406
 31
0.0
 11
1714.903874731249
 21
772.9287975042462
 31
0.0
 11
1715.325985412994
 21
772.767190428247
 31
0.0
 11
1715.741318467666
 21
772.5912289435
 31
0.0
 11
1716.149279700567
 21
772.4019887993072
 31
0.0
 11
1716.549266180496
 21
772.2005129012032
 31
0.0
 11
1716.940665445508
 21
771.9878149462419
 31
0.0
 11
1717.322855644449
 21
771.7648820328832
 31
0.0
 11
1717.695206334343
 21
771.5326762142576
 31
0.0
 11
1718.057079727957
 21
771.2921349593016
 31
0.0
  0
SPLINE
  5
462E
330
1F
100
AcDbEntity
  8
PV
  6
Continuous
 62
     3
100
AcDbSpline
210
0.0
220
0.0
230
1.0
 70
     8
 71
     3
 72
    15
 73
    11
 74
     9
 42
0.0000000001
 43
0.0000000001
 44
0.000001
 12
0.8247288543535672
 22
-0.5655283518946265
 32
0.0
 13
0.8247288305300797
 23
-0.5655283866372112
 33
0.0
 40
0.0
 40
0.0
 40
0.0
 40
0.0
 40
3.289126752255195
 40
6.509304245868949
 40
9.66885207073
 40
12.98460490897342
 40
16.3000553069633
 40
19.45947759299825
 40
22.67950596100197
 40
25.96827667374334
 40
25.96827667374334
 40
25.96827667374334
 40
25.96827667374334
 10
1693.116449218181
 20
770.4314273092623
 30
0.0
 10
1694.020661797585
 20
769.8113958321371
 30
0.0
 10
1695.949636555113
 20
768.7811312267909
 30
0.0
 10
1699.191957033631
 20
768.0900647666035
 30
0.0
 10
1702.39422116764
 20
768.9362025863236
 30
0.0
 10
1705.291436127344
 20
770.4315388842084
 30
0.0
 10
1708.189206279716
 20
771.925924357653
 30
0.0
 10
1711.391380204257
 20
772.7708451549283
 30
0.0
 10
1714.633498194317
 20
772.0809848531563
 30
0.0
 10
1716.562765474205
 20
771.051391707661
 30
0.0
 10
1717.466880148805
 20
770.4314273092623
 30
0.0
 11
1693.116449218181
 21
770.4314273092623
 31
0.0
 11
1696.034878916615
 21
768.9144820605142
 31
0.0
 11
1699.204076327077
 21
768.3437536978926
 31
0.0
 11
1702.289640797883
 21
769.023484787429
 31
0.0
 11
1705.291625931013
 21
770.4314273092623
 31
0.0
 11
1708.293651823252
 21
771.8385704732154
 31
0.0
 11
1711.379253039909
 21
772.5175508214288
 31
0.0
 11
1714.548432835586
 21
771.9475665116278
 31
0.0
 11
1717.466880148805
 21
770.4314273092623
 31
0.0
  0
LINE
  5
462F
330
1F
100
AcDbEntity
  8
PV
100
AcDbLine
 10
1866.835845882167
 20
723.6376540962855
 30
0.0
 11
1866.835845882167
 21
803.6376509173706
 31
0.0
  0
LINE
  5
4630
330
1F
100
AcDbEntity
  8
PV
100
AcDbLine
 10
1796.835848663716
 20
723.6376540962855
 30
0.0
 11
1796.835848663716
 21
803.6376509173706
 31
0.0
  0
LINE
  5
4631
330
1F
100
AcDbEntity
  8
PV
100
AcDbLine
 10
1892.835804158916
 20
803.6376509173706
 30
0.0
 11
1892.835804158916
 21
723.6376540962855
 31
0.0
  0
LINE
  5
4632
330
1F
100
AcDbEntity
  8
PV
100
AcDbLine
 10
1780.835788264345
 20
803.6376509173706
 30
0.0
 11
1780.835788264345
 21
723.6376540962855
 31
0.0
  0
LINE
  5
4633
330
1F
100
AcDbEntity
  8
PV
100
AcDbLine
 10
1780.835788264345
 20
723.6376540962855
 30
0.0
 11
1892.835804158916
 21
723.6376540962855
 31
0.0
  0
LINE
  5
4634
330
1F
100
AcDbEntity
  8
PV
100
AcDbLine
 10
1780.835788264345
 20
803.6376509173706
 30
0.0
 11
1892.835804158916
 21
803.6376509173706
 31
0.0
  0
LWPOLYLINE
  5
4635
330
1F
100
AcDbEntity
  8
PV
  6
Continuous
100
AcDbPolyline
 90
        2
 70
     0
 43
0.3000000119209289
 10
1854.607854711902
 20
739.6194550537611
 10
1854.607854711902
 20
783.9454550537602
  0
LINE
  5
4636
330
1F
100
AcDbEntity
  8
PV
100
AcDbLine
 10
1851.437854711902
 20
739.6194550537611
 30
0.0
 11
1851.437854711902
 21
783.9454550537602
 31
0.0
  0
LWPOLYLINE
  5
4637
330
1F
100
AcDbEntity
  8
PV
  6
Continuous
100
AcDbPolyline
 90
        2
 70
     0
 43
0.3000000119209289
 10
1845.624854711902
 20
734.4324550537613
 10
1807.237854711902
 20
756.5954550537617
  0
LINE
  5
4638
330
1F
100
AcDbEntity
  8
PV
100
AcDbLine
 10
1847.209854711902
 20
737.1774550537602
 30
0.0
 11
1808.821854711902
 21
759.3404550537607
 31
0.0
  0
LINE
  5
4639
330
1F
100
AcDbEntity
  8
PV
100
AcDbLine
 10
1846.909854711902
 20
741.011455053761
 30
0.0
 11
1812.291854711902
 21
760.9974550537599
 31
0.0
  0
LWPOLYLINE
  5
463A
330
1F
100
AcDbEntity
  8
PV
  6
Continuous
100
AcDbPolyline
 90
        2
 70
     0
 43
0.3000000119209289
 10
1807.237854711902
 20
766.9684550537612
 10
1845.624854711902
 20
789.1314550537617
  0
LINE
  5
463B
330
1F
100
AcDbEntity
  8
PV
100
AcDbLine
 10
1808.821854711902
 20
764.2234550537605
 30
0.0
 11
1847.209854711902
 21
786.3864550537609
 31
0.0
  0
LINE
  5
463C
330
1F
100
AcDbEntity
  8
PV
100
AcDbLine
 10
1812.291854711902
 20
762.5664550537613
 30
0.0
 11
1846.909854711902
 21
782.5524550537602
 31
0.0
  0
LINE
  5
463D
330
1F
100
AcDbEntity
  8
PV
100
AcDbLine
 10
1839.934854711902
 20
762.654455053761
 30
0.0
 11
1824.435854711902
 21
764.0104550537607
 31
0.0
  0
LINE
  5
463E
330
1F
100
AcDbEntity
  8
PV
100
AcDbLine
 10
1840.003854711902
 20
761.2004550537612
 30
0.0
 11
1824.435854711902
 21
759.8384550537603
 31
0.0
  0
LWPOLYLINE
  5
463F
330
1F
100
AcDbEntity
  8
PV
  6
Continuous
100
AcDbPolyline
 90
        2
 70
     0
 43
0.3000000119209289
 10
1845.624854711902
 20
734.4324550537613
 42
0.5773505893950813
 10
1854.607854711902
 20
739.6194550537611
 42
0.5773505893950813
  0
ARC
  5
4640
330
1F
100
AcDbEntity
  8
PV
100
AcDbCircle
 10
1848.618868334644
 20
739.6190457183993
 30
0.0
 40
2.818986406977281
100
AcDbArc
 50
240.0112547573027
 51
0.0083197239529411
  0
ARC
  5
4641
330
1F
100
AcDbEntity
  8
PV
100
AcDbCircle
 10
1847.36248211575
 20
741.7955647292392
 30
0.0
 40
0.9053726027953114
100
AcDbArc
 50
240.0043038038163
 51
359.9930592752653
  0
LWPOLYLINE
  5
4642
330
1F
100
AcDbEntity
  8
PV
  6
Continuous
100
AcDbPolyline
 90
        2
 70
     0
 43
0.3000000119209289
 10
1807.237854711902
 20
766.9684550537612
 42
0.5773672750388129
 10
1807.237854711902
 20
756.5954550537617
 42
0.5773672750388129
  0
ARC
  5
4643
330
1F
100
AcDbEntity
  8
PV
100
AcDbCircle
 10
1810.232105497016
 20
761.7819550537615
 30
0.0
 40
2.819526472107431
100
AcDbArc
 50
120.0114408735512
 51
239.9885591264488
  0
ARC
  5
4644
330
1F
100
AcDbEntity
  8
PV
100
AcDbCircle
 10
1812.745216658371
 20
761.7819550537615
 30
0.0
 40
0.9060779792635569
100
AcDbArc
 50
120.0235842748957
 51
239.9764157251043
  0
LWPOLYLINE
  5
4645
330
1F
100
AcDbEntity
  8
PV
  6
Continuous
100
AcDbPolyline
 90
        2
 70
     0
 43
0.3000000119209289
 10
1854.607854711902
 20
783.9454550537602
 42
0.5773784189788391
 10
1845.624854711902
 20
789.1314550537617
 42
0.5773784189788391
  0
ARC
  5
4646
330
1F
100
AcDbEntity
  8
PV
100
AcDbCircle
 10
1848.619301313628
 20
783.9456143049256
 30
0.0
 40
2.81855340277366
100
AcDbArc
 50
359.9967627295175
 51
120.0039881244628
  0
ARC
  5
4647
330
1F
100
AcDbEntity
  8
PV
100
AcDbCircle
 10
1847.362915166076
 20
781.7690954833133
 30
0.0
 40
0.904939772443285
100
AcDbArc
 50
359.9594515408327
 51
120.0431853801101
  0
CIRCLE
  5
4648
330
1F
100
AcDbEntity
  8
PV
100
AcDbCircle
 10
1843.290184240711
 20
761.924850073291
 30
0.0
 40
2.160090684890747
  0
ARC
  5
4649
330
1F
100
AcDbEntity
  8
PV
100
AcDbCircle
 10
1824.995903244217
 20
761.9244550537596
 30
0.0
 40
2.159872764435202
100
AcDbArc
 50
105.0283528234261
 51
254.9716471765739
  0
ARC
  5
464A
330
1F
100
AcDbEntity
  8
PV
100
AcDbCircle
 10
1839.505347156214
 20
761.9054354379813
 30
0.0
 40
0.8634275448553861
100
AcDbArc
 50
305.2649935574659
 51
60.16890615510865
  0
ARC
  5
464B
330
1F
100
AcDbEntity
  8
PV
100
AcDbCircle
 10
1833.157385123432
 20
761.9205101865345
 30
0.0
 40
0.1820201294396479
100
AcDbArc
 50
305.0258007377558
 51
60.19625504406053
  0
HATCH
  5
464C
330
1F
100
AcDbEntity
  8
PV
100
AcDbHatch
 10
0.0
 20
0.0
 30
0.0
210
0.0
220
0.0
230
1.0
  2
SOLID
 70
     1
 71
     0
 91
        2
 92
        1
 93
        6
 72
     1
 10
1851.43831823386
 20
739.61944544382
 11
1851.43831823386
 21
783.9454645741034
 72
     2
 10
1848.619560461414
 20
783.9454646973145
 40
2.818757772445678
 50
359.9999974955218
 51
480.000000834826
 73
     1
 72
     1
 10
1847.210181539622
 20
786.3865805148334
 11
1808.82272655305
 21
764.2235708712787
 72
     2
 10
1810.232105474842
 20
761.7824550537598
 40
2.818757772445678
 50
120.000000834826
 51
239.9999973439411
 73
     1
 72
     1
 10
1808.822726475456
 20
759.3413392810425
 11
1847.210181462028
 21
737.1783296374879
 72
     2
 10
1848.619560461414
 20
739.6194454102051
 40
2.818757772445678
 50
239.9999973439411
 51
360.0000006832453
 73
     1
 97
        0
 92
        1
 93
        6
 72
     1
 10
1848.268631797207
 20
741.7958675401469
 11
1848.268631797207
 21
781.769042538589
 72
     2
 10
1847.363006811512
 20
781.7690425781738
 40
0.9056249856948852
 50
359.9999974955218
 51
480.000000834826
 73
     1
 72
     1
 10
1846.910194307236
 20
782.5533368154911
 11
1812.292404085068
 21
762.566749291077
 72
     2
 10
1812.745216589344
 20
761.7824550537598
 40
0.9056249856948852
 50
120.000000834826
 51
239.9999973439411
 73
     1
 72
     1
 10
1812.292404060138
 20
760.998160830838
 11
1846.910194282306
 21
741.0115733064239
 72
     2
 10
1847.363006811512
 20
741.7958675293457
 40
0.9056249856948852
 50
239.9999973439411
 51
360.0000006832453
 73
     1
 97
        0
 75
     0
 76
     1
 98
        1
 10
1790.050854711902
 20
730.2824550537597
  0
HATCH
  5
464D
330
1F
100
AcDbEntity
  8
PV
100
AcDbHatch
 10
0.0
 20
0.0
 30
0.0
210
0.0
220
0.0
230
1.0
  2
SOLID
 70
     1
 71
     0
 91
        1
 92
        1
 93
        4
 72
     1
 10
1839.935012420589
 20
762.6553537182708
 11
1824.436653269724
 21
764.0112899222813
 72
     2
 10
1824.995903234851
 20
761.924850073291
 40
2.160090684890747
 50
105.0048703422912
 51
254.9951312515705
 73
     1
 72
     1
 10
1824.436653327766
 20
759.8384102087448
 11
1840.004408724533
 21
761.2004065217215
 72
     2
 10
1839.505333166492
 20
761.9057308105957
 40
0.8640363216400146
 50
305.2825802431735
 51
420.1789296308607
 73
     1
 97
        0
 75
     0
 76
     1
 98
        1
 10
1790.050854711902
 20
730.2824550537597
  0
HATCH
  5
464E
330
1F
100
AcDbEntity
  8
PV
100
AcDbHatch
 10
0.0
 20
0.0
 30
0.0
210
0.0
220
0.0
230
1.0
  2
SOLID
 70
     1
 71
     0
 91
        1
 92
        1
 93
        1
 72
     2
 10
1843.290184240711
 20
761.924850073291
 40
2.160090684890747
 50
90.0
 51
450.0
 73
     1
 97
        0
 75
     0
 76
     1
 98
        1
 10
1790.050854711902
 20
730.2824550537597
  0
LINE
  5
464F
330
1F
100
AcDbEntity
  8
PV
  6
Continuous
 62
     3
100
AcDbLine
 10
2136.835796211633
 20
733.6376525068299
 30
0.0
 11
2120.835796211633
 21
733.6376525068289
 31
0.0
  0
ARC
  5
4650
330
1F
100
AcDbEntity
  8
PV
  6
Continuous
 62
     3
100
AcDbCircle
 10
2120.835796211633
 20
735.6376525068271
 30
0.0
 40
2.0
100
AcDbArc
 50
180.0
 51
270.0
  0
MTEXT
  5
4651
330
1F
100
AcDbEntity
  8
PV
  6
Continuous
 62
     7
100
AcDbMText
 10
2128.835796210519
 20
750.6751771857571
 30
0.0
 40
7.200000286102294
 41
0.0
 71
     4
 72
     1
  1
\A1;{\W0.886;RS-02}
  7
MX_NOTE_STANDARD
 11
-0.0000000000000565
 21
1.0
 31
0.0
 73
     1
 44
0.9359251708042602
1001
ACAD
1000
MTEXTBEGIN
1070
    73
1070
     1
1070
    44
1040
0.9359251708042602
1070
    74
1070
     0
1000
MTEXTEND
  0
ARC
  5
4652
330
1F
100
AcDbEntity
  8
PV
  6
Continuous
 62
     3
100
AcDbCircle
 10
2120.835796211629
 20
791.6376525068289
 30
0.0
 40
2.0
100
AcDbArc
 50
90.0
 51
180.0
  0
LINE
  5
4653
330
1F
100
AcDbEntity
  8
PV
  6
Continuous
 62
     3
100
AcDbLine
 10
2152.835796211629
 20
793.6376525068308
 30
0.0
 11
2120.835796211629
 21
793.6376525068271
 31
0.0
  0
LINE
  5
4654
330
1F
100
AcDbEntity
  8
PV
  6
Continuous
 62
     3
100
AcDbLine
 10
2136.835796211633
 20
735.6376525068281
 30
0.0
 11
2136.835796211629
 21
791.6376525068299
 31
0.0
  0
LINE
  5
4655
330
1F
100
AcDbEntity
  8
PV
  6
Continuous
 62
     3
100
AcDbLine
 10
2136.835796211629
 20
791.6376525068299
 30
0.0
 11
2120.835796211629
 21
791.6376525068289
 31
0.0
  0
LINE
  5
4656
330
1F
100
AcDbEntity
  8
PV
  6
Continuous
 62
     3
100
AcDbLine
 10
2120.835796211633
 20
735.6376525068271
 30
0.0
 11
2120.835796211629
 21
791.6376525068289
 31
0.0
  0
LINE
  5
4657
330
1F
100
AcDbEntity
  8
PV
  6
Continuous
 62
     3
100
AcDbLine
 10
2136.835796211633
 20
735.6376525068281
 30
0.0
 11
2120.835796211633
 21
735.6376525068271
 31
0.0
  0
LINE
  5
4658
330
1F
100
AcDbEntity
  8
PV
  6
Continuous
 62
     3
100
AcDbLine
 10
2154.835796211632
 20
735.637652506829
 30
0.0
 11
2154.835796211629
 21
791.6376525068308
 31
0.0
  0
ARC
  5
4659
330
1F
100
AcDbEntity
  8
PV
  6
Continuous
 62
     3
100
AcDbCircle
 10
2152.835796211633
 20
735.637652506829
 30
0.0
 40
2.0
100
AcDbArc
 50
270.0
 51
0.0
  0
MTEXT
  5
465A
330
1F
100
AcDbEntity
  8
PV
  6
Continuous
 62
     7
100
AcDbMText
 10
2144.835796210519
 20
737.3918228069487
 30
0.0
 40
6.0
 41
0.0
 71
     4
 72
     1
  1
\A1;{\W0.886;Ser.}
  7
MX_NOTE_STANDARD
 11
-0.0000000000000565
 21
1.0
 31
0.0
 73
     1
 44
0.9359251708042602
1001
ACAD
1000
MTEXTBEGIN
1070
    73
1070
     1
1070
    44
1040
0.9359251708042602
1070
    74
1070
     0
1000
MTEXTEND
  0
ARC
  5
465B
330
1F
100
AcDbEntity
  8
PV
  6
Continuous
 62
     3
100
AcDbCircle
 10
2152.835796211629
 20
791.6376525068308
 30
0.0
 40
2.0
100
AcDbArc
 50
0.0
 51
90.0
  0
LINE
  5
465C
330
1F
100
AcDbEntity
  8
PV
  6
Continuous
 62
     3
100
AcDbLine
 10
2152.835796211633
 20
735.637652506829
 30
0.0
 11
2152.835796211629
 21
791.6376525068308
 31
0.0
  0
LINE
  5
465D
330
1F
100
AcDbEntity
  8
PV
  6
Continuous
 62
     3
100
AcDbLine
 10
2152.835796211629
 20
791.6376525068308
 30
0.0
 11
2136.835796211629
 21
791.6376525068299
 31
0.0
  0
LINE
  5
465E
330
1F
100
AcDbEntity
  8
PV
  6
Continuous
 62
     3
100
AcDbLine
 10
2152.835796211633
 20
733.6376525068289
 30
0.0
 11
2120.835796211633
 21
733.6376525068271
 31
0.0
  0
LINE
  5
465F
330
1F
100
AcDbEntity
  8
PV
  6
Continuous
 62
     3
100
AcDbLine
 10
2152.83579472084
 20
735.6376506097458
 30
0.0
 11
2136.83579472084
 21
735.6376506097449
 31
0.0
  0
LINE
  5
4660
330
1F
100
AcDbEntity
  8
PV
  6
Continuous
 62
     3
100
AcDbLine
 10
2118.835795480599
 20
735.637650609744
 30
0.0
 11
2118.835795480596
 21
791.6376506097458
 31
0.0
  0
DIMENSION
  5
46F8
102
{ACAD_XDICTIONARY
360
4705
102
}
102
{ACAD_REACTORS
330
4706
102
}
330
1F
100
AcDbEntity
  8
DIMENSION
100
AcDbDimension
  2
*D11
 10
1476.942942719508
 20
598.4376122438911
 30
0.0
 11
1476.942942719508
 21
763.637652506828
 31
0.0
 70
   160
  1
%%c165.2
 71
     5
 42
330.4000805258738
  3
ULVAC$0
100
AcDbAlignedDimension
 13
1392.83579621163
 23
928.8376927697649
 33
0.0
 14
1392.835796152026
 24
598.4376122438911
 34
0.0
 50
90.00000000000003
100
AcDbRotatedDimension
1001
ACAD
1000
DSTYLE
1002
{
1070
    41
1040
10.0
1070
   140
1040
30.0
1002
}
  0
DIMENSION
  5
472A
102
{ACAD_XDICTIONARY
360
4737
102
}
102
{ACAD_REACTORS
330
4738
102
}
330
1F
100
AcDbEntity
  8
DIMENSION
100
AcDbDimension
  2
*D12
 10
2351.148221832702
 20
877.937577561439
 30
0.0
 11
2335.148221832702
 21
763.6376525068286
 31
0.0
 70
    32
  1
%%c114.3
 71
     5
 42
228.5998501092217
  3
ULVAC$0
100
AcDbAlignedDimension
 13
2516.835796211631
 23
649.3377274522172
 33
0.0
 14
2516.835796211631
 24
877.937577561439
 34
0.0
 50
90.00000000000003
100
AcDbRotatedDimension
1001
ACAD
1000
DSTYLE
1002
{
1070
    41
1040
10.0
1070
   140
1040
30.0
1002
}
  0
LEADER
  5
47E1
330
1F
100
AcDbEntity
  8
PV
  6
Continuous
 62
     7
100
AcDbLeader
  3
MXDIMSTYLE
 74
     0
 76
     3
 10
1796.835848663716
 20
723.6376540962855
 30
0.0
 10
2105.952428995082
 20
291.0087334086279
 30
0.0
 10
2343.686288290505
 20
291.0087334086279
 30
0.0
1001
ACAD
1000
DSTYLE
1002
{
1070
     6
1000
_OPEN30
1070
     7
1000
_OPEN30
1070
    41
1040
2.77
1070
   173
1070
     1
1070
   341
1005
69
1002
}
  0
MTEXT
  5
47E2
330
1F
100
AcDbEntity
  8
PV
  6
Continuous
 62
     7
100
AcDbMText
 10
2114.935284908029
 20
297.0087334086279
 30
0.0
 40
25.00199890136719
 41
0.0
 71
     7
 72
     1
  1
\A1;{\W0.813;警告銘板（破裂注意）}
  7
MX_NOTE_STANDARD
 73
     1
 44
0.9359251894303499
1001
ACAD
1000
MTEXTBEGIN
1070
    73
1070
     1
1070
    44
1040
0.9359251894303499
1070
    74
1070
     0
1000
MTEXTEND
  0
LEADER
  5
47E3
330
1F
100
AcDbEntity
  8
PV
  6
Continuous
 62
     7
100
AcDbLeader
  3
MXDIMSTYLE
 74
     0
 76
     3
 10
1664.835819254329
 20
723.6376525018276
 30
0.0
 10
1806.723483193468
 20
291.0087323383887
 30
0.0
 10
2042.743224931801
 20
291.0087323383887
 30
0.0
1001
ACAD
1000
DSTYLE
1002
{
1070
     6
1000
_OPEN30
1070
     7
1000
_OPEN30
1070
    41
1040
2.77
1070
   173
1070
     1
1070
   341
1005
69
1002
}
  0
MTEXT
  5
47E4
330
1F
100
AcDbEntity
  8
PV
  6
Continuous
 62
     7
100
AcDbMText
 10
1815.706339106415
 20
297.0087323383887
 30
0.0
 40
25.00199890136719
 41
0.0
 71
     7
 72
     1
  1
\A1;{\W0.813;警告銘板（高温注意）}
  7
MX_NOTE_STANDARD
 73
     1
 44
0.9359251894303499
1001
ACAD
1000
MTEXTBEGIN
1070
    73
1070
     1
1070
    44
1040
0.9359251894303499
1070
    74
1070
     0
1000
MTEXTEND
  0
LEADER
  5
47EF
330
1F
100
AcDbEntity
  8
PV
  6
Continuous
 62
     7
100
AcDbLeader
  3
MXDIMSTYLE
 74
     0
 76
     3
 10
2136.835796211633
 20
733.6376525068299
 30
0.0
 10
2415.069011292955
 20
291.0087299587694
 30
0.0
 10
2542.222765654639
 20
291.0087299587694
 30
0.0
1001
ACAD
1000
DSTYLE
1002
{
1070
     6
1000
_OPEN30
1070
     7
1000
_OPEN30
1070
    41
1040
2.77
1070
   173
1070
     1
1070
   341
1005
69
1002
}
  0
MTEXT
  5
47F0
330
1F
100
AcDbEntity
  8
PV
  6
Continuous
 62
     7
100
AcDbMText
 10
2424.051867205902
 20
297.0087299587694
 30
0.0
 40
25.00199890136719
 41
0.0
 71
     7
 72
     1
  1
\A1;{\W0.813;機種銘板}
  7
MX_NOTE_STANDARD
 73
     1
 44
0.9359251894303499
1001
ACAD
1000
MTEXTBEGIN
1070
    73
1070
     1
1070
    44
1040
0.9359251894303499
1070
    74
1070
     0
1000
MTEXTEND
  0
VIEWPORT
  5
19A2
102
{ACAD_XDICTIONARY
360
48C6
102
}
330
1B
100
AcDbEntity
 67
     1
  8
0
100
AcDbViewport
 10
133.3499908447265
 20
101.5999970436096
 30
0.0
 40
381.6322014063393
 41
228.4221935424805
 68
     1
 69
     1
 12
133.3499908447265
 22
101.5999970436096
 13
0.0
 23
0.0
 14
10.0
 24
10.0
 15
10.0
 25
10.0
 16
0.0
 26
0.0
 36
1.0
 17
0.0
 27
0.0
 37
0.0
 42
50.0
 43
0.0
 44
0.0
 45
228.4221935424805
 50
0.0
 51
0.0
 72
   100
 90
    32800
  1

281
     0
 71
     1
 74
     0
110
0.0
120
0.0
130
0.0
111
1.0
121
0.0
131
0.0
112
0.0
122
1.0
132
0.0
 79
     0
146
0.0
  0
ENDSEC
  0
SECTION
  2
OBJECTS
  0
DICTIONARY
  5
C
330
0
100
AcDbDictionary
281
     1
  3
ACAD_2007HEADERVARS_RT
350
48B6
  3
ACAD_COLOR
350
C5
  3
ACAD_FIELDLIST
350
2FF9
  3
ACAD_GROUP
350
D
  3
ACAD_LAYOUT
350
1A
  3
ACAD_MATERIAL
350
C4
  3
ACAD_MLEADERSTYLE
350
485E
  3
ACAD_MLINESTYLE
350
17
  3
ACAD_PLOTSETTINGS
350
19
  3
ACAD_PLOTSTYLENAME
350
E
  3
ACAD_SCALELIST
350
484C
  3
ACAD_TABLESTYLE
350
121
  3
ACAD_VISUALSTYLE
350
3739
  3
ACDB_RECOMPOSE_DATA
350
48B4
  3
AcDbVariableDictionary
350
34
  3
AcmDictionary
350
49
  3
AMG
350
2B
  3
AMGSNAPSETTINGS
350
1C4
  3
ASE_INDEX_DICTIONARY
350
3710
  3
DWGPROPS
350
48B5
  0
DICTIONARY
  5
BF
330
2
100
AcDbDictionary
280
     1
281
     1
  3
ACAD_LAYERSTATES
360
19A6
  3
AMLAYER_GROUPCOLORS
360
C0
  0
DICTIONARY
  5
4880
330
10
100
AcDbDictionary
280
     1
281
     1
  3
ADSK_XREC_LAYER_RECONCILED
360
4881
  0
DICTIONARY
  5
4882
330
81
100
AcDbDictionary
280
     1
281
     1
  3
ADSK_XREC_LAYER_RECONCILED
360
4883
  0
DICTIONARY
  5
4884
330
1BC
100
AcDbDictionary
280
     1
281
     1
  3
ADSK_XREC_LAYER_RECONCILED
360
4885
  0
DICTIONARY
  5
4886
330
1A29
100
AcDbDictionary
280
     1
281
     1
  3
ADSK_XREC_LAYER_RECONCILED
360
4887
  0
DICTIONARY
  5
4888
330
1A3F
100
AcDbDictionary
280
     1
281
     1
  3
ADSK_XREC_LAYER_RECONCILED
360
4889
  0
DICTIONARY
  5
488A
330
1A6C
100
AcDbDictionary
280
     1
281
     1
  3
ADSK_XREC_LAYER_RECONCILED
360
488B
  0
DICTIONARY
  5
488C
330
1A6D
100
AcDbDictionary
280
     1
281
     1
  3
ADSK_XREC_LAYER_RECONCILED
360
488D
  0
DICTIONARY
  5
488E
330
1A6E
100
AcDbDictionary
280
     1
281
     1
  3
ADSK_XREC_LAYER_RECONCILED
360
488F
  0
DICTIONARY
  5
4890
330
1A72
100
AcDbDictionary
280
     1
281
     1
  3
ADSK_XREC_LAYER_RECONCILED
360
4891
  0
DICTIONARY
  5
4892
330
1AE0
100
AcDbDictionary
280
     1
281
     1
  3
ADSK_XREC_LAYER_RECONCILED
360
4893
  0
DICTIONARY
  5
4894
330
1AE1
100
AcDbDictionary
280
     1
281
     1
  3
ADSK_XREC_LAYER_RECONCILED
360
4895
  0
DICTIONARY
  5
4896
330
1AE3
100
AcDbDictionary
280
     1
281
     1
  3
ADSK_XREC_LAYER_RECONCILED
360
4897
  0
DICTIONARY
  5
4898
330
1CA2
100
AcDbDictionary
280
     1
281
     1
  3
ADSK_XREC_LAYER_RECONCILED
360
4899
  0
DICTIONARY
  5
489A
330
1CA3
100
AcDbDictionary
280
     1
281
     1
  3
ADSK_XREC_LAYER_RECONCILED
360
489B
  0
DICTIONARY
  5
489C
330
1CA4
100
AcDbDictionary
280
     1
281
     1
  3
ADSK_XREC_LAYER_RECONCILED
360
489D
  0
DICTIONARY
  5
489E
330
1CA5
100
AcDbDictionary
280
     1
281
     1
  3
ADSK_XREC_LAYER_RECONCILED
360
489F
  0
DICTIONARY
  5
48A0
330
393E
100
AcDbDictionary
280
     1
281
     1
  3
ADSK_XREC_LAYER_RECONCILED
360
48A1
  0
DICTIONARY
  5
48A2
330
3C35
100
AcDbDictionary
280
     1
281
     1
  3
ADSK_XREC_LAYER_RECONCILED
360
48A3
  0
DICTIONARY
  5
48A4
330
42C0
100
AcDbDictionary
280
     1
281
     1
  3
ADSK_XREC_LAYER_RECONCILED
360
48A5
  0
DICTIONARY
  5
48A6
330
42DF
100
AcDbDictionary
280
     1
281
     1
  3
ADSK_XREC_LAYER_RECONCILED
360
48A7
  0
DICTIONARY
  5
48A8
330
42E0
100
AcDbDictionary
280
     1
281
     1
  3
ADSK_XREC_LAYER_RECONCILED
360
48A9
  0
DICTIONARY
  5
48AA
330
43AC
100
AcDbDictionary
280
     1
281
     1
  3
ADSK_XREC_LAYER_RECONCILED
360
48AB
  0
DICTIONARY
  5
48AC
330
43AD
100
AcDbDictionary
280
     1
281
     1
  3
ADSK_XREC_LAYER_RECONCILED
360
48AD
  0
DICTIONARY
  5
82
330
1F
100
AcDbDictionary
280
     1
281
     1
  3
ACAD_SORTENTS
360
3064
  0
DICTIONARY
  5
380F
330
2851
100
AcDbDictionary
280
     1
281
     1
  0
DICTIONARY
  5
4705
330
46F8
100
AcDbDictionary
280
     1
281
     1
  3
ACAD_DIMASSOC
360
4706
  0
DICTIONARY
  5
4737
330
472A
100
AcDbDictionary
280
     1
281
     1
  3
ACAD_DIMASSOC
360
4738
  0
DICTIONARY
  5
48C6
330
19A2
100
AcDbDictionary
280
     1
281
     1
  3
ACAD_XREC_ROUNDTRIP
360
48C7
  0
DICTIONARY
  5
48B6
102
{ACAD_REACTORS
330
C
102
}
330
C
100
AcDbDictionary
281
     1
  3
DIMARCSYM
350
48B7
  3
DIMLTEX1
350
48BA
  3
DIMLTEX2
350
48BB
  3
DIMLTYPE
350
48B9
  3
DIMTFILLCLR
350
48B8
  0
DICTIONARY
  5
C5
102
{ACAD_REACTORS
330
C
102
}
330
C
100
AcDbDictionary
281
     1
  0
FIELDLIST
  5
2FF9
102
{ACAD_REACTORS
330
C
102
}
330
C
100
AcDbIdSet
 90
        0
100
AcDbFieldList
  0
DICTIONARY
  5
D
102
{ACAD_REACTORS
330
C
102
}
330
C
100
AcDbDictionary
281
     1
  0
DICTIONARY
  5
1A
102
{ACAD_REACTORS
330
C
102
}
330
C
100
AcDbDictionary
281
     1
  3
Model
350
22
  3
レイアウト1
350
1E
  3
レイアウト2
350
26
  0
DICTIONARY
  5
C4
102
{ACAD_REACTORS
330
C
102
}
330
C
100
AcDbDictionary
281
     1
  3
ByBlock
350
3737
  3
ByLayer
350
3736
  3
Global
350
3738
  0
DICTIONARY
  5
485E
102
{ACAD_REACTORS
330
C
102
}
330
C
100
AcDbDictionary
281
     1
  3
Standard
350
485F
  0
DICTIONARY
  5
17
102
{ACAD_REACTORS
330
C
102
}
330
C
100
AcDbDictionary
281
     1
  3
Standard
350
18
  0
DICTIONARY
  5
19
102
{ACAD_REACTORS
330
C
102
}
330
C
100
AcDbDictionary
281
     1
  3
A1_フィット
350
432C
  3
A2_フィット
350
432D
  3
A3_フィット
350
432E
  3
A4_フィット_横
350
432F
  3
A4_フィット_縦
350
4330
  0
ACDBDICTIONARYWDFLT
  5
E
102
{ACAD_REACTORS
330
C
102
}
330
C
100
AcDbDictionary
281
     1
  3
Normal
350
F
100
AcDbDictionaryWithDefault
340
F
  0
DICTIONARY
  5
484C
102
{ACAD_REACTORS
330
C
102
}
330
C
100
AcDbDictionary
281
     1
  3
A0
350
484D
  3
A1
350
484E
  3
A2
350
484F
  3
A3
350
4850
  3
A4
350
4851
  3
A5
350
4852
  3
A6
350
4853
  3
A7
350
4854
  3
A8
350
4855
  3
A9
350
4856
  3
B0
350
4857
  3
B1
350
4858
  3
B2
350
4859
  3
B3
350
485A
  3
B4
350
485B
  3
B5
350
485C
  3
B6
350
485D
  0
DICTIONARY
  5
121
102
{ACAD_REACTORS
330
C
102
}
330
C
100
AcDbDictionary
281
     1
  3
Standard
350
122
  0
DICTIONARY
  5
3739
102
{ACAD_REACTORS
330
C
102
}
330
C
100
AcDbDictionary
281
     1
  3
2dWireframe
350
373F
  3
3D Hidden
350
3741
  3
3dWireframe
350
3740
  3
Basic
350
373E
  3
Brighten
350
3745
  3
ColorChange
350
3749
  3
Conceptual
350
3742
  3
Dim
350
3744
  3
EdgeColorOff
350
484B
  3
Facepattern
350
3748
  3
Flat
350
373A
  3
FlatWithEdges
350
373B
  3
Gouraud
350
373C
  3
GouraudWithEdges
350
373D
  3
JitterOff
350
4849
  3
Linepattern
350
3747
  3
OverhangOff
350
484A
  3
Realistic
350
3743
  3
Thicken
350
3746
  0
XRECORD
  5
48B4
102
{ACAD_REACTORS
330
C
102
}
330
C
100
AcDbXrecord
280
     1
 90
        1
330
122
  0
DICTIONARY
  5
34
102
{ACAD_REACTORS
330
C
102
}
330
C
100
AcDbDictionary
281
     1
  3
CANNOSCALE
350
48AF
  3
CMLEADERSTYLE
350
48AE
  3
CTABLESTYLE
350
140
  3
DIMASSOC
350
AC
  3
INDEXCTL
350
35
  3
SORTENTS
350
48B0
  3
XCLIPFRAME
350
48B1
  0
DICTIONARY
  5
49
102
{ACAD_REACTORS
330
C
102
}
330
C
100
AcDbDictionary
281
     1
  3
AcmBOM
350
1C1
  3
AcmStdDictionary
350
4A
  3
AMDTSECTSYM_ARROWCOLOR
350
12B
  0
DICTIONARY
  5
2B
102
{ACAD_REACTORS
330
C
102
}
330
C
100
AcDbDictionary
281
     1
  0
DICTIONARY
  5
1C4
102
{ACAD_REACTORS
330
C
102
}
330
C
100
AcDbDictionary
281
     1
  0
DICTIONARY
  5
3710
102
{ACAD_REACTORS
330
C
102
}
330
C
100
AcDbDictionary
281
     1
  3
ASEBlockHierarchyIndexRecord
350
3711
1001
DCO15
1040
1573990560.732
  0
XRECORD
  5
48B5
102
{ACAD_REACTORS
330
C
102
}
330
C
100
AcDbXrecord
280
     1
  1
DWGPROPS COOKIE
  2

  3

  4

  6
ULVAC JIS テンプレート Revision 11
  7

  8
UJ35116
  9

300
AmdtFileType=84
301
=
302
=
303
=
304
=
305
=
306
=
307
=
308
=
309
=
 40
0.0638617013888889
 41
2454875.544084803
 42
2457137.475108877
  1

 90
        1
  0
DICTIONARY
  5
19A6
102
{ACAD_REACTORS
330
BF
102
}
330
BF
100
AcDbDictionary
281
     1
  0
DICTIONARY
  5
C0
102
{ACAD_REACTORS
330
BF
102
}
330
BF
100
AcDbDictionary
280
     1
281
     1
  0
XRECORD
  5
4881
102
{ACAD_REACTORS
330
4880
102
}
330
4880
100
AcDbXrecord
280
     1
290
     1
  0
XRECORD
  5
4883
102
{ACAD_REACTORS
330
4882
102
}
330
4882
100
AcDbXrecord
280
     1
290
     1
  0
XRECORD
  5
4885
102
{ACAD_REACTORS
330
4884
102
}
330
4884
100
AcDbXrecord
280
     1
290
     1
  0
XRECORD
  5
4887
102
{ACAD_REACTORS
330
4886
102
}
330
4886
100
AcDbXrecord
280
     1
290
     1
  0
XRECORD
  5
4889
102
{ACAD_REACTORS
330
4888
102
}
330
4888
100
AcDbXrecord
280
     1
290
     1
  0
XRECORD
  5
488B
102
{ACAD_REACTORS
330
488A
102
}
330
488A
100
AcDbXrecord
280
     1
290
     1
  0
XRECORD
  5
488D
102
{ACAD_REACTORS
330
488C
102
}
330
488C
100
AcDbXrecord
280
     1
290
     1
  0
XRECORD
  5
488F
102
{ACAD_REACTORS
330
488E
102
}
330
488E
100
AcDbXrecord
280
     1
290
     1
  0
XRECORD
  5
4891
102
{ACAD_REACTORS
330
4890
102
}
330
4890
100
AcDbXrecord
280
     1
290
     1
  0
XRECORD
  5
4893
102
{ACAD_REACTORS
330
4892
102
}
330
4892
100
AcDbXrecord
280
     1
290
     1
  0
XRECORD
  5
4895
102
{ACAD_REACTORS
330
4894
102
}
330
4894
100
AcDbXrecord
280
     1
290
     1
  0
XRECORD
  5
4897
102
{ACAD_REACTORS
330
4896
102
}
330
4896
100
AcDbXrecord
280
     1
290
     1
  0
XRECORD
  5
4899
102
{ACAD_REACTORS
330
4898
102
}
330
4898
100
AcDbXrecord
280
     1
290
     1
  0
XRECORD
  5
489B
102
{ACAD_REACTORS
330
489A
102
}
330
489A
100
AcDbXrecord
280
     1
290
     1
  0
XRECORD
  5
489D
102
{ACAD_REACTORS
330
489C
102
}
330
489C
100
AcDbXrecord
280
     1
290
     1
  0
XRECORD
  5
489F
102
{ACAD_REACTORS
330
489E
102
}
330
489E
100
AcDbXrecord
280
     1
290
     1
  0
XRECORD
  5
48A1
102
{ACAD_REACTORS
330
48A0
102
}
330
48A0
100
AcDbXrecord
280
     1
290
     1
  0
XRECORD
  5
48A3
102
{ACAD_REACTORS
330
48A2
102
}
330
48A2
100
AcDbXrecord
280
     1
290
     1
  0
XRECORD
  5
48A5
102
{ACAD_REACTORS
330
48A4
102
}
330
48A4
100
AcDbXrecord
280
     1
290
     1
  0
XRECORD
  5
48A7
102
{ACAD_REACTORS
330
48A6
102
}
330
48A6
100
AcDbXrecord
280
     1
290
     1
  0
XRECORD
  5
48A9
102
{ACAD_REACTORS
330
48A8
102
}
330
48A8
100
AcDbXrecord
280
     1
290
     1
  0
XRECORD
  5
48AB
102
{ACAD_REACTORS
330
48AA
102
}
330
48AA
100
AcDbXrecord
280
     1
290
     1
  0
XRECORD
  5
48AD
102
{ACAD_REACTORS
330
48AC
102
}
330
48AC
100
AcDbXrecord
280
     1
290
     1
  0
SORTENTSTABLE
  5
3064
102
{ACAD_REACTORS
330
82
102
}
330
82
100
AcDbSortentsTable
330
1F
  0
DIMASSOC
  5
4706
102
{ACAD_REACTORS
330
4705
102
}
330
4705
100
AcDbDimAssoc
330
46F8
 90
        3
 70
     0
 71
     0
  1
AcDbOsnapPointRef
 72
     1
331
45DE
 73
     0
 91
        0
 40
0.0
 10
0.0
 20
0.0
 30
2.000000000000000E+50
 75
     0
  1
AcDbOsnapPointRef
 72
    13
331
45E5
 73
     0
 91
        0
 40
0.0
 10
0.0
 20
0.0
 30
2.000000000000000E+50
 75
     0
  0
DIMASSOC
  5
4738
102
{ACAD_REACTORS
330
4737
102
}
330
4737
100
AcDbDimAssoc
330
472A
 90
        3
 70
     0
 71
     0
  1
AcDbOsnapPointRef
 72
     1
331
45E7
 73
     0
 91
        0
 40
0.0
 10
0.0
 20
0.0
 30
2.000000000000000E+50
 75
     0
  1
AcDbOsnapPointRef
 72
     1
331
45E6
 73
     0
 91
        0
 40
0.0
 10
0.0
 20
0.0
 30
2.000000000000000E+50
 75
     0
  0
XRECORD
  5
48C7
102
{ACAD_REACTORS
330
48C6
102
}
330
48C6
100
AcDbXrecord
280
     1
102
SHADEPLOT
 70
     0
  0
XRECORD
  5
48B7
102
{ACAD_REACTORS
330
48B6
102
}
330
48B6
100
AcDbXrecord
280
     1
 70
     1
  0
XRECORD
  5
48BA
102
{ACAD_REACTORS
330
48B6
102
}
330
48B6
100
AcDbXrecord
280
     1
340
15
  0
XRECORD
  5
48BB
102
{ACAD_REACTORS
330
48B6
102
}
330
48B6
100
AcDbXrecord
280
     1
340
15
  0
XRECORD
  5
48B9
102
{ACAD_REACTORS
330
48B6
102
}
330
48B6
100
AcDbXrecord
280
     1
340
15
  0
XRECORD
  5
48B8
102
{ACAD_REACTORS
330
48B6
102
}
330
48B6
100
AcDbXrecord
280
     1
1004
1800000001000000000000C0000000000000000000000000
  0
LAYOUT
  5
22
102
{ACAD_XDICTIONARY
360
48BD
102
}
102
{ACAD_REACTORS
330
1A
102
}
330
1A
100
AcDbPlotSettings
  1

  2
Adobe PDF
  4
A4
  6

 40
3.174999952316284
 41
3.174999952316284
 42
3.175003051757812
 43
3.17498779296875
 44
209.9098358154297
 45
297.0318298339844
 46
0.0
 47
1.238379466613935
 48
0.0
 49
0.0
140
0.0
141
0.0
142
1.0
143
8.754182863037756
 70
 11956
 72
     1
 73
     1
 74
     1
  7
monochrome_ULVAC.ctb
 75
     0
147
0.1142311070770794
148
-663.4746106089076
149
97.49673666604486
100
AcDbLayout
  1
Model
 70
     1
 71
     0
 10
0.0
 20
0.0
 11
12.0
 21
9.0
 12
0.0
 22
0.0
 32
0.0
 14
0.0
 24
0.0
 34
0.0
 15
0.0
 25
0.0
 35
0.0
146
0.0
 13
0.0
 23
0.0
 33
0.0
 16
1.0
 26
0.0
 36
0.0
 17
0.0
 27
1.0
 37
0.0
 76
     0
330
1F
331
3734
1001
ACAD_PSEXT
1000
Adobe PDF
1000
Adobe PDF Converter
1000
My Documents
1000
Adobe PDF の作成
1070
     0
  0
LAYOUT
  5
1E
102
{ACAD_XDICTIONARY
360
19A8
102
}
102
{ACAD_REACTORS
330
1A
102
}
330
1A
100
AcDbPlotSettings
  1

  2
none_device
  4
Letter_(8.50_x_11.00_Inches)
  6

 40
6.349999904632568
 41
6.349999904632568
 42
6.350006103515625
 43
6.350006103515625
 44
215.8999938964844
 45
279.3999938964844
 46
0.0
 47
0.0
 48
0.0
 49
0.0
140
0.0
141
0.0
142
1.0
143
1.0
 70
   688
 72
     1
 73
     1
 74
     5
  7
monochrome_ULVAC.ctb
 75
    16
147
1.0
148
0.0
149
0.0
100
AcDbLayout
  1
レイアウト1
 70
     1
 71
     1
 10
-6.350006103515625
 20
-6.349999904632568
 11
273.0499877929688
 21
209.5499939918518
 12
0.0
 22
0.0
 32
0.0
 14
1.000000000000000E+20
 24
1.000000000000000E+20
 34
1.000000000000000E+20
 15
-1.000000000000000E+20
 25
-1.000000000000000E+20
 35
-1.000000000000000E+20
146
0.0
 13
0.0
 23
0.0
 33
0.0
 16
1.0
 26
0.0
 36
0.0
 17
0.0
 27
1.0
 37
0.0
 76
     0
330
1B
331
19A2
  0
LAYOUT
  5
26
102
{ACAD_XDICTIONARY
360
48BF
102
}
102
{ACAD_REACTORS
330
1A
102
}
330
1A
100
AcDbPlotSettings
  1

  2
none_device
  4
Letter_(8.50_x_11.00_Inches)
  6

 40
6.349999904632568
 41
6.349999904632568
 42
6.350006103515625
 43
6.350006103515625
 44
215.8999938964844
 45
279.3999938964844
 46
0.0
 47
0.0
 48
0.0
 49
0.0
140
0.0
141
0.0
142
1.0
143
1.0
 70
 15024
 72
     1
 73
     1
 74
     5
  7
monochrome_ULVAC.ctb
 75
    16
147
1.0
148
0.0
149
0.0
100
AcDbLayout
  1
レイアウト2
 70
     1
 71
     2
 10
0.0
 20
0.0
 11
12.0
 21
9.0
 12
0.0
 22
0.0
 32
0.0
 14
0.0
 24
0.0
 34
0.0
 15
0.0
 25
0.0
 35
0.0
146
0.0
 13
0.0
 23
0.0
 33
0.0
 16
1.0
 26
0.0
 36
0.0
 17
0.0
 27
1.0
 37
0.0
 76
     0
330
23
  0
MATERIAL
  5
3737
102
{ACAD_XDICTIONARY
360
48CA
102
}
102
{ACAD_REACTORS
330
C4
102
}
330
C4
100
AcDbMaterial
  1
ByBlock
 73
     1
 78
     1
172
     1
176
     1
270
     1
274
     1
  0
MATERIAL
  5
3736
102
{ACAD_XDICTIONARY
360
48C8
102
}
102
{ACAD_REACTORS
330
C4
102
}
330
C4
100
AcDbMaterial
  1
ByLayer
 73
     1
 78
     1
172
     1
176
     1
270
     1
274
     1
  0
MATERIAL
  5
3738
102
{ACAD_XDICTIONARY
360
48CC
102
}
102
{ACAD_REACTORS
330
C4
102
}
330
C4
100
AcDbMaterial
  1
Global
 73
     1
 78
     1
172
     1
176
     1
270
     1
274
     1
  0
MLEADERSTYLE
  5
485F
102
{ACAD_REACTORS
330
485E
102
}
330
485E
100
AcDbMLeaderStyle
170
     2
171
     1
172
     0
 90
        2
 40
0.0
 41
0.0
173
     1
 91
-1056964608
340
14
 92
       -2
290
     1
 42
2.0
291
     1
 43
0.36
  3
Standard
 44
4.0
300

342
11
174
     1
178
     6
175
     1
176
     0
 93
-1056964608
 45
4.0
292
     0
297
     0
 46
4.0
 94
-1056964608
 47
1.0
 49
1.0
140
1.0
293
     1
141
0.0
294
     1
177
     0
142
1.0
295
     0
296
     0
143
0.125
1001
ACAD_MLEADERVER
1070
     2
  0
MLINESTYLE
  5
18
102
{ACAD_REACTORS
330
17
102
}
330
17
100
AcDbMlineStyle
  2
STANDARD
 70
     0
  3

 62
   256
 51
90.0
 52
90.0
 71
     2
 49
0.5
 62
   256
  6
BYLAYER
 49
-0.5
 62
   256
  6
BYLAYER
  0
PLOTSETTINGS
  5
432C
102
{ACAD_XDICTIONARY
360
48EE
102
}
102
{ACAD_REACTORS
330
19
102
}
330
19
100
AcDbPlotSettings
  1
A1_フィット
  2
SII LP-2160
  4
User258
  6

 40
5.746749877929687
 41
5.873733520507812
 42
5.873779296875
 43
5.74676513671875
 44
593.97900390625
 45
840.9939575195313
 46
0.0
 47
2.918110934170783
 48
0.0
 49
0.0
140
0.0
141
0.0
142
1.0
143
0.5099951539933571
 70
 11956
 72
     1
 73
     1
 74
     2
  7
monochrome_ULVAC.ctb
 75
     0
147
1.960802945223721
148
0.0
149
0.0
1001
ACAD_PSEXT
1000
SII LP-2160
1000
SII LP-2165 (C2 VR)
1000
IP_192.168.12.27
1000

1070
     0
  0
PLOTSETTINGS
  5
432D
102
{ACAD_XDICTIONARY
360
48F0
102
}
102
{ACAD_REACTORS
330
19
102
}
330
19
100
AcDbPlotSettings
  1
A2_フィット
  2
SII LP-2160
  4
User259
  6

 40
5.746749877929687
 41
5.873794555664062
 42
5.873748779296875
 43
5.74676513671875
 44
419.9889831542968
 45
593.97900390625
 46
0.0
 47
2.43382902819701
 48
0.0
 49
0.0
140
0.0
141
0.0
142
1.0
143
0.7272843308801679
 70
 11956
 72
     1
 73
     1
 74
     2
  7
monochrome_ULVAC.ctb
 75
     0
147
1.374978062279698
148
0.0
149
0.0
1001
ACAD_PSEXT
1000
SII LP-2160
1000
SII LP-2165 (C2 VR)
1000
IP_192.168.12.27
1000

1070
     0
  0
PLOTSETTINGS
  5
432E
102
{ACAD_XDICTIONARY
360
48F2
102
}
102
{ACAD_REACTORS
330
19
102
}
330
19
100
AcDbPlotSettings
  1
A3_フィット
  2
SII LP-2160
  4
A3
  6

 40
5.746749877929687
 41
5.873733520507812
 42
5.873779296875
 43
5.746734619140625
 44
296.989501953125
 45
419.9889831542968
 46
0.0
 47
2.408216148915926
 48
0.0
 49
0.0
140
0.0
141
0.0
142
1.0
143
1.040757855026919
 70
 11956
 72
     1
 73
     1
 74
     2
  7
monochrome_ULVAC.ctb
 75
     0
147
0.9608382921828965
148
0.0
149
0.0
1001
ACAD_PSEXT
1000
SII LP-2160
1000
SII LP-2165 (C2 VR)
1000
IP_192.168.12.27
1000

1070
     0
  0
PLOTSETTINGS
  5
432F
102
{ACAD_XDICTIONARY
360
48F4
102
}
102
{ACAD_REACTORS
330
19
102
}
330
19
100
AcDbPlotSettings
  1
A4_フィット_横
  2
SII LP-2160
  4
A4
  6

 40
5.746749877929687
 41
5.873764038085937
 42
5.873733520507812
 43
5.74676513671875
 44
209.9944915771484
 45
296.989501953125
 46
0.0
 47
2.420036161788772
 48
0.0
 49
0.0
140
0.0
141
0.0
142
1.0
143
1.497171946702004
 70
 11956
 72
     1
 73
     1
 74
     2
  7
monochrome_ULVAC.ctb
 75
     0
147
0.6679259534636733
148
0.0
149
0.0
1001
ACAD_PSEXT
1000
SII LP-2160
1000
SII LP-2165 (C2 VR)
1000
IP_192.168.12.27
1000

1070
     0
  0
PLOTSETTINGS
  5
4330
102
{ACAD_XDICTIONARY
360
48F6
102
}
102
{ACAD_REACTORS
330
19
102
}
330
19
100
AcDbPlotSettings
  1
A4_フィット_縦
  2
SII LP-2160
  4
A4
  6

 40
5.746749877929687
 41
5.873764038085937
 42
5.873733520507812
 43
5.74676513671875
 44
209.9944915771484
 45
296.989501953125
 46
0.0
 47
72.54510492597308
 48
0.0
 49
0.0
140
0.0
141
0.0
142
1.0
143
2.117212853922026
 70
 11956
 72
     1
 73
     0
 74
     2
  7
monochrome_ULVAC.ctb
 75
     0
147
0.472319067092169
148
0.0
149
0.0
1001
ACAD_PSEXT
1000
SII LP-2160
1000
SII LP-2165 (C2 VR)
1000
IP_192.168.12.27
1000

1070
     0
  0
ACDBPLACEHOLDER
  5
F
102
{ACAD_REACTORS
330
E
102
}
330
E
  0
SCALE
  5
484D
102
{ACAD_REACTORS
330
484C
102
}
330
484C
100
AcDbScale
 70
     0
300
1:1
140
1.0
141
1.0
290
     1
  0
SCALE
  5
484E
102
{ACAD_REACTORS
330
484C
102
}
330
484C
100
AcDbScale
 70
     0
300
1:2
140
1.0
141
2.0
290
     0
  0
SCALE
  5
484F
102
{ACAD_REACTORS
330
484C
102
}
330
484C
100
AcDbScale
 70
     0
300
1:4
140
1.0
141
4.0
290
     0
  0
SCALE
  5
4850
102
{ACAD_REACTORS
330
484C
102
}
330
484C
100
AcDbScale
 70
     0
300
1:5
140
1.0
141
5.0
290
     0
  0
SCALE
  5
4851
102
{ACAD_REACTORS
330
484C
102
}
330
484C
100
AcDbScale
 70
     0
300
1:8
140
1.0
141
8.0
290
     0
  0
SCALE
  5
4852
102
{ACAD_REACTORS
330
484C
102
}
330
484C
100
AcDbScale
 70
     0
300
1:10
140
1.0
141
10.0
290
     0
  0
SCALE
  5
4853
102
{ACAD_REACTORS
330
484C
102
}
330
484C
100
AcDbScale
 70
     0
300
1:16
140
1.0
141
16.0
290
     0
  0
SCALE
  5
4854
102
{ACAD_REACTORS
330
484C
102
}
330
484C
100
AcDbScale
 70
     0
300
1:20
140
1.0
141
20.0
290
     0
  0
SCALE
  5
4855
102
{ACAD_REACTORS
330
484C
102
}
330
484C
100
AcDbScale
 70
     0
300
1:30
140
1.0
141
30.0
290
     0
  0
SCALE
  5
4856
102
{ACAD_REACTORS
330
484C
102
}
330
484C
100
AcDbScale
 70
     0
300
1:40
140
1.0
141
40.0
290
     0
  0
SCALE
  5
4857
102
{ACAD_REACTORS
330
484C
102
}
330
484C
100
AcDbScale
 70
     0
300
1:50
140
1.0
141
50.0
290
     0
  0
SCALE
  5
4858
102
{ACAD_REACTORS
330
484C
102
}
330
484C
100
AcDbScale
 70
     0
300
1:100
140
1.0
141
100.0
290
     0
  0
SCALE
  5
4859
102
{ACAD_REACTORS
330
484C
102
}
330
484C
100
AcDbScale
 70
     0
300
2:1
140
2.0
141
1.0
290
     0
  0
SCALE
  5
485A
102
{ACAD_REACTORS
330
484C
102
}
330
484C
100
AcDbScale
 70
     0
300
4:1
140
4.0
141
1.0
290
     0
  0
SCALE
  5
485B
102
{ACAD_REACTORS
330
484C
102
}
330
484C
100
AcDbScale
 70
     0
300
8:1
140
8.0
141
1.0
290
     0
  0
SCALE
  5
485C
102
{ACAD_REACTORS
330
484C
102
}
330
484C
100
AcDbScale
 70
     0
300
10:1
140
10.0
141
1.0
290
     0
  0
SCALE
  5
485D
102
{ACAD_REACTORS
330
484C
102
}
330
484C
100
AcDbScale
 70
     0
300
100:1
140
100.0
141
1.0
290
     0
  0
TABLESTYLE
  5
122
102
{ACAD_XDICTIONARY
360
48B2
102
}
102
{ACAD_REACTORS
330
121
102
}
330
121
100
AcDbTableStyle
  3
Standard
 70
     0
 71
     0
 40
1.5
 41
1.5
280
     0
281
     0
  7
STANDARD
140
4.5
170
     2
 62
     0
 63
     7
283
     0
274
    -2
284
     1
 64
     0
275
    -2
285
     1
 65
     0
276
    -2
286
     1
 66
     0
277
    -2
287
     1
 67
     0
278
    -2
288
     1
 68
     0
279
    -2
289
     1
 69
     0
  7
STANDARD
140
6.0
170
     5
 62
     0
 63
     7
283
     0
274
    -2
284
     1
 64
     0
275
    -2
285
     1
 65
     0
276
    -2
286
     1
 66
     0
277
    -2
287
     1
 67
     0
278
    -2
288
     1
 68
     0
279
    -2
289
     1
 69
     0
  7
STANDARD
140
4.5
170
     5
 62
     0
 63
     7
283
     0
274
    -2
284
     1
 64
     0
275
    -2
285
     1
 65
     0
276
    -2
286
     1
 66
     0
277
    -2
287
     1
 67
     0
278
    -2
288
     1
 68
     0
279
    -2
289
     1
 69
     0
  0
VISUALSTYLE
  5
373F
102
{ACAD_XDICTIONARY
360
48D8
102
}
102
{ACAD_REACTORS
330
3739
102
}
330
3739
100
AcDbVisualStyle
  2
2dWireframe
 70
     4
 71
     0
 72
     2
 73
     0
 90
        0
 40
-0.6
 41
-30.0
 62
     5
 63
     7
 74
     1
 91
        4
 64
     7
 65
   257
 75
     1
175
     1
 42
1.0
 92
        0
 66
   257
 43
1.0
 76
     1
 77
     6
 78
     2
 67
     7
 79
     5
170
     0
171
     0
290
     0
174
     0
 93
        1
 44
0.0
173
     0
291
     0
 45
0.0
1001
ACAD
1000
AcDbSavedByObjectVersion
1070
     0
  0
VISUALSTYLE
  5
3741
102
{ACAD_XDICTIONARY
360
48DC
102
}
102
{ACAD_REACTORS
330
3739
102
}
330
3739
100
AcDbVisualStyle
  2
3D Hidden
 70
     6
 71
     1
 72
     2
 73
     2
 90
        0
 40
-0.6
 41
-30.0
 62
     5
 63
     7
 74
     2
 91
        2
 64
     7
 65
   257
 75
     2
175
     1
 42
40.0
 92
        0
 66
   257
 43
1.0
 76
     1
 77
     6
 78
     2
 67
     7
 79
     3
170
     0
171
     0
290
     0
174
     0
 93
        1
 44
0.0
173
     0
291
     0
 45
0.0
1001
ACAD
1000
AcDbSavedByObjectVersion
1070
     0
  0
VISUALSTYLE
  5
3740
102
{ACAD_XDICTIONARY
360
48DA
102
}
102
{ACAD_REACTORS
330
3739
102
}
330
3739
100
AcDbVisualStyle
  2
3dWireframe
 70
     5
 71
     0
 72
     2
 73
     0
 90
        0
 40
-0.6
 41
-30.0
 62
     5
 63
     7
 74
     1
 91
        4
 64
     7
 65
   257
 75
     1
175
     1
 42
1.0
 92
        0
 66
   257
 43
1.0
 76
     1
 77
     6
 78
     2
 67
     7
 79
     5
170
     0
171
     0
290
     0
174
     0
 93
        1
 44
0.0
173
     0
291
     0
 45
0.0
1001
ACAD
1000
AcDbSavedByObjectVersion
1070
     0
  0
VISUALSTYLE
  5
373E
102
{ACAD_XDICTIONARY
360
48D6
102
}
102
{ACAD_REACTORS
330
3739
102
}
330
3739
100
AcDbVisualStyle
  2
Basic
 70
     7
 71
     1
 72
     0
 73
     1
 90
        0
 40
-0.6
 41
-30.0
 62
     5
 63
     7
 74
     0
 91
        4
 64
     7
 65
   257
 75
     1
175
     1
 42
1.0
 92
        8
 66
     7
 43
1.0
 76
     1
 77
     6
 78
     2
 67
     7
 79
     5
170
     0
171
     0
290
     0
174
     0
 93
        1
 44
0.0
173
     0
291
     1
 45
0.0
1001
ACAD
1000
AcDbSavedByObjectVersion
1070
     0
  0
VISUALSTYLE
  5
3745
102
{ACAD_XDICTIONARY
360
48E4
102
}
102
{ACAD_REACTORS
330
3739
102
}
330
3739
100
AcDbVisualStyle
  2
Brighten
 70
    12
 71
     2
 72
     2
 73
     0
 90
        0
 40
-0.6
 41
-30.0
 62
     5
 63
     7
 74
     1
 91
        4
 64
     7
 65
   257
 75
     1
175
     1
 42
1.0
 92
        8
 66
     7
 43
1.0
 76
     1
 77
     6
 78
     2
 67
     7
 79
     5
170
     0
171
     0
290
     0
174
     0
 93
        1
 44
50.0
173
     0
291
     1
 45
0.0
1001
ACAD
1000
AcDbSavedByObjectVersion
1070
     0
  0
VISUALSTYLE
  5
3749
102
{ACAD_XDICTIONARY
360
48EC
102
}
102
{ACAD_REACTORS
330
3739
102
}
330
3739
100
AcDbVisualStyle
  2
ColorChange
 70
    16
 71
     2
 72
     2
 73
     3
 90
        0
 40
-0.6
 41
-30.0
 62
     5
 63
     8
 74
     1
 91
        4
 64
     7
 65
   257
 75
     1
175
     1
 42
1.0
 92
        8
 66
     8
 43
1.0
 76
     1
 77
     6
 78
     2
 67
     7
 79
     5
170
     0
171
     0
290
     0
174
     0
 93
        1
 44
0.0
173
     0
291
     1
 45
0.0
1001
ACAD
1000
AcDbSavedByObjectVersion
1070
     0
  0
VISUALSTYLE
  5
3742
102
{ACAD_XDICTIONARY
360
48DE
102
}
102
{ACAD_REACTORS
330
3739
102
}
330
3739
100
AcDbVisualStyle
  2
Conceptual
 70
     9
 71
     3
 72
     2
 73
     0
 90
        0
 40
-0.6
 41
-30.0
 62
     5
 63
     7
 74
     2
 91
        2
 64
     7
 65
   257
 75
     1
175
     1
 42
40.0
 92
        8
 66
     7
 43
1.0
 76
     1
 77
     6
 78
     2
 67
     7
 79
     3
170
     0
171
     0
290
     0
174
     0
 93
        1
 44
0.0
173
     0
291
     0
 45
0.0
1001
ACAD
1000
AcDbSavedByObjectVersion
1070
     0
  0
VISUALSTYLE
  5
3744
102
{ACAD_XDICTIONARY
360
48E2
102
}
102
{ACAD_REACTORS
330
3739
102
}
330
3739
100
AcDbVisualStyle
  2
Dim
 70
    11
 71
     2
 72
     2
 73
     0
 90
        0
 40
-0.6
 41
-30.0
 62
     5
 63
     7
 74
     1
 91
        4
 64
     7
 65
   257
 75
     1
175
     1
 42
1.0
 92
        8
 66
     7
 43
1.0
 76
     1
 77
     6
 78
     2
 67
     7
 79
     5
170
     0
171
     0
290
     0
174
     0
 93
        1
 44
-50.0
173
     0
291
     1
 45
0.0
1001
ACAD
1000
AcDbSavedByObjectVersion
1070
     0
  0
VISUALSTYLE
  5
484B
102
{ACAD_XDICTIONARY
360
48FC
102
}
102
{ACAD_REACTORS
330
3739
102
}
330
3739
100
AcDbVisualStyle
  2
EdgeColorOff
 70
    22
 71
     2
 72
     2
 73
     0
 90
        0
 40
-0.6
 41
-30.0
 62
     5
 63
     7
 74
     1
 91
        4
 64
     7
 65
   257
 75
     1
175
     1
 42
1.0
 92
        8
 66
     7
 43
1.0
 76
     1
 77
     6
 78
     2
 67
     7
 79
     5
170
     0
171
     0
290
     0
174
     0
 93
        1
 44
0.0
173
     0
291
     1
 45
0.0
1001
ACAD
1000
AcDbSavedByObjectVersion
1070
     0
  0
VISUALSTYLE
  5
3748
102
{ACAD_XDICTIONARY
360
48EA
102
}
102
{ACAD_REACTORS
330
3739
102
}
330
3739
100
AcDbVisualStyle
  2
Facepattern
 70
    15
 71
     2
 72
     2
 73
     0
 90
        0
 40
-0.6
 41
-30.0
 62
     5
 63
     7
 74
     1
 91
        4
 64
     7
 65
   257
 75
     1
175
     1
 42
1.0
 92
        8
 66
     7
 43
1.0
 76
     1
 77
     6
 78
     2
 67
     7
 79
     5
170
     0
171
     0
290
     0
174
     0
 93
        1
 44
0.0
173
     0
291
     1
 45
0.0
1001
ACAD
1000
AcDbSavedByObjectVersion
1070
     0
  0
VISUALSTYLE
  5
373A
102
{ACAD_XDICTIONARY
360
48CE
102
}
102
{ACAD_REACTORS
330
3739
102
}
330
3739
100
AcDbVisualStyle
  2
Flat
 70
     0
 71
     2
 72
     1
 73
     1
 90
        2
 40
-0.6
 41
30.0
 62
     5
 63
     7
 74
     0
 91
        4
 64
     7
 65
   257
 75
     1
175
     1
 42
1.0
 92
        8
 66
     7
 43
1.0
 76
     1
 77
     6
 78
     2
 67
     7
 79
     5
170
     0
171
     0
290
     0
174
     0
 93
       13
 44
0.0
173
     0
291
     1
 45
0.0
1001
ACAD
1000
AcDbSavedByObjectVersion
1070
     0
  0
VISUALSTYLE
  5
373B
102
{ACAD_XDICTIONARY
360
48D0
102
}
102
{ACAD_REACTORS
330
3739
102
}
330
3739
100
AcDbVisualStyle
  2
FlatWithEdges
 70
     1
 71
     2
 72
     1
 73
     1
 90
        2
 40
-0.6
 41
30.0
 62
     5
 63
     7
 74
     1
 91
        4
 64
     7
 65
   257
 75
     1
175
     1
 42
1.0
 92
        0
 66
   257
 43
1.0
 76
     1
 77
     6
 78
     2
 67
     7
 79
     5
170
     0
171
     0
290
     0
174
     0
 93
       13
 44
0.0
173
     0
291
     1
 45
0.0
1001
ACAD
1000
AcDbSavedByObjectVersion
1070
     0
  0
VISUALSTYLE
  5
373C
102
{ACAD_XDICTIONARY
360
48D2
102
}
102
{ACAD_REACTORS
330
3739
102
}
330
3739
100
AcDbVisualStyle
  2
Gouraud
 70
     2
 71
     2
 72
     2
 73
     1
 90
        2
 40
-0.6
 41
30.0
 62
     5
 63
     7
 74
     0
 91
        4
 64
     7
 65
   257
 75
     1
175
     1
 42
1.0
 92
        0
 66
     7
 43
1.0
 76
     1
 77
     6
 78
     2
 67
     7
 79
     5
170
     0
171
     0
290
     0
174
     0
 93
       13
 44
0.0
173
     0
291
     1
 45
0.0
1001
ACAD
1000
AcDbSavedByObjectVersion
1070
     0
  0
VISUALSTYLE
  5
373D
102
{ACAD_XDICTIONARY
360
48D4
102
}
102
{ACAD_REACTORS
330
3739
102
}
330
3739
100
AcDbVisualStyle
  2
GouraudWithEdges
 70
     3
 71
     2
 72
     2
 73
     1
 90
        2
 40
-0.6
 41
30.0
 62
     5
 63
     7
 74
     1
 91
        4
 64
     7
 65
   257
 75
     1
175
     1
 42
1.0
 92
        0
 66
   257
 43
1.0
 76
     1
 77
     6
 78
     2
 67
     7
 79
     5
170
     0
171
     0
290
     0
174
     0
 93
       13
 44
0.0
173
     0
291
     1
 45
0.0
1001
ACAD
1000
AcDbSavedByObjectVersion
1070
     0
  0
VISUALSTYLE
  5
4849
102
{ACAD_XDICTIONARY
360
48F8
102
}
102
{ACAD_REACTORS
330
3739
102
}
330
3739
100
AcDbVisualStyle
  2
JitterOff
 70
    20
 71
     2
 72
     2
 73
     0
 90
        0
 40
-0.6
 41
-30.0
 62
     5
 63
     7
 74
     1
 91
        4
 64
     7
 65
   257
 75
     1
175
     1
 42
1.0
 92
       10
 66
     7
 43
1.0
 76
     1
 77
     6
 78
     2
 67
     7
 79
     5
170
     0
171
     0
290
     0
174
     0
 93
        1
 44
0.0
173
     0
291
     1
 45
0.0
1001
ACAD
1000
AcDbSavedByObjectVersion
1070
     0
  0
VISUALSTYLE
  5
3747
102
{ACAD_XDICTIONARY
360
48E8
102
}
102
{ACAD_REACTORS
330
3739
102
}
330
3739
100
AcDbVisualStyle
  2
Linepattern
 70
    14
 71
     2
 72
     2
 73
     0
 90
        0
 40
-0.6
 41
-30.0
 62
     5
 63
     7
 74
     1
 91
        4
 64
     7
 65
   257
 75
     7
175
     7
 42
1.0
 92
        8
 66
     7
 43
1.0
 76
     1
 77
     6
 78
     2
 67
     7
 79
     5
170
     0
171
     0
290
     0
174
     0
 93
        1
 44
0.0
173
     0
291
     1
 45
0.0
1001
ACAD
1000
AcDbSavedByObjectVersion
1070
     0
  0
VISUALSTYLE
  5
484A
102
{ACAD_XDICTIONARY
360
48FA
102
}
102
{ACAD_REACTORS
330
3739
102
}
330
3739
100
AcDbVisualStyle
  2
OverhangOff
 70
    21
 71
     2
 72
     2
 73
     0
 90
        0
 40
-0.6
 41
-30.0
 62
     5
 63
     7
 74
     1
 91
        4
 64
     7
 65
   257
 75
     1
175
     1
 42
1.0
 92
        9
 66
     7
 43
1.0
 76
     1
 77
     6
 78
     2
 67
     7
 79
     5
170
     0
171
     0
290
     0
174
     0
 93
        1
 44
0.0
173
     0
291
     1
 45
0.0
1001
ACAD
1000
AcDbSavedByObjectVersion
1070
     0
  0
VISUALSTYLE
  5
3743
102
{ACAD_XDICTIONARY
360
48E0
102
}
102
{ACAD_REACTORS
330
3739
102
}
330
3739
100
AcDbVisualStyle
  2
Realistic
 70
     8
 71
     2
 72
     2
 73
     0
 90
        0
 40
-0.6
 41
-30.0
 62
     5
 63
     7
 74
     1
 91
        0
 64
     7
 65
   257
 75
     1
175
     1
 42
1.0
 92
        8
 66
     8
 43
1.0
 76
     1
 77
     6
 78
     2
 67
     7
 79
     5
170
     0
171
     0
290
     0
174
     0
 93
       13
 44
0.0
173
     0
291
     0
 45
0.0
1001
ACAD
1000
AcDbSavedByObjectVersion
1070
     0
  0
VISUALSTYLE
  5
3746
102
{ACAD_XDICTIONARY
360
48E6
102
}
102
{ACAD_REACTORS
330
3739
102
}
330
3739
100
AcDbVisualStyle
  2
Thicken
 70
    13
 71
     2
 72
     2
 73
     0
 90
        0
 40
-0.6
 41
-30.0
 62
     5
 63
     7
 74
     1
 91
        4
 64
     7
 65
   257
 75
     1
175
     1
 42
1.0
 92
       12
 66
     7
 43
1.0
 76
     1
 77
     6
 78
     2
 67
     7
 79
     5
170
     0
171
     0
290
     0
174
     0
 93
        1
 44
0.0
173
     0
291
     1
 45
0.0
1001
ACAD
1000
AcDbSavedByObjectVersion
1070
     0
  0
DICTIONARYVAR
  5
48AF
102
{ACAD_REACTORS
330
34
102
}
330
34
100
DictionaryVariables
280
     0
  1
1:1
  0
DICTIONARYVAR
  5
48AE
102
{ACAD_REACTORS
330
34
102
}
330
34
100
DictionaryVariables
280
     0
  1
STANDARD
  0
DICTIONARYVAR
  5
140
102
{ACAD_REACTORS
330
34
102
}
330
34
100
DictionaryVariables
280
     0
  1
STANDARD
  0
DICTIONARYVAR
  5
AC
102
{ACAD_REACTORS
330
34
102
}
330
34
100
DictionaryVariables
280
     0
  1
2
  0
DICTIONARYVAR
  5
35
102
{ACAD_REACTORS
330
34
102
}
330
34
100
DictionaryVariables
280
     0
  1
0
  0
DICTIONARYVAR
  5
48B0
102
{ACAD_REACTORS
330
34
102
}
330
34
100
DictionaryVariables
280
     0
  1
127
  0
DICTIONARYVAR
  5
48B1
102
{ACAD_REACTORS
330
34
102
}
330
34
100
DictionaryVariables
280
     0
  1
0
  0
DICTIONARY
  5
1C1
102
{ACAD_REACTORS
330
49
102
}
330
49
100
AcDbDictionary
281
     1
  0
DICTIONARY
  5
4A
102
{ACAD_REACTORS
330
49
102
}
330
49
100
AcDbDictionary
281
     1
  0
XRECORD
  5
12B
102
{ACAD_REACTORS
330
49
102
}
330
49
100
AcDbXrecord
280
     1
 90
-1023410169
  0
XRECORD
  5
3711
102
{ACAD_REACTORS
330
3710
102
}
330
3710
100
AcDbXrecord
280
     1
  0
DICTIONARY
  5
48BD
330
22
100
AcDbDictionary
280
     1
281
     1
  3
ACAD_XREC_ROUNDTRIP
360
48BE
  0
DICTIONARY
  5
19A8
330
1E
100
AcDbDictionary
280
     1
281
     1
  3
ACAD_XREC_ROUNDTRIP
360
48BC
  3
ADSK_XREC_LAYOUTTHUMBNAIL
360
19A9
  0
DICTIONARY
  5
48BF
330
26
100
AcDbDictionary
280
     1
281
     1
  3
ACAD_XREC_ROUNDTRIP
360
48C0
  0
DICTIONARY
  5
48CA
330
3737
100
AcDbDictionary
280
     1
281
     1
  3
ACAD_XREC_ROUNDTRIP
360
48CB
  0
DICTIONARY
  5
48C8
330
3736
100
AcDbDictionary
280
     1
281
     1
  3
ACAD_XREC_ROUNDTRIP
360
48C9
  0
DICTIONARY
  5
48CC
330
3738
100
AcDbDictionary
280
     1
281
     1
  3
ACAD_XREC_ROUNDTRIP
360
48CD
  0
DICTIONARY
  5
48EE
330
432C
100
AcDbDictionary
280
     1
281
     1
  3
ACAD_XREC_ROUNDTRIP
360
48EF
  0
DICTIONARY
  5
48F0
330
432D
100
AcDbDictionary
280
     1
281
     1
  3
ACAD_XREC_ROUNDTRIP
360
48F1
  0
DICTIONARY
  5
48F2
330
432E
100
AcDbDictionary
280
     1
281
     1
  3
ACAD_XREC_ROUNDTRIP
360
48F3
  0
DICTIONARY
  5
48F4
330
432F
100
AcDbDictionary
280
     1
281
     1
  3
ACAD_XREC_ROUNDTRIP
360
48F5
  0
DICTIONARY
  5
48F6
330
4330
100
AcDbDictionary
280
     1
281
     1
  3
ACAD_XREC_ROUNDTRIP
360
48F7
  0
DICTIONARY
  5
48B2
330
122
100
AcDbDictionary
280
     1
281
     1
  3
ACAD_ROUNDTRIP_2008_TABLESTYLE_CELLSTYLEMAP
360
48B3
  3
ACAD_XREC_ROUNDTRIP
360
48C1
  0
DICTIONARY
  5
48D8
330
373F
100
AcDbDictionary
280
     1
281
     1
  3
ACAD_XREC_ROUNDTRIP
360
48D9
  0
DICTIONARY
  5
48DC
330
3741
100
AcDbDictionary
280
     1
281
     1
  3
ACAD_XREC_ROUNDTRIP
360
48DD
  0
DICTIONARY
  5
48DA
330
3740
100
AcDbDictionary
280
     1
281
     1
  3
ACAD_XREC_ROUNDTRIP
360
48DB
  0
DICTIONARY
  5
48D6
330
373E
100
AcDbDictionary
280
     1
281
     1
  3
ACAD_XREC_ROUNDTRIP
360
48D7
  0
DICTIONARY
  5
48E4
330
3745
100
AcDbDictionary
280
     1
281
     1
  3
ACAD_XREC_ROUNDTRIP
360
48E5
  0
DICTIONARY
  5
48EC
330
3749
100
AcDbDictionary
280
     1
281
     1
  3
ACAD_XREC_ROUNDTRIP
360
48ED
  0
DICTIONARY
  5
48DE
330
3742
100
AcDbDictionary
280
     1
281
     1
  3
ACAD_XREC_ROUNDTRIP
360
48DF
  0
DICTIONARY
  5
48E2
330
3744
100
AcDbDictionary
280
     1
281
     1
  3
ACAD_XREC_ROUNDTRIP
360
48E3
  0
DICTIONARY
  5
48FC
330
484B
100
AcDbDictionary
280
     1
281
     1
  3
ACAD_XREC_ROUNDTRIP
360
48FD
  0
DICTIONARY
  5
48EA
330
3748
100
AcDbDictionary
280
     1
281
     1
  3
ACAD_XREC_ROUNDTRIP
360
48EB
  0
DICTIONARY
  5
48CE
330
373A
100
AcDbDictionary
280
     1
281
     1
  3
ACAD_XREC_ROUNDTRIP
360
48CF
  0
DICTIONARY
  5
48D0
330
373B
100
AcDbDictionary
280
     1
281
     1
  3
ACAD_XREC_ROUNDTRIP
360
48D1
  0
DICTIONARY
  5
48D2
330
373C
100
AcDbDictionary
280
     1
281
     1
  3
ACAD_XREC_ROUNDTRIP
360
48D3
  0
DICTIONARY
  5
48D4
330
373D
100
AcDbDictionary
280
     1
281
     1
  3
ACAD_XREC_ROUNDTRIP
360
48D5
  0
DICTIONARY
  5
48F8
330
4849
100
AcDbDictionary
280
     1
281
     1
  3
ACAD_XREC_ROUNDTRIP
360
48F9
  0
DICTIONARY
  5
48E8
330
3747
100
AcDbDictionary
280
     1
281
     1
  3
ACAD_XREC_ROUNDTRIP
360
48E9
  0
DICTIONARY
  5
48FA
330
484A
100
AcDbDictionary
280
     1
281
     1
  3
ACAD_XREC_ROUNDTRIP
360
48FB
  0
DICTIONARY
  5
48E0
330
3743
100
AcDbDictionary
280
     1
281
     1
  3
ACAD_XREC_ROUNDTRIP
360
48E1
  0
DICTIONARY
  5
48E6
330
3746
100
AcDbDictionary
280
     1
281
     1
  3
ACAD_XREC_ROUNDTRIP
360
48E7
  0
XRECORD
  5
48BE
102
{ACAD_REACTORS
330
48BD
102
}
330
48BD
100
AcDbXrecord
280
     1
102
SHADEPLOT
 70
     0
102
SHADEPLOTRESLEVEL
 70
     2
102
SHADEPLOTCUSTOMDPI
 70
   300
  0
XRECORD
  5
48BC
102
{ACAD_REACTORS
330
19A8
102
}
330
19A8
100
AcDbXrecord
280
     1
102
SHADEPLOT
 70
     0
102
SHADEPLOTRESLEVEL
 70
     2
102
SHADEPLOTCUSTOMDPI
 70
   300
  0
XRECORD
  5
19A9
102
{ACAD_REACTORS
330
19A8
102
}
330
19A8
100
AcDbXrecord
280
     1
310
28000000B40000008B0000000100080000000000BC61000000000000000000000001000000000000FFFFFF0000000000FFFFFF000000000000000000000000000000000000000000000000000000000000000000330000006600000099000000CC000000FF00000000330000333300006633000099330000CC330000FF3300
310
0000660000336600006666000099660000CC660000FF66000000990000339900006699000099990000CC990000FF99000000CC000033CC000066CC000099CC0000CCCC0000FFCC000000FF000033FF000066FF000099FF0000CCFF0000FFFF000000003300330033006600330099003300CC003300FF003300003333003333
310
33006633330099333300CC333300FF33330000663300336633006666330099663300CC663300FF66330000993300339933006699330099993300CC993300FF99330000CC330033CC330066CC330099CC3300CCCC3300FFCC330000FF330033FF330066FF330099FF3300CCFF3300FFFF330000006600330066006600660099
310
006600CC006600FF00660000336600333366006633660099336600CC336600FF33660000666600336666006666660099666600CC666600FF66660000996600339966006699660099996600CC996600FF99660000CC660033CC660066CC660099CC6600CCCC6600FFCC660000FF660033FF660066FF660099FF6600CCFF6600
310
FFFF660000009900330099006600990099009900CC009900FF00990000339900333399006633990099339900CC339900FF33990000669900336699006666990099669900CC669900FF66990000999900339999006699990099999900CC999900FF99990000CC990033CC990066CC990099CC9900CCCC9900FFCC990000FF99
310
0033FF990066FF990099FF9900CCFF9900FFFF99000000CC003300CC006600CC009900CC00CC00CC00FF00CC000033CC003333CC006633CC009933CC00CC33CC00FF33CC000066CC003366CC006666CC009966CC00CC66CC00FF66CC000099CC003399CC006699CC009999CC00CC99CC00FF99CC0000CCCC0033CCCC0066CC
310
CC0099CCCC00CCCCCC00FFCCCC0000FFCC0033FFCC0066FFCC0099FFCC00CCFFCC00FFFFCC000000FF003300FF006600FF009900FF00CC00FF00FF00FF000033FF003333FF006633FF009933FF00CC33FF00FF33FF000066FF003366FF006666FF009966FF00CC66FF00FF66FF000099FF003399FF006699FF009999FF00CC
310
99FF00FF99FF0000CCFF0033CCFF0066CCFF0099CCFF00CCCCFF00FFCCFF0000FFFF0033FFFF0066FFFF0099FFFF00CCFFFF00FFFFFF00000000000D0D0D001A1A1A00282828003535350043434300505050005D5D5D006B6B6B00787878008686860093939300A1A1A100AEAEAE00BBBBBB00C9C9C900D6D6D600E4E4E400
310
F1F1F100FFFFFF0000000000000000000000000000000000000000000000000000000000000000000000000000000000E2E2E2E2E2E2E2E2E2E2E2E2E2E2E2E2E2E2E2E2E2E2E2E2E2E2E2E2E2E2E2E2E2E2E2E2E2E2E2E2E2E2E2E2E2E2E2E2E2E2E2E2E2E2E2E2E2E2E2E2E2E2E2E2E2E2E2E2E2E2E2E2E2E2E2E2E2E2E2
310
E2E2E2E2E2E2E2E2E2E2E2E2E2E2E2E2E2E2E2E2E2E2E2E2E2E2E2E2E2E2E2E2E2E2E2E2E2E2E2E2E2E2E2E2E2E2E2E2E2E2E2E2E2E2E2E2E2E2E2E2E2E2E2E2E2E2E2E2E2E2E2E2E2E2E2E2E2E2E2E2E2E2E2E2E2E2E2E2E2E2E2E2E2E2E2E2E2E2E2E2E2E2F5F5F5F5F5F5F5F5F5F5F5F5F5F5F5F5F5F5F5F5F5F5F5F5F5
310
F5F5F5F5F5F5F5F5F5F5F5F5F5F5F5F5F5F5F5F5F5F5F5F5F5F5F5F5F5F5F5F5F5F5F5F5F5F5F5F5F5F5F5F5F5F5F5F5F5F5F5F5F5F5F5F5F5F5F5F5F5F5F5F5F5F5F5F5F5F5F5F5F5F5F5F5F5F5F5F5F5F5F5F5F5F5F5F5F5F5F5F5F5F5F5F5F5F5F5F5F5F5F5F5F5F5F5F5F5F5F5F5F5F5F5F5F5F5F5F5F5F5F5F5F5F5F5
310
F5F5F5F5F5F5F5F5F5F5F5F5F5F5F5F5F5F5F5F5F5F5F5F5F5E2E2E2F5F5F5F5F5F5F5F5F5F5F5F5F5F5F5F5F5F5F5F5F5F5F5F5F5F5F5F5F5F5F5F5F5F5F5F5F5F5F5F5F5F5F5F5F5F5F5F5F5F5F5F5F5F5F5F5F5F5F5F5F5F5F5F5F5F5F5F5F5F5F5F5F5F5F5F5F5F5F5F5F5F5F5F5F5F5F5F5F5F5F5F5F5F5F5F5F5F5F5
310
F5F5F5F5F5F5F5F5F5F5F5F5F5F5F5F5F5F5F5F5F5F5F5F5F5F5F5F5F5F5F5F5F5F5F5F5F5F5F5F5F5F5F5F5F5F5F5F5F5F5F5F5F5F5F5F5F5F5F5F5F5F5F5F5F5F5F5F5F5F5F5F5F5F5F5F5F5F5E2E2E2F5F5F5F5F5F5F5F5F5F5F5F5F5F5F5F5F5F5F5F5F5F5F5F5F5F5F5F5F5F5F5F5F5F5F5F5F5F5F5F5F5F5F5F5F5F5
310
F5F5F5F5F5F5F5F5F5F5F5F5F5F5F5F5F5F5F5F5F5F5F5F5F5F5F5F5F5F5F5F5F5F5F5F5F5F5F5F5F5F5F5F5F5F5F5F5F5F5F5F5F5F5F5F5F5F5F5F5F5F5F5F5F5F5F5F5F5F5F5F5F5F5F5F5F5F5F5F5F5F5F5F5F5F5F5F5F5F5F5F5F5F5F5F5F5F5F5F5F5F5F5F5F5F5F5F5F5F5F5F5F5F5F5F5F5F5F5F5F5F5F5F5F5F5F5
310
F5F5F5F5E2E2E2F5F5F5F5F5F5F5F5F5F5F5F5F5F5F5F5F5F5F5F5F5F5F5F5F5F5F5F5F5F5F5F5F5F5F5F5F5F5F5F5F5F5F5F5F5F5F5F5F5F5F5F5F5F5F5F5F5F5F5F5F5F5F5F5F5F5F5F5F5F5F5F5F5F5F5F5F5F5F5F5F5F5F5F5F5F5F5F5F5F5F5F5F5F5F5F5F5F5F5F5F5F5F5F5F5F5F5F5F5F5F5F5F5F5F5F5F5F5F5F5
310
F5F5F5F5F5F5F5F5F5F5F5F5F5F5F5F5F5F5F5F5F5F5F5F5F5F5F5F5F5F5F5F5F5F5F5F5F5F5F5F5F5F5F5F5F5F5F5F5F5F5F5F5F5F5F5F5F5E2E2E2F5F5F5E2E2E2E2E2E2E2E2F5F5F5F5F5F5F5F5F5E2E2E2E2E2E2E2E2E2E2E2E2E2E2E2E2F5F5F5F5F5F5F5F5E2E2E2E2E2E2E2E2E2E2E2E2E2E2E2E2F5F5F5F5F5F5F5
310
F5F5E2E2E2E2E2E2E2E2E2E2E2E2E2E2E2F5F5F5F5F5F5F5F5F5E2E2E2E2E2E2E2E2E2E2E2E2E2E2E2F5F5F5F5F5F5F5F5F5E2E2E2E2E2E2E2E2E2E2E2E2E2E2E2E2F5F5F5F5F5F5F5F5E2E2E2E2E2E2E2E2E2E2E2E2E2E2E2E2F5F5F5F5F5F5F5F5F5E2E2E2E2E2E2E2E2F5F5F5E2E2E2F5F5F5E2F5F5F5F5F5F5F5F5F5F5
310
F5F5F5F5F5F5F5F5F5F5F5F5F5F5F5F5F5F5F5F5F5F5F5F5F5F5F5F5F5F5F5F5F5F5F5F5F5F5F5F5F5F5F5F5F5F5F5F5F5F5F5F5F5F5F5F5F5F5F5F5F5F5F5F5F5F5F5F5F5F5F5F5F5F5F5F5F5F5F5F5F5F5F5F5F5F5F5F5F5F5F5F5F5F5F5F5F5F5F5F5F5F5F5F5F5F5F5F5F5F5F5F5F5F5F5F5F5F5F5F5F5F5F5F5F5F5F5
310
F5F5F5F5F5F5F5F5F5F5F5F5F5F5F5F5F5F5F5F5F5F5F5F5F5F5F5F5F5F5F5F5E2F5F5F5E2E2E2F5F5F5E2F5F5F5F5F5F5F5F5F5F5F5F5F5F5F5F5F5F5F5F5F5F5F5F5F5F5F5F5F5F5F5F5F5F5F5F5F5F5F5F5F5F5F5F5F5F5F5F5F5F5F5F5F5F5F5F5F5F5F5F5F5F5F5F5F5F5F5F5F5F5F5F5F5F5F5F5F5F5F5F5F5F5F5F5
310
F5F5F5F5F5F5F5F5F5F5F5F5F5F5F5F5F5F5F5F5F5F5F5F5F5F5F5F5F5F5F5F5F5F5F5F5F5F5F5F5F5F5F5F5F5F5F5F5F5F5F5F5F5F5F5F5F5F5F5F5F5F5F5F5F5F5F5F5F5F5F5F5F5F5F5F5F5F5F5F5F5F5F5F5F5E2F5F5F5E2E2E2F5F5F5E2F5F5F5F5F5F5F5F5F5F5F5F5F5F5F5F5F5F5F5F5F5F5F5F5F5F5F5F5F5F5F5
310
F5F5F5F5F5F5F5F5F5F5F5F5F5F5F5F5F5F5F5F5F5F5F5F5F5F5F5F5F5F5F5F5F5F5F5F5F5F5F5F5F5F5F5F5F5F5F5F5F5F5F5F5F5F5F5F5F5F5F5F5F5F5F5F5F5F5F5F5F5F5F5F5F5F5F5F5F5F5F5F5F5F5F5F5F5F5F5F5F5F5F5F5F5F5F5F5F5F5F5F5F5F5F5F5F5F5F5F5F5F5F5F5F5F5F5F5F5F5F5F5F5F5F5F5F5F5F5
310
F5F5F5F5F5F5F5F5F5F5F5E2F5F5F5E2E2E2F5F5F5E2F5F5F5F5F5F5F5F5F5F5F5F5F5F5F5F5F5F5F5F5F5F5F5F5F5F5F5F5F5F5F5F5F5F5F5F5F5F5F5F5F5F5F5F5F5F5F5F5F5F5F5F5F5F5F5F5F5F5F5F5F5F5F5F5F5F5F5F5F5F5F5F5F5F5F5F5F5F5F5F5F5F5F5F5F5F5F5F5F5F5F5F5F5F5F5F5F5F5F5F5F5F5F5F5F5
310
F5F5F5F5F5F5F5F5F5F5F5F5F5F5F5F5F5F5F5F5F5F5F5F5F5F5F5F5F5F5F5F5F5F5F5F5F5F5F5F5F5F5F5F5F5F5F5F5F5F5F5F5F5F5F5F5F5F5F5F5F5F5F5F5E2F5F5F5E2E2E2F5F5F5E2F5F5F5F5F5F5F5F5F5F5F5F5F5F5F5F5F5F5F5F5F5F5F5F5F5F5F5F5F5F5F5F5F5F5F5F5F5F5F5F5F5F5F5F5F5F5F5F5F5F5F5F5
310
F5F5F5F5F5F5F5F5F5F5F5F5F5F5F5F5F5F5F5F5F5F5F5F5F5F5F5F5F5F5F5F5F5F5F5F5F5F5F5F5F5F5F5F5F5F5F5F5F5F5F5F5F5F5F5F5F5F5F5F5F5F5F5F5F5F5F5F5F5F5F5F5F5F5F5F5F5F5F5F5F5F5F5F5F5F5F5F5F5F5F5F5F5F5F5F5F5F5F5F5F5F5F5F5F5F5F5F5F5F5F5F5F5F5F5F5F5E2F5F5F5E2E2E2F5F5F5
310
E2F5F5F5F5F5F5F5F5F5F5F5F5F5F5F5F5F5F5F5F5F5F5F5F5F5F5F5F5F5F5F5F5F5F5F5F5F5F5F5F5F5F5F5F5F5F5F5F5F5F5F5F5F5F5F5F5F5F5F5F5F5F5F5F5F5F5F5F5F5F5F5F5F5F5F5F5F5F5F5F5F5F5F5F5F5F5F5F5F5F5F5F5F5F5F5F5F5F5F5F5F5F5F5F5F5F5F5F5F5F5F5F5F5F5F5F5F5F5F5F5F5F5F5F5F5F5
310
F5F5F5F5F5F5F5F5F5F5F5F5F5F5F5F5F5F5F5F5F5F5F5F5F5F5F5F5F5F5F5F5F5F5F5F5F5F5F5F5F5F5F5E2F5F5F5E2E2E2F5F5F5E2F5F5F5F5F5F5F5F5F5F5F5F5F5F5F5F5F5F5F5F5F5F5F5F5F5F5F5F5F5F5F5F5F5F5F5F5F5F5F5F5F5F5F5F5F5F5F5F5F5F5F5F5F5F5F5F5F5F5F5F5F5F5F5F5F5F5F5F5F5F5F5F5F5
310
F5F5F5F5F5F5F5F5F5F5F5F5F5F5F5F5F5F5F5F5F5F5F5F5F5F5F5F5F5F5F5F5F5F5F5F5F5F5F5F5F5F5F5F5F5F5F5F5F5F5F5F5F5F5F5F5F5F5F5F5F5F5F5F5F5F5F5F5F5F5F5F5F5F5F5F5F5F5F5F5F5F5F5F5F5F5F5F5F5F5F5F5F5F5F5F5E2F5F5F5E2E2E2F5F5F5E2F5F5F5F5F5F5F5F5F5F5F5F5F5F5F5F5F5F5F5F5
310
F5F5F5F5F5F5F5F5F5F5F5F5F5F5F5F5F5F5F5F5F5F5F5F5F5F5F5F5F5F5F5F5F5F5F5F5F5F5F5F5F5F5F5F5F5F5F5F5F5F5F5F5F5F5F5F5F5F5F5F5F5F5F5F5F5F5F5F5F5F5F5F5F5F5F5F5F5F5F5F5F5F5F5F5F5F5F5F5F5F5F5F5F5F5F5F5F5F5F5F5F5F5F5F5F5F5F5F5F5F5F5F5F5F5F5F5F5F5F5F5F5F5F5F5F5F5F5
310
F5F5F5F5F5F5F5F5F5F5F5F5F5F5F5F5F5F5F5F5F5F5E2F5F5F5E2E2E2F5F5F5F5F5F5F5F5F5F5F5F5F5F5F5F5F5F5F5F5F5F5F5F5F5F5F5F5F5F5F5F5F5F5F5F5F5F5F5F5F5F5F5F5F5F5F5F5F5F5F5F5F5F5F5F5F5F5F5F5F5F5F5F5F5F5F5F5F5F5F5F5F5F5F5F5F5F5F5F5F5F5F5F5F5F5F5F5F5F5F5F5F5F5F5F5F5F5
310
F5F5F5F5F5F5F5F5F5F5F5F5F5F5F5F5F5F5F5F5F5F5F5F5F5F5F5F5F5F5F5F5F5F5F5F5F5F5F5F5F5F5F5F5F5F5F5F5F5F5F5F5F5F5F5F5F5F5F5F5F5F5F5F5F5F5F5F5F5F5F5F5F5F5F5F5F5F5F5E2E2E2F5F5F5F5F5F5F5F5F5F5F5F5F5F5F5F5F5F5F5F5F5F5F5F5F5F5F5F5F5F5F5F5F5F5F5F5F5F5F5F5F5F5F5F5F5
310
F5F5F5F5F5F5F5F5F5F5F5F5F5F5F5F5F5F5F5F5F5F5F5F5F5F5F5F5F5F5F5F5F5F5F5F5F5F5F5F5F5F5F5F5F5F5F5F5F5F5F5F5F5F5F5F5F5F5F5F5F5F5F5F5F5F5F5F5F5F5F5F5F5F5F5F5F5F5F5F5F5F5F5F5F5F5F5F5F5F5F5F5F5F5F5F5F5F5F5F5F5F5F5F5F5F5F5F5F5F5F5F5F5F5F5F5F5F5F5F5F5F5F5F5F5F5F5
310
F5F5F5F5F5E2E2E2F5F5F5F5F5F5F5F5F5F5F5F5F5F5F5F5F5F5F5F5F5F5F5F5F5F5F5F5F5F5F5F5F5F5F5F5F5F5F5F5F5F5F5F5F5F5F5F5F5F5F5F5F5F5F5F5F5F5F5F5F5F5F5F5F5F5F5F5F5F5F5F5F5F5F5F5F5F5F5F5F5F5F5F5F5F5F5F5F5F5F5F5F5F5F5F5F5F5F5F5F5F5F5F5F5F5F5F5F5F5F5F5F5F5F5F5F5F5F5
310
F5F5F5F5F5F5F5F5F5F5F5F5F5F5F5F5F5F5F5F5F5F5F5F5F5F5F5F5F5F5F5F5F5F5F5F5F5F5F5F5F5F5F5F5F5F5F5F5F5F5F5F5F5F5F5F5F5F5E2E2E2F5F5F5F5F5F5F5F5F5F5F5F5F5F5F5F5F5F5F5F5F5F5F5F5F5F5F5F5F5F5F5F5F5F5F5F5F5F5F5F5F5F5F5F5F5F5F5F5F5F5F5F5F5F5F5F5F5F5F5F5F5F5F5F5F5F5
310
F5F5F5F5F5F5F5F5F5F5F5F5F5F5F5F5F5F5F5F5F5F5F5F5F5F5F5F5F5F5F5F5F5F5F5F5F5F5F5F5F5F5F5F5F5F5F5F5F5F5F5F5F5F5F5F5F5F5F5F5F5F5F5F5F5F5F5F5F5F5F5F5F5F5F5F5F5F5F5F5F5F5F5F5F5F5F5F5F5F5F5F5F5F5F5F5F5F5F5F5F5F5F5F5F5F5F5F5F5F5F5E2E2E2F5F5F5F5F5F5F5F5F5F5F5F5F5
310
F5F5F5F5F5F5F5F5F5F5F5F5F5F5F5F5F5F5F5F5F5F5F5F5F5F5F5F5F5F5F5F5F5F5F5F5F5F5F5F5F5F5F5F5F5F5F5F5F5F5F5F5F5F5F5F5F5F5F5F5F5F5F5F5F5F5F5F5F5F5F5F5F5F5F5F5F5F5F5F5F5F5F5F5F5F5F5F5F5F5F5F5F5F5F5F5F5F5F5F5F5F5F5F5F5F5F5F5F5F5F5F5F5F5F5F5F5F5F5F5F5F5F5F5F5F5F5
310
F5F5F5F5F5F5F5F5F5F5F5F5F5F5F5F5F5F5F5F5F5F5F5F5F5F5F5F5F5F5F5F5F5F5F5F5F5E2E2E2F5F5F5F5F5F5F5F5F5F5F5F5F5F5F5F5F5F5F5F5F5F5F5F5F5F5F5F5F5F5F5F5F5F5F5F5F5F5F5F5F5F5F5F5F5F5F5F5F5F5F5F5F5F5F5F5F5F5F5F5F5F5F5F5F5F5F5F5F5F5F5F5F5F5F5F5F5F5F5F5F5F5F5F5F5F5F5
310
F5F5F5F5F5F5F5F5F5F5F5F5F5F5F5F5F5F5F5F5F5F5F5F5F5F5F5F5F5F5F5F5F5F5F5F5F5F5F5F5F5F5F5F5F5F5F5F5F5F5F5F5F5F5F5F5F5F5F5F5F5F5F5F5F5F5F5F5F5F5F5F5F5F5F5F5F5F5F5F5F5F5F5F5F5F5F5F5F5F5E2E2E2F5F5F5F5F5F5F5F5F5F5F5F5F5F5F5F5F5F5F5F5F5F5F5F5F5F5F5F5F5F5F5F5F5F5
310
F5F5F5F5F5F5F5F5F5F5F5F5F5F5F5F5F5F5F5F5F5F5F5F5F5F5F5F5F5F5F5F5F5F5F5F5F5F5F5F5F5F5F5F5F5F5F5F5F5F5F5F5F5F5F5F5F5F5F5F5F5F5F5F5F5F5F5F5F5F5F5F5F5F5F5F5F5F5F5F5F5F5F5F5F5F5F5F5F5F5F5F5F5F5F5F5F5F5F5F5F5F5F5F5F5F5F5F5F5F5F5F5F5F5F5F5F5F5F5F5F5F5F5F5F5F5F5
310
F5F5F5F5F5F5F5F5F5F5F5F5F5F5F5F5E2E2E2F5F5F5F5F5F5F5F5F5F5F5F5F5F5F5F5F5F5F5F5F5F5F5F5F5F5F5F5F5F5F5F5F5F5F5F5F5F5F5F5F5F5F5F5F5F5F5F5F5F5F5F5F5F5F5F5F5F5F5F5F5F5F5F5F5F5F5F5F5F5F5F5F5F5F5F5F5F5F5F5F5F5F5F5F5F5F5F5F5F5F5F5F5F5F5F5F5F5F5F5F5F5F5F5F5F5F5F5
310
F5F5F5F5F5F5F5F5F5F5F5F5F5F5F5F5F5F5F5F5F5F5F5F5F5F5F5F5F5F5F5F5F5F5F5F5F5F5F5F5F5F5F5F5F5F5F5F5F5F5F5F5F5F5F5F5F5F5F5F5F5F5F5F5F5F5F5F5F5E2E2E2F5F5F5F5F5F5F5F5F5F5F5F5F5F5F5F5F5F5F5F5F5F5F5F5F5F5F5F5F5F5F5F5F5F5F5F5F5F5F5F5F5F5F5F5F5F5F5F5F5F5F5F5F5F5F5
310
F5F5F5F5F5F5F5F5F5F5F5F5F5F5F5F5F5F5F5F5F5F5F5F5F5F5F5F5F5F5F5F5F5F5F5F5F5F5F5F5F5F5F5F5F5F5F5F5F5F5F5F5F5F5F5F5F5F5F5F5F5F5F5F5F5F5F5F5F5F5F5F5F5F5F5F5F5F5F5F5F5F5F5F5F5F5F5F5F5F5F5F5F5F5F5F5F5F5F5F5F5F5F5F5F5F5F5F5F5F5F5F5F5F5F5F5F5F5F5F5F5F5E2E2E2F5F5
310
F5E2F5F5F5F5F5F5F5F5F5F5F5F5F5F5F5F5F5F5F5F5F5F5F5F5F5F5F5F5F5F5F5F5F5F5F5F5F5F5F5F5F5F5F5F5F5F5F5F5F5F5F5F5F5F5F5F5F5F5F5F5F5F5F5F5F5F5F5F5F5F5F5F5F5F5F5F5F5F5F5F5F5F5F5F5F5F5F5F5F5F5F5F5F5F5F5F5F5F5F5F5F5F5F5F5F5F5F5F5F5F5F5F5F5F5F5F5F5F5F5F5F5F5F5F5F5
310
F5F5F5F5F5F5F5F5F5F5F5F5F5F5F5F5F5F5F5F5F5F5F5F5F5F5F5F5F5F5F5F5F5F5F5F5F5F5F5F5F5F5F5F5E2F5F5F5E2E2E2F5F5F5E2F5F5F5F5F5F5F5F5F5F5F5F5F5F5F5F5F5F5F5F5F5F5F5F5F5F5F5F5F5F5F5F5F5F5F5F5F5F5F5F5F5F5F5F5F5F5F5F5F5F5F5F5F5F5F5F5F5F5F5F5F5F5F5F5F5F5F5F5F5F5F5F5
310
F5F5F5F5F5F5F5F5F5F5F5F5F5F5F5F5F5F5F5F5F5F5F5F5F5F5F5F5F5F5F5F5F5F5F5F5F5F5F5F5F5F5F5F5F5F5F5F5F5F5F5F5F5F5F5F5F5F5F5F5F5F5F5F5F5F5F5F5F5F5F5F5F5F5F5F5F5F5F5F5F5F5F5F5F5F5F5F5F5F5F5F5F5F5F5F5F5E2F5F5F5E2E2E2F5F5F5E2F5F5F5F5F5F5F5F5F5F5F5F5F5F5F5F5F5F5F5
310
F5F5F5F5F5F5F5F5F5F5F5F5F5F5F5F5F5F5F5F5F5F5F5F5F5F5F5F5F5F5F5F5F5F5F5F5F5F5F5F5F5F5F5F5F5F5F5F5F5F5F5F5F5F5F5F5F5F5F5F5F5F5F5F5F5F5F5F5F5F5F5F5F5F5F5F5F5F5F5F5F5F5F5F5F5F5F5F5F5F5F5F5F5F5F5F5F5F5F5F5F5F5F5F5F5F5F5F5F5F5F5F5F5F5F5F5F5F5F5F5F5F5F5F5F5F5F5
310
F5F5F5F5F5F5F5F5F5F5F5F5F5F5F5F5F5F5F5F5F5F5F5E2F5F5F5E2E2E2F5F5F5E2F5F5F5F5F5F5F5F5F5F5F5F5F5F5F5F5F5F5F5F5F5F5F5F5F5F5F5F5F5F5F5F5F5F5F5F5F5F5F5F5F5F5F5F5F5F5F5F5F5F5F5F5F5F5F5F5F5F5F5F5F5F5F5F5F5F5F5F5F5F5F5F5F5F5F5F5F5F5F5F5F5F5F5F5F5F5F5F5F5F5F5F5F5
310
F5F5F5F5F5F5F5F5F5F5F5F5F5F5F5F5F5F5F5F5F5F5F5F5F5F5F5F5F5F5F5F5F5F5F5F5F5F5F5F5F5F5F5F5F5F5F5F5F5F5F5F5F5F5F5F5F5F5F5F5F5F5F5F5F5F5F5F5F5F5F5F5F5F5F5F5E2F5F5F5E2E2E2F5F5F5E2F5F5F5F5F5F5F5F5F5F5F5F5F5F5F5F5F5F5F5F5F5F5F5F5F5F5F5F5F5F5F5F5F5F5F5F5F5F5F5F5
310
F5F5F5F5F5F5F5F5F5F5F5F5F5F5F5F5F5F5F5F5F5F5F5F5F5F5F5F5F5F5F5F5F5F5F5F5F5F5F5F5F5F5F5F5F5F5F5F5F5F5F5F5F5F5F5F5F5F5F5F5F5F5F5F5F5F5F5F5F5F5F5F5F5F5F5F5F5F5F5F5F5F5F5F5F5F5F5F5F5F5F5F5F5F5F5F5F5F5F5F5F5F5F5F5F5F5F5F5F5F5F5F5F5F5F5F5F5F5F5F5F5F5F5F5F5F5F5
310
F5F5E2F5F5F5E2E2E2F5F5F5E2F5F5F5F5F5F5F5F5F5F5F5F5F5F5F5F5F5F5F5F5F5F5F5F5F5F5F5F5F5F5F5F5F5F5F5F5F5F5F5F5F5F5F5F5F5F5F5F5F5F5F5F5F5F5F5F5F5F5F5F5F5F5F5F5F5F5F5F5F5F5F5F5F5F5F5F5F5F5F5F5F5F5F5F5F5F5F5F5F5F5F5F5F5F5F5F5F5F5F5F5F5F5F5F5F5F5F5F5F5F5F5F5F5F5
310
F5F5F5F5F5F5F5F5F5F5F5F5F5F5F5F5F5F5F5F5F5F5F5F5F5F5F5F5F5F5F5F5F5F5F5F5F5F5F5F5F5F5F5F5F5F5F5F5F5F5F5F5F5F5F5E2F5F5F5E2E2E2F5F5F5E2F5F5F5F5F5F5F5F5F5F5F5F5F5F5F5F5F5F5F5F5F5F5F5F5F5F5F5F5F5F5F5F5F5F5F5F5F5F5F5F5F5F5F5F5F5F5F5F5F5F5F5F5F5F5F5F5F5F5F5F5F5
310
F5F5F5F5F5F5F5F5F5F5F5F5F5F5F5F5F5F5F5F5F5F5F5F5F5F5F5F5F5F5F5F5F5F5F5F5F5F5F5F5F5F5F5F5F5F5F5F5F5F5F5F5F5F5F5F5F5F5F5F5F5F5F5F5F5F5F5F5F5F5F5F5F5F5F5F5F5F5F5F5F5F5F5F5F5F5F5F5F5F5F5F5F5F5F5F5F5F5F5F5F5F5F5F5F5F5F5F5E2F5F5F5E2E2E2F5F5F5E2F5F5F5F5F5F5F5F5
310
F5F5F5F5F5F5F5F5F5F5F5F5F5F5F5F5F5F5F5F5F5F5F5F5F5F5F5F5F5F5F5F5F5F5F5F5F5F5F5F5F5F5F5F5F5F5F5F5F5F5F5F5F5F5F5F5F5F5F5F5F5F5F5F5F5F5F5F5F5F5F5F5F5F5F5F5F5F5F5F5F5F5F5F5F5F5F5F5F5F5F5F5F5F5F5F5F5F5F5F5F5F5F5F5F5F5F5F5F5F5F5F5F5F5F5F5F5F5F5F5F5F5F5F5F5F5F5
310
F5F5F5F5F5F5F5F5F5F5F5F5F5F5F5F5F5F5F5F5F5F5F5F5F5F5F5F5F5F5F5F5F5F5E2F5F5F5E2E2E2F5F5F5E2F5F5F5F5F5F5F5F5F5F5F5F5F5F5F5F5F5F5F5F5F5F5F5F5F5F5F5F5F5F5F5F5F5F5F5F5F5F5F5F5F5F5F5F5F5F5F5F5F5F5F5F5F5F5F5F5F5F5F5F5F5F5F5F5F5F5F5F5F5F5F5F5F5F5F5F5F5F5F5F5F5F5
310
F5F5F5F5F5F5F5F5F5F5F5F5F5F5F5F5F5F5F5F5F5F5F5F5F5F5F5F5F5F5F5F5F5F5F5F5F5F5F5F5F5F5F5F5F5F5F5F5F5F5F5F5F5F5F5F5F5F5F5F5F5F5F5F5F5F5F5F5F5F5F5F5F5F5F5F5F5F5F5F5F5F5F5F5F5F5F5E2F5F5F5E2E2E2F5F5F5E2F5F5F5F5F5F5F5F5F5F5F5F5F5F5F5F5F5F5F5F5F5F5F5F5F5F5F5F5F5
310
F5F5F5F5F5F5F5F5F5F5F5F5F5F5F5F5F5F5F5F5F5F5F5F5F5F5F5F5F5F5F5F5F5F5F5F5F5F5F5F5F5F5F5F5F5F5F5F5F5F5F5F5F5F5F5F5F5F5F5F5F5F5F5F5F5F5F5F5F5F5F5F5F5F5F5F5F5F5F5F5F5F5F5F5F5F5F5F5F5F5F5F5F5F5F5F5F5F5F5F5F5F5F5F5F5F5F5F5F5F5F5F5F5F5F5F5F5F5F5F5F5F5F5F5F5F5F5
310
F5F5F5F5F5F5F5F5F5F5F5F5F5E2F5F5F5E2E2E2F5F5F5E2F5F5F5F5F5F5F5F5F5F5F5F5F5F5F5F5F5F5F5F5F5F5F5F5F5F5F5F5F5F5F5F5F5F5F5F5F5F5F5F5F5F5F5F5F5F5F5F5F5F5F5F5F5F5F5F5F5F5F5F5F5F5F5F5F5F5F5F5F5F5F5F5F5F5F5F5F5F5F5F5F5F5F5F5F5F5F5F5F5F5F5F5F5F5F5F5F5F5F5F5F5F5F5
310
F5F5F5F5F5F5F5F5F5F5F5F5F5F5F5F5F5F5F5F5F5F5F5F5F5F5F5F5F5F5F5F5F5F5F5F5F5F5F5F5F5F5F5F5F5F5F5F5F5F5F5F5F5F5F5F5F5F5F5F5F5F5F5F5F5F5E2F5F5F5E2E2E2F5F5F5E2F5F5F5F5F5F5F5F5F5F5F5F5F5F5F5F5F5F5F5F5F5F5F5F5F5F5F5F5F5F5F5F5F5F5F5F5F5F5F5F5F5F5F5F5F5F5F5F5F5F5
310
F5F5F5F5F5F5F5F5F5F5F5F5F5F5F5F5F5F5F5F5F5F5F5F5F5F5F5F5F5F5F5F5F5F5F5F5F5F5F5F5F5F5F5F5F5F5F5F5F5F5F5F5F5F5F5F5F5F5F5F5F5F5F5F5F5F5F5F5F5F5F5F5F5F5F5F5F5F5F5F5F5F5F5F5F5F5F5F5F5F5F5F5F5F5F5F5F5F5F5F5F5F5F5F5F5F5F5F5F5F5F5F5F5F5F5F5F5F5F5E2F5F5F5E2E2E2F5
310
F5F5E2F5F5F5F5F5F5F5F5F5F5F5F5F5F5F5F5F5F5F5F5F5F5F5F5F5F5F5F5F5F5F5F5F5F5F5F5F5F5F5F5F5F5F5F5F5F5F5F5F5F5F5F5F5F5F5F5F5F5F5F5F5F5F5F5F5F5F5F5F5F5F5F5F5F5F5F5F5F5F5F5F5F5F5F5F5F5F5F5F5F5F5F5F5F5F5F5F5F5F5F5F5F5F5F5F5F5F5F5F5F5F5F5F5F5F5F5F5F5F5F5F5F5F5F5
310
F5F5F5F5F5F5F5F5F5F5F5F5F5F5F5F5F5F5F5F5F5F5F5F5F5F5F5F5F5F5F5F5F5F5F5F5F5F5F5F5F5F5F5F5F5E2F5F5F5E2E2E2F5F5F5E2F5F5F5F5F5F5F5F5F5F5F5F5F5F5F5F5F5F5F5F5F5F5F5F5F5F5F5F5F5F5F5F5F5F5F5F5F5F5F5F5F5F5F5F5F5F5F5F5F5F5F5F5F5F5F5F5F5F5F5F5F5F5F5F5F5F5F5F5F5F5F5
310
F5F5F5F5F5F5F5F5F5F5F5F5F5F5F5F5F5F5F5F5F5F5F5F5F5F5F5F5F5F5F5F5F5F5F5F5F5F5F5F5F5F5F5F5F5F5F5F5F5F5F5F5F5F5F5F5F5F5F5F5F5F5F5F5F5F5F5F5F5F5F5F5F5F5F5F5F5F5F5F5F5F5F5F5F5F5F5F5F5F5F5F5F5F5F5F5F5F5E2F5F5F5E2E2E2F5F5F5E2F5F5F5F5F5F5F5F5F5F5F5F5F5F5F5F5F5F5
310
F5F5F5F5F5F5F5F5F5F5F5F5F5F5F5F5F5F5F5F5F5F5F5F5F5F5F5F5F5F5F5F5F5F5F5F5F5F5F5F5F5F5F5F5F5F5F5F5F5F5F5F5F5F5F5F5F5F5F5F5F5F5F5F5F5F5F5F5F5F5F5F5F5F5F5F5F5F5F5F5F5F5F5F5F5F5F5F5F5F5F5F5F5F5F5F5F5F5F5F5F5F5F5F5F5F5F5F5F5F5F5F5F5F5F5F5F5F5F5F5F5F5F5F5F5F5F5
310
F5F5F5F5F5F5F5F5F5F5F5F5F5F5F5F5F5F5F5F5F5F5F5F5E2F5F5F5E2E2E2F5F5F5E2F5F5F5F5F5F5F5F5F5F5F5F5F5F5F5F5F5F5F5F5F5F5F5F5F5F5F5F5F5F5F5F5F5F5F5F5F5F5F5F5F5F5F5F5F5F5F5F5F5F5F5F5F5F5F5F5F5F5F5F5F5F5F5F5F5F5F5F5F5F5F5F5F5F5F5F5F5F5F5F5F5F5F5F5F5F5F5F5F5F5F5F5
310
F5F5F5F5F5F5F5F5F5F5F5F5F5F5F5F5F5F5F5F5F5F5F5F5F5F5F5F5F5F5F5F5F5F5F5F5F5F5F5F5F5F5F5F5F5F5F5F5F5F5F5F5F5F5F5F5F5F5F5F5F5F5F5F5F5F5F5F5F5F5F5F5F5F5F5F5F5E2F5F5F5E2E2E2F5F5F5E2F5F5F5F5F5F5F5F5F5F5F5F5F5F5F5F5F5F5F5F5F5F5F5F5F5F5F5F5F5F5F5F5F5F5F5F5F5F5F5
310
F5F5F5F5F5F5F5F5F5F5F5F5F5F5F5F5F5F5F5F5F5F5F5F5F5F5F5F5F5F5F5F5F5F5F5F5F5F5F5F5F5F5F5F5F5F5F5F5F5F5F5F5F5F5F5F5F5F5F5F5F5F5F5F5F5F5F5F5F5F5F5F5F5F5F5F5F5F5F5F5F5F5F5F5F5F5F5F5F5F5F5F5F5F5F5F5F5F5F5F5F5F5F5F5F5F5F5F5F5F5F5F5F5F5F5F5F5F5F5F5F5F5F5F5F5F5F5
310
F5F5F5E2F5F5F5E2E2E2F5F5F5F5F5F5F5F5F5F5F5F5F5F5F5F5F5F5F5F5F5F5F5F5F5F5F5F5F5F5F5F5F5F5F5F5F5F5F5F5F5F5F5F5F5F5F5F5F5F5F5F5F5F5F5F5F5F5F5F5F5F5F5F5F5F5F5F5F5F5F5F5F5F5F5F5F5F5F5F5F5F5F5F5F5F5F5F5F5F5F5F5F5F5F5F5F5F5F5F5F5F5F5F5F5F5F5F5F5F5F5F5F5F5F5F5F5
310
F5F5F5F5F5F5F5F5F5F5F5F5F5F5F5F5F5F5F5F5F5F5F5F5F5F5F5F5F5F5F5F5F5F5F5F5F5F5F5F5F5F5F5F5F5F5F5F5F5F5F5F5F5F5F5F5F5F5F5F5E2E2E2F5F5F5F5F5F5F5F5F5F5F5F5F5F5F5F5F5F5F5F5F5F5F5F5F5F5F5F5F5F5F5F5F5F5F5F5F5F5F5F5F5F5F5F5F5F5F5F5F5F5F5F5F5F5F5F5F5F5F5F5F5F5F5F5
310
F5F5F5F5F5F5F5F5F5F5F5F5F5F5F5F5F5F5F5F5F5F5F5F5F5F5F5F5F5F5F5F5F5F5F5F5F5F5F5F5F5F5F5F5F5F5F5F5F5F5F5F5F5F5F5F5F5F5F5F5F5F5F5F5F5F5F5F5F5F5F5F5F5F5F5F5F5F5F5F5F5F5F5F5F5F5F5F5F5F5F5F5F5F5F5F5F5F5F5F5F5F5F5F5F5F5F5F5F5F5F5F5F5E2E2E2F5F5F5F5F5F5F5F5F5F5F5
310
F5F5F5F5F5F5F5F5F5F5F5F5F5F5F5F5F5F5F5F5F5F5F5F5F5F5F5F5F5F5F5F5F5F5F5F5F5F5F5F5F5F5F5F5F5F5F5F5F5F5F5F5F5F5F5F5F5F5F5F5F5F5F5F5F5F5F5F5F5F5F5F5F5F5F5F5F5F5F5F5F5F5F5F5F5F5F5F5F5F5F5F5F5F5F5F5F5F5F5F5F5F5F5F5F5F5F5F5F5F5F5F5F5F5F5F5F5F5F5F5F5F5F5F5F5F5F5
310
F5F5F5F5F5F5F5F5F5F5F5F5F5F5F5F5F5F5F5F5F5F5F5F5F5F5F5F5F5F5F5F5F5F5F5F5F5F5F5E2E2E2F5F5F5F5F5F5F5F5F5F5F5F5F5F5F5F5F5F5F5F5F5F5F5F5F5F5F5F5F5F5F5F5F5F5F5F5F5F5F5F5F5F5F5F5F5F5F5F5F5F5F5F5F5F5F5F5F5F5F5F5F5F5F5F5F5F5F5F5F5F5F5F5F5F5F5F5F5F5F5F5F5F5F5F5F5
310
F5F5F5F5F5F5F5F5F5F5F5F5F5F5F5F5F5F5F5F5F5F5F5F5F5F5F5F5F5F5F5F5F5F5F5F5F5F5F5F5F5F5F5F5F5F5F5F5F5F5F5F5F5F5F5F5F5F5F5F5F5F5F5F5F5F5F5F5F5F5F5F5F5F5F5F5F5F5F5F5F5F5F5F5F5F5F5F5F5F5F5F5E2E2E2F5F5F5F5F5F5F5F5F5F5F5F5F5F5F5F5F5F5F5F5F5F5F5F5F5F5F5F5F5F5F5F5
310
F5F5F5F5F5F5F5F5F5F5F5F5F5F5F5F5F5F5F5F5F5F5F5F5F5F5F5F5F5F5F5F5F5F5F5F5F5F5F5F5F5F5F5F5F5F5F5F5F5F5F5F5F5F5F5F5F5F5F5F5F5F5F5F5F5F5F5F5F5F5F5F5F5F5F5F5F5F5F5F5F5F5F5F5F5F5F5F5F5F5F5F5F5F5F5F5F5F5F5F5F5F5F5F5F5F5F5F5F5F5F5F5F5F5F5F5F5F5F5F5F5F5F5F5F5F5F5
310
F5F5F5F5F5F5F5F5F5F5F5F5F5F5F5F5F5F5E2E2E2F5F5F5F5F5F5F5F5F5F5F5F5F5F5F5F5F5F5F5F5F5F5F5F5F5F5F5F5F5F5F5F5F5F5F5F5F5F5F5F5F5F5F5F5F5F5F5F5F5F5F5F5F5F5F5F5F5F5F5F5F5F5F5F5F5F5F5F5F5F5F5F5F5F5F5F5F5F5F5F5F5F5F5F5F5F5F5F5F5F5F5F5F5F5F5F5F5F5F5F5F5F5F5F5F5F5
310
F5F5F5F5F5F5F5F5F5F5F5F5F5F5F5F5F5F5F5F5F5F5F5F5F5F5F5F5F5F5F5F5F5F5F5F5F5F5F5F5F5F5F5F5F5F5F5F5F5F5F5F5F5F5F5F5F5F5F5F5F5F5F5F5F5F5F5F5F5F5F5E2E2E2F5F5F5F5F5F5F5F5F5F5F5F5F5F5F5F5F5F5F5F5F5F5F5F5F5F5F5F5F5F5F5F5F5F5F5F5F5F5F5F5F5F5F5F5F5F5F5F5F5F5F5F5F5
310
F5F5F5F5F5F5F5F5F5F5F5F5F5F5F5F5F5F5F5F5F5F5F5F5F5F5F5F5F5F5F5F5F5F5F5F5F5F5F5F5F5F5F5F5F5F5F5F5F5F5F5F5F5F5F5F5F5F5F5F5F5F5F5F5F5F5F5F5F5F5F5F5F5F5F5F5F5F5F5F5F5F5F5F5F5F5F5F5F5F5F5F5F5F5F5F5F5F5F5F5F5F5F5F5F5F5F5F5F5F5F5F5F5F5F5F5F5F5F5F5F5F5F5F5E2E2E2
310
F5F5F5F5F5F5F5F5F5F5F5F5F5F5F5F5F5F5F5F5F5F5F5F5F5F5F5F5F5F5F5F5F5F5F5F5F5F5F5F5F5F5F5F5F5F5F5F5F5F5F5F5F5F5F5F5F5F5F5F5F5F5F5F5F5F5F5F5F5F5F5F5F5F5F5F5F5F5F5F5F5F5F5F5F5F5F5F5F5F5F5F5F5F5F5F5F5F5F5F5F5F5F5F5F5F5F5F5F5F5F5F5F5F5F5F5F5F5F5F5F5F5F5F5F5F5F5
310
F5F5F5F5F5F5F5F5F5F5F5F5F5F5F5F5F5F5F5F5F5F5F5F5F5F5F5F5F5F5F5F5F5F5F5F5F5F5F5F5F5F5F5F5F5F5F5F5F5F5E2E2E2F5F5F5F5F5F5F5F5F5F5F5F5F5F5F5F5F5F5F5F5F5F5F5F5F5F5F5F5F5F5F5F5F5F5F5F5F5F5F5F5F5F5F5F5F5F5F5F5F5F5F5F5F5F5F5F5F5F5F5F5F5F5F5F5F5F5F5F5F5F5F5F5F5F5
310
F5F5F5F5F5F5F5F5F5F5F5F5F5F5F5F5F5F5F5F5F5F5F5F5F5F5F5F5F5F5F5F5F5F5F5F5F5F5F5F5F5F5F5F5F5F5F5F5F5F5F5F5F5F5F5F5F5F5F5F5F5F5F5F5F5F5F5F5F5F5F5F5F5F5F5F5F5F5F5F5F5F5F5F5F5F5F5F5F5F5F5F5F5F5F5F5F5F5F5F5F5F5F5E2E2E2F5F5F5E2F5F5F5F5F5F5F5F5F5F5F5F5F5F5F5F5F5
310
F5F5F5F5F5F5F5F5F5F5F5F5F5F5F5F5F5F5F5F5F5F5F5F5F5F5F5F5F5F5F5F5F5F5F5F5F5F5F5F5F5F5F5F5F5F5F5F5F5F5F5F5F5F5F5F5F5F5F5F5F5F5F5F5F5F5F5F5F5F5F5F5F5F5F5F5F5F5F5F5F5F5F5F5F5F5F5F5F5F5F5F5F5F5F5F5F5F5F5F5F5F5F5F5F5F5F5F5F5F5F5F5F5F5F5F5F5F5F5F5F5F5F5F5F5F5F5
310
F5F5F5F5F5F5F5F5F5F5F5F5F5F5F5F5F5F5F5F5F5F5F5F5F5E2F5F5F5E2E2E2F5F5F5E2F5F5F5F5F5F5F5F5F5F5F5F5F5F5F5F5F5F5F5F5F5F5F5F5F5F5F5F5F5F5F5F5F5F5F5F5F5F5F5F5F5F5F5F5F5F5F5F5F5F5F5F5F5F5F5F5F5F5F5F5F5F5F5F5F5F5F5F5F5F5F5F5F5F5F5F5F5F5F5F5F5F5F5F5F5F5F5F5F5F5F5
310
F5F5F5F5F5F5F5F5F5F5F5F5F5F5F5F5F5F5F5F5F5F5F5F5F5F5F5F5F5F5F5F5F5F5F5F5F5F5F5F5F5F5F5F5F5F5F5F5F5F5F5F5F5F5F5F5F5F5F5F5F5F5F5F5F5F5F5F5F5F5F5F5F5F5F5F5F5F5E2F5F5F5E2E2E2F5F5F5E2F5F5F5F5F5F5F5F5F5F5F5F5F5F5F5F5F5F5F5F5F5F5F5F5F5F5F5F5F5F5F5F5F5F5F5F5F5F5
310
F5F5F5F5F5F5F5F5F5F5F5F5F5F5F5F5F5F5F5F5F5F5F5F5F5F5F5F5F5F5F5F5F5F5F5F5F5F5F5F5F5F5F5F5F5F5F5F5F5F5F5F5F5F5F5F5F5F5F5F5F5F5F5F5F5F5F5F5F5F5F5F5F5F5F5F5F5F5F5F5F5F5F5F5F5F5F5F5F5F5F5F5F5F5F5F5F5F5F5F5F5F5F5F5F5F5F5F5F5F5F5F5F5F5F5F5F5F5F5F5F5F5F5F5F5F5F5
310
F5F5F5F5E2F5F5F5E2E2E2F5F5F5E2F5F5F5F5F5F5F5F5F5F5F5F5F5F5F5F5F5F5F5F5F5F5F5F5F5F5F5F5F5F5F5F5F5F5F5F5F5F5F5F5F5F5F5F5F5F5F5F5F5F5F5F5F5F5F5F5F5F5F5F5F5F5F5F5F5F5F5F5F5F5F5F5F5F5F5F5F5F5F5F5F5F5F5F5F5F5F5F5F5F5F5F5F5F5F5F5F5F5F5F5F5F5F5F5F5F5F5F5F5F5F5F5
310
F5F5F5F5F5F5F5F5F5F5F5F5F5F5F5F5F5F5F5F5F5F5F5F5F5F5F5F5F5F5F5F5F5F5F5F5F5F5F5F5F5F5F5F5F5F5F5F5F5F5F5F5F5F5F5F5F5E2F5F5F5E2E2E2F5F5F5E2F5F5F5F5F5F5F5F5F5F5F5F5F5F5F5F5F5F5F5F5F5F5F5F5F5F5F5F5F5F5F5F5F5F5F5F5F5F5F5F5F5F5F5F5F5F5F5F5F5F5F5F5F5F5F5F5F5F5F5
310
F5F5F5F5F5F5F5F5F5F5F5F5F5F5F5F5F5F5F5F5F5F5F5F5F5F5F5F5F5F5F5F5F5F5F5F5F5F5F5F5F5F5F5F5F5F5F5F5F5F5F5F5F5F5F5F5F5F5F5F5F5F5F5F5F5F5F5F5F5F5F5F5F5F5F5F5F5F5F5F5F5F5F5F5F5F5F5F5F5F5F5F5F5F5F5F5F5F5F5F5F5F5F5F5F5F5F5F5F5F5E2F5F5F5E2E2E2F5F5F5E2F5F5F5F5F5F5
310
F5F5F5F5F5F5F5F5F5F5F5F5F5F5F5F5F5F5F5F5F5F5F5F5F5F5F5F5F5F5F5F5F5F5F5F5F5F5F5F5F5F5F5F5F5F5F5F5F5F5F5F5F5F5F5F5F5F5F5F5F5F5F5F5F5F5F5F5F5F5F5F5F5F5F5F5F5F5F5F5F5F5F5F5F5F5F5F5F5F5F5F5F5F5F5F5F5F5F5F5F5F5F5F5F5F5F5F5F5F5F5F5F5F5F5F5F5F5F5F5F5F5F5F5F5F5F5
310
F5F5F5F5F5F5F5F5F5F5F5F5F5F5F5F5F5F5F5F5F5F5F5F5F5F5F5F5F5F5F5F5F5F5F5F5E2F5F5F5E2E2E2F5F5F5E2F5F5F5F5F5F5F5F5F5F5F5F5F5F5F5F5F5F5F5F5F5F5F5F5F5F5F5F5F5F5F5F5F5F5F5F5F5F5F5F5F5F5F5F5F5F5F5F5F5F5F5F5F5F5F5F5F5F5F5F5F5F5F5F5F5F5F5F5F5F5F5F5F5F5F5F5F5F5F5F5
310
F5F5F5F5F5F5F5F5F5F5F5F5F5F5F5F5F5F5F5F5F5F5F5F5F5F5F5F5F5F5F5F5F5F5F5F5F5F5F5F5F5F5F5F5F5F5F5F5F5F5F5F5F5F5F5F5F5F5F5F5F5F5F5F5F5F5F5F5F5F5F5F5F5F5F5F5F5F5F5F5F5F5F5F5F5F5F5F5F5E2F5F5F5E2E2E2F5F5F5E2F5F5F5F5F5F5F5F5F5F5F5F5F5F5F5F5F5F5F5F5F5F5F5F5F5F5F5
310
F5F5F5F5F5F5F5F5F5F5F5F5F5F5F5F5F5F5F5F5F5F5F5F5F5F5F5F5F5F5F5F5F5F5F5F5F5F5F5F5F5F5F5F5F5F5F5F5F5F5F5F5F5F5F5F5F5F5F5F5F5F5F5F5F5F5F5F5F5F5F5F5F5F5F5F5F5F5F5F5F5F5F5F5F5F5F5F5F5F5F5F5F5F5F5F5F5F5F5F5F5F5F5F5F5F5F5F5F5F5F5F5F5F5F5F5F5F5F5F5F5F5F5F5F5F5F5
310
F5F5F5F5F5F5F5F5F5F5F5F5F5F5F5E2F5F5F5E2E2E2F5F5F5E2F5F5F5F5F5F5F5F5F5F5F5F5F5F5F5F5F5F5F5F5F5F5F5F5F5F5F5F5F5F5F5F5F5F5F5F5F5F5F5F5F5F5F5F5F5F5F5F5F5F5F5F5F5F5F5F5F5F5F5F5F5F5F5F5F5F5F5F5F5F5F5F5F5F5F5F5F5F5F5F5F5F5F5F5F5F5F5F5F5F5F5F5F5F5F5F5F5F5F5F5F5
310
F5F5F5F5F5F5F5F5F5F5F5F5F5F5F5F5F5F5F5F5F5F5F5F5F5F5F5F5F5F5F5F5F5F5F5F5F5F5F5F5F5F5F5F5F5F5F5F5F5F5F5F5F5F5F5F5F5F5F5F5F5F5F5F5F5F5F5F5E2F5F5F5E2E2E2F5F5F5E2F5F5F5F5F5F5F5F5F5F5F5F5F5F5F5F5F5F5F5F5F5F5F5F5F5F5F5F5F5F5F5F5F5F5F5F5F5F5F5F5F5F5F5F5F5F5F5F5
310
F5F5F5F5F5F5F5F5F5F5F5F5F5F5F5F5F5F5F5F5F5F5F5F5F5F5F5F5F5F5F5F5F5F5F5F5F5F5F5F5F5F5F5F5F5F5F5F5F5F5F5F5F5F5F5F5F5F5F5F5F5F5F5F5F5F5F5F5F5F5F5F5F5F5F5F5F5F5F5F5F5F5F5F5F5F5F5F5F5F5F5F5F5F5F5F5F5F5F5F5F5F5F5F5F5F5F5F5F5F5F5F5F5F5F5F5F5F5F5F5F5E2F5F5F5E2E2
310
E2F5F5F5E2F5F5F5F5F5F5F5F5F5F5F5F5F5F5F5F5F5F5F5F5F5F5F5F5F5F5F5F5F5F5F5F5F5F5F5F5F5F5F5F5F5F5F5F5F5F5F5F5F5F5F5F5F5F5F5F5F5F5F5F5F5F5F5F5F5F5F5F5F5F5F5F5F5F5F5F5F5F5F5F5F5F5F5F5F5F5F5F5F5F5F5F5F5F5F5F5F5F5F5F5F5F5F5F5F5F5F5F5F5F5F5F5F5F5F5F5F5F5F5F5F5F5
310
F5F5F5F5F5F5F5F5F5F5F5F5F5F5F5F5F5F5F5F5F5F5F5F5F5F5F5F5F5F5F5F5F5F5F5F5F5F5F5F5F5F5F5F5F5F5F5E2F5F5F5E2E2E2F5F5F5E2F5F5F5F5F5F5F5F5F5F5F5F5F5F5F5F5F5F5F5F5F5F5F5F5F5F5F5F5F5F5F5F5F5F5F5F5F5F5F5F5F5F5F5F5F5F5F5F5F5F5F5F5F5F5F5F5F5F5F5F5F5F5F5F5F5F5F5F5F5
310
F5F5F5F5F5F5F5F5F5F5F5F5F5F5F5F5F5F5F5F5F5F5F5F5F5F5F5F5F5F5F5F5F5F5F5F5F5F5F5F5F5F5F5F5F5F5F5F5F5F5F5F5F5F5F5F5F5F5F5F5F5F5F5F5F5F5F5F5F5F5F5F5F5F5F5F5F5F5F5F5F5F5F5F5F5F5F5F5F5F5F5F5F5F5F5F5F5F5F5F5E2F5F5F5E2E2E2F5F5F5E2F5F5F5F5F5F5F5F5F5F5F5F5F5F5F5F5
310
F5F5F5F5F5F5F5F5F5F5F5F5F5F5F5F5F5F5F5F5F5F5F5F5F5F5F5F5F5F5F5F5F5F5F5F5F5F5F5F5F5F5F5F5F5F5F5F5F5F5F5F5F5F5F5F5F5F5F5F5F5F5F5F5F5F5F5F5F5F5F5F5F5F5F5F5F5F5F5F5F5F5F5F5F5F5F5F5F5F5F5F5F5F5F5F5F5F5F5F5F5F5F5F5F5F5F5F5F5F5F5F5F5F5F5F5F5F5F5F5F5F5F5F5F5F5F5
310
F5F5F5F5F5F5F5F5F5F5F5F5F5F5F5F5F5F5F5F5F5F5F5F5F5F5E2F5F5F5E2E2E2F5F5F5E2F5F5F5F5F5F5F5F5F5F5F5F5F5F5F5F5F5F5F5F5F5F5F5F5F5F5F5F5F5F5F5F5F5F5F5F5F5F5F5F5F5F5F5F5F5F5F5F5F5F5F5F5F5F5F5F5F5F5F5F5F5F5F5F5F5F5F5F5F5F5F5F5F5F5F5F5F5F5F5F5F5F5F5F5F5F5F5F5F5F5
310
F5F5F5F5F5F5F5F5F5F5F5F5F5F5F5F5F5F5F5F5F5F5F5F5F5F5F5F5F5F5F5F5F5F5F5F5F5F5F5F5F5F5F5F5F5F5F5F5F5F5F5F5F5F5F5F5F5F5F5F5F5F5F5F5F5F5F5F5F5F5F5F5F5F5F5F5F5F5F5E2F5F5F5E2E2E2F5F5F5E2F5F5F5F5F5F5F5F5F5F5F5F5F5F5F5F5F5F5F5F5F5F5F5F5F5F5F5F5F5F5F5F5F5F5F5F5F5
310
F5F5F5F5F5F5F5F5F5F5F5F5F5F5F5F5F5F5F5F5F5F5F5F5F5F5F5F5F5F5F5F5F5F5F5F5F5F5F5F5F5F5F5F5F5F5F5F5F5F5F5F5F5F5F5F5F5F5F5F5F5F5F5F5F5F5F5F5F5F5F5F5F5F5F5F5F5F5F5F5F5F5F5F5F5F5F5F5F5F5F5F5F5F5F5F5F5F5F5F5F5F5F5F5F5F5F5F5F5F5F5F5F5F5F5F5F5F5F5F5F5F5F5F5F5F5F5
310
F5F5F5F5F5E2F5F5F5E2E2E2F5F5F5E2F5F5F5F5F5F5F5F5F5F5F5F5F5F5F5F5F5F5F5F5F5F5F5F5F5F5F5F5F5F5F5F5F5F5F5F5F5F5F5F5F5F5F5F5F5F5F5F5F5F5F5F5F5F5F5F5F5F5F5F5F5F5F5F5F5F5F5F5F5F5F5F5F5F5F5F5F5F5F5F5F5F5F5F5F5F5F5F5F5F5F5F5F5F5F5F5F5F5F5F5F5F5F5F5F5F5F5F5F5F5F5
310
F5F5F5F5F5F5F5F5F5F5F5F5F5F5F5F5F5F5F5F5F5F5F5F5F5F5F5F5F5F5F5F5F5F5F5F5F5F5F5F5F5F5F5F5F5F5F5F5F5F5F5F5F5F5F5F5F5F5E2F5F5F5E2E2E2F5F5F5F5F5F5F5F5F5F5F5F5F5F5F5F5F5F5F5F5F5F5F5F5F5F5F5F5F5F5F5F5F5F5F5F5F5F5F5F5F5F5F5F5F5F5F5F5F5F5F5F5F5F5F5F5F5F5F5F5F5F5
310
F5F5F5F5F5F5F5F5F5F5F5F5F5F5F5F5F5F5F5F5F5F5F5F5F5F5F5F5F5F5F5F5F5F5F5F5F5F5F5F5F5F5F5F5F5F5F5F5F5F5F5F5F5F5F5F5F5F5F5F5F5F5F5F5F5F5F5F5F5F5F5F5F5F5F5F5F5F5F5F5F5F5F5F5F5F5F5F5F5F5F5F5F5F5F5F5F5F5F5F5F5F5F5F5F5F5F5F5F5F5F5F5F5F5F5E2E2E2F5F5F5F5F5F5F5F5F5
310
F5F5F5F5F5F5F5F5F5F5F5F5F5F5F5F5F5F5F5F5F5F5F5F5F5F5F5F5F5F5F5F5F5F5F5F5F5F5F5F5F5F5F5F5F5F5F5F5F5F5F5F5F5F5F5F5F5F5F5F5F5F5F5F5F5F5F5F5F5F5F5F5F5F5F5F5F5F5F5F5F5F5F5F5F5F5F5F5F5F5F5F5F5F5F5F5F5F5F5F5F5F5F5F5F5F5F5F5F5F5F5F5F5F5F5F5F5F5F5F5F5F5F5F5F5F5F5
310
F5F5F5F5F5F5F5F5F5F5F5F5F5F5F5F5F5F5F5F5F5F5F5F5F5F5F5F5F5F5F5F5F5F5F5F5F5F5F5F5F5E2E2E2F5F5F5F5F5F5F5F5F5F5F5F5F5F5F5F5F5F5F5F5F5F5F5F5F5F5F5F5F5F5F5F5F5F5F5F5F5F5F5F5F5F5F5F5F5F5F5F5F5F5F5F5F5F5F5F5F5F5F5F5F5F5F5F5F5F5F5F5F5F5F5F5F5F5F5F5F5F5F5F5F5F5F5
310
F5F5F5F5F5F5F5F5F5F5F5F5F5F5F5F5F5F5F5F5F5F5F5F5F5F5F5F5F5F5F5F5F5F5F5F5F5F5F5F5F5F5F5F5F5F5F5F5F5F5F5F5F5F5F5F5F5F5F5F5F5F5F5F5F5F5F5F5F5F5F5F5F5F5F5F5F5F5F5F5F5F5F5F5F5F5F5F5F5F5F5F5F5F5E2E2E2F5F5F5F5F5F5F5F5F5F5F5F5F5F5F5F5F5F5F5F5F5F5F5F5F5F5F5F5F5F5
310
F5F5F5F5F5F5F5F5F5F5F5F5F5F5F5F5F5F5F5F5F5F5F5F5F5F5F5F5F5F5F5F5F5F5F5F5F5F5F5F5F5F5F5F5F5F5F5F5F5F5F5F5F5F5F5F5F5F5F5F5F5F5F5F5F5F5F5F5F5F5F5F5F5F5F5F5F5F5F5F5F5F5F5F5F5F5F5F5F5F5F5F5F5F5F5F5F5F5F5F5F5F5F5F5F5F5F5F5F5F5F5F5F5F5F5F5F5F5F5F5F5F5F5F5F5F5F5
310
F5F5F5F5F5F5F5F5F5F5F5F5F5F5F5F5F5F5F5F5E2E2E2F5F5F5F5F5F5F5F5F5F5F5F5F5F5F5F5F5F5F5F5F5F5F5F5F5F5F5F5F5F5F5F5F5F5F5F5F5F5F5F5F5F5F5F5F5F5F5F5F5F5F5F5F5F5F5F5F5F5F5F5F5F5F5F5F5F5F5F5F5F5F5F5F5F5F5F5F5F5F5F5F5F5F5F5F5F5F5F5F5F5F5F5F5F5F5F5F5F5F5F5F5F5F5F5
310
F5F5F5F5F5F5F5F5F5F5F5F5F5F5F5F5F5F5F5F5F5F5F5F5F5F5F5F5F5F5F5F5F5F5F5F5F5F5F5F5F5F5F5F5F5F5F5F5F5F5F5F5F5F5F5F5F5F5F5F5F5F5F5F5F5F5F5F5F5F5F5F5F5E2E2E2F5F5F5F5F5F5F5F5F5F5F5F5F5F5F5F5F5F5F5F5F5F5F5F5F5F5F5F5F5F5F5F5F5F5F5F5F5F5F5F5F5F5F5F5F5F5F5F5F5F5F5
310
F5F5F5F5F5F5F5F5F5F5F5F5F5F5F5F5F5F5F5F5F5F5F5F5F5F5F5F5F5F5F5F5F5F5F5F5F5F5F5F5F5F5F5F5F5F5F5F5F5F5F5F5F5F5F5F5F5F5F5F5F5F5F5F5F5F5F5F5F5F5F5F5F5F5F5F5F5F5F5F5F5F5F5F5F5F5F5F5F5F5F5F5F5F5F5F5F5F5F5F5F5F5F5F5F5F5F5F5F5F5F5F5F5F5F5F5F5F5F5F5F5F5F5F5F5F5E2
310
E2E2F5F5F5F5F5F5F5F5F5F5F5F5F5F5F5F5F5F5F5F5F5F5F5F5F5F5F5F5F5F5F5F5F5F5F5F5F5F5F5F5F5F5F5F5F5F5F5F5F5F5F5F5F5F5F5F5F5F5F5F5F5F5F5F5F5F5F5F5F5F5F5F5F5F5F5F5F5F5F5F5F5F5F5F5F5F5F5F5F5F5F5F5F5F5F5F5F5F5F5F5F5F5F5F5F5F5F5F5F5F5F5F5F5F5F5F5F5F5F5F5F5F5F5F5F5
310
F5F5F5F5F5F5F5F5F5F5F5F5F5F5F5F5F5F5F5F5F5F5F5F5F5F5F5F5F5F5F5F5F5F5F5F5F5F5F5F5F5F5F5F5F5F5F5F5F5F5F5F5E2E2E2F5F5F5F5F5F5F5F5F5F5F5F5F5F5F5F5F5F5F5F5F5F5F5F5F5F5F5F5F5F5F5F5F5F5F5F5F5F5F5F5F5F5F5F5F5F5F5F5F5F5F5F5F5F5F5F5F5F5F5F5F5F5F5F5F5F5F5F5F5F5F5F5
310
F5F5F5F5F5F5F5F5F5F5F5F5F5F5F5F5F5F5F5F5F5F5F5F5F5F5F5F5F5F5F5F5F5F5F5F5F5F5F5F5F5F5F5F5F5F5F5F5F5F5F5F5F5F5F5F5F5F5F5F5F5F5F5F5F5F5F5F5F5F5F5F5F5F5F5F5F5F5F5F5F5F5F5F5F5F5F5F5F5F5F5F5F5F5F5F5F5F5F5F5F5F5F5F5F5E2E2E2F5F5F5F5F5F5F5F5F5F5F5F5F5F5F5F5F5F5F5
310
F5F5F5F5F5F5F5F5F5F5F5F5F5F5F5F5F5F5F5F5F5F5F5F5F5F5F5F5F5F5F5F5F5F5F5F5F5F5F5F5F5F5F5F5F5F5F5F5F5F5F5F5F5F5F5F5F5F5F5F5F5F5F5F5F5F5F5F5F5F5F5F5F5F5F5F5F5F5F5F5F5F5F5F5F5F5F5F5F5F5F5F5F5F5F5F5F5F5F5F5F5F5F5F5F5F5F5F5F5F5F5F5F5F5F5F5F5F5F5F5F5F5F5F5F5F5F5
310
F5F5F5F5F5F5F5F5F5F5F5F5F5F5F5F5F5F5F5F5F5F5F5F5F5F5F5F5F5F5F5E2E2E2F5F5F5F5F5F5F5F5F5F5F5F5F5F5F5F5F5F5F5F5F5F5F5F5F5F5F5F5F5F5F5F5F5F5F5F5F5F5F5F5F5F5F5F5F5F5F5F5F5F5F5F5F5F5F5F5F5F5F5F5F5F5F5F5F5F5F5F5F5F5F5F5F5F5F5F5F5F5F5F5F5F5F5F5F5F5F5F5F5F5F5F5F5
310
F5F5F5F5F5F5F5F5F5F5F5F5F5F5F5F5F5F5F5F5F5F5F5F5F5F5F5F5F5F5F5F5F5F5F5F5F5F5F5F5F5F5F5F5F5F5F5F5F5F5F5F5F5F5F5F5F5F5F5F5F5F5F5F5F5F5F5F5F5F5F5F5F5F5F5F5F5F5F5F5F5F5F5F5E2E2E2F5F5F5E2F5F5F5F5F5F5F5F5F5F5F5F5F5F5F5F5F5F5F5F5F5F5F5F5F5F5F5F5F5F5F5F5F5F5F5F5
310
F5F5F5F5F5F5F5F5F5F5F5F5F5F5F5F5F5F5F5F5F5F5F5F5F5F5F5F5F5F5F5F5F5F5F5F5F5F5F5F5F5F5F5F5F5F5F5F5F5F5F5F5F5F5F5F5F5F5F5F5F5F5F5F5F5F5F5F5F5F5F5F5F5F5F5F5F5F5F5F5F5F5F5F5F5F5F5F5F5F5F5F5F5F5F5F5F5F5F5F5F5F5F5F5F5F5F5F5F5F5F5F5F5F5F5F5F5F5F5F5F5F5F5F5F5F5F5
310
F5F5F5F5F5F5E2F5F5F5E2E2E2F5F5F5E2F5F5F5F5F5F5F5F5F5F5F5F5F5F5F5F5F5F5F5F5F5F5F5F5F5F5F5F5F5F5F5F5F5F5F5F5F5F5F5F5F5F5F5F5F5F5F5F5F5F5F5F5F5F5F5F5F5F5F5F5F5F5F5F5F5F5F5F5F5F5F5F5F5F5F5F5F5F5F5F5F5F5F5F5F5F5F5F5F5F5F5F5F5F5F5F5F5F5F5F5F5F5F5F5F5F5F5F5F5F5
310
F5F5F5F5F5F5F5F5F5F5F5F5F5F5F5F5F5F5F5F5F5F5F5F5F5F5F5F5F5F5F5F5F5F5F5F5F5F5F5F5F5F5F5F5F5F5F5F5F5F5F5F5F5F5F5F5F5F5F5E2F5F5F5E2E2E2F5F5F5E2F5F5F5F5F5F5F5F5F5F5F5F5F5F5F5F5F5F5F5F5F5F5F5F5F5F5F5F5F5F5F5F5F5F5F5F5F5F5F5F5F5F5F5F5F5F5F5F5F5F5F5F5F5F5F5F5F5
310
F5F5F5F5F5F5F5F5F5F5F5F5F5F5F5F5F5F5F5F5F5F5F5F5F5F5F5F5F5F5F5F5F5F5F5F5F5F5F5F5F5F5F5F5F5F5F5F5F5F5F5F5F5F5F5F5F5F5F5F5F5F5F5F5F5F5F5F5F5F5F5F5F5F5F5F5F5F5F5F5F5F5F5F5F5F5F5F5F5F5F5F5F5F5F5F5F5F5F5F5F5F5F5F5F5F5F5F5F5F5F5F5E2F5F5F5E2E2E2F5F5F5E2F5F5F5F5
310
F5F5F5F5F5F5F5F5F5F5F5F5F5F5F5F5F5F5F5F5F5F5F5F5F5F5F5F5F5F5F5F5F5F5F5F5F5F5F5F5F5F5F5F5F5F5F5F5F5F5F5F5F5F5F5F5F5F5F5F5F5F5F5F5F5F5F5F5F5F5F5F5F5F5F5F5F5F5F5F5F5F5F5F5F5F5F5F5F5F5F5F5F5F5F5F5F5F5F5F5F5F5F5F5F5F5F5F5F5F5F5F5F5F5F5F5F5F5F5F5F5F5F5F5F5F5F5
310
F5F5F5F5F5F5F5F5F5F5F5F5F5F5F5F5F5F5F5F5F5F5F5F5F5F5F5F5F5F5F5F5F5F5F5F5F5F5E2F5F5F5E2E2E2F5F5F5E2F5F5F5F5F5F5F5F5F5F5F5F5F5F5F5F5F5F5F5F5F5F5F5F5F5F5F5F5F5F5F5F5F5F5F5F5F5F5F5F5F5F5F5F5F5F5F5F5F5F5F5F5F5F5F5F5F5F5F5F5F5F5F5F5F5F5F5F5F5F5F5F5F5F5F5F5F5F5
310
F5F5F5F5F5F5F5F5F5F5F5F5F5F5F5F5F5F5F5F5F5F5F5F5F5F5F5F5F5F5F5F5F5F5F5F5F5F5F5F5F5F5F5F5F5F5F5F5F5F5F5F5F5F5F5F5F5F5F5F5F5F5F5F5F5F5F5F5F5F5F5F5F5F5F5F5F5F5F5F5F5F5F5F5F5F5F5F5F5F5F5E2F5F5F5E2E2E2F5F5F5E2F5F5F5F5F5F5F5F5F5F5F5F5F5F5F5F5F5F5F5F5F5F5F5F5F5
310
F5F5F5F5F5F5F5F5F5F5F5F5F5F5F5F5F5F5F5F5F5F5F5F5F5F5F5F5F5F5F5F5F5F5F5F5F5F5F5F5F5F5F5F5F5F5F5F5F5F5F5F5F5F5F5F5F5F5F5F5F5F5F5F5F5F5F5F5F5F5F5F5F5F5F5F5F5F5F5F5F5F5F5F5F5F5F5F5F5F5F5F5F5F5F5F5F5F5F5F5F5F5F5F5F5F5F5F5F5F5F5F5F5F5F5F5F5F5F5F5F5F5F5F5F5F5F5
310
F5F5F5F5F5F5F5F5F5F5F5F5F5F5F5F5F5E2F5F5F5E2E2E2F5F5F5E2F5F5F5F5F5F5F5F5F5F5F5F5F5F5F5F5F5F5F5F5F5F5F5F5F5F5F5F5F5F5F5F5F5F5F5F5F5F5F5F5F5F5F5F5F5F5F5F5F5F5F5F5F5F5F5F5F5F5F5F5F5F5F5F5F5F5F5F5F5F5F5F5F5F5F5F5F5F5F5F5F5F5F5F5F5F5F5F5F5F5F5F5F5F5F5F5F5F5F5
310
F5F5F5F5F5F5F5F5F5F5F5F5F5F5F5F5F5F5F5F5F5F5F5F5F5F5F5F5F5F5F5F5F5F5F5F5F5F5F5F5F5F5F5F5F5F5F5F5F5F5F5F5F5F5F5F5F5F5F5F5F5F5F5F5F5F5F5F5F5F5E2F5F5F5E2E2E2F5F5F5E2F5F5F5F5F5F5F5F5F5F5F5F5F5F5F5F5F5F5F5F5F5F5F5F5F5F5F5F5F5F5F5F5F5F5F5F5F5F5F5F5F5F5F5F5F5F5
310
F5F5F5F5F5F5F5F5F5F5F5F5F5F5F5F5F5F5F5F5F5F5F5F5F5F5F5F5F5F5F5F5F5F5F5F5F5F5F5F5F5F5F5F5F5F5F5F5F5F5F5F5F5F5F5F5F5F5F5F5F5F5F5F5F5F5F5F5F5F5F5F5F5F5F5F5F5F5F5F5F5F5F5F5F5F5F5F5F5F5F5F5F5F5F5F5F5F5F5F5F5F5F5F5F5F5F5F5F5F5F5F5F5F5F5F5F5F5F5F5F5F5F5E2F5F5F5
310
E2E2E2F5F5F5E2F5F5F5F5F5F5F5F5F5F5F5F5F5F5F5F5F5F5F5F5F5F5F5F5F5F5F5F5F5F5F5F5F5F5F5F5F5F5F5F5F5F5F5F5F5F5F5F5F5F5F5F5F5F5F5F5F5F5F5F5F5F5F5F5F5F5F5F5F5F5F5F5F5F5F5F5F5F5F5F5F5F5F5F5F5F5F5F5F5F5F5F5F5F5F5F5F5F5F5F5F5F5F5F5F5F5F5F5F5F5F5F5F5F5F5F5F5F5F5F5
310
F5F5F5F5F5F5F5F5F5F5F5F5F5F5F5F5F5F5F5F5F5F5F5F5F5F5F5F5F5F5F5F5F5F5F5F5F5F5F5F5F5F5F5F5F5F5F5F5F5E2F5F5F5E2E2E2F5F5F5E2F5F5F5F5F5F5F5F5F5F5F5F5F5F5F5F5F5F5F5F5F5F5F5F5F5F5F5F5F5F5F5F5F5F5F5F5F5F5F5F5F5F5F5F5F5F5F5F5F5F5F5F5F5F5F5F5F5F5F5F5F5F5F5F5F5F5F5
310
F5F5F5F5F5F5F5F5F5F5F5F5F5F5F5F5F5F5F5F5F5F5F5F5F5F5F5F5F5F5F5F5F5F5F5F5F5F5F5F5F5F5F5F5F5F5F5F5F5F5F5F5F5F5F5F5F5F5F5F5F5F5F5F5F5F5F5F5F5F5F5F5F5F5F5F5F5F5F5F5F5F5F5F5F5F5F5F5F5F5F5F5F5F5F5F5F5F5F5F5F5F5E2F5F5F5E2E2E2F5F5F5E2F5F5F5F5F5F5F5F5F5F5F5F5F5F5
310
F5F5F5F5F5F5F5F5F5F5F5F5F5F5F5F5F5F5F5F5F5F5F5F5F5F5F5F5F5F5F5F5F5F5F5F5F5F5F5F5F5F5F5F5F5F5F5F5F5F5F5F5F5F5F5F5F5F5F5F5F5F5F5F5F5F5F5F5F5F5F5F5F5F5F5F5F5F5F5F5F5F5F5F5F5F5F5F5F5F5F5F5F5F5F5F5F5F5F5F5F5F5F5F5F5F5F5F5F5F5F5F5F5F5F5F5F5F5F5F5F5F5F5F5F5F5F5
310
F5F5F5F5F5F5F5F5F5F5F5F5F5F5F5F5F5F5F5F5F5F5F5F5F5F5F5F5E2F5F5F5E2E2E2F5F5F5E2F5F5F5F5F5F5F5F5F5F5F5F5F5F5F5F5F5F5F5F5F5F5F5F5F5F5F5F5F5F5F5F5F5F5F5F5F5F5F5F5F5F5F5F5F5F5F5F5F5F5F5F5F5F5F5F5F5F5F5F5F5F5F5F5F5F5F5F5F5F5F5F5F5F5F5F5F5F5F5F5F5F5F5F5F5F5F5F5
310
F5F5F5F5F5F5F5F5F5F5F5F5F5F5F5F5F5F5F5F5F5F5F5F5F5F5F5F5F5F5F5F5F5F5F5F5F5F5F5F5F5F5F5F5F5F5F5F5F5F5F5F5F5F5F5F5F5F5F5F5F5F5F5F5F5F5F5F5F5F5F5F5F5F5F5F5F5F5F5F5F5E2F5F5F5E2E2E2F5F5F5E2F5F5F5F5F5F5F5F5F5F5F5F5F5F5F5F5F5F5F5F5F5F5F5F5F5F5F5F5F5F5F5F5F5F5F5
310
F5F5F5F5F5F5F5F5F5F5F5F5F5F5F5F5F5F5F5F5F5F5F5F5F5F5F5F5F5F5F5F5F5F5F5F5F5F5F5F5F5F5F5F5F5F5F5F5F5F5F5F5F5F5F5F5F5F5F5F5F5F5F5F5F5F5F5F5F5F5F5F5F5F5F5F5F5F5F5F5F5F5F5F5F5F5F5F5F5F5F5F5F5F5F5F5F5F5F5F5F5F5F5F5F5F5F5F5F5F5F5F5F5F5F5F5F5F5F5F5F5F5F5F5F5F5F5
310
F5F5F5F5F5F5F5E2F5F5F5E2E2E2F5F5F5E2F5F5F5F5F5F5F5F5F5F5F5F5F5F5F5F5F5F5F5F5F5F5F5F5F5F5F5F5F5F5F5F5F5F5F5F5F5F5F5F5F5F5F5F5F5F5F5F5F5F5F5F5F5F5F5F5F5F5F5F5F5F5F5F5F5F5F5F5F5F5F5F5F5F5F5F5F5F5F5F5F5F5F5F5F5F5F5F5F5F5F5F5F5F5F5F5F5F5F5F5F5F5F5F5F5F5F5F5F5
310
F5F5F5F5F5F5F5F5F5F5F5F5F5F5F5F5F5F5F5F5F5F5F5F5F5F5F5F5F5F5F5F5F5F5F5F5F5F5F5F5F5F5F5F5F5F5F5F5F5F5F5F5F5F5F5F5F5F5F5F5E2F5F5F5E2E2E2F5F5F5E2F5F5F5F5F5F5F5F5F5F5F5F5F5F5F5F5F5F5F5F5F5F5F5F5F5F5F5F5F5F5F5F5F5F5F5F5F5F5F5F5F5F5F5F5F5F5F5F5F5F5F5F5F5F5F5F5
310
F5F5F5F5F5F5F5F5F5F5F5F5F5F5F5F5F5F5F5F5F5F5F5F5F5F5F5F5F5F5F5F5F5F5F5F5F5F5F5F5F5F5F5F5F5F5F5F5F5F5F5F5F5F5F5F5F5F5F5F5F5F5F5F5F5F5F5F5F5F5F5F5F5F5F5F5F5F5F5F5F5F5F5F5F5F5F5F5F5F5F5F5F5F5F5F5F5F5F5F5F5F5F5F5F5F5F5F5F5F5F5F5F5E2F5F5F5E2E2E2F5F5F5E2F5F5F5
310
F5F5F5F5F5F5F5F5F5F5F5F5F5F5F5F5F5F5F5F5F5F5F5F5F5F5F5F5F5F5F5F5F5F5F5F5F5F5F5F5F5F5F5F5F5F5F5F5F5F5F5F5F5F5F5F5F5F5F5F5F5F5F5F5F5F5F5F5F5F5F5F5F5F5F5F5F5F5F5F5F5F5F5F5F5F5F5F5F5F5F5F5F5F5F5F5F5F5F5F5F5F5F5F5F5F5F5F5F5F5F5F5F5F5F5F5F5F5F5F5F5F5F5F5F5F5F5
310
F5F5F5F5F5F5F5F5F5F5F5F5F5F5F5F5F5F5F5F5F5F5F5F5F5F5F5F5F5F5F5F5F5F5F5F5F5F5F5E2F5F5F5E2E2E2F5F5F5F5F5F5F5F5F5F5F5F5F5F5F5F5F5F5F5F5F5F5F5F5F5F5F5F5F5F5F5F5F5F5F5F5F5F5F5F5F5F5F5F5F5F5F5F5F5F5F5F5F5F5F5F5F5F5F5F5F5F5F5F5F5F5F5F5F5F5F5F5F5F5F5F5F5F5F5F5F5
310
F5F5F5F5F5F5F5F5F5F5F5F5F5F5F5F5F5F5F5F5F5F5F5F5F5F5F5F5F5F5F5F5F5F5F5F5F5F5F5F5F5F5F5F5F5F5F5F5F5F5F5F5F5F5F5F5F5F5F5F5F5F5F5F5F5F5F5F5F5F5F5F5F5F5F5F5F5F5F5F5F5F5F5F5F5F5F5F5F5F5F5F5F5F5F5F5E2E2E2F5F5F5F5F5F5F5F5F5F5F5F5F5F5F5F5F5F5F5F5F5F5F5F5F5F5F5F5
310
F5F5F5F5F5F5F5F5F5F5F5F5F5F5F5F5F5F5F5F5F5F5F5F5F5F5F5F5F5F5F5F5F5F5F5F5F5F5F5F5F5F5F5F5F5F5F5F5F5F5F5F5F5F5F5F5F5F5F5F5F5F5F5F5F5F5F5F5F5F5F5F5F5F5F5F5F5F5F5F5F5F5F5F5F5F5F5F5F5F5F5F5F5F5F5F5F5F5F5F5F5F5F5F5F5F5F5F5F5F5F5F5F5F5F5F5F5F5F5F5F5F5F5F5F5F5F5
310
F5F5F5F5F5F5F5F5F5F5F5F5F5F5F5F5F5F5F5F5F5F5E2E2E2F5F5F5F5F5F5F5F5F5F5F5F5F5F5F5F5F5F5F5F5F5F5F5F5F5F5F5F5F5F5F5F5F5F5F5F5F5F5F5F5F5F5F5F5F5F5F5F5F5F5F5F5F5F5F5F5F5F5F5F5F5F5F5F5F5F5F5F5F5F5F5F5F5F5F5F5F5F5F5F5F5F5F5F5F5F5F5F5F5F5F5F5F5F5F5F5F5F5F5F5F5F5
310
F5F5F5F5F5F5F5F5F5F5F5F5F5F5F5F5F5F5F5F5F5F5F5F5F5F5F5F5F5F5F5F5F5F5F5F5F5F5F5F5F5F5F5F5F5F5F5F5F5F5F5F5F5F5F5F5F5F5F5F5F5F5F5F5F5F5F5F5F5F5F5F5F5F5F5E2E2E2F5F5F5F5F5F5F5F5F5F5F5F5F5F5F5F5F5F5F5F5F5F5F5F5F5F5F5F5F5F5F5F5F5F5F5F5F5F5F5F5F5F5F5F5F5F5F5F5F5
310
F5F5F5F5F5F5F5F5F5F5F5F5F5F5F5F5F5F5F5F5F5F5F5F5F5F5F5F5F5F5F5F5F5F5F5F5F5F5F5F5F5F5F5F5F5F5F5F5F5F5F5F5F5F5F5F5F5F5F5F5F5F5F5F5F5F5F5F5F5F5F5F5F5F5F5F5F5F5F5F5F5F5F5F5F5F5F5F5F5F5F5F5F5F5F5F5F5F5F5F5F5F5F5F5F5F5F5F5F5F5F5F5F5F5F5F5F5F5F5F5F5F5F5F5F5F5F5
310
F5E2E2E2F5F5F5F5F5F5F5F5F5F5F5F5F5F5F5F5F5F5F5F5F5F5F5F5F5F5F5F5F5F5F5F5F5F5F5F5F5F5F5F5F5F5F5F5F5F5F5F5F5F5F5F5F5F5F5F5F5F5F5F5F5F5F5F5F5F5F5F5F5F5F5F5F5F5F5F5F5F5F5F5F5F5F5F5F5F5F5F5F5F5F5F5F5F5F5F5F5F5F5F5F5F5F5F5F5F5F5F5F5F5F5F5F5F5F5F5F5F5F5F5F5F5F5
310
F5F5F5F5F5F5F5F5F5F5F5F5F5F5F5F5F5F5F5F5F5F5F5F5F5F5F5F5F5F5F5F5F5F5F5F5F5F5F5F5F5F5F5F5F5F5F5F5F5F5F5F5F5F5E2E2E2F5F5F5F5F5F5F5F5F5F5F5F5F5F5F5F5F5F5F5F5F5F5F5F5F5F5F5F5F5F5F5F5F5F5F5F5F5F5F5F5F5F5F5F5F5F5F5F5F5F5F5F5F5F5F5F5F5F5F5F5F5F5F5F5F5F5F5F5F5F5
310
F5F5F5F5F5F5F5F5F5F5F5F5F5F5F5F5F5F5F5F5F5F5F5F5F5F5F5F5F5F5F5F5F5F5F5F5F5F5F5F5F5F5F5F5F5F5F5F5F5F5F5F5F5F5F5F5F5F5F5F5F5F5F5F5F5F5F5F5F5F5F5F5F5F5F5F5F5F5F5F5F5F5F5F5F5F5F5F5F5F5F5F5F5F5F5F5F5F5F5F5F5F5F5F5F5F5F5E2E2E2F5F5F5F5F5F5F5F5F5F5F5F5F5F5F5F5F5
310
F5F5F5F5F5F5F5F5F5F5F5F5F5F5F5F5F5F5F5F5F5F5F5F5F5F5F5F5F5F5F5F5F5F5F5F5F5F5F5F5F5F5F5F5F5F5F5F5F5F5F5F5F5F5F5F5F5F5F5F5F5F5F5F5F5F5F5F5F5F5F5F5F5F5F5F5F5F5F5F5F5F5F5F5F5F5F5F5F5F5F5F5F5F5F5F5F5F5F5F5F5F5F5F5F5F5F5F5F5F5F5F5F5F5F5F5F5F5F5F5F5F5F5F5F5F5F5
310
F5F5F5F5F5F5F5F5F5F5F5F5F5F5F5F5F5F5F5F5F5F5F5F5F5F5F5F5F5F5F5F5F5E2E2E2F5F5F5F5F5F5F5F5F5F5F5F5F5F5F5F5F5F5F5F5F5F5F5F5F5F5F5F5F5F5F5F5F5F5F5F5F5F5F5F5F5F5F5F5F5F5F5F5F5F5F5F5F5F5F5F5F5F5F5F5F5F5F5F5F5F5F5F5F5F5F5F5F5F5F5F5F5F5F5F5F5F5F5F5F5F5F5F5F5F5F5
310
F5F5F5F5F5F5F5F5F5F5F5F5F5F5F5F5F5F5F5F5F5F5F5F5F5F5F5F5F5F5F5F5F5F5F5F5F5F5F5F5F5F5F5F5F5F5F5F5F5F5F5F5F5F5F5F5F5F5F5F5F5F5F5F5F5F5F5F5F5F5F5F5F5F5F5F5F5F5F5F5F5F5F5F5F5F5E2E2E2F5F5F5F5F5F5F5F5F5F5F5F5F5F5F5F5F5F5F5F5F5F5F5F5F5F5F5F5F5F5F5F5F5F5F5F5F5F5
310
F5F5F5F5F5F5F5F5F5F5F5F5F5F5F5F5F5F5F5F5F5F5F5F5F5F5F5F5F5F5F5F5F5F5F5F5F5F5F5F5F5F5F5F5F5F5F5F5F5F5F5F5F5F5F5F5F5F5F5F5F5F5F5F5F5F5F5F5F5F5F5F5F5F5F5F5F5F5F5F5F5F5F5F5F5F5F5F5F5F5F5F5F5F5F5F5F5F5F5F5F5F5F5F5F5F5F5F5F5F5F5F5F5F5F5F5F5F5F5F5F5F5F5F5F5F5F5
310
F5F5F5F5F5F5F5F5F5F5F5F5E2E2E2F5F5F5E2F5F5F5F5F5F5F5F5F5F5F5F5F5F5F5F5F5F5F5F5F5F5F5F5F5F5F5F5F5F5F5F5F5F5F5F5F5F5F5F5F5F5F5F5F5F5F5F5F5F5F5F5F5F5F5F5F5F5F5F5F5F5F5F5F5F5F5F5F5F5F5F5F5F5F5F5F5F5F5F5F5F5F5F5F5F5F5F5F5F5F5F5F5F5F5F5F5F5F5F5F5F5F5F5F5F5F5F5
310
F5F5F5F5F5F5F5F5F5F5F5F5F5F5F5F5F5F5F5F5F5F5F5F5F5F5F5F5F5F5F5F5F5F5F5F5F5F5F5F5F5F5F5F5F5F5F5F5F5F5F5F5F5F5F5F5F5F5F5F5F5E2F5F5F5E2E2E2F5F5F5E2F5F5F5F5F5F5F5F5F5F5F5F5F5F5F5F5F5F5F5F5F5F5F5F5F5F5F5F5F5F5F5F5F5F5F5F5F5F5F5F5F5F5F5F5F5F5F5F5F5F5F5F5F5F5F5
310
F5F5F5F5F5F5F5F5F5F5F5F5F5F5F5F5F5F5F5F5F5F5F5F5F5F5F5F5F5F5F5F5F5F5F5F5F5F5F5F5F5F5F5F5F5F5F5F5F5F5F5F5F5F5F5F5F5F5F5F5F5F5F5F5F5F5F5F5F5F5F5F5F5F5F5F5F5F5F5F5F5F5F5F5F5F5F5F5F5F5F5F5F5F5F5F5F5F5F5F5F5F5F5F5F5F5F5F5F5F5F5F5F5F5E2F5F5F5E2E2E2F5F5F5E2F5F5
310
F5F5F5F5F5F5F5F5F5F5F5F5F5F5F5F5F5F5F5F5F5F5F5F5F5F5F5F5F5F5F5F5F5F5F5F5F5F5F5F5F5F5F5F5F5F5F5F5F5F5F5F5F5F5F5F5F5F5F5F5F5F5F5F5F5F5F5F5F5F5F5F5F5F5F5F5F5F5F5F5F5F5F5F5F5F5F5F5F5F5F5F5F5F5F5F5F5F5F5F5F5F5F5F5F5F5F5F5F5F5F5F5F5F5F5F5F5F5F5F5F5F5F5F5F5F5F5
310
F5F5F5F5F5F5F5F5F5F5F5F5F5F5F5F5F5F5F5F5F5F5F5F5F5F5F5F5F5F5F5F5F5F5F5F5F5F5F5F5E2F5F5F5E2E2E2F5F5F5E2F5F5F5F5F5F5F5F5F5F5F5F5F5F5F5F5F5F5F5F5F5F5F5F5F5F5F5F5F5F5F5F5F5F5F5F5F5F5F5F5F5F5F5F5F5F5F5F5F5F5F5F5F5F5F5F5F5F5F5F5F5F5F5F5F5F5F5F5F5F5F5F5F5F5F5F5
310
F5F5F5F5F5F5F5F5F5F5F5F5F5F5F5F5F5F5F5F5F5F5F5F5F5F5F5F5F5F5F5F5F5F5F5F5F5F5F5F5F5F5F5F5F5F5F5F5F5F5F5F5F5F5F5F5F5F5F5F5F5F5F5F5F5F5F5F5F5F5F5F5F5F5F5F5F5F5F5F5F5F5F5F5F5F5F5F5F5F5F5F5F5E2F5F5F5E2E2E2F5F5F5E2F5F5F5F5F5F5F5F5F5F5F5F5F5F5F5F5F5F5F5F5F5F5F5
310
F5F5F5F5F5F5F5F5F5F5F5F5F5F5F5F5F5F5F5F5F5F5F5F5F5F5F5F5F5F5F5F5F5F5F5F5F5F5F5F5F5F5F5F5F5F5F5F5F5F5F5F5F5F5F5F5F5F5F5F5F5F5F5F5F5F5F5F5F5F5F5F5F5F5F5F5F5F5F5F5F5F5F5F5F5F5F5F5F5F5F5F5F5F5F5F5F5F5F5F5F5F5F5F5F5F5F5F5F5F5F5F5F5F5F5F5F5F5F5F5F5F5F5F5F5F5F5
310
F5F5F5F5F5F5F5F5F5F5F5F5F5F5F5F5F5F5F5E2F5F5F5E2E2E2F5F5F5E2F5F5F5F5F5F5F5F5F5F5F5F5F5F5F5F5F5F5F5F5F5F5F5F5F5F5F5F5F5F5F5F5F5F5F5F5F5F5F5F5F5F5F5F5F5F5F5F5F5F5F5F5F5F5F5F5F5F5F5F5F5F5F5F5F5F5F5F5F5F5F5F5F5F5F5F5F5F5F5F5F5F5F5F5F5F5F5F5F5F5F5F5F5F5F5F5F5
310
F5F5F5F5F5F5F5F5F5F5F5F5F5F5F5F5F5F5F5F5F5F5F5F5F5F5F5F5F5F5F5F5F5F5F5F5F5F5F5F5F5F5F5F5F5F5F5F5F5F5F5F5F5F5F5F5F5F5F5F5F5F5F5F5F5F5F5F5F5F5F5F5E2F5F5F5E2E2E2F5F5F5E2F5F5F5F5F5F5F5F5F5F5F5F5F5F5F5F5F5F5F5F5F5F5F5F5F5F5F5F5F5F5F5F5F5F5F5F5F5F5F5F5F5F5F5F5
310
F5F5F5F5F5F5F5F5F5F5F5F5F5F5F5F5F5F5F5F5F5F5F5F5F5F5F5F5F5F5F5F5F5F5F5F5F5F5F5F5F5F5F5F5F5F5F5F5F5F5F5F5F5F5F5F5F5F5F5F5F5F5F5F5F5F5F5F5F5F5F5F5F5F5F5F5F5F5F5F5F5F5F5F5F5F5F5F5F5F5F5F5F5F5F5F5F5F5F5F5F5F5F5F5F5F5F5F5F5F5F5F5F5F5F5F5F5F5F5F5F5F5F5F5F5E2F5
310
F5F5E2E2E2F5F5F5E2F5F5F5F5F5F5F5F5F5F5F5F5F5F5F5F5F5F5F5F5F5F5F5F5F5F5F5F5F5F5F5F5F5F5F5F5F5F5F5F5F5F5F5F5F5F5F5F5F5F5F5F5F5F5F5F5F5F5F5F5F5F5F5F5F5F5F5F5F5F5F5F5F5F5F5F5F5F5F5F5F5F5F5F5F5F5F5F5F5F5F5F5F5F5F5F5F5F5F5F5F5F5F5F5F5F5F5F5F5F5F5F5F5F5F5F5F5F5
310
F5F5F5F5F5F5F5F5F5F5F5F5F5F5F5F5F5F5F5F5F5F5F5F5F5F5F5F5F5F5F5F5F5F5F5F5F5F5F5F5F5F5F5F5F5F5F5F5F5F5F5E2F5F5F5E2E2E2F5F5F5E2F5F5F5F5F5F5F5F5F5F5F5F5F5F5F5F5F5F5F5F5F5F5F5F5F5F5F5F5F5F5F5F5F5F5F5F5F5F5F5F5F5F5F5F5F5F5F5F5F5F5F5F5F5F5F5F5F5F5F5F5F5F5F5F5F5
310
F5F5F5F5F5F5F5F5F5F5F5F5F5F5F5F5F5F5F5F5F5F5F5F5F5F5F5F5F5F5F5F5F5F5F5F5F5F5F5F5F5F5F5F5F5F5F5F5F5F5F5F5F5F5F5F5F5F5F5F5F5F5F5F5F5F5F5F5F5F5F5F5F5F5F5F5F5F5F5F5F5F5F5F5F5F5F5F5F5F5F5F5F5F5F5F5F5F5F5F5F5F5F5F5E2F5F5F5E2E2E2F5F5F5E2F5F5F5F5F5F5F5F5F5F5F5F5
310
F5F5F5F5F5F5F5F5F5F5F5F5F5F5F5F5F5F5F5F5F5F5F5F5F5F5F5F5F5F5F5F5F5F5F5F5F5F5F5F5F5F5F5F5F5F5F5F5F5F5F5F5F5F5F5F5F5F5F5F5F5F5F5F5F5F5F5F5F5F5F5F5F5F5F5F5F5F5F5F5F5F5F5F5F5F5F5F5F5F5F5F5F5F5F5F5F5F5F5F5F5F5F5F5F5F5F5F5F5F5F5F5F5F5F5F5F5F5F5F5F5F5F5F5F5F5F5
310
F5F5F5F5F5F5F5F5F5F5F5F5F5F5F5F5F5F5F5F5F5F5F5F5F5F5F5F5F5F5E2F5F5F5E2E2E2F5F5F5E2F5F5F5F5F5F5F5F5F5F5F5F5F5F5F5F5F5F5F5F5F5F5F5F5F5F5F5F5F5F5F5F5F5F5F5F5F5F5F5F5F5F5F5F5F5F5F5F5F5F5F5F5F5F5F5F5F5F5F5F5F5F5F5F5F5F5F5F5F5F5F5F5F5F5F5F5F5F5F5F5F5F5F5F5F5F5
310
F5F5F5F5F5F5F5F5F5F5F5F5F5F5F5F5F5F5F5F5F5F5F5F5F5F5F5F5F5F5F5F5F5F5F5F5F5F5F5F5F5F5F5F5F5F5F5F5F5F5F5F5F5F5F5F5F5F5F5F5F5F5F5F5F5F5F5F5F5F5F5F5F5F5F5F5F5F5F5F5F5F5F5E2F5F5F5E2E2E2F5F5F5E2F5F5F5F5F5F5F5F5F5F5F5F5F5F5F5F5F5F5F5F5F5F5F5F5F5F5F5F5F5F5F5F5F5
310
F5F5F5F5F5F5F5F5F5F5F5F5F5F5F5F5F5F5F5F5F5F5F5F5F5F5F5F5F5F5F5F5F5F5F5F5F5F5F5F5F5F5F5F5F5F5F5F5F5F5F5F5F5F5F5F5F5F5F5F5F5F5F5F5F5F5F5F5F5F5F5F5F5F5F5F5F5F5F5F5F5F5F5F5F5F5F5F5F5F5F5F5F5F5F5F5F5F5F5F5F5F5F5F5F5F5F5F5F5F5F5F5F5F5F5F5F5F5F5F5F5F5F5F5F5F5F5
310
F5F5F5F5F5F5F5F5F5E2F5F5F5E2E2E2F5F5F5E2F5F5F5F5F5F5F5F5F5F5F5F5F5F5F5F5F5F5F5F5F5F5F5F5F5F5F5F5F5F5F5F5F5F5F5F5F5F5F5F5F5F5F5F5F5F5F5F5F5F5F5F5F5F5F5F5F5F5F5F5F5F5F5F5F5F5F5F5F5F5F5F5F5F5F5F5F5F5F5F5F5F5F5F5F5F5F5F5F5F5F5F5F5F5F5F5F5F5F5F5F5F5F5F5F5F5F5
310
F5F5F5F5F5F5F5F5F5F5F5F5F5F5F5F5F5F5F5F5F5F5F5F5F5F5F5F5F5F5F5F5F5F5F5F5F5F5F5F5F5F5F5F5F5F5F5F5F5F5F5F5F5F5F5F5F5F5F5F5F5F5E2F5F5F5E2E2E2F5F5F5E2F5F5F5F5F5F5F5F5F5F5F5F5F5F5F5F5F5F5F5F5F5F5F5F5F5F5F5F5F5F5F5F5F5F5F5F5F5F5F5F5F5F5F5F5F5F5F5F5F5F5F5F5F5F5
310
F5F5F5F5F5F5F5F5F5F5F5F5F5F5F5F5F5F5F5F5F5F5F5F5F5F5F5F5F5F5F5F5F5F5F5F5F5F5F5F5F5F5F5F5F5F5F5F5F5F5F5F5F5F5F5F5F5F5F5F5F5F5F5F5F5F5F5F5F5F5F5F5F5F5F5F5F5F5F5F5F5F5F5F5F5F5F5F5F5F5F5F5F5F5F5F5F5F5F5F5F5F5F5F5F5F5F5F5F5F5F5F5F5F5F5E2F5F5F5E2E2E2F5F5F5E2F5
310
F5F5F5F5F5F5F5F5F5F5F5F5F5F5F5F5F5F5F5F5F5F5F5F5F5F5F5F5F5F5F5F5F5F5F5F5F5F5F5F5F5F5F5F5F5F5F5F5F5F5F5F5F5F5F5F5F5F5F5F5F5F5F5F5F5F5F5F5F5F5F5F5F5F5F5F5F5F5F5F5F5F5F5F5F5F5F5F5F5F5F5F5F5F5F5F5F5F5F5F5F5F5F5F5F5F5F5F5F5F5F5F5F5F5F5F5F5F5F5F5F5F5F5F5F5F5F5
310
F5F5F5F5F5F5F5F5F5F5F5F5F5F5F5F5F5F5F5F5F5F5F5F5F5F5F5F5F5F5F5F5F5F5F5F5F5F5F5F5F5E2F5F5F5E2E2E2F5F5F5E2F5F5F5F5F5F5F5F5F5F5F5F5F5F5F5F5F5F5F5F5F5F5F5F5F5F5F5F5F5F5F5F5F5F5F5F5F5F5F5F5F5F5F5F5F5F5F5F5F5F5F5F5F5F5F5F5F5F5F5F5F5F5F5F5F5F5F5F5F5F5F5F5F5F5F5
310
F5F5F5F5F5F5F5F5F5F5F5F5F5F5F5F5F5F5F5F5F5F5F5F5F5F5F5F5F5F5F5F5F5F5F5F5F5F5F5F5F5F5F5F5F5F5F5F5F5F5F5F5F5F5F5F5F5F5F5F5F5F5F5F5F5F5F5F5F5F5F5F5F5F5F5F5F5F5F5F5F5F5F5F5F5F5F5F5F5F5F5F5F5F5E2F5F5F5E2E2E2F5F5F5E2F5F5F5F5F5F5F5F5F5F5F5F5F5F5F5F5F5F5F5F5F5F5
310
F5F5F5F5F5F5F5F5F5F5F5F5F5F5F5F5F5F5F5F5F5F5F5F5F5F5F5F5F5F5F5F5F5F5F5F5F5F5F5F5F5F5F5F5F5F5F5F5F5F5F5F5F5F5F5F5F5F5F5F5F5F5F5F5F5F5F5F5F5F5F5F5F5F5F5F5F5F5F5F5F5F5F5F5F5F5F5F5F5F5F5F5F5F5F5F5F5F5F5F5F5F5F5F5F5F5F5F5F5F5F5F5F5F5F5F5F5F5F5F5F5F5F5F5F5F5F5
310
F5F5F5F5F5F5F5F5F5F5F5F5F5F5F5F5F5F5F5F5E2F5F5F5E2E2E2F5F5F5F5F5F5F5F5F5F5F5F5F5F5F5F5F5F5F5F5F5F5F5F5F5F5F5F5F5F5F5F5F5F5F5F5F5F5F5F5F5F5F5F5F5F5F5F5F5F5F5F5F5F5F5F5F5F5F5F5F5F5F5F5F5F5F5F5F5F5F5F5F5F5F5F5F5F5F5F5F5F5F5F5F5F5F5F5F5F5F5F5F5F5F5F5F5F5F5F5
310
F5F5F5F5F5F5F5F5F5F5F5F5F5F5F5F5F5F5F5F5F5F5F5F5F5F5F5F5F5F5F5F5F5F5F5F5F5F5F5F5F5F5F5F5F5F5F5F5F5F5F5F5F5F5F5F5F5F5F5F5F5F5F5F5F5F5F5F5F5F5F5F5F5F5F5F5F5E2E2E2F5F5F5F5F5F5F5F5F5F5F5F5F5F5F5F5F5F5F5F5F5F5F5F5F5F5F5F5F5F5F5F5F5F5F5F5F5F5F5F5F5F5F5F5F5F5F5
310
F5F5F5F5F5F5F5F5F5F5F5F5F5F5F5F5F5F5F5F5F5F5F5F5F5F5F5F5F5F5F5F5F5F5F5F5F5F5F5F5F5F5F5F5F5F5F5F5F5F5F5F5F5F5F5F5F5F5F5F5F5F5F5F5F5F5F5F5F5F5F5F5F5F5F5F5F5F5F5F5F5F5F5F5F5F5F5F5F5F5F5F5F5F5F5F5F5F5F5F5F5F5F5F5F5F5F5F5F5F5F5F5F5F5F5F5F5F5F5F5F5F5F5F5F5F5F5
310
F5F5F5E2E2E2F5F5F5F5F5F5F5F5F5F5F5F5F5F5F5F5F5F5F5F5F5F5F5F5F5F5F5F5F5F5F5F5F5F5F5F5F5F5F5F5F5F5F5F5F5F5F5F5F5F5F5F5F5F5F5F5F5F5F5F5F5F5F5F5F5F5F5F5F5F5F5F5F5F5F5F5F5F5F5F5F5F5F5F5F5F5F5F5F5F5F5F5F5F5F5F5F5F5F5F5F5F5F5F5F5F5F5F5F5F5F5F5F5F5F5F5F5F5F5F5F5
310
F5F5F5F5F5F5F5F5F5F5F5F5F5F5F5F5F5F5F5F5F5F5F5F5F5F5F5F5F5F5F5F5F5F5F5F5F5F5F5F5F5F5F5F5F5F5F5F5F5F5F5F5F5F5F5F5E2E2E2F5F5F5F5F5F5F5F5F5F5F5F5F5F5F5F5F5F5F5F5F5F5F5F5F5F5F5F5F5F5F5F5F5F5F5F5F5F5F5F5F5F5F5F5F5F5F5F5F5F5F5F5F5F5F5F5F5F5F5F5F5F5F5F5F5F5F5F5
310
F5F5F5F5F5F5F5F5F5F5F5F5F5F5F5F5F5F5F5F5F5F5F5F5F5F5F5F5F5F5F5F5F5F5F5F5F5F5F5F5F5F5F5F5F5F5F5F5F5F5F5F5F5F5F5F5F5F5F5F5F5F5F5F5F5F5F5F5F5F5F5F5F5F5F5F5F5F5F5F5F5F5F5F5F5F5F5F5F5F5F5F5F5F5F5F5F5F5F5F5F5F5F5F5F5F5F5F5F5E2E2E2F5F5F5F5F5F5F5F5F5F5F5F5F5F5F5
310
F5F5F5F5F5F5F5F5F5F5F5F5F5F5F5F5F5F5F5F5F5F5F5F5F5F5F5F5F5F5F5F5F5F5F5F5F5F5F5F5F5F5F5F5F5F5F5F5F5F5F5F5F5F5F5F5F5F5F5F5F5F5F5F5F5F5F5F5F5F5F5F5F5F5F5F5F5F5F5F5F5F5F5F5F5F5F5F5F5F5F5F5F5F5F5F5F5F5F5F5F5F5F5F5F5F5F5F5F5F5F5F5F5F5F5F5F5F5F5F5F5F5F5F5F5F5F5
310
F5F5F5F5F5F5F5F5F5F5F5F5F5F5F5F5F5F5F5F5F5F5F5F5F5F5F5F5F5F5F5F5F5F5F5E2E2E2F5F5F5F5F5F5F5F5F5F5F5F5F5F5F5F5F5F5F5F5F5F5F5F5F5F5F5F5F5F5F5F5F5F5F5F5F5F5F5F5F5F5F5F5F5F5F5F5F5F5F5F5F5F5F5F5F5F5F5F5F5F5F5F5F5F5F5F5F5F5F5F5F5F5F5F5F5F5F5F5F5F5F5F5F5F5F5F5F5
310
F5F5F5F5F5F5F5F5F5F5F5F5F5F5F5F5F5F5F5F5F5F5F5F5F5F5F5F5F5F5F5F5F5F5F5F5F5F5F5F5F5F5F5F5F5F5F5F5F5F5F5F5F5F5F5F5F5F5F5F5F5F5F5F5F5F5F5F5F5F5F5F5F5F5F5F5F5F5F5F5F5F5F5F5F5F5F5F5E2E2E2F5F5F5F5F5F5F5F5F5F5F5F5F5F5F5F5F5F5F5F5F5F5F5F5F5F5F5F5F5F5F5F5F5F5F5F5
310
F5F5F5F5F5F5F5F5F5F5F5F5F5F5F5F5F5F5F5F5F5F5F5F5F5F5F5F5F5F5F5F5F5F5F5F5F5F5F5F5F5F5F5F5F5F5F5F5F5F5F5F5F5F5F5F5F5F5F5F5F5F5F5F5F5F5F5F5F5F5F5F5F5F5F5F5F5F5F5F5F5F5F5F5F5F5F5F5F5F5F5F5F5F5F5F5F5F5F5F5F5F5F5F5F5F5F5F5F5F5F5F5F5F5F5F5F5F5F5F5F5F5F5F5F5F5F5
310
F5F5F5F5F5F5F5F5F5F5F5F5F5F5E2E2E2F5F5F5F5F5F5F5F5F5F5F5F5F5F5F5F5F5F5F5F5F5F5F5F5F5F5F5F5F5F5F5F5F5F5F5F5F5F5F5F5F5F5F5F5F5F5F5F5F5F5F5F5F5F5F5F5F5F5F5F5F5F5F5F5F5F5F5F5F5F5F5F5F5F5F5F5F5F5F5F5F5F5F5F5F5F5F5F5F5F5F5F5F5F5F5F5F5F5F5F5F5F5F5F5F5F5F5F5F5F5
310
F5F5F5F5F5F5F5F5F5F5F5F5F5F5F5F5F5F5F5F5F5F5F5F5F5F5F5F5F5F5F5F5F5F5F5F5F5F5F5F5F5F5F5F5F5F5F5F5F5F5F5F5F5F5F5F5F5F5F5F5F5F5F5F5F5F5F5E2E2E2F5F5F5F5F5F5F5F5F5F5F5F5F5F5F5F5F5F5F5F5F5F5F5F5F5F5F5F5F5F5F5F5F5F5F5F5F5F5F5F5F5F5F5F5F5F5F5F5F5F5F5F5F5F5F5F5F5
310
F5F5F5F5F5F5F5F5F5F5F5F5F5F5F5F5F5F5F5F5F5F5F5F5F5F5F5F5F5F5F5F5F5F5F5F5F5F5F5F5F5F5F5F5F5F5F5F5F5F5F5F5F5F5F5F5F5F5F5F5F5F5F5F5F5F5F5F5F5F5F5F5F5F5F5F5F5F5F5F5F5F5F5F5F5F5F5F5F5F5F5F5F5F5F5F5F5F5F5F5F5F5F5F5F5F5F5F5F5F5F5F5F5F5F5F5F5F5F5F5E2E2E2F5F5F5E2
310
F5F5F5F5F5F5F5F5F5F5F5F5F5F5F5F5F5F5F5F5F5F5F5F5F5F5F5F5F5F5F5F5F5F5F5F5F5F5F5F5F5F5F5F5F5F5F5F5F5F5F5F5F5F5F5F5F5F5F5F5F5F5F5F5F5F5F5F5F5F5F5F5F5F5F5F5F5F5F5F5F5F5F5F5F5F5F5F5F5F5F5F5F5F5F5F5F5F5F5F5F5F5F5F5F5F5F5F5F5F5F5F5F5F5F5F5F5F5F5F5F5F5F5F5F5F5F5
310
F5F5F5F5F5F5F5F5F5F5F5F5F5F5F5F5F5F5F5F5F5F5F5F5F5F5F5F5F5F5F5F5F5F5F5F5F5F5F5F5F5F5E2F5F5F5E2E2E2F5F5F5E2F5F5F5F5F5F5F5F5F5F5F5F5F5F5F5F5F5F5F5F5F5F5F5F5F5F5F5F5F5F5F5F5F5F5F5F5F5F5F5F5F5F5F5F5F5F5F5F5F5F5F5F5F5F5F5F5F5F5F5F5F5F5F5F5F5F5F5F5F5F5F5F5F5F5
310
F5F5F5F5F5F5F5F5F5F5F5F5F5F5F5F5F5F5F5F5F5F5F5F5F5F5F5F5F5F5F5F5F5F5F5F5F5F5F5F5F5F5F5F5F5F5F5F5F5F5F5F5F5F5F5F5F5F5F5F5F5F5F5F5F5F5F5F5F5F5F5F5F5F5F5F5F5F5F5F5F5F5F5F5F5F5F5F5F5F5F5F5F5F5F5E2F5F5F5E2E2E2F5F5F5E2F5F5F5F5F5F5F5F5F5F5F5F5F5F5F5F5F5F5F5F5F5
310
F5F5F5F5F5F5F5F5F5F5F5F5F5F5F5F5F5F5F5F5F5F5F5F5F5F5F5F5F5F5F5F5F5F5F5F5F5F5F5F5F5F5F5F5F5F5F5F5F5F5F5F5F5F5F5F5F5F5F5F5F5F5F5F5F5F5F5F5F5F5F5F5F5F5F5F5F5F5F5F5F5F5F5F5F5F5F5F5F5F5F5F5F5F5F5F5F5F5F5F5F5F5F5F5F5F5F5F5F5F5F5F5F5F5F5F5F5F5F5F5F5F5F5F5F5F5F5
310
F5F5F5F5F5F5F5F5F5F5F5F5F5F5F5F5F5F5F5F5F5E2F5F5F5E2E2E2F5F5F5E2F5F5F5F5F5F5F5F5F5F5F5F5F5F5F5F5F5F5F5F5F5F5F5F5F5F5F5F5F5F5F5F5F5F5F5F5F5F5F5F5F5F5F5F5F5F5F5F5F5F5F5F5F5F5F5F5F5F5F5F5F5F5F5F5F5F5F5F5F5F5F5F5F5F5F5F5F5F5F5F5F5F5F5F5F5F5F5F5F5F5F5F5F5F5F5
310
F5F5F5F5F5F5F5F5F5F5F5F5F5F5F5F5F5F5F5F5F5F5F5F5F5F5F5F5F5F5F5F5F5F5F5F5F5F5F5F5F5F5F5F5F5F5F5F5F5F5F5F5F5F5F5F5F5F5F5F5F5F5F5F5F5F5F5F5F5F5F5F5F5F5E2F5F5F5E2E2E2F5F5F5E2F5F5F5F5F5F5F5F5F5F5F5F5F5F5F5F5F5F5F5F5F5F5F5F5F5F5F5F5F5F5F5F5F5F5F5F5F5F5F5F5F5F5
310
F5F5F5F5F5F5F5F5F5F5F5F5F5F5F5F5F5F5F5F5F5F5F5F5F5F5F5F5F5F5F5F5F5F5F5F5F5F5F5F5F5F5F5F5F5F5F5F5F5F5F5F5F5F5F5F5F5F5F5F5F5F5F5F5F5F5F5F5F5F5F5F5F5F5F5F5F5F5F5F5F5F5F5F5F5F5F5F5F5F5F5F5F5F5F5F5F5F5F5F5F5F5F5F5F5F5F5F5F5F5F5F5F5F5F5F5F5F5F5F5F5F5F5F5F5F5F5
310
E2F5F5F5E2E2E2F5F5F5E2F5F5F5F5F5F5F5F5F5F5F5F5F5F5F5F5F5F5F5F5F5F5F5F5F5F5F5F5F5F5F5F5F5F5F5F5F5F5F5F5F5F5F5F5F5F5F5F5F5F5F5F5F5F5F5F5F5F5F5F5F5F5F5F5F5F5F5F5F5F5F5F5F5F5F5F5F5F5F5F5F5F5F5F5F5F5F5F5F5F5F5F5F5F5F5F5F5F5F5F5F5F5F5F5F5F5F5F5F5F5F5F5F5F5F5F5
310
F5F5F5F5F5F5F5F5F5F5F5F5F5F5F5F5F5F5F5F5F5F5F5F5F5F5F5F5F5F5F5F5F5F5F5F5F5F5F5F5F5F5F5F5F5F5F5F5F5F5F5F5F5E2F5F5F5E2E2E2F5F5F5E2F5F5F5F5F5F5F5F5F5F5F5F5F5F5F5F5F5F5F5F5F5F5F5F5F5F5F5F5F5F5F5F5F5F5F5F5F5F5F5F5F5F5F5F5F5F5F5F5F5F5F5F5F5F5F5F5F5F5F5F5F5F5F5
310
F5F5F5F5F5F5F5F5F5F5F5F5F5F5F5F5F5F5F5F5F5F5F5F5F5F5F5F5F5F5F5F5F5F5F5F5F5F5F5F5F5F5F5F5F5F5F5F5F5F5F5F5F5F5F5F5F5F5F5F5F5F5F5F5F5F5F5F5F5F5F5F5F5F5F5F5F5F5F5F5F5F5F5F5F5F5F5F5F5F5F5F5F5F5F5F5F5F5F5F5F5F5F5F5F5F5E2F5F5F5E2E2E2F5F5F5E2F5F5F5F5F5F5F5F5F5F5
310
F5F5F5F5F5F5F5F5F5F5F5F5F5F5F5F5F5F5F5F5F5F5F5F5F5F5F5F5F5F5F5F5F5F5F5F5F5F5F5F5F5F5F5F5F5F5F5F5F5F5F5F5F5F5F5F5F5F5F5F5F5F5F5F5F5F5F5F5F5F5F5F5F5F5F5F5F5F5F5F5F5F5F5F5F5F5F5F5F5F5F5F5F5F5F5F5F5F5F5F5F5F5F5F5F5F5F5F5F5F5F5F5F5F5F5F5F5F5F5F5F5F5F5F5F5F5F5
310
F5F5F5F5F5F5F5F5F5F5F5F5F5F5F5F5F5F5F5F5F5F5F5F5F5F5F5F5F5F5F5F5E2F5F5F5E2E2E2F5F5F5E2E2E2E2E2E2E2E2F5F5F5F5F5F5F5F5F5E2E2E2E2E2E2E2E2E2E2E2E2E2E2E2E2F5F5F5F5F5F5F5F5E2E2E2E2E2E2E2E2E2E2E2E2E2E2E2E2F5F5F5F5F5F5F5F5F5E2E2E2E2E2E2E2E2E2E2E2E2E2E2E2F5F5F5F5
310
F5F5F5F5F5E2E2E2E2E2E2E2E2E2E2E2E2E2E2E2F5F5F5F5F5F5F5F5F5E2E2E2E2E2E2E2E2E2E2E2E2E2E2E2E2F5F5F5F5F5F5F5F5E2E2E2E2E2E2E2E2E2E2E2E2E2E2E2E2F5F5F5F5F5F5F5F5F5E2E2E2E2E2E2E2E2F5F5F5E2E2E2F5F5F5F5F5F5F5F5F5F5F5F5F5F5F5F5F5F5F5F5F5F5F5F5F5F5F5F5F5F5F5F5F5F5F5
310
F5F5F5F5F5F5F5F5F5F5F5F5F5F5F5F5F5F5F5F5F5F5F5F5F5F5F5F5F5F5F5F5F5F5F5F5F5F5F5F5F5F5F5F5F5F5F5F5F5F5F5F5F5F5F5F5F5F5F5F5F5F5F5F5F5F5F5F5F5F5F5F5F5F5F5F5F5F5F5F5F5F5F5F5F5F5F5F5F5F5F5F5F5F5F5F5F5F5F5F5F5F5F5F5F5F5F5F5F5F5F5F5F5F5F5F5F5F5F5F5F5F5F5F5F5F5F5
310
F5F5F5F5F5F5F5F5F5F5F5F5F5F5F5E2E2E2F5F5F5F5F5F5F5F5F5F5F5F5F5F5F5F5F5F5F5F5F5F5F5F5F5F5F5F5F5F5F5F5F5F5F5F5F5F5F5F5F5F5F5F5F5F5F5F5F5F5F5F5F5F5F5F5F5F5F5F5F5F5F5F5F5F5F5F5F5F5F5F5F5F5F5F5F5F5F5F5F5F5F5F5F5F5F5F5F5F5F5F5F5F5F5F5F5F5F5F5F5F5F5F5F5F5F5F5F5
310
F5F5F5F5F5F5F5F5F5F5F5F5F5F5F5F5F5F5F5F5F5F5F5F5F5F5F5F5F5F5F5F5F5F5F5F5F5F5F5F5F5F5F5F5F5F5F5F5F5F5F5F5F5F5F5F5F5F5F5F5F5F5F5F5F5F5F5F5E2E2E2F5F5F5F5F5F5F5F5F5F5F5F5F5F5F5F5F5F5F5F5F5F5F5F5F5F5F5F5F5F5F5F5F5F5F5F5F5F5F5F5F5F5F5F5F5F5F5F5F5F5F5F5F5F5F5F5
310
F5F5F5F5F5F5F5F5F5F5F5F5F5F5F5F5F5F5F5F5F5F5F5F5F5F5F5F5F5F5F5F5F5F5F5F5F5F5F5F5F5F5F5F5F5F5F5F5F5F5F5F5F5F5F5F5F5F5F5F5F5F5F5F5F5F5F5F5F5F5F5F5F5F5F5F5F5F5F5F5F5F5F5F5F5F5F5F5F5F5F5F5F5F5F5F5F5F5F5F5F5F5F5F5F5F5F5F5F5F5F5F5F5F5F5F5F5F5F5F5F5E2EFE2F5F5F5
310
F5F5F5F5F5F5F5F5F5F5F5F5F5F5F5F5F5F5F5F5F5F5F5F5F5F5F5F5F5F5F5F5F5F5F5F5F5F5F5F5F5F5F5F5F5F5F5F5F5F5F5F5F5F5F5F5F5F5F5F5F5F5F5F5F5F5F5F5F5F5F5F5F5F5F5F5F5F5F5F5F5F5F5F5F5F5F5F5F5F5F5F5F5F5F5F5F5F5F5F5F5F5F5F5F5F5F5F5F5F5F5F5F5F5F5F5F5F5F5F5F5F5F5F5F5F5F5
310
F5F5F5F5F5F5F5F5F5F5F5F5F5F5F5F5F5F5F5F5F5F5F5F5F5F5F5F5F5F5F5F5F5F5F5F5F5F5F5F5F5F5F5F5F5F5F5E2EF
  0
XRECORD
  5
48C0
102
{ACAD_REACTORS
330
48BF
102
}
330
48BF
100
AcDbXrecord
280
     1
102
SHADEPLOT
 70
     0
102
SHADEPLOTRESLEVEL
 70
     2
102
SHADEPLOTCUSTOMDPI
 70
   300
  0
XRECORD
  5
48CB
102
{ACAD_REACTORS
330
48CA
102
}
330
48CA
100
AcDbXrecord
280
     1
102
MATERIAL
148
0.0
149
0.0
149
0.0
 93
        0
 94
       63
282
     0
 72
     1
 77
     1
171
     1
175
     1
179
     1
273
     0
  0
XRECORD
  5
48C9
102
{ACAD_REACTORS
330
48C8
102
}
330
48C8
100
AcDbXrecord
280
     1
102
MATERIAL
148
0.0
149
0.0
149
0.0
 93
        0
 94
       63
282
     0
 72
     1
 77
     1
171
     1
175
     1
179
     1
273
     0
  0
XRECORD
  5
48CD
102
{ACAD_REACTORS
330
48CC
102
}
330
48CC
100
AcDbXrecord
280
     1
102
MATERIAL
148
0.0
149
0.0
149
0.0
 93
        0
 94
       63
282
     0
 72
     1
 77
     1
171
     1
175
     1
179
     1
273
     0
  0
XRECORD
  5
48EF
102
{ACAD_REACTORS
330
48EE
102
}
330
48EE
100
AcDbXrecord
280
     1
102
SHADEPLOT
 70
     0
102
SHADEPLOTRESLEVEL
 70
     2
102
SHADEPLOTCUSTOMDPI
 70
   300
  0
XRECORD
  5
48F1
102
{ACAD_REACTORS
330
48F0
102
}
330
48F0
100
AcDbXrecord
280
     1
102
SHADEPLOT
 70
     0
102
SHADEPLOTRESLEVEL
 70
     2
102
SHADEPLOTCUSTOMDPI
 70
   300
  0
XRECORD
  5
48F3
102
{ACAD_REACTORS
330
48F2
102
}
330
48F2
100
AcDbXrecord
280
     1
102
SHADEPLOT
 70
     0
102
SHADEPLOTRESLEVEL
 70
     2
102
SHADEPLOTCUSTOMDPI
 70
   300
  0
XRECORD
  5
48F5
102
{ACAD_REACTORS
330
48F4
102
}
330
48F4
100
AcDbXrecord
280
     1
102
SHADEPLOT
 70
     0
102
SHADEPLOTRESLEVEL
 70
     2
102
SHADEPLOTCUSTOMDPI
 70
   300
  0
XRECORD
  5
48F7
102
{ACAD_REACTORS
330
48F6
102
}
330
48F6
100
AcDbXrecord
280
     1
102
SHADEPLOT
 70
     0
102
SHADEPLOTRESLEVEL
 70
     2
102
SHADEPLOTCUSTOMDPI
 70
   300
  0
CELLSTYLEMAP
  5
48B3
102
{ACAD_REACTORS
330
48B2
102
}
330
48B2
100
AcDbCellStyleMap
 90
        3
300
CELLSTYLE
  1
TABLEFORMAT_BEGIN
 90
        5
170
     1
 91
        0
 92
    32768
 62
   257
 93
        1
300
CONTENTFORMAT
  1
CONTENTFORMAT_BEGIN
 90
        0
 91
        0
 92
        4
 93
        0
300

 40
0.0
140
1.0
 94
        5
 62
     0
340
11
144
6.0
309
CONTENTFORMAT_END
171
     1
301
MARGIN
  1
CELLMARGIN_BEGIN
 40
1.5
 40
1.5
 40
1.5
 40
1.5
 40
0.18
 40
0.18
309
CELLMARGIN_END
 94
        6
 95
        1
302
GRIDFORMAT
  1
GRIDFORMAT_BEGIN
 90
        0
 91
        1
 62
     0
 92
       -2
340
0
 93
        0
 40
0.045
309
GRIDFORMAT_END
 95
        2
302
GRIDFORMAT
  1
GRIDFORMAT_BEGIN
 90
        0
 91
        1
 62
     0
 92
       -2
340
0
 93
        0
 40
0.045
309
GRIDFORMAT_END
 95
        4
302
GRIDFORMAT
  1
GRIDFORMAT_BEGIN
 90
        0
 91
        1
 62
     0
 92
       -2
340
0
 93
        0
 40
0.045
309
GRIDFORMAT_END
 95
        8
302
GRIDFORMAT
  1
GRIDFORMAT_BEGIN
 90
        0
 91
        1
 62
     0
 92
       -2
340
0
 93
        0
 40
0.045
309
GRIDFORMAT_END
 95
       16
302
GRIDFORMAT
  1
GRIDFORMAT_BEGIN
 90
        0
 91
        1
 62
     0
 92
       -2
340
0
 93
        0
 40
0.045
309
GRIDFORMAT_END
 95
       32
302
GRIDFORMAT
  1
GRIDFORMAT_BEGIN
 90
        0
 91
        1
 62
     0
 92
       -2
340
0
 93
        0
 40
0.045
309
GRIDFORMAT_END
309
TABLEFORMAT_END
  1
CELLSTYLE_BEGIN
 90
        1
 91
        1
300
_TITLE
309
CELLSTYLE_END
300
CELLSTYLE
  1
TABLEFORMAT_BEGIN
 90
        5
170
     1
 91
        0
 92
        0
 62
   257
 93
        1
300
CONTENTFORMAT
  1
CONTENTFORMAT_BEGIN
 90
        0
 91
        0
 92
        4
 93
        0
300

 40
0.0
140
1.0
 94
        5
 62
     0
340
11
144
4.5
309
CONTENTFORMAT_END
171
     1
301
MARGIN
  1
CELLMARGIN_BEGIN
 40
1.5
 40
1.5
 40
1.5
 40
1.5
 40
0.18
 40
0.18
309
CELLMARGIN_END
 94
        6
 95
        1
302
GRIDFORMAT
  1
GRIDFORMAT_BEGIN
 90
        0
 91
        1
 62
     0
 92
       -2
340
0
 93
        0
 40
0.045
309
GRIDFORMAT_END
 95
        2
302
GRIDFORMAT
  1
GRIDFORMAT_BEGIN
 90
        0
 91
        1
 62
     0
 92
       -2
340
0
 93
        0
 40
0.045
309
GRIDFORMAT_END
 95
        4
302
GRIDFORMAT
  1
GRIDFORMAT_BEGIN
 90
        0
 91
        1
 62
     0
 92
       -2
340
0
 93
        0
 40
0.045
309
GRIDFORMAT_END
 95
        8
302
GRIDFORMAT
  1
GRIDFORMAT_BEGIN
 90
        0
 91
        1
 62
     0
 92
       -2
340
0
 93
        0
 40
0.045
309
GRIDFORMAT_END
 95
       16
302
GRIDFORMAT
  1
GRIDFORMAT_BEGIN
 90
        0
 91
        1
 62
     0
 92
       -2
340
0
 93
        0
 40
0.045
309
GRIDFORMAT_END
 95
       32
302
GRIDFORMAT
  1
GRIDFORMAT_BEGIN
 90
        0
 91
        1
 62
     0
 92
       -2
340
0
 93
        0
 40
0.045
309
GRIDFORMAT_END
309
TABLEFORMAT_END
  1
CELLSTYLE_BEGIN
 90
        2
 91
        1
300
_HEADER
309
CELLSTYLE_END
300
CELLSTYLE
  1
TABLEFORMAT_BEGIN
 90
        5
170
     1
 91
        0
 92
        0
 62
   257
 93
        1
300
CONTENTFORMAT
  1
CONTENTFORMAT_BEGIN
 90
        0
 91
        0
 92
        4
 93
        0
300

 40
0.0
140
1.0
 94
        2
 62
     0
340
11
144
4.5
309
CONTENTFORMAT_END
171
     1
301
MARGIN
  1
CELLMARGIN_BEGIN
 40
1.5
 40
1.5
 40
1.5
 40
1.5
 40
0.18
 40
0.18
309
CELLMARGIN_END
 94
        6
 95
        1
302
GRIDFORMAT
  1
GRIDFORMAT_BEGIN
 90
        0
 91
        1
 62
     0
 92
       -2
340
0
 93
        0
 40
0.045
309
GRIDFORMAT_END
 95
        2
302
GRIDFORMAT
  1
GRIDFORMAT_BEGIN
 90
        0
 91
        1
 62
     0
 92
       -2
340
0
 93
        0
 40
0.045
309
GRIDFORMAT_END
 95
        4
302
GRIDFORMAT
  1
GRIDFORMAT_BEGIN
 90
        0
 91
        1
 62
     0
 92
       -2
340
0
 93
        0
 40
0.045
309
GRIDFORMAT_END
 95
        8
302
GRIDFORMAT
  1
GRIDFORMAT_BEGIN
 90
        0
 91
        1
 62
     0
 92
       -2
340
0
 93
        0
 40
0.045
309
GRIDFORMAT_END
 95
       16
302
GRIDFORMAT
  1
GRIDFORMAT_BEGIN
 90
        0
 91
        1
 62
     0
 92
       -2
340
0
 93
        0
 40
0.045
309
GRIDFORMAT_END
 95
       32
302
GRIDFORMAT
  1
GRIDFORMAT_BEGIN
 90
        0
 91
        1
 62
     0
 92
       -2
340
0
 93
        0
 40
0.045
309
GRIDFORMAT_END
309
TABLEFORMAT_END
  1
CELLSTYLE_BEGIN
 90
        3
 91
        2
300
_DATA
309
CELLSTYLE_END
  0
XRECORD
  5
48C1
102
{ACAD_REACTORS
330
48B2
102
}
330
48B2
100
AcDbXrecord
280
     1
102
ACAD_ROUNDTRIP_PRE2007_TABLESTYLE
 90
        4
 91
        0
  1

 92
        4
 93
        0
  2

 94
        4
 95
        0
  3

  0
XRECORD
  5
48D9
102
{ACAD_REACTORS
330
48D8
102
}
330
48D8
100
AcDbXrecord
280
     1
102
RTVSPropertyOp0
 70
     1
102
RTVSPropertyOp1
 70
     1
102
RTVSPropertyOp2
 70
     1
102
RTVSPropertyOp3
 70
     1
102
RTVSPropertyOp4
 70
     1
102
RTVSPropertyOp5
 70
     1
102
RTVSPropertyOp6
 70
     1
102
RTVSPropertyOp7
 70
     1
102
RTVSPropertyOp8
 70
     1
102
RTVSPropertyOp9
 70
     1
102
RTVSPropertyOp10
 70
     1
102
RTVSPropertyOp11
 70
     1
102
RTVSPropertyOp12
 70
     1
102
RTVSPropertyOp13
 70
     1
102
RTVSPropertyOp14
 70
     1
102
RTVSPropertyOp15
 70
     1
102
RTVSPropertyOp16
 70
     1
102
RTVSPropertyOp17
 70
     1
102
RTVSPropertyOp18
 70
     1
102
RTVSPropertyOp19
 70
     1
102
RTVSPropertyOp20
 70
     1
102
RTVSPropertyOp21
 70
     1
102
RTVSPropertyOp22
 70
     1
102
RTVSPropertyOp23
 70
     1
102
RTVSPropertyOp24
 70
     1
102
RTVSPropertyOp25
 70
     1
102
RTVSPropertyOp26
 70
     1
102
RTVSPropertyOp27
 70
     1
  0
XRECORD
  5
48DD
102
{ACAD_REACTORS
330
48DC
102
}
330
48DC
100
AcDbXrecord
280
     1
102
RTVSPropertyOp0
 70
     1
102
RTVSPropertyOp1
 70
     1
102
RTVSPropertyOp2
 70
     1
102
RTVSPropertyOp3
 70
     1
102
RTVSPropertyOp4
 70
     1
102
RTVSPropertyOp5
 70
     1
102
RTVSPropertyOp6
 70
     1
102
RTVSPropertyOp7
 70
     1
102
RTVSPropertyOp8
 70
     1
102
RTVSPropertyOp9
 70
     1
102
RTVSPropertyOp10
 70
     1
102
RTVSPropertyOp11
 70
     1
102
RTVSPropertyOp12
 70
     1
102
RTVSPropertyOp13
 70
     1
102
RTVSPropertyOp14
 70
     1
102
RTVSPropertyOp15
 70
     1
102
RTVSPropertyOp16
 70
     1
102
RTVSPropertyOp17
 70
     1
102
RTVSPropertyOp18
 70
     1
102
RTVSPropertyOp19
 70
     1
102
RTVSPropertyOp20
 70
     1
102
RTVSPropertyOp21
 70
     1
102
RTVSPropertyOp22
 70
     1
102
RTVSPropertyOp23
 70
     1
102
RTVSPropertyOp24
 70
     1
102
RTVSPropertyOp25
 70
     1
102
RTVSPropertyOp26
 70
     1
102
RTVSPropertyOp27
 70
     1
  0
XRECORD
  5
48DB
102
{ACAD_REACTORS
330
48DA
102
}
330
48DA
100
AcDbXrecord
280
     1
102
RTVSPropertyOp0
 70
     1
102
RTVSPropertyOp1
 70
     1
102
RTVSPropertyOp2
 70
     1
102
RTVSPropertyOp3
 70
     1
102
RTVSPropertyOp4
 70
     1
102
RTVSPropertyOp5
 70
     1
102
RTVSPropertyOp6
 70
     1
102
RTVSPropertyOp7
 70
     1
102
RTVSPropertyOp8
 70
     1
102
RTVSPropertyOp9
 70
     1
102
RTVSPropertyOp10
 70
     1
102
RTVSPropertyOp11
 70
     1
102
RTVSPropertyOp12
 70
     1
102
RTVSPropertyOp13
 70
     1
102
RTVSPropertyOp14
 70
     1
102
RTVSPropertyOp15
 70
     1
102
RTVSPropertyOp16
 70
     1
102
RTVSPropertyOp17
 70
     1
102
RTVSPropertyOp18
 70
     1
102
RTVSPropertyOp19
 70
     1
102
RTVSPropertyOp20
 70
     1
102
RTVSPropertyOp21
 70
     1
102
RTVSPropertyOp22
 70
     1
102
RTVSPropertyOp23
 70
     1
102
RTVSPropertyOp24
 70
     1
102
RTVSPropertyOp25
 70
     1
102
RTVSPropertyOp26
 70
     1
102
RTVSPropertyOp27
 70
     1
  0
XRECORD
  5
48D7
102
{ACAD_REACTORS
330
48D6
102
}
330
48D6
100
AcDbXrecord
280
     1
102
RTVSPropertyOp0
 70
     1
102
RTVSPropertyOp1
 70
     1
102
RTVSPropertyOp2
 70
     1
102
RTVSPropertyOp3
 70
     1
102
RTVSPropertyOp4
 70
     1
102
RTVSPropertyOp5
 70
     1
102
RTVSPropertyOp6
 70
     1
102
RTVSPropertyOp7
 70
     1
102
RTVSPropertyOp8
 70
     1
102
RTVSPropertyOp9
 70
     1
102
RTVSPropertyOp10
 70
     1
102
RTVSPropertyOp11
 70
     1
102
RTVSPropertyOp12
 70
     1
102
RTVSPropertyOp13
 70
     1
102
RTVSPropertyOp14
 70
     1
102
RTVSPropertyOp15
 70
     1
102
RTVSPropertyOp16
 70
     1
102
RTVSPropertyOp17
 70
     1
102
RTVSPropertyOp18
 70
     1
102
RTVSPropertyOp19
 70
     1
102
RTVSPropertyOp20
 70
     1
102
RTVSPropertyOp21
 70
     1
102
RTVSPropertyOp22
 70
     1
102
RTVSPropertyOp23
 70
     1
102
RTVSPropertyOp24
 70
     1
102
RTVSPropertyOp25
 70
     1
102
RTVSPropertyOp26
 70
     1
102
RTVSPropertyOp27
 70
     1
  0
XRECORD
  5
48E5
102
{ACAD_REACTORS
330
48E4
102
}
330
48E4
100
AcDbXrecord
280
     1
102
RTVSPropertyOp0
 70
     1
102
RTVSPropertyOp1
 70
     1
102
RTVSPropertyOp2
 70
     1
102
RTVSPropertyOp3
 70
     1
102
RTVSPropertyOp4
 70
     1
102
RTVSPropertyOp5
 70
     1
102
RTVSPropertyOp6
 70
     1
102
RTVSPropertyOp7
 70
     1
102
RTVSPropertyOp8
 70
     1
102
RTVSPropertyOp9
 70
     1
102
RTVSPropertyOp10
 70
     1
102
RTVSPropertyOp11
 70
     1
102
RTVSPropertyOp12
 70
     1
102
RTVSPropertyOp13
 70
     1
102
RTVSPropertyOp14
 70
     1
102
RTVSPropertyOp15
 70
     1
102
RTVSPropertyOp16
 70
     1
102
RTVSPropertyOp17
 70
     1
102
RTVSPropertyOp18
 70
     1
102
RTVSPropertyOp19
 70
     1
102
RTVSPropertyOp20
 70
     1
102
RTVSPropertyOp21
 70
     1
102
RTVSPropertyOp22
 70
     1
102
RTVSPropertyOp23
 70
     1
102
RTVSPropertyOp24
 70
     1
102
RTVSPropertyOp25
 70
     1
102
RTVSPropertyOp26
 70
     1
102
RTVSPropertyOp27
 70
     1
  0
XRECORD
  5
48ED
102
{ACAD_REACTORS
330
48EC
102
}
330
48EC
100
AcDbXrecord
280
     1
102
RTVSPropertyOp0
 70
     1
102
RTVSPropertyOp1
 70
     1
102
RTVSPropertyOp2
 70
     1
102
RTVSPropertyOp3
 70
     1
102
RTVSPropertyOp4
 70
     1
102
RTVSPropertyOp5
 70
     1
102
RTVSPropertyOp6
 70
     1
102
RTVSPropertyOp7
 70
     1
102
RTVSPropertyOp8
 70
     1
102
RTVSPropertyOp9
 70
     1
102
RTVSPropertyOp10
 70
     1
102
RTVSPropertyOp11
 70
     1
102
RTVSPropertyOp12
 70
     1
102
RTVSPropertyOp13
 70
     1
102
RTVSPropertyOp14
 70
     1
102
RTVSPropertyOp15
 70
     1
102
RTVSPropertyOp16
 70
     1
102
RTVSPropertyOp17
 70
     1
102
RTVSPropertyOp18
 70
     1
102
RTVSPropertyOp19
 70
     1
102
RTVSPropertyOp20
 70
     1
102
RTVSPropertyOp21
 70
     1
102
RTVSPropertyOp22
 70
     1
102
RTVSPropertyOp23
 70
     1
102
RTVSPropertyOp24
 70
     1
102
RTVSPropertyOp25
 70
     1
102
RTVSPropertyOp26
 70
     1
102
RTVSPropertyOp27
 70
     1
  0
XRECORD
  5
48DF
102
{ACAD_REACTORS
330
48DE
102
}
330
48DE
100
AcDbXrecord
280
     1
102
RTVSPropertyOp0
 70
     1
102
RTVSPropertyOp1
 70
     1
102
RTVSPropertyOp2
 70
     1
102
RTVSPropertyOp3
 70
     1
102
RTVSPropertyOp4
 70
     1
102
RTVSPropertyOp5
 70
     1
102
RTVSPropertyOp6
 70
     1
102
RTVSPropertyOp7
 70
     1
102
RTVSPropertyOp8
 70
     1
102
RTVSPropertyOp9
 70
     1
102
RTVSPropertyOp10
 70
     1
102
RTVSPropertyOp11
 70
     1
102
RTVSPropertyOp12
 70
     1
102
RTVSPropertyOp13
 70
     1
102
RTVSPropertyOp14
 70
     1
102
RTVSPropertyOp15
 70
     1
102
RTVSPropertyOp16
 70
     1
102
RTVSPropertyOp17
 70
     1
102
RTVSPropertyOp18
 70
     1
102
RTVSPropertyOp19
 70
     1
102
RTVSPropertyOp20
 70
     1
102
RTVSPropertyOp21
 70
     1
102
RTVSPropertyOp22
 70
     1
102
RTVSPropertyOp23
 70
     1
102
RTVSPropertyOp24
 70
     1
102
RTVSPropertyOp25
 70
     1
102
RTVSPropertyOp26
 70
     1
102
RTVSPropertyOp27
 70
     1
  0
XRECORD
  5
48E3
102
{ACAD_REACTORS
330
48E2
102
}
330
48E2
100
AcDbXrecord
280
     1
102
RTVSPropertyOp0
 70
     1
102
RTVSPropertyOp1
 70
     1
102
RTVSPropertyOp2
 70
     1
102
RTVSPropertyOp3
 70
     1
102
RTVSPropertyOp4
 70
     1
102
RTVSPropertyOp5
 70
     1
102
RTVSPropertyOp6
 70
     1
102
RTVSPropertyOp7
 70
     1
102
RTVSPropertyOp8
 70
     1
102
RTVSPropertyOp9
 70
     1
102
RTVSPropertyOp10
 70
     1
102
RTVSPropertyOp11
 70
     1
102
RTVSPropertyOp12
 70
     1
102
RTVSPropertyOp13
 70
     1
102
RTVSPropertyOp14
 70
     1
102
RTVSPropertyOp15
 70
     1
102
RTVSPropertyOp16
 70
     1
102
RTVSPropertyOp17
 70
     1
102
RTVSPropertyOp18
 70
     1
102
RTVSPropertyOp19
 70
     1
102
RTVSPropertyOp20
 70
     1
102
RTVSPropertyOp21
 70
     1
102
RTVSPropertyOp22
 70
     1
102
RTVSPropertyOp23
 70
     1
102
RTVSPropertyOp24
 70
     1
102
RTVSPropertyOp25
 70
     1
102
RTVSPropertyOp26
 70
     1
102
RTVSPropertyOp27
 70
     1
  0
XRECORD
  5
48FD
102
{ACAD_REACTORS
330
48FC
102
}
330
48FC
100
AcDbXrecord
280
     1
102
RTVSPropertyOp0
 70
     0
102
RTVSPropertyOp1
 70
     0
102
RTVSPropertyOp2
 70
     0
102
RTVSPropertyOp3
 70
     0
102
RTVSPropertyOp4
 70
     0
102
RTVSPropertyOp5
 70
     0
102
RTVSPropertyOp6
 70
     0
102
RTVSPropertyOp7
 70
     0
102
RTVSPropertyOp8
 70
     0
102
RTVSPropertyOp9
 70
     0
102
RTVSPropertyOp10
 70
     0
102
RTVSPropertyOp11
 70
     0
102
RTVSPropertyOp12
 70
     0
102
RTVSPropertyOp13
 70
     0
102
RTVSPropertyOp14
 70
     2
102
RTVSPropertyOp15
 70
     0
102
RTVSPropertyOp16
 70
     0
102
RTVSPropertyOp17
 70
     0
102
RTVSPropertyOp18
 70
     0
102
RTVSPropertyOp19
 70
     0
102
RTVSPropertyOp20
 70
     0
102
RTVSPropertyOp21
 70
     0
102
RTVSPropertyOp22
 70
     0
102
RTVSPropertyOp23
 70
     0
102
RTVSPropertyOp24
 70
     0
102
RTVSPropertyOp25
 70
     0
102
RTVSPropertyOp26
 70
     0
102
RTVSPropertyOp27
 70
     0
  0
XRECORD
  5
48EB
102
{ACAD_REACTORS
330
48EA
102
}
330
48EA
100
AcDbXrecord
280
     1
102
RTVSPropertyOp0
 70
     1
102
RTVSPropertyOp1
 70
     1
102
RTVSPropertyOp2
 70
     1
102
RTVSPropertyOp3
 70
     1
102
RTVSPropertyOp4
 70
     1
102
RTVSPropertyOp5
 70
     1
102
RTVSPropertyOp6
 70
     1
102
RTVSPropertyOp7
 70
     1
102
RTVSPropertyOp8
 70
     1
102
RTVSPropertyOp9
 70
     1
102
RTVSPropertyOp10
 70
     1
102
RTVSPropertyOp11
 70
     1
102
RTVSPropertyOp12
 70
     1
102
RTVSPropertyOp13
 70
     1
102
RTVSPropertyOp14
 70
     1
102
RTVSPropertyOp15
 70
     1
102
RTVSPropertyOp16
 70
     1
102
RTVSPropertyOp17
 70
     1
102
RTVSPropertyOp18
 70
     1
102
RTVSPropertyOp19
 70
     1
102
RTVSPropertyOp20
 70
     1
102
RTVSPropertyOp21
 70
     1
102
RTVSPropertyOp22
 70
     1
102
RTVSPropertyOp23
 70
     1
102
RTVSPropertyOp24
 70
     1
102
RTVSPropertyOp25
 70
     1
102
RTVSPropertyOp26
 70
     1
102
RTVSPropertyOp27
 70
     1
  0
XRECORD
  5
48CF
102
{ACAD_REACTORS
330
48CE
102
}
330
48CE
100
AcDbXrecord
280
     1
102
RTVSPropertyOp0
 70
     1
102
RTVSPropertyOp1
 70
     1
102
RTVSPropertyOp2
 70
     1
102
RTVSPropertyOp3
 70
     1
102
RTVSPropertyOp4
 70
     1
102
RTVSPropertyOp5
 70
     1
102
RTVSPropertyOp6
 70
     1
102
RTVSPropertyOp7
 70
     1
102
RTVSPropertyOp8
 70
     1
102
RTVSPropertyOp9
 70
     1
102
RTVSPropertyOp10
 70
     1
102
RTVSPropertyOp11
 70
     1
102
RTVSPropertyOp12
 70
     1
102
RTVSPropertyOp13
 70
     1
102
RTVSPropertyOp14
 70
     1
102
RTVSPropertyOp15
 70
     1
102
RTVSPropertyOp16
 70
     1
102
RTVSPropertyOp17
 70
     1
102
RTVSPropertyOp18
 70
     1
102
RTVSPropertyOp19
 70
     1
102
RTVSPropertyOp20
 70
     1
102
RTVSPropertyOp21
 70
     1
102
RTVSPropertyOp22
 70
     1
102
RTVSPropertyOp23
 70
     1
102
RTVSPropertyOp24
 70
     1
102
RTVSPropertyOp25
 70
     1
102
RTVSPropertyOp26
 70
     1
102
RTVSPropertyOp27
 70
     1
  0
XRECORD
  5
48D1
102
{ACAD_REACTORS
330
48D0
102
}
330
48D0
100
AcDbXrecord
280
     1
102
RTVSPropertyOp0
 70
     1
102
RTVSPropertyOp1
 70
     1
102
RTVSPropertyOp2
 70
     1
102
RTVSPropertyOp3
 70
     1
102
RTVSPropertyOp4
 70
     1
102
RTVSPropertyOp5
 70
     1
102
RTVSPropertyOp6
 70
     1
102
RTVSPropertyOp7
 70
     1
102
RTVSPropertyOp8
 70
     1
102
RTVSPropertyOp9
 70
     1
102
RTVSPropertyOp10
 70
     1
102
RTVSPropertyOp11
 70
     1
102
RTVSPropertyOp12
 70
     1
102
RTVSPropertyOp13
 70
     1
102
RTVSPropertyOp14
 70
     1
102
RTVSPropertyOp15
 70
     1
102
RTVSPropertyOp16
 70
     1
102
RTVSPropertyOp17
 70
     1
102
RTVSPropertyOp18
 70
     1
102
RTVSPropertyOp19
 70
     1
102
RTVSPropertyOp20
 70
     1
102
RTVSPropertyOp21
 70
     1
102
RTVSPropertyOp22
 70
     1
102
RTVSPropertyOp23
 70
     1
102
RTVSPropertyOp24
 70
     1
102
RTVSPropertyOp25
 70
     1
102
RTVSPropertyOp26
 70
     1
102
RTVSPropertyOp27
 70
     1
  0
XRECORD
  5
48D3
102
{ACAD_REACTORS
330
48D2
102
}
330
48D2
100
AcDbXrecord
280
     1
102
RTVSPropertyOp0
 70
     1
102
RTVSPropertyOp1
 70
     1
102
RTVSPropertyOp2
 70
     1
102
RTVSPropertyOp3
 70
     1
102
RTVSPropertyOp4
 70
     1
102
RTVSPropertyOp5
 70
     1
102
RTVSPropertyOp6
 70
     1
102
RTVSPropertyOp7
 70
     1
102
RTVSPropertyOp8
 70
     1
102
RTVSPropertyOp9
 70
     1
102
RTVSPropertyOp10
 70
     1
102
RTVSPropertyOp11
 70
     1
102
RTVSPropertyOp12
 70
     1
102
RTVSPropertyOp13
 70
     1
102
RTVSPropertyOp14
 70
     1
102
RTVSPropertyOp15
 70
     1
102
RTVSPropertyOp16
 70
     1
102
RTVSPropertyOp17
 70
     1
102
RTVSPropertyOp18
 70
     1
102
RTVSPropertyOp19
 70
     1
102
RTVSPropertyOp20
 70
     1
102
RTVSPropertyOp21
 70
     1
102
RTVSPropertyOp22
 70
     1
102
RTVSPropertyOp23
 70
     1
102
RTVSPropertyOp24
 70
     1
102
RTVSPropertyOp25
 70
     1
102
RTVSPropertyOp26
 70
     1
102
RTVSPropertyOp27
 70
     1
  0
XRECORD
  5
48D5
102
{ACAD_REACTORS
330
48D4
102
}
330
48D4
100
AcDbXrecord
280
     1
102
RTVSPropertyOp0
 70
     1
102
RTVSPropertyOp1
 70
     1
102
RTVSPropertyOp2
 70
     1
102
RTVSPropertyOp3
 70
     1
102
RTVSPropertyOp4
 70
     1
102
RTVSPropertyOp5
 70
     1
102
RTVSPropertyOp6
 70
     1
102
RTVSPropertyOp7
 70
     1
102
RTVSPropertyOp8
 70
     1
102
RTVSPropertyOp9
 70
     1
102
RTVSPropertyOp10
 70
     1
102
RTVSPropertyOp11
 70
     1
102
RTVSPropertyOp12
 70
     1
102
RTVSPropertyOp13
 70
     1
102
RTVSPropertyOp14
 70
     1
102
RTVSPropertyOp15
 70
     1
102
RTVSPropertyOp16
 70
     1
102
RTVSPropertyOp17
 70
     1
102
RTVSPropertyOp18
 70
     1
102
RTVSPropertyOp19
 70
     1
102
RTVSPropertyOp20
 70
     1
102
RTVSPropertyOp21
 70
     1
102
RTVSPropertyOp22
 70
     1
102
RTVSPropertyOp23
 70
     1
102
RTVSPropertyOp24
 70
     1
102
RTVSPropertyOp25
 70
     1
102
RTVSPropertyOp26
 70
     1
102
RTVSPropertyOp27
 70
     1
  0
XRECORD
  5
48F9
102
{ACAD_REACTORS
330
48F8
102
}
330
48F8
100
AcDbXrecord
280
     1
102
RTVSPropertyOp0
 70
     0
102
RTVSPropertyOp1
 70
     0
102
RTVSPropertyOp2
 70
     0
102
RTVSPropertyOp3
 70
     0
102
RTVSPropertyOp4
 70
     0
102
RTVSPropertyOp5
 70
     0
102
RTVSPropertyOp6
 70
     0
102
RTVSPropertyOp7
 70
     0
102
RTVSPropertyOp8
 70
     0
102
RTVSPropertyOp9
 70
     0
102
RTVSPropertyOp10
 70
     0
102
RTVSPropertyOp11
 70
     0
102
RTVSPropertyOp12
 70
     0
102
RTVSPropertyOp13
 70
     0
102
RTVSPropertyOp14
 70
     2
102
RTVSPropertyOp15
 70
     0
102
RTVSPropertyOp16
 70
     0
102
RTVSPropertyOp17
 70
     0
102
RTVSPropertyOp18
 70
     0
102
RTVSPropertyOp19
 70
     0
102
RTVSPropertyOp20
 70
     0
102
RTVSPropertyOp21
 70
     0
102
RTVSPropertyOp22
 70
     0
102
RTVSPropertyOp23
 70
     0
102
RTVSPropertyOp24
 70
     0
102
RTVSPropertyOp25
 70
     0
102
RTVSPropertyOp26
 70
     0
102
RTVSPropertyOp27
 70
     0
  0
XRECORD
  5
48E9
102
{ACAD_REACTORS
330
48E8
102
}
330
48E8
100
AcDbXrecord
280
     1
102
RTVSPropertyOp0
 70
     1
102
RTVSPropertyOp1
 70
     1
102
RTVSPropertyOp2
 70
     1
102
RTVSPropertyOp3
 70
     1
102
RTVSPropertyOp4
 70
     1
102
RTVSPropertyOp5
 70
     1
102
RTVSPropertyOp6
 70
     1
102
RTVSPropertyOp7
 70
     1
102
RTVSPropertyOp8
 70
     1
102
RTVSPropertyOp9
 70
     1
102
RTVSPropertyOp10
 70
     1
102
RTVSPropertyOp11
 70
     1
102
RTVSPropertyOp12
 70
     1
102
RTVSPropertyOp13
 70
     1
102
RTVSPropertyOp14
 70
     1
102
RTVSPropertyOp15
 70
     1
102
RTVSPropertyOp16
 70
     1
102
RTVSPropertyOp17
 70
     1
102
RTVSPropertyOp18
 70
     1
102
RTVSPropertyOp19
 70
     1
102
RTVSPropertyOp20
 70
     1
102
RTVSPropertyOp21
 70
     1
102
RTVSPropertyOp22
 70
     1
102
RTVSPropertyOp23
 70
     1
102
RTVSPropertyOp24
 70
     1
102
RTVSPropertyOp25
 70
     1
102
RTVSPropertyOp26
 70
     1
102
RTVSPropertyOp27
 70
     1
  0
XRECORD
  5
48FB
102
{ACAD_REACTORS
330
48FA
102
}
330
48FA
100
AcDbXrecord
280
     1
102
RTVSPropertyOp0
 70
     0
102
RTVSPropertyOp1
 70
     0
102
RTVSPropertyOp2
 70
     0
102
RTVSPropertyOp3
 70
     0
102
RTVSPropertyOp4
 70
     0
102
RTVSPropertyOp5
 70
     0
102
RTVSPropertyOp6
 70
     0
102
RTVSPropertyOp7
 70
     0
102
RTVSPropertyOp8
 70
     0
102
RTVSPropertyOp9
 70
     0
102
RTVSPropertyOp10
 70
     0
102
RTVSPropertyOp11
 70
     0
102
RTVSPropertyOp12
 70
     0
102
RTVSPropertyOp13
 70
     0
102
RTVSPropertyOp14
 70
     2
102
RTVSPropertyOp15
 70
     0
102
RTVSPropertyOp16
 70
     0
102
RTVSPropertyOp17
 70
     0
102
RTVSPropertyOp18
 70
     0
102
RTVSPropertyOp19
 70
     0
102
RTVSPropertyOp20
 70
     0
102
RTVSPropertyOp21
 70
     0
102
RTVSPropertyOp22
 70
     0
102
RTVSPropertyOp23
 70
     0
102
RTVSPropertyOp24
 70
     0
102
RTVSPropertyOp25
 70
     0
102
RTVSPropertyOp26
 70
     0
102
RTVSPropertyOp27
 70
     0
  0
XRECORD
  5
48E1
102
{ACAD_REACTORS
330
48E0
102
}
330
48E0
100
AcDbXrecord
280
     1
102
RTVSPropertyOp0
 70
     1
102
RTVSPropertyOp1
 70
     1
102
RTVSPropertyOp2
 70
     1
102
RTVSPropertyOp3
 70
     1
102
RTVSPropertyOp4
 70
     1
102
RTVSPropertyOp5
 70
     1
102
RTVSPropertyOp6
 70
     1
102
RTVSPropertyOp7
 70
     1
102
RTVSPropertyOp8
 70
     1
102
RTVSPropertyOp9
 70
     1
102
RTVSPropertyOp10
 70
     1
102
RTVSPropertyOp11
 70
     1
102
RTVSPropertyOp12
 70
     1
102
RTVSPropertyOp13
 70
     1
102
RTVSPropertyOp14
 70
     1
102
RTVSPropertyOp15
 70
     1
102
RTVSPropertyOp16
 70
     1
102
RTVSPropertyOp17
 70
     1
102
RTVSPropertyOp18
 70
     1
102
RTVSPropertyOp19
 70
     1
102
RTVSPropertyOp20
 70
     1
102
RTVSPropertyOp21
 70
     1
102
RTVSPropertyOp22
 70
     1
102
RTVSPropertyOp23
 70
     1
102
RTVSPropertyOp24
 70
     1
102
RTVSPropertyOp25
 70
     1
102
RTVSPropertyOp26
 70
     1
102
RTVSPropertyOp27
 70
     1
  0
XRECORD
  5
48E7
102
{ACAD_REACTORS
330
48E6
102
}
330
48E6
100
AcDbXrecord
280
     1
102
RTVSPropertyOp0
 70
     1
102
RTVSPropertyOp1
 70
     1
102
RTVSPropertyOp2
 70
     1
102
RTVSPropertyOp3
 70
     1
102
RTVSPropertyOp4
 70
     1
102
RTVSPropertyOp5
 70
     1
102
RTVSPropertyOp6
 70
     1
102
RTVSPropertyOp7
 70
     1
102
RTVSPropertyOp8
 70
     1
102
RTVSPropertyOp9
 70
     1
102
RTVSPropertyOp10
 70
     1
102
RTVSPropertyOp11
 70
     1
102
RTVSPropertyOp12
 70
     1
102
RTVSPropertyOp13
 70
     1
102
RTVSPropertyOp14
 70
     1
102
RTVSPropertyOp15
 70
     1
102
RTVSPropertyOp16
 70
     1
102
RTVSPropertyOp17
 70
     1
102
RTVSPropertyOp18
 70
     1
102
RTVSPropertyOp19
 70
     1
102
RTVSPropertyOp20
 70
     1
102
RTVSPropertyOp21
 70
     1
102
RTVSPropertyOp22
 70
     1
102
RTVSPropertyOp23
 70
     1
102
RTVSPropertyOp24
 70
     1
102
RTVSPropertyOp25
 70
     1
102
RTVSPropertyOp26
 70
     1
102
RTVSPropertyOp27
 70
     1
  0
ENDSEC
  0
EOF
