  0
SECTION
  2
HEADER
  9
$ACADVER
  1
AC1015
  9
$ACADMAINTVER
 70
    20
  9
$DWGCODEPAGE
  3
ANSI_932
  9
$INSBASE
 10
0.0
 20
0.0
 30
0.0
  9
$EXTMIN
 10
-1304.99996110797
 20
-890.9999734461315
 30
0.0
  9
$EXTMAX
 10
1214.999963790179
 20
890.9999734461315
 30
0.0
  9
$LIMMIN
 10
-1304.99996110797
 20
-890.9999734461315
  9
$LIMMAX
 10
1214.999963790179
 20
890.9999734461315
  9
$ORTHOMODE
 70
     0
  9
$REGENMODE
 70
     1
  9
$FILLMODE
 70
     1
  9
$QTEXTMODE
 70
     0
  9
$MIRRTEXT
 70
     1
  9
$LTSCALE
 40
1.0
  9
$ATTMODE
 70
     1
  9
$TEXTSIZE
 40
25.00199815624958
  9
$TRACEWID
 40
0.05
  9
$TEXTSTYLE
  7
MX_NOTE_STANDARD
  9
$CLAYER
  8
DEFPOINTS
  9
$CELTYPE
  6
CONTINUOUS
  9
$CECOLOR
 62
   256
  9
$CELTSCALE
 40
1.0
  9
$DISPSILH
 70
     0
  9
$DIMSCALE
 40
5.999999821186071
  9
$DIMASZ
 40
2.5
  9
$DIMEXO
 40
1.269999980926513
  9
$DIMDLI
 40
3.75
  9
$DIMRND
 40
0.0
  9
$DIMDLE
 40
0.0
  9
$DIMEXE
 40
1.200000047683715
  9
$DIMTP
 40
0.0
  9
$DIMTM
 40
0.0
  9
$DIMTXT
 40
4.166999816894531
  9
$DIMCEN
 40
2.5
  9
$DIMTSZ
 40
0.0
  9
$DIMTOL
 70
     0
  9
$DIMLIM
 70
     0
  9
$DIMTIH
 70
     0
  9
$DIMTOH
 70
     0
  9
$DIMSE1
 70
     0
  9
$DIMSE2
 70
     0
  9
$DIMTAD
 70
     1
  9
$DIMZIN
 70
     8
  9
$DIMBLK
  1

  9
$DIMASO
 70
     1
  9
$DIMSHO
 70
     1
  9
$DIMPOST
  1

  9
$DIMAPOST
  1

  9
$DIMALT
 70
     0
  9
$DIMALTD
 70
     4
  9
$DIMALTF
 40
0.03937007874016
  9
$DIMLFAC
 40
1.0
  9
$DIMTOFL
 70
     1
  9
$DIMTVP
 40
0.0
  9
$DIMTIX
 70
     0
  9
$DIMSOXD
 70
     0
  9
$DIMSAH
 70
     0
  9
$DIMBLK1
  1

  9
$DIMBLK2
  1

  9
$DIMSTYLE
  2
MXDIMSTYLE
  9
$DIMCLRD
 70
     0
  9
$DIMCLRE
 70
     0
  9
$DIMCLRT
 70
     0
  9
$DIMTFAC
 40
1.0
  9
$DIMGAP
 40
1.0
  9
$DIMJUST
 70
     0
  9
$DIMSD1
 70
     0
  9
$DIMSD2
 70
     0
  9
$DIMTOLJ
 70
     1
  9
$DIMTZIN
 70
     0
  9
$DIMALTZ
 70
     0
  9
$DIMALTTZ
 70
     0
  9
$DIMUPT
 70
     1
  9
$DIMDEC
 70
     4
  9
$DIMTDEC
 70
     4
  9
$DIMALTU
 70
     2
  9
$DIMALTTD
 70
     4
  9
$DIMTXSTY
  7
MX_NOTE_STANDARD
  9
$DIMAUNIT
 70
     0
  9
$DIMADEC
 70
     0
  9
$DIMALTRND
 40
0.0
  9
$DIMAZIN
 70
     0
  9
$DIMDSEP
 70
     0
  9
$DIMATFIT
 70
     3
  9
$DIMFRAC
 70
     0
  9
$DIMLDRBLK
  1

  9
$DIMLUNIT
 70
     2
  9
$DIMLWD
 70
     0
  9
$DIMLWE
 70
     0
  9
$DIMTMOVE
 70
     0
  9
$LUNITS
 70
     2
  9
$LUPREC
 70
     2
  9
$SKETCHINC
 40
0.1
  9
$FILLETRAD
 40
0.0
  9
$AUNITS
 70
     0
  9
$AUPREC
 70
     0
  9
$MENU
  1
acad
  9
$ELEVATION
 40
0.0
  9
$PELEVATION
 40
0.0
  9
$THICKNESS
 40
0.0
  9
$LIMCHECK
 70
     0
  9
$CHAMFERA
 40
0.0
  9
$CHAMFERB
 40
0.0
  9
$CHAMFERC
 40
0.0
  9
$CHAMFERD
 40
0.0
  9
$SKPOLY
 70
     0
  9
$TDCREATE
 40
2455378.027349537
  9
$TDUCREATE
 40
2455377.652349537
  9
$TDUPDATE
 40
2457932.503425695
  9
$TDUUPDATE
 40
2457932.128425694
  9
$TDINDWG
 40
0.0001895486
  9
$TDUSRTIMER
 40
0.0001895486
  9
$USRTIMER
 70
     1
  9
$ANGBASE
 50
0.0
  9
$ANGDIR
 70
     0
  9
$PDMODE
 70
     0
  9
$PDSIZE
 40
0.0
  9
$PLINEWID
 40
0.0
  9
$SPLFRAME
 70
     0
  9
$SPLINETYPE
 70
     6
  9
$SPLINESEGS
 70
     8
  9
$HANDSEED
  5
4F1
  9
$SURFTAB1
 70
     6
  9
$SURFTAB2
 70
     6
  9
$SURFTYPE
 70
     6
  9
$SURFU
 70
     6
  9
$SURFV
 70
     6
  9
$UCSBASE
  2

  9
$UCSNAME
  2

  9
$UCSORG
 10
0.0
 20
0.0
 30
0.0
  9
$UCSXDIR
 10
1.0
 20
0.0
 30
0.0
  9
$UCSYDIR
 10
0.0
 20
1.0
 30
0.0
  9
$UCSORTHOREF
  2

  9
$UCSORTHOVIEW
 70
     0
  9
$UCSORGTOP
 10
0.0
 20
0.0
 30
0.0
  9
$UCSORGBOTTOM
 10
0.0
 20
0.0
 30
0.0
  9
$UCSORGLEFT
 10
0.0
 20
0.0
 30
0.0
  9
$UCSORGRIGHT
 10
0.0
 20
0.0
 30
0.0
  9
$UCSORGFRONT
 10
0.0
 20
0.0
 30
0.0
  9
$UCSORGBACK
 10
0.0
 20
0.0
 30
0.0
  9
$PUCSBASE
  2

  9
$PUCSNAME
  2

  9
$PUCSORG
 10
0.0
 20
0.0
 30
0.0
  9
$PUCSXDIR
 10
1.0
 20
0.0
 30
0.0
  9
$PUCSYDIR
 10
0.0
 20
1.0
 30
0.0
  9
$PUCSORTHOREF
  2

  9
$PUCSORTHOVIEW
 70
     0
  9
$PUCSORGTOP
 10
0.0
 20
0.0
 30
0.0
  9
$PUCSORGBOTTOM
 10
0.0
 20
0.0
 30
0.0
  9
$PUCSORGLEFT
 10
0.0
 20
0.0
 30
0.0
  9
$PUCSORGRIGHT
 10
0.0
 20
0.0
 30
0.0
  9
$PUCSORGFRONT
 10
0.0
 20
0.0
 30
0.0
  9
$PUCSORGBACK
 10
0.0
 20
0.0
 30
0.0
  9
$USERI1
 70
     0
  9
$USERI2
 70
     0
  9
$USERI3
 70
     0
  9
$USERI4
 70
     0
  9
$USERI5
 70
     0
  9
$USERR1
 40
0.0
  9
$USERR2
 40
0.0
  9
$USERR3
 40
0.0
  9
$USERR4
 40
0.0
  9
$USERR5
 40
0.0
  9
$WORLDVIEW
 70
     1
  9
$SHADEDGE
 70
     3
  9
$SHADEDIF
 70
    70
  9
$TILEMODE
 70
     1
  9
$MAXACTVP
 70
    16
  9
$PINSBASE
 10
0.0
 20
0.0
 30
0.0
  9
$PLIMCHECK
 70
     0
  9
$PEXTMIN
 10
1.000000000000000E+20
 20
1.000000000000000E+20
 30
1.000000000000000E+20
  9
$PEXTMAX
 10
-1.000000000000000E+20
 20
-1.000000000000000E+20
 30
-1.000000000000000E+20
  9
$PLIMMIN
 10
0.0
 20
0.0
  9
$PLIMMAX
 10
12.0
 20
9.0
  9
$UNITMODE
 70
     0
  9
$VISRETAIN
 70
     0
  9
$PLINEGEN
 70
     1
  9
$PSLTSCALE
 70
     0
  9
$TREEDEPTH
 70
  3020
  9
$CMLSTYLE
  2
Standard
  9
$CMLJUST
 70
     0
  9
$CMLSCALE
 40
1.0
  9
$PROXYGRAPHICS
 70
     1
  9
$MEASUREMENT
 70
     1
  9
$CELWEIGHT
370
     0
  9
$ENDCAPS
280
     0
  9
$JOINSTYLE
280
     0
  9
$LWDISPLAY
290
     0
  9
$INSUNITS
 70
     0
  9
$HYPERLINKBASE
  1

  9
$STYLESHEET
  1

  9
$XEDIT
290
     1
  9
$CEPSNTYPE
380
     0
  9
$PSTYLEMODE
290
     1
  9
$FINGERPRINTGUID
  2

  9
$VERSIONGUID
  2

  9
$EXTNAMES
290
     1
  9
$PSVPSCALE
 40
0.0
  9
$OLESTARTUP
290
     0
  0
ENDSEC
  0
SECTION
  2
CLASSES
  0
CLASS
  1
IMAGE
  2
AcDbRasterImage
  3
ISM
 90
    32895
280
     0
281
     1
  0
CLASS
  1
DICTIONARYVAR
  2
AcDbDictionaryVar
  3
ObjectDBX Classes
 90
        0
280
     0
281
     0
  0
CLASS
  1
RASTERVARIABLES
  2
AcDbRasterVariables
  3
ISM
 90
    32768
280
     0
281
     0
  0
CLASS
  1
IMAGEDEF
  2
AcDbRasterImageDef
  3
ISM
 90
    32768
280
     0
281
     0
  0
CLASS
  1
IMAGEDEF_REACTOR
  2
AcDbRasterImageDefReactor
  3
ISM
 90
    32769
280
     0
281
     0
  0
CLASS
  1
IDBUFFER
  2
AcDbIdBuffer
  3
ObjectDBX Classes
 90
    32768
280
     0
281
     0
  0
CLASS
  1
SPATIAL_FILTER
  2
AcDbSpatialFilter
  3
ObjectDBX Classes
 90
    32768
280
     0
281
     0
  0
CLASS
  1
SORTENTSTABLE
  2
AcDbSortentsTable
  3
ObjectDBX Classes
 90
    32768
280
     0
281
     0
  0
CLASS
  1
LAYER_INDEX
  2
AcDbLayerIndex
  3
ObjectDBX Classes
 90
    32768
280
     0
281
     0
  0
CLASS
  1
SPATIAL_INDEX
  2
AcDbSpatialIndex
  3
ObjectDBX Classes
 90
    32768
280
     0
281
     0
  0
CLASS
  1
OBJECT_PTR
  2
CAseDLPNTableRecord
  3
"ASE-LPNTableRecord"
 90
    32769
280
     0
281
     0
  0
CLASS
  1
LAYOUT
  2
AcDbLayout
  3
ObjectDBX Classes
 90
        0
280
     0
281
     0
  0
CLASS
  1
PLOTSETTINGS
  2
AcDbPlotSettings
  3
ObjectDBX Classes
 90
    32768
280
     0
281
     0
  0
CLASS
  1
ACDBDICTIONARYWDFLT
  2
AcDbDictionaryWithDefault
  3
ObjectDBX Classes
 90
        0
280
     0
281
     0
  0
CLASS
  1
ACDBPLACEHOLDER
  2
AcDbPlaceHolder
  3
ObjectDBX Classes
 90
        0
280
     0
281
     0
  0
CLASS
  1
MATERIAL
  2
AcDbMaterial
  3
ObjectDBX Classes
 90
     1153
280
     0
281
     0
  0
CLASS
  1
VISUALSTYLE
  2
AcDbVisualStyle
  3
ObjectDBX Classes
 90
     4095
280
     0
281
     0
  0
CLASS
  1
TABLESTYLE
  2
AcDbTableStyle
  3
ObjectDBX Classes
 90
     4095
280
     0
281
     0
  0
CLASS
  1
SCALE
  2
AcDbScale
  3
ObjectDBX Classes
 90
     1153
280
     0
281
     0
  0
CLASS
  1
MLEADERSTYLE
  2
AcDbMLeaderStyle
  3
ACDB_MLEADERSTYLE_CLASS
 90
     4095
280
     0
281
     0
  0
CLASS
  1
ACME_DOCUMENT
  2
AcMeDbDoc
  3
AcMeServices
 90
     1024
280
     0
281
     0
  0
CLASS
  1
ACMESCOPE
  2
AcMeScope
  3
AcMeServices
 90
     1024
280
     0
281
     0
  0
CLASS
  1
ACMECOMMANDHISTORY
  2
AcMeCommandHistory
  3
AcMeServices
 90
     1024
280
     0
281
     0
  0
CLASS
  1
ACIMSYSVARMAN
  2
AcImSysVarManager
  3
AcMeServices
 90
     1024
280
     0
281
     0
  0
CLASS
  1
ACIMINTSYSVAR
  2
AcImIntSysVar
  3
AcMeServices
 90
     1024
280
     0
281
     0
  0
CLASS
  1
ACMEDRAWINGMAN
  2
AcMeDrawingMan
  3
AcMeServices
 90
     1024
280
     0
281
     0
  0
CLASS
  1
ACMEVIEW
  2
AcMeView
  3
AcMeServices
 90
     1024
280
     0
281
     0
  0
CLASS
  1
ACDBENTITYCACHE
  2
AcMeEntityCache
  3
AcMeServices
 90
     1024
280
     0
281
     0
  0
CLASS
  1
ACMESTATEMGR
  2
AcMeStateMgr
  3
AcMeServices
 90
     1024
280
     0
281
     0
  0
CLASS
  1
ACGREFMASTER
  2
AcGrefMaster
  3
AcAttribServices
 90
     1024
280
     0
281
     0
  0
CLASS
  1
AM_DRAWING_MGR
  2
AcDmDwgMgr
  3
AcMechDwgViewMgmt
 90
     1024
280
     0
281
     0
  0
CLASS
  1
AM_DWG_DOCUMENT
  2
AcDmDwgDocument
  3
AcMechDwgViewMgmt
 90
     1024
280
     0
281
     0
  0
CLASS
  1
AM_DWG_SHEET
  2
AcDmSheet
  3
AcMechDwgViewMgmt
 90
     1024
280
     0
281
     0
  0
CLASS
  1
AM_VIEWDIMPARMAP
  2
AcDmViewDimParMap
  3
AcMechDwgViewMgmt
 90
     1024
280
     0
281
     0
  0
CLASS
  1
AMDTINTERNALREACTOR
  2
AmdtInternalReactor
  3
AcMeServices
 90
     1024
280
     0
281
     0
  0
CLASS
  1
ACIMREALSYSVAR
  2
AcImRealSysVar
  3
AcMeServices
 90
     1024
280
     0
281
     0
  0
CLASS
  1
AM_DWGMGR_NAME
  2
AcDmDwgMgrName
  3
AcMechDwgViewMgmt
 90
     1024
280
     0
281
     0
  0
CLASS
  1
ACME_DATABASE
  2
AcMeDbDatabase
  3
AcMeServices
 90
     1024
280
     0
281
     0
  0
CLASS
  1
ACRFINSADJUSTERMGR
  2
AcRfInsAdjusterMgr
  3
AcMeServices
 90
     1024
280
     0
281
     0
  0
CLASS
  1
ACGREFACADMASTER
  2
AcGrefacadMaster
  3
AcGrefServices
 90
     1024
280
     0
281
     0
  0
CLASS
  1
AMDTMENUSTATEMGR
  2
AmdtMenuStateMgr
  3
McadcomServices
 90
     1024
280
     0
281
     0
  0
CLASS
  1
AMDTMCOMMENUSTATE
  2
AmdtMcomMenuState
  3
McadcomServices
 90
     1024
280
     0
281
     0
  0
CLASS
  1
AMIMASTER
  2
AmiMaster
  3
AmiServices
 90
     1024
280
     0
281
     0
  0
CLASS
  1
AMGSETTINGSOBJ
  2
AmgSettingsObj
  3
"AcadM|Product Description: AutoCAD Mechanical|Company: Autodesk, Inc."
 90
     1024
280
     0
281
     0
  0
CLASS
  1
MAPIAMMOUDLE
  2
MApiAmModule
  3
MApiAmServices
 90
     1024
280
     0
281
     0
  0
CLASS
  1
ACIMSTRSYSVAR
  2
AcImStrSysVar
  3
AcMeServices
 90
     1024
280
     0
281
     0
  0
CLASS
  1
AMDTADMENUSTATE
  2
AmdtAdMenuState
  3
DesignerServices
 90
     1024
280
     0
281
     0
  0
CLASS
  1
ADAPPL
  2
AcAdAppl
  3
DesignerServices
 90
     1024
280
     0
281
     0
  0
CLASS
  1
DEPMGR
  2
AcAdDepMgr
  3
DesignerServices
 90
     1024
280
     0
281
     0
  0
CLASS
  1
PARAMMGR
  2
AcAdParamMgr
  3
DesignerServices
 90
     1024
280
     0
281
     0
  0
CLASS
  1
PARAMSCOPE
  2
AcAdParamScope
  3
DesignerServices
 90
     1024
280
     0
281
     0
  0
CLASS
  1
NAMEDAPPL
  2
AcAdNamedAppl
  3
DesignerServices
 90
     1024
280
     0
281
     0
  0
CLASS
  1
AMDTDMMENUSTATE
  2
AmdtDmMenuState
  3
AcMechDwgViewMgmt
 90
     1024
280
     0
281
     0
  0
CLASS
  1
AMDTAMMENUSTATE
  2
AmdtAmMenuState
  3
DesignerAssemblies
 90
     1024
280
     0
281
     0
  0
CLASS
  1
ACAMPROJECT
  2
AcAmProject
  3
DesignerAssemblies
 90
     1024
280
     0
281
     0
  0
CLASS
  1
ACAMGRCOMPDEF
  2
AcAmGrCompDef
  3
DesignerAssemblies
 90
     1024
280
     0
281
     0
  0
CLASS
  1
ACAMCOMPDEF
  2
AcAmCompDef
  3
DesignerAssemblies
 90
     1024
280
     0
281
     0
  0
CLASS
  1
ACAMCOMPDEFMGR
  2
AcAmCompDefMgr
  3
DesignerAssemblies
 90
     1024
280
     0
281
     0
  0
CLASS
  1
AMCONTEXTMGR
  2
AcAmContextMgr
  3
DesignerAssemblies
 90
     1024
280
     0
281
     0
  0
CLASS
  1
ACAMCONTEXTMODELER
  2
AcAmContextModeler
  3
DesignerAssemblies
 90
     1024
280
     0
281
     0
  0
CLASS
  1
ACMDATADICTIONARY
  2
AcmDataDictionary
  3
"AcmSymBB|Product Description: AutoCAD Mechanical|Company: Autodesk, Inc."
 90
     1024
280
     0
281
     0
  0
CLASS
  1
CATALOGSTATE
  2
AcAmCatalogState
  3
DesignerAssemblies
 90
     1024
280
     0
281
     0
  0
CLASS
  1
ACAMGRCOMPDEFSET
  2
AcAmGrCompDefSet
  3
DesignerAssemblies
 90
     1024
280
     0
281
     0
  0
CLASS
  1
AMDTBROWSERDBTAB
  2
AmdtBrowserDbTab
  3
McadcomServices
 90
     1024
280
     0
281
     0
  0
CLASS
  1
CBROWSERAPPOBJECT
  2
CBrowserAppObject
  3
McadcomServices
 90
     1024
280
     0
281
     0
  0
CLASS
  1
DM_PLACEHOLDER
  2
AcDmSelsetPlaceholder
  3
AcMechDwgViewMgmt
 90
     1024
280
     0
281
     0
  0
CLASS
  1
ACMSTANDARDISO
  2
AcmStandardISO
  3
"Amdt_StdImp|Product Description: AutoCAD Mechanical|Company: Autodesk, Inc."
 90
     1024
280
     0
281
     0
  0
CLASS
  1
AMDTEDGESTANDARDISO13715
  2
AmdtEdgeStdISO13715
  3
"Amdt_StdImp|Product Description: AutoCAD Mechanical|Company: Autodesk, Inc."
 90
     1024
280
     0
281
     0
  0
CLASS
  1
ACMSURFSTANDARDISO2002
  2
AcmSurfTextStdISO2002
  3
"Amdt_StdImp|Product Description: AutoCAD Mechanical|Company: Autodesk, Inc."
 90
     1024
280
     0
281
     0
  0
CLASS
  1
ACMFCFSTANDARDISO
  2
AcmFCFStdISO
  3
"Amdt_StdImp|Product Description: AutoCAD Mechanical|Company: Autodesk, Inc."
 90
     1024
280
     0
281
     0
  0
CLASS
  1
ACMWELDSTANDARDISO
  2
AcmWeldingStdISO
  3
"Amdt_StdImp|Product Description: AutoCAD Mechanical|Company: Autodesk, Inc."
 90
     1024
280
     0
281
     0
  0
CLASS
  1
ACMIDSTANDARDISO
  2
AcmIdStdISO
  3
"Amdt_StdImp|Product Description: AutoCAD Mechanical|Company: Autodesk, Inc."
 90
     1024
280
     0
281
     0
  0
CLASS
  1
ACMDATUMSTANDARDISO
  2
AcmDatumStdISO
  3
"Amdt_StdImp|Product Description: AutoCAD Mechanical|Company: Autodesk, Inc."
 90
     1024
280
     0
281
     0
  0
CLASS
  1
ACMBOMSTANDARDISO
  2
AcmBOMStdISO
  3
"Amdt_StdImp|Product Description: AutoCAD Mechanical|Company: Autodesk, Inc."
 90
     1024
280
     0
281
     0
  0
CLASS
  1
ACMDETAILSTANDARDISO
  2
AmdtDetailSymStdISO
  3
"Amdt_StdImp|Product Description: AutoCAD Mechanical|Company: Autodesk, Inc."
 90
     1024
280
     0
281
     0
  0
CLASS
  1
ACMSECTIONSTANDARDISO2001
  2
AmdtSectionSymStdISO2001
  3
"Amdt_StdImp|Product Description: AutoCAD Mechanical|Company: Autodesk, Inc."
 90
     1024
280
     0
281
     0
  0
CLASS
  1
ACMCENTERLINESTANDARDISO
  2
AmdtCenterLineStdISO
  3
"Amdt_StdImp|Product Description: AutoCAD Mechanical|Company: Autodesk, Inc."
 90
     1024
280
     0
281
     0
  0
CLASS
  1
ACMTHREADLINESTANDARDISO
  2
AmdtThreadLineStdISO
  3
"Amdt_StdImp|Product Description: AutoCAD Mechanical|Company: Autodesk, Inc."
 90
     1024
280
     0
281
     0
  0
CLASS
  1
ACMNOTESTANDARDISO
  2
AmdtNoteStdISO
  3
"Amdt_StdImp|Product Description: AutoCAD Mechanical|Company: Autodesk, Inc."
 90
     1024
280
     0
281
     0
  0
CLASS
  1
ACMTAPERSTANDARDISO
  2
AcmTaperStdISO
  3
"Amdt_StdImp|Product Description: AutoCAD Mechanical|Company: Autodesk, Inc."
 90
     1024
280
     0
281
     0
  0
CLASS
  1
ACMANOOTATIONVIEWSTANDARDISO
  2
AmdtAnViewStdISO
  3
"Amdt_StdImp|Product Description: AutoCAD Mechanical|Company: Autodesk, Inc."
 90
     1024
280
     0
281
     0
  0
CLASS
  1
ACAMGLAYSTD
  2
AcAmgLayStd
  3
"AmgLay|Product Description: AutoCAD Mechanical|Company: Autodesk, Inc."
 90
     1024
280
     0
281
     0
  0
CLASS
  1
ACAMGDIMSTD
  2
AcAmgDimStd
  3
"AmgDim|Product Description: AutoCAD Mechanical|Company: Autodesk, Inc."
 90
     1024
280
     0
281
     0
  0
CLASS
  1
AMGOBJPROPCFG
  2
AmgObjPropCfg
  3
"AmgLay|Product Description: AutoCAD Mechanical|Company: Autodesk, Inc."
 90
     1025
280
     0
281
     0
  0
CLASS
  1
ACAMGHOLECHARTSTDISO
  2
AcAmgHoleChartStdISO
  3
AmgDim|Product Description: AutoCAD Mechanical|Company: Autodesk, Inc.
 90
     1024
280
     0
281
     0
  0
CLASS
  1
ACAMGTITLESTD
  2
AcAmgTitleStd
  3
"AmgTitle|Product Description: AutoCAD Mechanical|Company: Autodesk, Inc."
 90
     4095
280
     0
281
     0
  0
CLASS
  1
AMDTNOTETEMPLATEDB
  2
AmdtNoteTemplateDB
  3
AcmSymBB|Product Description: AutoCAD Mechanical|Company: Autodesk, Inc.
 90
     1024
280
     0
281
     0
  0
CLASS
  1
ACAMGFILTERDAT
  2
AcAmgFilterDat
  3
"AcadM|Product Description: AutoCAD Mechanical|Company: Autodesk, Inc."
 90
     1024
280
     0
281
     0
  0
CLASS
  1
CELLSTYLEMAP
  2
AcDbCellStyleMap
  3
ObjectDBX Classes
 90
     1152
280
     0
281
     0
  0
ENDSEC
  0
SECTION
  2
TABLES
  0
TABLE
  2
VPORT
  5
7
330
0
100
AcDbSymbolTable
 70
     1
  0
VPORT
  5
15
330
7
100
AcDbSymbolTableRecord
100
AcDbViewportTableRecord
  2
*ACTIVE
 70
     0
 10
0.0
 20
0.0
 11
1.0
 21
1.0
 12
-22.29459885643087
 22
0.0
 13
0.0
 23
0.0
 14
1.0
 24
1.0
 15
0.0
 25
0.0
 16
0.0
 26
0.0
 36
1.0
 17
0.0
 27
0.0
 37
0.0
 40
1696.823460584939
 41
1.864057672502574
 42
50.0
 43
0.0
 44
0.0
 50
0.0
 51
0.0
 71
     0
 72
   100
 73
     1
 74
     1
 75
     0
 76
     0
 77
     0
 78
     0
281
     0
 65
     0
110
0.0
120
0.0
130
0.0
111
1.0
121
0.0
131
0.0
112
0.0
122
1.0
132
0.0
 79
     0
146
0.0
  0
ENDTAB
  0
TABLE
  2
LTYPE
  5
4
330
0
100
AcDbSymbolTable
 70
    16
  0
LTYPE
  5
11
330
4
100
AcDbSymbolTableRecord
100
AcDbLinetypeTableRecord
  2
BYBLOCK
 70
     0
  3

 72
    65
 73
     0
 40
0.0
  0
LTYPE
  5
12
330
4
100
AcDbSymbolTableRecord
100
AcDbLinetypeTableRecord
  2
BYLAYER
 70
     0
  3

 72
    65
 73
     0
 40
0.0
  0
LTYPE
  5
13
330
4
100
AcDbSymbolTableRecord
100
AcDbLinetypeTableRecord
  2
CONTINUOUS
 70
     0
  3
Solid line
 72
    65
 73
     0
 40
0.0
  0
LTYPE
  5
18B
330
4
100
AcDbSymbolTableRecord
100
AcDbLinetypeTableRecord
  2
CENTER
 70
     0
  3
Center ____ _ ____ _ ____ _ ____ _ ____ _ ____
 72
    65
 73
     4
 40
50.8
 49
31.75
 74
     0
 49
-6.349999999999999
 74
     0
 49
6.349999999999999
 74
     0
 49
-6.349999999999999
 74
     0
  0
LTYPE
  5
2B8
330
4
100
AcDbSymbolTableRecord
100
AcDbLinetypeTableRecord
  2
DASHED
 70
     0
  3
Dashed __ __ __ __ __ __ __ __ __ __ __ __ __ _
 72
    65
 73
     2
 40
19.05
 49
12.7
 74
     0
 49
-6.349999999999999
 74
     0
  0
LTYPE
  5
3B9
330
4
100
AcDbSymbolTableRecord
100
AcDbLinetypeTableRecord
  2
NON_PLOTING
 70
     0
  3
Solid line
 72
    65
 73
     0
 40
0.0
  0
LTYPE
  5
430
330
4
100
AcDbSymbolTableRecord
100
AcDbLinetypeTableRecord
  2
HIDDEN
 70
     0
  3
Hidden __ __ __ __ __ __ __ __ __ __ __ __ __ _
 72
    65
 73
     2
 40
9.524999999999998
 49
6.349999999999999
 74
     0
 49
-3.174999999999999
 74
     0
  0
LTYPE
  5
431
330
4
100
AcDbSymbolTableRecord
100
AcDbLinetypeTableRecord
  2
PHANTOM2
 70
     0
  3
Phantom (.5x) ___ _ _ ___ _ _ ___ _ _ ___ _ _
 72
    65
 73
     6
 40
31.75
 49
15.875
 74
     0
 49
-3.174999999999999
 74
     0
 49
3.174999999999999
 74
     0
 49
-3.174999999999999
 74
     0
 49
3.174999999999999
 74
     0
 49
-3.174999999999999
 74
     0
  0
LTYPE
  5
47B
330
4
100
AcDbSymbolTableRecord
100
AcDbLinetypeTableRecord
  2
AM_ISO02W050
 70
     0
  3
__ __ __ __ __ __ __ __ __ __ __ __ __ __ __
 72
    65
 73
     2
 40
7.5
 49
6.0
 74
     0
 49
-1.5
 74
     0
  0
LTYPE
  5
47C
330
4
100
AcDbSymbolTableRecord
100
AcDbLinetypeTableRecord
  2
AM_ISO08W050
 70
     0
  3
____ . ____ . ____ . ____ . ____ . ____ . ____
 72
    65
 73
     4
 40
18.0
 49
12.0
 74
     0
 49
-1.5
 74
     0
 49
3.0
 74
     0
 49
-1.5
 74
     0
  0
LTYPE
  5
47D
330
4
100
AcDbSymbolTableRecord
100
AcDbLinetypeTableRecord
  2
AM_ISO09W050
 70
     0
  3
_____ . . _____ . . _____ . . ____ .. ____
 72
    65
 73
     6
 40
22.5
 49
12.0
 74
     0
 49
-1.5
 74
     0
 49
3.0
 74
     0
 49
-1.5
 74
     0
 49
3.0
 74
     0
 49
-1.5
 74
     0
  0
LTYPE
  5
47E
330
4
100
AcDbSymbolTableRecord
100
AcDbLinetypeTableRecord
  2
Amconstr
 70
     0
  3
_______________________
 72
    65
 73
     2
 40
9999.0
 49
9999.0
 74
     0
 49
0.0
 74
     0
  0
LTYPE
  5
47F
330
4
100
AcDbSymbolTableRecord
100
AcDbLinetypeTableRecord
  2
AM_ISO08W050x2
 70
     0
  3
__ . __ . __ . __ . __ . __
 72
    65
 73
     4
 40
9.0
 49
6.0
 74
     0
 49
-0.75
 74
     0
 49
1.5
 74
     0
 49
-0.75
 74
     0
  0
LTYPE
  5
480
330
4
100
AcDbSymbolTableRecord
100
AcDbLinetypeTableRecord
  2
AM_ISO02W050x2
 70
     0
  3
 _ _ _ _ _ _ _ _ _ _ _ _
 72
    65
 73
     2
 40
3.75
 49
3.0
 74
     0
 49
-0.75
 74
     0
  0
LTYPE
  5
483
330
4
100
AcDbSymbolTableRecord
100
AcDbLinetypeTableRecord
  2
Amzigzag
 70
     0
  3
/\/-/\/-/\/-/\/-/\/-/\/
 72
    65
 73
     2
 40
11.0001
 49
0.0001
 74
     4
 75
   136
340
482
 46
0.04
 50
0.0
 44
0.0
 45
0.0
 49
-11.0
 74
     0
  0
LTYPE
  5
492
330
4
100
AcDbSymbolTableRecord
100
AcDbLinetypeTableRecord
  2
ACISOWELD
 70
     0
  3
_ _ _ _ _
 72
    65
 73
     2
 40
2.0
 49
2.0
 74
     0
 49
-1.0
 74
     0
  0
LTYPE
  5
493
330
4
100
AcDbSymbolTableRecord
100
AcDbLinetypeTableRecord
  2
ACISOTGB
 70
     0
  3
__ . . __ . .
 72
    65
 73
     6
 40
9.0
 49
4.0
 74
     0
 49
-1.0
 74
     0
 49
1.0
 74
     0
 49
-1.0
 74
     0
 49
1.0
 74
     0
 49
-1.0
 74
     0
  0
LTYPE
  5
494
330
4
100
AcDbSymbolTableRecord
100
AcDbLinetypeTableRecord
  2
ACISOTGL
 70
     0
  3
_ _ _ _ _
 72
    65
 73
     2
 40
3.0
 49
2.0
 74
     0
 49
-1.0
 74
     0
  0
ENDTAB
  0
TABLE
  2
LAYER
  5
2
330
0
100
AcDbSymbolTable
 70
     4
  0
LAYER
  5
14
102
{ACAD_XDICTIONARY
360
49B
102
}
330
2
100
AcDbSymbolTableRecord
100
AcDbLayerTableRecord
  2
0
 70
     0
 62
     7
  6
CONTINUOUS
370
    -3
390
1D
  0
LAYER
  5
23
330
2
100
AcDbSymbolTableRecord
100
AcDbLayerTableRecord
  2
DEFPOINTS
 70
     0
 62
     7
  6
CONTINUOUS
290
     0
370
    -3
390
1D
  0
LAYER
  5
24
102
{ACAD_XDICTIONARY
360
49D
102
}
330
2
100
AcDbSymbolTableRecord
100
AcDbLayerTableRecord
  2
PV
 70
     0
 62
     7
  6
CONTINUOUS
370
    -3
390
1D
  0
LAYER
  5
25
102
{ACAD_XDICTIONARY
360
49F
102
}
330
2
100
AcDbSymbolTableRecord
100
AcDbLayerTableRecord
  2
FV
 70
     0
 62
     7
  6
CONTINUOUS
370
    -3
390
1D
  0
ENDTAB
  0
TABLE
  2
STYLE
  5
3
330
0
100
AcDbSymbolTable
 70
     7
  0
STYLE
  5
17
330
3
100
AcDbSymbolTableRecord
100
AcDbTextStyleTableRecord
  2
MX_NOTE_STANDARD
 70
     0
 40
0.0
 41
1.0
 50
0.0
 71
     0
 42
25.00199815624958
  3
txt.shx
  4
extfont.shx
  0
STYLE
  5
96
330
3
100
AcDbSymbolTableRecord
100
AcDbTextStyleTableRecord
  2
MX_DIMTXSTY_2
 70
     0
 40
0.0
 41
1.25
 50
0.0
 71
     0
 42
25.00199815624958
  3
txt.shx
  4
extfont.shx
  0
STYLE
  5
BE
330
3
100
AcDbSymbolTableRecord
100
AcDbTextStyleTableRecord
  2
MX_DIMTXSTY_3
 70
     0
 40
0.0
 41
1.05
 50
0.0
 71
     0
 42
25.00199815624958
  3
txt.shx
  4
extfont.shx
  0
STYLE
  5
CC
330
3
100
AcDbSymbolTableRecord
100
AcDbTextStyleTableRecord
  2
MX_DIMTXSTY_4
 70
     0
 40
0.0
 41
1.1
 50
0.0
 71
     0
 42
25.00199815624958
  3
txt.shx
  4
extfont.shx
  0
STYLE
  5
482
330
3
100
AcDbSymbolTableRecord
100
AcDbTextStyleTableRecord
  2

 70
     1
 40
0.0
 41
1.0
 50
0.0
 71
     0
 42
25.00199815624958
  3
genltshp.shx
  4

  0
STYLE
  5
490
330
3
100
AcDbSymbolTableRecord
100
AcDbTextStyleTableRecord
  2
ACISOTS
 70
     0
 40
1.0
 41
1.0
 50
0.0
 71
     0
 42
25.00199815624958
  3
isocp.shx
  4
extfont.shx
  0
STYLE
  5
491
330
3
100
AcDbSymbolTableRecord
100
AcDbTextStyleTableRecord
  2
ACISOGDT
 70
     0
 40
0.0
 41
1.0
 50
0.0
 71
     0
 42
25.00199815624958
  3
amgdt.shx
  4

  0
ENDTAB
  0
TABLE
  2
VIEW
  5
5
330
0
100
AcDbSymbolTable
 70
     0
  0
ENDTAB
  0
TABLE
  2
UCS
  5
6
330
0
100
AcDbSymbolTable
 70
     0
  0
ENDTAB
  0
TABLE
  2
APPID
  5
8
330
0
100
AcDbSymbolTable
 70
    15
  0
APPID
  5
16
330
8
100
AcDbSymbolTableRecord
100
AcDbRegAppTableRecord
  2
ACAD
 70
     0
  0
APPID
  5
405
330
8
100
AcDbSymbolTableRecord
100
AcDbRegAppTableRecord
  2
MCAD_NO_VIS
 70
     0
  0
APPID
  5
406
330
8
100
AcDbSymbolTableRecord
100
AcDbRegAppTableRecord
  2
ACAD_TEMP_GRAPHIC
 70
     0
  0
APPID
  5
433
330
8
100
AcDbSymbolTableRecord
100
AcDbRegAppTableRecord
  2
AD_DRAW
 70
     0
  0
APPID
  5
436
330
8
100
AcDbSymbolTableRecord
100
AcDbRegAppTableRecord
  2
ACATTRIBSERVICES
 70
     0
  0
APPID
  5
45A
330
8
100
AcDbSymbolTableRecord
100
AcDbRegAppTableRecord
  2
DESIGNERASSEMBLIES
 70
     0
  0
APPID
  5
460
330
8
100
AcDbSymbolTableRecord
100
AcDbRegAppTableRecord
  2
ACADM_DIM_EDIT
 70
     0
  0
APPID
  5
461
330
8
100
AcDbSymbolTableRecord
100
AcDbRegAppTableRecord
  2
AMDT_DM_ADJ
 70
     0
  0
APPID
  5
478
330
8
100
AcDbSymbolTableRecord
100
AcDbRegAppTableRecord
  2
ACAD_DSTYLE_DIMJAG
 70
     0
  0
APPID
  5
479
330
8
100
AcDbSymbolTableRecord
100
AcDbRegAppTableRecord
  2
ACAD_DSTYLE_DIMBREAK
 70
     0
  0
APPID
  5
4EC
330
8
100
AcDbSymbolTableRecord
100
AcDbRegAppTableRecord
  2
ACAD_MLEADERVER
 70
     0
  0
APPID
  5
4ED
330
8
100
AcDbSymbolTableRecord
100
AcDbRegAppTableRecord
  2
ACAD_DSTYLE_DIMARC_LENGTH_SYMBOL
 70
     0
  0
APPID
  5
4EE
330
8
100
AcDbSymbolTableRecord
100
AcDbRegAppTableRecord
  2
ACAD_DSTYLE_DIM_LINETYPE
 70
     0
  0
APPID
  5
4EF
330
8
100
AcDbSymbolTableRecord
100
AcDbRegAppTableRecord
  2
ACAD_DSTYLE_DIM_EXT1_LINETYPE
 70
     0
  0
APPID
  5
4F0
330
8
100
AcDbSymbolTableRecord
100
AcDbRegAppTableRecord
  2
ACAD_DSTYLE_DIM_EXT2_LINETYPE
 70
     0
  0
ENDTAB
  0
TABLE
  2
DIMSTYLE
  5
9
330
0
100
AcDbSymbolTable
 70
     8
100
AcDbDimStyleTable
 71
     0
  0
DIMSTYLE
105
18
102
{ACAD_REACTORS
330
9C
330
AC
330
B6
330
C4
330
D2
330
DF
330
EC
330
F9
330
109
330
118
330
125
330
132
330
13F
330
14C
102
}
330
9
100
AcDbSymbolTableRecord
100
AcDbDimStyleTableRecord
  2
MXDIMSTYLE
 70
     0
 40
5.999999821186071
 41
2.5
 42
1.269999980926513
 43
3.75
 44
1.200000047683715
 73
     0
 74
     0
 77
     1
 78
     8
140
4.166999816894531
141
2.5
143
0.03937007874016
144
0.1666666716337204
147
1.0
171
     4
172
     1
274
     4
288
     1
340
17
  0
DIMSTYLE
105
477
102
{ACAD_REACTORS
330
466
102
}
330
9
100
AcDbSymbolTableRecord
100
AcDbDimStyleTableRecord
  2
AM_ISO
 70
     0
  4
"
 41
3.5
 42
1.0
 43
10.0
 44
1.0
 47
0.1
 48
0.1
 73
     0
 74
     0
 77
     1
 78
     8
 79
     2
140
3.5
141
0.0
143
0.0393701
146
0.71
147
1.5
172
     1
176
   256
177
   256
178
     2
271
     2
272
     3
274
     4
283
     0
284
     8
340
17
371
    -1
372
    -1
1001
ACAD_DSTYLE_DIMJAG
1070
   388
1040
1.5
1001
ACAD_DSTYLE_DIMBREAK
1070
   391
1040
3.75
1001
ACAD_DSTYLE_DIMARC_LENGTH_SYMBOL
1070
   379
1070
     1
1001
ACAD_DSTYLE_DIM_LINETYPE
1070
   380
1005
11
1001
ACAD_DSTYLE_DIM_EXT1_LINETYPE
1070
   381
1005
11
1001
ACAD_DSTYLE_DIM_EXT2_LINETYPE
1070
   382
1005
11
  0
DIMSTYLE
105
484
330
9
100
AcDbSymbolTableRecord
100
AcDbDimStyleTableRecord
  2
AM_ISO$3
 70
     0
  4
"
 41
3.5
 42
1.0
 43
10.0
 44
1.0
 47
0.1
 48
0.1
 73
     0
 77
     1
 78
     8
 79
     2
140
3.5
141
0.0
143
0.0393701
146
0.71
147
1.5
176
   256
177
   256
178
     2
271
     2
272
     3
274
     4
283
     0
284
     8
288
     1
289
     0
340
17
371
    -1
372
    -1
1001
ACAD_DSTYLE_DIMBREAK
1070
   391
1040
3.75
1001
ACAD_DSTYLE_DIMJAG
1070
   388
1040
1.5
1001
ACAD_DSTYLE_DIMARC_LENGTH_SYMBOL
1070
   379
1070
     1
1001
ACAD_DSTYLE_DIM_LINETYPE
1070
   380
1005
11
1001
ACAD_DSTYLE_DIM_EXT1_LINETYPE
1070
   381
1005
11
1001
ACAD_DSTYLE_DIM_EXT2_LINETYPE
1070
   382
1005
11
  0
DIMSTYLE
105
485
330
9
100
AcDbSymbolTableRecord
100
AcDbDimStyleTableRecord
  2
AM_ISO$4
 70
     0
  4
"
 41
3.5
 42
1.0
 43
10.0
 44
1.0
 47
0.1
 48
0.1
 73
     0
 77
     1
 78
     8
 79
     2
140
3.5
141
0.0
143
0.0393701
146
0.71
147
1.5
176
   256
177
   256
178
     2
271
     2
272
     3
274
     4
283
     0
284
     8
288
     1
289
     0
340
17
371
    -1
372
    -1
1001
ACAD_DSTYLE_DIMBREAK
1070
   391
1040
3.75
1001
ACAD_DSTYLE_DIMJAG
1070
   388
1040
1.5
1001
ACAD_DSTYLE_DIMARC_LENGTH_SYMBOL
1070
   379
1070
     1
1001
ACAD_DSTYLE_DIM_LINETYPE
1070
   380
1005
11
1001
ACAD_DSTYLE_DIM_EXT1_LINETYPE
1070
   381
1005
11
1001
ACAD_DSTYLE_DIM_EXT2_LINETYPE
1070
   382
1005
11
  0
DIMSTYLE
105
486
330
9
100
AcDbSymbolTableRecord
100
AcDbDimStyleTableRecord
  2
AM_ISO$6
 70
     0
  4
"
 41
3.5
 42
1.0
 43
10.0
 44
1.0
 47
0.1
 48
0.1
 73
     0
 74
     0
 78
     8
 79
     2
140
3.5
141
0.0
143
0.0393701
146
0.71
147
1.5
172
     1
176
   256
177
   256
178
     2
271
     2
272
     3
274
     4
283
     0
284
     8
340
17
371
    -1
372
    -1
1001
ACAD_DSTYLE_DIMBREAK
1070
   391
1040
3.75
1001
ACAD_DSTYLE_DIMJAG
1070
   388
1040
1.5
1001
ACAD_DSTYLE_DIMARC_LENGTH_SYMBOL
1070
   379
1070
     1
1001
ACAD_DSTYLE_DIM_LINETYPE
1070
   380
1005
11
1001
ACAD_DSTYLE_DIM_EXT1_LINETYPE
1070
   381
1005
11
1001
ACAD_DSTYLE_DIM_EXT2_LINETYPE
1070
   382
1005
11
  0
DIMSTYLE
105
487
330
9
100
AcDbSymbolTableRecord
100
AcDbDimStyleTableRecord
  2
AM_ISO$7
 70
     0
  4
"
 41
3.5
 42
1.0
 43
10.0
 44
1.0
 47
0.1
 48
0.1
 73
     0
 74
     0
 77
     1
 78
     8
 79
     2
140
3.5
141
0.0
143
0.0393701
146
0.71
147
1.5
172
     1
176
   256
177
   256
178
     2
271
     2
272
     3
274
     4
283
     0
284
     8
340
17
371
    -1
372
    -1
1001
ACAD_DSTYLE_DIMBREAK
1070
   391
1040
3.75
1001
ACAD_DSTYLE_DIMJAG
1070
   388
1040
1.5
1001
ACAD_DSTYLE_DIMARC_LENGTH_SYMBOL
1070
   379
1070
     1
1001
ACAD_DSTYLE_DIM_LINETYPE
1070
   380
1005
11
1001
ACAD_DSTYLE_DIM_EXT1_LINETYPE
1070
   381
1005
11
1001
ACAD_DSTYLE_DIM_EXT2_LINETYPE
1070
   382
1005
11
  0
DIMSTYLE
105
488
330
9
100
AcDbSymbolTableRecord
100
AcDbDimStyleTableRecord
  2
AM_ISO$SF
 70
     0
  4
"
 41
3.5
 42
1.0
 43
10.0
 44
1.0
 47
0.1
 48
0.1
 73
     0
 74
     0
 75
     1
 76
     1
 77
     1
 78
     8
 79
     2
140
3.5
141
0.0
143
0.0393701
146
0.71
147
1.5
172
     1
176
   256
177
   256
178
     2
271
     2
272
     3
274
     4
283
     0
284
     8
340
17
371
    -1
372
    -1
1001
ACAD_DSTYLE_DIMBREAK
1070
   391
1040
3.75
1001
ACAD_DSTYLE_DIMJAG
1070
   388
1040
1.5
1001
ACAD_DSTYLE_DIMARC_LENGTH_SYMBOL
1070
   379
1070
     1
1001
ACAD_DSTYLE_DIM_LINETYPE
1070
   380
1005
11
1001
ACAD_DSTYLE_DIM_EXT1_LINETYPE
1070
   381
1005
11
1001
ACAD_DSTYLE_DIM_EXT2_LINETYPE
1070
   382
1005
11
  0
DIMSTYLE
105
48D
330
9
100
AcDbSymbolTableRecord
100
AcDbDimStyleTableRecord
  2
AM_ISO$SH
 70
     0
  4
"
 41
3.5
 42
1.0
 43
10.0
 44
1.0
 47
0.1
 48
0.1
 73
     0
 74
     0
 75
     1
 76
     1
 77
     1
 78
     8
 79
     2
140
3.5
141
0.0
143
0.0393701
144
2.0
146
0.71
147
1.5
172
     1
173
     1
176
   256
177
   256
178
     2
271
     2
272
     3
274
     4
283
     0
284
     8
340
17
343
489
371
    -1
372
    -1
1001
ACAD_DSTYLE_DIMBREAK
1070
   391
1040
3.75
1001
ACAD_DSTYLE_DIMJAG
1070
   388
1040
1.5
1001
ACAD_DSTYLE_DIMARC_LENGTH_SYMBOL
1070
   379
1070
     1
1001
ACAD_DSTYLE_DIM_LINETYPE
1070
   380
1005
11
1001
ACAD_DSTYLE_DIM_EXT1_LINETYPE
1070
   381
1005
11
1001
ACAD_DSTYLE_DIM_EXT2_LINETYPE
1070
   382
1005
11
  0
ENDTAB
  0
TABLE
  2
BLOCK_RECORD
  5
1
330
0
100
AcDbSymbolTable
 70
    19
  0
BLOCK_RECORD
  5
A
330
1
100
AcDbSymbolTableRecord
100
AcDbBlockTableRecord
  2
*MODEL_SPACE
340
20
  0
BLOCK_RECORD
  5
B
330
1
100
AcDbSymbolTableRecord
100
AcDbBlockTableRecord
  2
*PAPER_SPACE
340
21
  0
BLOCK_RECORD
  5
26
330
1
100
AcDbSymbolTableRecord
100
AcDbBlockTableRecord
  2
MS_1
340
0
102
{BLKREFS
331
328
102
}
  0
BLOCK_RECORD
  5
89
330
1
100
AcDbSymbolTableRecord
100
AcDbBlockTableRecord
  2
*D1
340
0
  0
BLOCK_RECORD
  5
8E
330
1
100
AcDbSymbolTableRecord
100
AcDbBlockTableRecord
  2
_OPEN30
340
0
102
{BLKREFS
331
94
331
95
331
A5
331
A6
331
B0
331
B1
331
BC
331
BD
331
CA
331
CB
331
D8
331
D9
331
E5
331
E6
331
F2
331
F3
331
102
331
103
331
111
331
112
331
11E
331
11F
331
12B
331
12C
331
138
331
139
331
145
331
146
102
}
  0
BLOCK_RECORD
  5
9D
330
1
100
AcDbSymbolTableRecord
100
AcDbBlockTableRecord
  2
*D3
340
0
  0
BLOCK_RECORD
  5
AD
330
1
100
AcDbSymbolTableRecord
100
AcDbBlockTableRecord
  2
*D4
340
0
  0
BLOCK_RECORD
  5
B7
330
1
100
AcDbSymbolTableRecord
100
AcDbBlockTableRecord
  2
*D5
340
0
  0
BLOCK_RECORD
  5
C5
330
1
100
AcDbSymbolTableRecord
100
AcDbBlockTableRecord
  2
*D6
340
0
  0
BLOCK_RECORD
  5
D3
330
1
100
AcDbSymbolTableRecord
100
AcDbBlockTableRecord
  2
*D7
340
0
  0
BLOCK_RECORD
  5
E0
330
1
100
AcDbSymbolTableRecord
100
AcDbBlockTableRecord
  2
*D8
340
0
  0
BLOCK_RECORD
  5
ED
330
1
100
AcDbSymbolTableRecord
100
AcDbBlockTableRecord
  2
*D9
340
0
  0
BLOCK_RECORD
  5
FA
330
1
100
AcDbSymbolTableRecord
100
AcDbBlockTableRecord
  2
*D10
340
0
  0
BLOCK_RECORD
  5
10A
330
1
100
AcDbSymbolTableRecord
100
AcDbBlockTableRecord
  2
*D11
340
0
  0
BLOCK_RECORD
  5
119
330
1
100
AcDbSymbolTableRecord
100
AcDbBlockTableRecord
  2
*D12
340
0
  0
BLOCK_RECORD
  5
126
330
1
100
AcDbSymbolTableRecord
100
AcDbBlockTableRecord
  2
*D13
340
0
  0
BLOCK_RECORD
  5
133
330
1
100
AcDbSymbolTableRecord
100
AcDbBlockTableRecord
  2
*D14
340
0
  0
BLOCK_RECORD
  5
140
330
1
100
AcDbSymbolTableRecord
100
AcDbBlockTableRecord
  2
*D15
340
0
  0
BLOCK_RECORD
  5
329
330
1
100
AcDbSymbolTableRecord
100
AcDbBlockTableRecord
  2
*X16
340
0
102
{BLKREFS
331
354
102
}
  0
BLOCK_RECORD
  5
489
330
1
100
AcDbSymbolTableRecord
100
AcDbBlockTableRecord
  2
GENAXEH
340
0
  0
ENDTAB
  0
ENDSEC
  0
SECTION
  2
BLOCKS
  0
BLOCK
  5
D
330
A
100
AcDbEntity
  8
0
100
AcDbBlockBegin
  2
*MODEL_SPACE
 70
     0
 10
0.0
 20
0.0
 30
0.0
  3
*MODEL_SPACE
  1

  0
ENDBLK
  5
E
330
A
100
AcDbEntity
  8
0
100
AcDbBlockEnd
  0
BLOCK
  5
F
330
B
100
AcDbEntity
 67
     1
  8
0
100
AcDbBlockBegin
  2
*PAPER_SPACE
 70
     0
 10
0.0
 20
0.0
 30
0.0
  3
*PAPER_SPACE
  1

  0
ENDBLK
  5
10
330
B
100
AcDbEntity
 67
     1
  8
0
100
AcDbBlockEnd
  0
BLOCK
  5
27
330
26
100
AcDbEntity
  8
0
370
    -2
100
AcDbBlockBegin
  2
MS_1
 70
     0
 10
0.0
 20
0.0
 30
0.0
  3
MS_1
  1

  0
ELLIPSE
  5
28
330
26
100
AcDbEntity
  8
0
  6
Continuous
 62
     7
100
AcDbEllipse
 10
13.88765144348144
 20
-0.0160179436206818
 30
0.0
 11
1.688363075256347
 21
-0.0000001192092898
 31
0.0
210
0.0
220
0.0
230
0.9999999999999998
 40
0.9291879639195471
 41
0.2651412738457682
 42
6.006474423724084
  0
ELLIPSE
  5
29
330
26
100
AcDbEntity
  8
0
  6
Continuous
 62
     7
100
AcDbEllipse
 10
13.11491346359253
 20
-0.0160178802907467
 30
0.0
 11
3.015141010284423
 21
-0.0000001825392261
 31
0.0
210
0.0
220
0.0
230
0.9999999999999996
 40
0.799806870214157
 41
0.7911690653191047
 42
6.104511488825125
  0
ARC
  5
2A
330
26
100
AcDbEntity
  8
0
  6
Continuous
 62
     7
100
AcDbCircle
 10
15.41536426544189
 20
1.927800178527832
 30
0.0
 40
0.2915999293327331
100
AcDbArc
 50
231.6715098735924
 51
330.0000128255523
  0
ARC
  5
2B
330
26
100
AcDbEntity
  8
0
  6
Continuous
 62
     7
100
AcDbCircle
 10
5.660588264465332
 20
1.256252288818359
 30
0.0
 40
0.1749599575996399
100
AcDbArc
 50
24.9969145885484
 51
155.0011438164944
  0
ARC
  5
2C
330
26
100
AcDbEntity
  8
0
  6
Continuous
 62
     7
100
AcDbCircle
 10
6.376239776611328
 20
-0.2784740328788757
 30
0.0
 40
0.1749599575996399
100
AcDbArc
 50
270.000127269116
 51
24.99996426801281
  0
ARC
  5
2D
330
26
100
AcDbEntity
  8
0
  6
Continuous
 62
     7
100
AcDbCircle
 10
4.944927215576171
 20
-0.2784740328788757
 30
0.0
 40
0.1749599575996399
100
AcDbArc
 50
154.9993952880669
 51
270.0014213625927
  0
ARC
  5
2E
330
26
100
AcDbEntity
  8
0
  6
Continuous
 62
     7
100
AcDbCircle
 10
4.663116455078125
 20
-1.526512145996093
 30
0.0
 40
0.3499199151992798
100
AcDbArc
 50
89.99867061759001
 51
235.0010731873461
  0
ARC
  5
2F
330
26
100
AcDbEntity
  8
0
  6
Continuous
 62
     7
100
AcDbCircle
 10
6.725593566894531
 20
-1.588626861572265
 30
0.0
 40
0.412037193775177
100
AcDbArc
 50
314.9998382383154
 51
359.9999826971572
  0
ARC
  5
30
330
26
100
AcDbEntity
  8
0
  6
Continuous
 62
     7
100
AcDbCircle
 10
6.725593566894531
 20
-1.588626861572265
 30
0.0
 40
0.412037193775177
100
AcDbArc
 50
0.0
 51
89.99998201391065
  0
ARC
  5
31
330
26
100
AcDbEntity
  8
0
  6
Continuous
 62
     7
100
AcDbCircle
 10
9.706324577331542
 20
-1.348008155822753
 30
0.0
 40
0.2915999293327331
100
AcDbArc
 50
205.0009325610132
 51
236.0005930525732
  0
ARC
  5
32
330
26
100
AcDbEntity
  8
0
  6
Continuous
 62
     7
100
AcDbCircle
 10
3.028962135314941
 20
-1.434097290039062
 30
0.0
 40
0.2915999293327331
100
AcDbArc
 50
303.9994463347001
 51
334.9993902791106
  0
ARC
  5
33
330
26
100
AcDbEntity
  8
0
  6
Continuous
 62
     7
100
AcDbCircle
 10
3.32199478149414
 20
1.344635963439941
 30
0.0
 40
0.2915999293327331
100
AcDbArc
 50
123.9996255134803
 51
154.9999417032005
  0
ARC
  5
34
330
26
100
AcDbEntity
  8
0
  6
Continuous
 62
     7
100
AcDbCircle
 10
2.038494110107421
 20
1.393499374389648
 30
0.0
 40
0.2915999293327331
100
AcDbArc
 50
334.9988882602066
 51
55.99856608025141
  0
ARC
  5
35
330
26
100
AcDbEntity
  8
0
  6
Continuous
 62
     7
100
AcDbCircle
 10
-0.3615722060203552
 20
1.613658905029296
 30
0.0
 40
0.2915999293327331
100
AcDbArc
 50
124.0006090607208
 51
205.0002595600088
  0
ARC
  5
36
330
26
100
AcDbEntity
  8
0
  6
Continuous
 62
     7
100
AcDbCircle
 10
-3.196181297302246
 20
1.344635963439941
 30
0.0
 40
0.2915999293327331
100
AcDbArc
 50
24.99991645668862
 51
55.99987747657205
  0
ARC
  5
37
330
26
100
AcDbEntity
  8
0
  6
Continuous
 62
     7
100
AcDbCircle
 10
0.8897945284843444
 20
-1.345890045166015
 30
0.0
 40
0.1749599575996399
100
AcDbArc
 50
205.0003861458796
 51
335.0002986942702
  0
ARC
  5
38
330
26
100
AcDbEntity
  8
0
  6
Continuous
 62
     7
100
AcDbCircle
 10
-3.499093055725097
 20
-1.188255310058593
 30
0.0
 40
0.2915999293327331
100
AcDbArc
 50
270.0001819106294
 51
315.0003163515573
  0
ARC
  5
39
330
26
100
AcDbEntity
  8
0
  6
Continuous
 62
     7
100
AcDbCircle
 10
-5.769119262695312
 20
1.298173904418945
 30
0.0
 40
0.2915999293327331
100
AcDbArc
 50
133.0006673677765
 51
180.0005650844682
  0
ARC
  5
3A
330
26
100
AcDbEntity
  8
0
  6
Continuous
 62
     7
100
AcDbCircle
 10
-8.451834678649902
 20
-1.330237388610839
 30
0.0
 40
0.2915999293327331
100
AcDbArc
 50
312.9995866040259
 51
359.999929587228
  0
ARC
  5
3B
330
26
100
AcDbEntity
  8
0
  6
Continuous
 62
     7
100
AcDbCircle
 10
-8.451834678649902
 20
1.298173904418945
 30
0.0
 40
0.2915999293327331
100
AcDbArc
 50
359.9986770302106
 51
46.99901320719422
  0
ARC
  5
3C
330
26
100
AcDbEntity
  8
0
  6
Continuous
 62
     7
100
AcDbCircle
 10
-13.72395610809326
 20
-0.3850881457328796
 30
0.0
 40
1.749599456787109
100
AcDbArc
 50
180.0001452552054
 51
235.1504803877167
  0
ARC
  5
3D
330
26
100
AcDbEntity
  8
0
  6
Continuous
 62
     7
100
AcDbCircle
 10
-11.81398010253906
 20
-0.3535323739051819
 30
0.0
 40
1.749599456787109
100
AcDbArc
 50
306.7425459280256
 51
359.9999624930069
  0
ARC
  5
3E
330
26
100
AcDbEntity
  8
0
  6
Continuous
 62
     7
100
AcDbCircle
 10
-11.60986709594726
 20
-0.8664843440055847
 30
0.0
 40
0.5831999182701111
100
AcDbArc
 50
319.8303563401181
 51
359.9992788485525
  0
ARC
  5
3F
330
26
100
AcDbEntity
  8
0
  6
Continuous
 62
     7
100
AcDbCircle
 10
-12.79084777832031
 20
-0.866466462612152
 30
0.0
 40
0.5831999182701111
100
AcDbArc
 50
180.0000359721787
 51
220.16766814135
  0
ARC
  5
40
330
26
100
AcDbEntity
  8
0
  6
Continuous
 62
     7
100
AcDbCircle
 10
-12.20034885406494
 20
-0.3680287599563599
 30
0.0
 40
1.355938911437988
100
AcDbArc
 50
220.16766814135
 51
319.8309061703463
  0
ARC
  5
41
330
26
100
AcDbEntity
  8
0
  6
Continuous
 62
     7
100
AcDbCircle
 10
-12.79084777832031
 20
0.9550097584724426
 30
0.0
 40
3.382558822631835
100
AcDbArc
 50
235.1504257462033
 51
306.7425698336877
  0
ARC
  5
42
330
26
100
AcDbEntity
  8
0
  6
Continuous
 62
     7
100
AcDbCircle
 10
-9.772781372070312
 20
1.457438468933105
 30
0.0
 40
0.2915999293327331
100
AcDbArc
 50
124.0007183437475
 51
180.0013847071687
  0
ARC
  5
43
330
26
100
AcDbEntity
  8
0
  6
Continuous
 62
     7
100
AcDbCircle
 10
-11.31826686859131
 20
1.457429885864257
 30
0.0
 40
0.2915999293327331
100
AcDbArc
 50
359.9996313399246
 51
55.99980917468035
  0
ARC
  5
44
330
26
100
AcDbEntity
  8
0
  6
Continuous
 62
     7
100
AcDbCircle
 10
-13.082444190979
 20
1.427920341491699
 30
0.0
 40
0.2915999293327331
100
AcDbArc
 50
124.0011554758543
 51
180.0016579147355
  0
ARC
  5
45
330
26
100
AcDbEntity
  8
0
  6
Continuous
 62
     7
100
AcDbCircle
 10
-15.76515865325928
 20
1.427920341491699
 30
0.0
 40
0.2915999293327331
100
AcDbArc
 50
359.9993128519744
 51
55.99964183504568
  0
LINE
  5
46
330
26
100
AcDbEntity
  8
0
  6
Continuous
 62
     7
100
AcDbLine
 10
15.91095299155154
 20
2.203026444126066
 30
0.0
 11
15.66787800518454
 21
1.782000749431404
 31
0.0
  0
LINE
  5
47
330
26
100
AcDbEntity
  8
0
  6
Continuous
 62
     7
100
AcDbLine
 10
15.91095638275146
 20
2.203025817871093
 30
0.0
 11
16.08590698242187
 21
2.203025817871093
 31
0.0
  0
LINE
  5
48
330
26
100
AcDbEntity
  8
0
  6
Continuous
 62
     7
100
AcDbLine
 10
16.08590698242187
 20
2.203025817871093
 30
0.0
 11
16.08590698242187
 21
0.3951122164726257
 31
0.0
  0
LINE
  5
49
330
26
100
AcDbEntity
  8
0
  6
Continuous
 62
     7
100
AcDbLine
 10
15.51700305938721
 20
0.395121157169342
 30
0.0
 11
16.08378601074219
 21
0.395121157169342
 31
0.0
  0
LINE
  5
4A
330
26
100
AcDbEntity
  8
0
  6
Continuous
 62
     7
100
AcDbLine
 10
15.5052433013916
 20
-0.4446792602539063
 30
0.0
 11
16.08226013183594
 21
-0.4446792602539063
 31
0.0
  0
LINE
  5
4B
330
26
100
AcDbEntity
  8
0
  6
Continuous
 62
     7
100
AcDbLine
 10
4.769335810521056
 20
-2.028068048539296
 30
0.0
 11
4.462407658139113
 21
-1.813154723325624
 31
0.0
  0
LINE
  5
4C
330
26
100
AcDbEntity
  8
0
  6
Continuous
 62
     7
100
AcDbLine
 10
4.786353029670351
 20
-0.2045305541776656
 30
0.0
 11
5.502008218370519
 21
1.330197620244746
 31
0.0
  0
LINE
  5
4D
330
26
100
AcDbEntity
  8
0
  6
Continuous
 62
     7
100
AcDbLine
 10
6.868854585773135
 20
-2.028064260904329
 30
0.0
 11
7.016941487748056
 21
-1.87997819527419
 31
0.0
  0
LINE
  5
4E
330
26
100
AcDbEntity
  8
0
  6
Continuous
 62
     7
100
AcDbLine
 10
10.1930884949262
 20
-2.028065114513765
 30
0.0
 11
9.543269786605719
 21
-1.589756900558199
 31
0.0
  0
LINE
  5
4F
330
26
100
AcDbEntity
  8
0
  6
Continuous
 62
     7
100
AcDbLine
 10
2.669809025537517
 20
-2.028064321691431
 30
0.0
 11
3.192014703603831
 21
-1.675840001068195
 31
0.0
  0
LINE
  5
50
330
26
100
AcDbEntity
  8
0
  6
Continuous
 62
     7
100
AcDbLine
 10
1.666702460879797
 20
1.996014965814431
 30
0.0
 11
2.201558844887134
 21
1.635249837724881
 31
0.0
  0
LINE
  5
51
330
26
100
AcDbEntity
  8
0
  6
Continuous
 62
     7
100
AcDbLine
 10
3.766214234061223
 20
1.996016372405236
 30
0.0
 11
3.158927453370139
 21
1.586387991972813
 31
0.0
  0
LINE
  5
52
330
26
100
AcDbEntity
  8
0
  6
Continuous
 62
     7
100
AcDbLine
 10
-0.316183360254179
 20
1.99601225712718
 30
0.0
 11
-0.5246362356426744
 21
1.855405149121111
 31
0.0
  0
LINE
  5
53
330
26
100
AcDbEntity
  8
0
  6
Continuous
 62
     7
100
AcDbLine
 10
-3.640430755126633
 20
1.996018286959984
 30
0.0
 11
-3.033118654140398
 21
1.586381402116305
 31
0.0
  0
LINE
  5
54
330
26
100
AcDbEntity
  8
0
  6
Continuous
 62
     7
100
AcDbLine
 10
4.944927215576171
 20
-0.4534268975257874
 30
0.0
 11
6.376239776611328
 21
-0.4534268975257874
 31
0.0
  0
LINE
  5
55
330
26
100
AcDbEntity
  8
0
  6
Continuous
 62
     7
100
AcDbLine
 10
4.663116455078125
 20
-1.176588058471679
 30
0.0
 11
6.725593566894531
 21
-1.176588058471679
 31
0.0
  0
LINE
  5
56
330
26
100
AcDbEntity
  8
0
  6
Continuous
 62
     7
100
AcDbLine
 10
6.868857383728027
 20
-2.028063774108886
 30
0.0
 11
6.868857383728027
 21
-2.203017234802246
 31
0.0
  0
LINE
  5
57
330
26
100
AcDbEntity
  8
0
  6
Continuous
 62
     7
100
AcDbLine
 10
10.19308757781982
 20
-2.028063774108886
 30
0.0
 11
10.19308757781982
 21
-2.203017234802246
 31
0.0
  0
LINE
  5
58
330
26
100
AcDbEntity
  8
0
  6
Continuous
 62
     7
100
AcDbLine
 10
6.868857383728027
 20
-2.203017234802246
 30
0.0
 11
10.19308757781982
 21
-2.203017234802246
 31
0.0
  0
LINE
  5
59
330
26
100
AcDbEntity
  8
0
  6
Continuous
 62
     7
100
AcDbLine
 10
4.769333839416503
 20
-2.028063774108886
 30
0.0
 11
4.769333839416503
 21
-2.203017234802246
 31
0.0
  0
LINE
  5
5A
330
26
100
AcDbEntity
  8
0
  6
Continuous
 62
     7
100
AcDbLine
 10
2.66981029510498
 20
-2.028063774108886
 30
0.0
 11
2.66981029510498
 21
-2.203017234802246
 31
0.0
  0
LINE
  5
5B
330
26
100
AcDbEntity
  8
0
  6
Continuous
 62
     7
100
AcDbLine
 10
5.819153250643012
 20
1.330187368560018
 30
0.0
 11
6.534805316648544
 21
-0.2045328250937928
 31
0.0
  0
LINE
  5
5C
330
26
100
AcDbEntity
  8
0
  6
Continuous
 62
     7
100
AcDbLine
 10
7.74364845837681
 20
2.170978610602105
 30
0.0
 11
9.442048205501123
 21
-1.47124994238311
 31
0.0
  0
LINE
  5
5D
330
26
100
AcDbEntity
  8
0
  6
Continuous
 62
     7
100
AcDbLine
 10
5.031767652018402
 20
2.170981208404668
 30
0.0
 11
3.293234817664369
 21
-1.557329607313472
 31
0.0
  0
LINE
  5
5E
330
26
100
AcDbEntity
  8
0
  6
Continuous
 62
     7
100
AcDbLine
 10
2.66981029510498
 20
-2.203017234802246
 30
0.0
 11
4.769333839416503
 21
-2.203017234802246
 31
0.0
  0
LINE
  5
5F
330
26
100
AcDbEntity
  8
0
  6
Continuous
 62
     7
100
AcDbLine
 10
5.031771659851074
 20
2.17098045349121
 30
0.0
 11
7.743658065795898
 21
2.17098045349121
 31
0.0
  0
LINE
  5
60
330
26
100
AcDbEntity
  8
0
  6
Continuous
 62
     7
100
AcDbLine
 10
1.666696548461914
 20
2.17098045349121
 30
0.0
 11
3.766211509704589
 21
2.17098045349121
 31
0.0
  0
LINE
  5
61
330
26
100
AcDbEntity
  8
0
  6
Continuous
 62
     7
100
AcDbLine
 10
1.048352377392326
 20
-1.419827943414279
 30
0.0
 11
2.302766129001895
 21
1.270267143691626
 31
0.0
  0
LINE
  5
62
330
26
100
AcDbEntity
  8
0
  6
Continuous
 62
     7
100
AcDbLine
 10
1.34593931479776
 20
-2.203016781251562
 30
0.0
 11
3.05770653603156
 21
1.467874570347078
 31
0.0
  0
LINE
  5
63
330
26
100
AcDbEntity
  8
0
  6
Continuous
 62
     7
100
AcDbLine
 10
0.7312247333698352
 20
-1.419837237695666
 30
0.0
 11
-0.6258496826600535
 21
1.490418496482739
 31
0.0
  0
LINE
  5
64
330
26
100
AcDbEntity
  8
0
  6
Continuous
 62
     7
100
AcDbLine
 10
-1.220137154431597
 20
-2.203020743637864
 30
0.0
 11
-2.931900993750957
 21
1.467868980679725
 31
0.0
  0
LINE
  5
65
330
26
100
AcDbEntity
  8
0
  6
Continuous
 62
     7
100
AcDbLine
 10
1.666696548461914
 20
2.17098045349121
 30
0.0
 11
1.666696548461914
 21
1.99601936340332
 31
0.0
  0
LINE
  5
66
330
26
100
AcDbEntity
  8
0
  6
Continuous
 62
     7
100
AcDbLine
 10
3.766211509704589
 20
2.17098045349121
 30
0.0
 11
3.766211509704589
 21
1.99601936340332
 31
0.0
  0
LINE
  5
67
330
26
100
AcDbEntity
  8
0
  6
Continuous
 62
     7
100
AcDbLine
 10
-0.3161876797676086
 20
2.17098045349121
 30
0.0
 11
-0.3161876797676086
 21
1.99601936340332
 31
0.0
  0
LINE
  5
68
330
26
100
AcDbEntity
  8
0
  6
Continuous
 62
     7
100
AcDbLine
 10
-3.640434265136718
 20
2.17098045349121
 30
0.0
 11
-3.640434265136718
 21
1.99601936340332
 31
0.0
  0
LINE
  5
69
330
26
100
AcDbEntity
  8
0
  6
Continuous
 62
     7
100
AcDbLine
 10
-1.220130920410156
 20
-2.203017234802246
 30
0.0
 11
1.34594440460205
 21
-2.203017234802246
 31
0.0
  0
LINE
  5
6A
330
26
100
AcDbEntity
  8
0
  6
Continuous
 62
     7
100
AcDbLine
 10
-3.640434265136718
 20
2.17098045349121
 30
0.0
 11
-0.3161876797676086
 21
2.17098045349121
 31
0.0
  0
LINE
  5
6B
330
26
100
AcDbEntity
  8
0
  6
Continuous
 62
     7
100
AcDbLine
 10
-2.734547621994465
 20
-0.8360917403699659
 30
0.0
 11
-3.292898177013967
 21
-1.394446484228922
 31
0.0
  0
LINE
  5
6C
330
26
100
AcDbEntity
  8
0
  6
Continuous
 62
     7
100
AcDbLine
 10
-2.734549522399902
 20
-0.8360894918441772
 30
0.0
 11
-2.559597015380859
 21
-0.8360894918441772
 31
0.0
  0
LINE
  5
6D
330
26
100
AcDbEntity
  8
0
  6
Continuous
 62
     7
100
AcDbLine
 10
-2.800630599907208
 20
-2.203016759422325
 30
0.0
 11
-2.559604441927604
 21
-0.8360890619187557
 31
0.0
  0
LINE
  5
6E
330
26
100
AcDbEntity
  8
0
  6
Continuous
 62
     7
100
AcDbLine
 10
-6.060719490051269
 20
-1.479854583740234
 30
0.0
 11
-3.499093055725097
 21
-1.479854583740234
 31
0.0
  0
LINE
  5
6F
330
26
100
AcDbEntity
  8
0
  6
Continuous
 62
     7
100
AcDbLine
 10
-8.772604942321777
 20
-2.02807331085205
 30
0.0
 11
-8.772604942321777
 21
-2.203017234802246
 31
0.0
  0
LINE
  5
70
330
26
100
AcDbEntity
  8
0
  6
Continuous
 62
     7
100
AcDbLine
 10
-8.772597861236079
 20
-2.028063652604544
 30
0.0
 11
-8.25296186146528
 21
-1.543501462522669
 31
0.0
  0
LINE
  5
71
330
26
100
AcDbEntity
  8
0
  6
Continuous
 62
     7
100
AcDbLine
 10
-5.44835551145411
 20
1.996011198417591
 30
0.0
 11
-5.967990972767211
 21
1.511438653587447
 31
0.0
  0
LINE
  5
72
330
26
100
AcDbEntity
  8
0
  6
Continuous
 62
     7
100
AcDbLine
 10
-8.772599279721987
 20
1.996015901901103
 30
0.0
 11
-8.252954536914046
 21
1.511437938962501
 31
0.0
  0
LINE
  5
73
330
26
100
AcDbEntity
  8
0
  6
Continuous
 62
     7
100
AcDbLine
 10
-6.060719490051269
 20
1.298173904418945
 30
0.0
 11
-6.060719490051269
 21
-1.479854583740234
 31
0.0
  0
LINE
  5
74
330
26
100
AcDbEntity
  8
0
  6
Continuous
 62
     7
100
AcDbLine
 10
-8.160234451293945
 20
1.298173904418945
 30
0.0
 11
-8.160234451293945
 21
-1.330237388610839
 31
0.0
  0
LINE
  5
75
330
26
100
AcDbEntity
  8
0
  6
Continuous
 62
     7
100
AcDbLine
 10
-5.448357582092285
 20
2.17098045349121
 30
0.0
 11
-5.448357582092285
 21
1.996001243591308
 31
0.0
  0
LINE
  5
76
330
26
100
AcDbEntity
  8
0
  6
Continuous
 62
     7
100
AcDbLine
 10
-8.772604942321777
 20
2.17098045349121
 30
0.0
 11
-5.448357582092285
 21
2.17098045349121
 31
0.0
  0
LINE
  5
77
330
26
100
AcDbEntity
  8
0
  6
Continuous
 62
     7
100
AcDbLine
 10
-8.772604942321777
 20
2.17098045349121
 30
0.0
 11
-8.772604942321777
 21
1.996010780334472
 31
0.0
  0
LINE
  5
78
330
26
100
AcDbEntity
  8
0
  6
Continuous
 62
     7
100
AcDbLine
 10
-11.59529113769531
 20
2.17098045349121
 30
0.0
 11
-9.49577522277832
 21
2.17098045349121
 31
0.0
  0
LINE
  5
79
330
26
100
AcDbEntity
  8
0
  6
Continuous
 62
     7
100
AcDbLine
 10
-9.495770445682353
 20
1.996022860396806
 30
0.0
 11
-9.935840858268136
 21
1.699191645651239
 31
0.0
  0
LINE
  5
7A
330
26
100
AcDbEntity
  8
0
  6
Continuous
 62
     7
100
AcDbLine
 10
-11.59528471490597
 20
1.996017233212967
 30
0.0
 11
-11.15519997602627
 21
1.699176514207408
 31
0.0
  0
LINE
  5
7B
330
26
100
AcDbEntity
  8
0
  6
Continuous
 62
     7
100
AcDbLine
 10
-10.06438159942627
 20
1.457438468933105
 30
0.0
 11
-10.06438159942627
 21
-0.3535324335098267
 31
0.0
  0
LINE
  5
7C
330
26
100
AcDbEntity
  8
0
  6
Continuous
 62
     7
100
AcDbLine
 10
-11.02666664123535
 20
1.457429885864257
 30
0.0
 11
-11.02666664123535
 21
-0.8664843440055847
 31
0.0
  0
LINE
  5
7D
330
26
100
AcDbEntity
  8
0
  6
Continuous
 62
     7
100
AcDbLine
 10
-12.76167269498671
 20
1.996031521753025
 30
0.0
 11
-13.2455055590508
 21
1.669679172509631
 31
0.0
  0
LINE
  5
7E
330
26
100
AcDbEntity
  8
0
  6
Continuous
 62
     7
100
AcDbLine
 10
-16.08591717207486
 20
1.996009155072101
 30
0.0
 11
-15.60208831185804
 21
1.669662799920956
 31
0.0
  0
LINE
  5
7F
330
26
100
AcDbEntity
  8
0
  6
Continuous
 62
     7
100
AcDbLine
 10
-13.37405014038086
 20
1.427920341491699
 30
0.0
 11
-13.37405014038086
 21
-0.866466462612152
 31
0.0
  0
LINE
  5
80
330
26
100
AcDbEntity
  8
0
  6
Continuous
 62
     7
100
AcDbLine
 10
-15.4735631942749
 20
1.427920341491699
 30
0.0
 11
-15.4735631942749
 21
-0.3850880265235901
 31
0.0
  0
LINE
  5
81
330
26
100
AcDbEntity
  8
0
  6
Continuous
 62
     7
100
AcDbLine
 10
-11.59529113769531
 20
2.17098045349121
 30
0.0
 11
-11.59529113769531
 21
1.996010780334472
 31
0.0
  0
LINE
  5
82
330
26
100
AcDbEntity
  8
0
  6
Continuous
 62
     7
100
AcDbLine
 10
-12.76168155670166
 20
2.17098045349121
 30
0.0
 11
-12.76168155670166
 21
1.99601936340332
 31
0.0
  0
LINE
  5
83
330
26
100
AcDbEntity
  8
0
  6
Continuous
 62
     7
100
AcDbLine
 10
-9.49577522277832
 20
2.17098045349121
 30
0.0
 11
-9.49577522277832
 21
1.99601936340332
 31
0.0
  0
LINE
  5
84
330
26
100
AcDbEntity
  8
0
  6
Continuous
 62
     7
100
AcDbLine
 10
-16.08592224121094
 20
2.17098045349121
 30
0.0
 11
-16.08592224121094
 21
1.99601936340332
 31
0.0
  0
LINE
  5
85
330
26
100
AcDbEntity
  8
0
  6
Continuous
 62
     7
100
AcDbLine
 10
-8.772604942321777
 20
-2.203017234802246
 30
0.0
 11
-2.800623893737792
 21
-2.203017234802246
 31
0.0
  0
LINE
  5
86
330
26
100
AcDbEntity
  8
0
  6
Continuous
 62
     7
100
AcDbLine
 10
-16.08592224121094
 20
2.17098045349121
 30
0.0
 11
-12.76168155670166
 21
2.17098045349121
 31
0.0
  0
POINT
  5
87
330
26
100
AcDbEntity
  8
0
  6
Continuous
 62
     7
100
AcDbPoint
 10
0.0
 20
0.0
 30
0.0
  0
ENDBLK
  5
88
330
26
100
AcDbEntity
  8
0
370
    -2
100
AcDbBlockEnd
  0
BLOCK
  5
8A
330
89
100
AcDbEntity
  8
0
  6
ByBlock
 62
     0
370
    -2
100
AcDbBlockBegin
  2
*D1
 70
     1
 10
0.0
 20
0.0
 30
0.0
  3
*D1
  1

  0
LINE
  5
8B
330
89
100
AcDbEntity
  8
0
  6
Continuous
 62
     7
100
AcDbLine
 10
-39.36985470742421
 20
382.1183052623777
 30
0.0
 11
-234.3699576148403
 21
382.1183052623777
 31
0.0
  0
LINE
  5
8C
330
89
100
AcDbEntity
  8
0
  6
Continuous
 62
     7
100
AcDbLine
 10
-39.36985470742421
 20
454.9510949105529
 30
0.0
 11
-39.36985470742421
 21
374.925007136911
 31
0.0
  0
LINE
  5
8D
330
89
100
AcDbEntity
  8
0
  6
Continuous
 62
     7
100
AcDbLine
 10
-234.3699576148403
 20
375.9278099984435
 30
0.0
 11
-234.3699576148403
 21
374.925007136911
 31
0.0
  0
INSERT
  5
94
330
89
100
AcDbEntity
  8
0
  6
Continuous
 62
     7
100
AcDbBlockReference
  2
_OPEN30
 10
-39.36985470742421
 20
382.1183052623777
 30
0.0
 41
16.61999950468542
 42
16.61999950468542
 43
16.61999950468542
  0
INSERT
  5
95
330
89
100
AcDbEntity
  8
0
  6
Continuous
 62
     7
100
AcDbBlockReference
  2
_OPEN30
 10
-234.3699576148403
 20
382.1183052623777
 30
0.0
 41
16.61999950468542
 42
16.61999950468542
 43
16.61999950468542
 50
180.0
  0
MTEXT
  5
97
330
89
100
AcDbEntity
  8
0
  6
Continuous
 62
     7
100
AcDbMText
 10
-136.8698699662132
 20
400.6198448950098
 30
0.0
 40
25.00307962289215
 41
0.0
 71
     5
 72
     1
  1
\A1;(195)
  7
MX_DIMTXSTY_2
 73
     1
 44
0.9000000901137656
1001
ACAD
1000
MTEXTBEGIN
1070
    73
1070
     1
1070
    44
1040
0.9000000901137656
1070
    74
1070
     0
1000
MTEXTEND
  0
POINT
  5
98
330
89
100
AcDbEntity
  8
DEFPOINTS
  6
Continuous
 62
     0
100
AcDbPoint
 10
-39.36985470742421
 20
462.5710945690183
 30
0.0
  0
POINT
  5
99
330
89
100
AcDbEntity
  8
DEFPOINTS
  6
Continuous
 62
     0
100
AcDbPoint
 10
-234.3699576148403
 20
383.547809656909
 30
0.0
  0
POINT
  5
9A
330
89
100
AcDbEntity
  8
DEFPOINTS
  6
Continuous
 62
     0
100
AcDbPoint
 10
-234.3699576148403
 20
382.1183052623777
 30
0.0
  0
ENDBLK
  5
9B
330
89
100
AcDbEntity
  8
0
  6
ByBlock
 62
     0
370
    -2
100
AcDbBlockEnd
  0
BLOCK
  5
8F
330
8E
100
AcDbEntity
  8
0
  6
ByBlock
 62
     0
370
    -2
100
AcDbBlockBegin
  2
_OPEN30
 70
     2
 10
0.0
 20
0.0
 30
0.0
  3
_OPEN30
  1

  0
LINE
  5
90
330
8E
100
AcDbEntity
  8
0
  6
ByBlock
 62
     0
370
    -2
100
AcDbLine
 10
-1.0
 20
0.267949
 30
0.0
 11
0.0
 21
0.0
 31
0.0
  0
LINE
  5
91
330
8E
100
AcDbEntity
  8
0
  6
ByBlock
 62
     0
370
    -2
100
AcDbLine
 10
0.0
 20
0.0
 30
0.0
 11
-1.0
 21
-0.267949
 31
0.0
  0
LINE
  5
92
330
8E
100
AcDbEntity
  8
0
  6
ByBlock
 62
     0
370
    -2
100
AcDbLine
 10
0.0
 20
0.0
 30
0.0
 11
-1.0
 21
0.0
 31
0.0
  0
ENDBLK
  5
93
330
8E
100
AcDbEntity
  8
0
  6
ByBlock
 62
     0
370
    -2
100
AcDbBlockEnd
  0
BLOCK
  5
9E
330
9D
100
AcDbEntity
  8
0
  6
ByBlock
 62
     0
370
    -2
100
AcDbBlockBegin
  2
*D3
 70
     1
 10
0.0
 20
0.0
 30
0.0
  3
*D3
  1

  0
LINE
  5
9F
330
9D
100
AcDbEntity
  8
0
  6
Continuous
 62
     7
100
AcDbLine
 10
-434.3697380313355
 20
-32.6666097442326
 30
0.0
 11
-405.8697388807017
 21
-32.6666097442326
 31
0.0
  0
LINE
  5
A0
330
9D
100
AcDbEntity
  8
0
  6
Continuous
 62
     7
100
AcDbLine
 10
-559.3557556755573
 20
-32.6666097442326
 30
0.0
 11
-434.3697380313355
 21
-32.6666097442326
 31
0.0
  0
LINE
  5
A1
330
9D
100
AcDbEntity
  8
0
  6
Continuous
 62
     7
100
AcDbLine
 10
-434.3697380313355
 20
-168.1140081570563
 30
0.0
 11
-434.3697380313355
 21
-25.47331161876584
 31
0.0
  0
LINE
  5
A2
330
9D
100
AcDbEntity
  8
0
  6
Continuous
 62
     7
100
AcDbLine
 10
-405.8697388807017
 20
-194.1139776394781
 30
0.0
 11
-405.8697388807017
 21
-25.47331161876584
 31
0.0
  0
LINE
  5
A3
330
9D
100
AcDbEntity
  8
0
  6
Continuous
 62
     7
100
AcDbLine
 10
-434.3697380313355
 20
-32.6666097442326
 30
0.0
 11
-472.4697363236625
 21
-32.6666097442326
 31
0.0
  0
LINE
  5
A4
330
9D
100
AcDbEntity
  8
0
  6
Continuous
 62
     7
100
AcDbLine
 10
-405.8697388807017
 20
-32.6666097442326
 30
0.0
 11
-367.7697405883747
 21
-32.66660974423261
 31
0.0
  0
INSERT
  5
A5
330
9D
100
AcDbEntity
  8
0
  6
Continuous
 62
     7
100
AcDbBlockReference
  2
_OPEN30
 10
-434.3697380313355
 20
-32.6666097442326
 30
0.0
 41
16.61999950468542
 42
16.61999950468542
 43
16.61999950468542
  0
INSERT
  5
A6
330
9D
100
AcDbEntity
  8
0
  6
Continuous
 62
     7
100
AcDbBlockReference
  2
_OPEN30
 10
-405.8697388807017
 20
-32.6666097442326
 30
0.0
 41
16.61999950468542
 42
16.61999950468542
 43
16.61999950468542
 50
180.0
  0
MTEXT
  5
A7
330
9D
100
AcDbEntity
  8
0
  6
Continuous
 62
     7
100
AcDbMText
 10
-509.349596429773
 20
-14.16507011160045
 30
0.0
 40
25.00307962289215
 41
0.0
 71
     5
 72
     1
  1
\A1;(29)
  7
MX_DIMTXSTY_2
 73
     1
 44
0.9000000901137656
1001
ACAD
1000
MTEXTBEGIN
1070
    73
1070
     1
1070
    44
1040
0.9000000901137656
1070
    74
1070
     0
1000
MTEXTEND
  0
POINT
  5
A8
330
9D
100
AcDbEntity
  8
DEFPOINTS
  6
Continuous
 62
     0
100
AcDbPoint
 10
-434.3697380313355
 20
-175.7340078155216
 30
0.0
  0
POINT
  5
A9
330
9D
100
AcDbEntity
  8
DEFPOINTS
  6
Continuous
 62
     0
100
AcDbPoint
 10
-405.8697388807017
 20
-201.7339772979435
 30
0.0
  0
POINT
  5
AA
330
9D
100
AcDbEntity
  8
DEFPOINTS
  6
Continuous
 62
     0
100
AcDbPoint
 10
-405.8697388807017
 20
-32.6666097442326
 30
0.0
  0
ENDBLK
  5
AB
330
9D
100
AcDbEntity
  8
0
  6
ByBlock
 62
     0
370
    -2
100
AcDbBlockEnd
  0
BLOCK
  5
AE
330
AD
100
AcDbEntity
  8
0
  6
ByBlock
 62
     0
370
    -2
100
AcDbBlockBegin
  2
*D4
 70
     1
 10
0.0
 20
0.0
 30
0.0
  3
*D4
  1

  0
LINE
  5
AF
330
AD
100
AcDbEntity
  8
0
  6
Continuous
 62
     7
100
AcDbLine
 10
-651.3599654292034
 20
-143.1683765762287
 30
0.0
 11
-982.4664826848422
 21
-308.2994721875229
 31
0.0
  0
INSERT
  5
B0
330
AD
100
AcDbEntity
  8
0
  6
Continuous
 62
     7
100
AcDbBlockReference
  2
_OPEN30
 10
-651.3599654292034
 20
-143.1683765762287
 30
0.0
 41
16.61999950468542
 42
16.61999950468542
 43
16.61999950468542
 50
26.50657937596005
  0
INSERT
  5
B1
330
AD
100
AcDbEntity
  8
0
  6
Continuous
 62
     7
100
AcDbBlockReference
  2
_OPEN30
 10
-982.4664826848422
 20
-308.2994721875228
 30
0.0
 41
16.61999950468542
 42
16.61999950468542
 43
16.61999950468542
 50
206.50657937596
  0
MTEXT
  5
B2
102
{ACAD_XDICTIONARY
360
4B8
102
}
330
AD
100
AcDbEntity
  8
0
  6
Continuous
 62
     7
100
AcDbMText
 10
-922.110344100939
 20
-257.5235460387006
 30
0.0
 40
25.00307962289215
 41
0.0
 71
     5
 72
     1
  1
\A1;\U+2205370
 11
0.8948831180155945
 21
0.4463005770673926
 31
0.0
 73
     1
 44
0.9000000901137656
1001
ACAD
1000
MTEXTBEGIN
1070
    73
1070
     1
1070
    44
1040
0.9000000901137656
1070
    74
1070
     0
1000
MTEXTEND
  0
POINT
  5
B3
330
AD
100
AcDbEntity
  8
DEFPOINTS
  6
Continuous
 62
     0
100
AcDbPoint
 10
-982.4664826848422
 20
-308.2994721875228
 30
0.0
  0
POINT
  5
B4
330
AD
100
AcDbEntity
  8
DEFPOINTS
  6
Continuous
 62
     0
100
AcDbPoint
 10
-651.3599654292034
 20
-143.1683765762287
 30
0.0
  0
ENDBLK
  5
B5
330
AD
100
AcDbEntity
  8
0
  6
ByBlock
 62
     0
370
    -2
100
AcDbBlockEnd
  0
BLOCK
  5
B8
330
B7
100
AcDbEntity
  8
0
  6
ByBlock
 62
     0
370
    -2
100
AcDbBlockBegin
  2
*D5
 70
     1
 10
0.0
 20
0.0
 30
0.0
  3
*D5
  1

  0
LINE
  5
B9
330
B7
100
AcDbEntity
  8
0
  6
Continuous
 62
     7
100
AcDbLine
 10
323.7011622279536
 20
24.26586841744568
 30
0.0
 11
323.7011622279536
 21
-415.7329893191757
 31
0.0
  0
LINE
  5
BA
330
B7
100
AcDbEntity
  8
0
  6
Continuous
 62
     7
100
AcDbLine
 10
23.25008644696588
 20
24.26586841744568
 30
0.0
 11
330.8943688006887
 21
24.26586841744568
 31
0.0
  0
LINE
  5
BB
330
B7
100
AcDbEntity
  8
0
  6
Continuous
 62
     7
100
AcDbLine
 10
40.25014748212212
 20
-415.7329893191757
 30
0.0
 11
330.8943688006887
 21
-415.7329893191757
 31
0.0
  0
INSERT
  5
BC
330
B7
100
AcDbEntity
  8
0
  6
Continuous
 62
     7
100
AcDbBlockReference
  2
_OPEN30
 10
323.7011622279536
 20
24.26586841744568
 30
0.0
 41
16.61999950468542
 42
16.61999950468542
 43
16.61999950468542
 50
90.0
  0
INSERT
  5
BD
330
B7
100
AcDbEntity
  8
0
  6
Continuous
 62
     7
100
AcDbBlockReference
  2
_OPEN30
 10
323.7011622279536
 20
-415.7329893191757
 30
0.0
 41
16.61999950468542
 42
16.61999950468542
 43
16.61999950468542
 50
270.0
  0
MTEXT
  5
BF
330
B7
100
AcDbEntity
  8
0
  6
Continuous
 62
     7
100
AcDbMText
 10
305.1996225953214
 20
-195.7335212309918
 30
0.0
 40
25.00307962289215
 41
0.0
 71
     5
 72
     1
  1
\A1;440
  7
MX_DIMTXSTY_3
 11
-0.0000000000000001
 21
1.0
 31
0.0
 73
     1
 44
0.9000000901137656
1001
ACAD
1000
MTEXTBEGIN
1070
    73
1070
     1
1070
    44
1040
0.9000000901137656
1070
    74
1070
     0
1000
MTEXTEND
  0
POINT
  5
C0
330
B7
100
AcDbEntity
  8
DEFPOINTS
  6
Continuous
 62
     0
100
AcDbPoint
 10
15.63008678850048
 20
24.26586841744568
 30
0.0
  0
POINT
  5
C1
330
B7
100
AcDbEntity
  8
DEFPOINTS
  6
Continuous
 62
     0
100
AcDbPoint
 10
32.63014782365673
 20
-415.7329893191757
 30
0.0
  0
POINT
  5
C2
330
B7
100
AcDbEntity
  8
DEFPOINTS
  6
Continuous
 62
     0
100
AcDbPoint
 10
323.7011622279536
 20
-415.7329893191757
 30
0.0
  0
ENDBLK
  5
C3
330
B7
100
AcDbEntity
  8
0
  6
ByBlock
 62
     0
370
    -2
100
AcDbBlockEnd
  0
BLOCK
  5
C6
330
C5
100
AcDbEntity
  8
0
  6
ByBlock
 62
     0
370
    -2
100
AcDbBlockBegin
  2
*D6
 70
     1
 10
0.0
 20
0.0
 30
0.0
  3
*D6
  1

  0
LINE
  5
C7
330
C5
100
AcDbEntity
  8
0
  6
Continuous
 62
     7
100
AcDbLine
 10
-405.8697388807017
 20
321.468740419485
 30
0.0
 11
225.6301507464006
 21
321.468740419485
 31
0.0
  0
LINE
  5
C8
330
C5
100
AcDbEntity
  8
0
  6
Continuous
 62
     7
100
AcDbLine
 10
-405.8697388807017
 20
-194.1139576759559
 30
0.0
 11
-405.8697388807017
 21
328.6619469922201
 31
0.0
  0
LINE
  5
C9
330
C5
100
AcDbEntity
  8
0
  6
Continuous
 62
     7
100
AcDbLine
 10
225.6301507464006
 20
-194.1139576759559
 30
0.0
 11
225.6301507464006
 21
328.6619469922201
 31
0.0
  0
INSERT
  5
CA
330
C5
100
AcDbEntity
  8
0
  6
Continuous
 62
     7
100
AcDbBlockReference
  2
_OPEN30
 10
-405.8697388807017
 20
321.468740419485
 30
0.0
 41
16.61999950468542
 42
16.61999950468542
 43
16.61999950468542
 50
180.0
  0
INSERT
  5
CB
330
C5
100
AcDbEntity
  8
0
  6
Continuous
 62
     7
100
AcDbBlockReference
  2
_OPEN30
 10
225.6301507464006
 20
321.468740419485
 30
0.0
 41
16.61999950468542
 42
16.61999950468542
 43
16.61999950468542
  0
MTEXT
  5
CD
330
C5
100
AcDbEntity
  8
0
  6
Continuous
 62
     7
100
AcDbMText
 10
-90.11979991585793
 20
339.9702800521171
 30
0.0
 40
25.00307962289215
 41
0.0
 71
     5
 72
     1
  1
\A1;631
  7
MX_DIMTXSTY_4
 73
     1
 44
0.9000000901137656
1001
ACAD
1000
MTEXTBEGIN
1070
    73
1070
     1
1070
    44
1040
0.9000000901137656
1070
    74
1070
     0
1000
MTEXTEND
  0
POINT
  5
CE
330
C5
100
AcDbEntity
  8
DEFPOINTS
  6
Continuous
 62
     0
100
AcDbPoint
 10
-405.8697388807017
 20
-201.7339573344213
 30
0.0
  0
POINT
  5
CF
330
C5
100
AcDbEntity
  8
DEFPOINTS
  6
Continuous
 62
     0
100
AcDbPoint
 10
225.6301507464006
 20
-201.7339573344213
 30
0.0
  0
POINT
  5
D0
330
C5
100
AcDbEntity
  8
DEFPOINTS
  6
Continuous
 62
     0
100
AcDbPoint
 10
225.6301507464006
 20
321.468740419485
 30
0.0
  0
ENDBLK
  5
D1
330
C5
100
AcDbEntity
  8
0
  6
ByBlock
 62
     0
370
    -2
100
AcDbBlockEnd
  0
BLOCK
  5
D4
330
D3
100
AcDbEntity
  8
0
  6
ByBlock
 62
     0
370
    -2
100
AcDbBlockBegin
  2
*D7
 70
     1
 10
0.0
 20
0.0
 30
0.0
  3
*D7
  1

  0
LINE
  5
D5
330
D3
100
AcDbEntity
  8
0
  6
Continuous
 62
     7
100
AcDbLine
 10
-234.3699576148403
 20
255.3890915099057
 30
0.0
 11
-34.36997120469894
 21
255.3890915099057
 31
0.0
  0
LINE
  5
D6
330
D3
100
AcDbEntity
  8
0
  6
Continuous
 62
     7
100
AcDbLine
 10
-234.3699576148403
 20
202.3231780824336
 30
0.0
 11
-234.3699576148403
 21
262.5822980826408
 31
0.0
  0
LINE
  5
D7
330
D3
100
AcDbEntity
  8
0
  6
Continuous
 62
     7
100
AcDbLine
 10
-34.36997120469894
 20
111.8859222230586
 30
0.0
 11
-34.36997120469894
 21
262.5822980826408
 31
0.0
  0
INSERT
  5
D8
330
D3
100
AcDbEntity
  8
0
  6
Continuous
 62
     7
100
AcDbBlockReference
  2
_OPEN30
 10
-234.3699576148403
 20
255.3890915099057
 30
0.0
 41
16.61999950468542
 42
16.61999950468542
 43
16.61999950468542
 50
180.0
  0
INSERT
  5
D9
330
D3
100
AcDbEntity
  8
0
  6
Continuous
 62
     7
100
AcDbBlockReference
  2
_OPEN30
 10
-34.36997120469894
 20
255.3890915099057
 30
0.0
 41
16.61999950468542
 42
16.61999950468542
 43
16.61999950468542
  0
MTEXT
  5
DA
330
D3
100
AcDbEntity
  8
0
  6
Continuous
 62
     7
100
AcDbMText
 10
-134.3699270972622
 20
273.8906311425379
 30
0.0
 40
25.00307962289215
 41
0.0
 71
     5
 72
     1
  1
\A1;200
  7
MX_DIMTXSTY_4
 73
     1
 44
0.9000000901137656
1001
ACAD
1000
MTEXTBEGIN
1070
    73
1070
     1
1070
    44
1040
0.9000000901137656
1070
    74
1070
     0
1000
MTEXTEND
  0
POINT
  5
DB
330
D3
100
AcDbEntity
  8
DEFPOINTS
  6
Continuous
 62
     0
100
AcDbPoint
 10
-234.3699576148403
 20
194.7031784239682
 30
0.0
  0
POINT
  5
DC
330
D3
100
AcDbEntity
  8
DEFPOINTS
  6
Continuous
 62
     0
100
AcDbPoint
 10
-34.36997120469894
 20
104.2659225645932
 30
0.0
  0
POINT
  5
DD
330
D3
100
AcDbEntity
  8
DEFPOINTS
  6
Continuous
 62
     0
100
AcDbPoint
 10
-34.36997120469894
 20
255.3890915099057
 30
0.0
  0
ENDBLK
  5
DE
330
D3
100
AcDbEntity
  8
0
  6
ByBlock
 62
     0
370
    -2
100
AcDbBlockEnd
  0
BLOCK
  5
E1
330
E0
100
AcDbEntity
  8
0
  6
ByBlock
 62
     0
370
    -2
100
AcDbBlockBegin
  2
*D8
 70
     1
 10
0.0
 20
0.0
 30
0.0
  3
*D8
  1

  0
LINE
  5
E2
330
E0
100
AcDbEntity
  8
0
  6
Continuous
 62
     7
100
AcDbLine
 10
-394.3698002585828
 20
255.3890915099057
 30
0.0
 11
-234.3699576148403
 21
255.3890915099057
 31
0.0
  0
LINE
  5
E3
330
E0
100
AcDbEntity
  8
0
  6
Continuous
 62
     7
100
AcDbLine
 10
-394.3698002585828
 20
-33.11404725936327
 30
0.0
 11
-394.3698002585828
 21
262.5822980826408
 31
0.0
  0
LINE
  5
E4
330
E0
100
AcDbEntity
  8
0
  6
Continuous
 62
     7
100
AcDbLine
 10
-234.3699576148403
 20
202.3231780824336
 30
0.0
 11
-234.3699576148403
 21
262.5822980826408
 31
0.0
  0
INSERT
  5
E5
330
E0
100
AcDbEntity
  8
0
  6
Continuous
 62
     7
100
AcDbBlockReference
  2
_OPEN30
 10
-394.3698002585828
 20
255.3890915099057
 30
0.0
 41
16.61999950468542
 42
16.61999950468542
 43
16.61999950468542
 50
180.0
  0
INSERT
  5
E6
330
E0
100
AcDbEntity
  8
0
  6
Continuous
 62
     7
100
AcDbBlockReference
  2
_OPEN30
 10
-234.3699576148403
 20
255.3890915099057
 30
0.0
 41
16.61999950468542
 42
16.61999950468542
 43
16.61999950468542
  0
MTEXT
  5
E7
330
E0
100
AcDbEntity
  8
0
  6
Continuous
 62
     7
100
AcDbMText
 10
-314.369830776161
 20
273.8906311425379
 30
0.0
 40
25.00307962289215
 41
0.0
 71
     5
 72
     1
  1
\A1;160
  7
MX_DIMTXSTY_2
 73
     1
 44
0.9000000901137656
1001
ACAD
1000
MTEXTBEGIN
1070
    73
1070
     1
1070
    44
1040
0.9000000901137656
1070
    74
1070
     0
1000
MTEXTEND
  0
POINT
  5
E8
330
E0
100
AcDbEntity
  8
DEFPOINTS
  6
Continuous
 62
     0
100
AcDbPoint
 10
-394.3698002585828
 20
-40.73404691782866
 30
0.0
  0
POINT
  5
E9
330
E0
100
AcDbEntity
  8
DEFPOINTS
  6
Continuous
 62
     0
100
AcDbPoint
 10
-234.3699576148403
 20
194.7031784239682
 30
0.0
  0
POINT
  5
EA
330
E0
100
AcDbEntity
  8
DEFPOINTS
  6
Continuous
 62
     0
100
AcDbPoint
 10
-234.3699576148403
 20
255.3890915099057
 30
0.0
  0
ENDBLK
  5
EB
330
E0
100
AcDbEntity
  8
0
  6
ByBlock
 62
     0
370
    -2
100
AcDbBlockEnd
  0
BLOCK
  5
EE
330
ED
100
AcDbEntity
  8
0
  6
ByBlock
 62
     0
370
    -2
100
AcDbBlockBegin
  2
*D9
 70
     1
 10
0.0
 20
0.0
 30
0.0
  3
*D9
  1

  0
LINE
  5
EF
330
ED
100
AcDbEntity
  8
0
  6
Continuous
 62
     7
100
AcDbLine
 10
-1072.455381856698
 20
-415.7329893191757
 30
0.0
 11
-1072.455381856698
 21
184.2660772721147
 31
0.0
  0
LINE
  5
F0
330
ED
100
AcDbEntity
  8
0
  6
Continuous
 62
     7
100
AcDbLine
 10
-944.534213302273
 20
-415.7329893191757
 30
0.0
 11
-1079.648588429433
 21
-415.7329893191757
 31
0.0
  0
LINE
  5
F1
330
ED
100
AcDbEntity
  8
0
  6
Continuous
 62
     7
100
AcDbLine
 10
-904.5339996792263
 20
184.2660772721147
 30
0.0
 11
-1079.648588429433
 21
184.2660772721147
 31
0.0
  0
INSERT
  5
F2
330
ED
100
AcDbEntity
  8
0
  6
Continuous
 62
     7
100
AcDbBlockReference
  2
_OPEN30
 10
-1072.455381856698
 20
-415.7329893191757
 30
0.0
 41
16.61999950468542
 42
16.61999950468542
 43
16.61999950468542
 50
270.0
  0
INSERT
  5
F3
330
ED
100
AcDbEntity
  8
0
  6
Continuous
 62
     7
100
AcDbBlockReference
  2
_OPEN30
 10
-1072.455381856698
 20
184.2660772721147
 30
0.0
 41
16.61999950468542
 42
16.61999950468542
 43
16.61999950468542
 50
90.0
  0
MTEXT
  5
F4
330
ED
100
AcDbEntity
  8
0
  6
Continuous
 62
     7
100
AcDbMText
 10
-1090.95692148933
 20
-115.7334470828476
 30
0.0
 40
25.00307962289215
 41
0.0
 71
     5
 72
     1
  1
\A1;600
  7
MX_DIMTXSTY_4
 11
0.0000000000000001
 21
1.0
 31
0.0
 73
     1
 44
0.9000000901137656
1001
ACAD
1000
MTEXTBEGIN
1070
    73
1070
     1
1070
    44
1040
0.9000000901137656
1070
    74
1070
     0
1000
MTEXTEND
  0
POINT
  5
F5
330
ED
100
AcDbEntity
  8
DEFPOINTS
  6
Continuous
 62
     0
100
AcDbPoint
 10
-936.9142136438076
 20
-415.7329893191757
 30
0.0
  0
POINT
  5
F6
330
ED
100
AcDbEntity
  8
DEFPOINTS
  6
Continuous
 62
     0
100
AcDbPoint
 10
-896.9140000207607
 20
184.2660772721147
 30
0.0
  0
POINT
  5
F7
330
ED
100
AcDbEntity
  8
DEFPOINTS
  6
Continuous
 62
     0
100
AcDbPoint
 10
-1072.455381856698
 20
184.2660772721147
 30
0.0
  0
ENDBLK
  5
F8
330
ED
100
AcDbEntity
  8
0
  6
ByBlock
 62
     0
370
    -2
100
AcDbBlockEnd
  0
BLOCK
  5
FB
330
FA
100
AcDbEntity
  8
0
  6
ByBlock
 62
     0
370
    -2
100
AcDbBlockBegin
  2
*D10
 70
     1
 10
0.0
 20
0.0
 30
0.0
  3
*D10
  1

  0
LINE
  5
FC
330
FA
100
AcDbEntity
  8
0
  6
Continuous
 62
     7
100
AcDbLine
 10
98.95257273457728
 20
-365.7329297741374
 30
0.0
 11
98.95257273457728
 21
-415.7329893191757
 31
0.0
  0
LINE
  5
FD
330
FA
100
AcDbEntity
  8
0
  6
Continuous
 62
     7
100
AcDbLine
 10
98.95257273457728
 20
-415.7329893191757
 30
0.0
 11
98.95257273457728
 21
-440.7391195374998
 31
0.0
  0
LINE
  5
FE
330
FA
100
AcDbEntity
  8
0
  6
Continuous
 62
     7
100
AcDbLine
 10
-14.18244011916436
 20
-365.7329297741374
 30
0.0
 11
106.1457793073124
 21
-365.7329297741374
 31
0.0
  0
LINE
  5
FF
330
FA
100
AcDbEntity
  8
0
  6
Continuous
 62
     7
100
AcDbLine
 10
40.25014655075751
 20
-415.7329893191757
 30
0.0
 11
106.1457793073124
 21
-415.7329893191757
 31
0.0
  0
LINE
  5
100
330
FA
100
AcDbEntity
  8
0
  6
Continuous
 62
     7
100
AcDbLine
 10
98.95257273457728
 20
-365.7329297741374
 30
0.0
 11
98.95257273457728
 21
-327.6329314818105
 31
0.0
  0
LINE
  5
101
330
FA
100
AcDbEntity
  8
0
  6
Continuous
 62
     7
100
AcDbLine
 10
98.95257273457728
 20
-415.7329893191757
 30
0.0
 11
98.95257273457728
 21
-453.8329876115027
 31
0.0
  0
INSERT
  5
102
330
FA
100
AcDbEntity
  8
0
  6
Continuous
 62
     7
100
AcDbBlockReference
  2
_OPEN30
 10
98.95257273457728
 20
-365.7329297741374
 30
0.0
 41
16.61999950468542
 42
16.61999950468542
 43
16.61999950468542
 50
270.0
  0
INSERT
  5
103
330
FA
100
AcDbEntity
  8
0
  6
Continuous
 62
     7
100
AcDbBlockReference
  2
_OPEN30
 10
98.95257273457728
 20
-415.7329893191757
 30
0.0
 41
16.61999950468542
 42
16.61999950468542
 43
16.61999950468542
 50
90.0
  0
MTEXT
  5
104
330
FA
100
AcDbEntity
  8
0
  6
Continuous
 62
     7
100
AcDbMText
 10
80.45103310194512
 20
-390.7329602917156
 30
0.0
 40
25.00307962289215
 41
0.0
 71
     5
 72
     1
  1
\A1;(50)
  7
MX_DIMTXSTY_2
 11
-0.0000000000000001
 21
1.0
 31
0.0
 73
     1
 44
0.9000000901137656
1001
ACAD
1000
MTEXTBEGIN
1070
    73
1070
     1
1070
    44
1040
0.9000000901137656
1070
    74
1070
     0
1000
MTEXTEND
  0
POINT
  5
105
330
FA
100
AcDbEntity
  8
DEFPOINTS
  6
Continuous
 62
     0
100
AcDbPoint
 10
-21.80243977762976
 20
-365.7329297741374
 30
0.0
  0
POINT
  5
106
330
FA
100
AcDbEntity
  8
DEFPOINTS
  6
Continuous
 62
     0
100
AcDbPoint
 10
32.63014689229212
 20
-415.7329893191757
 30
0.0
  0
POINT
  5
107
330
FA
100
AcDbEntity
  8
DEFPOINTS
  6
Continuous
 62
     0
100
AcDbPoint
 10
98.95257273457728
 20
-415.7329893191757
 30
0.0
  0
ENDBLK
  5
108
330
FA
100
AcDbEntity
  8
0
  6
ByBlock
 62
     0
370
    -2
100
AcDbBlockEnd
  0
BLOCK
  5
10B
330
10A
100
AcDbEntity
  8
0
  6
ByBlock
 62
     0
370
    -2
100
AcDbBlockBegin
  2
*D11
 70
     1
 10
0.0
 20
0.0
 30
0.0
  3
*D11
  1

  0
LINE
  5
10C
330
10A
100
AcDbEntity
  8
0
  6
Continuous
 62
     7
100
AcDbLine
 10
-334.3699851521854
 20
-508.9921723308512
 30
0.0
 11
-394.3698002585828
 21
-508.9921723308512
 31
0.0
  0
LINE
  5
10D
330
10A
100
AcDbEntity
  8
0
  6
Continuous
 62
     7
100
AcDbLine
 10
-334.3699851521854
 20
-433.3530167158791
 30
0.0
 11
-334.3699851521854
 21
-516.1853789035863
 31
0.0
  0
LINE
  5
10E
330
10A
100
AcDbEntity
  8
0
  6
Continuous
 62
     7
100
AcDbLine
 10
-394.3698002585828
 20
-418.3539322432229
 30
0.0
 11
-394.3698002585828
 21
-516.1853789035863
 31
0.0
  0
LINE
  5
10F
330
10A
100
AcDbEntity
  8
0
  6
Continuous
 62
     7
100
AcDbLine
 10
-334.3699851521854
 20
-508.9921723308512
 30
0.0
 11
-296.2699868598584
 21
-508.9921723308512
 31
0.0
  0
LINE
  5
110
330
10A
100
AcDbEntity
  8
0
  6
Continuous
 62
     7
100
AcDbLine
 10
-394.3698002585828
 20
-508.9921723308512
 30
0.0
 11
-432.4697985509097
 21
-508.9921723308512
 31
0.0
  0
INSERT
  5
111
330
10A
100
AcDbEntity
  8
0
  6
Continuous
 62
     7
100
AcDbBlockReference
  2
_OPEN30
 10
-334.3699851521854
 20
-508.9921723308512
 30
0.0
 41
16.61999950468542
 42
16.61999950468542
 43
16.61999950468542
 50
180.0
  0
INSERT
  5
112
330
10A
100
AcDbEntity
  8
0
  6
Continuous
 62
     7
100
AcDbBlockReference
  2
_OPEN30
 10
-394.3698002585828
 20
-508.9921723308512
 30
0.0
 41
16.61999950468542
 42
16.61999950468542
 43
16.61999950468542
  0
MTEXT
  5
113
330
10A
100
AcDbEntity
  8
0
  6
Continuous
 62
     7
100
AcDbMText
 10
-364.369893599451
 20
-490.490632698219
 30
0.0
 40
25.00307962289215
 41
0.0
 71
     5
 72
     1
  1
\A1;60
  7
MX_DIMTXSTY_4
 73
     1
 44
0.9000000901137656
1001
ACAD
1000
MTEXTBEGIN
1070
    73
1070
     1
1070
    44
1040
0.9000000901137656
1070
    74
1070
     0
1000
MTEXTEND
  0
POINT
  5
114
330
10A
100
AcDbEntity
  8
DEFPOINTS
  6
Continuous
 62
     0
100
AcDbPoint
 10
-334.3699851521854
 20
-425.7330170574136
 30
0.0
  0
POINT
  5
115
330
10A
100
AcDbEntity
  8
DEFPOINTS
  6
Continuous
 62
     0
100
AcDbPoint
 10
-394.3698002585828
 20
-410.7339325847574
 30
0.0
  0
POINT
  5
116
330
10A
100
AcDbEntity
  8
DEFPOINTS
  6
Continuous
 62
     0
100
AcDbPoint
 10
-394.3698002585828
 20
-508.9921723308512
 30
0.0
  0
ENDBLK
  5
117
330
10A
100
AcDbEntity
  8
0
  6
ByBlock
 62
     0
370
    -2
100
AcDbBlockEnd
  0
BLOCK
  5
11A
330
119
100
AcDbEntity
  8
0
  6
ByBlock
 62
     0
370
    -2
100
AcDbBlockBegin
  2
*D12
 70
     1
 10
0.0
 20
0.0
 30
0.0
  3
*D12
  1

  0
LINE
  5
11B
330
119
100
AcDbEntity
  8
0
  6
Continuous
 62
     7
100
AcDbLine
 10
-134.369746972032
 20
-508.9921723308512
 30
0.0
 11
-334.3699851521854
 21
-508.9921723308512
 31
0.0
  0
LINE
  5
11C
330
119
100
AcDbEntity
  8
0
  6
Continuous
 62
     7
100
AcDbLine
 10
-134.369746972032
 20
-433.3530167158791
 30
0.0
 11
-134.369746972032
 21
-516.1853789035863
 31
0.0
  0
LINE
  5
11D
330
119
100
AcDbEntity
  8
0
  6
Continuous
 62
     7
100
AcDbLine
 10
-334.3699851521854
 20
-433.3530167158791
 30
0.0
 11
-334.3699851521854
 21
-516.1853789035863
 31
0.0
  0
INSERT
  5
11E
330
119
100
AcDbEntity
  8
0
  6
Continuous
 62
     7
100
AcDbBlockReference
  2
_OPEN30
 10
-134.369746972032
 20
-508.9921723308512
 30
0.0
 41
16.61999950468542
 42
16.61999950468542
 43
16.61999950468542
  0
INSERT
  5
11F
330
119
100
AcDbEntity
  8
0
  6
Continuous
 62
     7
100
AcDbBlockReference
  2
_OPEN30
 10
-334.3699851521854
 20
-508.9921723308512
 30
0.0
 41
16.61999950468542
 42
16.61999950468542
 43
16.61999950468542
 50
180.0
  0
MTEXT
  5
120
330
119
100
AcDbEntity
  8
0
  6
Continuous
 62
     7
100
AcDbMText
 10
-273.876338768907
 20
-490.490632698219
 30
0.0
 40
25.00307962289215
 41
0.0
 71
     5
 72
     1
  1
\A1;200
  7
MX_DIMTXSTY_4
 73
     1
 44
0.9000000901137656
1001
ACAD
1000
MTEXTBEGIN
1070
    73
1070
     1
1070
    44
1040
0.9000000901137656
1070
    74
1070
     0
1000
MTEXTEND
  0
POINT
  5
121
330
119
100
AcDbEntity
  8
DEFPOINTS
  6
Continuous
 62
     0
100
AcDbPoint
 10
-134.369746972032
 20
-425.7330170574136
 30
0.0
  0
POINT
  5
122
330
119
100
AcDbEntity
  8
DEFPOINTS
  6
Continuous
 62
     0
100
AcDbPoint
 10
-334.3699851521854
 20
-425.7330170574136
 30
0.0
  0
POINT
  5
123
330
119
100
AcDbEntity
  8
DEFPOINTS
  6
Continuous
 62
     0
100
AcDbPoint
 10
-334.3699851521854
 20
-508.9921723308512
 30
0.0
  0
ENDBLK
  5
124
330
119
100
AcDbEntity
  8
0
  6
ByBlock
 62
     0
370
    -2
100
AcDbBlockEnd
  0
BLOCK
  5
127
330
126
100
AcDbEntity
  8
0
  6
ByBlock
 62
     0
370
    -2
100
AcDbBlockBegin
  2
*D13
 70
     1
 10
0.0
 20
0.0
 30
0.0
  3
*D13
  1

  0
LINE
  5
128
330
126
100
AcDbEntity
  8
0
  6
Continuous
 62
     7
100
AcDbLine
 10
-234.3699576148403
 20
-554.1123797263985
 30
0.0
 11
-394.3698002585828
 21
-554.1123797263985
 31
0.0
  0
LINE
  5
129
330
126
100
AcDbEntity
  8
0
  6
Continuous
 62
     7
100
AcDbLine
 10
-234.3699576148403
 20
-379.5732912500984
 30
0.0
 11
-234.3699576148403
 21
-561.3055862991337
 31
0.0
  0
LINE
  5
12A
330
126
100
AcDbEntity
  8
0
  6
Continuous
 62
     7
100
AcDbLine
 10
-394.3698002585828
 20
-418.3539308985358
 30
0.0
 11
-394.3698002585828
 21
-561.3055862991337
 31
0.0
  0
INSERT
  5
12B
330
126
100
AcDbEntity
  8
0
  6
Continuous
 62
     7
100
AcDbBlockReference
  2
_OPEN30
 10
-234.3699576148403
 20
-554.1123797263985
 30
0.0
 41
16.61999950468542
 42
16.61999950468542
 43
16.61999950468542
  0
INSERT
  5
12C
330
126
100
AcDbEntity
  8
0
  6
Continuous
 62
     7
100
AcDbBlockReference
  2
_OPEN30
 10
-394.3698002585828
 20
-554.1123797263985
 30
0.0
 41
16.61999950468542
 42
16.61999950468542
 43
16.61999950468542
 50
180.0
  0
MTEXT
  5
12D
330
126
100
AcDbEntity
  8
0
  6
Continuous
 62
     7
100
AcDbMText
 10
-314.3698355445279
 20
-535.6108400937664
 30
0.0
 40
25.00307962289215
 41
0.0
 71
     5
 72
     1
  1
\A1;160
  7
MX_DIMTXSTY_2
 73
     1
 44
0.9000000901137656
1001
ACAD
1000
MTEXTBEGIN
1070
    73
1070
     1
1070
    44
1040
0.9000000901137656
1070
    74
1070
     0
1000
MTEXTEND
  0
POINT
  5
12E
330
126
100
AcDbEntity
  8
DEFPOINTS
  6
Continuous
 62
     0
100
AcDbPoint
 10
-234.3699576148403
 20
-371.9532915916329
 30
0.0
  0
POINT
  5
12F
330
126
100
AcDbEntity
  8
DEFPOINTS
  6
Continuous
 62
     0
100
AcDbPoint
 10
-394.3698002585828
 20
-410.7339312400704
 30
0.0
  0
POINT
  5
130
330
126
100
AcDbEntity
  8
DEFPOINTS
  6
Continuous
 62
     0
100
AcDbPoint
 10
-394.3698002585828
 20
-554.1123797263985
 30
0.0
  0
ENDBLK
  5
131
330
126
100
AcDbEntity
  8
0
  6
ByBlock
 62
     0
370
    -2
100
AcDbBlockEnd
  0
BLOCK
  5
134
330
133
100
AcDbEntity
  8
0
  6
ByBlock
 62
     0
370
    -2
100
AcDbBlockBegin
  2
*D14
 70
     1
 10
0.0
 20
0.0
 30
0.0
  3
*D14
  1

  0
LINE
  5
135
330
133
100
AcDbEntity
  8
0
  6
Continuous
 62
     7
100
AcDbLine
 10
-696.9142248358062
 20
-557.6208635085563
 30
0.0
 11
-936.9142176832491
 21
-557.6208635085563
 31
0.0
  0
LINE
  5
136
330
133
100
AcDbEntity
  8
0
  6
Continuous
 62
     7
100
AcDbLine
 10
-696.9142248358062
 20
-423.352984749053
 30
0.0
 11
-696.9142248358062
 21
-564.8140700812914
 31
0.0
  0
LINE
  5
137
330
133
100
AcDbEntity
  8
0
  6
Continuous
 62
     7
100
AcDbLine
 10
-936.9142176832491
 20
-423.352984749053
 30
0.0
 11
-936.9142176832491
 21
-564.8140700812914
 31
0.0
  0
INSERT
  5
138
330
133
100
AcDbEntity
  8
0
  6
Continuous
 62
     7
100
AcDbBlockReference
  2
_OPEN30
 10
-696.9142248358062
 20
-557.6208635085563
 30
0.0
 41
16.61999950468542
 42
16.61999950468542
 43
16.61999950468542
  0
INSERT
  5
139
330
133
100
AcDbEntity
  8
0
  6
Continuous
 62
     7
100
AcDbBlockReference
  2
_OPEN30
 10
-936.9142176832491
 20
-557.6208635085563
 30
0.0
 41
16.61999950468542
 42
16.61999950468542
 43
16.61999950468542
 50
180.0
  0
MTEXT
  5
13A
330
133
100
AcDbEntity
  8
0
  6
Continuous
 62
     7
100
AcDbMText
 10
-829.6114904608062
 20
-539.1193238759242
 30
0.0
 40
25.00307962289215
 41
0.0
 71
     5
 72
     1
  1
\A1;240
  7
MX_DIMTXSTY_3
 73
     1
 44
0.9000000901137656
1001
ACAD
1000
MTEXTBEGIN
1070
    73
1070
     1
1070
    44
1040
0.9000000901137656
1070
    74
1070
     0
1000
MTEXTEND
  0
POINT
  5
13B
330
133
100
AcDbEntity
  8
DEFPOINTS
  6
Continuous
 62
     0
100
AcDbPoint
 10
-696.9142248358062
 20
-415.7329850905876
 30
0.0
  0
POINT
  5
13C
330
133
100
AcDbEntity
  8
DEFPOINTS
  6
Continuous
 62
     0
100
AcDbPoint
 10
-936.9142176832491
 20
-415.7329850905876
 30
0.0
  0
POINT
  5
13D
330
133
100
AcDbEntity
  8
DEFPOINTS
  6
Continuous
 62
     0
100
AcDbPoint
 10
-936.9142176832491
 20
-557.6208635085563
 30
0.0
  0
ENDBLK
  5
13E
330
133
100
AcDbEntity
  8
0
  6
ByBlock
 62
     0
370
    -2
100
AcDbBlockEnd
  0
BLOCK
  5
141
330
140
100
AcDbEntity
  8
0
  6
ByBlock
 62
     0
370
    -2
100
AcDbBlockBegin
  2
*D15
 70
     1
 10
0.0
 20
0.0
 30
0.0
  3
*D15
  1

  0
LINE
  5
142
330
140
100
AcDbEntity
  8
0
  6
Continuous
 62
     7
100
AcDbLine
 10
-716.9140106167194
 20
-508.9921723308512
 30
0.0
 11
-916.9141572441411
 21
-508.9921723308512
 31
0.0
  0
LINE
  5
143
330
140
100
AcDbEntity
  8
0
  6
Continuous
 62
     7
100
AcDbLine
 10
-716.9140106167194
 20
-433.3530167158791
 30
0.0
 11
-716.9140106167194
 21
-516.1853789035863
 31
0.0
  0
LINE
  5
144
330
140
100
AcDbEntity
  8
0
  6
Continuous
 62
     7
100
AcDbLine
 10
-916.9141572441411
 20
-433.3530167158791
 30
0.0
 11
-916.9141572441411
 21
-516.1853789035863
 31
0.0
  0
INSERT
  5
145
330
140
100
AcDbEntity
  8
0
  6
Continuous
 62
     7
100
AcDbBlockReference
  2
_OPEN30
 10
-716.9140106167194
 20
-508.9921723308512
 30
0.0
 41
16.61999950468542
 42
16.61999950468542
 43
16.61999950468542
  0
INSERT
  5
146
330
140
100
AcDbEntity
  8
0
  6
Continuous
 62
     7
100
AcDbBlockReference
  2
_OPEN30
 10
-916.9141572441411
 20
-508.9921723308512
 30
0.0
 41
16.61999950468542
 42
16.61999950468542
 43
16.61999950468542
 50
180.0
  0
MTEXT
  5
147
330
140
100
AcDbEntity
  8
0
  6
Continuous
 62
     7
100
AcDbMText
 10
-816.9140411342976
 20
-490.490632698219
 30
0.0
 40
25.00307962289215
 41
0.0
 71
     5
 72
     1
  1
\A1;200
  7
MX_DIMTXSTY_4
 73
     1
 44
0.9000000901137656
1001
ACAD
1000
MTEXTBEGIN
1070
    73
1070
     1
1070
    44
1040
0.9000000901137656
1070
    74
1070
     0
1000
MTEXTEND
  0
POINT
  5
148
330
140
100
AcDbEntity
  8
DEFPOINTS
  6
Continuous
 62
     0
100
AcDbPoint
 10
-716.9140106167194
 20
-425.7330170574136
 30
0.0
  0
POINT
  5
149
330
140
100
AcDbEntity
  8
DEFPOINTS
  6
Continuous
 62
     0
100
AcDbPoint
 10
-916.9141572441411
 20
-425.7330170574136
 30
0.0
  0
POINT
  5
14A
330
140
100
AcDbEntity
  8
DEFPOINTS
  6
Continuous
 62
     0
100
AcDbPoint
 10
-916.9141572441411
 20
-508.9921723308512
 30
0.0
  0
ENDBLK
  5
14B
330
140
100
AcDbEntity
  8
0
  6
ByBlock
 62
     0
370
    -2
100
AcDbBlockEnd
  0
BLOCK
  5
32A
330
329
100
AcDbEntity
  8
0
  6
ByBlock
 62
     0
370
    -2
100
AcDbBlockBegin
  2
*X16
 70
     1
 10
0.0
 20
0.0
 30
0.0
  3
*X16
  1

  0
LINE
  5
32B
330
329
100
AcDbEntity
  8
0
  6
Continuous
 62
     0
100
AcDbLine
 10
513.3783412125599
 20
-659.9999803304678
 30
0.0
 11
533.131454259174
 21
-659.9999803304678
 31
0.0
  0
LINE
  5
32C
330
329
100
AcDbEntity
  8
0
  6
Continuous
 62
     0
100
AcDbLine
 10
547.5449663295775
 20
-659.9999803304678
 30
0.0
 11
583.4109829393689
 21
-659.9999803304678
 31
0.0
  0
LINE
  5
32D
330
329
100
AcDbEntity
  8
0
  6
Continuous
 62
     0
100
AcDbLine
 10
592.1111387122179
 20
-659.9999803304678
 30
0.0
 11
608.6436282489685
 21
-659.9999803304678
 31
0.0
  0
LINE
  5
32E
330
329
100
AcDbEntity
  8
0
  6
Continuous
 62
     0
100
AcDbLine
 10
616.2684837632443
 20
-659.9999803304678
 30
0.0
 11
628.3754840802364
 21
-659.9999803304678
 31
0.0
  0
LINE
  5
32F
330
329
100
AcDbEntity
  8
0
  6
Continuous
 62
     0
100
AcDbLine
 10
641.3814949163968
 20
-659.9999803304678
 30
0.0
 11
660.9088617904753
 21
-659.9999803304678
 31
0.0
  0
LINE
  5
330
330
329
100
AcDbEntity
  8
0
  6
Continuous
 62
     0
100
AcDbLine
 10
668.4054269906986
 20
-659.9999803304678
 30
0.0
 11
688.9734949312111
 21
-659.9999803304678
 31
0.0
  0
LINE
  5
331
330
329
100
AcDbEntity
  8
0
  6
Continuous
 62
     0
100
AcDbLine
 10
507.8283623739181
 20
-653.9999805092817
 30
0.0
 11
519.848657416291
 21
-653.9999805092817
 31
0.0
  0
LINE
  5
332
330
329
100
AcDbEntity
  8
0
  6
Continuous
 62
     0
100
AcDbLine
 10
533.7470471726283
 20
-653.9999805092817
 30
0.0
 11
538.8708151729653
 21
-653.9999805092817
 31
0.0
  0
LINE
  5
333
330
329
100
AcDbEntity
  8
0
  6
Continuous
 62
     0
100
AcDbLine
 10
551.038576870007
 20
-653.9999805092817
 30
0.0
 11
563.6356662620405
 21
-653.9999805092817
 31
0.0
  0
LINE
  5
334
330
329
100
AcDbEntity
  8
0
  6
Continuous
 62
     0
100
AcDbLine
 10
582.6092547250921
 20
-653.9999805092817
 30
0.0
 11
584.4689444595136
 21
-653.9999805092817
 31
0.0
  0
LINE
  5
335
330
329
100
AcDbEntity
  8
0
  6
Continuous
 62
     0
100
AcDbLine
 10
589.3132930940855
 20
-653.9999805092817
 30
0.0
 11
603.2126906122572
 21
-653.9999805092817
 31
0.0
  0
LINE
  5
336
330
329
100
AcDbEntity
  8
0
  6
Continuous
 62
     0
100
AcDbLine
 10
607.4647117673253
 20
-653.9999805092817
 30
0.0
 11
611.4414781545077
 21
-653.9999805092817
 31
0.0
  0
LINE
  5
337
330
329
100
AcDbEntity
  8
0
  6
Continuous
 62
     0
100
AcDbLine
 10
621.3187064491417
 20
-653.9999805092817
 30
0.0
 11
655.3337844323264
 21
-653.9999805092817
 31
0.0
  0
LINE
  5
338
330
329
100
AcDbEntity
  8
0
  6
Continuous
 62
     0
100
AcDbLine
 10
662.1731061650823
 20
-653.9999805092817
 30
0.0
 11
675.43605356353
 21
-653.9999805092817
 31
0.0
  0
LINE
  5
339
330
329
100
AcDbEntity
  8
0
  6
Continuous
 62
     0
100
AcDbLine
 10
691.2157231607632
 20
-653.9999805092817
 30
0.0
 11
695.2058153476283
 21
-653.9999805092817
 31
0.0
  0
LINE
  5
33A
330
329
100
AcDbEntity
  8
0
  6
Continuous
 62
     0
100
AcDbLine
 10
507.1586057198463
 20
-647.9999806880957
 30
0.0
 11
519.7556836677883
 21
-647.9999806880957
 31
0.0
  0
LINE
  5
33B
330
329
100
AcDbEntity
  8
0
  6
Continuous
 62
     0
100
AcDbLine
 10
533.8399842429165
 20
-647.9999806880957
 30
0.0
 11
539.6136943217011
 21
-647.9999806880957
 31
0.0
  0
LINE
  5
33C
330
329
100
AcDbEntity
  8
0
  6
Continuous
 62
     0
100
AcDbLine
 10
551.038576870007
 20
-647.9999806880957
 30
0.0
 11
563.6356662620405
 21
-647.9999806880957
 31
0.0
  0
LINE
  5
33D
330
329
100
AcDbEntity
  8
0
  6
Continuous
 62
     0
100
AcDbLine
 10
586.5154474759532
 20
-647.9999806880957
 30
0.0
 11
600.414844994125
 21
-647.9999806880957
 31
0.0
  0
LINE
  5
33E
330
329
100
AcDbEntity
  8
0
  6
Continuous
 62
     0
100
AcDbLine
 10
610.2625616728646
 20
-647.9999806880957
 30
0.0
 11
614.239328060047
 21
-647.9999806880957
 31
0.0
  0
LINE
  5
33F
330
329
100
AcDbEntity
  8
0
  6
Continuous
 62
     0
100
AcDbLine
 10
624.1165409674638
 20
-647.9999806880957
 30
0.0
 11
629.2903441564932
 21
-647.9999806880957
 31
0.0
  0
LINE
  5
340
330
329
100
AcDbEntity
  8
0
  6
Continuous
 62
     0
100
AcDbLine
 10
638.6365613017711
 20
-647.9999806880957
 30
0.0
 11
652.5359374463936
 21
-647.9999806880957
 31
0.0
  0
LINE
  5
341
330
329
100
AcDbEntity
  8
0
  6
Continuous
 62
     0
100
AcDbLine
 10
660.5990141076062
 20
-647.9999806880957
 30
0.0
 11
673.1962381930967
 21
-647.9999806880957
 31
0.0
  0
LINE
  5
342
330
329
100
AcDbEntity
  8
0
  6
Continuous
 62
     0
100
AcDbLine
 10
507.1586057198463
 20
-641.9999808669095
 30
0.0
 11
519.7556836677883
 21
-641.9999808669095
 31
0.0
  0
LINE
  5
343
330
329
100
AcDbEntity
  8
0
  6
Continuous
 62
     0
100
AcDbLine
 10
533.8399842429165
 20
-641.9999808669095
 30
0.0
 11
539.6136943217011
 21
-641.9999808669095
 31
0.0
  0
LINE
  5
344
330
329
100
AcDbEntity
  8
0
  6
Continuous
 62
     0
100
AcDbLine
 10
551.038576870007
 20
-641.9999808669095
 30
0.0
 11
563.6356662620405
 21
-641.9999808669095
 31
0.0
  0
LINE
  5
345
330
329
100
AcDbEntity
  8
0
  6
Continuous
 62
     0
100
AcDbLine
 10
583.7176018578207
 20
-641.9999808669095
 30
0.0
 11
597.6169993759927
 21
-641.9999808669095
 31
0.0
  0
LINE
  5
346
330
329
100
AcDbEntity
  8
0
  6
Continuous
 62
     0
100
AcDbLine
 10
613.0604115784038
 20
-641.9999808669095
 30
0.0
 11
617.0371779655862
 21
-641.9999808669095
 31
0.0
  0
LINE
  5
347
330
329
100
AcDbEntity
  8
0
  6
Continuous
 62
     0
100
AcDbLine
 10
626.9143754857861
 20
-641.9999808669095
 30
0.0
 11
632.0881888014238
 21
-641.9999808669095
 31
0.0
  0
LINE
  5
348
330
329
100
AcDbEntity
  8
0
  6
Continuous
 62
     0
100
AcDbLine
 10
635.8387143158384
 20
-641.9999808669095
 30
0.0
 11
649.7380904604607
 21
-641.9999808669095
 31
0.0
  0
LINE
  5
349
330
329
100
AcDbEntity
  8
0
  6
Continuous
 62
     0
100
AcDbLine
 10
662.2826262408048
 20
-641.9999808669095
 30
0.0
 11
675.6072127768184
 21
-641.9999808669095
 31
0.0
  0
LINE
  5
34A
330
329
100
AcDbEntity
  8
0
  6
Continuous
 62
     0
100
AcDbLine
 10
691.0445636793545
 20
-641.9999808669095
 30
0.0
 11
696.515421136754
 21
-641.9999808669095
 31
0.0
  0
LINE
  5
34B
330
329
100
AcDbEntity
  8
0
  6
Continuous
 62
     0
100
AcDbLine
 10
503.4844515477284
 20
-635.9999810457235
 30
0.0
 11
523.4298950603636
 21
-635.9999810457235
 31
0.0
  0
LINE
  5
34C
330
329
100
AcDbEntity
  8
0
  6
Continuous
 62
     0
100
AcDbLine
 10
530.4282373658347
 20
-635.9999810457235
 30
0.0
 11
543.025332479914
 21
-635.9999810457235
 31
0.0
  0
LINE
  5
34D
330
329
100
AcDbEntity
  8
0
  6
Continuous
 62
     0
100
AcDbLine
 10
547.3643540333404
 20
-635.9999810457235
 30
0.0
 11
567.3098376002956
 21
-635.9999810457235
 31
0.0
  0
LINE
  5
34E
330
329
100
AcDbEntity
  8
0
  6
Continuous
 62
     0
100
AcDbLine
 10
578.1573771787472
 20
-635.9999810457235
 30
0.0
 11
598.1028560965402
 21
-635.9999810457235
 31
0.0
  0
LINE
  5
34F
330
329
100
AcDbEntity
  8
0
  6
Continuous
 62
     0
100
AcDbLine
 10
610.00016111135
 20
-635.9999810457235
 30
0.0
 11
622.5972505033835
 21
-635.9999810457235
 31
0.0
  0
LINE
  5
350
330
329
100
AcDbEntity
  8
0
  6
Continuous
 62
     0
100
AcDbLine
 10
629.7122100041083
 20
-635.9999810457235
 30
0.0
 11
646.9402434745278
 21
-635.9999810457235
 31
0.0
  0
LINE
  5
351
330
329
100
AcDbEntity
  8
0
  6
Continuous
 62
     0
100
AcDbLine
 10
668.7622335651724
 20
-635.9999810457235
 30
0.0
 11
688.6166867199411
 21
-635.9999810457235
 31
0.0
  0
LINE
  5
352
330
329
100
AcDbEntity
  8
0
  6
Continuous
 62
     0
100
AcDbLine
 10
694.7624054861477
 20
-635.9999810457235
 30
0.0
 11
696.515421136754
 21
-635.9999810457235
 31
0.0
  0
ENDBLK
  5
353
330
329
100
AcDbEntity
  8
0
  6
ByBlock
 62
     0
370
    -2
100
AcDbBlockEnd
  0
BLOCK
  5
48B
330
489
100
AcDbEntity
  8
0
370
     0
100
AcDbBlockBegin
  2
GENAXEH
 70
     0
 10
0.0
 20
0.0
 30
0.0
  3
GENAXEH
  1

  0
LINE
  5
48A
330
489
100
AcDbEntity
  8
0
100
AcDbLine
 10
-1.0
 20
0.0
 30
0.0
 11
1.0
 21
0.0
 31
0.0
  0
ENDBLK
  5
48C
330
489
100
AcDbEntity
  8
0
370
     0
100
AcDbBlockEnd
  0
ENDSEC
  0
SECTION
  2
ENTITIES
  0
DIMENSION
  5
9C
330
A
100
AcDbEntity
  8
PV
  6
Continuous
 62
     7
100
AcDbDimension
  2
*D1
 10
-234.3699576148403
 20
382.1183052623777
 30
0.0
 11
-136.8698699662132
 21
382.1183052623777
 31
0.0
 70
   160
  1
(195)
 71
     5
 41
0.9000000901137655
 42
0.0
  3
MXDIMSTYLE
100
AcDbAlignedDimension
 13
-39.36985470742421
 23
462.5710945690183
 33
0.0
 14
-234.3699576148403
 24
383.547809656909
 34
0.0
100
AcDbRotatedDimension
1001
ACAD
1000
DSTYLE
1002
{
1070
     6
1000
_OPEN30
1070
     7
1000
_OPEN30
1070
    41
1040
2.77
1070
    44
1040
1.198883056640625
1070
    78
1070
     0
1070
   140
1040
4.167180061340332
1070
   144
1040
1.0
1070
   173
1070
     1
1070
   271
1070
     0
1070
   340
1005
96
1070
   341
1005
8E
1002
}
  0
DIMENSION
  5
AC
330
A
100
AcDbEntity
  8
PV
  6
Continuous
 62
     7
100
AcDbDimension
  2
*D3
 10
-405.8697388807017
 20
-32.6666097442326
 30
0.0
 11
-509.349596429773
 21
-32.6666097442326
 31
0.0
 70
   160
  1
(29)
 71
     5
 41
0.9000000901137655
 42
0.0
  3
MXDIMSTYLE
100
AcDbAlignedDimension
 13
-434.3697380313355
 23
-175.7340078155216
 33
0.0
 14
-405.8697388807017
 24
-201.7339772979435
 34
0.0
100
AcDbRotatedDimension
1001
ACAD
1000
DSTYLE
1002
{
1070
     6
1000
_OPEN30
1070
     7
1000
_OPEN30
1070
    41
1040
2.77
1070
    44
1040
1.198883056640625
1070
    78
1070
     0
1070
   140
1040
4.167180061340332
1070
   144
1040
1.0
1070
   173
1070
     1
1070
   271
1070
     0
1070
   340
1005
96
1070
   341
1005
8E
1002
}
  0
DIMENSION
  5
B6
330
A
100
AcDbEntity
  8
PV
  6
Continuous
 62
     7
100
AcDbDimension
  2
*D4
 10
-651.3599654292034
 20
-143.1683765762287
 30
0.0
 11
-913.8530962862601
 21
-274.0802615132395
 31
0.0
 70
   163
  1
<>
 71
     5
 41
0.9000000901137655
 42
369.9999389648437
  3
MXDIMSTYLE
100
AcDbDiametricDimension
 15
-982.4664826848422
 25
-308.2994721875228
 35
0.0
 40
0.0
1001
ACAD
1000
DSTYLE
1002
{
1070
     6
1000
_OPEN30
1070
     7
1000
_OPEN30
1070
    41
1040
2.77
1070
   140
1040
4.167180061340332
1070
   144
1040
1.000000549040235
1070
   173
1070
     1
1070
   271
1070
     0
1070
   284
1070
     8
1070
   289
1070
     2
1070
   341
1005
8E
1002
}
  0
DIMENSION
  5
C4
330
A
100
AcDbEntity
  8
PV
  6
Continuous
 62
     7
100
AcDbDimension
  2
*D5
 10
323.7011622279536
 20
-415.7329893191757
 30
0.0
 11
323.7011622279536
 21
-195.7335212309918
 31
0.0
 70
   160
  1
<>
 71
     5
 41
0.9000000901137655
 42
439.9988708496094
  3
MXDIMSTYLE
100
AcDbAlignedDimension
 13
15.63008678850048
 23
24.26586841744568
 33
0.0
 14
32.63014782365673
 24
-415.7329893191757
 34
0.0
 50
90.0
100
AcDbRotatedDimension
1001
ACAD
1000
DSTYLE
1002
{
1070
     6
1000
_OPEN30
1070
     7
1000
_OPEN30
1070
    41
1040
2.77
1070
    44
1040
1.198867797851562
1070
   140
1040
4.167180061340332
1070
   144
1040
1.000000029802322
1070
   173
1070
     1
1070
   271
1070
     0
1070
   284
1070
     8
1070
   340
1005
BE
1070
   341
1005
8E
1002
}
  0
DIMENSION
  5
D2
330
A
100
AcDbEntity
  8
PV
  6
Continuous
 62
     7
100
AcDbDimension
  2
*D6
 10
225.6301507464006
 20
321.468740419485
 30
0.0
 11
-90.11979991585793
 21
321.468740419485
 31
0.0
 70
   160
  1
<>
 71
     5
 41
0.9000000901137655
 42
631.4999389648437
  3
MXDIMSTYLE
100
AcDbAlignedDimension
 13
-405.8697388807017
 23
-201.7339573344213
 33
0.0
 14
225.6301507464006
 24
-201.7339573344213
 34
0.0
100
AcDbRotatedDimension
1001
ACAD
1000
DSTYLE
1002
{
1070
     6
1000
_OPEN30
1070
     7
1000
_OPEN30
1070
    41
1040
2.77
1070
    44
1040
1.198867797851562
1070
   140
1040
4.167180061340332
1070
   144
1040
1.00000007812787
1070
   173
1070
     1
1070
   271
1070
     0
1070
   284
1070
     8
1070
   340
1005
CC
1070
   341
1005
8E
1002
}
  0
DIMENSION
  5
DF
330
A
100
AcDbEntity
  8
PV
  6
Continuous
 62
     7
100
AcDbDimension
  2
*D7
 10
-34.36997120469894
 20
255.3890915099057
 30
0.0
 11
-134.3699270972622
 21
255.3890915099057
 31
0.0
 70
   160
  1
<>
 71
     5
 41
0.9000000901137655
 42
200.0
  3
MXDIMSTYLE
100
AcDbAlignedDimension
 13
-234.3699576148403
 23
194.7031784239682
 33
0.0
 14
-34.36997120469894
 24
104.2659225645932
 34
0.0
100
AcDbRotatedDimension
1001
ACAD
1000
DSTYLE
1002
{
1070
     6
1000
_OPEN30
1070
     7
1000
_OPEN30
1070
    41
1040
2.77
1070
    44
1040
1.198867797851562
1070
   140
1040
4.167180061340332
1070
   144
1040
1.000000067949297
1070
   173
1070
     1
1070
   271
1070
     0
1070
   284
1070
     8
1070
   340
1005
CC
1070
   341
1005
8E
1002
}
  0
DIMENSION
  5
EC
330
A
100
AcDbEntity
  8
PV
  6
Continuous
 62
     7
100
AcDbDimension
  2
*D8
 10
-234.3699576148403
 20
255.3890915099057
 30
0.0
 11
-314.369830776161
 21
255.3890915099057
 31
0.0
 70
   160
  1
<>
 71
     5
 41
0.9000000901137655
 42
159.9998474121093
  3
MXDIMSTYLE
100
AcDbAlignedDimension
 13
-394.3698002585828
 23
-40.73404691782866
 33
0.0
 14
-234.3699576148403
 24
194.7031784239682
 34
0.0
100
AcDbRotatedDimension
1001
ACAD
1000
DSTYLE
1002
{
1070
     6
1000
_OPEN30
1070
     7
1000
_OPEN30
1070
    41
1040
2.77
1070
    44
1040
1.198867797851562
1070
   140
1040
4.167180061340332
1070
   144
1040
1.000000029802322
1070
   173
1070
     1
1070
   271
1070
     0
1070
   284
1070
     8
1070
   340
1005
96
1070
   341
1005
8E
1002
}
  0
DIMENSION
  5
F9
330
A
100
AcDbEntity
  8
PV
  6
Continuous
 62
     7
100
AcDbDimension
  2
*D9
 10
-1072.455381856698
 20
184.2660772721147
 30
0.0
 11
-1072.455381856698
 21
-115.7334470828476
 31
0.0
 70
   160
  1
<>
 71
     5
 41
0.9000000901137655
 42
599.9990844726562
  3
MXDIMSTYLE
100
AcDbAlignedDimension
 13
-936.9142136438076
 23
-415.7329893191757
 33
0.0
 14
-896.9140000207607
 24
184.2660772721147
 34
0.0
 50
90.0
100
AcDbRotatedDimension
1001
ACAD
1000
DSTYLE
1002
{
1070
     6
1000
_OPEN30
1070
     7
1000
_OPEN30
1070
    41
1040
2.77
1070
    44
1040
1.198867797851562
1070
   140
1040
4.167180061340332
1070
   144
1040
1.000000029802322
1070
   173
1070
     1
1070
   271
1070
     0
1070
   284
1070
     8
1070
   340
1005
CC
1070
   341
1005
8E
1002
}
  0
DIMENSION
  5
109
330
A
100
AcDbEntity
  8
PV
  6
Continuous
 62
     7
100
AcDbDimension
  2
*D10
 10
98.95257273457728
 20
-415.7329893191757
 30
0.0
 11
98.95257273457728
 21
-390.7329602917156
 31
0.0
 70
   160
  1
(50)
 71
     5
 41
0.9000000901137655
 42
0.0
  3
MXDIMSTYLE
100
AcDbAlignedDimension
 13
-21.80243977762976
 23
-365.7329297741374
 33
0.0
 14
32.63014689229212
 24
-415.7329893191757
 34
0.0
 50
90.0
100
AcDbRotatedDimension
1001
ACAD
1000
DSTYLE
1002
{
1070
     6
1000
_OPEN30
1070
     7
1000
_OPEN30
1070
    41
1040
2.77
1070
    44
1040
1.198867797851562
1070
    78
1070
     0
1070
   140
1040
4.167180061340332
1070
   144
1040
1.0
1070
   173
1070
     1
1070
   271
1070
     0
1070
   340
1005
96
1070
   341
1005
8E
1002
}
  0
DIMENSION
  5
118
330
A
100
AcDbEntity
  8
PV
  6
Continuous
 62
     7
100
AcDbDimension
  2
*D11
 10
-394.3698002585828
 20
-508.9921723308512
 30
0.0
 11
-364.369893599451
 21
-508.9921723308512
 31
0.0
 70
   160
  1
<>
 71
     5
 41
0.9000000901137655
 42
59.99981689453125
  3
MXDIMSTYLE
100
AcDbAlignedDimension
 13
-334.3699851521854
 23
-425.7330170574136
 33
0.0
 14
-394.3698002585828
 24
-410.7339325847574
 34
0.0
100
AcDbRotatedDimension
1001
ACAD
1000
DSTYLE
1002
{
1070
     6
1000
_OPEN30
1070
     7
1000
_OPEN30
1070
    41
1040
2.77
1070
    44
1040
1.198867797851562
1070
   140
1040
4.167180061340332
1070
   144
1040
1.000000029802322
1070
   173
1070
     1
1070
   271
1070
     0
1070
   284
1070
     8
1070
   340
1005
CC
1070
   341
1005
8E
1002
}
  0
DIMENSION
  5
125
330
A
100
AcDbEntity
  8
PV
  6
Continuous
 62
     7
100
AcDbDimension
  2
*D12
 10
-334.3699851521854
 20
-508.9921723308512
 30
0.0
 11
-273.876338768907
 21
-508.9921723308512
 31
0.0
 70
   160
  1
<>
 71
     5
 41
0.9000000901137655
 42
200.000244140625
  3
MXDIMSTYLE
100
AcDbAlignedDimension
 13
-134.369746972032
 23
-425.7330170574136
 33
0.0
 14
-334.3699851521854
 24
-425.7330170574136
 34
0.0
100
AcDbRotatedDimension
1001
ACAD
1000
DSTYLE
1002
{
1070
     6
1000
_OPEN30
1070
     7
1000
_OPEN30
1070
    41
1040
2.77
1070
    44
1040
1.198867797851562
1070
   140
1040
4.167180061340332
1070
   144
1040
1.000000029802322
1070
   173
1070
     1
1070
   271
1070
     0
1070
   284
1070
     8
1070
   340
1005
CC
1070
   341
1005
8E
1002
}
  0
DIMENSION
  5
132
330
A
100
AcDbEntity
  8
PV
  6
Continuous
 62
     7
100
AcDbDimension
  2
*D13
 10
-394.3698002585828
 20
-554.1123797263985
 30
0.0
 11
-314.3698355445279
 21
-554.1123797263985
 31
0.0
 70
   160
  1
<>
 71
     5
 41
0.9000000901137655
 42
159.9998474121093
  3
MXDIMSTYLE
100
AcDbAlignedDimension
 13
-234.3699576148403
 23
-371.9532915916329
 33
0.0
 14
-394.3698002585828
 24
-410.7339312400704
 34
0.0
100
AcDbRotatedDimension
1001
ACAD
1000
DSTYLE
1002
{
1070
     6
1000
_OPEN30
1070
     7
1000
_OPEN30
1070
    41
1040
2.77
1070
    44
1040
1.198867797851548
1070
   140
1040
4.167180061340332
1070
   144
1040
1.000000029802322
1070
   173
1070
     1
1070
   271
1070
     0
1070
   284
1070
     8
1070
   340
1005
96
1070
   341
1005
8E
1002
}
  0
DIMENSION
  5
13F
330
A
100
AcDbEntity
  8
PV
  6
Continuous
 62
     7
100
AcDbDimension
  2
*D14
 10
-936.9142176832491
 20
-557.6208635085563
 30
0.0
 11
-829.6114904608062
 21
-557.6208635085563
 31
0.0
 70
   160
  1
<>
 71
     5
 41
0.9000000901137655
 42
240.0
  3
MXDIMSTYLE
100
AcDbAlignedDimension
 13
-696.9142248358062
 23
-415.7329850905876
 33
0.0
 14
-936.9142176832491
 24
-415.7329850905876
 34
0.0
100
AcDbRotatedDimension
1001
ACAD
1000
DSTYLE
1002
{
1070
     6
1000
_OPEN30
1070
     7
1000
_OPEN30
1070
    41
1040
2.77
1070
    44
1040
1.198867797851548
1070
   140
1040
4.167180061340332
1070
   144
1040
1.000000029802322
1070
   173
1070
     1
1070
   271
1070
     0
1070
   284
1070
     8
1070
   340
1005
BE
1070
   341
1005
8E
1002
}
  0
DIMENSION
  5
14C
330
A
100
AcDbEntity
  8
PV
  6
Continuous
 62
     7
100
AcDbDimension
  2
*D15
 10
-916.9141572441411
 20
-508.9921723308512
 30
0.0
 11
-816.9140411342976
 21
-508.9921723308512
 31
0.0
 70
   160
  1
<>
 71
     5
 41
0.9000000901137655
 42
200.0001525878906
  3
MXDIMSTYLE
100
AcDbAlignedDimension
 13
-716.9140106167194
 23
-425.7330170574136
 33
0.0
 14
-916.9141572441411
 24
-425.7330170574136
 34
0.0
100
AcDbRotatedDimension
1001
ACAD
1000
DSTYLE
1002
{
1070
     6
1000
_OPEN30
1070
     7
1000
_OPEN30
1070
    41
1040
2.77
1070
    44
1040
1.198867797851562
1070
   140
1040
4.167180061340332
1070
   144
1040
1.000000029802322
1070
   173
1070
     1
1070
   271
1070
     0
1070
   284
1070
     8
1070
   340
1005
CC
1070
   341
1005
8E
1002
}
  0
LEADER
  5
14D
330
A
100
AcDbEntity
  8
PV
  6
Continuous
 62
     7
100
AcDbLeader
  3
MXDIMSTYLE
 74
     0
 76
     3
 10
-341.1777337930559
 20
96.32289518583423
 30
0.0
 10
-485.3573576166139
 20
189.0534442934936
 30
0.0
 10
-593.3301817132936
 20
189.0534442934936
 30
0.0
1001
ACAD
1000
DSTYLE
1002
{
1070
     6
1000
_OPEN30
1070
     7
1000
_OPEN30
1070
    41
1040
2.77
1070
   173
1070
     1
1070
   341
1005
8E
1002
}
  0
MTEXT
  5
14E
330
A
100
AcDbEntity
  8
PV
  6
Continuous
 62
     7
100
AcDbMText
 10
-593.3301817132936
 20
170.3004450698143
 30
0.0
 40
24.95999834060674
 41
0.0
 71
     4
 72
     1
  1
\W0.855;\A1;\P
 73
     1
 44
0.9015865825732978
1001
ACAD
1000
MTEXTBEGIN
1070
    73
1070
     1
1070
    44
1040
0.9015865825732978
1070
    74
1070
     0
1000
MTEXTEND
  0
LEADER
  5
14F
330
A
100
AcDbEntity
  8
PV
  6
Continuous
 62
     7
100
AcDbLeader
  3
MXDIMSTYLE
 74
     0
 76
     3
 10
-337.9282786260493
 20
30.11907287833239
 30
0.0
 10
-492.4721265957209
 20
110.2815777899698
 30
0.0
 10
-669.1975446865411
 20
110.2815777899698
 30
0.0
1001
ACAD
1000
DSTYLE
1002
{
1070
     6
1000
_OPEN30
1070
     7
1000
_OPEN30
1070
    41
1040
2.77
1070
   173
1070
     1
1070
   341
1005
8E
1002
}
  0
MTEXT
  5
150
330
A
100
AcDbEntity
  8
PV
  6
Continuous
 62
     7
100
AcDbMText
 10
-669.1975446865411
 20
91.52857856629045
 30
0.0
 40
24.95999834060674
 41
0.0
 71
     4
 72
     1
  1
\W0.855;\A1;\P
 73
     1
 44
0.9015865825732978
1001
ACAD
1000
MTEXTBEGIN
1070
    73
1070
     1
1070
    44
1040
0.9015865825732978
1070
    74
1070
     0
1000
MTEXTEND
  0
LEADER
  5
151
330
A
100
AcDbEntity
  8
PV
  6
Continuous
 62
     7
100
AcDbLeader
  3
MXDIMSTYLE
 74
     0
 76
     3
 10
-706.2526137304852
 20
-228.3528558810036
 30
0.0
 10
-587.1270307119261
 20
-128.1411515617826
 30
0.0
 10
-463.5426038320432
 20
-128.1411515617826
 30
0.0
1001
ACAD
1000
DSTYLE
1002
{
1070
     6
1000
_OPEN30
1070
     7
1000
_OPEN30
1070
    41
1040
2.77
1070
   173
1070
     1
1070
   341
1005
8E
1002
}
  0
MTEXT
  5
152
330
A
100
AcDbEntity
  8
PV
  6
Continuous
 62
     7
100
AcDbMText
 10
-463.5426038320432
 20
-146.8941507854619
 30
0.0
 40
24.95999834060674
 41
0.0
 71
     4
 72
     1
  1
\W0.855;\A1;\P
 73
     1
 44
0.9015865825732978
1001
ACAD
1000
MTEXTBEGIN
1070
    73
1070
     1
1070
    44
1040
0.9015865825732978
1070
    74
1070
     0
1000
MTEXTEND
  0
LEADER
  5
153
330
A
100
AcDbEntity
  8
PV
  6
Continuous
 62
     7
100
AcDbLeader
  3
MXDIMSTYLE
 74
     0
 76
     3
 10
160.012659061954
 20
-211.8030392166559
 30
0.0
 10
329.5053230836398
 20
96.88703577112084
 30
0.0
 10
654.6257454469211
 20
96.88703577112084
 30
0.0
1001
ACAD
1000
DSTYLE
1002
{
1070
     6
1000
_OPEN30
1070
     7
1000
_OPEN30
1070
    41
1040
2.77
1070
   173
1070
     1
1070
   341
1005
8E
1002
}
  0
MTEXT
  5
154
330
A
100
AcDbEntity
  8
PV
  6
Continuous
 62
     7
100
AcDbMText
 10
654.6257454469211
 20
78.13403654744151
 30
0.0
 40
24.95999834060674
 41
0.0
 71
     4
 72
     1
  1
\W0.855;\A1;\P
 73
     1
 44
0.9015865825732978
1001
ACAD
1000
MTEXTBEGIN
1070
    73
1070
     1
1070
    44
1040
0.9015865825732978
1070
    74
1070
     0
1000
MTEXTEND
  0
LEADER
  5
155
330
A
100
AcDbEntity
  8
PV
  6
Continuous
 62
     7
100
AcDbLeader
  3
MXDIMSTYLE
 74
     0
 76
     3
 10
-39.36985698561695
 20
481.2981144025569
 30
0.0
 10
53.57811113819202
 20
392.4597479540412
 30
0.0
 10
325.186265435067
 20
392.4597479540412
 30
0.0
1001
ACAD
1000
DSTYLE
1002
{
1070
     6
1000
_OPEN30
1070
     7
1000
_OPEN30
1070
    41
1040
2.77
1070
   173
1070
     1
1070
   341
1005
8E
1002
}
  0
MTEXT
  5
156
330
A
100
AcDbEntity
  8
PV
  6
Continuous
 62
     7
100
AcDbMText
 10
325.186265435067
 20
373.7067487303618
 30
0.0
 40
24.95999834060674
 41
0.0
 71
     4
 72
     1
  1
\W0.855;\A1;\P
 73
     1
 44
0.9015865825732978
1001
ACAD
1000
MTEXTBEGIN
1070
    73
1070
     1
1070
    44
1040
0.9015865825732978
1070
    74
1070
     0
1000
MTEXTEND
  0
LEADER
  5
157
330
A
100
AcDbEntity
  8
PV
  6
Continuous
 62
     7
100
AcDbLeader
  3
MXDIMSTYLE
 74
     0
 76
     3
 10
-34.36997060892299
 20
24.26586830871201
 30
0.0
 10
15.1804549529953
 20
190.2022571037166
 30
0.0
 10
164.7809493377609
 20
190.2022571037166
 30
0.0
1001
ACAD
1000
DSTYLE
1002
{
1070
     6
1000
_OPEN30
1070
     7
1000
_OPEN30
1070
    41
1040
2.77
1070
   173
1070
     1
1070
   341
1005
8E
1002
}
  0
MTEXT
  5
158
330
A
100
AcDbEntity
  8
PV
  6
Continuous
 62
     7
100
AcDbMText
 10
164.7809493377609
 20
171.4492578800372
 30
0.0
 40
24.95999834060674
 41
0.0
 71
     4
 72
     1
  1
\W0.855;\A1;\P
 73
     1
 44
0.9015865825732978
1001
ACAD
1000
MTEXTBEGIN
1070
    73
1070
     1
1070
    44
1040
0.9015865825732978
1070
    74
1070
     0
1000
MTEXTEND
  0
LEADER
  5
159
330
A
100
AcDbEntity
  8
PV
  6
Continuous
 62
     7
100
AcDbLeader
  3
MXDIMSTYLE
 74
     0
 76
     3
 10
-716.9140222782724
 20
-415.7329931268816
 30
0.0
 10
-628.03224796488
 20
-504.4086795469623
 30
0.0
 10
-473.7554993076535
 20
-504.4086795469623
 30
0.0
1001
ACAD
1000
DSTYLE
1002
{
1070
     6
1000
_OPEN30
1070
     7
1000
_OPEN30
1070
    41
1040
2.77
1070
   173
1070
     1
1070
   341
1005
8E
1002
}
  0
MTEXT
  5
15A
330
A
100
AcDbEntity
  8
PV
  6
Continuous
 62
     7
100
AcDbMText
 10
-473.7554993076535
 20
-523.1616787706417
 30
0.0
 40
24.95999834060674
 41
0.0
 71
     4
 72
     1
  1
\W0.855;\A1;\P
 73
     1
 44
0.9015865825732978
1001
ACAD
1000
MTEXTBEGIN
1070
    73
1070
     1
1070
    44
1040
0.9015865825732978
1070
    74
1070
     0
1000
MTEXTEND
  0
LEADER
  5
15B
330
A
100
AcDbEntity
  8
PV
  6
Continuous
 62
     7
100
AcDbLeader
  3
MXDIMSTYLE
 74
     0
 76
     3
 10
-234.369973418248
 20
184.2660810895508
 30
0.0
 10
-474.353095468881
 20
269.1074329882999
 30
0.0
 10
-641.768622812631
 20
269.1074329882999
 30
0.0
1001
ACAD
1000
DSTYLE
1002
{
1070
     6
1000
_OPEN30
1070
     7
1000
_OPEN30
1070
    41
1040
2.77
1070
   173
1070
     1
1070
   341
1005
8E
1002
}
  0
MTEXT
  5
15C
330
A
100
AcDbEntity
  8
PV
  6
Continuous
 62
     7
100
AcDbMText
 10
-641.768622812631
 20
250.3544337646206
 30
0.0
 40
24.95999834060674
 41
0.0
 71
     4
 72
     1
  1
\W0.855;\A1;\P
 73
     1
 44
0.9015865825732978
1001
ACAD
1000
MTEXTBEGIN
1070
    73
1070
     1
1070
    44
1040
0.9015865825732978
1070
    74
1070
     0
1000
MTEXTEND
  0
HATCH
  5
15D
330
A
100
AcDbEntity
  8
PV
  6
Continuous
 62
     7
100
AcDbHatch
 10
0.0
 20
0.0
 30
0.0
210
0.0
220
0.0
230
1.0
  2
HONEY
 70
     0
 71
     0
 91
        1
 92
        2
 72
     0
 73
     1
 93
        4
 10
14.63013796120471
 20
538.297927072706
 10
14.63013796120471
 20
618.298168829138
 10
-49.36986203879529
 20
618.298168829138
 10
-49.36986203879529
 20
538.297927072706
 97
        0
 75
     0
 76
     1
 52
359.9999389648437
 41
55.42559838570164
 77
     0
 78
     3
 53
359.9999389648437
 43
0.0
 44
0.0
 45
263.9645746579739
 46
152.3996433127719
 79
     2
 49
175.9762748746027
 49
-351.9525497492054
 53
119.9999389648437
 43
0.0
 44
0.0
 45
-263.9642499655347
 46
152.4002056965734
 79
     2
 49
175.9762748746027
 49
-351.9525497492054
 53
59.99993896484375
 43
0.0
 44
0.0
 45
0.0003246924393352
 46
304.7998490093454
 79
     2
 49
-351.9525497492054
 49
175.9762748746027
 98
        1
 10
0.0
 20
0.0
  0
HATCH
  5
15E
330
A
100
AcDbEntity
  8
PV
  6
Continuous
 62
     7
100
AcDbHatch
 10
0.0
 20
0.0
 30
0.0
210
0.0
220
0.0
230
1.0
  2
HONEY
 70
     0
 71
     0
 91
        1
 92
        2
 72
     0
 73
     1
 93
        4
 10
-49.36986203879529
 20
538.297927072706
 10
14.63013796120471
 20
538.297927072706
 10
14.63013796120471
 20
618.298168829138
 10
-49.36986203879529
 20
618.298168829138
 97
        0
 75
     0
 76
     1
 52
359.9999389648437
 41
55.42559838570164
 77
     0
 78
     3
 53
359.9999389648437
 43
0.0
 44
0.0
 45
263.9645746579739
 46
152.3996433127719
 79
     2
 49
175.9762748746027
 49
-351.9525497492054
 53
119.9999389648437
 43
0.0
 44
0.0
 45
-263.9642499655347
 46
152.4002056965734
 79
     2
 49
175.9762748746027
 49
-351.9525497492054
 53
59.99993896484375
 43
0.0
 44
0.0
 45
0.0003246924393352
 46
304.7998490093454
 79
     2
 49
-351.9525497492054
 49
175.9762748746027
 98
        1
 10
0.0
 20
0.0
  0
HATCH
  5
15F
330
A
100
AcDbEntity
  8
PV
  6
Continuous
 62
     7
100
AcDbHatch
 10
0.0
 20
0.0
 30
0.0
210
0.0
220
0.0
230
1.0
  2
ANSI37
 70
     0
 71
     0
 91
        1
 92
        2
 72
     0
 73
     1
 93
        4
 10
31.63011265903376
 20
550.7981708407946
 10
31.63011265903376
 20
606.2981691867658
 10
-19.59678210029655
 20
606.2981691867658
 10
-19.59678210029655
 20
550.7981708407946
 97
        0
 75
     0
 76
     1
 52
0.0000012522390307
 41
5.999999731075114
 77
     0
 78
     2
 53
45.00000125223903
 43
0.0
 44
0.0
 45
-13.47038387225472
 46
13.47038328344556
 79
     0
 53
135.000001252239
 43
0.0
 44
0.0
 45
-13.47038328344556
 46
-13.47038387225472
 79
     0
 98
        1
 10
0.0
 20
0.0
  0
HATCH
  5
160
330
A
100
AcDbEntity
  8
PV
  6
Continuous
 62
     7
100
AcDbHatch
 10
0.0
 20
0.0
 30
0.0
210
0.0
220
0.0
230
1.0
  2
HONEY
 70
     0
 71
     0
 91
        1
 92
        2
 72
     0
 73
     1
 93
        4
 10
14.63014368325043
 20
538.2991172582173
 10
14.63014368325043
 20
618.2986265927962
 10
-49.3698849269782
 20
618.2986265927962
 10
-49.3698849269782
 20
538.2991172582173
 97
        0
 75
     0
 76
     1
 52
0.0
 41
55.4256233579824
 77
     0
 78
     3
 53
0.0
 43
0.0
 44
0.0
 45
263.9645312423912
 46
152.3999931693078
 79
     2
 49
175.9763541615941
 49
-351.9527083231882
 53
120.0
 43
0.0
 44
0.0
 45
-263.9645312423911
 46
152.399993169308
 79
     2
 49
175.9763541615941
 49
-351.9527083231882
 53
60.0
 43
0.0
 44
0.0
 45
0.0000000000001421
 46
304.7999863386158
 79
     2
 49
-351.9527083231882
 49
175.9763541615941
 98
        1
 10
0.0
 20
0.0
  0
HATCH
  5
161
330
A
100
AcDbEntity
  8
PV
  6
Continuous
 62
     7
100
AcDbHatch
 10
0.0
 20
0.0
 30
0.0
210
0.0
220
0.0
230
1.0
  2
HONEY
 70
     0
 71
     0
 91
        1
 92
        2
 72
     0
 73
     1
 93
        4
 10
-49.3698849269782
 20
538.2991172582173
 10
14.63014368325043
 20
538.2991172582173
 10
14.63014368325043
 20
618.2986265927962
 10
-49.3698849269782
 20
618.2986265927962
 97
        0
 75
     0
 76
     1
 52
0.0
 41
55.4256233579824
 77
     0
 78
     3
 53
0.0
 43
0.0
 44
0.0
 45
263.9645312423912
 46
152.3999931693078
 79
     2
 49
175.9763541615941
 49
-351.9527083231882
 53
120.0
 43
0.0
 44
0.0
 45
-263.9645312423911
 46
152.399993169308
 79
     2
 49
175.9763541615941
 49
-351.9527083231882
 53
60.0
 43
0.0
 44
0.0
 45
0.0000000000001421
 46
304.7999863386158
 79
     2
 49
-351.9527083231882
 49
175.9763541615941
 98
        1
 10
0.0
 20
0.0
  0
HATCH
  5
162
330
A
100
AcDbEntity
  8
PV
  6
Continuous
 62
     7
100
AcDbHatch
 10
0.0
 20
0.0
 30
0.0
210
0.0
220
0.0
230
1.0
  2
ANSI37
 70
     0
 71
     0
 91
        1
 92
        2
 72
     0
 73
     1
 93
        4
 10
31.63011265903376
 20
-255.7339706500181
 10
31.63011265903376
 20
-197.7339418609755
 10
-44.36991559356703
 20
-197.7339418609755
 10
-44.36991559356703
 20
-255.7339706500181
 97
        0
 75
     0
 76
     1
 52
0.0000012522390307
 41
5.999999731075114
 77
     0
 78
     2
 53
45.00000125223903
 43
0.0
 44
0.0
 45
-13.47038387225472
 46
13.47038328344556
 79
     0
 53
135.000001252239
 43
0.0
 44
0.0
 45
-13.47038328344556
 46
-13.47038387225472
 79
     0
 98
        1
 10
0.0
 20
0.0
  0
HATCH
  5
163
330
A
100
AcDbEntity
  8
PV
  6
Continuous
 62
     7
100
AcDbHatch
 10
0.0
 20
0.0
 30
0.0
210
0.0
220
0.0
230
1.0
  2
HONEY
 70
     0
 71
     0
 91
        1
 92
        2
 72
     0
 73
     1
 93
        4
 10
14.63014368325043
 20
-265.732993789524
 10
14.63014368325043
 20
-185.7334844549452
 10
-49.3698849269782
 20
-185.7334844549452
 10
-49.3698849269782
 20
-265.732993789524
 97
        0
 75
     0
 76
     1
 52
0.0
 41
55.4256233579824
 77
     0
 78
     3
 53
0.0
 43
0.0
 44
0.0
 45
263.9645312423912
 46
152.3999931693078
 79
     2
 49
175.9763541615941
 49
-351.9527083231882
 53
120.0
 43
0.0
 44
0.0
 45
-263.9645312423911
 46
152.399993169308
 79
     2
 49
175.9763541615941
 49
-351.9527083231882
 53
60.0
 43
0.0
 44
0.0
 45
0.0000000000001421
 46
304.7999863386158
 79
     2
 49
-351.9527083231882
 49
175.9763541615941
 98
        1
 10
0.0
 20
0.0
  0
HATCH
  5
164
330
A
100
AcDbEntity
  8
PV
  6
Continuous
 62
     7
100
AcDbHatch
 10
0.0
 20
0.0
 30
0.0
210
0.0
220
0.0
230
1.0
  2
HONEY
 70
     0
 71
     0
 91
        1
 92
        2
 72
     0
 73
     1
 93
        4
 10
-49.3698849269782
 20
-265.732993789524
 10
14.63014368325043
 20
-265.732993789524
 10
14.63014368325043
 20
-185.7334844549452
 10
-49.3698849269782
 20
-185.7334844549452
 97
        0
 75
     0
 76
     1
 52
0.0
 41
55.4256233579824
 77
     0
 78
     3
 53
0.0
 43
0.0
 44
0.0
 45
263.9645312423912
 46
152.3999931693078
 79
     2
 49
175.9763541615941
 49
-351.9527083231882
 53
120.0
 43
0.0
 44
0.0
 45
-263.9645312423911
 46
152.399993169308
 79
     2
 49
175.9763541615941
 49
-351.9527083231882
 53
60.0
 43
0.0
 44
0.0
 45
0.0000000000001421
 46
304.7999863386158
 79
     2
 49
-351.9527083231882
 49
175.9763541615941
 98
        1
 10
0.0
 20
0.0
  0
MTEXT
  5
165
102
{ACAD_XDICTIONARY
360
4BA
102
}
330
A
100
AcDbEntity
  8
PV
  6
Continuous
 62
     7
100
AcDbMText
 10
339.1963091648448
 20
128.3013744264431
 30
0.0
 40
25.00308534493788
 41
0.0
 71
     1
 72
     1
  1
\W0.940;\A1;ﾓ-ﾀ\P(AC200V,3\U+2205,60W)
 73
     1
 44
0.9015865947471841
1001
ACAD
1000
MTEXTBEGIN
1070
    73
1070
     1
1070
    44
1040
0.9015865947471841
1070
    74
1070
     0
1000
MTEXTEND
  0
MTEXT
  5
166
330
A
100
AcDbEntity
  8
PV
  6
Continuous
 62
     7
100
AcDbMText
 10
62.52474515248393
 20
425.9349104781475
 30
0.0
 40
25.00308534493788
 41
0.0
 71
     1
 72
     1
  1
\W1.069;\A1;ｵｲﾙドﾚﾝ口(1/2B)
 73
     1
 44
0.9015865947471841
1001
ACAD
1000
MTEXTBEGIN
1070
    73
1070
     1
1070
    44
1040
0.9015865947471841
1070
    74
1070
     0
1000
MTEXTEND
  0
MTEXT
  5
167
330
A
100
AcDbEntity
  8
PV
  6
Continuous
 62
     7
100
AcDbMText
 10
-568.3668453174159
 20
218.7587691915402
 30
0.0
 40
25.00308534493788
 41
0.0
 71
     1
 72
     1
  1
\W0.712;\A1;吊り穴
 73
     1
 44
0.9015865947471841
1001
ACAD
1000
MTEXTBEGIN
1070
    73
1070
     1
1070
    44
1040
0.9015865947471841
1070
    74
1070
     0
1000
MTEXTEND
  0
MTEXT
  5
168
330
A
100
AcDbEntity
  8
PV
  6
Continuous
 62
     7
100
AcDbMText
 10
-573.2979723955862
 20
-99.00876894567105
 30
0.0
 40
25.00308534493788
 41
0.0
 71
     1
 72
     1
  1
\W0.610;\A1;ｵｲﾙﾚベﾙゲ-ジ
 73
     1
 44
0.9000000214576727
1001
ACAD
1000
MTEXTBEGIN
1070
    73
1070
     1
1070
    44
1040
0.9000000214576727
1070
    74
1070
     0
1000
MTEXTEND
  0
MTEXT
  5
169
102
{ACAD_XDICTIONARY
360
4BC
102
}
330
A
100
AcDbEntity
  8
PV
  6
Continuous
 62
     7
100
AcDbMText
 10
-656.6678752735649
 20
143.4749579586101
 30
0.0
 40
25.00308534493788
 41
0.0
 71
     1
 72
     1
  1
\W0.701;\A1;\U+220518ゲ-ジポ-ﾄ
 73
     1
 44
0.9000000214576727
1001
ACAD
1000
MTEXTBEGIN
1070
    73
1070
     1
1070
    44
1040
0.9000000214576727
1070
    74
1070
     0
1000
MTEXTEND
  0
MTEXT
  5
16A
102
{ACAD_XDICTIONARY
360
4BE
102
}
330
A
100
AcDbEntity
  8
PV
  6
Continuous
 62
     7
100
AcDbMText
 10
-616.7916107205542
 20
-472.2179863387946
 30
0.0
 40
25.00308534493788
 41
0.0
 71
     1
 72
     1
  1
\W0.996;\A1;4-\U+220512ｷﾘ
 73
     1
 44
0.9015865947471841
1001
ACAD
1000
MTEXTBEGIN
1070
    73
1070
     1
1070
    44
1040
0.9015865947471841
1070
    74
1070
     0
1000
MTEXTEND
  0
MTEXT
  5
16B
330
A
100
AcDbEntity
  8
PV
  6
Continuous
 62
     7
100
AcDbMText
 10
667.3158267860767
 20
626.8993820280021
 30
0.0
 40
25.00308534493788
 41
0.0
 71
     1
 72
     1
  1
\W0.879;\A1;TRO-80
 73
     1
 44
0.9015865947471841
1001
ACAD
1000
MTEXTBEGIN
1070
    73
1070
     1
1070
    44
1040
0.9015865947471841
1070
    74
1070
     0
1000
MTEXTEND
  0
MTEXT
  5
16C
330
A
100
AcDbEntity
  8
PV
  6
Continuous
 62
     7
100
AcDbMText
 10
669.6213455153481
 20
450.1007117599036
 30
0.0
 40
25.00308534493788
 41
0.0
 71
     1
 72
     1
  1
\W0.914;\A1;ULVOIL R-7,R-4
 73
     1
 44
0.9015865947471841
1001
ACAD
1000
MTEXTBEGIN
1070
    73
1070
     1
1070
    44
1040
0.9015865947471841
1070
    74
1070
     0
1000
MTEXTEND
  0
MTEXT
  5
16D
330
A
100
AcDbEntity
  8
PV
  6
Continuous
 62
     7
100
AcDbMText
 10
500.7630666676859
 20
449.8408851074908
 30
0.0
 40
25.00308534493788
 41
0.0
 71
     1
 72
     1
  1
\W0.712;\A1;使用油
 73
     1
 44
0.9015865947471841
1001
ACAD
1000
MTEXTBEGIN
1070
    73
1070
     1
1070
    44
1040
0.9015865947471841
1070
    74
1070
     0
1000
MTEXTEND
  0
MTEXT
  5
16E
330
A
100
AcDbEntity
  8
PV
  6
Continuous
 62
     7
100
AcDbMText
 10
669.9939259371322
 20
556.0979925364854
 30
0.0
 40
25.00308534493788
 41
0.0
 71
     1
 72
     1
  1
\W0.923;\A1;80A(VG80)
 73
     1
 44
0.9015865947471841
1001
ACAD
1000
MTEXTBEGIN
1070
    73
1070
     1
1070
    44
1040
0.9015865947471841
1070
    74
1070
     0
1000
MTEXTEND
  0
MTEXT
  5
16F
330
A
100
AcDbEntity
  8
PV
  6
Continuous
 62
     7
100
AcDbMText
 10
669.9939259371322
 20
592.0978999108703
 30
0.0
 40
25.00308534493788
 41
0.0
 71
     1
 72
     1
  1
\W0.923;\A1;80A(VG80)
 73
     1
 44
0.9015865947471841
1001
ACAD
1000
MTEXTBEGIN
1070
    73
1070
     1
1070
    44
1040
0.9015865947471841
1070
    74
1070
     0
1000
MTEXTEND
  0
MTEXT
  5
170
330
A
100
AcDbEntity
  8
PV
  6
Continuous
 62
     7
100
AcDbMText
 10
502.9602528458228
 20
556.0979925364854
 30
0.0
 40
25.00308534493788
 41
0.0
 71
     1
 72
     1
  1
\W0.771;\A1;排気口ﾌﾗﾝジ
 73
     1
 44
0.9000000214576727
1001
ACAD
1000
MTEXTBEGIN
1070
    73
1070
     1
1070
    44
1040
0.9000000214576727
1070
    74
1070
     0
1000
MTEXTEND
  0
MTEXT
  5
171
330
A
100
AcDbEntity
  8
PV
  6
Continuous
 62
     7
100
AcDbMText
 10
502.9602528458228
 20
592.0978999108703
 30
0.0
 40
25.00308534493788
 41
0.0
 71
     1
 72
     1
  1
\W0.771;\A1;吸気口ﾌﾗﾝジ
 73
     1
 44
0.9000000214576727
1001
ACAD
1000
MTEXTBEGIN
1070
    73
1070
     1
1070
    44
1040
0.9000000214576727
1070
    74
1070
     0
1000
MTEXTEND
  0
MTEXT
  5
172
330
A
100
AcDbEntity
  8
PV
  6
Continuous
 62
     7
100
AcDbMText
 10
581.5907352236879
 20
631.757427461224
 30
0.0
 40
17.99999946355821
 41
0.0
 71
     1
 72
     1
  1
\W0.712;\A1;機種
 73
     1
 44
0.9015865540882721
1001
ACAD
1000
MTEXTBEGIN
1070
    73
1070
     1
1070
    44
1040
0.9015865540882721
1070
    74
1070
     0
1000
MTEXTEND
  0
MTEXT
  5
173
330
A
100
AcDbEntity
  8
PV
  6
Continuous
 62
     7
100
AcDbMText
 10
502.4411098969836
 20
620.6305662205647
 30
0.0
 40
17.99999946355821
 41
0.0
 71
     1
 72
     1
  1
\W0.712;\A1;仕様
 73
     1
 44
0.9015865540882721
1001
ACAD
1000
MTEXTBEGIN
1070
    73
1070
     1
1070
    44
1040
0.9015865540882721
1070
    74
1070
     0
1000
MTEXTEND
  0
MTEXT
  5
174
330
A
100
AcDbEntity
  8
PV
  6
Continuous
 62
     7
100
AcDbMText
 10
669.3766346759606
 20
414.1005926698269
 30
0.0
 40
25.0030281244806
 41
0.0
 71
     1
 72
     1
  1
\W0.855;\A1;約 75Kｇ
 73
     1
 44
0.9015865983781221
1001
ACAD
1000
MTEXTBEGIN
1070
    73
1070
     1
1070
    44
1040
0.9015865983781221
1070
    74
1070
     0
1000
MTEXTEND
  0
MTEXT
  5
175
330
A
100
AcDbEntity
  8
PV
  6
Continuous
 62
     7
100
AcDbMText
 10
670.8753323677293
 20
484.0980576247555
 30
0.0
 40
25.0030281244806
 41
0.0
 71
     1
 72
     1
  1
\W1.135;\A1;8.0 L
 73
     1
 44
0.9015865983781221
1001
ACAD
1000
MTEXTBEGIN
1070
    73
1070
     1
1070
    44
1040
0.9015865983781221
1070
    74
1070
     0
1000
MTEXTEND
  0
MTEXT
  5
176
102
{ACAD_XDICTIONARY
360
4C0
102
}
330
A
100
AcDbEntity
  8
PV
  6
Continuous
 62
     7
100
AcDbMText
 10
669.9499755840839
 20
520.0979649991403
 30
0.0
 40
25.0030281244806
 41
0.0
 71
     1
 72
     1
  1
\W0.913;\A1;AC200V,3\U+2205,60ｗ
 73
     1
 44
0.9015865983781221
1001
ACAD
1000
MTEXTBEGIN
1070
    73
1070
     1
1070
    44
1040
0.9015865983781221
1070
    74
1070
     0
1000
MTEXTEND
  0
MTEXT
  5
177
330
A
100
AcDbEntity
  8
PV
  6
Continuous
 62
     7
100
AcDbMText
 10
500.7630842311877
 20
413.8409491228774
 30
0.0
 40
25.0030281244806
 41
0.0
 71
     1
 72
     1
  1
\W0.712;\A1;重量
 73
     1
 44
0.9015865983781221
1001
ACAD
1000
MTEXTBEGIN
1070
    73
1070
     1
1070
    44
1040
0.9015865983781221
1070
    74
1070
     0
1000
MTEXTEND
  0
MTEXT
  5
178
330
A
100
AcDbEntity
  8
PV
  6
Continuous
 62
     7
100
AcDbMText
 10
502.3874769482234
 20
484.0980576247555
 30
0.0
 40
25.0030281244806
 41
0.0
 71
     1
 72
     1
  1
\W1.018;\A1;ｵｲﾙの量
 73
     1
 44
0.9015865983781221
1001
ACAD
1000
MTEXTBEGIN
1070
    73
1070
     1
1070
    44
1040
0.9015865983781221
1070
    74
1070
     0
1000
MTEXTEND
  0
MTEXT
  5
179
330
A
100
AcDbEntity
  8
PV
  6
Continuous
 62
     7
100
AcDbMText
 10
501.5073459581601
 20
520.0979649991403
 30
0.0
 40
25.0030281244806
 41
0.0
 71
     1
 72
     1
  1
\W0.806;\A1;電圧,電力
 73
     1
 44
0.9015865983781221
1001
ACAD
1000
MTEXTBEGIN
1070
    73
1070
     1
1070
    44
1040
0.9015865983781221
1070
    74
1070
     0
1000
MTEXTEND
  0
MTEXT
  5
17A
330
A
100
AcDbEntity
  8
PV
  6
Continuous
 62
     7
100
AcDbMText
 10
-625.9168247950599
 20
301.3375020820647
 30
0.0
 40
25.00308534493788
 41
0.0
 71
     1
 72
     1
  1
\W0.907;\A1;吸気口ﾌﾗﾝジ\P(VG80)
 73
     1
 44
0.9015865947471841
1001
ACAD
1000
MTEXTBEGIN
1070
    73
1070
     1
1070
    44
1040
0.9015865947471841
1070
    74
1070
     0
1000
MTEXTEND
  0
MTEXT
  5
17B
330
A
100
AcDbEntity
  8
PV
  6
Continuous
 62
     7
100
AcDbMText
 10
22.32338453883039
 20
220.3074752000726
 30
0.0
 40
25.00308534493788
 41
0.0
 71
     1
 72
     1
  1
\W0.907;\A1;排気口ﾌﾗﾝジ\P(VG80)
 73
     1
 44
0.9015865947471841
1001
ACAD
1000
MTEXTBEGIN
1070
    73
1070
     1
1070
    44
1040
0.9015865947471841
1070
    74
1070
     0
1000
MTEXTEND
  0
ELLIPSE
  5
17C
330
A
100
AcDbEntity
  8
PV
  6
Continuous
 62
     3
100
AcDbEllipse
 10
-347.2799273943922
 20
578.2981395036536
 30
0.0
 11
-0.0000000000000037
 21
-20.00001466274222
 31
0.0
210
0.0
220
0.0
230
1.0
 40
0.5
 41
3.44989410293489
 42
5.974897098347586
  0
ELLIPSE
  5
17D
330
A
100
AcDbEntity
  8
PV
  6
Continuous
 62
     3
100
AcDbEllipse
 10
-816.9142212595277
 20
26.76653972963871
 30
0.0
 11
19.99996888637639
 21
0.0
 31
0.0
210
0.0
220
0.0
230
1.0
 40
0.8650015678429669
 41
3.141592653589793
 42
6.283185307179586
  0
ELLIPSE
  5
17E
330
A
100
AcDbEntity
  8
PV
  6
Continuous
 62
     3
100
AcDbEllipse
 10
-816.9142212595277
 20
36.7663010130435
 30
0.0
 11
8.999999731779098
 21
0.0
 31
0.0
210
0.0
220
0.0
230
1.0
 40
0.8611113230387378
 41
0.0
 42
6.283185307179586
  0
ELLIPSE
  5
17F
330
A
100
AcDbEntity
  8
PV
  6
Continuous
 62
     3
100
AcDbEllipse
 10
-816.9142212595277
 20
19.26653995315611
 30
0.0
 11
13.99996906519027
 21
0.0
 31
0.0
210
0.0
220
0.0
230
1.0
 40
0.8642874892915774
 41
3.813247696272058
 42
5.722911235505982
  0
ELLIPSE
  5
180
330
A
100
AcDbEntity
  8
PV
  6
Continuous
 62
     3
100
AcDbEllipse
 10
-816.9142212595277
 20
36.7663010130435
 30
0.0
 11
19.99996888637639
 21
0.0
 31
0.0
210
0.0
220
0.0
230
1.0
 40
0.8650015678429667
 41
0.0
 42
6.283185307179586
  0
ELLIPSE
  5
181
330
A
100
AcDbEntity
  8
PV
  6
Continuous
 62
     3
100
AcDbEllipse
 10
-316.9699307391068
 20
19.26691188612842
 30
0.0
 11
-0.000000000000003
 21
-16.14999913722279
 31
0.0
210
0.0
220
0.0
230
1.0
 40
0.8637759764060369
 41
0.0
 42
3.141592653589793
  0
ARC
  5
182
330
A
100
AcDbEntity
  8
PV
  6
Continuous
 62
     3
100
AcDbCircle
 10
-429.3697686979244
 20
-175.734003551781
 30
0.0
 40
4.999969333411176
100
AcDbArc
 50
89.99998201391065
 51
270.0000006832453
  0
ARC
  5
183
330
A
100
AcDbEntity
  8
PV
  6
Continuous
 62
     3
100
AcDbCircle
 10
-409.3697082588163
 20
538.2982017309009
 30
0.0
 40
25.00000116229054
100
AcDbArc
 50
180.0000359721787
 51
270.0000179860893
  0
ARC
  5
184
330
A
100
AcDbEntity
  8
PV
  6
Continuous
 62
     3
100
AcDbCircle
 10
-409.3697082588163
 20
618.2980772764063
 30
0.0
 40
25.00000116229054
100
AcDbArc
 50
89.99998201391065
 51
180.0000186693347
  0
ARC
  5
185
330
A
100
AcDbEntity
  8
PV
  6
Continuous
 62
     3
100
AcDbCircle
 10
-409.3697998115479
 20
538.2981101781693
 30
0.0
 40
14.99999955296518
100
AcDbArc
 50
180.0000186693347
 51
270.0000006832453
  0
ARC
  5
186
330
A
100
AcDbEntity
  8
PV
  6
Continuous
 62
     3
100
AcDbCircle
 10
-409.3697998115479
 20
618.298168829138
 30
0.0
 40
14.99999955296518
100
AcDbArc
 50
89.99998201391065
 51
180.0000186693347
  0
ARC
  5
187
330
A
100
AcDbEntity
  8
PV
  6
Continuous
 62
     3
100
AcDbCircle
 10
-409.3697998115479
 20
538.2981101781693
 30
0.0
 40
19.99999749660499
100
AcDbArc
 50
180.0000186693347
 51
270.0000006832453
  0
ARC
  5
188
330
A
100
AcDbEntity
  8
PV
  6
Continuous
 62
     3
100
AcDbCircle
 10
-409.3697998115479
 20
618.298168829138
 30
0.0
 40
19.99999749660499
100
AcDbArc
 50
89.99998201391065
 51
180.0000186693347
  0
ARC
  5
189
330
A
100
AcDbEntity
  8
PV
  6
Continuous
 62
     3
100
AcDbCircle
 10
-756.914223047667
 20
-175.734003551781
 30
0.0
 40
4.999969333411176
100
AcDbArc
 50
270.0000179860893
 51
89.99998201391065
  0
ARC
  5
18A
330
A
100
AcDbEntity
  8
PV
  6
Continuous
 62
     3
100
AcDbCircle
 10
-876.9142194713884
 20
-175.734003551781
 30
0.0
 40
4.999969333411176
100
AcDbArc
 50
89.99998201391065
 51
270.0000006832453
  0
ARC
  5
18C
330
A
100
AcDbEntity
  8
PV
  6
CENTER
 62
     7
100
AcDbCircle
 10
82.15323584815157
 20
24.26586841744577
 30
0.0
 40
67.4999979883433
100
AcDbArc
 50
270.0000179860893
 51
359.9999826971572
  0
CIRCLE
  5
18D
330
A
100
AcDbEntity
  8
PV
  6
Continuous
 62
     3
100
AcDbCircle
 10
129.8829306994995
 20
-23.46386648822229
 30
0.0
 40
4.999999731779106
  0
CIRCLE
  5
18E
330
A
100
AcDbEntity
  8
PV
  6
Continuous
 62
     3
100
AcDbCircle
 10
129.8829306994995
 20
71.99560332311381
 30
0.0
 40
4.999999731779106
  0
ARC
  5
18F
330
A
100
AcDbEntity
  8
PV
  6
CENTER
 62
     7
100
AcDbCircle
 10
82.15323584815157
 20
24.26586841744577
 30
0.0
 40
67.4999979883433
100
AcDbArc
 50
0.0
 51
89.43214740707247
  0
CIRCLE
  5
190
330
A
100
AcDbEntity
  8
PV
  6
Continuous
 62
     3
100
AcDbCircle
 10
-234.3699576148403
 20
578.2981395036537
 30
0.0
 40
55.00000026822089
  0
CIRCLE
  5
191
330
A
100
AcDbEntity
  8
PV
  6
Continuous
 62
     3
100
AcDbCircle
 10
-234.3699576148403
 20
578.2981395036537
 30
0.0
 40
49.99999660253535
  0
CIRCLE
  5
192
330
A
100
AcDbEntity
  8
PV
  6
Continuous
 62
     3
100
AcDbCircle
 10
-234.3699576148403
 20
578.2981395036537
 30
0.0
 40
43.54998649507801
  0
CIRCLE
  5
193
330
A
100
AcDbEntity
  8
PV
  6
Continuous
 62
     3
100
AcDbCircle
 10
-331.3773094601241
 20
618.4799010014564
 30
0.0
 40
4.999999731779106
  0
CIRCLE
  5
194
330
A
100
AcDbEntity
  8
PV
  6
Continuous
 62
     3
100
AcDbCircle
 10
-331.3773094601241
 20
538.1163780058509
 30
0.0
 40
4.999999731779106
  0
CIRCLE
  5
195
330
A
100
AcDbEntity
  8
PV
  6
Continuous
 62
     3
100
AcDbCircle
 10
-274.551719112643
 20
481.2907876583699
 30
0.0
 40
4.999999731779106
  0
CIRCLE
  5
196
330
A
100
AcDbEntity
  8
PV
  6
Continuous
 62
     3
100
AcDbCircle
 10
-194.1881961170376
 20
481.2907876583699
 30
0.0
 40
4.999999731779106
  0
CIRCLE
  5
197
330
A
100
AcDbEntity
  8
PV
  6
Continuous
 62
     3
100
AcDbCircle
 10
-137.3626057695566
 20
538.1163780058509
 30
0.0
 40
4.999999731779106
  0
CIRCLE
  5
198
330
A
100
AcDbEntity
  8
PV
  6
Continuous
 62
     3
100
AcDbCircle
 10
-137.3626057695566
 20
618.4799010014564
 30
0.0
 40
4.999999731779106
  0
CIRCLE
  5
199
330
A
100
AcDbEntity
  8
PV
  6
Continuous
 62
     3
100
AcDbCircle
 10
-194.1881961170376
 20
675.3054913489373
 30
0.0
 40
4.999999731779106
  0
CIRCLE
  5
19A
330
A
100
AcDbEntity
  8
PV
  6
Continuous
 62
     3
100
AcDbCircle
 10
-274.551719112643
 20
675.3054913489373
 30
0.0
 40
4.999999731779106
  0
CIRCLE
  5
19B
330
A
100
AcDbEntity
  8
PV
  6
Continuous
 62
     3
100
AcDbCircle
 10
-282.0996925205084
 20
530.5684045979855
 30
0.0
 40
4.999999731779106
  0
CIRCLE
  5
19C
330
A
100
AcDbEntity
  8
PV
  6
Continuous
 62
     3
100
AcDbCircle
 10
-186.6402227091723
 20
530.5684045979855
 30
0.0
 40
4.999999731779106
  0
CIRCLE
  5
19D
330
A
100
AcDbEntity
  8
PV
  6
Continuous
 62
     3
100
AcDbCircle
 10
-186.6402227091723
 20
626.0278744093217
 30
0.0
 40
4.999999731779106
  0
CIRCLE
  5
19E
330
A
100
AcDbEntity
  8
PV
  6
Continuous
 62
     3
100
AcDbCircle
 10
-282.0996925205084
 20
626.0278744093217
 30
0.0
 40
4.999999731779106
  0
CIRCLE
  5
19F
330
A
100
AcDbEntity
  8
PV
  6
CENTER
 62
     7
100
AcDbCircle
 10
-234.3699576148403
 20
578.2981395036537
 30
0.0
 40
104.9999968707562
  0
CIRCLE
  5
1A0
330
A
100
AcDbEntity
  8
PV
  6
CENTER
 62
     7
100
AcDbCircle
 10
-234.3699576148403
 20
578.2981395036537
 30
0.0
 40
67.4999979883433
  0
ARC
  5
1A1
330
A
100
AcDbEntity
  8
PV
  6
Continuous
 62
     3
100
AcDbCircle
 10
-39.36986042946993
 20
509.2014618753951
 30
0.0
 40
10.00000160932536
100
AcDbArc
 50
134.4279583382557
 51
225.5720243589002
  0
ARC
  5
1A2
330
A
100
AcDbEntity
  8
PV
  6
Continuous
 62
     3
100
AcDbCircle
 10
-39.36986042946993
 20
509.2014618753951
 30
0.0
 40
14.99999955296518
100
AcDbArc
 50
285.3227550870693
 51
70.52924370922534
  0
ARC
  5
1A3
330
A
100
AcDbEntity
  8
PV
  6
Continuous
 62
     3
100
AcDbCircle
 10
-39.36986042946993
 20
509.2014618753951
 30
0.0
 40
10.00000160932536
100
AcDbArc
 50
299.9992470095392
 51
60.00075299046081
  0
ARC
  5
1A4
330
A
100
AcDbEntity
  8
PV
  6
Continuous
 62
     3
100
AcDbCircle
 10
-39.36986042946993
 20
509.2014618753951
 30
0.0
 40
14.99999955296518
100
AcDbArc
 50
117.8186868052122
 51
254.5339388927219
  0
CIRCLE
  5
1A5
330
A
100
AcDbEntity
  8
PV
  6
Continuous
 62
     3
100
AcDbCircle
 10
-234.3699576148403
 20
578.2981395036537
 30
0.0
 40
117.4998744279183
  0
CIRCLE
  5
1A6
330
A
100
AcDbEntity
  8
PV
  6
Continuous
 62
     3
100
AcDbCircle
 10
-234.3699576148403
 20
578.2981395036537
 30
0.0
 40
79.99996709823706
  0
ARC
  5
1A7
330
A
100
AcDbEntity
  8
PV
  6
Continuous
 62
     3
100
AcDbCircle
 10
222.6301508358076
 20
556.298201194459
 30
0.0
 40
2.999999910593035
100
AcDbArc
 50
270.0000179860893
 51
0.0
  0
ARC
  5
1A8
330
A
100
AcDbEntity
  8
PV
  6
Continuous
 62
     3
100
AcDbCircle
 10
222.6301508358076
 20
606.2981691867658
 30
0.0
 40
2.999999910593035
100
AcDbArc
 50
270.0000179860893
 51
0.0
  0
ARC
  5
1A9
330
A
100
AcDbEntity
  8
PV
  6
Continuous
 62
     3
100
AcDbCircle
 10
222.6301508358076
 20
536.2981407553511
 30
0.0
 40
2.999999910593035
100
AcDbArc
 50
270.0000179860893
 51
0.0
  0
ARC
  5
1AA
330
A
100
AcDbEntity
  8
PV
  6
Continuous
 62
     3
100
AcDbCircle
 10
222.6301508358076
 20
620.2981382519562
 30
0.0
 40
2.999999910593035
100
AcDbArc
 50
0.0
 51
89.99998201391065
  0
ARC
  5
1AB
330
A
100
AcDbEntity
  8
PV
  6
Continuous
 62
     3
100
AcDbCircle
 10
-735.4140711005308
 20
-404.2330506970569
 30
0.0
 40
6.499997898936333
100
AcDbArc
 50
180.0000359721787
 51
270.0000179860893
  0
ARC
  5
1AC
330
A
100
AcDbEntity
  8
PV
  6
Continuous
 62
     3
100
AcDbCircle
 10
-898.4140967603297
 20
-404.2330506970569
 30
0.0
 40
6.499997898936333
100
AcDbArc
 50
270.0000179860893
 51
0.0
  0
ARC
  5
1AD
330
A
100
AcDbEntity
  8
PV
  6
Continuous
 62
     3
100
AcDbCircle
 10
-933.9141262199245
 20
-413.7330198963576
 30
0.0
 40
2.999999910593035
100
AcDbArc
 50
89.99998201391065
 51
180.0000186693347
  0
ARC
  5
1AE
330
A
100
AcDbEntity
  8
PV
  6
Continuous
 62
     3
100
AcDbCircle
 10
-699.914041640936
 20
-413.7330198963576
 30
0.0
 40
2.999999910593035
100
AcDbArc
 50
0.0
 51
89.99998201391065
  0
CIRCLE
  5
1AF
330
A
100
AcDbEntity
  8
PV
  6
Continuous
 62
     3
100
AcDbCircle
 10
-903.1642186890776
 20
-76.34467851088409
 30
0.0
 40
10.99996343255152
  0
CIRCLE
  5
1B0
330
A
100
AcDbEntity
  8
PV
  6
Continuous
 62
     3
100
AcDbCircle
 10
-730.6642238299779
 20
-76.34467851088409
 30
0.0
 40
10.99996343255152
  0
CIRCLE
  5
1B1
330
A
100
AcDbEntity
  8
PV
  6
Continuous
 62
     3
100
AcDbCircle
 10
-644.4142264004282
 20
-225.7339715440878
 30
0.0
 40
10.99996343255152
  0
CIRCLE
  5
1B2
330
A
100
AcDbEntity
  8
PV
  6
Continuous
 62
     3
100
AcDbCircle
 10
-730.6642238299779
 20
-375.123401906389
 30
0.0
 40
10.99996343255152
  0
CIRCLE
  5
1B3
330
A
100
AcDbEntity
  8
PV
  6
Continuous
 62
     3
100
AcDbCircle
 10
-903.1642186890776
 20
-375.1233103536573
 30
0.0
 40
10.99996343255152
  0
CIRCLE
  5
1B4
330
A
100
AcDbEntity
  8
PV
  6
Continuous
 62
     3
100
AcDbCircle
 10
-989.4142161186273
 20
-225.7339715440878
 30
0.0
 40
10.99996343255152
  0
CIRCLE
  5
1B5
330
A
100
AcDbEntity
  8
PV
  6
CENTER
 62
     7
100
AcDbCircle
 10
-816.9142212595277
 20
-225.7339715440878
 30
0.0
 40
172.4999948590995
  0
CIRCLE
  5
1B6
330
A
100
AcDbEntity
  8
PV
  6
Continuous
 62
     3
100
AcDbCircle
 10
-816.9142212595277
 20
-225.7339715440878
 30
0.0
 40
184.9999639689933
  0
CIRCLE
  5
1B7
330
A
100
AcDbEntity
  8
PV
  6
Continuous
 62
     3
100
AcDbCircle
 10
-133.8697775045103
 20
92.26588737172225
 30
0.0
 40
7.499999776482588
  0
CIRCLE
  5
1B8
330
A
100
AcDbEntity
  8
PV
  6
Continuous
 62
     3
100
AcDbCircle
 10
-334.8698630669754
 20
92.26588737172225
 30
0.0
 40
7.499999776482588
  0
ARC
  5
1B9
330
A
100
AcDbEntity
  8
PV
  6
Continuous
 62
     3
100
AcDbCircle
 10
222.6301508358076
 20
-265.7339093168405
 30
0.0
 40
2.999999910593035
100
AcDbArc
 50
270.0000179860893
 51
0.0
  0
ARC
  5
1BA
330
A
100
AcDbEntity
  8
PV
  6
Continuous
 62
     3
100
AcDbCircle
 10
222.6301508358076
 20
-215.7339413245338
 30
0.0
 40
2.999999910593035
100
AcDbArc
 50
270.0000179860893
 51
0.0
  0
ARC
  5
1BB
330
A
100
AcDbEntity
  8
PV
  6
Continuous
 62
     3
100
AcDbCircle
 10
222.6301508358076
 20
-285.7339697559485
 30
0.0
 40
2.999999910593035
100
AcDbArc
 50
270.0000179860893
 51
0.0
  0
ARC
  5
1BC
330
A
100
AcDbEntity
  8
PV
  6
Continuous
 62
     3
100
AcDbCircle
 10
222.6301508358076
 20
-201.7339722593435
 30
0.0
 40
2.999999910593035
100
AcDbArc
 50
0.0
 51
89.99998201391065
  0
ARC
  5
1BD
330
A
100
AcDbEntity
  8
PV
  6
Continuous
 62
     3
100
AcDbCircle
 10
-39.36986042946993
 20
-365.7330213268691
 30
0.0
 40
29.99999910593036
100
AcDbArc
 50
179.9999640278213
 51
359.999982697156
  0
CIRCLE
  5
1BE
330
A
100
AcDbEntity
  8
PV
  6
Continuous
 62
     3
100
AcDbCircle
 10
-700.0440465198741
 20
-272.6040262995951
 30
0.0
 40
4.999999731779106
  0
CIRCLE
  5
1BF
330
A
100
AcDbEntity
  8
PV
  6
Continuous
 62
     3
100
AcDbCircle
 10
-753.7841267054043
 20
-272.6040262995951
 30
0.0
 40
4.999999731779106
  0
CIRCLE
  5
1C0
330
A
100
AcDbEntity
  8
PV
  6
Continuous
 62
     3
100
AcDbCircle
 10
-753.7841267054043
 20
-218.8639461140649
 30
0.0
 40
4.999999731779106
  0
CIRCLE
  5
1C1
330
A
100
AcDbEntity
  8
PV
  6
Continuous
 62
     3
100
AcDbCircle
 10
-700.0440465198741
 20
-218.8639461140649
 30
0.0
 40
4.999999731779106
  0
CIRCLE
  5
1C2
330
A
100
AcDbEntity
  8
PV
  6
Continuous
 62
     3
100
AcDbCircle
 10
-726.9142239417367
 20
-245.7339404304641
 30
0.0
 40
26.99999919533732
  0
CIRCLE
  5
1C3
330
A
100
AcDbEntity
  8
PV
  6
Continuous
 62
     3
100
AcDbCircle
 10
-726.9142239417367
 20
-245.7339404304641
 30
0.0
 40
44.00000250339501
  0
CIRCLE
  5
1C4
330
A
100
AcDbEntity
  8
PV
  6
CENTER
 62
     7
100
AcDbCircle
 10
-726.9142239417367
 20
-245.7339404304641
 30
0.0
 40
38.00000268220894
  0
ARC
  5
1C5
330
A
100
AcDbEntity
  8
PV
  6
Continuous
 62
     3
100
AcDbCircle
 10
-31.29151060308485
 20
-343.7326252540163
 30
0.0
 40
1.999999821186071
100
AcDbArc
 50
270.0000179860893
 51
357.7093364061644
  0
CIRCLE
  5
1C6
330
A
100
AcDbEntity
  8
PV
  6
Continuous
 62
     3
100
AcDbCircle
 10
-39.36986042946993
 20
-365.7330213268691
 30
0.0
 40
8.499995931983114
  0
CIRCLE
  5
1C7
330
A
100
AcDbEntity
  8
PV
  6
Continuous
 62
     3
100
AcDbCircle
 10
-39.36986042946993
 20
-365.7330213268691
 30
0.0
 40
9.999995887279633
  0
ARC
  5
1C8
330
A
100
AcDbEntity
  8
PV
  6
Continuous
 62
     3
100
AcDbCircle
 10
-46.44825987672031
 20
-343.7326252540163
 30
0.0
 40
1.999999821186071
100
AcDbArc
 50
182.2906628537475
 51
270.000127269116
  0
ARC
  5
1C9
330
A
100
AcDbEntity
  8
PV
  6
Continuous
 62
     3
100
AcDbCircle
 10
-39.40308262696616
 20
-350.2700396099675
 30
0.0
 40
9.037233083330599
100
AcDbArc
 50
70.39001713318381
 51
109.1658206740466
  0
ARC
  5
1CA
330
A
100
AcDbEntity
  8
PV
  6
Continuous
 62
     3
100
AcDbCircle
 10
-43.75000632554273
 20
-343.1158345009138
 30
0.0
 40
1.95338231464081
100
AcDbArc
 50
45.03704478320265
 51
74.57222392425265
  0
ARC
  5
1CB
330
A
100
AcDbEntity
  8
PV
  6
Continuous
 62
     3
100
AcDbCircle
 10
-34.99976816774105
 20
-343.0176899725887
 30
0.0
 40
1.862153951461495
100
AcDbArc
 50
106.5339575415439
 51
137.3743380216592
  0
ARC
  5
1CC
330
A
100
AcDbEntity
  8
PV
  6
Continuous
 62
     3
100
AcDbCircle
 10
-34.99976816774105
 20
-343.0176899725887
 30
0.0
 40
1.862153951461495
100
AcDbArc
 50
106.5339575415439
 51
137.3743380216592
  0
LINE
  5
1CD
330
A
100
AcDbEntity
  8
PV
  6
Continuous
 62
     3
100
AcDbLine
 10
-429.3697686979244
 20
-180.7339728851922
 30
0.0
 11
-394.3698002585828
 21
-180.7339728851922
 31
0.0
  0
LINE
  5
1CE
330
A
100
AcDbEntity
  8
PV
  6
Continuous
 62
     3
100
AcDbLine
 10
-429.3697686979244
 20
-170.7340342183699
 30
0.0
 11
-394.3698002585828
 21
-170.7340342183699
 31
0.0
  0
LINE
  5
1CF
330
A
100
AcDbEntity
  8
PV
  6
Continuous
 62
     3
100
AcDbLine
 10
-405.8697388807017
 20
513.5444488065108
 30
0.0
 11
-405.8697388807017
 21
444.2981740147419
 31
0.0
  0
LINE
  5
1D0
330
A
100
AcDbEntity
  8
PV
  6
Continuous
 62
     3
100
AcDbLine
 10
-409.3697082588163
 20
513.2981719583817
 30
0.0
 11
-394.3698002585828
 21
513.2981719583817
 31
0.0
  0
LINE
  5
1D1
330
A
100
AcDbEntity
  8
PV
  6
Continuous
 62
     3
100
AcDbLine
 10
-409.3697998115479
 20
523.2981106252041
 30
0.0
 11
-394.3698002585828
 21
523.2981106252041
 31
0.0
  0
LINE
  5
1D2
330
A
100
AcDbEntity
  8
PV
  6
Continuous
 62
     3
100
AcDbLine
 10
-409.3697998115479
 20
633.2981683821031
 30
0.0
 11
-394.3698002585828
 21
633.2981683821031
 31
0.0
  0
LINE
  5
1D3
330
A
100
AcDbEntity
  8
PV
  6
Continuous
 62
     3
100
AcDbLine
 10
-409.3697082588163
 20
643.2981070489255
 30
0.0
 11
-394.3698002585828
 21
643.2981070489255
 31
0.0
  0
LINE
  5
1D4
330
A
100
AcDbEntity
  8
PV
  6
Continuous
 62
     3
100
AcDbLine
 10
-434.3697380313355
 20
538.2982017309009
 30
0.0
 11
-434.3697380313355
 21
618.2980772764063
 31
0.0
  0
LINE
  5
1D5
330
A
100
AcDbEntity
  8
PV
  6
Continuous
 62
     3
100
AcDbLine
 10
-424.3697993645132
 20
538.2981101781693
 30
0.0
 11
-424.3697993645132
 21
618.298168829138
 31
0.0
  0
LINE
  5
1D6
330
A
100
AcDbEntity
  8
PV
  6
CENTER
 62
     7
100
AcDbLine
 10
-429.3697686979244
 20
538.2981101781693
 30
0.0
 11
-429.3697686979244
 21
618.298168829138
 31
0.0
  0
LINE
  5
1D7
330
A
100
AcDbEntity
  8
PV
  6
CENTER
 62
     7
100
AcDbLine
 10
-409.3697998115479
 20
518.2981412917929
 30
0.0
 11
-394.3698002585828
 21
518.2981412917929
 31
0.0
  0
LINE
  5
1D8
330
A
100
AcDbEntity
  8
PV
  6
CENTER
 62
     7
100
AcDbLine
 10
-409.3697998115479
 20
638.2981377155143
 30
0.0
 11
-394.3698002585828
 21
638.2981377155143
 31
0.0
  0
LINE
  5
1D9
330
A
100
AcDbEntity
  8
PV
  6
Continuous
 62
     3
100
AcDbLine
 10
-876.9142194713884
 20
-180.7339728851922
 30
0.0
 11
-756.914223047667
 21
-180.7339728851922
 31
0.0
  0
LINE
  5
1DA
330
A
100
AcDbEntity
  8
PV
  6
Continuous
 62
     3
100
AcDbLine
 10
-876.9142194713884
 20
-170.7340342183699
 30
0.0
 11
-756.914223047667
 21
-170.7340342183699
 31
0.0
  0
LINE
  5
1DB
330
A
100
AcDbEntity
  8
PV
  6
CENTER
 62
     7
100
AcDbLine
 10
-889.3197061622229
 20
-175.734003551781
 30
0.0
 11
-745.0746237911396
 21
-175.734003551781
 31
0.0
  0
LINE
  5
1DC
330
A
100
AcDbEntity
  8
PV
  6
Continuous
 62
     3
100
AcDbLine
 10
-69.36985953540028
 20
508.2981110722389
 30
0.0
 11
-69.36985953540028
 21
503.2981417388278
 31
0.0
  0
LINE
  5
1DD
330
A
100
AcDbEntity
  8
PV
  6
Continuous
 62
     3
100
AcDbLine
 10
-9.369861323539575
 20
508.2981110722389
 30
0.0
 11
-9.369861323539575
 21
503.2981417388278
 31
0.0
  0
LINE
  5
1DE
330
A
100
AcDbEntity
  8
PV
  6
CENTER
 62
     7
100
AcDbLine
 10
124.5797192368433
 20
66.69231083330259
 30
0.0
 11
135.1863204570159
 21
77.29891205347519
 31
0.0
  0
LINE
  5
1DF
330
A
100
AcDbEntity
  8
PV
  6
CENTER
 62
     7
100
AcDbLine
 10
124.5796342688007
 20
-18.16059198831542
 30
0.0
 11
135.1862354889733
 21
-28.76719320848803
 31
0.0
  0
LINE
  5
1E0
330
A
100
AcDbEntity
  8
PV
  6
CENTER
 62
     7
100
AcDbLine
 10
82.15323584815157
 20
91.76586640578907
 30
0.0
 11
82.15323584815157
 21
-43.23412957089753
 31
0.0
  0
LINE
  5
1E1
330
A
100
AcDbEntity
  8
PV
  6
CENTER
 62
     7
100
AcDbLine
 10
-144.2916147730142
 20
540.9864608113199
 30
0.0
 11
-130.4334226229635
 21
535.2462091432319
 31
0.0
  0
LINE
  5
1E2
330
A
100
AcDbEntity
  8
PV
  6
CENTER
 62
     7
100
AcDbLine
 10
-338.3063048737231
 20
621.3499841645532
 30
0.0
 11
-324.4481127236725
 21
615.609732496465
 31
0.0
  0
LINE
  5
1E3
330
A
100
AcDbEntity
  8
PV
  6
CENTER
 62
     7
100
AcDbLine
 10
-338.30643279211
 20
535.2462075223977
 30
0.0
 11
-324.4482089231747
 21
540.9864723288792
 31
0.0
  0
LINE
  5
1E4
330
A
100
AcDbEntity
  8
PV
  6
CENTER
 62
     7
100
AcDbLine
 10
-144.2917426914011
 20
615.609730875631
 30
0.0
 11
-130.4335505413504
 21
621.3499825437191
 31
0.0
  0
LINE
  5
1E5
330
A
100
AcDbEntity
  8
PV
  6
CENTER
 62
     7
100
AcDbLine
 10
-277.421751259004
 20
474.3616555285127
 30
0.0
 11
-271.6814995909159
 21
488.2198476785634
 31
0.0
  0
LINE
  5
1E6
330
A
100
AcDbEntity
  8
PV
  6
CENTER
 62
     7
100
AcDbLine
 10
-197.0582279057707
 20
668.3763456292216
 30
0.0
 11
-191.3179762376826
 21
682.2345377792722
 31
0.0
  0
LINE
  5
1E7
330
A
100
AcDbEntity
  8
PV
  6
CENTER
 62
     7
100
AcDbLine
 10
-197.0583393039052
 20
488.2198529006426
 30
0.0
 11
-191.3180876358172
 21
474.3616607505919
 31
0.0
  0
LINE
  5
1E8
330
A
100
AcDbEntity
  8
PV
  6
CENTER
 62
     7
100
AcDbLine
 10
-277.4218626571385
 20
682.2345430013514
 30
0.0
 11
-271.6816109890504
 21
668.3763508513008
 31
0.0
  0
LINE
  5
1E9
330
A
100
AcDbEntity
  8
PV
  6
CENTER
 62
     7
100
AcDbLine
 10
-287.4029637229448
 20
525.265059343194
 30
0.0
 11
-276.7963625027722
 21
535.8716605633666
 31
0.0
  0
LINE
  5
1EA
330
A
100
AcDbEntity
  8
PV
  6
CENTER
 62
     7
100
AcDbLine
 10
-191.943488003835
 20
620.7245350623037
 30
0.0
 11
-181.3368867836624
 21
631.3311362824764
 31
0.0
  0
LINE
  5
1EB
330
A
100
AcDbEntity
  8
PV
  6
CENTER
 62
     7
100
AcDbLine
 10
-287.403028460501
 20
631.3311362824764
 30
0.0
 11
-276.7964272403284
 21
620.7245350623037
 31
0.0
  0
LINE
  5
1EC
330
A
100
AcDbEntity
  8
PV
  6
CENTER
 62
     7
100
AcDbLine
 10
-191.9435527413913
 20
535.8716605633666
 30
0.0
 11
-181.3369515212187
 21
525.265059343194
 31
0.0
  0
LINE
  5
1ED
330
A
100
AcDbEntity
  8
PV
  6
Continuous
 62
     3
100
AcDbLine
 10
-269.3699260541819
 20
414.0481443986849
 30
0.0
 11
-199.3698060700355
 21
414.0481443986849
 31
0.0
  0
LINE
  5
1EE
330
A
100
AcDbEntity
  8
PV
  6
Continuous
 62
     3
100
AcDbLine
 10
-36.37003039685133
 20
486.7012803846815
 30
0.0
 11
-42.3700302180374
 21
486.7012956434719
 31
0.0
  0
LINE
  5
1EF
330
A
100
AcDbEntity
  8
PV
  6
Continuous
 62
     3
100
AcDbLine
 10
-24.36986087650475
 20
536.2981407553511
 30
0.0
 11
-32.21732043572306
 21
536.2981407553511
 31
0.0
  0
LINE
  5
1F0
330
A
100
AcDbEntity
  8
PV
  6
Continuous
 62
     3
100
AcDbLine
 10
-24.36986087650475
 20
481.2981118769016
 30
0.0
 11
-54.3698599824351
 21
481.2981118769016
 31
0.0
  0
LINE
  5
1F1
330
A
100
AcDbEntity
  8
PV
  6
Continuous
 62
     3
100
AcDbLine
 10
-54.3698599824351
 20
530.7306360384631
 30
0.0
 11
-54.3698599824351
 21
481.2981118769016
 31
0.0
  0
LINE
  5
1F2
330
A
100
AcDbEntity
  8
PV
  6
Continuous
 62
     3
100
AcDbLine
 10
-24.36986087650475
 20
536.2981407553511
 30
0.0
 11
-24.36986087650475
 21
481.2981118769016
 31
0.0
  0
LINE
  5
1F3
330
A
100
AcDbEntity
  8
PV
  6
Continuous
 62
     3
100
AcDbLine
 10
-46.86986020595251
 20
496.2109532293393
 30
0.0
 11
-46.86986020595251
 21
481.2981118769016
 31
0.0
  0
LINE
  5
1F4
330
A
100
AcDbEntity
  8
PV
  6
Continuous
 62
     3
100
AcDbLine
 10
-31.86986065298734
 20
496.2109532293393
 30
0.0
 11
-31.86986065298734
 21
481.2981118769016
 31
0.0
  0
LINE
  5
1F5
330
A
100
AcDbEntity
  8
PV
  6
Continuous
 62
     3
100
AcDbLine
 10
-31.86986065298734
 20
536.2981407553511
 30
0.0
 11
-31.86986065298734
 21
522.191695863256
 31
0.0
  0
LINE
  5
1F6
330
A
100
AcDbEntity
  8
PV
  6
Continuous
 62
     3
100
AcDbLine
 10
-43.36986221760922
 20
494.7444615738255
 30
0.0
 11
-43.36986221760922
 21
498.2981724054166
 31
0.0
  0
LINE
  5
1F7
330
A
100
AcDbEntity
  8
PV
  6
Continuous
 62
     3
100
AcDbLine
 10
-42.36994331305783
 20
486.7011706566306
 30
0.0
 11
-43.3699629407078
 21
494.7444979792262
 31
0.0
  0
LINE
  5
1F8
330
A
100
AcDbEntity
  8
PV
  6
Continuous
 62
     3
100
AcDbLine
 10
-35.36978306157557
 20
494.7444995650132
 30
0.0
 11
-36.36980268922553
 21
486.7011722424177
 31
0.0
  0
LINE
  5
1F9
330
A
100
AcDbEntity
  8
PV
  6
Continuous
 62
     3
100
AcDbLine
 10
-35.36985864133064
 20
498.2981724054166
 30
0.0
 11
-35.36985864133064
 21
494.7444615738255
 31
0.0
  0
LINE
  5
1FA
330
A
100
AcDbEntity
  8
PV
  6
CENTER
 62
     7
100
AcDbLine
 10
-39.36986042946993
 20
495.1207433008926
 30
0.0
 11
-39.36986042946993
 21
462.5710921713384
 31
0.0
  0
LINE
  5
1FB
330
A
100
AcDbEntity
  8
PV
  6
Continuous
 62
     3
100
AcDbLine
 10
52.63008342295637
 20
623.2981381625492
 30
0.0
 11
52.63008342295637
 21
643.2981070489255
 31
0.0
  0
LINE
  5
1FC
330
A
100
AcDbEntity
  8
PV
  6
Continuous
 62
     3
100
AcDbLine
 10
40.63008378058422
 20
548.2981403977232
 30
0.0
 11
97.63018507867499
 21
548.2981403977232
 31
0.0
  0
LINE
  5
1FD
330
A
100
AcDbEntity
  8
PV
  6
Continuous
 62
     3
100
AcDbLine
 10
40.63008378058422
 20
608.298138609584
 30
0.0
 11
97.63018507867499
 21
608.298138609584
 31
0.0
  0
LINE
  5
1FE
330
A
100
AcDbEntity
  8
PV
  6
Continuous
 62
     3
100
AcDbLine
 10
52.63008342295637
 20
513.2981719583817
 30
0.0
 11
52.63008342295637
 21
533.298140844758
 31
0.0
  0
LINE
  5
1FF
330
A
100
AcDbEntity
  8
PV
  6
Continuous
 62
     3
100
AcDbLine
 10
113.6301235666834
 20
551.2981403083163
 30
0.0
 11
185.6302129736479
 21
551.2981403083163
 31
0.0
  0
LINE
  5
200
330
A
100
AcDbEntity
  8
PV
  6
Continuous
 62
     3
100
AcDbLine
 10
113.6301235666834
 20
605.298138698991
 30
0.0
 11
185.6302129736479
 21
605.298138698991
 31
0.0
  0
LINE
  5
201
330
A
100
AcDbEntity
  8
PV
  6
Continuous
 62
     3
100
AcDbLine
 10
32.63014886885438
 20
513.2981719583817
 30
0.0
 11
52.63008342295637
 21
513.2981719583817
 31
0.0
  0
LINE
  5
202
330
A
100
AcDbEntity
  8
PV
  6
Continuous
 62
     3
100
AcDbLine
 10
32.63014886885438
 20
643.2981070489255
 30
0.0
 11
52.63008342295637
 21
643.2981070489255
 31
0.0
  0
LINE
  5
203
330
A
100
AcDbEntity
  8
PV
  6
Continuous
 62
     3
100
AcDbLine
 10
-21.63361294169387
 20
550.7981708407946
 30
0.0
 11
32.63014886885438
 21
550.7981708407946
 31
0.0
  0
LINE
  5
204
330
A
100
AcDbEntity
  8
PV
  6
Continuous
 62
     3
100
AcDbLine
 10
27.63017381339747
 20
606.2981691867658
 30
0.0
 11
27.63017381339747
 21
648.2981679350683
 31
0.0
  0
LINE
  5
205
330
A
100
AcDbEntity
  8
PV
  6
Continuous
 62
     3
100
AcDbLine
 10
-34.36997120469894
 20
653.2981372684795
 30
0.0
 11
32.63014886885438
 21
653.2981372684795
 31
0.0
  0
LINE
  5
206
330
A
100
AcDbEntity
  8
PV
  6
Continuous
 62
     3
100
AcDbLine
 10
-34.36997120469894
 20
648.2981679350683
 30
0.0
 11
32.63014886885438
 21
648.2981679350683
 31
0.0
  0
LINE
  5
207
330
A
100
AcDbEntity
  8
PV
  6
Continuous
 62
     3
100
AcDbLine
 10
-18.28211348408122
 20
503.2981417388278
 30
0.0
 11
32.63014886885438
 21
503.2981417388278
 31
0.0
  0
LINE
  5
208
330
A
100
AcDbEntity
  8
PV
  6
Continuous
 62
     3
100
AcDbLine
 10
-17.83815140014435
 20
508.2981110722389
 30
0.0
 11
32.63014886885438
 21
508.2981110722389
 31
0.0
  0
LINE
  5
209
330
A
100
AcDbEntity
  8
PV
  6
Continuous
 62
     3
100
AcDbLine
 10
-89.36991425246256
 20
503.2981417388278
 30
0.0
 11
-65.11992451191173
 21
503.2981417388278
 31
0.0
  0
LINE
  5
20A
330
A
100
AcDbEntity
  8
PV
  6
Continuous
 62
     3
100
AcDbLine
 10
-89.36991425246256
 20
653.2981372684795
 30
0.0
 11
-46.36998229116254
 21
653.2981372684795
 31
0.0
  0
LINE
  5
20B
330
A
100
AcDbEntity
  8
PV
  6
Continuous
 62
     3
100
AcDbLine
 10
-89.36991425246256
 20
508.2981110722389
 30
0.0
 11
-62.90012553631886
 21
508.2981110722389
 31
0.0
  0
LINE
  5
20C
330
A
100
AcDbEntity
  8
PV
  6
Continuous
 62
     3
100
AcDbLine
 10
-89.36991425246256
 20
648.2981679350683
 30
0.0
 11
-46.36998229116254
 21
648.2981679350683
 31
0.0
  0
LINE
  5
20D
330
A
100
AcDbEntity
  8
PV
  6
Continuous
 62
     3
100
AcDbLine
 10
-89.36991425246256
 20
458.2981430799322
 30
0.0
 11
32.63014886885438
 21
458.2981430799322
 31
0.0
  0
LINE
  5
20E
330
A
100
AcDbEntity
  8
PV
  6
Continuous
 62
     3
100
AcDbLine
 10
-89.36991425246256
 20
698.298135927375
 30
0.0
 11
32.63014886885438
 21
698.298135927375
 31
0.0
  0
LINE
  5
20F
330
A
100
AcDbEntity
  8
PV
  6
Continuous
 62
     3
100
AcDbLine
 10
-89.36991425246256
 20
622.8481564865066
 30
0.0
 11
-89.36991425246256
 21
737.5479821697479
 31
0.0
  0
LINE
  5
210
330
A
100
AcDbEntity
  8
PV
  6
Continuous
 62
     3
100
AcDbLine
 10
-104.3699309715649
 20
622.8481564865066
 30
0.0
 11
-104.3699309715649
 21
737.5479821697479
 31
0.0
  0
LINE
  5
211
330
A
100
AcDbEntity
  8
PV
  6
Continuous
 62
     3
100
AcDbLine
 10
-405.8697388807017
 20
444.2981740147419
 30
0.0
 11
-394.3698002585828
 21
444.2981740147419
 31
0.0
  0
LINE
  5
212
330
A
100
AcDbEntity
  8
PV
  6
Continuous
 62
     3
100
AcDbLine
 10
-405.8697388807017
 20
532.2981103569832
 30
0.0
 11
-394.3698002585828
 21
532.2981103569832
 31
0.0
  0
LINE
  5
213
330
A
100
AcDbEntity
  8
PV
  6
Continuous
 62
     3
100
AcDbLine
 10
-405.8697388807017
 20
532.2981103569832
 30
0.0
 11
-405.8697388807017
 21
523.2981106252041
 31
0.0
  0
LINE
  5
214
330
A
100
AcDbEntity
  8
PV
  6
Continuous
 62
     3
100
AcDbLine
 10
-125.6431236969493
 20
533.7482140735324
 30
0.0
 11
-46.36998229116254
 21
533.7482140735324
 31
0.0
  0
LINE
  5
215
330
A
100
AcDbEntity
  8
PV
  6
Continuous
 62
     3
100
AcDbLine
 10
-125.6431236969493
 20
622.8481564865066
 30
0.0
 11
-46.36998229116254
 21
622.8481564865066
 31
0.0
  0
LINE
  5
216
330
A
100
AcDbEntity
  8
PV
  6
Continuous
 62
     3
100
AcDbLine
 10
-46.36998229116254
 20
498.2981724054166
 30
0.0
 11
-34.36997120469894
 21
498.2981724054166
 31
0.0
  0
LINE
  5
217
330
A
100
AcDbEntity
  8
PV
  6
Continuous
 62
     3
100
AcDbLine
 10
-46.36998229116254
 20
658.2981981546224
 30
0.0
 11
-34.36997120469894
 21
658.2981981546224
 31
0.0
  0
LINE
  5
218
330
A
100
AcDbEntity
  8
PV
  6
Continuous
 62
     3
100
AcDbLine
 10
-46.36998229116254
 20
498.2981724054166
 30
0.0
 11
-46.36998229116254
 21
658.2981981546224
 31
0.0
  0
LINE
  5
219
330
A
100
AcDbEntity
  8
PV
  6
Continuous
 62
     3
100
AcDbLine
 10
-34.36997120469894
 20
498.2981724054166
 30
0.0
 11
-34.36997120469894
 21
658.2981981546224
 31
0.0
  0
LINE
  5
21A
330
A
100
AcDbEntity
  8
PV
  6
CENTER
 62
     7
100
AcDbLine
 10
-440.0693533399894
 20
578.2981395036537
 30
0.0
 11
258.7706832060014
 21
578.2981395036537
 31
0.0
  0
LINE
  5
21B
330
A
100
AcDbEntity
  8
PV
  6
Continuous
 62
     3
100
AcDbLine
 10
-364.3698011526525
 20
737.5479821697479
 30
0.0
 11
-89.36991425246256
 21
737.5479821697479
 31
0.0
  0
LINE
  5
21C
330
A
100
AcDbEntity
  8
PV
  6
Continuous
 62
     3
100
AcDbLine
 10
-104.3699309715649
 20
419.0481137320961
 30
0.0
 11
-104.3699309715649
 21
533.7482140735324
 31
0.0
  0
LINE
  5
21D
330
A
100
AcDbEntity
  8
PV
  6
Continuous
 62
     3
100
AcDbLine
 10
97.63018507867499
 20
608.298138609584
 30
0.0
 11
97.63018507867499
 21
623.2981381625492
 31
0.0
  0
LINE
  5
21E
330
A
100
AcDbEntity
  8
PV
  6
Continuous
 62
     3
100
AcDbLine
 10
97.63018507867499
 20
533.298140844758
 30
0.0
 11
97.63018507867499
 21
548.2981403977232
 31
0.0
  0
LINE
  5
21F
330
A
100
AcDbEntity
  8
PV
  6
Continuous
 62
     3
100
AcDbLine
 10
31.63011265903376
 20
550.7981708407946
 30
0.0
 11
31.63011265903376
 21
606.2981691867658
 31
0.0
  0
LINE
  5
220
330
A
100
AcDbEntity
  8
PV
  6
Continuous
 62
     3
100
AcDbLine
 10
-24.51913188340867
 20
606.2981691867658
 30
0.0
 11
32.63014886885438
 21
606.2981691867658
 31
0.0
  0
LINE
  5
221
330
A
100
AcDbEntity
  8
PV
  6
Continuous
 62
     3
100
AcDbLine
 10
113.6301235666834
 20
533.298140844758
 30
0.0
 11
113.6301235666834
 21
623.2981381625492
 31
0.0
  0
LINE
  5
222
330
A
100
AcDbEntity
  8
PV
  6
Continuous
 62
     3
100
AcDbLine
 10
105.6301543226792
 20
533.298140844758
 30
0.0
 11
105.6301543226792
 21
623.2981381625492
 31
0.0
  0
LINE
  5
223
330
A
100
AcDbEntity
  8
PV
  6
Continuous
 62
     3
100
AcDbLine
 10
225.6301507464006
 20
536.2981407553511
 30
0.0
 11
225.6301507464006
 21
620.2981382519562
 31
0.0
  0
LINE
  5
224
330
A
100
AcDbEntity
  8
PV
  6
Continuous
 62
     3
100
AcDbLine
 10
185.6302129736479
 20
553.2981097311344
 30
0.0
 11
222.6301508358076
 21
553.2981097311344
 31
0.0
  0
LINE
  5
225
330
A
100
AcDbEntity
  8
PV
  6
Continuous
 62
     3
100
AcDbLine
 10
185.6302129736479
 20
603.2981692761729
 30
0.0
 11
222.6301508358076
 21
603.2981692761729
 31
0.0
  0
LINE
  5
226
330
A
100
AcDbEntity
  8
PV
  6
Continuous
 62
     3
100
AcDbLine
 10
52.63008342295637
 20
533.298140844758
 30
0.0
 11
222.6301508358076
 21
533.298140844758
 31
0.0
  0
LINE
  5
227
330
A
100
AcDbEntity
  8
PV
  6
Continuous
 62
     3
100
AcDbLine
 10
52.63008342295637
 20
623.2981381625492
 30
0.0
 11
222.6301508358076
 21
623.2981381625492
 31
0.0
  0
LINE
  5
228
330
A
100
AcDbEntity
  8
PV
  6
Continuous
 62
     3
100
AcDbLine
 10
185.6302129736479
 20
533.298140844758
 30
0.0
 11
185.6302129736479
 21
623.2981381625492
 31
0.0
  0
LINE
  5
229
330
A
100
AcDbEntity
  8
PV
  6
Continuous
 62
     3
100
AcDbLine
 10
40.63008378058422
 20
513.2981719583817
 30
0.0
 11
40.63008378058422
 21
643.2981070489255
 31
0.0
  0
LINE
  5
22A
330
A
100
AcDbEntity
  8
PV
  6
Continuous
 62
     3
100
AcDbLine
 10
27.63017381339747
 20
508.2981110722389
 30
0.0
 11
27.63017381339747
 21
548.2981403977232
 31
0.0
  0
LINE
  5
22B
330
A
100
AcDbEntity
  8
PV
  6
Continuous
 62
     3
100
AcDbLine
 10
32.63014886885438
 20
458.2981430799322
 30
0.0
 11
32.63014886885438
 21
698.298135927375
 31
0.0
  0
LINE
  5
22C
330
A
100
AcDbEntity
  8
PV
  6
Continuous
 62
     3
100
AcDbLine
 10
-89.36991425246256
 20
419.0481137320961
 30
0.0
 11
-89.36991425246256
 21
533.7482140735324
 31
0.0
  0
LINE
  5
22D
330
A
100
AcDbEntity
  8
PV
  6
Continuous
 62
     3
100
AcDbLine
 10
-364.3698011526525
 20
419.0481137320961
 30
0.0
 11
-89.36991425246256
 21
419.0481137320961
 31
0.0
  0
LINE
  5
22E
330
A
100
AcDbEntity
  8
PV
  6
Continuous
 62
     3
100
AcDbLine
 10
-364.3698011526525
 20
393.2981755346603
 30
0.0
 11
-364.3698011526525
 21
763.2980119199153
 31
0.0
  0
LINE
  5
22F
330
A
100
AcDbEntity
  8
PV
  6
Continuous
 62
     3
100
AcDbLine
 10
-394.3698002585828
 20
393.2981755346603
 30
0.0
 11
-364.3698011526525
 21
393.2981755346603
 31
0.0
  0
LINE
  5
230
330
A
100
AcDbEntity
  8
PV
  6
Continuous
 62
     3
100
AcDbLine
 10
-394.3698002585828
 20
763.2980119199153
 30
0.0
 11
-364.3698011526525
 21
763.2980119199153
 31
0.0
  0
LINE
  5
231
330
A
100
AcDbEntity
  8
PV
  6
Continuous
 62
     3
100
AcDbLine
 10
-394.3698002585828
 20
393.2981755346603
 30
0.0
 11
-394.3698002585828
 21
763.2980119199153
 31
0.0
  0
LINE
  5
232
330
A
100
AcDbEntity
  8
PV
  6
Continuous
 62
     3
100
AcDbLine
 10
-379.3698007056176
 20
393.2981755346603
 30
0.0
 11
-379.3698007056176
 21
763.2980119199153
 31
0.0
  0
LINE
  5
233
330
A
100
AcDbEntity
  8
PV
  6
Continuous
 62
     3
100
AcDbLine
 10
-199.3698060700355
 20
414.0481443986849
 30
0.0
 11
-199.3698060700355
 21
419.0481137320961
 31
0.0
  0
LINE
  5
234
330
A
100
AcDbEntity
  8
PV
  6
Continuous
 62
     3
100
AcDbLine
 10
-269.3699260541819
 20
414.0481443986849
 30
0.0
 11
-269.3699260541819
 21
419.0481137320961
 31
0.0
  0
LINE
  5
235
330
A
100
AcDbEntity
  8
PV
  6
CENTER
 62
     7
100
AcDbLine
 10
-234.3699576148403
 20
383.5478096143064
 30
0.0
 11
-234.3699576148403
 21
763.2980119199153
 31
0.0
  0
LINE
  5
236
330
A
100
AcDbEntity
  8
PV
  6
CENTER
 62
     7
100
AcDbLine
 10
-334.3699851521854
 20
-395.7330204327994
 30
0.0
 11
-334.3699851521854
 21
-425.7330195387297
 31
0.0
  0
LINE
  5
237
330
A
100
AcDbEntity
  8
PV
  6
CENTER
 62
     7
100
AcDbLine
 10
-134.369746972032
 20
-395.7330204327994
 30
0.0
 11
-134.369746972032
 21
-425.7330195387297
 31
0.0
  0
LINE
  5
238
330
A
100
AcDbEntity
  8
PV
  6
CENTER
 62
     7
100
AcDbLine
 10
-716.9140106167194
 20
-395.7330204327994
 30
0.0
 11
-716.9140106167194
 21
-425.7330195387297
 31
0.0
  0
LINE
  5
239
330
A
100
AcDbEntity
  8
PV
  6
CENTER
 62
     7
100
AcDbLine
 10
-916.9141572441411
 20
-395.7330204327994
 30
0.0
 11
-916.9141572441411
 21
-425.7330195387297
 31
0.0
  0
LINE
  5
23A
330
A
100
AcDbEntity
  8
PV
  6
Continuous
 62
     3
100
AcDbLine
 10
-774.1903150620962
 20
-405.7330506523534
 30
0.0
 11
-746.9140097226498
 21
-405.7330506523534
 31
0.0
  0
LINE
  5
23B
330
A
100
AcDbEntity
  8
PV
  6
Continuous
 62
     3
100
AcDbLine
 10
-886.9141581382107
 20
-405.7330506523534
 30
0.0
 11
-859.6378527987644
 21
-405.7330506523534
 31
0.0
  0
LINE
  5
23C
330
A
100
AcDbEntity
  8
PV
  6
Continuous
 62
     3
100
AcDbLine
 10
-735.4140711005308
 20
-410.7330199857646
 30
0.0
 11
-699.914041640936
 21
-410.7330199857646
 31
0.0
  0
LINE
  5
23D
330
A
100
AcDbEntity
  8
PV
  6
Continuous
 62
     3
100
AcDbLine
 10
-886.9141581382107
 20
-410.7330199857646
 30
0.0
 11
-746.9140097226498
 21
-410.7330199857646
 31
0.0
  0
LINE
  5
23E
330
A
100
AcDbEntity
  8
PV
  6
Continuous
 62
     3
100
AcDbLine
 10
-746.9140097226498
 20
-415.7329893191757
 30
0.0
 11
-696.9142248358062
 21
-415.7329893191757
 31
0.0
  0
LINE
  5
23F
330
A
100
AcDbEntity
  8
PV
  6
Continuous
 62
     3
100
AcDbLine
 10
-741.9142234947019
 20
-394.8492619142156
 30
0.0
 11
-741.9142234947019
 21
-404.2330506970569
 31
0.0
  0
LINE
  5
240
330
A
100
AcDbEntity
  8
PV
  6
Continuous
 62
     3
100
AcDbLine
 10
-891.9142190243537
 20
-394.8492619142156
 30
0.0
 11
-891.9142190243537
 21
-404.2330506970569
 31
0.0
  0
LINE
  5
241
330
A
100
AcDbEntity
  8
PV
  6
Continuous
 62
     3
100
AcDbLine
 10
-933.9141262199245
 20
-410.7330199857646
 30
0.0
 11
-898.4140967603297
 21
-410.7330199857646
 31
0.0
  0
LINE
  5
242
330
A
100
AcDbEntity
  8
PV
  6
Continuous
 62
     3
100
AcDbLine
 10
-936.9142176832491
 20
-413.7330198963576
 30
0.0
 11
-936.9142176832491
 21
-415.7329893191757
 31
0.0
  0
LINE
  5
243
330
A
100
AcDbEntity
  8
PV
  6
Continuous
 62
     3
100
AcDbLine
 10
-696.9142248358062
 20
-413.7330198963576
 30
0.0
 11
-696.9142248358062
 21
-415.7329893191757
 31
0.0
  0
LINE
  5
244
330
A
100
AcDbEntity
  8
PV
  6
Continuous
 62
     3
100
AcDbLine
 10
-886.9141581382107
 20
-396.9793277687035
 30
0.0
 11
-886.9141581382107
 21
-415.7329893191757
 31
0.0
  0
LINE
  5
245
330
A
100
AcDbEntity
  8
PV
  6
Continuous
 62
     3
100
AcDbLine
 10
-746.9140097226498
 20
-396.9793277687035
 30
0.0
 11
-746.9140097226498
 21
-415.7329893191757
 31
0.0
  0
LINE
  5
246
330
A
100
AcDbEntity
  8
PV
  6
Continuous
 62
     3
100
AcDbLine
 10
-936.9142176832491
 20
-415.7329893191757
 30
0.0
 11
-886.9141581382107
 21
-415.7329893191757
 31
0.0
  0
LINE
  5
247
330
A
100
AcDbEntity
  8
PV
  6
Continuous
 62
     3
100
AcDbLine
 10
-914.1641343238495
 20
-82.69396936000159
 30
0.0
 11
-903.1640951965645
 21
-89.04484502522292
 31
0.0
  0
LINE
  5
248
330
A
100
AcDbEntity
  8
PV
  6
Continuous
 62
     3
100
AcDbLine
 10
-903.1642028471392
 20
-63.64482540277127
 30
0.0
 11
-892.1643222938341
 21
-69.99560951526098
 31
0.0
  0
LINE
  5
249
330
A
100
AcDbEntity
  8
PV
  6
Continuous
 62
     3
100
AcDbLine
 10
-903.1643320280556
 20
-89.04476152398023
 30
0.0
 11
-892.1644514747507
 21
-82.69397741149054
 31
0.0
  0
LINE
  5
24A
330
A
100
AcDbEntity
  8
PV
  6
Continuous
 62
     3
100
AcDbLine
 10
-914.1643092811317
 20
-69.99553827975997
 30
0.0
 11
-903.1642701538469
 21
-63.64466261453863
 31
0.0
  0
LINE
  5
24B
330
A
100
AcDbEntity
  8
PV
  6
Continuous
 62
     3
100
AcDbLine
 10
-914.1640962909431
 20
-69.9954965711982
 30
0.0
 11
-914.1640962909431
 21
-82.69386045056997
 31
0.0
  0
LINE
  5
24C
330
A
100
AcDbEntity
  8
PV
  6
Continuous
 62
     3
100
AcDbLine
 10
-892.1641579817487
 20
-69.9954965711982
 30
0.0
 11
-892.1641579817487
 21
-82.69386045056997
 31
0.0
  0
LINE
  5
24D
330
A
100
AcDbEntity
  8
PV
  6
Continuous
 62
     3
100
AcDbLine
 10
-741.6641754674786
 20
-82.69395125509127
 30
0.0
 11
-730.6641363401937
 21
-89.04482692031262
 31
0.0
  0
LINE
  5
24E
330
A
100
AcDbEntity
  8
PV
  6
Continuous
 62
     3
100
AcDbLine
 10
-730.6642439907682
 20
-63.64480729786096
 30
0.0
 11
-719.6643634374632
 21
-69.99559141035065
 31
0.0
  0
LINE
  5
24F
330
A
100
AcDbEntity
  8
PV
  6
Continuous
 62
     3
100
AcDbLine
 10
-730.6642145977048
 20
-89.0446880761589
 30
0.0
 11
-719.6643340443999
 21
-82.69390396366921
 31
0.0
  0
LINE
  5
250
330
A
100
AcDbEntity
  8
PV
  6
Continuous
 62
     3
100
AcDbLine
 10
-741.6641918507809
 20
-69.99546483193864
 30
0.0
 11
-730.664311297476
 21
-63.64468071944894
 31
0.0
  0
LINE
  5
251
330
A
100
AcDbEntity
  8
PV
  6
Continuous
 62
     3
100
AcDbLine
 10
-741.6641014318436
 20
-69.9954965711982
 30
0.0
 11
-741.6641014318436
 21
-82.69386045056997
 31
0.0
  0
LINE
  5
252
330
A
100
AcDbEntity
  8
PV
  6
Continuous
 62
     3
100
AcDbLine
 10
-719.6641631226491
 20
-69.9954965711982
 30
0.0
 11
-719.6641631226491
 21
-82.69386045056997
 31
0.0
  0
LINE
  5
253
330
A
100
AcDbEntity
  8
PV
  6
Continuous
 62
     3
100
AcDbLine
 10
-655.4140554666775
 20
-232.0833997223028
 30
0.0
 11
-644.4141749133726
 21
-238.4341838347924
 31
0.0
  0
LINE
  5
254
330
A
100
AcDbEntity
  8
PV
  6
Continuous
 62
     3
100
AcDbLine
 10
-644.4142825639471
 20
-213.0341642123408
 30
0.0
 11
-633.4142434366623
 21
-219.3850398775621
 31
0.0
  0
LINE
  5
255
330
A
100
AcDbEntity
  8
PV
  6
Continuous
 62
     3
100
AcDbLine
 10
-644.4141713917892
 20
-238.434142382539
 30
0.0
 11
-633.4142908384842
 21
-232.0833582700494
 31
0.0
  0
LINE
  5
256
330
A
100
AcDbEntity
  8
PV
  6
Continuous
 62
     3
100
AcDbLine
 10
-655.4141486448653
 20
-219.3849191383187
 30
0.0
 11
-644.4142680915604
 21
-213.034135025829
 31
0.0
  0
LINE
  5
257
330
A
100
AcDbEntity
  8
PV
  6
Continuous
 62
     3
100
AcDbLine
 10
-655.4141040022938
 20
-219.3847896044019
 30
0.0
 11
-655.4141040022938
 21
-232.0831534837736
 31
0.0
  0
LINE
  5
258
330
A
100
AcDbEntity
  8
PV
  6
Continuous
 62
     3
100
AcDbLine
 10
-633.4141656930993
 20
-219.3847896044019
 30
0.0
 11
-633.4141656930993
 21
-232.0831534837736
 31
0.0
  0
LINE
  5
259
330
A
100
AcDbEntity
  8
PV
  6
Continuous
 62
     3
100
AcDbLine
 10
-741.6640528962274
 20
-381.4727747416929
 30
0.0
 11
-730.6641723429224
 21
-387.8235588541826
 31
0.0
  0
LINE
  5
25A
330
A
100
AcDbEntity
  8
PV
  6
Continuous
 62
     3
100
AcDbLine
 10
-730.6642799934969
 20
-362.4235392317309
 30
0.0
 11
-719.664240866212
 21
-368.7744148969523
 31
0.0
  0
LINE
  5
25B
330
A
100
AcDbEntity
  8
PV
  6
Continuous
 62
     3
100
AcDbLine
 10
-730.6643028366817
 20
-387.823571028003
 30
0.0
 11
-719.6644222833768
 21
-381.4727869155133
 31
0.0
  0
LINE
  5
25C
330
A
100
AcDbEntity
  8
PV
  6
Continuous
 62
     3
100
AcDbLine
 10
-741.6642858118035
 20
-368.774337872909
 30
0.0
 11
-730.6642466845187
 21
-362.4234622076877
 31
0.0
  0
LINE
  5
25D
330
A
100
AcDbEntity
  8
PV
  6
Continuous
 62
     3
100
AcDbLine
 10
-741.6641014318436
 20
-368.7742199667031
 30
0.0
 11
-741.6641014318436
 21
-381.4725838460748
 31
0.0
  0
LINE
  5
25E
330
A
100
AcDbEntity
  8
PV
  6
Continuous
 62
     3
100
AcDbLine
 10
-719.6641631226491
 20
-368.7742199667031
 30
0.0
 11
-719.6641631226491
 21
-381.4725838460748
 31
0.0
  0
LINE
  5
25F
330
A
100
AcDbEntity
  8
PV
  6
Continuous
 62
     3
100
AcDbLine
 10
-914.1641703265781
 20
-381.4727012938715
 30
0.0
 11
-903.1641311992933
 21
-387.8235769590929
 31
0.0
  0
LINE
  5
260
330
A
100
AcDbEntity
  8
PV
  6
Continuous
 62
     3
100
AcDbLine
 10
-903.1642388498678
 20
-362.4235573366413
 30
0.0
 11
-892.1643582965627
 21
-368.7743414491309
 31
0.0
  0
LINE
  5
261
330
A
100
AcDbEntity
  8
PV
  6
Continuous
 62
     3
100
AcDbLine
 10
-903.164296025327
 20
-387.8234934578502
 30
0.0
 11
-892.1644154720219
 21
-381.4727093453605
 31
0.0
  0
LINE
  5
262
330
A
100
AcDbEntity
  8
PV
  6
Continuous
 62
     3
100
AcDbLine
 10
-914.1642732784031
 20
-368.7742702136299
 30
0.0
 11
-903.1642341511181
 21
-362.4233945484086
 31
0.0
  0
LINE
  5
263
330
A
100
AcDbEntity
  8
PV
  6
Continuous
 62
     3
100
AcDbLine
 10
-914.1640962909431
 20
-368.7741284139714
 30
0.0
 11
-914.1640962909431
 21
-381.4724922933432
 31
0.0
  0
LINE
  5
264
330
A
100
AcDbEntity
  8
PV
  6
Continuous
 62
     3
100
AcDbLine
 10
-892.1641579817487
 20
-368.7741284139714
 30
0.0
 11
-892.1641579817487
 21
-381.4724922933432
 31
0.0
  0
LINE
  5
265
330
A
100
AcDbEntity
  8
PV
  6
Continuous
 62
     3
100
AcDbLine
 10
-1000.414131753399
 20
-232.0833443793917
 30
0.0
 11
-989.4140926261142
 21
-238.434220044613
 31
0.0
  0
LINE
  5
266
330
A
100
AcDbEntity
  8
PV
  6
Continuous
 62
     3
100
AcDbLine
 10
-989.4142002766889
 20
-213.0342004221614
 30
0.0
 11
-978.414319723384
 21
-219.3849845346511
 31
0.0
  0
LINE
  5
267
330
A
100
AcDbEntity
  8
PV
  6
Continuous
 62
     3
100
AcDbLine
 10
-989.4142934548765
 20
-238.4341184384601
 30
0.0
 11
-978.4144129015716
 21
-232.0833343259704
 31
0.0
  0
LINE
  5
268
330
A
100
AcDbEntity
  8
PV
  6
Continuous
 62
     3
100
AcDbLine
 10
-1000.414270707953
 20
-219.3848951942398
 30
0.0
 11
-989.414231580668
 21
-213.0340195290184
 31
0.0
  0
LINE
  5
269
330
A
100
AcDbEntity
  8
PV
  6
Continuous
 62
     3
100
AcDbLine
 10
-1000.414093720493
 20
-219.3847896044019
 30
0.0
 11
-1000.414093720493
 21
-232.0831534837736
 31
0.0
  0
LINE
  5
26A
330
A
100
AcDbEntity
  8
PV
  6
Continuous
 62
     3
100
AcDbLine
 10
-978.4141554112984
 20
-219.3847896044019
 30
0.0
 11
-978.4141554112984
 21
-232.0831534837736
 31
0.0
  0
LINE
  5
26B
330
A
100
AcDbEntity
  8
PV
  6
CENTER
 62
     7
100
AcDbLine
 10
-735.6643581241009
 20
-366.4632098983504
 30
0.0
 11
-725.6643193214783
 21
-383.7837848712792
 31
0.0
  0
LINE
  5
26C
330
A
100
AcDbEntity
  8
PV
  6
CENTER
 62
     7
100
AcDbLine
 10
-908.1643329560403
 20
-67.6844945476282
 30
0.0
 11
-898.1643485128522
 21
-85.00497536725649
 31
0.0
  0
LINE
  5
26D
330
A
100
AcDbEntity
  8
PV
  6
CENTER
 62
     7
100
AcDbLine
 10
-735.6642449187529
 20
-85.005074274213
 30
0.0
 11
-725.6641689228331
 21
-67.68443488060478
 31
0.0
  0
LINE
  5
26E
330
A
100
AcDbEntity
  8
PV
  6
CENTER
 62
     7
100
AcDbLine
 10
-908.1642397778525
 20
-383.7838243129933
 30
0.0
 11
-898.1641637819326
 21
-366.4631849193851
 31
0.0
  0
LINE
  5
26F
330
A
100
AcDbEntity
  8
PV
  6
Continuous
 62
     3
100
AcDbLine
 10
-819.4141601498674
 20
112.2658963124187
 30
0.0
 11
-819.4141601498674
 21
77.26592787307716
 31
0.0
  0
LINE
  5
270
330
A
100
AcDbEntity
  8
PV
  6
Continuous
 62
     3
100
AcDbLine
 10
-814.4140077109931
 20
112.2658963124187
 30
0.0
 11
-814.4140077109931
 21
77.26592787307716
 31
0.0
  0
LINE
  5
271
330
A
100
AcDbEntity
  8
PV
  6
Continuous
 62
     3
100
AcDbLine
 10
-861.4642382423808
 20
136.265895597163
 30
0.0
 11
-861.4642382423808
 21
172.2658945242794
 31
0.0
  0
LINE
  5
272
330
A
100
AcDbEntity
  8
PV
  6
Continuous
 62
     3
100
AcDbLine
 10
-772.3642042766749
 20
136.265895597163
 30
0.0
 11
-772.3642042766749
 21
172.2658945242794
 31
0.0
  0
LINE
  5
273
330
A
100
AcDbEntity
  8
PV
  6
Continuous
 62
     3
100
AcDbLine
 10
-896.9140052523014
 20
172.2658945242794
 30
0.0
 11
-896.9140052523014
 21
184.2660772721148
 31
0.0
  0
LINE
  5
274
330
A
100
AcDbEntity
  8
PV
  6
Continuous
 62
     3
100
AcDbLine
 10
-736.9141626085591
 20
172.2658945242794
 30
0.0
 11
-736.9141626085591
 21
184.2660772721148
 31
0.0
  0
LINE
  5
275
330
A
100
AcDbEntity
  8
PV
  6
Continuous
 62
     3
100
AcDbLine
 10
-896.9140052523014
 20
172.2658945242794
 30
0.0
 11
-736.9141626085591
 21
172.2658945242794
 31
0.0
  0
LINE
  5
276
330
A
100
AcDbEntity
  8
PV
  6
Continuous
 62
     3
100
AcDbLine
 10
-896.9140052523014
 20
184.2660772721148
 30
0.0
 11
-736.9141626085591
 21
184.2660772721148
 31
0.0
  0
LINE
  5
277
330
A
100
AcDbEntity
  8
PV
  6
Continuous
 62
     3
100
AcDbLine
 10
-819.4141601498674
 20
77.26592787307716
 30
0.0
 11
-814.4140077109931
 21
77.26592787307716
 31
0.0
  0
LINE
  5
278
330
A
100
AcDbEntity
  8
PV
  6
Continuous
 62
     3
100
AcDbLine
 10
-934.4140041347143
 20
136.265895597163
 30
0.0
 11
-699.414163726146
 21
136.265895597163
 31
0.0
  0
LINE
  5
279
330
A
100
AcDbEntity
  8
PV
  6
Continuous
 62
     3
100
AcDbLine
 10
-734.314065029798
 20
-60.19788371926892
 30
0.0
 11
-734.314065029798
 21
112.2658963124187
 31
0.0
  0
LINE
  5
27A
330
A
100
AcDbEntity
  8
PV
  6
Continuous
 62
     3
100
AcDbLine
 10
-899.5141028310625
 20
-60.19788371926892
 30
0.0
 11
-899.5141028310625
 21
112.2658963124187
 31
0.0
  0
LINE
  5
27B
330
A
100
AcDbEntity
  8
PV
  6
Continuous
 62
     3
100
AcDbLine
 10
-934.4140041347143
 20
112.2658963124187
 30
0.0
 11
-934.4140041347143
 21
136.265895597163
 31
0.0
  0
LINE
  5
27C
330
A
100
AcDbEntity
  8
PV
  6
Continuous
 62
     3
100
AcDbLine
 10
-699.414163726146
 20
112.2658963124187
 30
0.0
 11
-699.414163726146
 21
136.265895597163
 31
0.0
  0
LINE
  5
27D
330
A
100
AcDbEntity
  8
PV
  6
Continuous
 62
     3
100
AcDbLine
 10
-934.4140041347143
 20
112.2658963124187
 30
0.0
 11
-699.414163726146
 21
112.2658963124187
 31
0.0
  0
LINE
  5
27E
330
A
100
AcDbEntity
  8
PV
  6
Continuous
 62
     3
100
AcDbLine
 10
-934.4140041347143
 20
124.2658959547908
 30
0.0
 11
-699.414163726146
 21
124.2658959547908
 31
0.0
  0
LINE
  5
27F
330
A
100
AcDbEntity
  8
PV
  6
Continuous
 62
     3
100
AcDbLine
 10
-405.8697388807017
 20
-289.7339086015848
 30
0.0
 11
-394.3698002585828
 21
-289.7339086015848
 31
0.0
  0
LINE
  5
280
330
A
100
AcDbEntity
  8
PV
  6
Continuous
 62
     3
100
AcDbLine
 10
-405.8697388807017
 20
-201.7339722593435
 30
0.0
 11
-394.3698002585828
 21
-201.7339722593435
 31
0.0
  0
LINE
  5
281
330
A
100
AcDbEntity
  8
PV
  6
Continuous
 62
     3
100
AcDbLine
 10
-405.8697388807017
 20
-201.7339722593435
 30
0.0
 11
-405.8697388807017
 21
-289.7339086015848
 31
0.0
  0
LINE
  5
282
330
A
100
AcDbEntity
  8
PV
  6
Continuous
 62
     3
100
AcDbLine
 10
113.6301235666834
 20
-153.7339736898549
 30
0.0
 11
185.6302129736479
 21
-153.7339736898549
 31
0.0
  0
LINE
  5
283
330
A
100
AcDbEntity
  8
PV
  6
Continuous
 62
     3
100
AcDbLine
 10
-278.9199745976932
 20
136.265895597163
 30
0.0
 11
-278.9199745976932
 21
172.2658945242794
 31
0.0
  0
LINE
  5
284
330
A
100
AcDbEntity
  8
PV
  6
Continuous
 62
     3
100
AcDbLine
 10
-189.8197575265241
 20
136.265895597163
 30
0.0
 11
-189.8197575265241
 21
172.2658945242794
 31
0.0
  0
LINE
  5
285
330
A
100
AcDbEntity
  8
PV
  6
Continuous
 62
     3
100
AcDbLine
 10
-314.3699247130774
 20
172.2658945242794
 30
0.0
 11
-314.3699247130774
 21
184.2660772721148
 31
0.0
  0
LINE
  5
286
330
A
100
AcDbEntity
  8
PV
  6
Continuous
 62
     3
100
AcDbLine
 10
-154.3698989638716
 20
172.2658945242794
 30
0.0
 11
-154.3698989638716
 21
184.2660772721148
 31
0.0
  0
LINE
  5
287
330
A
100
AcDbEntity
  8
PV
  6
Continuous
 62
     3
100
AcDbLine
 10
-314.3699247130774
 20
172.2658945242794
 30
0.0
 11
-154.3698989638716
 21
172.2658945242794
 31
0.0
  0
LINE
  5
288
330
A
100
AcDbEntity
  8
PV
  6
Continuous
 62
     3
100
AcDbLine
 10
-314.3699247130774
 20
184.2660772721148
 30
0.0
 11
-154.3698989638716
 21
184.2660772721148
 31
0.0
  0
LINE
  5
289
330
A
100
AcDbEntity
  8
PV
  6
Continuous
 62
     3
100
AcDbLine
 10
-351.8699170131809
 20
87.26590217154891
 30
0.0
 11
-341.8699066953094
 21
77.26589185367743
 31
0.0
  0
LINE
  5
28A
330
A
100
AcDbEntity
  8
PV
  6
Continuous
 62
     3
100
AcDbLine
 10
-326.9699107429478
 20
112.2657337535587
 30
0.0
 11
-316.9699004250763
 21
102.2657234356873
 31
0.0
  0
LINE
  5
28B
330
A
100
AcDbEntity
  8
PV
  6
Continuous
 62
     3
100
AcDbLine
 10
-341.8698018232047
 20
77.26592787307716
 30
0.0
 11
-316.9699307391068
 21
77.26592787307716
 31
0.0
  0
LINE
  5
28C
330
A
100
AcDbEntity
  8
PV
  6
Continuous
 62
     3
100
AcDbLine
 10
-151.7699784042117
 20
78.81587484090008
 30
0.0
 11
-141.7700328238965
 21
68.81592926058488
 31
0.0
  0
LINE
  5
28D
330
A
100
AcDbEntity
  8
PV
  6
Continuous
 62
     3
100
AcDbLine
 10
-151.7700471878653
 20
102.2659500171342
 30
0.0
 11
-141.7700571004801
 21
112.2659401045194
 31
0.0
  0
LINE
  5
28E
330
A
100
AcDbEntity
  8
PV
  6
Continuous
 62
     3
100
AcDbLine
 10
-351.8698320427587
 20
136.265895597163
 30
0.0
 11
-116.8699000814586
 21
136.265895597163
 31
0.0
  0
LINE
  5
28F
330
A
100
AcDbEntity
  8
PV
  6
Continuous
 62
     3
100
AcDbLine
 10
-151.7698929378422
 20
68.81588540029866
 30
0.0
 11
-151.7698929378422
 21
112.2658963124187
 31
0.0
  0
LINE
  5
290
330
A
100
AcDbEntity
  8
PV
  6
Continuous
 62
     3
100
AcDbLine
 10
-177.4908897427563
 20
24.26583979139738
 30
0.0
 11
-151.7699880663668
 21
-20.28406792900072
 31
0.0
  0
LINE
  5
291
330
A
100
AcDbEntity
  8
PV
  6
Continuous
 62
     3
100
AcDbLine
 10
-177.4908969161372
 20
24.26588331224585
 30
0.0
 11
-151.7699322972447
 21
68.81590005225516
 31
0.0
  0
LINE
  5
292
330
A
100
AcDbEntity
  8
PV
  6
Continuous
 62
     3
100
AcDbLine
 10
-151.7698929378422
 20
-20.28403412449258
 30
0.0
 11
-46.36998229116254
 21
-20.28403412449258
 31
0.0
  0
LINE
  5
293
330
A
100
AcDbEntity
  8
PV
  6
Continuous
 62
     3
100
AcDbLine
 10
-151.7698929378422
 20
68.81588540029866
 30
0.0
 11
-46.36998229116254
 21
68.81588540029866
 31
0.0
  0
LINE
  5
294
330
A
100
AcDbEntity
  8
PV
  6
Continuous
 62
     3
100
AcDbLine
 10
-46.36998229116254
 20
-55.73405290442547
 30
0.0
 11
-34.36997120469894
 21
-55.73405290442547
 31
0.0
  0
LINE
  5
295
330
A
100
AcDbEntity
  8
PV
  6
Continuous
 62
     3
100
AcDbLine
 10
-46.36998229116254
 20
104.2659270684145
 30
0.0
 11
-34.36997120469894
 21
104.2659270684145
 31
0.0
  0
LINE
  5
296
330
A
100
AcDbEntity
  8
PV
  6
Continuous
 62
     3
100
AcDbLine
 10
-46.36998229116254
 20
-55.73405290442547
 30
0.0
 11
-46.36998229116254
 21
104.2659270684145
 31
0.0
  0
LINE
  5
297
330
A
100
AcDbEntity
  8
PV
  6
Continuous
 62
     3
100
AcDbLine
 10
-34.36997120469894
 20
-55.73405290442547
 30
0.0
 11
-34.36997120469894
 21
104.2659270684145
 31
0.0
  0
LINE
  5
298
330
A
100
AcDbEntity
  8
PV
  6
CENTER
 62
     7
100
AcDbLine
 10
-177.490808919346
 20
24.26586841744577
 30
0.0
 11
15.63008261829368
 21
24.26586841744577
 31
0.0
  0
LINE
  5
299
330
A
100
AcDbEntity
  8
PV
  6
Continuous
 62
     3
100
AcDbLine
 10
-316.9698411708834
 20
-66.48414421650483
 30
0.0
 11
-234.369923613351
 21
-114.1732297093218
 31
0.0
  0
LINE
  5
29A
330
A
100
AcDbEntity
  8
PV
  6
Continuous
 62
     3
100
AcDbLine
 10
-234.3701373080997
 20
-114.1731889654387
 30
0.0
 11
-151.7699818895973
 21
-66.48396614352432
 31
0.0
  0
LINE
  5
29B
330
A
100
AcDbEntity
  8
PV
  6
Continuous
 62
     3
100
AcDbLine
 10
-151.7698929378422
 20
-66.48408882367346
 30
0.0
 11
-89.36991425246256
 21
-66.48408882367346
 31
0.0
  0
LINE
  5
29C
330
A
100
AcDbEntity
  8
PV
  6
Continuous
 62
     3
100
AcDbLine
 10
-316.9699307391068
 20
35.41689957925977
 30
0.0
 11
-316.9699307391068
 21
112.2658963124187
 31
0.0
  0
LINE
  5
29D
330
A
100
AcDbEntity
  8
PV
  6
Continuous
 62
     3
100
AcDbLine
 10
-351.8698320427587
 20
87.2659294824025
 30
0.0
 11
-351.8698320427587
 21
136.265895597163
 31
0.0
  0
LINE
  5
29E
330
A
100
AcDbEntity
  8
PV
  6
Continuous
 62
     3
100
AcDbLine
 10
-116.8699000814586
 20
68.81588540029866
 30
0.0
 11
-116.8699000814586
 21
136.265895597163
 31
0.0
  0
LINE
  5
29F
330
A
100
AcDbEntity
  8
PV
  6
Continuous
 62
     3
100
AcDbLine
 10
-351.8698320427587
 20
112.2658963124187
 30
0.0
 11
-116.8699000814586
 21
112.2658963124187
 31
0.0
  0
LINE
  5
2A0
330
A
100
AcDbEntity
  8
PV
  6
Continuous
 62
     3
100
AcDbLine
 10
-104.3699309715649
 20
-362.141224558913
 30
0.0
 11
-104.3699309715649
 21
-66.48408882367346
 31
0.0
  0
LINE
  5
2A1
330
A
100
AcDbEntity
  8
PV
  6
Continuous
 62
     3
100
AcDbLine
 10
-316.9699307391068
 20
-66.48408882367346
 30
0.0
 11
-316.9699307391068
 21
3.100643184761906
 31
0.0
  0
LINE
  5
2A2
330
A
100
AcDbEntity
  8
PV
  6
Continuous
 62
     3
100
AcDbLine
 10
-151.7698929378422
 20
-66.48408882367346
 30
0.0
 11
-151.7698929378422
 21
-20.28403412449258
 31
0.0
  0
LINE
  5
2A3
330
A
100
AcDbEntity
  8
PV
  6
Continuous
 62
     3
100
AcDbLine
 10
-364.3698011526525
 20
-66.48408882367346
 30
0.0
 11
-316.9699307391068
 21
-66.48408882367346
 31
0.0
  0
LINE
  5
2A4
330
A
100
AcDbEntity
  8
PV
  6
Continuous
 62
     3
100
AcDbLine
 10
-351.8698320427587
 20
124.2658959547908
 30
0.0
 11
-116.8699000814586
 21
124.2658959547908
 31
0.0
  0
LINE
  5
2A5
330
A
100
AcDbEntity
  8
PV
  6
CENTER
 62
     7
100
AcDbLine
 10
-484.3699806818372
 20
-225.7339715440878
 30
0.0
 11
15.63008261829368
 21
-225.7339715440878
 31
0.0
  0
LINE
  5
2A6
330
A
100
AcDbEntity
  8
PV
  6
CENTER
 62
     7
100
AcDbLine
 10
40.63008378058422
 20
-243.733971007646
 30
0.0
 11
235.8890005383193
 21
-243.733971007646
 31
0.0
  0
LINE
  5
2A7
330
A
100
AcDbEntity
  8
PV
  6
Continuous
 62
     3
100
AcDbLine
 10
40.63008378058422
 20
-273.7339701135763
 30
0.0
 11
97.63018507867499
 21
-273.7339701135763
 31
0.0
  0
LINE
  5
2A8
330
A
100
AcDbEntity
  8
PV
  6
Continuous
 62
     3
100
AcDbLine
 10
40.63008378058422
 20
-213.7339719017156
 30
0.0
 11
97.63018507867499
 21
-213.7339719017156
 31
0.0
  0
LINE
  5
2A9
330
A
100
AcDbEntity
  8
PV
  6
Continuous
 62
     3
100
AcDbLine
 10
97.63018507867499
 20
-213.7339719017156
 30
0.0
 11
97.63018507867499
 21
-198.7339723487504
 31
0.0
  0
LINE
  5
2AA
330
A
100
AcDbEntity
  8
PV
  6
Continuous
 62
     3
100
AcDbLine
 10
97.63018507867499
 20
-288.7339696665415
 30
0.0
 11
97.63018507867499
 21
-273.7339701135763
 31
0.0
  0
LINE
  5
2AB
330
A
100
AcDbEntity
  8
PV
  6
Continuous
 62
     3
100
AcDbLine
 10
31.63011265903376
 20
-255.7339706500181
 30
0.0
 11
31.63011265903376
 21
-197.7339418609755
 31
0.0
  0
LINE
  5
2AC
330
A
100
AcDbEntity
  8
PV
  6
Continuous
 62
     3
100
AcDbLine
 10
-44.36991559356703
 20
-197.7339418609755
 30
0.0
 11
32.63014886885438
 21
-197.7339418609755
 31
0.0
  0
LINE
  5
2AD
330
A
100
AcDbEntity
  8
PV
  6
Continuous
 62
     3
100
AcDbLine
 10
32.63014886885438
 20
-198.7328737159707
 30
0.0
 11
40.63008378058422
 21
-198.7328737159707
 31
0.0
  0
LINE
  5
2AE
330
A
100
AcDbEntity
  8
PV
  6
Continuous
 62
     3
100
AcDbLine
 10
113.6301235666834
 20
-288.7339696665415
 30
0.0
 11
113.6301235666834
 21
-153.7339736898549
 31
0.0
  0
LINE
  5
2AF
330
A
100
AcDbEntity
  8
PV
  6
Continuous
 62
     3
100
AcDbLine
 10
105.6301543226792
 20
-288.7339696665415
 30
0.0
 11
105.6301543226792
 21
-198.7339723487504
 31
0.0
  0
LINE
  5
2B0
330
A
100
AcDbEntity
  8
PV
  6
Continuous
 62
     3
100
AcDbLine
 10
225.6301507464006
 20
-285.7339697559485
 30
0.0
 11
225.6301507464006
 21
-201.7339722593435
 31
0.0
  0
LINE
  5
2B1
330
A
100
AcDbEntity
  8
PV
  6
Continuous
 62
     3
100
AcDbLine
 10
185.6302129736479
 20
-268.7340007801652
 30
0.0
 11
222.6301508358076
 21
-268.7340007801652
 31
0.0
  0
LINE
  5
2B2
330
A
100
AcDbEntity
  8
PV
  6
Continuous
 62
     3
100
AcDbLine
 10
185.6302129736479
 20
-218.7339412351268
 30
0.0
 11
222.6301508358076
 21
-218.7339412351268
 31
0.0
  0
LINE
  5
2B3
330
A
100
AcDbEntity
  8
PV
  6
Continuous
 62
     3
100
AcDbLine
 10
40.63008378058422
 20
-288.7339696665415
 30
0.0
 11
222.6301508358076
 21
-288.7339696665415
 31
0.0
  0
LINE
  5
2B4
330
A
100
AcDbEntity
  8
PV
  6
Continuous
 62
     3
100
AcDbLine
 10
40.63008378058422
 20
-198.7339723487504
 30
0.0
 11
222.6301508358076
 21
-198.7339723487504
 31
0.0
  0
LINE
  5
2B5
330
A
100
AcDbEntity
  8
PV
  6
Continuous
 62
     3
100
AcDbLine
 10
185.6302129736479
 20
-288.7339696665415
 30
0.0
 11
185.6302129736479
 21
-153.7339736898549
 31
0.0
  0
LINE
  5
2B6
330
A
100
AcDbEntity
  8
PV
  6
Continuous
 62
     3
100
AcDbLine
 10
32.63014886885438
 20
-405.7330506523534
 30
0.0
 11
40.63008378058422
 21
-405.7330506523534
 31
0.0
  0
LINE
  5
2B7
330
A
100
AcDbEntity
  8
PV
  6
Continuous
 62
     3
100
AcDbLine
 10
40.63008378058422
 20
-405.7330506523534
 30
0.0
 11
40.63008378058422
 21
-198.7328737159707
 31
0.0
  0
LINE
  5
2B9
330
A
100
AcDbEntity
  8
PV
  6
DASHED
 62
     3
100
AcDbLine
 10
27.63017381339747
 20
-410.7330199857646
 30
0.0
 11
27.63017381339747
 21
-365.7330213268691
 31
0.0
  0
LINE
  5
2BA
330
A
100
AcDbEntity
  8
PV
  6
Continuous
 62
     3
100
AcDbLine
 10
32.63014886885438
 20
-415.7329893191757
 30
0.0
 11
32.63014886885438
 21
-197.7339418609755
 31
0.0
  0
LINE
  5
2BB
330
A
100
AcDbEntity
  8
PV
  6
DASHED
 62
     3
100
AcDbLine
 10
-68.36990915626557
 20
-373.4140208538168
 30
0.0
 11
-68.36990915626557
 21
-379.7325326284012
 31
0.0
  0
LINE
  5
2BC
330
A
100
AcDbEntity
  8
PV
  6
Continuous
 62
     3
100
AcDbLine
 10
-89.36991425246256
 20
-362.141224558913
 30
0.0
 11
-89.36991425246256
 21
-66.48408882367346
 31
0.0
  0
LINE
  5
2BD
330
A
100
AcDbEntity
  8
PV
  6
Continuous
 62
     3
100
AcDbLine
 10
-354.3697709330985
 20
-410.7330199857646
 30
0.0
 11
32.63014886885438
 21
-410.7330199857646
 31
0.0
  0
LINE
  5
2BE
330
A
100
AcDbEntity
  8
PV
  6
Continuous
 62
     3
100
AcDbLine
 10
-9.369861323539575
 20
-365.7330213268691
 30
0.0
 11
32.63014886885438
 21
-365.7330213268691
 31
0.0
  0
LINE
  5
2BF
330
A
100
AcDbEntity
  8
PV
  6
Continuous
 62
     3
100
AcDbLine
 10
-354.3697709330985
 20
-365.7330213268691
 30
0.0
 11
-69.36985953540028
 21
-365.7330213268691
 31
0.0
  0
LINE
  5
2C0
330
A
100
AcDbEntity
  8
PV
  6
Continuous
 62
     3
100
AcDbLine
 10
-354.3697709330985
 20
-415.7329893191757
 30
0.0
 11
-354.3697709330985
 21
-365.7330213268691
 31
0.0
  0
LINE
  5
2C1
330
A
100
AcDbEntity
  8
PV
  6
Continuous
 62
     3
100
AcDbLine
 10
-54.36994581312102
 20
-255.7339706500181
 30
0.0
 11
-54.36994581312102
 21
-195.7339724381574
 31
0.0
  0
LINE
  5
2C2
330
A
100
AcDbEntity
  8
PV
  6
Continuous
 62
     3
100
AcDbLine
 10
490.8332373251546
 20
381.5966377974559
 30
0.0
 11
1030.833221231901
 21
381.5966377974559
 31
0.0
  0
LINE
  5
2C3
330
A
100
AcDbEntity
  8
PV
  6
Continuous
 62
     3
100
AcDbLine
 10
490.8332373251546
 20
417.5967282773039
 30
0.0
 11
1030.833221231901
 21
417.5967282773039
 31
0.0
  0
LINE
  5
2C4
330
A
100
AcDbEntity
  8
PV
  6
Continuous
 62
     3
100
AcDbLine
 10
490.8332373251546
 20
597.596997571081
 30
0.0
 11
1030.833221231901
 21
597.596997571081
 31
0.0
  0
LINE
  5
2C5
330
A
100
AcDbEntity
  8
PV
  6
Continuous
 62
     3
100
AcDbLine
 10
1030.833221231901
 20
633.5968133927341
 30
0.0
 11
1030.833221231901
 21
381.5966377974559
 31
0.0
  0
LINE
  5
2C6
330
A
100
AcDbEntity
  8
PV
  6
Continuous
 62
     3
100
AcDbLine
 10
490.8331077426161
 20
633.5969133247494
 30
0.0
 11
640.8330753282259
 21
597.5969255176023
 31
0.0
  0
LINE
  5
2C7
330
A
100
AcDbEntity
  8
PV
  6
Continuous
 62
     3
100
AcDbLine
 10
490.8332373251546
 20
633.5968133927341
 30
0.0
 11
1030.833221231901
 21
633.5968133927341
 31
0.0
  0
LINE
  5
2C8
330
A
100
AcDbEntity
  8
PV
  6
Continuous
 62
     3
100
AcDbLine
 10
490.8332373251546
 20
489.5967261315368
 30
0.0
 11
1030.833221231901
 21
489.5967261315368
 31
0.0
  0
LINE
  5
2C9
330
A
100
AcDbEntity
  8
PV
  6
Continuous
 62
     3
100
AcDbLine
 10
490.8332373251546
 20
453.5968187571519
 30
0.0
 11
1030.833221231901
 21
453.5968187571519
 31
0.0
  0
LINE
  5
2CA
330
A
100
AcDbEntity
  8
PV
  6
Continuous
 62
     3
100
AcDbLine
 10
490.8332373251546
 20
525.5967250586532
 30
0.0
 11
1030.833221231901
 21
525.5967250586532
 31
0.0
  0
LINE
  5
2CB
330
A
100
AcDbEntity
  8
PV
  6
Continuous
 62
     3
100
AcDbLine
 10
490.8332373251546
 20
561.5966324330379
 30
0.0
 11
1030.833221231901
 21
561.5966324330379
 31
0.0
  0
LINE
  5
2CC
330
A
100
AcDbEntity
  8
PV
  6
Continuous
 62
     3
100
AcDbLine
 10
640.8332328548064
 20
633.5968133927341
 30
0.0
 11
640.8332328548064
 21
381.5966377974559
 31
0.0
  0
LINE
  5
2CD
330
A
100
AcDbEntity
  8
PV
  6
Continuous
 62
     3
100
AcDbLine
 10
490.8332373251546
 20
633.5968133927341
 30
0.0
 11
490.8332373251546
 21
381.5966377974559
 31
0.0
  0
LINE
  5
2CE
330
A
100
AcDbEntity
  8
PV
  6
Continuous
 62
     3
100
AcDbLine
 10
-89.36991425246256
 20
-255.7339706500181
 30
0.0
 11
32.63014886885438
 21
-255.7339706500181
 31
0.0
  0
LINE
  5
2CF
330
A
100
AcDbEntity
  8
PV
  6
Continuous
 62
     3
100
AcDbLine
 10
-89.36991425246256
 20
-195.7339724381574
 30
0.0
 11
-44.36991559356703
 21
-195.7339724381574
 31
0.0
  0
LINE
  5
2D0
330
A
100
AcDbEntity
  8
PV
  6
Continuous
 62
     3
100
AcDbLine
 10
-44.36991559356703
 20
-255.7339706500181
 30
0.0
 11
-44.36991559356703
 21
-195.7339724381574
 31
0.0
  0
LINE
  5
2D1
330
A
100
AcDbEntity
  8
PV
  6
DASHED
 62
     3
100
AcDbLine
 10
-364.3698011526525
 20
-384.9839973156453
 30
0.0
 11
-89.36991425246256
 21
-384.9839973156453
 31
0.0
  0
LINE
  5
2D2
330
A
100
AcDbEntity
  8
PV
  6
DASHED
 62
     3
100
AcDbLine
 10
-89.36991425246256
 20
-384.9839973156453
 30
0.0
 11
-89.36991425246256
 21
-365.7330213268691
 31
0.0
  0
LINE
  5
2D3
330
A
100
AcDbEntity
  8
PV
  6
Continuous
 62
     3
100
AcDbLine
 10
-364.3698011526525
 20
-410.733935513081
 30
0.0
 11
-364.3698011526525
 21
-40.7340533514603
 31
0.0
  0
LINE
  5
2D4
330
A
100
AcDbEntity
  8
PV
  6
Continuous
 62
     3
100
AcDbLine
 10
-394.3698002585828
 20
-410.733935513081
 30
0.0
 11
-364.3698011526525
 21
-410.733935513081
 31
0.0
  0
LINE
  5
2D5
330
A
100
AcDbEntity
  8
PV
  6
Continuous
 62
     3
100
AcDbLine
 10
-394.3698002585828
 20
-40.7340533514603
 30
0.0
 11
-364.3698011526525
 21
-40.7340533514603
 31
0.0
  0
LINE
  5
2D6
330
A
100
AcDbEntity
  8
PV
  6
Continuous
 62
     3
100
AcDbLine
 10
-354.3697709330985
 20
-415.7329893191757
 30
0.0
 11
32.63014886885438
 21
-415.7329893191757
 31
0.0
  0
LINE
  5
2D7
330
A
100
AcDbEntity
  8
PV
  6
Continuous
 62
     3
100
AcDbLine
 10
-394.3698002585828
 20
-410.733935513081
 30
0.0
 11
-394.3698002585828
 21
-40.7340533514603
 31
0.0
  0
LINE
  5
2D8
330
A
100
AcDbEntity
  8
PV
  6
Continuous
 62
     3
100
AcDbLine
 10
-379.3698007056176
 20
-410.733935513081
 30
0.0
 11
-379.3698007056176
 21
-40.7340533514603
 31
0.0
  0
LINE
  5
2D9
330
A
100
AcDbEntity
  8
PV
  6
CENTER
 62
     7
100
AcDbLine
 10
-1033.396148401613
 20
-225.7339715440878
 30
0.0
 11
-593.2159247036003
 21
-225.7339715440878
 31
0.0
  0
LINE
  5
2DA
330
A
100
AcDbEntity
  8
PV
  6
Continuous
 62
     3
100
AcDbLine
 10
-269.3699260541819
 20
-250.7329942365589
 30
0.0
 11
-199.3698060700355
 21
-250.7329942365589
 31
0.0
  0
LINE
  5
2DB
330
A
100
AcDbEntity
  8
PV
  6
Continuous
 62
     3
100
AcDbLine
 10
-269.3699260541819
 20
-200.7334840079104
 30
0.0
 11
-199.3698060700355
 21
-200.7334840079104
 31
0.0
  0
LINE
  5
2DC
330
A
100
AcDbEntity
  8
PV
  6
Continuous
 62
     3
100
AcDbLine
 10
-199.3698060700355
 20
-250.7329942365589
 30
0.0
 11
-199.3698060700355
 21
-200.7334840079104
 31
0.0
  0
LINE
  5
2DD
330
A
100
AcDbEntity
  8
PV
  6
Continuous
 62
     3
100
AcDbLine
 10
-269.3699260541819
 20
-250.7329942365589
 30
0.0
 11
-269.3699260541819
 21
-200.7334840079104
 31
0.0
  0
LINE
  5
2DE
330
A
100
AcDbEntity
  8
PV
  6
CENTER
 62
     7
100
AcDbLine
 10
-816.9142212595277
 20
245.1981738448687
 30
0.0
 11
-816.9142212595277
 21
-440.3193838501159
 31
0.0
  0
LINE
  5
2DF
330
A
100
AcDbEntity
  8
PV
  6
CENTER
 62
     7
100
AcDbLine
 10
-234.3699576148403
 20
-371.9532970203967
 30
0.0
 11
-234.3699576148403
 21
194.7031802325493
 31
0.0
  0
LINE
  5
2E0
330
A
100
AcDbEntity
  8
PV
  6
CENTER
 62
     7
100
AcDbLine
 10
-776.9140088285801
 20
-245.7339404304641
 30
0.0
 11
-676.9141643966983
 21
-245.7339404304641
 31
0.0
  0
LINE
  5
2E1
330
A
100
AcDbEntity
  8
PV
  6
CENTER
 62
     7
100
AcDbLine
 10
-726.9142239417367
 20
-195.734063990889
 30
0.0
 11
-726.9142239417367
 21
-295.7339084227708
 31
0.0
  0
LINE
  5
2E2
330
A
100
AcDbEntity
  8
PV
  6
CENTER
 62
     7
100
AcDbLine
 10
-759.0874667142978
 20
-277.907453181128
 30
0.0
 11
-748.4808654941253
 21
-267.3008519609554
 31
0.0
  0
LINE
  5
2E3
330
A
100
AcDbEntity
  8
PV
  6
CENTER
 62
     7
100
AcDbLine
 10
-705.3473970237941
 20
-224.1673834906243
 30
0.0
 11
-694.7407958036215
 21
-213.5607822704517
 31
0.0
  0
LINE
  5
2E4
330
A
100
AcDbEntity
  8
PV
  6
CENTER
 62
     7
100
AcDbLine
 10
-705.3473970237941
 20
-267.300981436068
 30
0.0
 11
-694.7407958036215
 21
-277.9075826562405
 31
0.0
  0
LINE
  5
2E5
330
A
100
AcDbEntity
  8
PV
  6
CENTER
 62
     7
100
AcDbLine
 10
-759.0874667142978
 20
-213.5609117455643
 30
0.0
 11
-748.4808654941253
 21
-224.1675129657369
 31
0.0
  0
LINE
  5
2E6
330
A
100
AcDbEntity
  8
PV
  6
Continuous
 62
     3
100
AcDbLine
 10
-796.9141608204197
 20
36.7663010130435
 30
0.0
 11
-796.9141608204197
 21
26.76653972963871
 31
0.0
  0
LINE
  5
2E7
330
A
100
AcDbEntity
  8
PV
  6
Continuous
 62
     3
100
AcDbLine
 10
-836.9141901459041
 20
36.7663010130435
 30
0.0
 11
-836.9141901459041
 21
26.76653972963871
 31
0.0
  0
LINE
  5
2E8
330
A
100
AcDbEntity
  8
PV
  6
Continuous
 62
     3
100
AcDbLine
 10
-64.36988447994338
 20
-268.7344585438234
 30
0.0
 11
-62.36982350439359
 21
-268.7344585438234
 31
0.0
  0
LINE
  5
2E9
330
A
100
AcDbEntity
  8
PV
  6
Continuous
 62
     3
100
AcDbLine
 10
-64.36988447994338
 20
-262.734550275369
 30
0.0
 11
-62.36982350439359
 21
-262.734550275369
 31
0.0
  0
LINE
  5
2EA
330
A
100
AcDbEntity
  8
PV
  6
Continuous
 62
     3
100
AcDbLine
 10
-64.36988447994338
 20
-268.7344585438234
 30
0.0
 11
-64.36988447994338
 21
-271.7344584544164
 31
0.0
  0
LINE
  5
2EB
330
A
100
AcDbEntity
  8
PV
  6
Continuous
 62
     3
100
AcDbLine
 10
-70.36987857908371
 20
-268.7344585438234
 30
0.0
 11
-70.36987857908371
 21
-271.7344584544164
 31
0.0
  0
LINE
  5
2EC
330
A
100
AcDbEntity
  8
PV
  6
Continuous
 62
     3
100
AcDbLine
 10
-70.36987857908371
 20
-271.7344584544164
 30
0.0
 11
-64.36988447994338
 21
-271.7344584544164
 31
0.0
  0
LINE
  5
2ED
330
A
100
AcDbEntity
  8
PV
  6
Continuous
 62
     3
100
AcDbLine
 10
-64.36988447994338
 20
-255.7339706500181
 30
0.0
 11
-64.36988447994338
 21
-262.734550275369
 31
0.0
  0
LINE
  5
2EE
330
A
100
AcDbEntity
  8
PV
  6
Continuous
 62
     3
100
AcDbLine
 10
-70.36987857908371
 20
-255.7339706500181
 30
0.0
 11
-70.36987857908371
 21
-262.734550275369
 31
0.0
  0
LINE
  5
2EF
330
A
100
AcDbEntity
  8
PV
  6
Continuous
 62
     3
100
AcDbLine
 10
-77.36982305735877
 20
-268.7344585438234
 30
0.0
 11
-70.41913967075527
 21
-268.7344585438234
 31
0.0
  0
LINE
  5
2F0
330
A
100
AcDbEntity
  8
PV
  6
Continuous
 62
     3
100
AcDbLine
 10
-77.36982305735877
 20
-262.734550275369
 30
0.0
 11
-70.41913967075527
 21
-262.734550275369
 31
0.0
  0
LINE
  5
2F1
330
A
100
AcDbEntity
  8
PV
  6
Continuous
 62
     3
100
AcDbLine
 10
-62.36982350439359
 20
-271.7344584544164
 30
0.0
 11
-57.36984844893669
 21
-271.7344584544164
 31
0.0
  0
LINE
  5
2F2
330
A
100
AcDbEntity
  8
PV
  6
Continuous
 62
     3
100
AcDbLine
 10
-62.36982350439359
 20
-259.7344588120443
 30
0.0
 11
-57.36984844893669
 21
-259.7344588120443
 31
0.0
  0
LINE
  5
2F3
330
A
100
AcDbEntity
  8
PV
  6
Continuous
 62
     3
100
AcDbLine
 10
-62.36982350439359
 20
-259.7344588120443
 30
0.0
 11
-62.36982350439359
 21
-271.7344584544164
 31
0.0
  0
LINE
  5
2F4
330
A
100
AcDbEntity
  8
PV
  6
Continuous
 62
     3
100
AcDbLine
 10
-77.36982305735877
 20
-262.734550275369
 30
0.0
 11
-77.36982305735877
 21
-268.7344585438234
 31
0.0
  0
LINE
  5
2F5
330
A
100
AcDbEntity
  8
PV
  6
Continuous
 62
     3
100
AcDbLine
 10
-57.36984844893669
 20
-259.7344588120443
 30
0.0
 11
-57.36984844893669
 21
-271.7344584544164
 31
0.0
  0
LINE
  5
2F6
330
A
100
AcDbEntity
  8
PV
  6
DASHED
 62
     3
100
AcDbLine
 10
-68.36990915626557
 20
-375.7335093100814
 30
0.0
 11
-89.36991425246256
 21
-375.7335093100814
 31
0.0
  0
LINE
  5
2F7
330
A
100
AcDbEntity
  8
PV
  6
Continuous
 62
     3
100
AcDbLine
 10
-68.36990915626557
 20
-355.7325333436569
 30
0.0
 11
-89.36991425246256
 21
-355.7325333436569
 31
0.0
  0
LINE
  5
2F8
330
A
100
AcDbEntity
  8
PV
  6
Continuous
 62
     3
100
AcDbLine
 10
-39.36986042946993
 20
-379.7325326284012
 30
0.0
 11
-62.41276745758153
 21
-379.7325326284012
 31
0.0
  0
LINE
  5
2F9
330
A
100
AcDbEntity
  8
PV
  6
Continuous
 62
     3
100
AcDbLine
 10
-62.38886647257607
 20
-351.733510025337
 30
0.0
 11
-68.36990915626557
 21
-351.733510025337
 31
0.0
  0
LINE
  5
2FA
330
A
100
AcDbEntity
  8
PV
  6
Continuous
 62
     3
100
AcDbLine
 10
-68.36990915626557
 20
-351.733510025337
 30
0.0
 11
-68.36990915626557
 21
-360.9244887553308
 31
0.0
  0
LINE
  5
2FB
330
A
100
AcDbEntity
  8
PV
  6
Continuous
 62
     3
100
AcDbLine
 10
-33.6198911184105
 20
-341.768178291077
 30
0.0
 11
-33.6198911184105
 21
-346.2330219080143
 31
0.0
  0
LINE
  5
2FC
330
A
100
AcDbEntity
  8
PV
  6
Continuous
 62
     3
100
AcDbLine
 10
-33.6198911184105
 20
-343.6928913684818
 30
0.0
 11
-33.6198911184105
 21
-344.3081257251463
 31
0.0
  0
LINE
  5
2FD
330
A
100
AcDbEntity
  8
PV
  6
Continuous
 62
     3
100
AcDbLine
 10
-45.11963519097462
 20
-345.7335102041509
 30
0.0
 11
-46.44825987672031
 21
-345.7335102041509
 31
0.0
  0
LINE
  5
2FE
330
A
100
AcDbEntity
  8
PV
  6
Continuous
 62
     3
100
AcDbLine
 10
-36.36994062751709
 20
-341.7564595414263
 30
0.0
 11
-36.36994062751709
 21
-346.2330219080143
 31
0.0
  0
LINE
  5
2FF
330
A
100
AcDbEntity
  8
PV
  6
Continuous
 62
     3
100
AcDbLine
 10
-42.36994617074888
 20
-341.7344868858311
 30
0.0
 11
-42.36994617074888
 21
-346.2330219080143
 31
0.0
  0
LINE
  5
300
330
A
100
AcDbEntity
  8
PV
  6
Continuous
 62
     3
100
AcDbLine
 10
-44.2703961786498
 20
-341.233617894294
 30
0.0
 11
-45.11916340626453
 21
-341.7236539488488
 31
0.0
  0
LINE
  5
301
330
A
100
AcDbEntity
  8
PV
  6
Continuous
 62
     3
100
AcDbLine
 10
-34.54659794502284
 20
-341.2323569864167
 30
0.0
 11
-33.62052590218865
 21
-341.7670250029697
 31
0.0
  0
LINE
  5
302
330
A
100
AcDbEntity
  8
PV
  6
Continuous
 62
     3
100
AcDbLine
 10
-34.54621021311849
 20
-341.2335103382614
 30
0.0
 11
-44.27076398519385
 21
-341.2335103382614
 31
0.0
  0
LINE
  5
303
330
A
100
AcDbEntity
  8
PV
  6
Continuous
 62
     3
100
AcDbLine
 10
-45.11963519097462
 20
-341.7226765834487
 30
0.0
 11
-45.11963519097462
 21
-346.2330219080143
 31
0.0
  0
LINE
  5
304
330
A
100
AcDbEntity
  8
PV
  6
Continuous
 62
     3
100
AcDbLine
 10
-50.86995331575291
 20
-331.2336655294167
 30
0.0
 11
-49.62271667217653
 21
-343.7060349536564
 31
0.0
  0
LINE
  5
305
330
A
100
AcDbEntity
  8
PV
  6
Continuous
 62
     3
100
AcDbLine
 10
-27.86976703775472
 20
-331.2333960950581
 30
0.0
 11
-29.11700368133111
 21
-343.7057655192978
 31
0.0
  0
LINE
  5
306
330
A
100
AcDbEntity
  8
PV
  6
Continuous
 62
     3
100
AcDbLine
 10
-50.86988488227472
 20
-331.2330223550492
 30
0.0
 11
-61.61964042128204
 21
-331.2330223550492
 31
0.0
  0
LINE
  5
307
330
A
100
AcDbEntity
  8
PV
  6
Continuous
 62
     3
100
AcDbLine
 10
-61.62009802964042
 20
-331.2333280471313
 30
0.0
 11
-62.37009497778533
 21
-351.233247061971
 31
0.0
  0
LINE
  5
308
330
A
100
AcDbEntity
  8
PV
  6
Continuous
 62
     3
100
AcDbLine
 10
-17.11979611464245
 20
-331.2328889870089
 30
0.0
 11
-16.36978887404974
 21
-351.2330824671289
 31
0.0
  0
LINE
  5
309
330
A
100
AcDbEntity
  8
PV
  6
CENTER
 62
     7
100
AcDbLine
 10
-39.36986042946993
 20
-338.7608541619523
 30
0.0
 11
-39.36986042946993
 21
-384.4772529459818
 31
0.0
  0
LINE
  5
30A
330
A
100
AcDbEntity
  8
PV
  6
Continuous
 62
     3
100
AcDbLine
 10
-17.1198916101488
 20
-331.2330223550492
 30
0.0
 11
-27.87018502145454
 21
-331.2330223550492
 31
0.0
  0
LINE
  5
30B
330
A
100
AcDbEntity
  8
PV
  6
Continuous
 62
     3
100
AcDbLine
 10
-62.3696403989303
 20
-350.3111467864767
 30
0.0
 11
-62.3696403989303
 21
-351.2326250304989
 31
0.0
  0
LINE
  5
30C
330
A
100
AcDbEntity
  8
PV
  6
Continuous
 62
     3
100
AcDbLine
 10
-16.36989735454626
 20
-350.3111467864767
 30
0.0
 11
-16.36989735454626
 21
-351.2326250304989
 31
0.0
  0
LINE
  5
30D
330
A
100
AcDbEntity
  8
PV
  6
Continuous
 62
     3
100
AcDbLine
 10
-53.86988479286776
 20
-346.2330219080143
 30
0.0
 11
-53.86988479286776
 21
-351.2326250304989
 31
0.0
  0
LINE
  5
30E
330
A
100
AcDbEntity
  8
PV
  6
Continuous
 62
     3
100
AcDbLine
 10
-24.87009928017559
 20
-346.2330219080143
 30
0.0
 11
-24.87009928017559
 21
-351.2326250304989
 31
0.0
  0
LINE
  5
30F
330
A
100
AcDbEntity
  8
PV
  6
Continuous
 62
     3
100
AcDbLine
 10
-24.87009928017559
 20
-346.2330219080143
 30
0.0
 11
-53.86988479286776
 21
-346.2330219080143
 31
0.0
  0
LINE
  5
310
330
A
100
AcDbEntity
  8
PV
  6
Continuous
 62
     3
100
AcDbLine
 10
-62.37009816258853
 20
-351.2326250304989
 30
0.0
 11
-16.36989735454626
 21
-351.2326250304989
 31
0.0
  0
LINE
  5
311
330
A
100
AcDbEntity
  8
PV
  6
Continuous
 62
     3
100
AcDbLine
 10
-44.36964093537208
 20
-351.2326250304989
 30
0.0
 11
-44.36964093537208
 21
-352.7325334330638
 31
0.0
  0
LINE
  5
312
330
A
100
AcDbEntity
  8
PV
  6
Continuous
 62
     3
100
AcDbLine
 10
-34.36988537401302
 20
-351.2326250304989
 30
0.0
 11
-34.36988537401302
 21
-352.7325334330638
 31
0.0
  0
LINE
  5
313
330
A
100
AcDbEntity
  8
PV
  6
Continuous
 62
     3
100
AcDbLine
 10
-31.29151060308485
 20
-345.7335102041509
 30
0.0
 11
-33.6198911184105
 21
-345.7335102041509
 31
0.0
  0
LINE
  5
314
330
A
100
AcDbEntity
  8
PV
  6
Continuous
 62
     3
100
AcDbLine
 10
-46.87578947439955
 20
-352.7325461123073
 30
0.0
 11
-54.37040878179909
 21
-365.7326897471605
 31
0.0
  0
LINE
  5
315
330
A
100
AcDbEntity
  8
PV
  6
Continuous
 62
     3
100
AcDbLine
 10
-31.86492657449352
 20
-352.7335564203648
 30
0.0
 11
-24.37027238497004
 21
-365.7336794837091
 31
0.0
  0
LINE
  5
316
330
A
100
AcDbEntity
  8
PV
  6
Continuous
 62
     3
100
AcDbLine
 10
-46.87525609507393
 20
-352.7325334330638
 30
0.0
 11
-31.86454487250612
 21
-352.7325334330638
 31
0.0
  0
LINE
  5
317
330
A
100
AcDbEntity
  8
PV
  6
Continuous
 62
     3
100
AcDbLine
 10
-54.3707435138617
 20
-365.7324182926315
 30
0.0
 11
-46.87625020894578
 21
-378.7327405240627
 31
0.0
  0
LINE
  5
318
330
A
100
AcDbEntity
  8
PV
  6
Continuous
 62
     3
100
AcDbLine
 10
-46.87571385873217
 20
-378.7335092206744
 30
0.0
 11
-31.86427021431118
 21
-378.7335092206744
 31
0.0
  0
LINE
  5
319
330
A
100
AcDbEntity
  8
PV
  6
Continuous
 62
     3
100
AcDbLine
 10
-24.37078508443857
 20
-365.7325131238549
 30
0.0
 11
-31.86532400471794
 21
-378.7328085227194
 31
0.0
  0
LINE
  5
31A
330
A
100
AcDbEntity
  8
PV
  6
CENTER
 62
     7
100
AcDbLine
 10
-21.80244190089577
 20
-365.7330213268691
 30
0.0
 11
-58.30607240479968
 21
-365.7330213268691
 31
0.0
  0
LINE
  5
31B
330
A
100
AcDbEntity
  8
PV
  6
Continuous
 62
     3
100
AcDbLine
 10
-73.36988421172249
 20
-185.7334844549452
 30
0.0
 11
-73.36988421172249
 21
-195.7339724381574
 31
0.0
  0
LINE
  5
31C
330
A
100
AcDbEntity
  8
PV
  6
Continuous
 62
     3
100
AcDbLine
 10
-61.36988456935035
 20
-185.7334844549452
 30
0.0
 11
-61.36988456935035
 21
-195.7339724381574
 31
0.0
  0
LINE
  5
31D
330
A
100
AcDbEntity
  8
PV
  6
Continuous
 62
     3
100
AcDbLine
 10
-77.36991461009042
 20
-175.7343697627076
 30
0.0
 11
-57.36994572371406
 21
-175.7343697627076
 31
0.0
  0
LINE
  5
31E
330
A
100
AcDbEntity
  8
PV
  6
Continuous
 62
     3
100
AcDbLine
 10
-77.36991461009042
 20
-185.7334844549452
 30
0.0
 11
-57.36994572371406
 21
-185.7334844549452
 31
0.0
  0
LINE
  5
31F
330
A
100
AcDbEntity
  8
PV
  6
Continuous
 62
     3
100
AcDbLine
 10
-77.36991461009042
 20
-170.73348490198
 30
0.0
 11
-77.36991461009042
 21
-185.7334844549452
 31
0.0
  0
LINE
  5
320
330
A
100
AcDbEntity
  8
PV
  6
Continuous
 62
     3
100
AcDbLine
 10
-57.36994572371406
 20
-170.73348490198
 30
0.0
 11
-57.36994572371406
 21
-185.7334844549452
 31
0.0
  0
LINE
  5
321
330
A
100
AcDbEntity
  8
PV
  6
Continuous
 62
     3
100
AcDbLine
 10
-77.36991461009042
 20
-170.73348490198
 30
0.0
 11
-57.36994572371406
 21
-170.73348490198
 31
0.0
  0
LINE
  5
322
330
A
100
AcDbEntity
  8
PV
  6
Continuous
 62
     3
100
AcDbLine
 10
-336.9600550383029
 20
14.64190583682287
 30
0.0
 11
-316.9697434054592
 21
3.100493827268126
 31
0.0
  0
LINE
  5
323
330
A
100
AcDbEntity
  8
PV
  6
Continuous
 62
     3
100
AcDbLine
 10
-322.9597655385518
 20
38.89111813583426
 30
0.0
 11
-316.969554159428
 21
35.4326679215213
 31
0.0
  0
LINE
  5
324
330
A
100
AcDbEntity
  8
PV
  6
Continuous
 62
     3
100
AcDbLine
 10
-339.9600549488959
 20
9.445753662235388
 30
0.0
 11
-319.9597656279587
 21
44.08727031042174
 31
0.0
  0
LINE
  5
325
330
A
100
AcDbEntity
  8
PV
  6
Continuous
 62
     3
100
AcDbLine
 10
-357.2802186205643
 20
19.44555499996027
 30
0.0
 11
-339.9600549488959
 21
9.445753662235388
 31
0.0
  0
LINE
  5
326
330
A
100
AcDbEntity
  8
PV
  6
Continuous
 62
     3
100
AcDbLine
 10
-337.2799292996272
 20
54.08707164814662
 30
0.0
 11
-319.9597656279587
 21
44.08727031042174
 31
0.0
  0
LINE
  5
327
330
A
100
AcDbEntity
  8
PV
  6
Continuous
 62
     3
100
AcDbLine
 10
-357.2802186205643
 20
19.44555499996027
 30
0.0
 11
-337.2799292996272
 21
54.08707164814662
 31
0.0
  0
INSERT
  5
328
330
A
100
AcDbEntity
  8
FV
  6
ByBlock
100
AcDbBlockReference
  2
MS_1
 10
599.9999821186071
 20
-647.9999806880957
 30
0.0
 41
5.999999821186071
 42
5.999999821186071
 43
5.999999821186071
  0
INSERT
  5
354
330
A
100
AcDbEntity
  8
FV
  6
ByBlock
100
AcDbBlockReference
  2
*X16
 10
0.0
 20
0.0
 30
0.0
  0
MTEXT
  5
355
330
A
100
AcDbEntity
  8
FV
  6
Continuous
 62
     7
100
AcDbMText
 10
321.3407873322951
 20
-711.6959741206177
 30
0.0
 40
25.0030281244806
 41
0.0
 71
     1
 72
     1
  1
\W0.712;\A1;田島
 73
     1
 44
0.9015865983781221
1001
ACAD
1000
MTEXTBEGIN
1070
    73
1070
     1
1070
    44
1040
0.9015865983781221
1070
    74
1070
     0
1000
MTEXTEND
  0
MTEXT
  5
356
330
A
100
AcDbEntity
  8
FV
  6
Continuous
 62
     7
100
AcDbMText
 10
412.4235788072695
 20
-713.9283959290864
 30
0.0
 40
25.0030281244806
 41
0.0
 71
     1
 72
     1
  1
\W0.712;\A1;田島
 73
     1
 44
0.9015865983781221
1001
ACAD
1000
MTEXTBEGIN
1070
    73
1070
     1
1070
    44
1040
0.9015865983781221
1070
    74
1070
     0
1000
MTEXTEND
  0
MTEXT
  5
357
330
A
100
AcDbEntity
  8
FV
  6
Continuous
 62
     7
100
AcDbMText
 10
596.9677160987386
 20
-691.1576751721598
 30
0.0
 40
25.0030281244806
 41
0.0
 71
     1
 72
     1
  1
\W0.962;\A1;1/6
 73
     1
 44
0.9015865983781221
1001
ACAD
1000
MTEXTBEGIN
1070
    73
1070
     1
1070
    44
1040
0.9015865983781221
1070
    74
1070
     0
1000
MTEXTEND
  0
MTEXT
  5
358
330
A
100
AcDbEntity
  8
FV
  6
Continuous
 62
     7
100
AcDbMText
 10
822.5531156398293
 20
-707.2477072701541
 30
0.0
 40
37.50454218672091
 41
0.0
 71
     1
 72
     1
  1
\W0.607;\A1;TRO-80外観寸法図
 73
     1
 44
0.899999746832735
1001
ACAD
1000
MTEXTBEGIN
1070
    73
1070
     1
1070
    44
1040
0.899999746832735
1070
    74
1070
     0
1000
MTEXTEND
  0
MTEXT
  5
359
330
A
100
AcDbEntity
  8
FV
  6
Continuous
 62
     7
100
AcDbMText
 10
113.6639980773926
 20
803.9999760389335
 30
0.0
 40
25.00199815624958
 41
0.0
 71
     4
 72
     1
  1
\A1;SET
 73
     1
 44
0.9000000214576727
1001
ACAD
1000
MTEXTBEGIN
1070
    73
1070
     1
1070
    44
1040
0.9000000214576727
1070
    74
1070
     0
1000
MTEXTEND
  0
MTEXT
  5
35A
330
A
100
AcDbEntity
  8
FV
  6
Continuous
 62
     7
100
AcDbMText
 10
139.6015820541626
 20
-488.6989371568281
 30
0.0
 40
25.00199815624958
 41
0.0
 71
     1
 72
     1
  1
\W2.560;\A1;|
 73
     1
 44
0.8999280667599519
1001
ACAD
1000
MTEXTBEGIN
1070
    73
1070
     1
1070
    44
1040
0.8999280667599519
1070
    74
1070
     0
1000
MTEXTEND
  0
MTEXT
  5
35B
330
A
100
AcDbEntity
  8
FV
  6
Continuous
 62
     7
100
AcDbMText
 10
112.351366967534
 20
-520.1998746335544
 30
0.0
 40
17.99999946355821
 41
0.0
 71
     1
 72
     1
  1
\W1.011;\A1;Nｏ.
 73
     1
 44
0.8999281144125014
1001
ACAD
1000
MTEXTBEGIN
1070
    73
1070
     1
1070
    44
1040
0.8999281144125014
1070
    74
1070
     0
1000
MTEXTEND
  0
MTEXT
  5
35C
330
A
100
AcDbEntity
  8
FV
  6
Continuous
 62
     7
100
AcDbMText
 10
121.2796690082649
 20
-464.5999922573568
 30
0.0
 40
17.99999946355821
 41
0.0
 71
     1
 72
     1
  1
\W0.853;\A1;M
 73
     1
 44
0.8999281144125014
1001
ACAD
1000
MTEXTBEGIN
1070
    73
1070
     1
1070
    44
1040
0.8999281144125014
1070
    74
1070
     0
1000
MTEXTEND
  0
MTEXT
  5
35D
330
A
100
AcDbEntity
  8
FV
  6
Continuous
 62
     7
100
AcDbMText
 10
537.2952872143269
 20
-573.4989224225604
 30
0.0
 40
25.00199815624958
 41
0.0
 71
     1
 72
     1
  1
\W0.711;\A1;Ａ３
 73
     1
 44
0.8999280667599519
1001
ACAD
1000
MTEXTBEGIN
1070
    73
1070
     1
1070
    44
1040
0.8999280667599519
1070
    74
1070
     0
1000
MTEXTEND
  0
MTEXT
  5
35E
330
A
100
AcDbEntity
  8
FV
  6
Continuous
 62
     7
100
AcDbMText
 10
1118.327051497892
 20
-151.6999466508643
 30
0.0
 40
14.99999955296518
 41
0.0
 71
     1
 72
     1
  1
\W0.931;\A1;30
 73
     1
 44
0.8999279236776335
1001
ACAD
1000
MTEXTBEGIN
1070
    73
1070
     1
1070
    44
1040
0.8999279236776335
1070
    74
1070
     0
1000
MTEXTEND
  0
MTEXT
  5
35F
330
A
100
AcDbEntity
  8
FV
  6
Continuous
 62
     7
100
AcDbMText
 10
1130.759831550367
 20
-332.09993517101
 30
0.0
 40
14.99999955296518
 41
0.0
 71
     1
 72
     1
  1
\W1.024;\A1;0
 73
     1
 44
0.8999279236776335
1001
ACAD
1000
MTEXTBEGIN
1070
    73
1070
     1
1070
    44
1040
0.8999279236776335
1070
    74
1070
     0
1000
MTEXTEND
  0
MTEXT
  5
360
330
A
100
AcDbEntity
  8
FV
  6
Continuous
 62
     7
100
AcDbMText
 10
527.9999842643742
 20
-701.9999790787702
 30
0.0
 40
14.99999955296518
 41
0.0
 71
     5
 72
     1
  1
\W0.833;\A1;SCALE
 73
     1
 44
0.9000718903558706
1001
ACAD
1000
MTEXTBEGIN
1070
    73
1070
     1
1070
    44
1040
0.9000718903558706
1070
    74
1070
     0
1000
MTEXTEND
  0
MTEXT
  5
361
330
A
100
AcDbEntity
  8
FV
  6
Continuous
 62
     7
100
AcDbMText
 10
527.9999842643742
 20
-743.9999778270728
 30
0.0
 40
14.99999955296518
 41
0.0
 71
     5
 72
     1
  1
\W0.833;\A1;DATE
 73
     1
 44
0.9000718903558706
1001
ACAD
1000
MTEXTBEGIN
1070
    73
1070
     1
1070
    44
1040
0.9000718903558706
1070
    74
1070
     0
1000
MTEXTEND
  0
MTEXT
  5
362
330
A
100
AcDbEntity
  8
FV
  6
Continuous
 62
     7
100
AcDbMText
 10
803.5320958038539
 20
-797.3873968903006
 30
0.0
 40
37.50299723437437
 41
0.0
 71
     5
 72
     1
  1
\W0.939;\A1;KG2301-012A
 73
     1
 44
0.9000720677008102
1001
ACAD
1000
MTEXTBEGIN
1070
    73
1070
     1
1070
    44
1040
0.9000720677008102
1070
    74
1070
     0
1000
MTEXTEND
  0
MTEXT
  5
363
330
A
100
AcDbEntity
  8
FV
  6
Continuous
 62
     7
100
AcDbMText
 10
640.5599422287958
 20
-744.6594321531226
 30
0.0
 40
17.99999946355821
 41
0.0
 71
     5
 72
     1
  1
\W1.170;\A1;91.05.16
 73
     1
 44
0.900072119237712
1001
ACAD
1000
MTEXTBEGIN
1070
    73
1070
     1
1070
    44
1040
0.900072119237712
1070
    74
1070
     0
1000
MTEXTEND
  0
MTEXT
  5
364
330
A
100
AcDbEntity
  8
FV
  6
Continuous
 62
     7
100
AcDbMText
 10
932.9999721944339
 20
-599.9999821186071
 30
0.0
 40
17.99999946355821
 41
0.0
 71
     5
 72
     1
  1
\W0.890;\A1;REVISION
 73
     1
 44
0.899999830722805
1001
ACAD
1000
MTEXTBEGIN
1070
    73
1070
     1
1070
    44
1040
0.899999830722805
1070
    74
1070
     0
1000
MTEXTEND
  0
MTEXT
  5
365
330
A
100
AcDbEntity
  8
FV
  6
Continuous
 62
     7
100
AcDbMText
 10
1043.999968886376
 20
-569.9999830126767
 30
0.0
 40
17.99999946355821
 41
0.0
 71
     5
 72
     1
  1
\W0.853;\A1;REMARKS
 73
     1
 44
0.9358846887561009
1001
ACAD
1000
MTEXTBEGIN
1070
    73
1070
     1
1070
    44
1040
0.9358846887561009
1070
    74
1070
     0
1000
MTEXTEND
  0
MTEXT
  5
366
330
A
100
AcDbEntity
  8
FV
  6
Continuous
 62
     7
100
AcDbMText
 10
866.9999741613873
 20
-569.9999830126767
 30
0.0
 40
17.99999946355821
 41
0.0
 71
     5
 72
     1
  1
\W0.853;\A1;DATE
 73
     1
 44
0.9358846887561009
1001
ACAD
1000
MTEXTBEGIN
1070
    73
1070
     1
1070
    44
1040
0.9358846887561009
1070
    74
1070
     0
1000
MTEXTEND
  0
MTEXT
  5
367
330
A
100
AcDbEntity
  8
FV
  6
Continuous
 62
     7
100
AcDbMText
 10
755.9999774694449
 20
-569.9999830126767
 30
0.0
 40
17.99999946355821
 41
0.0
 71
     5
 72
     1
  1
\W0.853;\A1;MARK
 73
     1
 44
0.9358846887561009
1001
ACAD
1000
MTEXTBEGIN
1070
    73
1070
     1
1070
    44
1040
0.9358846887561009
1070
    74
1070
     0
1000
MTEXTEND
  0
MTEXT
  5
368
330
A
100
AcDbEntity
  8
FV
  6
Continuous
 62
     7
100
AcDbMText
 10
755.9999774694449
 20
-500.9999850690369
 30
0.0
 40
17.99999946355821
 41
0.0
 71
     5
 72
     1
  1
\W0.853;\A1;-
 73
     1
 44
0.9358846887561009
1001
ACAD
1000
MTEXTBEGIN
1070
    73
1070
     1
1070
    44
1040
0.9358846887561009
1070
    74
1070
     0
1000
MTEXTEND
  0
MTEXT
  5
369
330
A
100
AcDbEntity
  8
FV
  6
Continuous
 62
     7
100
AcDbMText
 10
727.427882449988
 20
-499.1997493743971
 30
0.0
 40
10.79999510049834
 41
0.0
 71
     1
 72
     1
  1
\W0.853;\A1;C
 73
     1
 44
0.9358845768093797
1001
ACAD
1000
MTEXTBEGIN
1070
    73
1070
     1
1070
    44
1040
0.9358845768093797
1070
    74
1070
     0
1000
MTEXTEND
  0
MTEXT
  5
36A
330
A
100
AcDbEntity
  8
FV
  6
Continuous
 62
     7
100
AcDbMText
 10
755.9999774694449
 20
-536.9999839961533
 30
0.0
 40
17.99999946355821
 41
0.0
 71
     5
 72
     1
  1
\W0.853;\A1;-
 73
     1
 44
0.9358846887561009
1001
ACAD
1000
MTEXTBEGIN
1070
    73
1070
     1
1070
    44
1040
0.9358846887561009
1070
    74
1070
     0
1000
MTEXTEND
  0
MTEXT
  5
36B
330
A
100
AcDbEntity
  8
FV
  6
Continuous
 62
     7
100
AcDbMText
 10
727.427882449988
 20
-535.1997483015135
 30
0.0
 40
10.79999510049834
 41
0.0
 71
     1
 72
     1
  1
\W0.853;\A1;B
 73
     1
 44
0.9358845768093797
1001
ACAD
1000
MTEXTBEGIN
1070
    73
1070
     1
1070
    44
1040
0.9358845768093797
1070
    74
1070
     0
1000
MTEXTEND
  0
MTEXT
  5
36C
330
A
100
AcDbEntity
  8
FV
  6
Continuous
 62
     7
100
AcDbMText
 10
755.9999774694449
 20
-464.9999861419204
 30
0.0
 40
17.99999946355821
 41
0.0
 71
     5
 72
     1
  1
\W0.853;\A1;-
 73
     1
 44
0.9358846887561009
1001
ACAD
1000
MTEXTBEGIN
1070
    73
1070
     1
1070
    44
1040
0.9358846887561009
1070
    74
1070
     0
1000
MTEXTEND
  0
MTEXT
  5
36D
330
A
100
AcDbEntity
  8
FV
  6
Continuous
 62
     7
100
AcDbMText
 10
727.427882449988
 20
-463.1997504472806
 30
0.0
 40
10.79999510049834
 41
0.0
 71
     1
 72
     1
  1
\W0.853;\A1;D
 73
     1
 44
0.9358845768093797
1001
ACAD
1000
MTEXTBEGIN
1070
    73
1070
     1
1070
    44
1040
0.9358845768093797
1070
    74
1070
     0
1000
MTEXTEND
  0
MTEXT
  5
36E
330
A
100
AcDbEntity
  8
FV
  6
Continuous
 62
     7
100
AcDbMText
 10
301.6364916230481
 20
-584.999982565642
 30
0.0
 40
17.99999946355821
 41
0.0
 71
     4
 72
     1
  1
\W1.010;\A1;JIS B 0401-   級\P\U+00B1
 73
     1
 44
0.899999830722805
1001
ACAD
1000
MTEXTBEGIN
1070
    73
1070
     1
1070
    44
1040
0.899999830722805
1070
    74
1070
     0
1000
MTEXTEND
  0
MTEXT
  5
36F
330
A
100
AcDbEntity
  8
FV
  6
Continuous
 62
     7
100
AcDbMText
 10
118.3564878575368
 20
-584.999982565642
 30
0.0
 40
17.99999946355821
 41
0.0
 71
     4
 72
     1
  1
\W0.815;\A1;TOLERANCES\PUNLESS NOTED
 73
     1
 44
0.899999830722805
1001
ACAD
1000
MTEXTBEGIN
1070
    73
1070
     1
1070
    44
1040
0.899999830722805
1070
    74
1070
     0
1000
MTEXTEND
  0
MTEXT
  5
370
330
A
100
AcDbEntity
  8
FV
  6
Continuous
 62
     7
100
AcDbMText
 10
577.3742230730586
 20
-796.1912604513388
 30
0.0
 40
14.99999955296518
 41
0.0
 71
     4
 72
     1
  1
\W0.768;\A1;DWG\PNｏ.
 73
     1
 44
0.9358845743151801
1001
ACAD
1000
MTEXTBEGIN
1070
    73
1070
     1
1070
    44
1040
0.9358845743151801
1070
    74
1070
     0
1000
MTEXTEND
  0
MTEXT
  5
371
330
A
100
AcDbEntity
  8
FV
  6
Continuous
 62
     7
100
AcDbMText
 10
115.5875705603489
 20
-796.1912604513388
 30
0.0
 40
14.99999955296518
 41
0.0
 71
     4
 72
     1
  1
\W0.853;\A1;MFG\PNｏ.
 73
     1
 44
0.9358845743151801
1001
ACAD
1000
MTEXTBEGIN
1070
    73
1070
     1
1070
    44
1040
0.9358845743151801
1070
    74
1070
     0
1000
MTEXTEND
  0
MTEXT
  5
372
330
A
100
AcDbEntity
  8
FV
  6
Continuous
 62
     7
100
AcDbMText
 10
420.0932861485759
 20
-646.4999807327991
 30
0.0
 40
17.99999946355821
 41
0.0
 71
     1
 72
     1
  1
\W0.711;\A1;製　図
 73
     1
 44
0.9358846887561009
1001
ACAD
1000
MTEXTBEGIN
1070
    73
1070
     1
1070
    44
1040
0.9358846887561009
1070
    74
1070
     0
1000
MTEXTEND
  0
MTEXT
  5
373
330
A
100
AcDbEntity
  8
FV
  6
Continuous
 62
     7
100
AcDbMText
 10
324.0932890095987
 20
-646.4999807327991
 30
0.0
 40
17.99999946355821
 41
0.0
 71
     1
 72
     1
  1
\W0.711;\A1;設　計
 73
     1
 44
0.9358846887561009
1001
ACAD
1000
MTEXTBEGIN
1070
    73
1070
     1
1070
    44
1040
0.9358846887561009
1070
    74
1070
     0
1000
MTEXTEND
  0
MTEXT
  5
374
330
A
100
AcDbEntity
  8
FV
  6
Continuous
 62
     7
100
AcDbMText
 10
228.0932918706216
 20
-646.4999807327991
 30
0.0
 40
17.99999946355821
 41
0.0
 71
     1
 72
     1
  1
\W0.711;\A1;検　図
 73
     1
 44
0.9358846887561009
1001
ACAD
1000
MTEXTBEGIN
1070
    73
1070
     1
1070
    44
1040
0.9358846887561009
1070
    74
1070
     0
1000
MTEXTEND
  0
MTEXT
  5
375
330
A
100
AcDbEntity
  8
FV
  6
Continuous
 62
     7
100
AcDbMText
 10
132.0932947316445
 20
-646.4999807327991
 30
0.0
 40
17.99999946355821
 41
0.0
 71
     1
 72
     1
  1
\W0.711;\A1;承　認
 73
     1
 44
0.9358846887561009
1001
ACAD
1000
MTEXTBEGIN
1070
    73
1070
     1
1070
    44
1040
0.9358846887561009
1070
    74
1070
     0
1000
MTEXTEND
  0
MTEXT
  5
376
330
A
100
AcDbEntity
  8
FV
  6
Continuous
 62
     7
100
AcDbMText
 10
727.9610321450727
 20
-627.7628902267548
 30
0.0
 40
14.99999955296518
 41
0.0
 71
     1
 72
     1
  1
\W0.776;\A1;TITLE
 73
     1
 44
0.8999997925758313
1001
ACAD
1000
MTEXTBEGIN
1070
    73
1070
     1
1070
    44
1040
0.8999997925758313
1070
    74
1070
     0
1000
MTEXTEND
  0
MTEXT
  5
377
330
A
100
AcDbEntity
  8
FV
  6
Continuous
 62
     7
100
AcDbMText
 10
414.7898095364657
 20
-620.9999814927583
 30
0.0
 40
14.99999955296518
 41
0.0
 71
     1
 72
     1
  1
\W0.874;\A1;DRAW
 73
     1
 44
0.8999997925758313
1001
ACAD
1000
MTEXTBEGIN
1070
    73
1070
     1
1070
    44
1040
0.8999997925758313
1070
    74
1070
     0
1000
MTEXTEND
  0
MTEXT
  5
378
330
A
100
AcDbEntity
  8
FV
  6
Continuous
 62
     7
100
AcDbMText
 10
317.4706136140996
 20
-620.9999814927583
 30
0.0
 40
14.99999955296518
 41
0.0
 71
     1
 72
     1
  1
\W0.847;\A1;DESIG
 73
     1
 44
0.8999997925758313
1001
ACAD
1000
MTEXTBEGIN
1070
    73
1070
     1
1070
    44
1040
0.8999997925758313
1070
    74
1070
     0
1000
MTEXTEND
  0
MTEXT
  5
379
330
A
100
AcDbEntity
  8
FV
  6
Continuous
 62
     7
100
AcDbMText
 10
221.3294401964712
 20
-620.9999814927583
 30
0.0
 40
14.99999955296518
 41
0.0
 71
     1
 72
     1
  1
\W0.791;\A1;CHECK
 73
     1
 44
0.8999997925758313
1001
ACAD
1000
MTEXTBEGIN
1070
    73
1070
     1
1070
    44
1040
0.8999997925758313
1070
    74
1070
     0
1000
MTEXTEND
  0
MTEXT
  5
37A
330
A
100
AcDbEntity
  8
FV
  6
Continuous
 62
     7
100
AcDbMText
 10
125.2059137919799
 20
-620.9999814927583
 30
0.0
 40
14.99999955296518
 41
0.0
 71
     1
 72
     1
  1
\W0.741;\A1;APPRV
 73
     1
 44
0.8999997925758313
1001
ACAD
1000
MTEXTBEGIN
1070
    73
1070
     1
1070
    44
1040
0.8999997925758313
1070
    74
1070
     0
1000
MTEXTEND
  0
LWPOLYLINE
  5
37B
330
A
100
AcDbEntity
  8
FV
  6
Continuous
 62
     7
100
AcDbPolyline
 90
       22
 70
     1
 43
0.0
 10
272.9999918639662
 20
803.9999760389335
 10
317.1000271707765
 20
830.9999752342708
 10
405.3000062316653
 20
776.9999768435962
 10
493.500076845286
 20
830.9999752342708
 10
581.7000559061749
 20
776.9999768435962
 10
669.8999434143321
 20
830.9999752342708
 10
758.099922475221
 20
776.9999768435962
 10
846.29990153611
 20
830.9999752342708
 10
934.4998805969989
 20
776.9999768435962
 10
1022.699951210619
 20
830.9999752342708
 10
1110.899930271508
 20
776.9999768435962
 10
1154.999965578318
 20
803.9999760389335
 10
1110.899930271508
 20
830.9999752342708
 10
1022.699951210619
 20
776.9999768435962
 10
934.4998805969989
 20
830.9999752342708
 10
846.29990153611
 20
776.9999768435962
 10
758.099922475221
 20
830.9999752342708
 10
669.8999434143321
 20
776.9999768435962
 10
581.7000559061749
 20
830.9999752342708
 10
493.500076845286
 20
776.9999768435962
 10
405.3000062316653
 20
830.9999752342708
 10
317.1000271707765
 20
776.9999768435962
  0
CIRCLE
  5
37C
330
A
100
AcDbEntity
  8
FV
  6
Continuous
 62
     3
100
AcDbCircle
 10
617.0861937676014
 20
-584.999982565642
 30
0.0
 40
19.19999828338628
  0
CIRCLE
  5
37D
330
A
100
AcDbEntity
  8
FV
  6
Continuous
 62
     3
100
AcDbCircle
 10
617.0861937676014
 20
-584.999982565642
 30
0.0
 40
9.599996280670277
  0
LINE
  5
37E
330
A
100
AcDbEntity
  8
FV
  6
Continuous
 62
     3
100
AcDbLine
 10
800.9999761283404
 20
-749.9999776482589
 30
0.0
 11
1100.999967187644
 21
-749.9999776482589
 31
0.0
  0
LINE
  5
37F
330
A
100
AcDbEntity
  8
FV
  6
Continuous
 62
     7
100
AcDbLine
 10
188.9999943673612
 20
830.9999752342708
 30
0.0
 11
188.9999943673612
 21
776.9999768435962
 31
0.0
  0
LINE
  5
380
330
A
100
AcDbEntity
  8
FV
  6
Continuous
 62
     7
100
AcDbLine
 10
272.9999918639662
 20
830.9999752342708
 30
0.0
 11
272.9999918639662
 21
776.9999768435962
 31
0.0
  0
LINE
  5
381
330
A
100
AcDbEntity
  8
FV
  6
Continuous
 62
     7
100
AcDbLine
 10
104.9999968707562
 20
830.9999752342708
 30
0.0
 11
104.9999968707562
 21
776.9999768435962
 31
0.0
  0
LINE
  5
382
330
A
100
AcDbEntity
  8
FV
  6
Continuous
 62
     7
100
AcDbLine
 10
104.9999968707562
 20
776.9999768435962
 30
0.0
 11
1154.999965578318
 21
776.9999768435962
 31
0.0
  0
LINE
  5
383
330
A
100
AcDbEntity
  8
FV
  6
Continuous
 62
     7
100
AcDbLine
 10
584.999982565642
 20
-554.9999834597115
 30
0.0
 11
584.999982565642
 21
-614.9999816715722
 31
0.0
  0
LINE
  5
384
330
A
100
AcDbEntity
  8
FV
  6
Continuous
 62
     7
100
AcDbLine
 10
146.9999956190587
 20
-554.9999834597115
 30
0.0
 11
146.9999956190587
 21
-446.9999866783623
 31
0.0
  0
LINE
  5
385
330
A
100
AcDbEntity
  8
FV
  6
Continuous
 62
     7
100
AcDbLine
 10
1139.999966025353
 20
-158.9999952614309
 30
0.0
 11
1154.999965578318
 21
-158.9999952614309
 31
0.0
  0
LINE
  5
386
330
A
100
AcDbEntity
  8
FV
  6
Continuous
 62
     7
100
AcDbLine
 10
1145.999965846539
 20
-188.9999943673612
 30
0.0
 11
1154.999965578318
 21
-188.9999943673612
 31
0.0
  0
LINE
  5
387
330
A
100
AcDbEntity
  8
FV
  6
Continuous
 62
     7
100
AcDbLine
 10
1139.999966025353
 20
-218.9999934732916
 30
0.0
 11
1154.999965578318
 21
-218.9999934732916
 31
0.0
  0
LINE
  5
388
330
A
100
AcDbEntity
  8
FV
  6
Continuous
 62
     7
100
AcDbLine
 10
1145.999965846539
 20
-248.9999925792219
 30
0.0
 11
1154.999965578318
 21
-248.9999925792219
 31
0.0
  0
LINE
  5
389
330
A
100
AcDbEntity
  8
FV
  6
Continuous
 62
     7
100
AcDbLine
 10
1139.999966025353
 20
-278.9999916851523
 30
0.0
 11
1154.999965578318
 21
-278.9999916851523
 31
0.0
  0
LINE
  5
38A
330
A
100
AcDbEntity
  8
FV
  6
Continuous
 62
     7
100
AcDbLine
 10
1145.999965846539
 20
-308.9999907910827
 30
0.0
 11
1154.999965578318
 21
-308.9999907910827
 31
0.0
  0
LINE
  5
38B
330
A
100
AcDbEntity
  8
FV
  6
Continuous
 62
     7
100
AcDbLine
 10
1139.999966025353
 20
-338.999989897013
 30
0.0
 11
1154.999965578318
 21
-338.999989897013
 31
0.0
  0
LINE
  5
38C
330
A
100
AcDbEntity
  8
FV
  6
Continuous
 62
     7
100
AcDbLine
 10
566.9999831020836
 20
-680.999979704619
 30
0.0
 11
566.9999831020836
 21
-830.9999752342708
 31
0.0
  0
LINE
  5
38D
330
A
100
AcDbEntity
  8
FV
  6
Continuous
 62
     7
100
AcDbLine
 10
200.9999940097334
 20
-614.9999816715722
 30
0.0
 11
200.9999940097334
 21
-764.9999772012241
 31
0.0
  0
LINE
  5
38E
330
A
100
AcDbEntity
  8
FV
  6
Continuous
 62
     7
100
AcDbLine
 10
296.9999911487105
 20
-554.9999834597115
 30
0.0
 11
296.9999911487105
 21
-764.9999772012241
 31
0.0
  0
LINE
  5
38F
330
A
100
AcDbEntity
  8
FV
  6
Continuous
 62
     7
100
AcDbLine
 10
392.9999882876876
 20
-614.9999816715722
 30
0.0
 11
392.9999882876876
 21
-764.9999772012241
 31
0.0
  0
LINE
  5
390
330
A
100
AcDbEntity
  8
FV
  6
Continuous
 62
     7
100
AcDbLine
 10
710.9999788105494
 20
-518.9999845325951
 30
0.0
 11
1154.999965578318
 21
-518.9999845325951
 31
0.0
  0
LINE
  5
391
330
A
100
AcDbEntity
  8
FV
  6
Continuous
 62
     7
100
AcDbLine
 10
710.9999788105494
 20
-482.9999856054787
 30
0.0
 11
1154.999965578318
 21
-482.9999856054787
 31
0.0
  0
LINE
  5
392
330
A
100
AcDbEntity
  8
FV
  6
Continuous
 62
     7
100
AcDbLine
 10
104.9999968707562
 20
-446.9999866783623
 30
0.0
 11
1154.999965578318
 21
-446.9999866783623
 31
0.0
  0
LINE
  5
393
330
A
100
AcDbEntity
  8
FV
  6
Continuous
 62
     7
100
AcDbLine
 10
932.9999721944339
 20
-446.9999866783623
 30
0.0
 11
932.9999721944339
 21
-584.999982565642
 31
0.0
  0
LINE
  5
394
330
A
100
AcDbEntity
  8
FV
  6
Continuous
 62
     7
100
AcDbLine
 10
717.0002006274111
 20
-512.3934992825232
 30
0.0
 11
730.5001430046226
 21
-489.0109136056168
 31
0.0
  0
LINE
  5
395
330
A
100
AcDbEntity
  8
FV
  6
Continuous
 62
     7
100
AcDbLine
 10
744.0002844544457
 20
-512.3936751928741
 30
0.0
 11
730.5002864661024
 21
-489.0109904072304
 31
0.0
  0
LINE
  5
396
330
A
100
AcDbEntity
  8
FV
  6
Continuous
 62
     7
100
AcDbLine
 10
716.9997955262722
 20
-512.3940887333723
 30
0.0
 11
743.9997947216095
 21
-512.3940887333723
 31
0.0
  0
LINE
  5
397
330
A
100
AcDbEntity
  8
FV
  6
Continuous
 62
     7
100
AcDbLine
 10
717.0001652222532
 20
-548.3935585639663
 30
0.0
 11
730.5001104604874
 21
-525.0109679316233
 31
0.0
  0
LINE
  5
398
330
A
100
AcDbEntity
  8
FV
  6
Continuous
 62
     7
100
AcDbLine
 10
744.0003265843781
 20
-548.3937482677443
 30
0.0
 11
730.5003285960349
 21
-525.0110634821007
 31
0.0
  0
LINE
  5
399
330
A
100
AcDbEntity
  8
FV
  6
Continuous
 62
     7
100
AcDbLine
 10
716.9997955262722
 20
-548.3940876604888
 30
0.0
 11
743.9997947216095
 21
-548.3940876604888
 31
0.0
  0
LINE
  5
39A
330
A
100
AcDbEntity
  8
FV
  6
Continuous
 62
     7
100
AcDbLine
 10
717.0002331715462
 20
-476.3934449565168
 30
0.0
 11
730.5001898538719
 21
-453.0108345024261
 31
0.0
  0
LINE
  5
39B
330
A
100
AcDbEntity
  8
FV
  6
Continuous
 62
     7
100
AcDbLine
 10
744.0002423245132
 20
-476.3936021180038
 30
0.0
 11
730.50024433617
 21
-453.0109173323601
 31
0.0
  0
LINE
  5
39C
330
A
100
AcDbEntity
  8
FV
  6
Continuous
 62
     7
100
AcDbLine
 10
716.9997955262722
 20
-476.394089806256
 30
0.0
 11
743.9997947216095
 21
-476.394089806256
 31
0.0
  0
LINE
  5
39D
330
A
100
AcDbEntity
  8
FV
  6
Continuous
 62
     7
100
AcDbLine
 10
488.9999854266648
 20
-722.9999784529216
 30
0.0
 11
710.9999788105494
 21
-722.9999784529216
 31
0.0
  0
LINE
  5
39E
330
A
100
AcDbEntity
  8
FV
  6
Continuous
 62
     7
100
AcDbLine
 10
1105.4999429959
 20
-814.499966433622
 30
0.0
 11
1138.499977044876
 21
-781.4999323846461
 31
0.0
  0
LINE
  5
39F
330
A
100
AcDbEntity
  8
FV
  6
Continuous
 62
     7
100
AcDbLine
 10
800.9999761283404
 20
-446.9999866783623
 30
0.0
 11
800.9999761283404
 21
-584.999982565642
 31
0.0
  0
LINE
  5
3A0
330
A
100
AcDbEntity
  8
FV
  6
Continuous
 62
     7
100
AcDbLine
 10
710.9999788105494
 20
-584.999982565642
 30
0.0
 11
1154.999965578318
 21
-584.999982565642
 31
0.0
  0
LINE
  5
3A1
330
A
100
AcDbEntity
  8
FV
  6
Continuous
 62
     7
100
AcDbLine
 10
524.9999843537811
 20
-554.9999834597115
 30
0.0
 11
524.9999843537811
 21
-614.9999816715722
 31
0.0
  0
LINE
  5
3A2
330
A
100
AcDbEntity
  8
FV
  6
Continuous
 62
     7
100
AcDbLine
 10
104.9999968707562
 20
-554.9999834597115
 30
0.0
 11
1154.999965578318
 21
-554.9999834597115
 31
0.0
  0
LINE
  5
3A3
330
A
100
AcDbEntity
  8
FV
  6
Continuous
 62
     7
100
AcDbLine
 10
488.9999854266648
 20
-680.999979704619
 30
0.0
 11
710.9999788105494
 21
-680.999979704619
 31
0.0
  0
LINE
  5
3A4
330
A
100
AcDbEntity
  8
FV
  6
Continuous
 62
     7
100
AcDbLine
 10
488.9999854266648
 20
-614.9999816715722
 30
0.0
 11
488.9999854266648
 21
-764.9999772012241
 31
0.0
  0
LINE
  5
3A5
330
A
100
AcDbEntity
  8
FV
  6
Continuous
 62
     7
100
AcDbLine
 10
1088.999967545272
 20
-830.9999752342708
 30
0.0
 11
1088.999967545272
 21
-764.9999772012241
 31
0.0
  0
LINE
  5
3A6
330
A
100
AcDbEntity
  8
FV
  6
CENTER
 62
     7
100
AcDbLine
 10
617.0861937676014
 20
-560.9999832808975
 30
0.0
 11
617.0861937676014
 21
-608.9999818503862
 31
0.0
  0
LINE
  5
3A7
330
A
100
AcDbEntity
  8
FV
  6
Continuous
 62
     3
100
AcDbLine
 10
655.4856368864644
 20
-575.3974425035127
 30
0.0
 11
703.4853684119966
 21
-565.797497949006
 31
0.0
  0
LINE
  5
3A8
330
A
100
AcDbEntity
  8
FV
  6
Continuous
 62
     3
100
AcDbLine
 10
655.4863781599073
 20
-594.5975224200741
 30
0.0
 11
703.4864687847797
 21
-604.1975387944358
 31
0.0
  0
LINE
  5
3A9
330
A
100
AcDbEntity
  8
FV
  6
Continuous
 62
     3
100
AcDbLine
 10
655.4861560020996
 20
-575.4000377833831
 30
0.0
 11
655.4861560020996
 21
-594.6000189006323
 31
0.0
  0
LINE
  5
3AA
330
A
100
AcDbEntity
  8
FV
  6
Continuous
 62
     3
100
AcDbLine
 10
703.4861545715881
 20
-565.8000014483928
 30
0.0
 11
703.4861545715881
 21
-604.2000552356227
 31
0.0
  0
LINE
  5
3AB
330
A
100
AcDbEntity
  8
FV
  6
CENTER
 62
     7
100
AcDbLine
 10
590.999982386828
 20
-584.999982565642
 30
0.0
 11
707.9999788999564
 21
-584.999982565642
 31
0.0
  0
LINE
  5
3AC
330
A
100
AcDbEntity
  8
FV
  6
Continuous
 62
     7
100
AcDbLine
 10
104.9999968707562
 20
-668.9999800622469
 30
0.0
 11
488.9999854266648
 21
-668.9999800622469
 31
0.0
  0
LINE
  5
3AD
330
A
100
AcDbEntity
  8
FV
  6
Continuous
 62
     7
100
AcDbLine
 10
710.9999788105494
 20
-446.9999866783623
 30
0.0
 11
710.9999788105494
 21
-764.9999772012241
 31
0.0
  0
LINE
  5
3AE
330
A
100
AcDbEntity
  8
FV
  6
Continuous
 62
     7
100
AcDbLine
 10
104.9999968707562
 20
-446.9999866783623
 30
0.0
 11
104.9999968707562
 21
-830.9999752342708
 31
0.0
  0
LINE
  5
3AF
330
A
100
AcDbEntity
  8
FV
  6
Continuous
 62
     7
100
AcDbLine
 10
104.6082427320408
 20
-614.9999816715722
 30
0.0
 11
1154.999965578318
 21
-614.9999816715722
 31
0.0
  0
LINE
  5
3B0
330
A
100
AcDbEntity
  8
FV
  6
Continuous
 62
     7
100
AcDbLine
 10
104.9999968707562
 20
-764.9999772012241
 30
0.0
 11
1154.999965578318
 21
-764.9999772012241
 31
0.0
  0
LINE
  5
3B1
330
A
100
AcDbEntity
  8
FV
  6
Continuous
 62
     1
100
AcDbLine
 10
1154.999965578318
 20
-830.9999752342708
 30
0.0
 11
1154.999965578318
 21
830.9999752342708
 31
0.0
  0
LINE
  5
3B2
330
A
100
AcDbEntity
  8
FV
  6
Continuous
 62
     1
100
AcDbLine
 10
-1154.999965578318
 20
-830.9999752342708
 30
0.0
 11
1154.999965578318
 21
-830.9999752342708
 31
0.0
  0
LINE
  5
3B3
330
A
100
AcDbEntity
  8
FV
  6
Continuous
 62
     1
100
AcDbLine
 10
-1154.999965578318
 20
830.9999752342708
 30
0.0
 11
1154.999965578318
 21
830.9999752342708
 31
0.0
  0
LINE
  5
3B4
330
A
100
AcDbEntity
  8
FV
  6
Continuous
 62
     7
100
AcDbLine
 10
1154.999965578318
 20
0.0
 30
0.0
 11
1136.99996611476
 21
0.0
 31
0.0
  0
LINE
  5
3B5
330
A
100
AcDbEntity
  8
FV
  6
Continuous
 62
     7
100
AcDbLine
 10
0.0
 20
-812.9999757707125
 30
0.0
 11
0.0
 21
-830.9999752342708
 31
0.0
  0
LINE
  5
3B6
330
A
100
AcDbEntity
  8
FV
  6
Continuous
 62
     7
100
AcDbLine
 10
0.0
 20
830.9999752342708
 30
0.0
 11
0.0
 21
812.9999757707125
 31
0.0
  0
LINE
  5
3B7
330
A
100
AcDbEntity
  8
FV
  6
Continuous
 62
     7
100
AcDbLine
 10
-1154.999965578318
 20
0.0
 30
0.0
 11
-1136.99996611476
 21
0.0
 31
0.0
  0
LINE
  5
3B8
330
A
100
AcDbEntity
  8
FV
  6
Continuous
 62
     1
100
AcDbLine
 10
-1154.999965578318
 20
830.9999752342708
 30
0.0
 11
-1154.999965578318
 21
-830.9999752342708
 31
0.0
  0
LINE
  5
3BA
330
A
100
AcDbEntity
  8
DEFPOINTS
  6
NON_PLOTING
 62
     3
100
AcDbLine
 10
-1304.99996110797
 20
-890.9999734461315
 30
0.0
 11
1214.999963790179
 21
-890.9999734461315
 31
0.0
  0
LINE
  5
3BB
330
A
100
AcDbEntity
  8
DEFPOINTS
  6
NON_PLOTING
 62
     3
100
AcDbLine
 10
1214.999963790179
 20
890.9999734461315
 30
0.0
 11
1214.999963790179
 21
-890.9999734461315
 31
0.0
  0
ENDSEC
  0
SECTION
  2
OBJECTS
  0
DICTIONARY
  5
19
330
0
100
AcDbDictionary
281
     1
  3
ACAD_COLOR
350
3EA
  3
ACAD_GROUP
350
1A
  3
ACAD_LAYOUT
350
1E
  3
ACAD_MATERIAL
350
3BD
  3
ACAD_MLEADERSTYLE
350
3FF
  3
ACAD_MLINESTYLE
350
1B
  3
ACAD_PLOTSETTINGS
350
22
  3
ACAD_PLOTSTYLENAME
350
1F
  3
ACAD_SCALELIST
350
3ED
  3
ACAD_TABLESTYLE
350
3EB
  3
ACAD_VISUALSTYLE
350
3D6
  3
ACDB_RECOMPOSE_DATA
350
4B2
  3
AcDbVariableDictionary
350
4A8
  3
AcmDictionary
350
45B
  3
AMG
350
43B
  3
AMGSNAPSETTINGS
350
4A1
  3
DWGPROPS
350
4B3
  0
DICTIONARY
  5
49B
330
14
100
AcDbDictionary
280
     1
281
     1
  3
ADSK_XREC_LAYER_RECONCILED
360
49C
  0
DICTIONARY
  5
49D
330
24
100
AcDbDictionary
280
     1
281
     1
  3
ADSK_XREC_LAYER_RECONCILED
360
49E
  0
DICTIONARY
  5
49F
330
25
100
AcDbDictionary
280
     1
281
     1
  3
ADSK_XREC_LAYER_RECONCILED
360
4A0
  0
DICTIONARY
  5
4B8
330
B2
100
AcDbDictionary
280
     1
281
     1
  3
ACAD_MTEXT_RT
360
4B9
  0
DICTIONARY
  5
4BA
330
165
100
AcDbDictionary
280
     1
281
     1
  3
ACAD_MTEXT_RT
360
4BB
  0
DICTIONARY
  5
4BC
330
169
100
AcDbDictionary
280
     1
281
     1
  3
ACAD_MTEXT_RT
360
4BD
  0
DICTIONARY
  5
4BE
330
16A
100
AcDbDictionary
280
     1
281
     1
  3
ACAD_MTEXT_RT
360
4BF
  0
DICTIONARY
  5
4C0
330
176
100
AcDbDictionary
280
     1
281
     1
  3
ACAD_MTEXT_RT
360
4C1
  0
DICTIONARY
  5
3EA
102
{ACAD_REACTORS
330
19
102
}
330
19
100
AcDbDictionary
281
     1
  0
DICTIONARY
  5
1A
102
{ACAD_REACTORS
330
19
102
}
330
19
100
AcDbDictionary
281
     1
  0
DICTIONARY
  5
1E
102
{ACAD_REACTORS
330
19
102
}
330
19
100
AcDbDictionary
281
     1
  3
Layout1
350
21
  3
Model
350
20
  0
DICTIONARY
  5
3BD
102
{ACAD_REACTORS
330
19
102
}
330
19
100
AcDbDictionary
281
     1
  3
ByBlock
350
3C6
  3
ByLayer
350
3BE
  3
Global
350
3CE
  0
DICTIONARY
  5
3FF
102
{ACAD_REACTORS
330
19
102
}
330
19
100
AcDbDictionary
281
     1
  3
Standard
350
400
  0
DICTIONARY
  5
1B
102
{ACAD_REACTORS
330
19
102
}
330
19
100
AcDbDictionary
281
     1
  3
Standard
350
1C
  0
DICTIONARY
  5
22
102
{ACAD_REACTORS
330
19
102
}
330
19
100
AcDbDictionary
281
     1
  0
ACDBDICTIONARYWDFLT
  5
1F
102
{ACAD_REACTORS
330
19
102
}
330
19
100
AcDbDictionary
281
     1
  3
Normal
350
1D
100
AcDbDictionaryWithDefault
340
1D
  0
DICTIONARY
  5
3ED
102
{ACAD_REACTORS
330
19
102
}
330
19
100
AcDbDictionary
281
     1
  3
A0
350
3EE
  3
A1
350
3EF
  3
A2
350
3F0
  3
A3
350
3F1
  3
A4
350
3F2
  3
A5
350
3F3
  3
A6
350
3F4
  3
A7
350
3F5
  3
A8
350
3F6
  3
A9
350
3F7
  3
B0
350
3F8
  3
B1
350
3F9
  3
B2
350
3FA
  3
B3
350
3FB
  3
B4
350
3FC
  3
B5
350
3FD
  3
B6
350
3FE
  0
DICTIONARY
  5
3EB
102
{ACAD_REACTORS
330
19
102
}
330
19
100
AcDbDictionary
281
     1
  3
Standard
350
3EC
  0
DICTIONARY
  5
3D6
102
{ACAD_REACTORS
330
19
102
}
330
19
100
AcDbDictionary
281
     1
  3
2dWireframe
350
3DC
  3
3D Hidden
350
3DE
  3
3dWireframe
350
3DD
  3
Basic
350
3DB
  3
Brighten
350
3E2
  3
ColorChange
350
3E6
  3
Conceptual
350
3DF
  3
Dim
350
3E1
  3
EdgeColorOff
350
3E9
  3
Facepattern
350
3E5
  3
Flat
350
3D7
  3
FlatWithEdges
350
3D8
  3
Gouraud
350
3D9
  3
GouraudWithEdges
350
3DA
  3
JitterOff
350
3E7
  3
Linepattern
350
3E4
  3
OverhangOff
350
3E8
  3
Realistic
350
3E0
  3
Thicken
350
3E3
  0
XRECORD
  5
4B2
102
{ACAD_REACTORS
330
19
102
}
330
19
100
AcDbXrecord
280
     1
 90
        1
330
B6
330
3EC
  0
DICTIONARY
  5
4A8
102
{ACAD_REACTORS
330
19
102
}
330
19
100
AcDbDictionary
281
     1
  3
CANNOSCALE
350
4AB
  3
CMLEADERSTYLE
350
4AA
  3
CTABLESTYLE
350
4A9
  3
DIMASSOC
350
4AE
  3
INDEXCTL
350
4AD
  3
SORTENTS
350
4AC
  3
XCLIPFRAME
350
4AF
  0
DICTIONARY
  5
45B
102
{ACAD_REACTORS
330
19
102
}
330
19
100
AcDbDictionary
281
     1
  3
AcmStdDictionary
350
465
  0
DICTIONARY
  5
43B
102
{ACAD_REACTORS
330
19
102
}
330
19
100
AcDbDictionary
281
     1
  0
DICTIONARY
  5
4A1
102
{ACAD_REACTORS
330
19
102
}
330
19
100
AcDbDictionary
281
     1
  0
XRECORD
  5
4B3
102
{ACAD_REACTORS
330
19
102
}
330
19
100
AcDbXrecord
280
     1
  1
DWGPROPS COOKIE
  2

  3

  4

  6

  7

  8
UJ35116
  9

300
=
301
=
302
=
303
=
304
=
305
=
306
=
307
=
308
=
309
=
 40
0.0001894212962963
 41
2455378.027349537
 42
2457932.503425695
  1

 90
        0
  0
XRECORD
  5
49C
102
{ACAD_REACTORS
330
49B
102
}
330
49B
100
AcDbXrecord
280
     1
290
     1
  0
XRECORD
  5
49E
102
{ACAD_REACTORS
330
49D
102
}
330
49D
100
AcDbXrecord
280
     1
290
     1
  0
XRECORD
  5
4A0
102
{ACAD_REACTORS
330
49F
102
}
330
49F
100
AcDbXrecord
280
     1
290
     1
  0
XRECORD
  5
4B9
102
{ACAD_REACTORS
330
4B8
102
}
330
4B8
100
AcDbXrecord
280
     1
 40
5788.0
  1
\A1;\U+2205370
  0
XRECORD
  5
4BB
102
{ACAD_REACTORS
330
4BA
102
}
330
4BA
100
AcDbXrecord
280
     1
 40
39973.0
  1
\W0.940;\A1;ﾓ-ﾀ\P(AC200V,3\U+2205,60W)
  0
XRECORD
  5
4BD
102
{ACAD_REACTORS
330
4BC
102
}
330
4BC
100
AcDbXrecord
280
     1
 40
12337.0
  1
\W0.701;\A1;\U+220518ゲ-ジポ-ﾄ
  0
XRECORD
  5
4BF
102
{ACAD_REACTORS
330
4BE
102
}
330
4BE
100
AcDbXrecord
280
     1
 40
12972.0
  1
\W0.996;\A1;4-\U+220512ｷﾘ
  0
XRECORD
  5
4C1
102
{ACAD_REACTORS
330
4C0
102
}
330
4C0
100
AcDbXrecord
280
     1
 40
19140.0
  1
\W0.913;\A1;AC200V,3\U+2205,60ｗ
  0
LAYOUT
  5
21
102
{ACAD_XDICTIONARY
360
4B6
102
}
102
{ACAD_REACTORS
330
1E
102
}
330
1E
100
AcDbPlotSettings
  1

  2

  4

  6

 40
0.0
 41
0.0
 42
0.0
 43
0.0
 44
0.0
 45
0.0
 46
0.0
 47
0.0
 48
0.0
 49
0.0
140
0.0
141
0.0
142
1.0
143
1.0
 70
     0
 72
     0
 73
     0
 74
     0
  7

 75
     0
147
1.0
148
0.0
149
0.0
100
AcDbLayout
  1
Layout1
 70
     0
 71
     1
 10
0.0
 20
0.0
 11
12.0
 21
9.0
 12
0.0
 22
0.0
 32
0.0
 14
1.000000000000000E+20
 24
1.000000000000000E+20
 34
1.000000000000000E+20
 15
-1.000000000000000E+20
 25
-1.000000000000000E+20
 35
-1.000000000000000E+20
146
0.0
 13
0.0
 23
0.0
 33
0.0
 16
1.0
 26
0.0
 36
0.0
 17
0.0
 27
1.0
 37
0.0
 76
     0
330
B
  0
LAYOUT
  5
20
102
{ACAD_XDICTIONARY
360
4B4
102
}
102
{ACAD_REACTORS
330
1E
102
}
330
1E
100
AcDbPlotSettings
  1

  2

  4

  6

 40
0.0
 41
0.0
 42
0.0
 43
0.0
 44
0.0
 45
0.0
 46
0.0
 47
0.0
 48
0.0
 49
0.0
140
0.0
141
0.0
142
1.0
143
1.0
 70
  1024
 72
     0
 73
     0
 74
     0
  7

 75
     0
147
1.0
148
0.0
149
0.0
100
AcDbLayout
  1
Model
 70
     0
 71
     0
 10
0.0
 20
0.0
 11
0.0
 21
0.0
 12
0.0
 22
0.0
 32
0.0
 14
0.0
 24
0.0
 34
0.0
 15
0.0
 25
0.0
 35
0.0
146
0.0
 13
0.0
 23
0.0
 33
0.0
 16
0.0
 26
0.0
 36
0.0
 17
0.0
 27
0.0
 37
0.0
 76
     0
330
A
331
15
  0
MATERIAL
  5
3C6
102
{ACAD_XDICTIONARY
360
3C7
102
}
102
{ACAD_REACTORS
330
3BD
102
}
330
3BD
100
AcDbMaterial
  1
ByBlock
 72
     0
 43
0.0208333333333333
 43
0.0
 43
0.0
 43
0.0
 43
0.0
 43
0.0208333333333333
 43
0.0
 43
0.0
 43
0.0
 43
0.0
 43
1.0
 43
0.0
 43
0.0
 43
0.0
 43
0.0
 43
1.0
 77
     0
 47
0.0208333333333333
 47
0.0
 47
0.0
 47
0.0
 47
0.0
 47
0.0208333333333333
 47
0.0
 47
0.0
 47
0.0
 47
0.0
 47
1.0
 47
0.0
 47
0.0
 47
0.0
 47
0.0
 47
1.0
171
     0
 49
0.0208333333333333
 49
0.0
 49
0.0
 49
0.0
 49
0.0
 49
0.0208333333333333
 49
0.0
 49
0.0
 49
0.0
 49
0.0
 49
1.0
 49
0.0
 49
0.0
 49
0.0
 49
0.0
 49
1.0
175
     0
142
0.0208333333333333
142
0.0
142
0.0
142
0.0
142
0.0
142
0.0208333333333333
142
0.0
142
0.0
142
0.0
142
0.0
142
1.0
142
0.0
142
0.0
142
0.0
142
0.0
142
1.0
179
     0
144
0.0208333333333333
144
0.0
144
0.0
144
0.0
144
0.0
144
0.0208333333333333
144
0.0
144
0.0
144
0.0
144
0.0
144
1.0
144
0.0
144
0.0
144
0.0
144
0.0
144
1.0
147
0.0208333333333333
147
0.0
147
0.0
147
0.0
147
0.0
147
0.0208333333333333
147
0.0
147
0.0
147
0.0
147
0.0
147
1.0
147
0.0
147
0.0
147
0.0
147
0.0
147
1.0
  0
MATERIAL
  5
3BE
102
{ACAD_XDICTIONARY
360
3BF
102
}
102
{ACAD_REACTORS
330
3BD
102
}
330
3BD
100
AcDbMaterial
  1
ByLayer
 72
     0
 43
0.0208333333333333
 43
0.0
 43
0.0
 43
0.0
 43
0.0
 43
0.0208333333333333
 43
0.0
 43
0.0
 43
0.0
 43
0.0
 43
1.0
 43
0.0
 43
0.0
 43
0.0
 43
0.0
 43
1.0
 77
     0
 47
0.0208333333333333
 47
0.0
 47
0.0
 47
0.0
 47
0.0
 47
0.0208333333333333
 47
0.0
 47
0.0
 47
0.0
 47
0.0
 47
1.0
 47
0.0
 47
0.0
 47
0.0
 47
0.0
 47
1.0
171
     0
 49
0.0208333333333333
 49
0.0
 49
0.0
 49
0.0
 49
0.0
 49
0.0208333333333333
 49
0.0
 49
0.0
 49
0.0
 49
0.0
 49
1.0
 49
0.0
 49
0.0
 49
0.0
 49
0.0
 49
1.0
175
     0
142
0.0208333333333333
142
0.0
142
0.0
142
0.0
142
0.0
142
0.0208333333333333
142
0.0
142
0.0
142
0.0
142
0.0
142
1.0
142
0.0
142
0.0
142
0.0
142
0.0
142
1.0
179
     0
144
0.0208333333333333
144
0.0
144
0.0
144
0.0
144
0.0
144
0.0208333333333333
144
0.0
144
0.0
144
0.0
144
0.0
144
1.0
144
0.0
144
0.0
144
0.0
144
0.0
144
1.0
147
0.0208333333333333
147
0.0
147
0.0
147
0.0
147
0.0
147
0.0208333333333333
147
0.0
147
0.0
147
0.0
147
0.0
147
1.0
147
0.0
147
0.0
147
0.0
147
0.0
147
1.0
  0
MATERIAL
  5
3CE
102
{ACAD_XDICTIONARY
360
3CF
102
}
102
{ACAD_REACTORS
330
3BD
102
}
330
3BD
100
AcDbMaterial
  1
Global
 72
     0
 43
0.0208333333333333
 43
0.0
 43
0.0
 43
0.0
 43
0.0
 43
0.0208333333333333
 43
0.0
 43
0.0
 43
0.0
 43
0.0
 43
1.0
 43
0.0
 43
0.0
 43
0.0
 43
0.0
 43
1.0
 77
     0
 47
0.0208333333333333
 47
0.0
 47
0.0
 47
0.0
 47
0.0
 47
0.0208333333333333
 47
0.0
 47
0.0
 47
0.0
 47
0.0
 47
1.0
 47
0.0
 47
0.0
 47
0.0
 47
0.0
 47
1.0
171
     0
 49
0.0208333333333333
 49
0.0
 49
0.0
 49
0.0
 49
0.0
 49
0.0208333333333333
 49
0.0
 49
0.0
 49
0.0
 49
0.0
 49
1.0
 49
0.0
 49
0.0
 49
0.0
 49
0.0
 49
1.0
175
     0
142
0.0208333333333333
142
0.0
142
0.0
142
0.0
142
0.0
142
0.0208333333333333
142
0.0
142
0.0
142
0.0
142
0.0
142
1.0
142
0.0
142
0.0
142
0.0
142
0.0
142
1.0
179
     0
144
0.0208333333333333
144
0.0
144
0.0
144
0.0
144
0.0
144
0.0208333333333333
144
0.0
144
0.0
144
0.0
144
0.0
144
1.0
144
0.0
144
0.0
144
0.0
144
0.0
144
1.0
147
0.0208333333333333
147
0.0
147
0.0
147
0.0
147
0.0
147
0.0208333333333333
147
0.0
147
0.0
147
0.0
147
0.0
147
1.0
147
0.0
147
0.0
147
0.0
147
0.0
147
1.0
  0
MLEADERSTYLE
  5
400
102
{ACAD_REACTORS
330
3FF
102
}
330
3FF
100
AcDbMLeaderStyle
170
     2
171
     1
172
     0
 90
        2
 40
0.0
 41
0.0
173
     1
 91
-1056964608
340
11
 92
       -2
290
     1
 42
2.0
291
     1
 43
0.36
  3
Standard
 44
4.0
300

342
17
174
     1
178
     6
175
     1
176
     0
 93
-1056964608
 45
4.0
292
     0
297
     0
 46
4.0
 94
-1056964608
 47
1.0
 49
1.0
140
1.0
293
     1
141
0.0
294
     1
177
     0
142
1.0
295
     0
296
     0
143
0.125
1001
ACAD_MLEADERVER
1070
     2
  0
MLINESTYLE
  5
1C
102
{ACAD_REACTORS
330
1B
102
}
330
1B
100
AcDbMlineStyle
  2
STANDARD
 70
     0
  3

 62
     0
 51
90.0
 52
90.0
 71
     2
 49
0.5
 62
   256
  6
BYLAYER
 49
-0.5
 62
   256
  6
BYLAYER
  0
ACDBPLACEHOLDER
  5
1D
102
{ACAD_REACTORS
330
1F
102
}
330
1F
  0
SCALE
  5
3EE
102
{ACAD_REACTORS
330
3ED
102
}
330
3ED
100
AcDbScale
 70
     0
300
1:1
140
1.0
141
1.0
290
     1
  0
SCALE
  5
3EF
102
{ACAD_REACTORS
330
3ED
102
}
330
3ED
100
AcDbScale
 70
     0
300
1:2
140
1.0
141
2.0
290
     0
  0
SCALE
  5
3F0
102
{ACAD_REACTORS
330
3ED
102
}
330
3ED
100
AcDbScale
 70
     0
300
1:4
140
1.0
141
4.0
290
     0
  0
SCALE
  5
3F1
102
{ACAD_REACTORS
330
3ED
102
}
330
3ED
100
AcDbScale
 70
     0
300
1:5
140
1.0
141
5.0
290
     0
  0
SCALE
  5
3F2
102
{ACAD_REACTORS
330
3ED
102
}
330
3ED
100
AcDbScale
 70
     0
300
1:8
140
1.0
141
8.0
290
     0
  0
SCALE
  5
3F3
102
{ACAD_REACTORS
330
3ED
102
}
330
3ED
100
AcDbScale
 70
     0
300
1:10
140
1.0
141
10.0
290
     0
  0
SCALE
  5
3F4
102
{ACAD_REACTORS
330
3ED
102
}
330
3ED
100
AcDbScale
 70
     0
300
1:16
140
1.0
141
16.0
290
     0
  0
SCALE
  5
3F5
102
{ACAD_REACTORS
330
3ED
102
}
330
3ED
100
AcDbScale
 70
     0
300
1:20
140
1.0
141
20.0
290
     0
  0
SCALE
  5
3F6
102
{ACAD_REACTORS
330
3ED
102
}
330
3ED
100
AcDbScale
 70
     0
300
1:30
140
1.0
141
30.0
290
     0
  0
SCALE
  5
3F7
102
{ACAD_REACTORS
330
3ED
102
}
330
3ED
100
AcDbScale
 70
     0
300
1:40
140
1.0
141
40.0
290
     0
  0
SCALE
  5
3F8
102
{ACAD_REACTORS
330
3ED
102
}
330
3ED
100
AcDbScale
 70
     0
300
1:50
140
1.0
141
50.0
290
     0
  0
SCALE
  5
3F9
102
{ACAD_REACTORS
330
3ED
102
}
330
3ED
100
AcDbScale
 70
     0
300
1:100
140
1.0
141
100.0
290
     0
  0
SCALE
  5
3FA
102
{ACAD_REACTORS
330
3ED
102
}
330
3ED
100
AcDbScale
 70
     0
300
2:1
140
2.0
141
1.0
290
     0
  0
SCALE
  5
3FB
102
{ACAD_REACTORS
330
3ED
102
}
330
3ED
100
AcDbScale
 70
     0
300
4:1
140
4.0
141
1.0
290
     0
  0
SCALE
  5
3FC
102
{ACAD_REACTORS
330
3ED
102
}
330
3ED
100
AcDbScale
 70
     0
300
8:1
140
8.0
141
1.0
290
     0
  0
SCALE
  5
3FD
102
{ACAD_REACTORS
330
3ED
102
}
330
3ED
100
AcDbScale
 70
     0
300
10:1
140
10.0
141
1.0
290
     0
  0
SCALE
  5
3FE
102
{ACAD_REACTORS
330
3ED
102
}
330
3ED
100
AcDbScale
 70
     0
300
100:1
140
100.0
141
1.0
290
     0
  0
TABLESTYLE
  5
3EC
102
{ACAD_XDICTIONARY
360
4B0
102
}
102
{ACAD_REACTORS
330
3EB
102
}
330
3EB
100
AcDbTableStyle
  3
Standard
 70
     0
 71
     0
 40
1.5
 41
1.5
280
     0
281
     0
  7
MX_NOTE_STANDARD
140
4.5
170
     2
 62
     0
 63
     7
283
     0
274
    -2
284
     1
 64
     0
275
    -2
285
     1
 65
     0
276
    -2
286
     1
 66
     0
277
    -2
287
     1
 67
     0
278
    -2
288
     1
 68
     0
279
    -2
289
     1
 69
     0
  7
MX_NOTE_STANDARD
140
6.0
170
     5
 62
     0
 63
     7
283
     0
274
    -2
284
     1
 64
     0
275
    -2
285
     1
 65
     0
276
    -2
286
     1
 66
     0
277
    -2
287
     1
 67
     0
278
    -2
288
     1
 68
     0
279
    -2
289
     1
 69
     0
  7
MX_NOTE_STANDARD
140
4.5
170
     5
 62
     0
 63
     7
283
     0
274
    -2
284
     1
 64
     0
275
    -2
285
     1
 65
     0
276
    -2
286
     1
 66
     0
277
    -2
287
     1
 67
     0
278
    -2
288
     1
 68
     0
279
    -2
289
     1
 69
     0
  0
VISUALSTYLE
  5
3DC
102
{ACAD_XDICTIONARY
360
4CF
102
}
102
{ACAD_REACTORS
330
3D6
102
}
330
3D6
100
AcDbVisualStyle
  2
2dWireframe
 70
     4
 71
     0
 72
     2
 73
     0
 90
        0
 40
-0.6
 41
-30.0
 62
     5
 63
     7
 74
     1
 91
        4
 64
     7
 65
   257
 75
     1
175
     1
 42
1.0
 92
        0
 66
   257
 43
1.0
 76
     1
 77
     6
 78
     2
 67
     7
 79
     5
170
     0
171
     0
290
     0
174
     0
 93
        1
 44
0.0
173
     0
291
     0
 45
0.0
1001
ACAD
1000
AcDbSavedByObjectVersion
1070
     0
  0
VISUALSTYLE
  5
3DE
102
{ACAD_XDICTIONARY
360
4D3
102
}
102
{ACAD_REACTORS
330
3D6
102
}
330
3D6
100
AcDbVisualStyle
  2
3D Hidden
 70
     6
 71
     1
 72
     2
 73
     2
 90
        0
 40
-0.6
 41
-30.0
 62
     5
 63
     7
 74
     2
 91
        2
 64
     7
 65
   257
 75
     2
175
     1
 42
179.0
 92
        0
 66
   257
 43
1.0
 76
     1
 77
     6
 78
     2
 67
     7
 79
     3
170
     0
171
     0
290
     0
174
     0
 93
        1
 44
0.0
173
     0
291
     0
 45
0.0
1001
ACAD
1000
AcDbSavedByObjectVersion
1070
     0
  0
VISUALSTYLE
  5
3DD
102
{ACAD_XDICTIONARY
360
4D1
102
}
102
{ACAD_REACTORS
330
3D6
102
}
330
3D6
100
AcDbVisualStyle
  2
3dWireframe
 70
     5
 71
     0
 72
     2
 73
     0
 90
        0
 40
-0.6
 41
-30.0
 62
     5
 63
     7
 74
     1
 91
        4
 64
     7
 65
   257
 75
     1
175
     1
 42
1.0
 92
        0
 66
   257
 43
1.0
 76
     1
 77
     6
 78
     2
 67
     7
 79
     5
170
     0
171
     0
290
     0
174
     0
 93
        1
 44
0.0
173
     0
291
     0
 45
0.0
1001
ACAD
1000
AcDbSavedByObjectVersion
1070
     0
  0
VISUALSTYLE
  5
3DB
102
{ACAD_XDICTIONARY
360
4CD
102
}
102
{ACAD_REACTORS
330
3D6
102
}
330
3D6
100
AcDbVisualStyle
  2
Basic
 70
     7
 71
     1
 72
     0
 73
     1
 90
        0
 40
-0.6
 41
-30.0
 62
     5
 63
     7
 74
     0
 91
        4
 64
     7
 65
   257
 75
     1
175
     1
 42
1.0
 92
        8
 66
     7
 43
1.0
 76
     1
 77
     6
 78
     2
 67
     7
 79
     5
170
     0
171
     0
290
     0
174
     0
 93
        1
 44
0.0
173
     0
291
     1
 45
0.0
1001
ACAD
1000
AcDbSavedByObjectVersion
1070
     0
  0
VISUALSTYLE
  5
3E2
102
{ACAD_XDICTIONARY
360
4DB
102
}
102
{ACAD_REACTORS
330
3D6
102
}
330
3D6
100
AcDbVisualStyle
  2
Brighten
 70
    12
 71
     2
 72
     2
 73
     0
 90
        0
 40
-0.6
 41
-30.0
 62
     5
 63
     7
 74
     1
 91
        4
 64
     7
 65
   257
 75
     1
175
     1
 42
1.0
 92
        8
 66
     7
 43
1.0
 76
     1
 77
     6
 78
     2
 67
     7
 79
     5
170
     0
171
     0
290
     0
174
     0
 93
        1
 44
50.0
173
     0
291
     1
 45
0.0
1001
ACAD
1000
AcDbSavedByObjectVersion
1070
     0
  0
VISUALSTYLE
  5
3E6
102
{ACAD_XDICTIONARY
360
4E3
102
}
102
{ACAD_REACTORS
330
3D6
102
}
330
3D6
100
AcDbVisualStyle
  2
ColorChange
 70
    16
 71
     2
 72
     2
 73
     3
 90
        0
 40
-0.6
 41
-30.0
 62
     5
 63
     8
 74
     1
 91
        4
 64
     7
 65
   257
 75
     1
175
     1
 42
1.0
 92
        8
 66
     8
 43
1.0
 76
     1
 77
     6
 78
     2
 67
     7
 79
     5
170
     0
171
     0
290
     0
174
     0
 93
        1
 44
0.0
173
     0
291
     1
 45
0.0
1001
ACAD
1000
AcDbSavedByObjectVersion
1070
     0
  0
VISUALSTYLE
  5
3DF
102
{ACAD_XDICTIONARY
360
4D5
102
}
102
{ACAD_REACTORS
330
3D6
102
}
330
3D6
100
AcDbVisualStyle
  2
Conceptual
 70
     9
 71
     3
 72
     2
 73
     0
 90
        0
 40
-0.6
 41
-30.0
 62
     5
 63
     7
 74
     2
 91
        2
 64
     7
 65
   257
 75
     1
175
     1
 42
179.0
 92
        8
 66
     7
 43
1.0
 76
     1
 77
     6
 78
     2
 67
     7
 79
     3
170
     0
171
     0
290
     0
174
     0
 93
        1
 44
0.0
173
     0
291
     0
 45
0.0
1001
ACAD
1000
AcDbSavedByObjectVersion
1070
     0
  0
VISUALSTYLE
  5
3E1
102
{ACAD_XDICTIONARY
360
4D9
102
}
102
{ACAD_REACTORS
330
3D6
102
}
330
3D6
100
AcDbVisualStyle
  2
Dim
 70
    11
 71
     2
 72
     2
 73
     0
 90
        0
 40
-0.6
 41
-30.0
 62
     5
 63
     7
 74
     1
 91
        4
 64
     7
 65
   257
 75
     1
175
     1
 42
1.0
 92
        8
 66
     7
 43
1.0
 76
     1
 77
     6
 78
     2
 67
     7
 79
     5
170
     0
171
     0
290
     0
174
     0
 93
        1
 44
-50.0
173
     0
291
     1
 45
0.0
1001
ACAD
1000
AcDbSavedByObjectVersion
1070
     0
  0
VISUALSTYLE
  5
3E9
102
{ACAD_XDICTIONARY
360
4E9
102
}
102
{ACAD_REACTORS
330
3D6
102
}
330
3D6
100
AcDbVisualStyle
  2
EdgeColorOff
 70
    22
 71
     2
 72
     2
 73
     0
 90
        0
 40
-0.6
 41
-30.0
 62
     5
 63
     7
 74
     1
 91
        4
 64
     7
 65
   257
 75
     1
175
     1
 42
1.0
 92
        8
 66
     7
 43
1.0
 76
     1
 77
     6
 78
     2
 67
     7
 79
     5
170
     0
171
     0
290
     0
174
     0
 93
        1
 44
0.0
173
     0
291
     1
 45
0.0
1001
ACAD
1000
AcDbSavedByObjectVersion
1070
     0
  0
VISUALSTYLE
  5
3E5
102
{ACAD_XDICTIONARY
360
4E1
102
}
102
{ACAD_REACTORS
330
3D6
102
}
330
3D6
100
AcDbVisualStyle
  2
Facepattern
 70
    15
 71
     2
 72
     2
 73
     0
 90
        0
 40
-0.6
 41
-30.0
 62
     5
 63
     7
 74
     1
 91
        4
 64
     7
 65
   257
 75
     1
175
     1
 42
1.0
 92
        8
 66
     7
 43
1.0
 76
     1
 77
     6
 78
     2
 67
     7
 79
     5
170
     0
171
     0
290
     0
174
     0
 93
        1
 44
0.0
173
     0
291
     1
 45
0.0
1001
ACAD
1000
AcDbSavedByObjectVersion
1070
     0
  0
VISUALSTYLE
  5
3D7
102
{ACAD_XDICTIONARY
360
4C5
102
}
102
{ACAD_REACTORS
330
3D6
102
}
330
3D6
100
AcDbVisualStyle
  2
Flat
 70
     0
 71
     2
 72
     1
 73
     1
 90
        2
 40
-0.6
 41
30.0
 62
     5
 63
     7
 74
     0
 91
        4
 64
     7
 65
   257
 75
     1
175
     1
 42
1.0
 92
        8
 66
     7
 43
1.0
 76
     1
 77
     6
 78
     2
 67
     7
 79
     5
170
     0
171
     0
290
     0
174
     0
 93
       13
 44
0.0
173
     0
291
     1
 45
0.0
1001
ACAD
1000
AcDbSavedByObjectVersion
1070
     0
  0
VISUALSTYLE
  5
3D8
102
{ACAD_XDICTIONARY
360
4C7
102
}
102
{ACAD_REACTORS
330
3D6
102
}
330
3D6
100
AcDbVisualStyle
  2
FlatWithEdges
 70
     1
 71
     2
 72
     1
 73
     1
 90
        2
 40
-0.6
 41
30.0
 62
     5
 63
     7
 74
     1
 91
        4
 64
     7
 65
   257
 75
     1
175
     1
 42
1.0
 92
        0
 66
   257
 43
1.0
 76
     1
 77
     6
 78
     2
 67
     7
 79
     5
170
     0
171
     0
290
     0
174
     0
 93
       13
 44
0.0
173
     0
291
     1
 45
0.0
1001
ACAD
1000
AcDbSavedByObjectVersion
1070
     0
  0
VISUALSTYLE
  5
3D9
102
{ACAD_XDICTIONARY
360
4C9
102
}
102
{ACAD_REACTORS
330
3D6
102
}
330
3D6
100
AcDbVisualStyle
  2
Gouraud
 70
     2
 71
     2
 72
     2
 73
     1
 90
        2
 40
-0.6
 41
30.0
 62
     5
 63
     7
 74
     0
 91
        4
 64
     7
 65
   257
 75
     1
175
     1
 42
1.0
 92
        0
 66
     7
 43
1.0
 76
     1
 77
     6
 78
     2
 67
     7
 79
     5
170
     0
171
     0
290
     0
174
     0
 93
       13
 44
0.0
173
     0
291
     1
 45
0.0
1001
ACAD
1000
AcDbSavedByObjectVersion
1070
     0
  0
VISUALSTYLE
  5
3DA
102
{ACAD_XDICTIONARY
360
4CB
102
}
102
{ACAD_REACTORS
330
3D6
102
}
330
3D6
100
AcDbVisualStyle
  2
GouraudWithEdges
 70
     3
 71
     2
 72
     2
 73
     1
 90
        2
 40
-0.6
 41
30.0
 62
     5
 63
     7
 74
     1
 91
        4
 64
     7
 65
   257
 75
     1
175
     1
 42
1.0
 92
        0
 66
   257
 43
1.0
 76
     1
 77
     6
 78
     2
 67
     7
 79
     5
170
     0
171
     0
290
     0
174
     0
 93
       13
 44
0.0
173
     0
291
     1
 45
0.0
1001
ACAD
1000
AcDbSavedByObjectVersion
1070
     0
  0
VISUALSTYLE
  5
3E7
102
{ACAD_XDICTIONARY
360
4E5
102
}
102
{ACAD_REACTORS
330
3D6
102
}
330
3D6
100
AcDbVisualStyle
  2
JitterOff
 70
    20
 71
     2
 72
     2
 73
     0
 90
        0
 40
-0.6
 41
-30.0
 62
     5
 63
     7
 74
     1
 91
        4
 64
     7
 65
   257
 75
     1
175
     1
 42
1.0
 92
       10
 66
     7
 43
1.0
 76
     1
 77
     6
 78
     2
 67
     7
 79
     5
170
     0
171
     0
290
     0
174
     0
 93
        1
 44
0.0
173
     0
291
     1
 45
0.0
1001
ACAD
1000
AcDbSavedByObjectVersion
1070
     0
  0
VISUALSTYLE
  5
3E4
102
{ACAD_XDICTIONARY
360
4DF
102
}
102
{ACAD_REACTORS
330
3D6
102
}
330
3D6
100
AcDbVisualStyle
  2
Linepattern
 70
    14
 71
     2
 72
     2
 73
     0
 90
        0
 40
-0.6
 41
-30.0
 62
     5
 63
     7
 74
     1
 91
        4
 64
     7
 65
   257
 75
     7
175
     7
 42
1.0
 92
        8
 66
     7
 43
1.0
 76
     1
 77
     6
 78
     2
 67
     7
 79
     5
170
     0
171
     0
290
     0
174
     0
 93
        1
 44
0.0
173
     0
291
     1
 45
0.0
1001
ACAD
1000
AcDbSavedByObjectVersion
1070
     0
  0
VISUALSTYLE
  5
3E8
102
{ACAD_XDICTIONARY
360
4E7
102
}
102
{ACAD_REACTORS
330
3D6
102
}
330
3D6
100
AcDbVisualStyle
  2
OverhangOff
 70
    21
 71
     2
 72
     2
 73
     0
 90
        0
 40
-0.6
 41
-30.0
 62
     5
 63
     7
 74
     1
 91
        4
 64
     7
 65
   257
 75
     1
175
     1
 42
1.0
 92
        9
 66
     7
 43
1.0
 76
     1
 77
     6
 78
     2
 67
     7
 79
     5
170
     0
171
     0
290
     0
174
     0
 93
        1
 44
0.0
173
     0
291
     1
 45
0.0
1001
ACAD
1000
AcDbSavedByObjectVersion
1070
     0
  0
VISUALSTYLE
  5
3E0
102
{ACAD_XDICTIONARY
360
4D7
102
}
102
{ACAD_REACTORS
330
3D6
102
}
330
3D6
100
AcDbVisualStyle
  2
Realistic
 70
     8
 71
     2
 72
     2
 73
     0
 90
        0
 40
-0.6
 41
-30.0
 62
     5
 63
     7
 74
     1
 91
        0
 64
     7
 65
   257
 75
     1
175
     1
 42
1.0
 92
        8
 66
     8
 43
1.0
 76
     1
 77
     6
 78
     2
 67
     7
 79
     5
170
     0
171
     0
290
     0
174
     0
 93
       13
 44
0.0
173
     0
291
     0
 45
0.0
1001
ACAD
1000
AcDbSavedByObjectVersion
1070
     0
  0
VISUALSTYLE
  5
3E3
102
{ACAD_XDICTIONARY
360
4DD
102
}
102
{ACAD_REACTORS
330
3D6
102
}
330
3D6
100
AcDbVisualStyle
  2
Thicken
 70
    13
 71
     2
 72
     2
 73
     0
 90
        0
 40
-0.6
 41
-30.0
 62
     5
 63
     7
 74
     1
 91
        4
 64
     7
 65
   257
 75
     1
175
     1
 42
1.0
 92
       12
 66
     7
 43
1.0
 76
     1
 77
     6
 78
     2
 67
     7
 79
     5
170
     0
171
     0
290
     0
174
     0
 93
        1
 44
0.0
173
     0
291
     1
 45
0.0
1001
ACAD
1000
AcDbSavedByObjectVersion
1070
     0
  0
DICTIONARYVAR
  5
4AB
102
{ACAD_REACTORS
330
4A8
102
}
330
4A8
100
DictionaryVariables
280
     0
  1
1:1
  0
DICTIONARYVAR
  5
4AA
102
{ACAD_REACTORS
330
4A8
102
}
330
4A8
100
DictionaryVariables
280
     0
  1
STANDARD
  0
DICTIONARYVAR
  5
4A9
102
{ACAD_REACTORS
330
4A8
102
}
330
4A8
100
DictionaryVariables
280
     0
  1
STANDARD
  0
DICTIONARYVAR
  5
4AE
102
{ACAD_REACTORS
330
4A8
102
}
330
4A8
100
DictionaryVariables
280
     0
  1
1
  0
DICTIONARYVAR
  5
4AD
102
{ACAD_REACTORS
330
4A8
102
}
330
4A8
100
DictionaryVariables
280
     0
  1
0
  0
DICTIONARYVAR
  5
4AC
102
{ACAD_REACTORS
330
4A8
102
}
330
4A8
100
DictionaryVariables
280
     0
  1
127
  0
DICTIONARYVAR
  5
4AF
102
{ACAD_REACTORS
330
4A8
102
}
330
4A8
100
DictionaryVariables
280
     0
  1
2
  0
DICTIONARY
  5
465
102
{ACAD_REACTORS
330
45B
102
}
330
45B
100
AcDbDictionary
281
     1
  0
DICTIONARY
  5
4B6
330
21
100
AcDbDictionary
280
     1
281
     1
  3
ACAD_XREC_ROUNDTRIP
360
4B7
  0
DICTIONARY
  5
4B4
330
20
100
AcDbDictionary
280
     1
281
     1
  3
ACAD_XREC_ROUNDTRIP
360
4B5
  0
DICTIONARY
  5
3C7
330
3C6
100
AcDbDictionary
280
     1
281
     1
  3
ACAD_XREC_ROUNDTRIP
360
4C3
  3
BUMPTILE
360
3C9
  3
DIFFUSETILE
360
3C8
  3
OPACITYTILE
360
3CC
  3
REFLECTIONTILE
360
3CB
  3
REFRACTIONTILE
360
3CD
  3
SPECULARTILE
360
3CA
  0
DICTIONARY
  5
3BF
330
3BE
100
AcDbDictionary
280
     1
281
     1
  3
ACAD_XREC_ROUNDTRIP
360
4C2
  3
BUMPTILE
360
3C1
  3
DIFFUSETILE
360
3C0
  3
OPACITYTILE
360
3C4
  3
REFLECTIONTILE
360
3C3
  3
REFRACTIONTILE
360
3C5
  3
SPECULARTILE
360
3C2
  0
DICTIONARY
  5
3CF
330
3CE
100
AcDbDictionary
280
     1
281
     1
  3
ACAD_XREC_ROUNDTRIP
360
4C4
  3
BUMPTILE
360
3D1
  3
DIFFUSETILE
360
3D0
  3
OPACITYTILE
360
3D4
  3
REFLECTIONTILE
360
3D3
  3
REFRACTIONTILE
360
3D5
  3
SPECULARTILE
360
3D2
  0
DICTIONARY
  5
4B0
330
3EC
100
AcDbDictionary
280
     1
281
     1
  3
ACAD_ROUNDTRIP_2008_TABLESTYLE_CELLSTYLEMAP
360
4B1
  3
ACAD_XREC_ROUNDTRIP
360
4EB
  0
DICTIONARY
  5
4CF
330
3DC
100
AcDbDictionary
280
     1
281
     1
  3
ACAD_XREC_ROUNDTRIP
360
4D0
  0
DICTIONARY
  5
4D3
330
3DE
100
AcDbDictionary
280
     1
281
     1
  3
ACAD_XREC_ROUNDTRIP
360
4D4
  0
DICTIONARY
  5
4D1
330
3DD
100
AcDbDictionary
280
     1
281
     1
  3
ACAD_XREC_ROUNDTRIP
360
4D2
  0
DICTIONARY
  5
4CD
330
3DB
100
AcDbDictionary
280
     1
281
     1
  3
ACAD_XREC_ROUNDTRIP
360
4CE
  0
DICTIONARY
  5
4DB
330
3E2
100
AcDbDictionary
280
     1
281
     1
  3
ACAD_XREC_ROUNDTRIP
360
4DC
  0
DICTIONARY
  5
4E3
330
3E6
100
AcDbDictionary
280
     1
281
     1
  3
ACAD_XREC_ROUNDTRIP
360
4E4
  0
DICTIONARY
  5
4D5
330
3DF
100
AcDbDictionary
280
     1
281
     1
  3
ACAD_XREC_ROUNDTRIP
360
4D6
  0
DICTIONARY
  5
4D9
330
3E1
100
AcDbDictionary
280
     1
281
     1
  3
ACAD_XREC_ROUNDTRIP
360
4DA
  0
DICTIONARY
  5
4E9
330
3E9
100
AcDbDictionary
280
     1
281
     1
  3
ACAD_XREC_ROUNDTRIP
360
4EA
  0
DICTIONARY
  5
4E1
330
3E5
100
AcDbDictionary
280
     1
281
     1
  3
ACAD_XREC_ROUNDTRIP
360
4E2
  0
DICTIONARY
  5
4C5
330
3D7
100
AcDbDictionary
280
     1
281
     1
  3
ACAD_XREC_ROUNDTRIP
360
4C6
  0
DICTIONARY
  5
4C7
330
3D8
100
AcDbDictionary
280
     1
281
     1
  3
ACAD_XREC_ROUNDTRIP
360
4C8
  0
DICTIONARY
  5
4C9
330
3D9
100
AcDbDictionary
280
     1
281
     1
  3
ACAD_XREC_ROUNDTRIP
360
4CA
  0
DICTIONARY
  5
4CB
330
3DA
100
AcDbDictionary
280
     1
281
     1
  3
ACAD_XREC_ROUNDTRIP
360
4CC
  0
DICTIONARY
  5
4E5
330
3E7
100
AcDbDictionary
280
     1
281
     1
  3
ACAD_XREC_ROUNDTRIP
360
4E6
  0
DICTIONARY
  5
4DF
330
3E4
100
AcDbDictionary
280
     1
281
     1
  3
ACAD_XREC_ROUNDTRIP
360
4E0
  0
DICTIONARY
  5
4E7
330
3E8
100
AcDbDictionary
280
     1
281
     1
  3
ACAD_XREC_ROUNDTRIP
360
4E8
  0
DICTIONARY
  5
4D7
330
3E0
100
AcDbDictionary
280
     1
281
     1
  3
ACAD_XREC_ROUNDTRIP
360
4D8
  0
DICTIONARY
  5
4DD
330
3E3
100
AcDbDictionary
280
     1
281
     1
  3
ACAD_XREC_ROUNDTRIP
360
4DE
  0
XRECORD
  5
4B7
102
{ACAD_REACTORS
330
4B6
102
}
330
4B6
100
AcDbXrecord
280
     1
102
SHADEPLOT
 70
     0
102
SHADEPLOTRESLEVEL
 70
     2
102
SHADEPLOTCUSTOMDPI
 70
   300
  0
XRECORD
  5
4B5
102
{ACAD_REACTORS
330
4B4
102
}
330
4B4
100
AcDbXrecord
280
     1
102
SHADEPLOT
 70
     0
102
SHADEPLOTRESLEVEL
 70
     2
102
SHADEPLOTCUSTOMDPI
 70
   300
  0
XRECORD
  5
4C3
102
{ACAD_REACTORS
330
3C7
102
}
330
3C7
100
AcDbXrecord
280
     1
102
MATERIAL
148
0.0
149
0.0
149
0.0
 93
        0
 94
      127
282
     0
 72
     0
 77
     0
171
     0
175
     0
179
     0
273
     0
  0
XRECORD
  5
3C9
102
{ACAD_REACTORS
330
3C7
102
}
330
3C7
100
AcDbXrecord
280
     1
270
     1
271
     1
  0
XRECORD
  5
3C8
102
{ACAD_REACTORS
330
3C7
102
}
330
3C7
100
AcDbXrecord
280
     1
270
     1
271
     1
  0
XRECORD
  5
3CC
102
{ACAD_REACTORS
330
3C7
102
}
330
3C7
100
AcDbXrecord
280
     1
270
     1
271
     1
  0
XRECORD
  5
3CB
102
{ACAD_REACTORS
330
3C7
102
}
330
3C7
100
AcDbXrecord
280
     1
270
     1
271
     1
  0
XRECORD
  5
3CD
102
{ACAD_REACTORS
330
3C7
102
}
330
3C7
100
AcDbXrecord
280
     1
270
     1
271
     1
  0
XRECORD
  5
3CA
102
{ACAD_REACTORS
330
3C7
102
}
330
3C7
100
AcDbXrecord
280
     1
270
     1
271
     1
  0
XRECORD
  5
4C2
102
{ACAD_REACTORS
330
3BF
102
}
330
3BF
100
AcDbXrecord
280
     1
102
MATERIAL
148
0.0
149
0.0
149
0.0
 93
        0
 94
      127
282
     0
 72
     0
 77
     0
171
     0
175
     0
179
     0
273
     0
  0
XRECORD
  5
3C1
102
{ACAD_REACTORS
330
3BF
102
}
330
3BF
100
AcDbXrecord
280
     1
270
     1
271
     1
  0
XRECORD
  5
3C0
102
{ACAD_REACTORS
330
3BF
102
}
330
3BF
100
AcDbXrecord
280
     1
270
     1
271
     1
  0
XRECORD
  5
3C4
102
{ACAD_REACTORS
330
3BF
102
}
330
3BF
100
AcDbXrecord
280
     1
270
     1
271
     1
  0
XRECORD
  5
3C3
102
{ACAD_REACTORS
330
3BF
102
}
330
3BF
100
AcDbXrecord
280
     1
270
     1
271
     1
  0
XRECORD
  5
3C5
102
{ACAD_REACTORS
330
3BF
102
}
330
3BF
100
AcDbXrecord
280
     1
270
     1
271
     1
  0
XRECORD
  5
3C2
102
{ACAD_REACTORS
330
3BF
102
}
330
3BF
100
AcDbXrecord
280
     1
270
     1
271
     1
  0
XRECORD
  5
4C4
102
{ACAD_REACTORS
330
3CF
102
}
330
3CF
100
AcDbXrecord
280
     1
102
MATERIAL
148
0.0
149
0.0
149
0.0
 93
        0
 94
      127
282
     0
 72
     0
 77
     0
171
     0
175
     0
179
     0
273
     0
  0
XRECORD
  5
3D1
102
{ACAD_REACTORS
330
3CF
102
}
330
3CF
100
AcDbXrecord
280
     1
270
     1
271
     1
  0
XRECORD
  5
3D0
102
{ACAD_REACTORS
330
3CF
102
}
330
3CF
100
AcDbXrecord
280
     1
270
     1
271
     1
  0
XRECORD
  5
3D4
102
{ACAD_REACTORS
330
3CF
102
}
330
3CF
100
AcDbXrecord
280
     1
270
     1
271
     1
  0
XRECORD
  5
3D3
102
{ACAD_REACTORS
330
3CF
102
}
330
3CF
100
AcDbXrecord
280
     1
270
     1
271
     1
  0
XRECORD
  5
3D5
102
{ACAD_REACTORS
330
3CF
102
}
330
3CF
100
AcDbXrecord
280
     1
270
     1
271
     1
  0
XRECORD
  5
3D2
102
{ACAD_REACTORS
330
3CF
102
}
330
3CF
100
AcDbXrecord
280
     1
270
     1
271
     1
  0
CELLSTYLEMAP
  5
4B1
102
{ACAD_REACTORS
330
4B0
102
}
330
4B0
100
AcDbCellStyleMap
 90
        3
300
CELLSTYLE
  1
TABLEFORMAT_BEGIN
 90
        5
170
     1
 91
        0
 92
    32768
 62
   257
 93
        1
300
CONTENTFORMAT
  1
CONTENTFORMAT_BEGIN
 90
        0
 91
        0
 92
      512
 93
        0
300

 40
0.0
140
1.0
 94
        5
 62
     0
340
17
144
6.0
309
CONTENTFORMAT_END
171
     1
301
MARGIN
  1
CELLMARGIN_BEGIN
 40
1.5
 40
1.5
 40
1.5
 40
1.5
 40
4.5
 40
4.5
309
CELLMARGIN_END
 94
        6
 95
        1
302
GRIDFORMAT
  1
GRIDFORMAT_BEGIN
 90
        0
 91
        1
 62
     0
 92
       -2
340
0
 93
        0
 40
1.125
309
GRIDFORMAT_END
 95
        2
302
GRIDFORMAT
  1
GRIDFORMAT_BEGIN
 90
        0
 91
        1
 62
     0
 92
       -2
340
0
 93
        0
 40
1.125
309
GRIDFORMAT_END
 95
        4
302
GRIDFORMAT
  1
GRIDFORMAT_BEGIN
 90
        0
 91
        1
 62
     0
 92
       -2
340
0
 93
        0
 40
1.125
309
GRIDFORMAT_END
 95
        8
302
GRIDFORMAT
  1
GRIDFORMAT_BEGIN
 90
        0
 91
        1
 62
     0
 92
       -2
340
0
 93
        0
 40
1.125
309
GRIDFORMAT_END
 95
       16
302
GRIDFORMAT
  1
GRIDFORMAT_BEGIN
 90
        0
 91
        1
 62
     0
 92
       -2
340
0
 93
        0
 40
1.125
309
GRIDFORMAT_END
 95
       32
302
GRIDFORMAT
  1
GRIDFORMAT_BEGIN
 90
        0
 91
        1
 62
     0
 92
       -2
340
0
 93
        0
 40
1.125
309
GRIDFORMAT_END
309
TABLEFORMAT_END
  1
CELLSTYLE_BEGIN
 90
        1
 91
        1
300
_TITLE
309
CELLSTYLE_END
300
CELLSTYLE
  1
TABLEFORMAT_BEGIN
 90
        5
170
     1
 91
        0
 92
        0
 62
   257
 93
        1
300
CONTENTFORMAT
  1
CONTENTFORMAT_BEGIN
 90
        0
 91
        0
 92
      512
 93
        0
300

 40
0.0
140
1.0
 94
        5
 62
     0
340
17
144
4.5
309
CONTENTFORMAT_END
171
     1
301
MARGIN
  1
CELLMARGIN_BEGIN
 40
1.5
 40
1.5
 40
1.5
 40
1.5
 40
4.5
 40
4.5
309
CELLMARGIN_END
 94
        6
 95
        1
302
GRIDFORMAT
  1
GRIDFORMAT_BEGIN
 90
        0
 91
        1
 62
     0
 92
       -2
340
0
 93
        0
 40
1.125
309
GRIDFORMAT_END
 95
        2
302
GRIDFORMAT
  1
GRIDFORMAT_BEGIN
 90
        0
 91
        1
 62
     0
 92
       -2
340
0
 93
        0
 40
1.125
309
GRIDFORMAT_END
 95
        4
302
GRIDFORMAT
  1
GRIDFORMAT_BEGIN
 90
        0
 91
        1
 62
     0
 92
       -2
340
0
 93
        0
 40
1.125
309
GRIDFORMAT_END
 95
        8
302
GRIDFORMAT
  1
GRIDFORMAT_BEGIN
 90
        0
 91
        1
 62
     0
 92
       -2
340
0
 93
        0
 40
1.125
309
GRIDFORMAT_END
 95
       16
302
GRIDFORMAT
  1
GRIDFORMAT_BEGIN
 90
        0
 91
        1
 62
     0
 92
       -2
340
0
 93
        0
 40
1.125
309
GRIDFORMAT_END
 95
       32
302
GRIDFORMAT
  1
GRIDFORMAT_BEGIN
 90
        0
 91
        1
 62
     0
 92
       -2
340
0
 93
        0
 40
1.125
309
GRIDFORMAT_END
309
TABLEFORMAT_END
  1
CELLSTYLE_BEGIN
 90
        2
 91
        1
300
_HEADER
309
CELLSTYLE_END
300
CELLSTYLE
  1
TABLEFORMAT_BEGIN
 90
        5
170
     1
 91
        0
 92
        0
 62
   257
 93
        1
300
CONTENTFORMAT
  1
CONTENTFORMAT_BEGIN
 90
        0
 91
        0
 92
      512
 93
        0
300

 40
0.0
140
1.0
 94
        2
 62
     0
340
17
144
4.5
309
CONTENTFORMAT_END
171
     1
301
MARGIN
  1
CELLMARGIN_BEGIN
 40
1.5
 40
1.5
 40
1.5
 40
1.5
 40
4.5
 40
4.5
309
CELLMARGIN_END
 94
        6
 95
        1
302
GRIDFORMAT
  1
GRIDFORMAT_BEGIN
 90
        0
 91
        1
 62
     0
 92
       -2
340
0
 93
        0
 40
1.125
309
GRIDFORMAT_END
 95
        2
302
GRIDFORMAT
  1
GRIDFORMAT_BEGIN
 90
        0
 91
        1
 62
     0
 92
       -2
340
0
 93
        0
 40
1.125
309
GRIDFORMAT_END
 95
        4
302
GRIDFORMAT
  1
GRIDFORMAT_BEGIN
 90
        0
 91
        1
 62
     0
 92
       -2
340
0
 93
        0
 40
1.125
309
GRIDFORMAT_END
 95
        8
302
GRIDFORMAT
  1
GRIDFORMAT_BEGIN
 90
        0
 91
        1
 62
     0
 92
       -2
340
0
 93
        0
 40
1.125
309
GRIDFORMAT_END
 95
       16
302
GRIDFORMAT
  1
GRIDFORMAT_BEGIN
 90
        0
 91
        1
 62
     0
 92
       -2
340
0
 93
        0
 40
1.125
309
GRIDFORMAT_END
 95
       32
302
GRIDFORMAT
  1
GRIDFORMAT_BEGIN
 90
        0
 91
        1
 62
     0
 92
       -2
340
0
 93
        0
 40
1.125
309
GRIDFORMAT_END
309
TABLEFORMAT_END
  1
CELLSTYLE_BEGIN
 90
        3
 91
        2
300
_DATA
309
CELLSTYLE_END
  0
XRECORD
  5
4EB
102
{ACAD_REACTORS
330
4B0
102
}
330
4B0
100
AcDbXrecord
280
     1
102
ACAD_ROUNDTRIP_PRE2007_TABLESTYLE
 90
      512
 91
        0
  1

 92
      512
 93
        0
  2

 94
      512
 95
        0
  3

  0
XRECORD
  5
4D0
102
{ACAD_REACTORS
330
4CF
102
}
330
4CF
100
AcDbXrecord
280
     1
102
RTVSPropertyOp0
 70
     1
102
RTVSPropertyOp1
 70
     1
102
RTVSPropertyOp2
 70
     1
102
RTVSPropertyOp3
 70
     1
102
RTVSPropertyOp4
 70
     1
102
RTVSPropertyOp5
 70
     1
102
RTVSPropertyOp6
 70
     1
102
RTVSPropertyOp7
 70
     1
102
RTVSPropertyOp8
 70
     1
102
RTVSPropertyOp9
 70
     1
102
RTVSPropertyOp10
 70
     1
102
RTVSPropertyOp11
 70
     1
102
RTVSPropertyOp12
 70
     1
102
RTVSPropertyOp13
 70
     1
102
RTVSPropertyOp14
 70
     1
102
RTVSPropertyOp15
 70
     1
102
RTVSPropertyOp16
 70
     1
102
RTVSPropertyOp17
 70
     1
102
RTVSPropertyOp18
 70
     1
102
RTVSPropertyOp19
 70
     1
102
RTVSPropertyOp20
 70
     1
102
RTVSPropertyOp21
 70
     1
102
RTVSPropertyOp22
 70
     1
102
RTVSPropertyOp23
 70
     1
102
RTVSPropertyOp24
 70
     1
102
RTVSPropertyOp25
 70
     1
102
RTVSPropertyOp26
 70
     1
102
RTVSPropertyOp27
 70
     1
  0
XRECORD
  5
4D4
102
{ACAD_REACTORS
330
4D3
102
}
330
4D3
100
AcDbXrecord
280
     1
102
RTVSPropertyOp0
 70
     1
102
RTVSPropertyOp1
 70
     1
102
RTVSPropertyOp2
 70
     1
102
RTVSPropertyOp3
 70
     1
102
RTVSPropertyOp4
 70
     1
102
RTVSPropertyOp5
 70
     1
102
RTVSPropertyOp6
 70
     1
102
RTVSPropertyOp7
 70
     1
102
RTVSPropertyOp8
 70
     1
102
RTVSPropertyOp9
 70
     1
102
RTVSPropertyOp10
 70
     1
102
RTVSPropertyOp11
 70
     1
102
RTVSPropertyOp12
 70
     1
102
RTVSPropertyOp13
 70
     1
102
RTVSPropertyOp14
 70
     1
102
RTVSPropertyOp15
 70
     1
102
RTVSPropertyOp16
 70
     1
102
RTVSPropertyOp17
 70
     1
102
RTVSPropertyOp18
 70
     1
102
RTVSPropertyOp19
 70
     1
102
RTVSPropertyOp20
 70
     1
102
RTVSPropertyOp21
 70
     1
102
RTVSPropertyOp22
 70
     1
102
RTVSPropertyOp23
 70
     1
102
RTVSPropertyOp24
 70
     1
102
RTVSPropertyOp25
 70
     1
102
RTVSPropertyOp26
 70
     1
102
RTVSPropertyOp27
 70
     1
  0
XRECORD
  5
4D2
102
{ACAD_REACTORS
330
4D1
102
}
330
4D1
100
AcDbXrecord
280
     1
102
RTVSPropertyOp0
 70
     1
102
RTVSPropertyOp1
 70
     1
102
RTVSPropertyOp2
 70
     1
102
RTVSPropertyOp3
 70
     1
102
RTVSPropertyOp4
 70
     1
102
RTVSPropertyOp5
 70
     1
102
RTVSPropertyOp6
 70
     1
102
RTVSPropertyOp7
 70
     1
102
RTVSPropertyOp8
 70
     1
102
RTVSPropertyOp9
 70
     1
102
RTVSPropertyOp10
 70
     1
102
RTVSPropertyOp11
 70
     1
102
RTVSPropertyOp12
 70
     1
102
RTVSPropertyOp13
 70
     1
102
RTVSPropertyOp14
 70
     1
102
RTVSPropertyOp15
 70
     1
102
RTVSPropertyOp16
 70
     1
102
RTVSPropertyOp17
 70
     1
102
RTVSPropertyOp18
 70
     1
102
RTVSPropertyOp19
 70
     1
102
RTVSPropertyOp20
 70
     1
102
RTVSPropertyOp21
 70
     1
102
RTVSPropertyOp22
 70
     1
102
RTVSPropertyOp23
 70
     1
102
RTVSPropertyOp24
 70
     1
102
RTVSPropertyOp25
 70
     1
102
RTVSPropertyOp26
 70
     1
102
RTVSPropertyOp27
 70
     1
  0
XRECORD
  5
4CE
102
{ACAD_REACTORS
330
4CD
102
}
330
4CD
100
AcDbXrecord
280
     1
102
RTVSPropertyOp0
 70
     1
102
RTVSPropertyOp1
 70
     1
102
RTVSPropertyOp2
 70
     1
102
RTVSPropertyOp3
 70
     1
102
RTVSPropertyOp4
 70
     1
102
RTVSPropertyOp5
 70
     1
102
RTVSPropertyOp6
 70
     1
102
RTVSPropertyOp7
 70
     1
102
RTVSPropertyOp8
 70
     1
102
RTVSPropertyOp9
 70
     1
102
RTVSPropertyOp10
 70
     1
102
RTVSPropertyOp11
 70
     1
102
RTVSPropertyOp12
 70
     1
102
RTVSPropertyOp13
 70
     1
102
RTVSPropertyOp14
 70
     1
102
RTVSPropertyOp15
 70
     1
102
RTVSPropertyOp16
 70
     1
102
RTVSPropertyOp17
 70
     1
102
RTVSPropertyOp18
 70
     1
102
RTVSPropertyOp19
 70
     1
102
RTVSPropertyOp20
 70
     1
102
RTVSPropertyOp21
 70
     1
102
RTVSPropertyOp22
 70
     1
102
RTVSPropertyOp23
 70
     1
102
RTVSPropertyOp24
 70
     1
102
RTVSPropertyOp25
 70
     1
102
RTVSPropertyOp26
 70
     1
102
RTVSPropertyOp27
 70
     1
  0
XRECORD
  5
4DC
102
{ACAD_REACTORS
330
4DB
102
}
330
4DB
100
AcDbXrecord
280
     1
102
RTVSPropertyOp0
 70
     1
102
RTVSPropertyOp1
 70
     1
102
RTVSPropertyOp2
 70
     1
102
RTVSPropertyOp3
 70
     1
102
RTVSPropertyOp4
 70
     1
102
RTVSPropertyOp5
 70
     1
102
RTVSPropertyOp6
 70
     1
102
RTVSPropertyOp7
 70
     1
102
RTVSPropertyOp8
 70
     1
102
RTVSPropertyOp9
 70
     1
102
RTVSPropertyOp10
 70
     1
102
RTVSPropertyOp11
 70
     1
102
RTVSPropertyOp12
 70
     1
102
RTVSPropertyOp13
 70
     1
102
RTVSPropertyOp14
 70
     1
102
RTVSPropertyOp15
 70
     1
102
RTVSPropertyOp16
 70
     1
102
RTVSPropertyOp17
 70
     1
102
RTVSPropertyOp18
 70
     1
102
RTVSPropertyOp19
 70
     1
102
RTVSPropertyOp20
 70
     1
102
RTVSPropertyOp21
 70
     1
102
RTVSPropertyOp22
 70
     1
102
RTVSPropertyOp23
 70
     1
102
RTVSPropertyOp24
 70
     1
102
RTVSPropertyOp25
 70
     1
102
RTVSPropertyOp26
 70
     1
102
RTVSPropertyOp27
 70
     1
  0
XRECORD
  5
4E4
102
{ACAD_REACTORS
330
4E3
102
}
330
4E3
100
AcDbXrecord
280
     1
102
RTVSPropertyOp0
 70
     1
102
RTVSPropertyOp1
 70
     1
102
RTVSPropertyOp2
 70
     1
102
RTVSPropertyOp3
 70
     1
102
RTVSPropertyOp4
 70
     1
102
RTVSPropertyOp5
 70
     1
102
RTVSPropertyOp6
 70
     1
102
RTVSPropertyOp7
 70
     1
102
RTVSPropertyOp8
 70
     1
102
RTVSPropertyOp9
 70
     1
102
RTVSPropertyOp10
 70
     1
102
RTVSPropertyOp11
 70
     1
102
RTVSPropertyOp12
 70
     1
102
RTVSPropertyOp13
 70
     1
102
RTVSPropertyOp14
 70
     1
102
RTVSPropertyOp15
 70
     1
102
RTVSPropertyOp16
 70
     1
102
RTVSPropertyOp17
 70
     1
102
RTVSPropertyOp18
 70
     1
102
RTVSPropertyOp19
 70
     1
102
RTVSPropertyOp20
 70
     1
102
RTVSPropertyOp21
 70
     1
102
RTVSPropertyOp22
 70
     1
102
RTVSPropertyOp23
 70
     1
102
RTVSPropertyOp24
 70
     1
102
RTVSPropertyOp25
 70
     1
102
RTVSPropertyOp26
 70
     1
102
RTVSPropertyOp27
 70
     1
  0
XRECORD
  5
4D6
102
{ACAD_REACTORS
330
4D5
102
}
330
4D5
100
AcDbXrecord
280
     1
102
RTVSPropertyOp0
 70
     1
102
RTVSPropertyOp1
 70
     1
102
RTVSPropertyOp2
 70
     1
102
RTVSPropertyOp3
 70
     1
102
RTVSPropertyOp4
 70
     1
102
RTVSPropertyOp5
 70
     1
102
RTVSPropertyOp6
 70
     1
102
RTVSPropertyOp7
 70
     1
102
RTVSPropertyOp8
 70
     1
102
RTVSPropertyOp9
 70
     1
102
RTVSPropertyOp10
 70
     1
102
RTVSPropertyOp11
 70
     1
102
RTVSPropertyOp12
 70
     1
102
RTVSPropertyOp13
 70
     1
102
RTVSPropertyOp14
 70
     1
102
RTVSPropertyOp15
 70
     1
102
RTVSPropertyOp16
 70
     1
102
RTVSPropertyOp17
 70
     1
102
RTVSPropertyOp18
 70
     1
102
RTVSPropertyOp19
 70
     1
102
RTVSPropertyOp20
 70
     1
102
RTVSPropertyOp21
 70
     1
102
RTVSPropertyOp22
 70
     1
102
RTVSPropertyOp23
 70
     1
102
RTVSPropertyOp24
 70
     1
102
RTVSPropertyOp25
 70
     1
102
RTVSPropertyOp26
 70
     1
102
RTVSPropertyOp27
 70
     1
  0
XRECORD
  5
4DA
102
{ACAD_REACTORS
330
4D9
102
}
330
4D9
100
AcDbXrecord
280
     1
102
RTVSPropertyOp0
 70
     1
102
RTVSPropertyOp1
 70
     1
102
RTVSPropertyOp2
 70
     1
102
RTVSPropertyOp3
 70
     1
102
RTVSPropertyOp4
 70
     1
102
RTVSPropertyOp5
 70
     1
102
RTVSPropertyOp6
 70
     1
102
RTVSPropertyOp7
 70
     1
102
RTVSPropertyOp8
 70
     1
102
RTVSPropertyOp9
 70
     1
102
RTVSPropertyOp10
 70
     1
102
RTVSPropertyOp11
 70
     1
102
RTVSPropertyOp12
 70
     1
102
RTVSPropertyOp13
 70
     1
102
RTVSPropertyOp14
 70
     1
102
RTVSPropertyOp15
 70
     1
102
RTVSPropertyOp16
 70
     1
102
RTVSPropertyOp17
 70
     1
102
RTVSPropertyOp18
 70
     1
102
RTVSPropertyOp19
 70
     1
102
RTVSPropertyOp20
 70
     1
102
RTVSPropertyOp21
 70
     1
102
RTVSPropertyOp22
 70
     1
102
RTVSPropertyOp23
 70
     1
102
RTVSPropertyOp24
 70
     1
102
RTVSPropertyOp25
 70
     1
102
RTVSPropertyOp26
 70
     1
102
RTVSPropertyOp27
 70
     1
  0
XRECORD
  5
4EA
102
{ACAD_REACTORS
330
4E9
102
}
330
4E9
100
AcDbXrecord
280
     1
102
RTVSPropertyOp0
 70
     0
102
RTVSPropertyOp1
 70
     0
102
RTVSPropertyOp2
 70
     0
102
RTVSPropertyOp3
 70
     0
102
RTVSPropertyOp4
 70
     0
102
RTVSPropertyOp5
 70
     0
102
RTVSPropertyOp6
 70
     0
102
RTVSPropertyOp7
 70
     0
102
RTVSPropertyOp8
 70
     0
102
RTVSPropertyOp9
 70
     0
102
RTVSPropertyOp10
 70
     0
102
RTVSPropertyOp11
 70
     0
102
RTVSPropertyOp12
 70
     0
102
RTVSPropertyOp13
 70
     0
102
RTVSPropertyOp14
 70
     2
102
RTVSPropertyOp15
 70
     0
102
RTVSPropertyOp16
 70
     0
102
RTVSPropertyOp17
 70
     0
102
RTVSPropertyOp18
 70
     0
102
RTVSPropertyOp19
 70
     0
102
RTVSPropertyOp20
 70
     0
102
RTVSPropertyOp21
 70
     0
102
RTVSPropertyOp22
 70
     0
102
RTVSPropertyOp23
 70
     0
102
RTVSPropertyOp24
 70
     0
102
RTVSPropertyOp25
 70
     0
102
RTVSPropertyOp26
 70
     0
102
RTVSPropertyOp27
 70
     0
  0
XRECORD
  5
4E2
102
{ACAD_REACTORS
330
4E1
102
}
330
4E1
100
AcDbXrecord
280
     1
102
RTVSPropertyOp0
 70
     1
102
RTVSPropertyOp1
 70
     1
102
RTVSPropertyOp2
 70
     1
102
RTVSPropertyOp3
 70
     1
102
RTVSPropertyOp4
 70
     1
102
RTVSPropertyOp5
 70
     1
102
RTVSPropertyOp6
 70
     1
102
RTVSPropertyOp7
 70
     1
102
RTVSPropertyOp8
 70
     1
102
RTVSPropertyOp9
 70
     1
102
RTVSPropertyOp10
 70
     1
102
RTVSPropertyOp11
 70
     1
102
RTVSPropertyOp12
 70
     1
102
RTVSPropertyOp13
 70
     1
102
RTVSPropertyOp14
 70
     1
102
RTVSPropertyOp15
 70
     1
102
RTVSPropertyOp16
 70
     1
102
RTVSPropertyOp17
 70
     1
102
RTVSPropertyOp18
 70
     1
102
RTVSPropertyOp19
 70
     1
102
RTVSPropertyOp20
 70
     1
102
RTVSPropertyOp21
 70
     1
102
RTVSPropertyOp22
 70
     1
102
RTVSPropertyOp23
 70
     1
102
RTVSPropertyOp24
 70
     1
102
RTVSPropertyOp25
 70
     1
102
RTVSPropertyOp26
 70
     1
102
RTVSPropertyOp27
 70
     1
  0
XRECORD
  5
4C6
102
{ACAD_REACTORS
330
4C5
102
}
330
4C5
100
AcDbXrecord
280
     1
102
RTVSPropertyOp0
 70
     1
102
RTVSPropertyOp1
 70
     1
102
RTVSPropertyOp2
 70
     1
102
RTVSPropertyOp3
 70
     1
102
RTVSPropertyOp4
 70
     1
102
RTVSPropertyOp5
 70
     1
102
RTVSPropertyOp6
 70
     1
102
RTVSPropertyOp7
 70
     1
102
RTVSPropertyOp8
 70
     1
102
RTVSPropertyOp9
 70
     1
102
RTVSPropertyOp10
 70
     1
102
RTVSPropertyOp11
 70
     1
102
RTVSPropertyOp12
 70
     1
102
RTVSPropertyOp13
 70
     1
102
RTVSPropertyOp14
 70
     1
102
RTVSPropertyOp15
 70
     1
102
RTVSPropertyOp16
 70
     1
102
RTVSPropertyOp17
 70
     1
102
RTVSPropertyOp18
 70
     1
102
RTVSPropertyOp19
 70
     1
102
RTVSPropertyOp20
 70
     1
102
RTVSPropertyOp21
 70
     1
102
RTVSPropertyOp22
 70
     1
102
RTVSPropertyOp23
 70
     1
102
RTVSPropertyOp24
 70
     1
102
RTVSPropertyOp25
 70
     1
102
RTVSPropertyOp26
 70
     1
102
RTVSPropertyOp27
 70
     1
  0
XRECORD
  5
4C8
102
{ACAD_REACTORS
330
4C7
102
}
330
4C7
100
AcDbXrecord
280
     1
102
RTVSPropertyOp0
 70
     1
102
RTVSPropertyOp1
 70
     1
102
RTVSPropertyOp2
 70
     1
102
RTVSPropertyOp3
 70
     1
102
RTVSPropertyOp4
 70
     1
102
RTVSPropertyOp5
 70
     1
102
RTVSPropertyOp6
 70
     1
102
RTVSPropertyOp7
 70
     1
102
RTVSPropertyOp8
 70
     1
102
RTVSPropertyOp9
 70
     1
102
RTVSPropertyOp10
 70
     1
102
RTVSPropertyOp11
 70
     1
102
RTVSPropertyOp12
 70
     1
102
RTVSPropertyOp13
 70
     1
102
RTVSPropertyOp14
 70
     1
102
RTVSPropertyOp15
 70
     1
102
RTVSPropertyOp16
 70
     1
102
RTVSPropertyOp17
 70
     1
102
RTVSPropertyOp18
 70
     1
102
RTVSPropertyOp19
 70
     1
102
RTVSPropertyOp20
 70
     1
102
RTVSPropertyOp21
 70
     1
102
RTVSPropertyOp22
 70
     1
102
RTVSPropertyOp23
 70
     1
102
RTVSPropertyOp24
 70
     1
102
RTVSPropertyOp25
 70
     1
102
RTVSPropertyOp26
 70
     1
102
RTVSPropertyOp27
 70
     1
  0
XRECORD
  5
4CA
102
{ACAD_REACTORS
330
4C9
102
}
330
4C9
100
AcDbXrecord
280
     1
102
RTVSPropertyOp0
 70
     1
102
RTVSPropertyOp1
 70
     1
102
RTVSPropertyOp2
 70
     1
102
RTVSPropertyOp3
 70
     1
102
RTVSPropertyOp4
 70
     1
102
RTVSPropertyOp5
 70
     1
102
RTVSPropertyOp6
 70
     1
102
RTVSPropertyOp7
 70
     1
102
RTVSPropertyOp8
 70
     1
102
RTVSPropertyOp9
 70
     1
102
RTVSPropertyOp10
 70
     1
102
RTVSPropertyOp11
 70
     1
102
RTVSPropertyOp12
 70
     1
102
RTVSPropertyOp13
 70
     1
102
RTVSPropertyOp14
 70
     1
102
RTVSPropertyOp15
 70
     1
102
RTVSPropertyOp16
 70
     1
102
RTVSPropertyOp17
 70
     1
102
RTVSPropertyOp18
 70
     1
102
RTVSPropertyOp19
 70
     1
102
RTVSPropertyOp20
 70
     1
102
RTVSPropertyOp21
 70
     1
102
RTVSPropertyOp22
 70
     1
102
RTVSPropertyOp23
 70
     1
102
RTVSPropertyOp24
 70
     1
102
RTVSPropertyOp25
 70
     1
102
RTVSPropertyOp26
 70
     1
102
RTVSPropertyOp27
 70
     1
  0
XRECORD
  5
4CC
102
{ACAD_REACTORS
330
4CB
102
}
330
4CB
100
AcDbXrecord
280
     1
102
RTVSPropertyOp0
 70
     1
102
RTVSPropertyOp1
 70
     1
102
RTVSPropertyOp2
 70
     1
102
RTVSPropertyOp3
 70
     1
102
RTVSPropertyOp4
 70
     1
102
RTVSPropertyOp5
 70
     1
102
RTVSPropertyOp6
 70
     1
102
RTVSPropertyOp7
 70
     1
102
RTVSPropertyOp8
 70
     1
102
RTVSPropertyOp9
 70
     1
102
RTVSPropertyOp10
 70
     1
102
RTVSPropertyOp11
 70
     1
102
RTVSPropertyOp12
 70
     1
102
RTVSPropertyOp13
 70
     1
102
RTVSPropertyOp14
 70
     1
102
RTVSPropertyOp15
 70
     1
102
RTVSPropertyOp16
 70
     1
102
RTVSPropertyOp17
 70
     1
102
RTVSPropertyOp18
 70
     1
102
RTVSPropertyOp19
 70
     1
102
RTVSPropertyOp20
 70
     1
102
RTVSPropertyOp21
 70
     1
102
RTVSPropertyOp22
 70
     1
102
RTVSPropertyOp23
 70
     1
102
RTVSPropertyOp24
 70
     1
102
RTVSPropertyOp25
 70
     1
102
RTVSPropertyOp26
 70
     1
102
RTVSPropertyOp27
 70
     1
  0
XRECORD
  5
4E6
102
{ACAD_REACTORS
330
4E5
102
}
330
4E5
100
AcDbXrecord
280
     1
102
RTVSPropertyOp0
 70
     0
102
RTVSPropertyOp1
 70
     0
102
RTVSPropertyOp2
 70
     0
102
RTVSPropertyOp3
 70
     0
102
RTVSPropertyOp4
 70
     0
102
RTVSPropertyOp5
 70
     0
102
RTVSPropertyOp6
 70
     0
102
RTVSPropertyOp7
 70
     0
102
RTVSPropertyOp8
 70
     0
102
RTVSPropertyOp9
 70
     0
102
RTVSPropertyOp10
 70
     0
102
RTVSPropertyOp11
 70
     0
102
RTVSPropertyOp12
 70
     0
102
RTVSPropertyOp13
 70
     0
102
RTVSPropertyOp14
 70
     2
102
RTVSPropertyOp15
 70
     0
102
RTVSPropertyOp16
 70
     0
102
RTVSPropertyOp17
 70
     0
102
RTVSPropertyOp18
 70
     0
102
RTVSPropertyOp19
 70
     0
102
RTVSPropertyOp20
 70
     0
102
RTVSPropertyOp21
 70
     0
102
RTVSPropertyOp22
 70
     0
102
RTVSPropertyOp23
 70
     0
102
RTVSPropertyOp24
 70
     0
102
RTVSPropertyOp25
 70
     0
102
RTVSPropertyOp26
 70
     0
102
RTVSPropertyOp27
 70
     0
  0
XRECORD
  5
4E0
102
{ACAD_REACTORS
330
4DF
102
}
330
4DF
100
AcDbXrecord
280
     1
102
RTVSPropertyOp0
 70
     1
102
RTVSPropertyOp1
 70
     1
102
RTVSPropertyOp2
 70
     1
102
RTVSPropertyOp3
 70
     1
102
RTVSPropertyOp4
 70
     1
102
RTVSPropertyOp5
 70
     1
102
RTVSPropertyOp6
 70
     1
102
RTVSPropertyOp7
 70
     1
102
RTVSPropertyOp8
 70
     1
102
RTVSPropertyOp9
 70
     1
102
RTVSPropertyOp10
 70
     1
102
RTVSPropertyOp11
 70
     1
102
RTVSPropertyOp12
 70
     1
102
RTVSPropertyOp13
 70
     1
102
RTVSPropertyOp14
 70
     1
102
RTVSPropertyOp15
 70
     1
102
RTVSPropertyOp16
 70
     1
102
RTVSPropertyOp17
 70
     1
102
RTVSPropertyOp18
 70
     1
102
RTVSPropertyOp19
 70
     1
102
RTVSPropertyOp20
 70
     1
102
RTVSPropertyOp21
 70
     1
102
RTVSPropertyOp22
 70
     1
102
RTVSPropertyOp23
 70
     1
102
RTVSPropertyOp24
 70
     1
102
RTVSPropertyOp25
 70
     1
102
RTVSPropertyOp26
 70
     1
102
RTVSPropertyOp27
 70
     1
  0
XRECORD
  5
4E8
102
{ACAD_REACTORS
330
4E7
102
}
330
4E7
100
AcDbXrecord
280
     1
102
RTVSPropertyOp0
 70
     0
102
RTVSPropertyOp1
 70
     0
102
RTVSPropertyOp2
 70
     0
102
RTVSPropertyOp3
 70
     0
102
RTVSPropertyOp4
 70
     0
102
RTVSPropertyOp5
 70
     0
102
RTVSPropertyOp6
 70
     0
102
RTVSPropertyOp7
 70
     0
102
RTVSPropertyOp8
 70
     0
102
RTVSPropertyOp9
 70
     0
102
RTVSPropertyOp10
 70
     0
102
RTVSPropertyOp11
 70
     0
102
RTVSPropertyOp12
 70
     0
102
RTVSPropertyOp13
 70
     0
102
RTVSPropertyOp14
 70
     2
102
RTVSPropertyOp15
 70
     0
102
RTVSPropertyOp16
 70
     0
102
RTVSPropertyOp17
 70
     0
102
RTVSPropertyOp18
 70
     0
102
RTVSPropertyOp19
 70
     0
102
RTVSPropertyOp20
 70
     0
102
RTVSPropertyOp21
 70
     0
102
RTVSPropertyOp22
 70
     0
102
RTVSPropertyOp23
 70
     0
102
RTVSPropertyOp24
 70
     0
102
RTVSPropertyOp25
 70
     0
102
RTVSPropertyOp26
 70
     0
102
RTVSPropertyOp27
 70
     0
  0
XRECORD
  5
4D8
102
{ACAD_REACTORS
330
4D7
102
}
330
4D7
100
AcDbXrecord
280
     1
102
RTVSPropertyOp0
 70
     1
102
RTVSPropertyOp1
 70
     1
102
RTVSPropertyOp2
 70
     1
102
RTVSPropertyOp3
 70
     1
102
RTVSPropertyOp4
 70
     1
102
RTVSPropertyOp5
 70
     1
102
RTVSPropertyOp6
 70
     1
102
RTVSPropertyOp7
 70
     1
102
RTVSPropertyOp8
 70
     1
102
RTVSPropertyOp9
 70
     1
102
RTVSPropertyOp10
 70
     1
102
RTVSPropertyOp11
 70
     1
102
RTVSPropertyOp12
 70
     1
102
RTVSPropertyOp13
 70
     1
102
RTVSPropertyOp14
 70
     1
102
RTVSPropertyOp15
 70
     1
102
RTVSPropertyOp16
 70
     1
102
RTVSPropertyOp17
 70
     1
102
RTVSPropertyOp18
 70
     1
102
RTVSPropertyOp19
 70
     1
102
RTVSPropertyOp20
 70
     1
102
RTVSPropertyOp21
 70
     1
102
RTVSPropertyOp22
 70
     1
102
RTVSPropertyOp23
 70
     1
102
RTVSPropertyOp24
 70
     1
102
RTVSPropertyOp25
 70
     1
102
RTVSPropertyOp26
 70
     1
102
RTVSPropertyOp27
 70
     1
  0
XRECORD
  5
4DE
102
{ACAD_REACTORS
330
4DD
102
}
330
4DD
100
AcDbXrecord
280
     1
102
RTVSPropertyOp0
 70
     1
102
RTVSPropertyOp1
 70
     1
102
RTVSPropertyOp2
 70
     1
102
RTVSPropertyOp3
 70
     1
102
RTVSPropertyOp4
 70
     1
102
RTVSPropertyOp5
 70
     1
102
RTVSPropertyOp6
 70
     1
102
RTVSPropertyOp7
 70
     1
102
RTVSPropertyOp8
 70
     1
102
RTVSPropertyOp9
 70
     1
102
RTVSPropertyOp10
 70
     1
102
RTVSPropertyOp11
 70
     1
102
RTVSPropertyOp12
 70
     1
102
RTVSPropertyOp13
 70
     1
102
RTVSPropertyOp14
 70
     1
102
RTVSPropertyOp15
 70
     1
102
RTVSPropertyOp16
 70
     1
102
RTVSPropertyOp17
 70
     1
102
RTVSPropertyOp18
 70
     1
102
RTVSPropertyOp19
 70
     1
102
RTVSPropertyOp20
 70
     1
102
RTVSPropertyOp21
 70
     1
102
RTVSPropertyOp22
 70
     1
102
RTVSPropertyOp23
 70
     1
102
RTVSPropertyOp24
 70
     1
102
RTVSPropertyOp25
 70
     1
102
RTVSPropertyOp26
 70
     1
102
RTVSPropertyOp27
 70
     1
  0
ENDSEC
  0
EOF
