  0
SECTION
  2
HEADER
  9
$ACADVER
  1
AC1015
  9
$ACADMAINTVER
 70
    20
  9
$DWGCODEPAGE
  3
ANSI_932
  9
$INSBASE
 10
0.0
 20
0.0
 30
0.0
  9
$EXTMIN
 10
-2174.999967589975
 20
-1484.999977871776
 30
0.0
  9
$EXTMAX
 10
2024.999969825149
 20
1484.999977871776
 30
0.0
  9
$LIMMIN
 10
-2174.999967589975
 20
-1484.999977871776
  9
$LIMMAX
 10
2024.999969825149
 20
1484.999977871776
  9
$ORTHOMODE
 70
     0
  9
$REGENMODE
 70
     1
  9
$FILLMODE
 70
     1
  9
$QTEXTMODE
 70
     0
  9
$MIRRTEXT
 70
     1
  9
$LTSCALE
 40
1.0
  9
$ATTMODE
 70
     1
  9
$TEXTSIZE
 40
41.66999754801396
  9
$TRACEWID
 40
0.05
  9
$TEXTSTYLE
  7
MX_NOTE_STANDARD
  9
$CLAYER
  8
DEFPOINTS
  9
$CELTYPE
  6
CONTINUOUS
  9
$CECOLOR
 62
   256
  9
$CELTSCALE
 40
1.0
  9
$DISPSILH
 70
     0
  9
$DIMSCALE
 40
9.999999850988389
  9
$DIMASZ
 40
2.5
  9
$DIMEXO
 40
1.269999980926513
  9
$DIMDLI
 40
3.75
  9
$DIMRND
 40
0.0
  9
$DIMDLE
 40
0.0
  9
$DIMEXE
 40
1.200000047683715
  9
$DIMTP
 40
0.0
  9
$DIMTM
 40
0.0
  9
$DIMTXT
 40
4.166999816894531
  9
$DIMCEN
 40
2.5
  9
$DIMTSZ
 40
0.0
  9
$DIMTOL
 70
     0
  9
$DIMLIM
 70
     0
  9
$DIMTIH
 70
     0
  9
$DIMTOH
 70
     0
  9
$DIMSE1
 70
     0
  9
$DIMSE2
 70
     0
  9
$DIMTAD
 70
     1
  9
$DIMZIN
 70
     8
  9
$DIMBLK
  1

  9
$DIMASO
 70
     1
  9
$DIMSHO
 70
     1
  9
$DIMPOST
  1

  9
$DIMAPOST
  1

  9
$DIMALT
 70
     0
  9
$DIMALTD
 70
     4
  9
$DIMALTF
 40
0.03937007874016
  9
$DIMLFAC
 40
1.0
  9
$DIMTOFL
 70
     1
  9
$DIMTVP
 40
0.0
  9
$DIMTIX
 70
     0
  9
$DIMSOXD
 70
     0
  9
$DIMSAH
 70
     0
  9
$DIMBLK1
  1

  9
$DIMBLK2
  1

  9
$DIMSTYLE
  2
MXDIMSTYLE
  9
$DIMCLRD
 70
     0
  9
$DIMCLRE
 70
     0
  9
$DIMCLRT
 70
     0
  9
$DIMTFAC
 40
1.0
  9
$DIMGAP
 40
1.0
  9
$DIMJUST
 70
     0
  9
$DIMSD1
 70
     0
  9
$DIMSD2
 70
     0
  9
$DIMTOLJ
 70
     1
  9
$DIMTZIN
 70
     0
  9
$DIMALTZ
 70
     0
  9
$DIMALTTZ
 70
     0
  9
$DIMUPT
 70
     1
  9
$DIMDEC
 70
     4
  9
$DIMTDEC
 70
     4
  9
$DIMALTU
 70
     2
  9
$DIMALTTD
 70
     4
  9
$DIMTXSTY
  7
MX_NOTE_STANDARD
  9
$DIMAUNIT
 70
     0
  9
$DIMADEC
 70
     0
  9
$DIMALTRND
 40
0.0
  9
$DIMAZIN
 70
     0
  9
$DIMDSEP
 70
     0
  9
$DIMATFIT
 70
     3
  9
$DIMFRAC
 70
     0
  9
$DIMLDRBLK
  1

  9
$DIMLUNIT
 70
     2
  9
$DIMLWD
 70
     0
  9
$DIMLWE
 70
     0
  9
$DIMTMOVE
 70
     0
  9
$LUNITS
 70
     2
  9
$LUPREC
 70
     4
  9
$SKETCHINC
 40
0.1
  9
$FILLETRAD
 40
0.0
  9
$AUNITS
 70
     0
  9
$AUPREC
 70
     0
  9
$MENU
  1
acad
  9
$ELEVATION
 40
0.0
  9
$PELEVATION
 40
0.0
  9
$THICKNESS
 40
0.0
  9
$LIMCHECK
 70
     0
  9
$CHAMFERA
 40
0.0
  9
$CHAMFERB
 40
0.0
  9
$CHAMFERC
 40
0.0
  9
$CHAMFERD
 40
0.0
  9
$SKPOLY
 70
     0
  9
$TDCREATE
 40
2455378.027349537
  9
$TDUCREATE
 40
2455377.652349537
  9
$TDUPDATE
 40
2457884.792089386
  9
$TDUUPDATE
 40
2457884.417089386
  9
$TDINDWG
 40
0.0075247454
  9
$TDUSRTIMER
 40
0.0075247454
  9
$USRTIMER
 70
     1
  9
$ANGBASE
 50
0.0
  9
$ANGDIR
 70
     0
  9
$PDMODE
 70
     0
  9
$PDSIZE
 40
0.0
  9
$PLINEWID
 40
0.0
  9
$SPLFRAME
 70
     0
  9
$SPLINETYPE
 70
     6
  9
$SPLINESEGS
 70
     8
  9
$HANDSEED
  5
58C
  9
$SURFTAB1
 70
     6
  9
$SURFTAB2
 70
     6
  9
$SURFTYPE
 70
     6
  9
$SURFU
 70
     6
  9
$SURFV
 70
     6
  9
$UCSBASE
  2

  9
$UCSNAME
  2

  9
$UCSORG
 10
0.0
 20
0.0
 30
0.0
  9
$UCSXDIR
 10
1.0
 20
0.0
 30
0.0
  9
$UCSYDIR
 10
0.0
 20
1.0
 30
0.0
  9
$UCSORTHOREF
  2

  9
$UCSORTHOVIEW
 70
     0
  9
$UCSORGTOP
 10
0.0
 20
0.0
 30
0.0
  9
$UCSORGBOTTOM
 10
0.0
 20
0.0
 30
0.0
  9
$UCSORGLEFT
 10
0.0
 20
0.0
 30
0.0
  9
$UCSORGRIGHT
 10
0.0
 20
0.0
 30
0.0
  9
$UCSORGFRONT
 10
0.0
 20
0.0
 30
0.0
  9
$UCSORGBACK
 10
0.0
 20
0.0
 30
0.0
  9
$PUCSBASE
  2

  9
$PUCSNAME
  2

  9
$PUCSORG
 10
0.0
 20
0.0
 30
0.0
  9
$PUCSXDIR
 10
1.0
 20
0.0
 30
0.0
  9
$PUCSYDIR
 10
0.0
 20
1.0
 30
0.0
  9
$PUCSORTHOREF
  2

  9
$PUCSORTHOVIEW
 70
     0
  9
$PUCSORGTOP
 10
0.0
 20
0.0
 30
0.0
  9
$PUCSORGBOTTOM
 10
0.0
 20
0.0
 30
0.0
  9
$PUCSORGLEFT
 10
0.0
 20
0.0
 30
0.0
  9
$PUCSORGRIGHT
 10
0.0
 20
0.0
 30
0.0
  9
$PUCSORGFRONT
 10
0.0
 20
0.0
 30
0.0
  9
$PUCSORGBACK
 10
0.0
 20
0.0
 30
0.0
  9
$USERI1
 70
     0
  9
$USERI2
 70
     0
  9
$USERI3
 70
     0
  9
$USERI4
 70
     0
  9
$USERI5
 70
     0
  9
$USERR1
 40
0.0
  9
$USERR2
 40
0.0
  9
$USERR3
 40
0.0
  9
$USERR4
 40
0.0
  9
$USERR5
 40
0.0
  9
$WORLDVIEW
 70
     1
  9
$SHADEDGE
 70
     3
  9
$SHADEDIF
 70
    70
  9
$TILEMODE
 70
     1
  9
$MAXACTVP
 70
    16
  9
$PINSBASE
 10
0.0
 20
0.0
 30
0.0
  9
$PLIMCHECK
 70
     0
  9
$PEXTMIN
 10
1.000000000000000E+20
 20
1.000000000000000E+20
 30
1.000000000000000E+20
  9
$PEXTMAX
 10
-1.000000000000000E+20
 20
-1.000000000000000E+20
 30
-1.000000000000000E+20
  9
$PLIMMIN
 10
0.0
 20
0.0
  9
$PLIMMAX
 10
12.0
 20
9.0
  9
$UNITMODE
 70
     0
  9
$VISRETAIN
 70
     0
  9
$PLINEGEN
 70
     1
  9
$PSLTSCALE
 70
     0
  9
$TREEDEPTH
 70
  3020
  9
$CMLSTYLE
  2
Standard
  9
$CMLJUST
 70
     0
  9
$CMLSCALE
 40
1.0
  9
$PROXYGRAPHICS
 70
     1
  9
$MEASUREMENT
 70
     1
  9
$CELWEIGHT
370
     0
  9
$ENDCAPS
280
     0
  9
$JOINSTYLE
280
     0
  9
$LWDISPLAY
290
     0
  9
$INSUNITS
 70
     0
  9
$HYPERLINKBASE
  1

  9
$STYLESHEET
  1

  9
$XEDIT
290
     1
  9
$CEPSNTYPE
380
     0
  9
$PSTYLEMODE
290
     1
  9
$FINGERPRINTGUID
  2

  9
$VERSIONGUID
  2
{DB085E75-753C-4314-BE3D-B4939B662DE9}
  9
$EXTNAMES
290
     1
  9
$PSVPSCALE
 40
0.0
  9
$OLESTARTUP
290
     0
  0
ENDSEC
  0
SECTION
  2
CLASSES
  0
CLASS
  1
IMAGE
  2
AcDbRasterImage
  3
ISM
 90
    32895
280
     0
281
     1
  0
CLASS
  1
DICTIONARYVAR
  2
AcDbDictionaryVar
  3
ObjectDBX Classes
 90
        0
280
     0
281
     0
  0
CLASS
  1
RASTERVARIABLES
  2
AcDbRasterVariables
  3
ISM
 90
    32768
280
     0
281
     0
  0
CLASS
  1
IMAGEDEF
  2
AcDbRasterImageDef
  3
ISM
 90
    32768
280
     0
281
     0
  0
CLASS
  1
IMAGEDEF_REACTOR
  2
AcDbRasterImageDefReactor
  3
ISM
 90
    32769
280
     0
281
     0
  0
CLASS
  1
IDBUFFER
  2
AcDbIdBuffer
  3
ObjectDBX Classes
 90
    32768
280
     0
281
     0
  0
CLASS
  1
SPATIAL_FILTER
  2
AcDbSpatialFilter
  3
ObjectDBX Classes
 90
    32768
280
     0
281
     0
  0
CLASS
  1
SORTENTSTABLE
  2
AcDbSortentsTable
  3
ObjectDBX Classes
 90
    32768
280
     0
281
     0
  0
CLASS
  1
LAYER_INDEX
  2
AcDbLayerIndex
  3
ObjectDBX Classes
 90
    32768
280
     0
281
     0
  0
CLASS
  1
SPATIAL_INDEX
  2
AcDbSpatialIndex
  3
ObjectDBX Classes
 90
    32768
280
     0
281
     0
  0
CLASS
  1
OBJECT_PTR
  2
CAseDLPNTableRecord
  3
"ASE-LPNTableRecord"
 90
    32769
280
     0
281
     0
  0
CLASS
  1
LAYOUT
  2
AcDbLayout
  3
ObjectDBX Classes
 90
        0
280
     0
281
     0
  0
CLASS
  1
PLOTSETTINGS
  2
AcDbPlotSettings
  3
ObjectDBX Classes
 90
    32768
280
     0
281
     0
  0
CLASS
  1
ACDBDICTIONARYWDFLT
  2
AcDbDictionaryWithDefault
  3
ObjectDBX Classes
 90
        0
280
     0
281
     0
  0
CLASS
  1
ACDBPLACEHOLDER
  2
AcDbPlaceHolder
  3
ObjectDBX Classes
 90
        0
280
     0
281
     0
  0
CLASS
  1
MATERIAL
  2
AcDbMaterial
  3
ObjectDBX Classes
 90
     1153
280
     0
281
     0
  0
CLASS
  1
VISUALSTYLE
  2
AcDbVisualStyle
  3
ObjectDBX Classes
 90
     4095
280
     0
281
     0
  0
CLASS
  1
TABLESTYLE
  2
AcDbTableStyle
  3
ObjectDBX Classes
 90
     4095
280
     0
281
     0
  0
CLASS
  1
SCALE
  2
AcDbScale
  3
ObjectDBX Classes
 90
     1153
280
     0
281
     0
  0
CLASS
  1
MLEADERSTYLE
  2
AcDbMLeaderStyle
  3
ACDB_MLEADERSTYLE_CLASS
 90
     4095
280
     0
281
     0
  0
CLASS
  1
ACME_DOCUMENT
  2
AcMeDbDoc
  3
AcMeServices
 90
     1024
280
     0
281
     0
  0
CLASS
  1
AMGSETTINGSOBJ
  2
AmgSettingsObj
  3
"AcadM|Product Description: AutoCAD Mechanical|Company: Autodesk, Inc."
 90
     1024
280
     0
281
     0
  0
CLASS
  1
ACMESCOPE
  2
AcMeScope
  3
AcMeServices
 90
     1024
280
     0
281
     0
  0
CLASS
  1
ACMECOMMANDHISTORY
  2
AcMeCommandHistory
  3
AcMeServices
 90
     1024
280
     0
281
     0
  0
CLASS
  1
ACIMSYSVARMAN
  2
AcImSysVarManager
  3
AcMeServices
 90
     1024
280
     0
281
     0
  0
CLASS
  1
ACIMINTSYSVAR
  2
AcImIntSysVar
  3
AcMeServices
 90
     1024
280
     0
281
     0
  0
CLASS
  1
ACMEDRAWINGMAN
  2
AcMeDrawingMan
  3
AcMeServices
 90
     1024
280
     0
281
     0
  0
CLASS
  1
ACMEVIEW
  2
AcMeView
  3
AcMeServices
 90
     1024
280
     0
281
     0
  0
CLASS
  1
ACDBENTITYCACHE
  2
AcMeEntityCache
  3
AcMeServices
 90
     1024
280
     0
281
     0
  0
CLASS
  1
ACMESTATEMGR
  2
AcMeStateMgr
  3
AcMeServices
 90
     1024
280
     0
281
     0
  0
CLASS
  1
ACGREFMASTER
  2
AcGrefMaster
  3
AcAttribServices
 90
     1024
280
     0
281
     0
  0
CLASS
  1
AM_DRAWING_MGR
  2
AcDmDwgMgr
  3
AcMechDwgViewMgmt
 90
     1024
280
     0
281
     0
  0
CLASS
  1
AM_DWG_DOCUMENT
  2
AcDmDwgDocument
  3
AcMechDwgViewMgmt
 90
     1024
280
     0
281
     0
  0
CLASS
  1
AM_DWG_SHEET
  2
AcDmSheet
  3
AcMechDwgViewMgmt
 90
     1024
280
     0
281
     0
  0
CLASS
  1
AM_VIEWDIMPARMAP
  2
AcDmViewDimParMap
  3
AcMechDwgViewMgmt
 90
     1024
280
     0
281
     0
  0
CLASS
  1
AMDTINTERNALREACTOR
  2
AmdtInternalReactor
  3
AcMeServices
 90
     1024
280
     0
281
     0
  0
CLASS
  1
ACIMREALSYSVAR
  2
AcImRealSysVar
  3
AcMeServices
 90
     1024
280
     0
281
     0
  0
CLASS
  1
AM_DWGMGR_NAME
  2
AcDmDwgMgrName
  3
AcMechDwgViewMgmt
 90
     1024
280
     0
281
     0
  0
CLASS
  1
ACME_DATABASE
  2
AcMeDbDatabase
  3
AcMeServices
 90
     1024
280
     0
281
     0
  0
CLASS
  1
ACRFINSADJUSTERMGR
  2
AcRfInsAdjusterMgr
  3
AcMeServices
 90
     1024
280
     0
281
     0
  0
CLASS
  1
ACGREFACADMASTER
  2
AcGrefacadMaster
  3
AcGrefServices
 90
     1024
280
     0
281
     0
  0
CLASS
  1
AMDTMENUSTATEMGR
  2
AmdtMenuStateMgr
  3
McadcomServices
 90
     1024
280
     0
281
     0
  0
CLASS
  1
AMDTMCOMMENUSTATE
  2
AmdtMcomMenuState
  3
McadcomServices
 90
     1024
280
     0
281
     0
  0
CLASS
  1
AMIMASTER
  2
AmiMaster
  3
AmiServices
 90
     1024
280
     0
281
     0
  0
CLASS
  1
MAPIAMMOUDLE
  2
MApiAmModule
  3
MApiAmServices
 90
     1024
280
     0
281
     0
  0
CLASS
  1
ACIMSTRSYSVAR
  2
AcImStrSysVar
  3
AcMeServices
 90
     1024
280
     0
281
     0
  0
CLASS
  1
AMDTADMENUSTATE
  2
AmdtAdMenuState
  3
DesignerServices
 90
     1024
280
     0
281
     0
  0
CLASS
  1
ADAPPL
  2
AcAdAppl
  3
DesignerServices
 90
     1024
280
     0
281
     0
  0
CLASS
  1
DEPMGR
  2
AcAdDepMgr
  3
DesignerServices
 90
     1024
280
     0
281
     0
  0
CLASS
  1
PARAMMGR
  2
AcAdParamMgr
  3
DesignerServices
 90
     1024
280
     0
281
     0
  0
CLASS
  1
PARAMSCOPE
  2
AcAdParamScope
  3
DesignerServices
 90
     1024
280
     0
281
     0
  0
CLASS
  1
NAMEDAPPL
  2
AcAdNamedAppl
  3
DesignerServices
 90
     1024
280
     0
281
     0
  0
CLASS
  1
AMDTDMMENUSTATE
  2
AmdtDmMenuState
  3
AcMechDwgViewMgmt
 90
     1024
280
     0
281
     0
  0
CLASS
  1
AMDTAMMENUSTATE
  2
AmdtAmMenuState
  3
DesignerAssemblies
 90
     1024
280
     0
281
     0
  0
CLASS
  1
ACAMPROJECT
  2
AcAmProject
  3
DesignerAssemblies
 90
     1024
280
     0
281
     0
  0
CLASS
  1
ACAMGRCOMPDEF
  2
AcAmGrCompDef
  3
DesignerAssemblies
 90
     1024
280
     0
281
     0
  0
CLASS
  1
ACAMCOMPDEF
  2
AcAmCompDef
  3
DesignerAssemblies
 90
     1024
280
     0
281
     0
  0
CLASS
  1
ACAMCOMPDEFMGR
  2
AcAmCompDefMgr
  3
DesignerAssemblies
 90
     1024
280
     0
281
     0
  0
CLASS
  1
AMCONTEXTMGR
  2
AcAmContextMgr
  3
DesignerAssemblies
 90
     1024
280
     0
281
     0
  0
CLASS
  1
ACAMCONTEXTMODELER
  2
AcAmContextModeler
  3
DesignerAssemblies
 90
     1024
280
     0
281
     0
  0
CLASS
  1
ACMDATADICTIONARY
  2
AcmDataDictionary
  3
"AcmSymBB|Product Description: AutoCAD Mechanical|Company: Autodesk, Inc."
 90
     1024
280
     0
281
     0
  0
CLASS
  1
CATALOGSTATE
  2
AcAmCatalogState
  3
DesignerAssemblies
 90
     1024
280
     0
281
     0
  0
CLASS
  1
ACAMGRCOMPDEFSET
  2
AcAmGrCompDefSet
  3
DesignerAssemblies
 90
     1024
280
     0
281
     0
  0
CLASS
  1
AMDTBROWSERDBTAB
  2
AmdtBrowserDbTab
  3
McadcomServices
 90
     1024
280
     0
281
     0
  0
CLASS
  1
CBROWSERAPPOBJECT
  2
CBrowserAppObject
  3
McadcomServices
 90
     1024
280
     0
281
     0
  0
CLASS
  1
DM_PLACEHOLDER
  2
AcDmSelsetPlaceholder
  3
AcMechDwgViewMgmt
 90
     1024
280
     0
281
     0
  0
CLASS
  1
ACMSTANDARDISO
  2
AcmStandardISO
  3
"Amdt_StdImp|Product Description: AutoCAD Mechanical|Company: Autodesk, Inc."
 90
     1024
280
     0
281
     0
  0
CLASS
  1
AMDTEDGESTANDARDISO13715
  2
AmdtEdgeStdISO13715
  3
"Amdt_StdImp|Product Description: AutoCAD Mechanical|Company: Autodesk, Inc."
 90
     1024
280
     0
281
     0
  0
CLASS
  1
ACMSURFSTANDARDISO2002
  2
AcmSurfTextStdISO2002
  3
"Amdt_StdImp|Product Description: AutoCAD Mechanical|Company: Autodesk, Inc."
 90
     1024
280
     0
281
     0
  0
CLASS
  1
ACMFCFSTANDARDISO
  2
AcmFCFStdISO
  3
"Amdt_StdImp|Product Description: AutoCAD Mechanical|Company: Autodesk, Inc."
 90
     1024
280
     0
281
     0
  0
CLASS
  1
ACMWELDSTANDARDISO
  2
AcmWeldingStdISO
  3
"Amdt_StdImp|Product Description: AutoCAD Mechanical|Company: Autodesk, Inc."
 90
     1024
280
     0
281
     0
  0
CLASS
  1
ACMIDSTANDARDISO
  2
AcmIdStdISO
  3
"Amdt_StdImp|Product Description: AutoCAD Mechanical|Company: Autodesk, Inc."
 90
     1024
280
     0
281
     0
  0
CLASS
  1
ACMDATUMSTANDARDISO
  2
AcmDatumStdISO
  3
"Amdt_StdImp|Product Description: AutoCAD Mechanical|Company: Autodesk, Inc."
 90
     1024
280
     0
281
     0
  0
CLASS
  1
ACMBOMSTANDARDISO
  2
AcmBOMStdISO
  3
"Amdt_StdImp|Product Description: AutoCAD Mechanical|Company: Autodesk, Inc."
 90
     1024
280
     0
281
     0
  0
CLASS
  1
ACMDETAILSTANDARDISO
  2
AmdtDetailSymStdISO
  3
"Amdt_StdImp|Product Description: AutoCAD Mechanical|Company: Autodesk, Inc."
 90
     1024
280
     0
281
     0
  0
CLASS
  1
ACMSECTIONSTANDARDISO2001
  2
AmdtSectionSymStdISO2001
  3
"Amdt_StdImp|Product Description: AutoCAD Mechanical|Company: Autodesk, Inc."
 90
     1024
280
     0
281
     0
  0
CLASS
  1
ACMCENTERLINESTANDARDISO
  2
AmdtCenterLineStdISO
  3
"Amdt_StdImp|Product Description: AutoCAD Mechanical|Company: Autodesk, Inc."
 90
     1024
280
     0
281
     0
  0
CLASS
  1
ACMTHREADLINESTANDARDISO
  2
AmdtThreadLineStdISO
  3
"Amdt_StdImp|Product Description: AutoCAD Mechanical|Company: Autodesk, Inc."
 90
     1024
280
     0
281
     0
  0
CLASS
  1
ACMNOTESTANDARDISO
  2
AmdtNoteStdISO
  3
"Amdt_StdImp|Product Description: AutoCAD Mechanical|Company: Autodesk, Inc."
 90
     1024
280
     0
281
     0
  0
CLASS
  1
ACMTAPERSTANDARDISO
  2
AcmTaperStdISO
  3
"Amdt_StdImp|Product Description: AutoCAD Mechanical|Company: Autodesk, Inc."
 90
     1024
280
     0
281
     0
  0
CLASS
  1
ACMANOOTATIONVIEWSTANDARDISO
  2
AmdtAnViewStdISO
  3
"Amdt_StdImp|Product Description: AutoCAD Mechanical|Company: Autodesk, Inc."
 90
     1024
280
     0
281
     0
  0
CLASS
  1
ACAMGLAYSTD
  2
AcAmgLayStd
  3
"AmgLay|Product Description: AutoCAD Mechanical|Company: Autodesk, Inc."
 90
     1024
280
     0
281
     0
  0
CLASS
  1
ACAMGDIMSTD
  2
AcAmgDimStd
  3
"AmgDim|Product Description: AutoCAD Mechanical|Company: Autodesk, Inc."
 90
     1024
280
     0
281
     0
  0
CLASS
  1
AMGOBJPROPCFG
  2
AmgObjPropCfg
  3
"AmgLay|Product Description: AutoCAD Mechanical|Company: Autodesk, Inc."
 90
     1025
280
     0
281
     0
  0
CLASS
  1
ACAMGHOLECHARTSTDISO
  2
AcAmgHoleChartStdISO
  3
AmgDim|Product Description: AutoCAD Mechanical|Company: Autodesk, Inc.
 90
     1024
280
     0
281
     0
  0
CLASS
  1
ACAMGTITLESTD
  2
AcAmgTitleStd
  3
"AmgTitle|Product Description: AutoCAD Mechanical|Company: Autodesk, Inc."
 90
     4095
280
     0
281
     0
  0
CLASS
  1
AMDTNOTETEMPLATEDB
  2
AmdtNoteTemplateDB
  3
AcmSymBB|Product Description: AutoCAD Mechanical|Company: Autodesk, Inc.
 90
     1024
280
     0
281
     0
  0
CLASS
  1
ACAMGFILTERDAT
  2
AcAmgFilterDat
  3
"AcadM|Product Description: AutoCAD Mechanical|Company: Autodesk, Inc."
 90
     1024
280
     0
281
     0
  0
CLASS
  1
CAMSSTRUCTBTNSTATE
  2
StructBtnState
  3
DesignerAssemblies
 90
     1024
280
     0
281
     0
  0
CLASS
  1
CELLSTYLEMAP
  2
AcDbCellStyleMap
  3
ObjectDBX Classes
 90
     1152
280
     0
281
     0
  0
ENDSEC
  0
SECTION
  2
TABLES
  0
TABLE
  2
VPORT
  5
7
330
0
100
AcDbSymbolTable
 70
     1
  0
VPORT
  5
15
330
7
100
AcDbSymbolTableRecord
100
AcDbViewportTableRecord
  2
*ACTIVE
 70
     0
 10
0.0
 20
0.0
 11
1.0
 21
1.0
 12
221.1285795045769
 22
232.1887241667555
 13
0.0
 23
0.0
 14
1.0
 24
1.0
 15
0.0
 25
0.0
 16
0.0
 26
0.0
 36
1.0
 17
0.0
 27
0.0
 37
0.0
 40
4925.635994483231
 41
1.892893923789907
 42
50.0
 43
0.0
 44
0.0
 50
0.0
 51
0.0
 71
     0
 72
   100
 73
     1
 74
     1
 75
     0
 76
     0
 77
     0
 78
     0
281
     0
 65
     0
110
0.0
120
0.0
130
0.0
111
1.0
121
0.0
131
0.0
112
0.0
122
1.0
132
0.0
 79
     0
146
0.0
  0
ENDTAB
  0
TABLE
  2
LTYPE
  5
4
330
0
100
AcDbSymbolTable
 70
    17
  0
LTYPE
  5
11
330
4
100
AcDbSymbolTableRecord
100
AcDbLinetypeTableRecord
  2
BYBLOCK
 70
     0
  3

 72
    65
 73
     0
 40
0.0
  0
LTYPE
  5
12
330
4
100
AcDbSymbolTableRecord
100
AcDbLinetypeTableRecord
  2
BYLAYER
 70
     0
  3

 72
    65
 73
     0
 40
0.0
  0
LTYPE
  5
13
330
4
100
AcDbSymbolTableRecord
100
AcDbLinetypeTableRecord
  2
CONTINUOUS
 70
     0
  3
Solid line
 72
    65
 73
     0
 40
0.0
  0
LTYPE
  5
178
330
4
100
AcDbSymbolTableRecord
100
AcDbLinetypeTableRecord
  2
CENTER
 70
     0
  3
Center ____ _ ____ _ ____ _ ____ _ ____ _ ____
 72
    65
 73
     4
 40
50.8
 49
31.75
 74
     0
 49
-6.349999999999999
 74
     0
 49
6.349999999999999
 74
     0
 49
-6.349999999999999
 74
     0
  0
LTYPE
  5
25F
330
4
100
AcDbSymbolTableRecord
100
AcDbLinetypeTableRecord
  2
DASHED
 70
     0
  3
Dashed __ __ __ __ __ __ __ __ __ __ __ __ __ _
 72
    65
 73
     2
 40
19.05
 49
12.7
 74
     0
 49
-6.349999999999999
 74
     0
  0
LTYPE
  5
3FA
330
4
100
AcDbSymbolTableRecord
100
AcDbLinetypeTableRecord
  2
NON_PLOTING
 70
     0
  3
Solid line
 72
    65
 73
     0
 40
0.0
  0
LTYPE
  5
476
330
4
100
AcDbSymbolTableRecord
100
AcDbLinetypeTableRecord
  2
HIDDEN
 70
     0
  3
Hidden __ __ __ __ __ __ __ __ __ __ __ __ __ _
 72
    65
 73
     2
 40
9.524999999999998
 49
6.349999999999999
 74
     0
 49
-3.174999999999999
 74
     0
  0
LTYPE
  5
477
330
4
100
AcDbSymbolTableRecord
100
AcDbLinetypeTableRecord
  2
PHANTOM2
 70
     0
  3
Phantom (.5x) ___ _ _ ___ _ _ ___ _ _ ___ _ _
 72
    65
 73
     6
 40
31.75
 49
15.875
 74
     0
 49
-3.174999999999999
 74
     0
 49
3.174999999999999
 74
     0
 49
-3.174999999999999
 74
     0
 49
3.174999999999999
 74
     0
 49
-3.174999999999999
 74
     0
  0
LTYPE
  5
4BD
330
4
100
AcDbSymbolTableRecord
100
AcDbLinetypeTableRecord
  2
AM_ISO02W050
 70
     0
  3
__ __ __ __ __ __ __ __ __ __ __ __ __ __ __
 72
    65
 73
     2
 40
7.5
 49
6.0
 74
     0
 49
-1.5
 74
     0
  0
LTYPE
  5
4BE
330
4
100
AcDbSymbolTableRecord
100
AcDbLinetypeTableRecord
  2
AM_ISO08W050
 70
     0
  3
____ . ____ . ____ . ____ . ____ . ____ . ____
 72
    65
 73
     4
 40
18.0
 49
12.0
 74
     0
 49
-1.5
 74
     0
 49
3.0
 74
     0
 49
-1.5
 74
     0
  0
LTYPE
  5
4BF
330
4
100
AcDbSymbolTableRecord
100
AcDbLinetypeTableRecord
  2
AM_ISO09W050
 70
     0
  3
_____ . . _____ . . _____ . . ____ .. ____
 72
    65
 73
     6
 40
22.5
 49
12.0
 74
     0
 49
-1.5
 74
     0
 49
3.0
 74
     0
 49
-1.5
 74
     0
 49
3.0
 74
     0
 49
-1.5
 74
     0
  0
LTYPE
  5
4C0
330
4
100
AcDbSymbolTableRecord
100
AcDbLinetypeTableRecord
  2
Amconstr
 70
     0
  3
_______________________
 72
    65
 73
     2
 40
9999.0
 49
9999.0
 74
     0
 49
0.0
 74
     0
  0
LTYPE
  5
4C1
330
4
100
AcDbSymbolTableRecord
100
AcDbLinetypeTableRecord
  2
AM_ISO08W050x2
 70
     0
  3
__ . __ . __ . __ . __ . __
 72
    65
 73
     4
 40
9.0
 49
6.0
 74
     0
 49
-0.75
 74
     0
 49
1.5
 74
     0
 49
-0.75
 74
     0
  0
LTYPE
  5
4C2
330
4
100
AcDbSymbolTableRecord
100
AcDbLinetypeTableRecord
  2
AM_ISO02W050x2
 70
     0
  3
 _ _ _ _ _ _ _ _ _ _ _ _
 72
    65
 73
     2
 40
3.75
 49
3.0
 74
     0
 49
-0.75
 74
     0
  0
LTYPE
  5
4C5
330
4
100
AcDbSymbolTableRecord
100
AcDbLinetypeTableRecord
  2
Amzigzag
 70
     0
  3
/\/-/\/-/\/-/\/-/\/-/\/
 72
    65
 73
     2
 40
11.0001
 49
0.0001
 74
     4
 75
   136
340
4C4
 46
0.04
 50
0.0
 44
0.0
 45
0.0
 49
-11.0
 74
     0
  0
LTYPE
  5
4D4
330
4
100
AcDbSymbolTableRecord
100
AcDbLinetypeTableRecord
  2
ACISOWELD
 70
     0
  3
_ _ _ _ _
 72
    65
 73
     2
 40
2.0
 49
2.0
 74
     0
 49
-1.0
 74
     0
  0
LTYPE
  5
4D5
330
4
100
AcDbSymbolTableRecord
100
AcDbLinetypeTableRecord
  2
ACISOTGB
 70
     0
  3
__ . . __ . .
 72
    65
 73
     6
 40
9.0
 49
4.0
 74
     0
 49
-1.0
 74
     0
 49
1.0
 74
     0
 49
-1.0
 74
     0
 49
1.0
 74
     0
 49
-1.0
 74
     0
  0
LTYPE
  5
4D6
330
4
100
AcDbSymbolTableRecord
100
AcDbLinetypeTableRecord
  2
ACISOTGL
 70
     0
  3
_ _ _ _ _
 72
    65
 73
     2
 40
3.0
 49
2.0
 74
     0
 49
-1.0
 74
     0
  0
ENDTAB
  0
TABLE
  2
LAYER
  5
2
330
0
100
AcDbSymbolTable
 70
     4
  0
LAYER
  5
14
102
{ACAD_XDICTIONARY
360
4E8
102
}
330
2
100
AcDbSymbolTableRecord
100
AcDbLayerTableRecord
  2
0
 70
     0
 62
     7
  6
CONTINUOUS
370
    -3
390
1D
  0
LAYER
  5
23
330
2
100
AcDbSymbolTableRecord
100
AcDbLayerTableRecord
  2
DEFPOINTS
 70
     0
 62
     7
  6
CONTINUOUS
290
     0
370
    -3
390
1D
  0
LAYER
  5
24
102
{ACAD_XDICTIONARY
360
4EA
102
}
330
2
100
AcDbSymbolTableRecord
100
AcDbLayerTableRecord
  2
PV
 70
     0
 62
     7
  6
CONTINUOUS
370
    -3
390
1D
  0
LAYER
  5
25
102
{ACAD_XDICTIONARY
360
4EC
102
}
330
2
100
AcDbSymbolTableRecord
100
AcDbLayerTableRecord
  2
FV
 70
     0
 62
     7
  6
CONTINUOUS
370
    -3
390
1D
  0
ENDTAB
  0
TABLE
  2
STYLE
  5
3
330
0
100
AcDbSymbolTable
 70
     7
  0
STYLE
  5
17
330
3
100
AcDbSymbolTableRecord
100
AcDbTextStyleTableRecord
  2
MX_NOTE_STANDARD
 70
     0
 40
0.0
 41
1.0
 50
0.0
 71
     0
 42
41.66999754801396
  3
txt.shx
  4
extfont.shx
  0
STYLE
  5
96
330
3
100
AcDbSymbolTableRecord
100
AcDbTextStyleTableRecord
  2
MX_DIMTXSTY_2
 70
     0
 40
0.0
 41
1.1
 50
0.0
 71
     0
 42
41.66999754801396
  3
txt.shx
  4
extfont.shx
  0
STYLE
  5
A7
330
3
100
AcDbSymbolTableRecord
100
AcDbTextStyleTableRecord
  2
MX_DIMTXSTY_3
 70
     0
 40
0.0
 41
1.2
 50
0.0
 71
     0
 42
41.66999754801396
  3
txt.shx
  4
extfont.shx
  0
STYLE
  5
DC
330
3
100
AcDbSymbolTableRecord
100
AcDbTextStyleTableRecord
  2
MX_DIMTXSTY_4
 70
     0
 40
0.0
 41
1.05
 50
0.0
 71
     0
 42
41.66999754801396
  3
txt.shx
  4
extfont.shx
  0
STYLE
  5
4C4
330
3
100
AcDbSymbolTableRecord
100
AcDbTextStyleTableRecord
  2

 70
     1
 40
0.0
 41
1.0
 50
0.0
 71
     0
 42
41.66999754801396
  3
genltshp.shx
  4

  0
STYLE
  5
4D2
330
3
100
AcDbSymbolTableRecord
100
AcDbTextStyleTableRecord
  2
ACISOTS
 70
     0
 40
1.0
 41
1.0
 50
0.0
 71
     0
 42
41.66999754801396
  3
isocp.shx
  4
extfont.shx
  0
STYLE
  5
4D3
330
3
100
AcDbSymbolTableRecord
100
AcDbTextStyleTableRecord
  2
ACISOGDT
 70
     0
 40
0.0
 41
1.0
 50
0.0
 71
     0
 42
41.66999754801396
  3
amgdt.shx
  4

  0
ENDTAB
  0
TABLE
  2
VIEW
  5
5
330
0
100
AcDbSymbolTable
 70
     0
  0
ENDTAB
  0
TABLE
  2
UCS
  5
6
330
0
100
AcDbSymbolTable
 70
     0
  0
ENDTAB
  0
TABLE
  2
APPID
  5
8
330
0
100
AcDbSymbolTable
 70
    16
  0
APPID
  5
16
330
8
100
AcDbSymbolTableRecord
100
AcDbRegAppTableRecord
  2
ACAD
 70
     0
  0
APPID
  5
44B
330
8
100
AcDbSymbolTableRecord
100
AcDbRegAppTableRecord
  2
MCAD_NO_VIS
 70
     0
  0
APPID
  5
44C
330
8
100
AcDbSymbolTableRecord
100
AcDbRegAppTableRecord
  2
ACAD_TEMP_GRAPHIC
 70
     0
  0
APPID
  5
479
330
8
100
AcDbSymbolTableRecord
100
AcDbRegAppTableRecord
  2
AD_DRAW
 70
     0
  0
APPID
  5
47C
330
8
100
AcDbSymbolTableRecord
100
AcDbRegAppTableRecord
  2
ACATTRIBSERVICES
 70
     0
  0
APPID
  5
49C
330
8
100
AcDbSymbolTableRecord
100
AcDbRegAppTableRecord
  2
DESIGNERASSEMBLIES
 70
     0
  0
APPID
  5
4A2
330
8
100
AcDbSymbolTableRecord
100
AcDbRegAppTableRecord
  2
ACADM_DIM_EDIT
 70
     0
  0
APPID
  5
4A3
330
8
100
AcDbSymbolTableRecord
100
AcDbRegAppTableRecord
  2
AMDT_DM_ADJ
 70
     0
  0
APPID
  5
4BA
330
8
100
AcDbSymbolTableRecord
100
AcDbRegAppTableRecord
  2
ACAD_DSTYLE_DIMJAG
 70
     0
  0
APPID
  5
4BB
330
8
100
AcDbSymbolTableRecord
100
AcDbRegAppTableRecord
  2
ACAD_DSTYLE_DIMBREAK
 70
     0
  0
APPID
  5
4DF
330
8
100
AcDbSymbolTableRecord
100
AcDbRegAppTableRecord
  2
ACAD_EXEMPT_FROM_CAD_STANDARDS
 70
     0
  0
APPID
  5
587
330
8
100
AcDbSymbolTableRecord
100
AcDbRegAppTableRecord
  2
ACAD_MLEADERVER
 70
     0
  0
APPID
  5
588
330
8
100
AcDbSymbolTableRecord
100
AcDbRegAppTableRecord
  2
ACAD_DSTYLE_DIMARC_LENGTH_SYMBOL
 70
     0
  0
APPID
  5
589
330
8
100
AcDbSymbolTableRecord
100
AcDbRegAppTableRecord
  2
ACAD_DSTYLE_DIM_LINETYPE
 70
     0
  0
APPID
  5
58A
330
8
100
AcDbSymbolTableRecord
100
AcDbRegAppTableRecord
  2
ACAD_DSTYLE_DIM_EXT1_LINETYPE
 70
     0
  0
APPID
  5
58B
330
8
100
AcDbSymbolTableRecord
100
AcDbRegAppTableRecord
  2
ACAD_DSTYLE_DIM_EXT2_LINETYPE
 70
     0
  0
ENDTAB
  0
TABLE
  2
DIMSTYLE
  5
9
330
0
100
AcDbSymbolTable
 70
     8
100
AcDbDimStyleTable
 71
     0
  0
DIMSTYLE
105
18
102
{ACAD_REACTORS
330
9C
330
AD
330
BD
330
CA
330
D4
330
E2
330
EF
330
FC
330
109
330
116
330
123
330
130
330
13D
102
}
330
9
100
AcDbSymbolTableRecord
100
AcDbDimStyleTableRecord
  2
MXDIMSTYLE
 70
     0
 40
9.999999850988389
 41
2.5
 42
1.269999980926513
 43
3.75
 44
1.200000047683715
 73
     0
 74
     0
 77
     1
 78
     8
140
4.166999816894531
141
2.5
143
0.03937007874016
144
0.1000000014901161
147
1.0
171
     4
172
     1
274
     4
288
     1
340
17
  0
DIMSTYLE
105
4B9
102
{ACAD_REACTORS
330
4A8
102
}
330
9
100
AcDbSymbolTableRecord
100
AcDbDimStyleTableRecord
  2
AM_ISO
 70
     0
  4
"
 41
3.5
 42
1.0
 43
10.0
 44
1.0
 47
0.1
 48
0.1
 73
     0
 74
     0
 77
     1
 78
     8
 79
     2
140
3.5
141
0.0
143
0.0393701
146
0.71
147
1.5
172
     1
176
   256
177
   256
178
     2
271
     2
272
     3
274
     4
283
     0
284
     8
340
17
371
    -1
372
    -1
1001
ACAD_DSTYLE_DIMJAG
1070
   388
1040
1.5
1001
ACAD_DSTYLE_DIMBREAK
1070
   391
1040
3.75
1001
ACAD_DSTYLE_DIMARC_LENGTH_SYMBOL
1070
   379
1070
     1
1001
ACAD_DSTYLE_DIM_LINETYPE
1070
   380
1005
11
1001
ACAD_DSTYLE_DIM_EXT1_LINETYPE
1070
   381
1005
11
1001
ACAD_DSTYLE_DIM_EXT2_LINETYPE
1070
   382
1005
11
  0
DIMSTYLE
105
4C6
330
9
100
AcDbSymbolTableRecord
100
AcDbDimStyleTableRecord
  2
AM_ISO$3
 70
     0
  4
"
 41
3.5
 42
1.0
 43
10.0
 44
1.0
 47
0.1
 48
0.1
 73
     0
 77
     1
 78
     8
 79
     2
140
3.5
141
0.0
143
0.0393701
146
0.71
147
1.5
176
   256
177
   256
178
     2
271
     2
272
     3
274
     4
283
     0
284
     8
288
     1
289
     0
340
17
371
    -1
372
    -1
1001
ACAD_DSTYLE_DIMBREAK
1070
   391
1040
3.75
1001
ACAD_DSTYLE_DIMJAG
1070
   388
1040
1.5
1001
ACAD_DSTYLE_DIMARC_LENGTH_SYMBOL
1070
   379
1070
     1
1001
ACAD_DSTYLE_DIM_LINETYPE
1070
   380
1005
11
1001
ACAD_DSTYLE_DIM_EXT1_LINETYPE
1070
   381
1005
11
1001
ACAD_DSTYLE_DIM_EXT2_LINETYPE
1070
   382
1005
11
  0
DIMSTYLE
105
4C7
330
9
100
AcDbSymbolTableRecord
100
AcDbDimStyleTableRecord
  2
AM_ISO$4
 70
     0
  4
"
 41
3.5
 42
1.0
 43
10.0
 44
1.0
 47
0.1
 48
0.1
 73
     0
 77
     1
 78
     8
 79
     2
140
3.5
141
0.0
143
0.0393701
146
0.71
147
1.5
176
   256
177
   256
178
     2
271
     2
272
     3
274
     4
283
     0
284
     8
288
     1
289
     0
340
17
371
    -1
372
    -1
1001
ACAD_DSTYLE_DIMBREAK
1070
   391
1040
3.75
1001
ACAD_DSTYLE_DIMJAG
1070
   388
1040
1.5
1001
ACAD_DSTYLE_DIMARC_LENGTH_SYMBOL
1070
   379
1070
     1
1001
ACAD_DSTYLE_DIM_LINETYPE
1070
   380
1005
11
1001
ACAD_DSTYLE_DIM_EXT1_LINETYPE
1070
   381
1005
11
1001
ACAD_DSTYLE_DIM_EXT2_LINETYPE
1070
   382
1005
11
  0
DIMSTYLE
105
4C8
330
9
100
AcDbSymbolTableRecord
100
AcDbDimStyleTableRecord
  2
AM_ISO$6
 70
     0
  4
"
 41
3.5
 42
1.0
 43
10.0
 44
1.0
 47
0.1
 48
0.1
 73
     0
 74
     0
 78
     8
 79
     2
140
3.5
141
0.0
143
0.0393701
146
0.71
147
1.5
172
     1
176
   256
177
   256
178
     2
271
     2
272
     3
274
     4
283
     0
284
     8
340
17
371
    -1
372
    -1
1001
ACAD_DSTYLE_DIMBREAK
1070
   391
1040
3.75
1001
ACAD_DSTYLE_DIMJAG
1070
   388
1040
1.5
1001
ACAD_DSTYLE_DIMARC_LENGTH_SYMBOL
1070
   379
1070
     1
1001
ACAD_DSTYLE_DIM_LINETYPE
1070
   380
1005
11
1001
ACAD_DSTYLE_DIM_EXT1_LINETYPE
1070
   381
1005
11
1001
ACAD_DSTYLE_DIM_EXT2_LINETYPE
1070
   382
1005
11
  0
DIMSTYLE
105
4C9
330
9
100
AcDbSymbolTableRecord
100
AcDbDimStyleTableRecord
  2
AM_ISO$7
 70
     0
  4
"
 41
3.5
 42
1.0
 43
10.0
 44
1.0
 47
0.1
 48
0.1
 73
     0
 74
     0
 77
     1
 78
     8
 79
     2
140
3.5
141
0.0
143
0.0393701
146
0.71
147
1.5
172
     1
176
   256
177
   256
178
     2
271
     2
272
     3
274
     4
283
     0
284
     8
340
17
371
    -1
372
    -1
1001
ACAD_DSTYLE_DIMBREAK
1070
   391
1040
3.75
1001
ACAD_DSTYLE_DIMJAG
1070
   388
1040
1.5
1001
ACAD_DSTYLE_DIMARC_LENGTH_SYMBOL
1070
   379
1070
     1
1001
ACAD_DSTYLE_DIM_LINETYPE
1070
   380
1005
11
1001
ACAD_DSTYLE_DIM_EXT1_LINETYPE
1070
   381
1005
11
1001
ACAD_DSTYLE_DIM_EXT2_LINETYPE
1070
   382
1005
11
  0
DIMSTYLE
105
4CA
330
9
100
AcDbSymbolTableRecord
100
AcDbDimStyleTableRecord
  2
AM_ISO$SF
 70
     0
  4
"
 41
3.5
 42
1.0
 43
10.0
 44
1.0
 47
0.1
 48
0.1
 73
     0
 74
     0
 75
     1
 76
     1
 77
     1
 78
     8
 79
     2
140
3.5
141
0.0
143
0.0393701
146
0.71
147
1.5
172
     1
176
   256
177
   256
178
     2
271
     2
272
     3
274
     4
283
     0
284
     8
340
17
371
    -1
372
    -1
1001
ACAD_DSTYLE_DIMBREAK
1070
   391
1040
3.75
1001
ACAD_DSTYLE_DIMJAG
1070
   388
1040
1.5
1001
ACAD_DSTYLE_DIMARC_LENGTH_SYMBOL
1070
   379
1070
     1
1001
ACAD_DSTYLE_DIM_LINETYPE
1070
   380
1005
11
1001
ACAD_DSTYLE_DIM_EXT1_LINETYPE
1070
   381
1005
11
1001
ACAD_DSTYLE_DIM_EXT2_LINETYPE
1070
   382
1005
11
  0
DIMSTYLE
105
4CF
330
9
100
AcDbSymbolTableRecord
100
AcDbDimStyleTableRecord
  2
AM_ISO$SH
 70
     0
  4
"
 41
3.5
 42
1.0
 43
10.0
 44
1.0
 47
0.1
 48
0.1
 73
     0
 74
     0
 75
     1
 76
     1
 77
     1
 78
     8
 79
     2
140
3.5
141
0.0
143
0.0393701
144
2.0
146
0.71
147
1.5
172
     1
173
     1
176
   256
177
   256
178
     2
271
     2
272
     3
274
     4
283
     0
284
     8
340
17
343
4CB
371
    -1
372
    -1
1001
ACAD_DSTYLE_DIMBREAK
1070
   391
1040
3.75
1001
ACAD_DSTYLE_DIMJAG
1070
   388
1040
1.5
1001
ACAD_DSTYLE_DIMARC_LENGTH_SYMBOL
1070
   379
1070
     1
1001
ACAD_DSTYLE_DIM_LINETYPE
1070
   380
1005
11
1001
ACAD_DSTYLE_DIM_EXT1_LINETYPE
1070
   381
1005
11
1001
ACAD_DSTYLE_DIM_EXT2_LINETYPE
1070
   382
1005
11
  0
ENDTAB
  0
TABLE
  2
BLOCK_RECORD
  5
1
330
0
100
AcDbSymbolTable
 70
    18
  0
BLOCK_RECORD
  5
A
330
1
100
AcDbSymbolTableRecord
100
AcDbBlockTableRecord
  2
*MODEL_SPACE
340
20
  0
BLOCK_RECORD
  5
B
330
1
100
AcDbSymbolTableRecord
100
AcDbBlockTableRecord
  2
*PAPER_SPACE
340
21
  0
BLOCK_RECORD
  5
26
330
1
100
AcDbSymbolTableRecord
100
AcDbBlockTableRecord
  2
MS_1
340
0
102
{BLKREFS
331
369
102
}
  0
BLOCK_RECORD
  5
89
330
1
100
AcDbSymbolTableRecord
100
AcDbBlockTableRecord
  2
*D1
340
0
  0
BLOCK_RECORD
  5
8E
330
1
100
AcDbSymbolTableRecord
100
AcDbBlockTableRecord
  2
_OPEN30
340
0
102
{BLKREFS
331
94
331
95
331
A5
331
A6
331
B6
331
B7
331
C3
331
C4
331
CE
331
CF
331
DA
331
DB
331
E8
331
E9
331
F5
331
F6
331
102
331
103
331
10F
331
110
331
11C
331
11D
331
129
331
12A
331
136
331
137
102
}
  0
BLOCK_RECORD
  5
9D
330
1
100
AcDbSymbolTableRecord
100
AcDbBlockTableRecord
  2
*D3
340
0
  0
BLOCK_RECORD
  5
AE
330
1
100
AcDbSymbolTableRecord
100
AcDbBlockTableRecord
  2
*D4
340
0
  0
BLOCK_RECORD
  5
BE
330
1
100
AcDbSymbolTableRecord
100
AcDbBlockTableRecord
  2
*D5
340
0
  0
BLOCK_RECORD
  5
CB
330
1
100
AcDbSymbolTableRecord
100
AcDbBlockTableRecord
  2
*D6
340
0
  0
BLOCK_RECORD
  5
D5
330
1
100
AcDbSymbolTableRecord
100
AcDbBlockTableRecord
  2
*D7
340
0
  0
BLOCK_RECORD
  5
E3
330
1
100
AcDbSymbolTableRecord
100
AcDbBlockTableRecord
  2
*D8
340
0
  0
BLOCK_RECORD
  5
F0
330
1
100
AcDbSymbolTableRecord
100
AcDbBlockTableRecord
  2
*D9
340
0
  0
BLOCK_RECORD
  5
FD
330
1
100
AcDbSymbolTableRecord
100
AcDbBlockTableRecord
  2
*D10
340
0
  0
BLOCK_RECORD
  5
10A
330
1
100
AcDbSymbolTableRecord
100
AcDbBlockTableRecord
  2
*D11
340
0
  0
BLOCK_RECORD
  5
117
330
1
100
AcDbSymbolTableRecord
100
AcDbBlockTableRecord
  2
*D12
340
0
  0
BLOCK_RECORD
  5
124
330
1
100
AcDbSymbolTableRecord
100
AcDbBlockTableRecord
  2
*D13
340
0
  0
BLOCK_RECORD
  5
131
330
1
100
AcDbSymbolTableRecord
100
AcDbBlockTableRecord
  2
*D14
340
0
  0
BLOCK_RECORD
  5
36A
330
1
100
AcDbSymbolTableRecord
100
AcDbBlockTableRecord
  2
*X15
340
0
102
{BLKREFS
331
395
102
}
  0
BLOCK_RECORD
  5
4CB
330
1
100
AcDbSymbolTableRecord
100
AcDbBlockTableRecord
  2
GENAXEH
340
0
  0
ENDTAB
  0
ENDSEC
  0
SECTION
  2
BLOCKS
  0
BLOCK
  5
D
330
A
100
AcDbEntity
  8
0
100
AcDbBlockBegin
  2
*MODEL_SPACE
 70
     0
 10
0.0
 20
0.0
 30
0.0
  3
*MODEL_SPACE
  1

  0
ENDBLK
  5
E
330
A
100
AcDbEntity
  8
0
100
AcDbBlockEnd
  0
BLOCK
  5
F
330
B
100
AcDbEntity
 67
     1
  8
0
100
AcDbBlockBegin
  2
*PAPER_SPACE
 70
     0
 10
0.0
 20
0.0
 30
0.0
  3
*PAPER_SPACE
  1

  0
ENDBLK
  5
10
330
B
100
AcDbEntity
 67
     1
  8
0
100
AcDbBlockEnd
  0
BLOCK
  5
27
330
26
100
AcDbEntity
  8
0
370
    -2
100
AcDbBlockBegin
  2
MS_1
 70
     0
 10
0.0
 20
0.0
 30
0.0
  3
MS_1
  1

  0
ELLIPSE
  5
28
330
26
100
AcDbEntity
  8
0
  6
Continuous
 62
     7
100
AcDbEllipse
 10
13.88765144348144
 20
-0.0160179436206818
 30
0.0
 11
1.688363075256347
 21
-0.0000001192092898
 31
0.0
210
0.0
220
0.0
230
0.9999999999999998
 40
0.9291879639195471
 41
0.2651412738457682
 42
6.006474423724084
  0
ELLIPSE
  5
29
330
26
100
AcDbEntity
  8
0
  6
Continuous
 62
     7
100
AcDbEllipse
 10
13.11491346359253
 20
-0.0160178802907467
 30
0.0
 11
3.015141010284423
 21
-0.0000001825392261
 31
0.0
210
0.0
220
0.0
230
0.9999999999999996
 40
0.799806870214157
 41
0.7911690653191047
 42
6.104511488825125
  0
ARC
  5
2A
330
26
100
AcDbEntity
  8
0
  6
Continuous
 62
     7
100
AcDbCircle
 10
15.41536426544189
 20
1.927800178527832
 30
0.0
 40
0.2915999293327331
100
AcDbArc
 50
231.6715098735924
 51
330.0000128255523
  0
ARC
  5
2B
330
26
100
AcDbEntity
  8
0
  6
Continuous
 62
     7
100
AcDbCircle
 10
5.660588264465332
 20
1.256252288818359
 30
0.0
 40
0.1749599575996399
100
AcDbArc
 50
24.9969145885484
 51
155.0011438164944
  0
ARC
  5
2C
330
26
100
AcDbEntity
  8
0
  6
Continuous
 62
     7
100
AcDbCircle
 10
6.376239776611328
 20
-0.2784740328788757
 30
0.0
 40
0.1749599575996399
100
AcDbArc
 50
270.000127269116
 51
24.99996426801281
  0
ARC
  5
2D
330
26
100
AcDbEntity
  8
0
  6
Continuous
 62
     7
100
AcDbCircle
 10
4.944927215576171
 20
-0.2784740328788757
 30
0.0
 40
0.1749599575996399
100
AcDbArc
 50
154.9993952880669
 51
270.0014213625927
  0
ARC
  5
2E
330
26
100
AcDbEntity
  8
0
  6
Continuous
 62
     7
100
AcDbCircle
 10
4.663116455078125
 20
-1.526512145996093
 30
0.0
 40
0.3499199151992798
100
AcDbArc
 50
89.99867061759001
 51
235.0010731873461
  0
ARC
  5
2F
330
26
100
AcDbEntity
  8
0
  6
Continuous
 62
     7
100
AcDbCircle
 10
6.725593566894531
 20
-1.588626861572265
 30
0.0
 40
0.412037193775177
100
AcDbArc
 50
314.9998382383154
 51
359.9999826971572
  0
ARC
  5
30
330
26
100
AcDbEntity
  8
0
  6
Continuous
 62
     7
100
AcDbCircle
 10
6.725593566894531
 20
-1.588626861572265
 30
0.0
 40
0.412037193775177
100
AcDbArc
 50
0.0
 51
89.99998201391065
  0
ARC
  5
31
330
26
100
AcDbEntity
  8
0
  6
Continuous
 62
     7
100
AcDbCircle
 10
9.706324577331542
 20
-1.348008155822753
 30
0.0
 40
0.2915999293327331
100
AcDbArc
 50
205.0009325610132
 51
236.0005930525732
  0
ARC
  5
32
330
26
100
AcDbEntity
  8
0
  6
Continuous
 62
     7
100
AcDbCircle
 10
3.028962135314941
 20
-1.434097290039062
 30
0.0
 40
0.2915999293327331
100
AcDbArc
 50
303.9994463347001
 51
334.9993902791106
  0
ARC
  5
33
330
26
100
AcDbEntity
  8
0
  6
Continuous
 62
     7
100
AcDbCircle
 10
3.32199478149414
 20
1.344635963439941
 30
0.0
 40
0.2915999293327331
100
AcDbArc
 50
123.9996255134803
 51
154.9999417032005
  0
ARC
  5
34
330
26
100
AcDbEntity
  8
0
  6
Continuous
 62
     7
100
AcDbCircle
 10
2.038494110107421
 20
1.393499374389648
 30
0.0
 40
0.2915999293327331
100
AcDbArc
 50
334.9988882602066
 51
55.99856608025141
  0
ARC
  5
35
330
26
100
AcDbEntity
  8
0
  6
Continuous
 62
     7
100
AcDbCircle
 10
-0.3615722060203552
 20
1.613658905029296
 30
0.0
 40
0.2915999293327331
100
AcDbArc
 50
124.0006090607208
 51
205.0002595600088
  0
ARC
  5
36
330
26
100
AcDbEntity
  8
0
  6
Continuous
 62
     7
100
AcDbCircle
 10
-3.196181297302246
 20
1.344635963439941
 30
0.0
 40
0.2915999293327331
100
AcDbArc
 50
24.99991645668862
 51
55.99987747657205
  0
ARC
  5
37
330
26
100
AcDbEntity
  8
0
  6
Continuous
 62
     7
100
AcDbCircle
 10
0.8897945284843444
 20
-1.345890045166015
 30
0.0
 40
0.1749599575996399
100
AcDbArc
 50
205.0003861458796
 51
335.0002986942702
  0
ARC
  5
38
330
26
100
AcDbEntity
  8
0
  6
Continuous
 62
     7
100
AcDbCircle
 10
-3.499093055725097
 20
-1.188255310058593
 30
0.0
 40
0.2915999293327331
100
AcDbArc
 50
270.0001819106294
 51
315.0003163515573
  0
ARC
  5
39
330
26
100
AcDbEntity
  8
0
  6
Continuous
 62
     7
100
AcDbCircle
 10
-5.769119262695312
 20
1.298173904418945
 30
0.0
 40
0.2915999293327331
100
AcDbArc
 50
133.0006673677765
 51
180.0005650844682
  0
ARC
  5
3A
330
26
100
AcDbEntity
  8
0
  6
Continuous
 62
     7
100
AcDbCircle
 10
-8.451834678649902
 20
-1.330237388610839
 30
0.0
 40
0.2915999293327331
100
AcDbArc
 50
312.9995866040259
 51
359.999929587228
  0
ARC
  5
3B
330
26
100
AcDbEntity
  8
0
  6
Continuous
 62
     7
100
AcDbCircle
 10
-8.451834678649902
 20
1.298173904418945
 30
0.0
 40
0.2915999293327331
100
AcDbArc
 50
359.9986770302106
 51
46.99901320719422
  0
ARC
  5
3C
330
26
100
AcDbEntity
  8
0
  6
Continuous
 62
     7
100
AcDbCircle
 10
-13.72395610809326
 20
-0.3850881457328796
 30
0.0
 40
1.749599456787109
100
AcDbArc
 50
180.0001452552054
 51
235.1504803877167
  0
ARC
  5
3D
330
26
100
AcDbEntity
  8
0
  6
Continuous
 62
     7
100
AcDbCircle
 10
-11.81398010253906
 20
-0.3535323739051819
 30
0.0
 40
1.749599456787109
100
AcDbArc
 50
306.7425459280256
 51
359.9999624930069
  0
ARC
  5
3E
330
26
100
AcDbEntity
  8
0
  6
Continuous
 62
     7
100
AcDbCircle
 10
-11.60986709594726
 20
-0.8664843440055847
 30
0.0
 40
0.5831999182701111
100
AcDbArc
 50
319.8303563401181
 51
359.9992788485525
  0
ARC
  5
3F
330
26
100
AcDbEntity
  8
0
  6
Continuous
 62
     7
100
AcDbCircle
 10
-12.79084777832031
 20
-0.866466462612152
 30
0.0
 40
0.5831999182701111
100
AcDbArc
 50
180.0000359721787
 51
220.16766814135
  0
ARC
  5
40
330
26
100
AcDbEntity
  8
0
  6
Continuous
 62
     7
100
AcDbCircle
 10
-12.20034885406494
 20
-0.3680287599563599
 30
0.0
 40
1.355938911437988
100
AcDbArc
 50
220.16766814135
 51
319.8309061703463
  0
ARC
  5
41
330
26
100
AcDbEntity
  8
0
  6
Continuous
 62
     7
100
AcDbCircle
 10
-12.79084777832031
 20
0.9550097584724426
 30
0.0
 40
3.382558822631835
100
AcDbArc
 50
235.1504257462033
 51
306.7425698336877
  0
ARC
  5
42
330
26
100
AcDbEntity
  8
0
  6
Continuous
 62
     7
100
AcDbCircle
 10
-9.772781372070312
 20
1.457438468933105
 30
0.0
 40
0.2915999293327331
100
AcDbArc
 50
124.0007183437475
 51
180.0013847071687
  0
ARC
  5
43
330
26
100
AcDbEntity
  8
0
  6
Continuous
 62
     7
100
AcDbCircle
 10
-11.31826686859131
 20
1.457429885864257
 30
0.0
 40
0.2915999293327331
100
AcDbArc
 50
359.9996313399246
 51
55.99980917468035
  0
ARC
  5
44
330
26
100
AcDbEntity
  8
0
  6
Continuous
 62
     7
100
AcDbCircle
 10
-13.082444190979
 20
1.427920341491699
 30
0.0
 40
0.2915999293327331
100
AcDbArc
 50
124.0011554758543
 51
180.0016579147355
  0
ARC
  5
45
330
26
100
AcDbEntity
  8
0
  6
Continuous
 62
     7
100
AcDbCircle
 10
-15.76515865325928
 20
1.427920341491699
 30
0.0
 40
0.2915999293327331
100
AcDbArc
 50
359.9993128519744
 51
55.99964183504568
  0
LINE
  5
46
330
26
100
AcDbEntity
  8
0
  6
Continuous
 62
     7
100
AcDbLine
 10
15.91095299155154
 20
2.203026444126066
 30
0.0
 11
15.66787800518454
 21
1.782000749431404
 31
0.0
  0
LINE
  5
47
330
26
100
AcDbEntity
  8
0
  6
Continuous
 62
     7
100
AcDbLine
 10
15.91095638275146
 20
2.203025817871093
 30
0.0
 11
16.08590698242187
 21
2.203025817871093
 31
0.0
  0
LINE
  5
48
330
26
100
AcDbEntity
  8
0
  6
Continuous
 62
     7
100
AcDbLine
 10
16.08590698242187
 20
2.203025817871093
 30
0.0
 11
16.08590698242187
 21
0.3951122164726257
 31
0.0
  0
LINE
  5
49
330
26
100
AcDbEntity
  8
0
  6
Continuous
 62
     7
100
AcDbLine
 10
15.51700305938721
 20
0.395121157169342
 30
0.0
 11
16.08378601074219
 21
0.395121157169342
 31
0.0
  0
LINE
  5
4A
330
26
100
AcDbEntity
  8
0
  6
Continuous
 62
     7
100
AcDbLine
 10
15.5052433013916
 20
-0.4446792602539063
 30
0.0
 11
16.08226013183594
 21
-0.4446792602539063
 31
0.0
  0
LINE
  5
4B
330
26
100
AcDbEntity
  8
0
  6
Continuous
 62
     7
100
AcDbLine
 10
4.769335810521056
 20
-2.028068048539296
 30
0.0
 11
4.462407658139113
 21
-1.813154723325624
 31
0.0
  0
LINE
  5
4C
330
26
100
AcDbEntity
  8
0
  6
Continuous
 62
     7
100
AcDbLine
 10
4.786353029670351
 20
-0.2045305541776656
 30
0.0
 11
5.502008218370519
 21
1.330197620244746
 31
0.0
  0
LINE
  5
4D
330
26
100
AcDbEntity
  8
0
  6
Continuous
 62
     7
100
AcDbLine
 10
6.868854585773135
 20
-2.028064260904329
 30
0.0
 11
7.016941487748056
 21
-1.87997819527419
 31
0.0
  0
LINE
  5
4E
330
26
100
AcDbEntity
  8
0
  6
Continuous
 62
     7
100
AcDbLine
 10
10.1930884949262
 20
-2.028065114513765
 30
0.0
 11
9.543269786605719
 21
-1.589756900558199
 31
0.0
  0
LINE
  5
4F
330
26
100
AcDbEntity
  8
0
  6
Continuous
 62
     7
100
AcDbLine
 10
2.669809025537517
 20
-2.028064321691431
 30
0.0
 11
3.192014703603831
 21
-1.675840001068195
 31
0.0
  0
LINE
  5
50
330
26
100
AcDbEntity
  8
0
  6
Continuous
 62
     7
100
AcDbLine
 10
1.666702460879797
 20
1.996014965814431
 30
0.0
 11
2.201558844887134
 21
1.635249837724881
 31
0.0
  0
LINE
  5
51
330
26
100
AcDbEntity
  8
0
  6
Continuous
 62
     7
100
AcDbLine
 10
3.766214234061223
 20
1.996016372405236
 30
0.0
 11
3.158927453370139
 21
1.586387991972813
 31
0.0
  0
LINE
  5
52
330
26
100
AcDbEntity
  8
0
  6
Continuous
 62
     7
100
AcDbLine
 10
-0.316183360254179
 20
1.99601225712718
 30
0.0
 11
-0.5246362356426744
 21
1.855405149121111
 31
0.0
  0
LINE
  5
53
330
26
100
AcDbEntity
  8
0
  6
Continuous
 62
     7
100
AcDbLine
 10
-3.640430755126633
 20
1.996018286959984
 30
0.0
 11
-3.033118654140398
 21
1.586381402116305
 31
0.0
  0
LINE
  5
54
330
26
100
AcDbEntity
  8
0
  6
Continuous
 62
     7
100
AcDbLine
 10
4.944927215576171
 20
-0.4534268975257874
 30
0.0
 11
6.376239776611328
 21
-0.4534268975257874
 31
0.0
  0
LINE
  5
55
330
26
100
AcDbEntity
  8
0
  6
Continuous
 62
     7
100
AcDbLine
 10
4.663116455078125
 20
-1.176588058471679
 30
0.0
 11
6.725593566894531
 21
-1.176588058471679
 31
0.0
  0
LINE
  5
56
330
26
100
AcDbEntity
  8
0
  6
Continuous
 62
     7
100
AcDbLine
 10
6.868857383728027
 20
-2.028063774108886
 30
0.0
 11
6.868857383728027
 21
-2.203017234802246
 31
0.0
  0
LINE
  5
57
330
26
100
AcDbEntity
  8
0
  6
Continuous
 62
     7
100
AcDbLine
 10
10.19308757781982
 20
-2.028063774108886
 30
0.0
 11
10.19308757781982
 21
-2.203017234802246
 31
0.0
  0
LINE
  5
58
330
26
100
AcDbEntity
  8
0
  6
Continuous
 62
     7
100
AcDbLine
 10
6.868857383728027
 20
-2.203017234802246
 30
0.0
 11
10.19308757781982
 21
-2.203017234802246
 31
0.0
  0
LINE
  5
59
330
26
100
AcDbEntity
  8
0
  6
Continuous
 62
     7
100
AcDbLine
 10
4.769333839416503
 20
-2.028063774108886
 30
0.0
 11
4.769333839416503
 21
-2.203017234802246
 31
0.0
  0
LINE
  5
5A
330
26
100
AcDbEntity
  8
0
  6
Continuous
 62
     7
100
AcDbLine
 10
2.66981029510498
 20
-2.028063774108886
 30
0.0
 11
2.66981029510498
 21
-2.203017234802246
 31
0.0
  0
LINE
  5
5B
330
26
100
AcDbEntity
  8
0
  6
Continuous
 62
     7
100
AcDbLine
 10
5.819153250643012
 20
1.330187368560018
 30
0.0
 11
6.534805316648544
 21
-0.2045328250937928
 31
0.0
  0
LINE
  5
5C
330
26
100
AcDbEntity
  8
0
  6
Continuous
 62
     7
100
AcDbLine
 10
7.74364845837681
 20
2.170978610602105
 30
0.0
 11
9.442048205501123
 21
-1.47124994238311
 31
0.0
  0
LINE
  5
5D
330
26
100
AcDbEntity
  8
0
  6
Continuous
 62
     7
100
AcDbLine
 10
5.031767652018402
 20
2.170981208404668
 30
0.0
 11
3.293234817664369
 21
-1.557329607313472
 31
0.0
  0
LINE
  5
5E
330
26
100
AcDbEntity
  8
0
  6
Continuous
 62
     7
100
AcDbLine
 10
2.66981029510498
 20
-2.203017234802246
 30
0.0
 11
4.769333839416503
 21
-2.203017234802246
 31
0.0
  0
LINE
  5
5F
330
26
100
AcDbEntity
  8
0
  6
Continuous
 62
     7
100
AcDbLine
 10
5.031771659851074
 20
2.17098045349121
 30
0.0
 11
7.743658065795898
 21
2.17098045349121
 31
0.0
  0
LINE
  5
60
330
26
100
AcDbEntity
  8
0
  6
Continuous
 62
     7
100
AcDbLine
 10
1.666696548461914
 20
2.17098045349121
 30
0.0
 11
3.766211509704589
 21
2.17098045349121
 31
0.0
  0
LINE
  5
61
330
26
100
AcDbEntity
  8
0
  6
Continuous
 62
     7
100
AcDbLine
 10
1.048352377392326
 20
-1.419827943414279
 30
0.0
 11
2.302766129001895
 21
1.270267143691626
 31
0.0
  0
LINE
  5
62
330
26
100
AcDbEntity
  8
0
  6
Continuous
 62
     7
100
AcDbLine
 10
1.34593931479776
 20
-2.203016781251562
 30
0.0
 11
3.05770653603156
 21
1.467874570347078
 31
0.0
  0
LINE
  5
63
330
26
100
AcDbEntity
  8
0
  6
Continuous
 62
     7
100
AcDbLine
 10
0.7312247333698352
 20
-1.419837237695666
 30
0.0
 11
-0.6258496826600535
 21
1.490418496482739
 31
0.0
  0
LINE
  5
64
330
26
100
AcDbEntity
  8
0
  6
Continuous
 62
     7
100
AcDbLine
 10
-1.220137154431597
 20
-2.203020743637864
 30
0.0
 11
-2.931900993750957
 21
1.467868980679725
 31
0.0
  0
LINE
  5
65
330
26
100
AcDbEntity
  8
0
  6
Continuous
 62
     7
100
AcDbLine
 10
1.666696548461914
 20
2.17098045349121
 30
0.0
 11
1.666696548461914
 21
1.99601936340332
 31
0.0
  0
LINE
  5
66
330
26
100
AcDbEntity
  8
0
  6
Continuous
 62
     7
100
AcDbLine
 10
3.766211509704589
 20
2.17098045349121
 30
0.0
 11
3.766211509704589
 21
1.99601936340332
 31
0.0
  0
LINE
  5
67
330
26
100
AcDbEntity
  8
0
  6
Continuous
 62
     7
100
AcDbLine
 10
-0.3161876797676086
 20
2.17098045349121
 30
0.0
 11
-0.3161876797676086
 21
1.99601936340332
 31
0.0
  0
LINE
  5
68
330
26
100
AcDbEntity
  8
0
  6
Continuous
 62
     7
100
AcDbLine
 10
-3.640434265136718
 20
2.17098045349121
 30
0.0
 11
-3.640434265136718
 21
1.99601936340332
 31
0.0
  0
LINE
  5
69
330
26
100
AcDbEntity
  8
0
  6
Continuous
 62
     7
100
AcDbLine
 10
-1.220130920410156
 20
-2.203017234802246
 30
0.0
 11
1.34594440460205
 21
-2.203017234802246
 31
0.0
  0
LINE
  5
6A
330
26
100
AcDbEntity
  8
0
  6
Continuous
 62
     7
100
AcDbLine
 10
-3.640434265136718
 20
2.17098045349121
 30
0.0
 11
-0.3161876797676086
 21
2.17098045349121
 31
0.0
  0
LINE
  5
6B
330
26
100
AcDbEntity
  8
0
  6
Continuous
 62
     7
100
AcDbLine
 10
-2.734547621994465
 20
-0.8360917403699659
 30
0.0
 11
-3.292898177013967
 21
-1.394446484228922
 31
0.0
  0
LINE
  5
6C
330
26
100
AcDbEntity
  8
0
  6
Continuous
 62
     7
100
AcDbLine
 10
-2.734549522399902
 20
-0.8360894918441772
 30
0.0
 11
-2.559597015380859
 21
-0.8360894918441772
 31
0.0
  0
LINE
  5
6D
330
26
100
AcDbEntity
  8
0
  6
Continuous
 62
     7
100
AcDbLine
 10
-2.800630599907208
 20
-2.203016759422325
 30
0.0
 11
-2.559604441927604
 21
-0.8360890619187557
 31
0.0
  0
LINE
  5
6E
330
26
100
AcDbEntity
  8
0
  6
Continuous
 62
     7
100
AcDbLine
 10
-6.060719490051269
 20
-1.479854583740234
 30
0.0
 11
-3.499093055725097
 21
-1.479854583740234
 31
0.0
  0
LINE
  5
6F
330
26
100
AcDbEntity
  8
0
  6
Continuous
 62
     7
100
AcDbLine
 10
-8.772604942321777
 20
-2.02807331085205
 30
0.0
 11
-8.772604942321777
 21
-2.203017234802246
 31
0.0
  0
LINE
  5
70
330
26
100
AcDbEntity
  8
0
  6
Continuous
 62
     7
100
AcDbLine
 10
-8.772597861236079
 20
-2.028063652604544
 30
0.0
 11
-8.25296186146528
 21
-1.543501462522669
 31
0.0
  0
LINE
  5
71
330
26
100
AcDbEntity
  8
0
  6
Continuous
 62
     7
100
AcDbLine
 10
-5.44835551145411
 20
1.996011198417591
 30
0.0
 11
-5.967990972767211
 21
1.511438653587447
 31
0.0
  0
LINE
  5
72
330
26
100
AcDbEntity
  8
0
  6
Continuous
 62
     7
100
AcDbLine
 10
-8.772599279721987
 20
1.996015901901103
 30
0.0
 11
-8.252954536914046
 21
1.511437938962501
 31
0.0
  0
LINE
  5
73
330
26
100
AcDbEntity
  8
0
  6
Continuous
 62
     7
100
AcDbLine
 10
-6.060719490051269
 20
1.298173904418945
 30
0.0
 11
-6.060719490051269
 21
-1.479854583740234
 31
0.0
  0
LINE
  5
74
330
26
100
AcDbEntity
  8
0
  6
Continuous
 62
     7
100
AcDbLine
 10
-8.160234451293945
 20
1.298173904418945
 30
0.0
 11
-8.160234451293945
 21
-1.330237388610839
 31
0.0
  0
LINE
  5
75
330
26
100
AcDbEntity
  8
0
  6
Continuous
 62
     7
100
AcDbLine
 10
-5.448357582092285
 20
2.17098045349121
 30
0.0
 11
-5.448357582092285
 21
1.996001243591308
 31
0.0
  0
LINE
  5
76
330
26
100
AcDbEntity
  8
0
  6
Continuous
 62
     7
100
AcDbLine
 10
-8.772604942321777
 20
2.17098045349121
 30
0.0
 11
-5.448357582092285
 21
2.17098045349121
 31
0.0
  0
LINE
  5
77
330
26
100
AcDbEntity
  8
0
  6
Continuous
 62
     7
100
AcDbLine
 10
-8.772604942321777
 20
2.17098045349121
 30
0.0
 11
-8.772604942321777
 21
1.996010780334472
 31
0.0
  0
LINE
  5
78
330
26
100
AcDbEntity
  8
0
  6
Continuous
 62
     7
100
AcDbLine
 10
-11.59529113769531
 20
2.17098045349121
 30
0.0
 11
-9.49577522277832
 21
2.17098045349121
 31
0.0
  0
LINE
  5
79
330
26
100
AcDbEntity
  8
0
  6
Continuous
 62
     7
100
AcDbLine
 10
-9.495770445682353
 20
1.996022860396806
 30
0.0
 11
-9.935840858268136
 21
1.699191645651239
 31
0.0
  0
LINE
  5
7A
330
26
100
AcDbEntity
  8
0
  6
Continuous
 62
     7
100
AcDbLine
 10
-11.59528471490597
 20
1.996017233212967
 30
0.0
 11
-11.15519997602627
 21
1.699176514207408
 31
0.0
  0
LINE
  5
7B
330
26
100
AcDbEntity
  8
0
  6
Continuous
 62
     7
100
AcDbLine
 10
-10.06438159942627
 20
1.457438468933105
 30
0.0
 11
-10.06438159942627
 21
-0.3535324335098267
 31
0.0
  0
LINE
  5
7C
330
26
100
AcDbEntity
  8
0
  6
Continuous
 62
     7
100
AcDbLine
 10
-11.02666664123535
 20
1.457429885864257
 30
0.0
 11
-11.02666664123535
 21
-0.8664843440055847
 31
0.0
  0
LINE
  5
7D
330
26
100
AcDbEntity
  8
0
  6
Continuous
 62
     7
100
AcDbLine
 10
-12.76167269498671
 20
1.996031521753025
 30
0.0
 11
-13.2455055590508
 21
1.669679172509631
 31
0.0
  0
LINE
  5
7E
330
26
100
AcDbEntity
  8
0
  6
Continuous
 62
     7
100
AcDbLine
 10
-16.08591717207486
 20
1.996009155072101
 30
0.0
 11
-15.60208831185804
 21
1.669662799920956
 31
0.0
  0
LINE
  5
7F
330
26
100
AcDbEntity
  8
0
  6
Continuous
 62
     7
100
AcDbLine
 10
-13.37405014038086
 20
1.427920341491699
 30
0.0
 11
-13.37405014038086
 21
-0.866466462612152
 31
0.0
  0
LINE
  5
80
330
26
100
AcDbEntity
  8
0
  6
Continuous
 62
     7
100
AcDbLine
 10
-15.4735631942749
 20
1.427920341491699
 30
0.0
 11
-15.4735631942749
 21
-0.3850880265235901
 31
0.0
  0
LINE
  5
81
330
26
100
AcDbEntity
  8
0
  6
Continuous
 62
     7
100
AcDbLine
 10
-11.59529113769531
 20
2.17098045349121
 30
0.0
 11
-11.59529113769531
 21
1.996010780334472
 31
0.0
  0
LINE
  5
82
330
26
100
AcDbEntity
  8
0
  6
Continuous
 62
     7
100
AcDbLine
 10
-12.76168155670166
 20
2.17098045349121
 30
0.0
 11
-12.76168155670166
 21
1.99601936340332
 31
0.0
  0
LINE
  5
83
330
26
100
AcDbEntity
  8
0
  6
Continuous
 62
     7
100
AcDbLine
 10
-9.49577522277832
 20
2.17098045349121
 30
0.0
 11
-9.49577522277832
 21
1.99601936340332
 31
0.0
  0
LINE
  5
84
330
26
100
AcDbEntity
  8
0
  6
Continuous
 62
     7
100
AcDbLine
 10
-16.08592224121094
 20
2.17098045349121
 30
0.0
 11
-16.08592224121094
 21
1.99601936340332
 31
0.0
  0
LINE
  5
85
330
26
100
AcDbEntity
  8
0
  6
Continuous
 62
     7
100
AcDbLine
 10
-8.772604942321777
 20
-2.203017234802246
 30
0.0
 11
-2.800623893737792
 21
-2.203017234802246
 31
0.0
  0
LINE
  5
86
330
26
100
AcDbEntity
  8
0
  6
Continuous
 62
     7
100
AcDbLine
 10
-16.08592224121094
 20
2.17098045349121
 30
0.0
 11
-12.76168155670166
 21
2.17098045349121
 31
0.0
  0
POINT
  5
87
330
26
100
AcDbEntity
  8
0
  6
Continuous
 62
     7
100
AcDbPoint
 10
0.0
 20
0.0
 30
0.0
  0
ENDBLK
  5
88
330
26
100
AcDbEntity
  8
0
370
    -2
100
AcDbBlockEnd
  0
BLOCK
  5
8A
330
89
100
AcDbEntity
  8
0
  6
ByBlock
 62
     0
370
    -2
100
AcDbBlockBegin
  2
*D1
 70
     1
 10
0.0
 20
0.0
 30
0.0
  3
*D1
  1

  0
LINE
  5
8B
330
89
100
AcDbEntity
  8
0
  6
Continuous
 62
     7
100
AcDbLine
 10
-455.8698967714621
 20
526.1073224826556
 30
0.0
 11
285.6300311441715
 21
526.1073224826556
 31
0.0
  0
LINE
  5
8C
330
89
100
AcDbEntity
  8
0
  6
Continuous
 62
     7
100
AcDbLine
 10
-455.8698967714621
 20
-189.033986491074
 30
0.0
 11
-455.8698967714621
 21
538.0960002825259
 31
0.0
  0
LINE
  5
8D
330
89
100
AcDbEntity
  8
0
  6
Continuous
 62
     7
100
AcDbLine
 10
285.6300311441715
 20
-189.0329488934177
 30
0.0
 11
285.6300311441715
 21
538.0960002825259
 31
0.0
  0
INSERT
  5
94
330
89
100
AcDbEntity
  8
0
  6
Continuous
 62
     7
100
AcDbBlockReference
  2
_OPEN30
 10
-455.8698967714621
 20
526.1073224826556
 30
0.0
 41
27.69999958723784
 42
27.69999958723784
 43
27.69999958723784
 50
180.0
  0
INSERT
  5
95
330
89
100
AcDbEntity
  8
0
  6
Continuous
 62
     7
100
AcDbBlockReference
  2
_OPEN30
 10
285.6300311441715
 20
526.1073224826556
 30
0.0
 41
27.69999958723784
 42
27.69999958723784
 43
27.69999958723784
  0
MTEXT
  5
97
330
89
100
AcDbEntity
  8
0
  6
Continuous
 62
     7
100
AcDbMText
 10
-85.11992728904038
 20
556.9432223298665
 30
0.0
 40
41.67179999244511
 41
0.0
 71
     5
 72
     1
  1
\A1;741
  7
MX_DIMTXSTY_2
 73
     1
 44
0.9000000901137655
1001
ACAD
1000
MTEXTBEGIN
1070
    73
1070
     1
1070
    44
1040
0.9000000901137655
1070
    74
1070
     0
1000
MTEXTEND
  0
POINT
  5
98
330
89
100
AcDbEntity
  8
DEFPOINTS
  6
Continuous
 62
     0
100
AcDbPoint
 10
-455.8698967714621
 20
-201.7339861110944
 30
0.0
  0
POINT
  5
99
330
89
100
AcDbEntity
  8
DEFPOINTS
  6
Continuous
 62
     0
100
AcDbPoint
 10
285.6300311441715
 20
-201.7329485134382
 30
0.0
  0
POINT
  5
9A
330
89
100
AcDbEntity
  8
DEFPOINTS
  6
Continuous
 62
     0
100
AcDbPoint
 10
285.6300311441715
 20
526.1073224826556
 30
0.0
  0
ENDBLK
  5
9B
330
89
100
AcDbEntity
  8
0
  6
ByBlock
 62
     0
370
    -2
100
AcDbBlockEnd
  0
BLOCK
  5
8F
330
8E
100
AcDbEntity
  8
0
  6
ByBlock
 62
     0
370
    -2
100
AcDbBlockBegin
  2
_OPEN30
 70
     2
 10
0.0
 20
0.0
 30
0.0
  3
_OPEN30
  1

  0
LINE
  5
90
330
8E
100
AcDbEntity
  8
0
  6
ByBlock
 62
     0
370
    -2
100
AcDbLine
 10
-1.0
 20
0.267949
 30
0.0
 11
0.0
 21
0.0
 31
0.0
  0
LINE
  5
91
330
8E
100
AcDbEntity
  8
0
  6
ByBlock
 62
     0
370
    -2
100
AcDbLine
 10
0.0
 20
0.0
 30
0.0
 11
-1.0
 21
-0.267949
 31
0.0
  0
LINE
  5
92
330
8E
100
AcDbEntity
  8
0
  6
ByBlock
 62
     0
370
    -2
100
AcDbLine
 10
0.0
 20
0.0
 30
0.0
 11
-1.0
 21
0.0
 31
0.0
  0
ENDBLK
  5
93
330
8E
100
AcDbEntity
  8
0
  6
ByBlock
 62
     0
370
    -2
100
AcDbBlockEnd
  0
BLOCK
  5
9E
330
9D
100
AcDbEntity
  8
0
  6
ByBlock
 62
     0
370
    -2
100
AcDbBlockBegin
  2
*D3
 70
     1
 10
0.0
 20
0.0
 30
0.0
  3
*D3
  1

  0
LINE
  5
9F
330
9D
100
AcDbEntity
  8
0
  6
Continuous
 62
     7
100
AcDbLine
 10
296.3638261502411
 20
-410.7339416334935
 30
0.0
 11
296.3638261502411
 21
-465.7339408139296
 31
0.0
  0
LINE
  5
A0
330
9D
100
AcDbEntity
  8
0
  6
Continuous
 62
     7
100
AcDbLine
 10
296.3638261502411
 20
-465.7339408139296
 30
0.0
 11
296.3638261502411
 21
-628.9588282394775
 31
0.0
  0
LINE
  5
A1
330
9D
100
AcDbEntity
  8
0
  6
Continuous
 62
     7
100
AcDbLine
 10
35.89753548705836
 20
-410.7339416334935
 30
0.0
 11
308.3525039501115
 21
-410.7339416334935
 31
0.0
  0
LINE
  5
A2
330
9D
100
AcDbEntity
  8
0
  6
Continuous
 62
     7
100
AcDbLine
 10
88.33007638061307
 20
-465.7339408139296
 30
0.0
 11
308.3525039501115
 21
-465.7339408139296
 31
0.0
  0
LINE
  5
A3
330
9D
100
AcDbEntity
  8
0
  6
Continuous
 62
     7
100
AcDbLine
 10
296.3638261502411
 20
-410.7339416334935
 30
0.0
 11
296.3638261502411
 21
-347.2339435333916
 31
0.0
  0
LINE
  5
A4
330
9D
100
AcDbEntity
  8
0
  6
Continuous
 62
     7
100
AcDbLine
 10
296.3638261502411
 20
-465.7339408139296
 30
0.0
 11
296.3638261502411
 21
-529.2339389140315
 31
0.0
  0
INSERT
  5
A5
330
9D
100
AcDbEntity
  8
0
  6
Continuous
 62
     7
100
AcDbBlockReference
  2
_OPEN30
 10
296.3638261502411
 20
-410.7339416334935
 30
0.0
 41
27.69999958723784
 42
27.69999958723784
 43
27.69999958723784
 50
270.0
  0
INSERT
  5
A6
330
9D
100
AcDbEntity
  8
0
  6
Continuous
 62
     7
100
AcDbBlockReference
  2
_OPEN30
 10
296.3638261502411
 20
-465.7339408139296
 30
0.0
 41
27.69999958723784
 42
27.69999958723784
 43
27.69999958723784
 50
90.0
  0
MTEXT
  5
A8
330
9D
100
AcDbEntity
  8
0
  6
Continuous
 62
     7
100
AcDbMText
 10
265.5279263030301
 20
-545.6152282545872
 30
0.0
 40
41.67179999244511
 41
0.0
 71
     5
 72
     1
  1
\A1;(55)
  7
MX_DIMTXSTY_3
 11
-0.0000000000000001
 21
1.0
 31
0.0
 73
     1
 44
0.9000000901137655
1001
ACAD
1000
MTEXTBEGIN
1070
    73
1070
     1
1070
    44
1040
0.9000000901137655
1070
    74
1070
     0
1000
MTEXTEND
  0
POINT
  5
A9
330
9D
100
AcDbEntity
  8
DEFPOINTS
  6
Continuous
 62
     0
100
AcDbPoint
 10
23.19753586703797
 20
-410.7339416334935
 30
0.0
  0
POINT
  5
AA
330
9D
100
AcDbEntity
  8
DEFPOINTS
  6
Continuous
 62
     0
100
AcDbPoint
 10
75.63007676059266
 20
-465.7339408139296
 30
0.0
  0
POINT
  5
AB
330
9D
100
AcDbEntity
  8
DEFPOINTS
  6
Continuous
 62
     0
100
AcDbPoint
 10
296.3638261502411
 20
-465.7339408139296
 30
0.0
  0
ENDBLK
  5
AC
330
9D
100
AcDbEntity
  8
0
  6
ByBlock
 62
     0
370
    -2
100
AcDbBlockEnd
  0
BLOCK
  5
AF
330
AE
100
AcDbEntity
  8
0
  6
ByBlock
 62
     0
370
    -2
100
AcDbBlockBegin
  2
*D4
 70
     1
 10
0.0
 20
0.0
 30
0.0
  3
*D4
  1

  0
LINE
  5
B0
330
AE
100
AcDbEntity
  8
0
  6
Continuous
 62
     7
100
AcDbLine
 10
-489.3699573074287
 20
35.67374176273135
 30
0.0
 11
-455.8698967714621
 21
35.67374176273135
 31
0.0
  0
LINE
  5
B1
330
AE
100
AcDbEntity
  8
0
  6
Continuous
 62
     7
100
AcDbLine
 10
-678.1673536790377
 20
35.67374176273135
 30
0.0
 11
-489.3699573074287
 21
35.67374176273135
 31
0.0
  0
LINE
  5
B2
330
AE
100
AcDbEntity
  8
0
  6
Continuous
 62
     7
100
AcDbLine
 10
-489.3699573074287
 20
-163.0339429434201
 30
0.0
 11
-489.3699573074287
 21
47.6625721504901
 31
0.0
  0
LINE
  5
B3
330
AE
100
AcDbEntity
  8
0
  6
Continuous
 62
     7
100
AcDbLine
 10
-455.8698967714621
 20
-189.0340039785764
 30
0.0
 11
-455.8698967714621
 21
47.6625721504901
 31
0.0
  0
LINE
  5
B4
330
AE
100
AcDbEntity
  8
0
  6
Continuous
 62
     7
100
AcDbLine
 10
-489.3699573074287
 20
35.67374176273135
 30
0.0
 11
-552.8699554075306
 21
35.67374176273135
 31
0.0
  0
LINE
  5
B5
330
AE
100
AcDbEntity
  8
0
  6
Continuous
 62
     7
100
AcDbLine
 10
-455.8698967714621
 20
35.67374176273135
 30
0.0
 11
-392.3698986713603
 21
35.67374176273134
 31
0.0
  0
INSERT
  5
B6
330
AE
100
AcDbEntity
  8
0
  6
Continuous
 62
     7
100
AcDbBlockReference
  2
_OPEN30
 10
-489.3699573074287
 20
35.67374176273135
 30
0.0
 41
27.69999958723784
 42
27.69999958723784
 43
27.69999958723784
  0
INSERT
  5
B7
330
AE
100
AcDbEntity
  8
0
  6
Continuous
 62
     7
100
AcDbBlockReference
  2
_OPEN30
 10
-455.8698967714621
 20
35.67374176273135
 30
0.0
 41
27.69999958723784
 42
27.69999958723784
 43
27.69999958723784
 50
180.0
  0
MTEXT
  5
B8
330
AE
100
AcDbEntity
  8
0
  6
Continuous
 62
     7
100
AcDbMText
 10
-594.8237536941475
 20
66.50964160994229
 30
0.0
 40
41.67179999244511
 41
0.0
 71
     5
 72
     1
  1
\A1;(34)
  7
MX_DIMTXSTY_3
 73
     1
 44
0.9000000901137655
1001
ACAD
1000
MTEXTBEGIN
1070
    73
1070
     1
1070
    44
1040
0.9000000901137655
1070
    74
1070
     0
1000
MTEXTEND
  0
POINT
  5
B9
330
AE
100
AcDbEntity
  8
DEFPOINTS
  6
Continuous
 62
     0
100
AcDbPoint
 10
-489.3699573074287
 20
-175.7339425634405
 30
0.0
  0
POINT
  5
BA
330
AE
100
AcDbEntity
  8
DEFPOINTS
  6
Continuous
 62
     0
100
AcDbPoint
 10
-455.8698967714621
 20
-201.7340035985967
 30
0.0
  0
POINT
  5
BB
330
AE
100
AcDbEntity
  8
DEFPOINTS
  6
Continuous
 62
     0
100
AcDbPoint
 10
-455.8698967714621
 20
35.67374176273135
 30
0.0
  0
ENDBLK
  5
BC
330
AE
100
AcDbEntity
  8
0
  6
ByBlock
 62
     0
370
    -2
100
AcDbBlockEnd
  0
BLOCK
  5
BF
330
BE
100
AcDbEntity
  8
0
  6
ByBlock
 62
     0
370
    -2
100
AcDbBlockBegin
  2
*D5
 70
     1
 10
0.0
 20
0.0
 30
0.0
  3
*D5
  1

  0
LINE
  5
C0
330
BE
100
AcDbEntity
  8
0
  6
Continuous
 62
     7
100
AcDbLine
 10
5.630140220669802
 20
663.029164924783
 30
0.0
 11
-234.3699611072247
 21
663.029164924783
 31
0.0
  0
LINE
  5
C1
330
BE
100
AcDbEntity
  8
0
  6
Continuous
 62
     7
100
AcDbLine
 10
5.630140220669803
 20
898.4054897676532
 30
0.0
 11
5.630140220669802
 21
651.0403345370242
 31
0.0
  0
LINE
  5
C2
330
BE
100
AcDbEntity
  8
0
  6
Continuous
 62
     7
100
AcDbLine
 10
-234.3699611072247
 20
792.2055385957782
 30
0.0
 11
-234.3699611072247
 21
651.0403345370242
 31
0.0
  0
INSERT
  5
C3
330
BE
100
AcDbEntity
  8
0
  6
Continuous
 62
     7
100
AcDbBlockReference
  2
_OPEN30
 10
5.630140220669802
 20
663.029164924783
 30
0.0
 41
27.69999958723784
 42
27.69999958723784
 43
27.69999958723784
  0
INSERT
  5
C4
330
BE
100
AcDbEntity
  8
0
  6
Continuous
 62
     7
100
AcDbBlockReference
  2
_OPEN30
 10
-234.3699611072247
 20
663.029164924783
 30
0.0
 41
27.69999958723784
 42
27.69999958723784
 43
27.69999958723784
 50
180.0
  0
MTEXT
  5
C5
330
BE
100
AcDbEntity
  8
0
  6
Continuous
 62
     7
100
AcDbMText
 10
-114.3698902969083
 20
693.8650647719939
 30
0.0
 40
41.67179999244511
 41
0.0
 71
     5
 72
     1
  1
\A1;(240)
  7
MX_DIMTXSTY_3
 73
     1
 44
0.9000000901137655
1001
ACAD
1000
MTEXTBEGIN
1070
    73
1070
     1
1070
    44
1040
0.9000000901137655
1070
    74
1070
     0
1000
MTEXTEND
  0
POINT
  5
C6
330
BE
100
AcDbEntity
  8
DEFPOINTS
  6
Continuous
 62
     0
100
AcDbPoint
 10
5.630140220669802
 20
911.1054893876737
 30
0.0
  0
POINT
  5
C7
330
BE
100
AcDbEntity
  8
DEFPOINTS
  6
Continuous
 62
     0
100
AcDbPoint
 10
-234.3699611072247
 20
804.9055382157986
 30
0.0
  0
POINT
  5
C8
330
BE
100
AcDbEntity
  8
DEFPOINTS
  6
Continuous
 62
     0
100
AcDbPoint
 10
-234.3699611072247
 20
663.029164924783
 30
0.0
  0
ENDBLK
  5
C9
330
BE
100
AcDbEntity
  8
0
  6
ByBlock
 62
     0
370
    -2
100
AcDbBlockEnd
  0
BLOCK
  5
CC
330
CB
100
AcDbEntity
  8
0
  6
ByBlock
 62
     0
370
    -2
100
AcDbBlockBegin
  2
*D6
 70
     1
 10
0.0
 20
0.0
 30
0.0
  3
*D6
  1

  0
LINE
  5
CD
330
CB
100
AcDbEntity
  8
0
  6
Continuous
 62
     7
100
AcDbLine
 10
-916.5448151714915
 20
-102.9443722701757
 30
0.0
 11
-1317.282478937044
 21
-348.5233171535528
 31
0.0
  0
INSERT
  5
CE
330
CB
100
AcDbEntity
  8
0
  6
Continuous
 62
     7
100
AcDbBlockReference
  2
_OPEN30
 10
-916.5448151714915
 20
-102.9443722701757
 30
0.0
 41
27.69999958723784
 42
27.69999958723784
 43
27.69999958723784
 50
31.50068484134144
  0
INSERT
  5
CF
330
CB
100
AcDbEntity
  8
0
  6
Continuous
 62
     7
100
AcDbBlockReference
  2
_OPEN30
 10
-1317.282478937044
 20
-348.5233171535528
 30
0.0
 41
27.69999958723784
 42
27.69999958723784
 43
27.69999958723784
 50
211.5006848413414
  0
MTEXT
  5
D0
102
{ACAD_XDICTIONARY
360
553
102
}
330
CB
100
AcDbEntity
  8
0
  6
Continuous
 62
     7
100
AcDbMText
 10
-1248.317282056836
 20
-270.0947939737335
 30
0.0
 40
41.67179999244511
 41
0.0
 71
     5
 72
     1
  1
\A1;\U+2205470
 11
0.8526339190056434
 21
0.5225087560616357
 31
0.0
 73
     1
 44
0.9000000901137655
1001
ACAD
1000
MTEXTBEGIN
1070
    73
1070
     1
1070
    44
1040
0.9000000901137655
1070
    74
1070
     0
1000
MTEXTEND
  0
POINT
  5
D1
330
CB
100
AcDbEntity
  8
DEFPOINTS
  6
Continuous
 62
     0
100
AcDbPoint
 10
-1317.282478937044
 20
-348.5233171535528
 30
0.0
  0
POINT
  5
D2
330
CB
100
AcDbEntity
  8
DEFPOINTS
  6
Continuous
 62
     0
100
AcDbPoint
 10
-916.5448151714915
 20
-102.9443722701757
 30
0.0
  0
ENDBLK
  5
D3
330
CB
100
AcDbEntity
  8
0
  6
ByBlock
 62
     0
370
    -2
100
AcDbBlockEnd
  0
BLOCK
  5
D6
330
D5
100
AcDbEntity
  8
0
  6
ByBlock
 62
     0
370
    -2
100
AcDbBlockBegin
  2
*D7
 70
     1
 10
0.0
 20
0.0
 30
0.0
  3
*D7
  1

  0
LINE
  5
D7
330
D5
100
AcDbEntity
  8
0
  6
Continuous
 62
     7
100
AcDbLine
 10
483.5269092987938
 20
84.26605099043174
 30
0.0
 11
483.5269092987938
 21
-465.7339408139296
 31
0.0
  0
LINE
  5
D8
330
D5
100
AcDbEntity
  8
0
  6
Continuous
 62
     7
100
AcDbLine
 10
100.5877182449861
 20
84.26605099043174
 30
0.0
 11
495.5155870986642
 21
84.26605099043174
 31
0.0
  0
LINE
  5
D9
330
D5
100
AcDbEntity
  8
0
  6
Continuous
 62
     7
100
AcDbLine
 10
88.33008885045485
 20
-465.7339408139296
 30
0.0
 11
495.5155870986642
 21
-465.7339408139296
 31
0.0
  0
INSERT
  5
DA
330
D5
100
AcDbEntity
  8
0
  6
Continuous
 62
     7
100
AcDbBlockReference
  2
_OPEN30
 10
483.5269092987938
 20
84.26605099043174
 30
0.0
 41
27.69999958723784
 42
27.69999958723784
 43
27.69999958723784
 50
90.0
  0
INSERT
  5
DB
330
D5
100
AcDbEntity
  8
0
  6
Continuous
 62
     7
100
AcDbBlockReference
  2
_OPEN30
 10
483.5269092987938
 20
-465.7339408139296
 30
0.0
 41
27.69999958723784
 42
27.69999958723784
 43
27.69999958723784
 50
270.0
  0
MTEXT
  5
DD
330
D5
100
AcDbEntity
  8
0
  6
Continuous
 62
     7
100
AcDbMText
 10
452.6910094515828
 20
-190.7339490095683
 30
0.0
 40
41.67179999244511
 41
0.0
 71
     5
 72
     1
  1
\A1;550
  7
MX_DIMTXSTY_4
 11
-0.0000000000000001
 21
1.0
 31
0.0
 73
     1
 44
0.9000000901137655
1001
ACAD
1000
MTEXTBEGIN
1070
    73
1070
     1
1070
    44
1040
0.9000000901137655
1070
    74
1070
     0
1000
MTEXTEND
  0
POINT
  5
DE
330
D5
100
AcDbEntity
  8
DEFPOINTS
  6
Continuous
 62
     0
100
AcDbPoint
 10
87.8877186249657
 20
84.26605099043174
 30
0.0
  0
POINT
  5
DF
330
D5
100
AcDbEntity
  8
DEFPOINTS
  6
Continuous
 62
     0
100
AcDbPoint
 10
75.63008923043446
 20
-465.7339408139296
 30
0.0
  0
POINT
  5
E0
330
D5
100
AcDbEntity
  8
DEFPOINTS
  6
Continuous
 62
     0
100
AcDbPoint
 10
483.5269092987938
 20
-465.7339408139296
 30
0.0
  0
ENDBLK
  5
E1
330
D5
100
AcDbEntity
  8
0
  6
ByBlock
 62
     0
370
    -2
100
AcDbBlockEnd
  0
BLOCK
  5
E4
330
E3
100
AcDbEntity
  8
0
  6
ByBlock
 62
     0
370
    -2
100
AcDbBlockBegin
  2
*D8
 70
     1
 10
0.0
 20
0.0
 30
0.0
  3
*D8
  1

  0
LINE
  5
E5
330
E3
100
AcDbEntity
  8
0
  6
Continuous
 62
     7
100
AcDbLine
 10
-234.3699611072247
 20
392.8262270565893
 30
0.0
 11
15.63003516748495
 21
392.8262270565893
 31
0.0
  0
LINE
  5
E6
330
E3
100
AcDbEntity
  8
0
  6
Continuous
 62
     7
100
AcDbLine
 10
-234.3699611072247
 20
313.9316832195784
 30
0.0
 11
-234.3699611072247
 21
404.8149048564597
 31
0.0
  0
LINE
  5
E7
330
E3
100
AcDbEntity
  8
0
  6
Continuous
 62
     7
100
AcDbLine
 10
15.63003516748495
 20
189.4660460125471
 30
0.0
 11
15.63003516748495
 21
404.8149048564597
 31
0.0
  0
INSERT
  5
E8
330
E3
100
AcDbEntity
  8
0
  6
Continuous
 62
     7
100
AcDbBlockReference
  2
_OPEN30
 10
-234.3699611072247
 20
392.8262270565893
 30
0.0
 41
27.69999958723784
 42
27.69999958723784
 43
27.69999958723784
 50
180.0
  0
INSERT
  5
E9
330
E3
100
AcDbEntity
  8
0
  6
Continuous
 62
     7
100
AcDbBlockReference
  2
_OPEN30
 10
15.63003516748495
 20
392.8262270565893
 30
0.0
 41
27.69999958723784
 42
27.69999958723784
 43
27.69999958723784
  0
MTEXT
  5
EA
330
E3
100
AcDbEntity
  8
0
  6
Continuous
 62
     7
100
AcDbMText
 10
-109.3699611072248
 20
423.6621269038002
 30
0.0
 40
41.67179999244511
 41
0.0
 71
     5
 72
     1
  1
\A1;250
  7
MX_DIMTXSTY_4
 73
     1
 44
0.9000000901137655
1001
ACAD
1000
MTEXTBEGIN
1070
    73
1070
     1
1070
    44
1040
0.9000000901137655
1070
    74
1070
     0
1000
MTEXTEND
  0
POINT
  5
EB
330
E3
100
AcDbEntity
  8
DEFPOINTS
  6
Continuous
 62
     0
100
AcDbPoint
 10
-234.3699611072247
 20
301.231683599558
 30
0.0
  0
POINT
  5
EC
330
E3
100
AcDbEntity
  8
DEFPOINTS
  6
Continuous
 62
     0
100
AcDbPoint
 10
15.63003516748495
 20
176.7660463925268
 30
0.0
  0
POINT
  5
ED
330
E3
100
AcDbEntity
  8
DEFPOINTS
  6
Continuous
 62
     0
100
AcDbPoint
 10
15.63003516748495
 20
392.8262270565893
 30
0.0
  0
ENDBLK
  5
EE
330
E3
100
AcDbEntity
  8
0
  6
ByBlock
 62
     0
370
    -2
100
AcDbBlockEnd
  0
BLOCK
  5
F1
330
F0
100
AcDbEntity
  8
0
  6
ByBlock
 62
     0
370
    -2
100
AcDbBlockBegin
  2
*D9
 70
     1
 10
0.0
 20
0.0
 30
0.0
  3
*D9
  1

  0
LINE
  5
F2
330
F0
100
AcDbEntity
  8
0
  6
Continuous
 62
     7
100
AcDbLine
 10
-444.3699579779809
 20
392.8262270565893
 30
0.0
 11
-234.3699611072247
 21
392.8262270565893
 31
0.0
  0
LINE
  5
F3
330
F0
100
AcDbEntity
  8
0
  6
Continuous
 62
     7
100
AcDbLine
 10
-444.3699579779809
 20
21.96604601254718
 30
0.0
 11
-444.3699579779809
 21
404.8149048564597
 31
0.0
  0
LINE
  5
F4
330
F0
100
AcDbEntity
  8
0
  6
Continuous
 62
     7
100
AcDbLine
 10
-234.3699611072247
 20
313.9316832195784
 30
0.0
 11
-234.3699611072247
 21
404.8149048564597
 31
0.0
  0
INSERT
  5
F5
330
F0
100
AcDbEntity
  8
0
  6
Continuous
 62
     7
100
AcDbBlockReference
  2
_OPEN30
 10
-444.3699579779809
 20
392.8262270565893
 30
0.0
 41
27.69999958723784
 42
27.69999958723784
 43
27.69999958723784
 50
180.0
  0
INSERT
  5
F6
330
F0
100
AcDbEntity
  8
0
  6
Continuous
 62
     7
100
AcDbBlockReference
  2
_OPEN30
 10
-234.3699611072247
 20
392.8262270565893
 30
0.0
 41
27.69999958723784
 42
27.69999958723784
 43
27.69999958723784
  0
MTEXT
  5
F7
330
F0
100
AcDbEntity
  8
0
  6
Continuous
 62
     7
100
AcDbMText
 10
-339.3699579779809
 20
423.6621269038002
 30
0.0
 40
41.67179999244511
 41
0.0
 71
     5
 72
     1
  1
\A1;210
  7
MX_DIMTXSTY_3
 73
     1
 44
0.9000000901137655
1001
ACAD
1000
MTEXTBEGIN
1070
    73
1070
     1
1070
    44
1040
0.9000000901137655
1070
    74
1070
     0
1000
MTEXTEND
  0
POINT
  5
F8
330
F0
100
AcDbEntity
  8
DEFPOINTS
  6
Continuous
 62
     0
100
AcDbPoint
 10
-444.3699579779809
 20
9.266046392526789
 30
0.0
  0
POINT
  5
F9
330
F0
100
AcDbEntity
  8
DEFPOINTS
  6
Continuous
 62
     0
100
AcDbPoint
 10
-234.3699611072247
 20
301.231683599558
 30
0.0
  0
POINT
  5
FA
330
F0
100
AcDbEntity
  8
DEFPOINTS
  6
Continuous
 62
     0
100
AcDbPoint
 10
-234.3699611072247
 20
392.8262270565893
 30
0.0
  0
ENDBLK
  5
FB
330
F0
100
AcDbEntity
  8
0
  6
ByBlock
 62
     0
370
    -2
100
AcDbBlockEnd
  0
BLOCK
  5
FE
330
FD
100
AcDbEntity
  8
0
  6
ByBlock
 62
     0
370
    -2
100
AcDbBlockBegin
  2
*D10
 70
     1
 10
0.0
 20
0.0
 30
0.0
  3
*D10
  1

  0
LINE
  5
FF
330
FD
100
AcDbEntity
  8
0
  6
Continuous
 62
     7
100
AcDbLine
 10
-1480.805336820999
 20
-465.7339408139296
 30
0.0
 11
-1480.805336820999
 21
274.2660481592111
 31
0.0
  0
LINE
  5
100
330
FD
100
AcDbEntity
  8
0
  6
Continuous
 62
     7
100
AcDbLine
 10
-1249.614192642191
 20
-465.7339408139296
 30
0.0
 11
-1492.79401462087
 21
-465.7339408139296
 31
0.0
  0
LINE
  5
101
330
FD
100
AcDbEntity
  8
0
  6
Continuous
 62
     7
100
AcDbLine
 10
-1222.114192642192
 20
274.2660481592111
 30
0.0
 11
-1492.79401462087
 21
274.2660481592111
 31
0.0
  0
INSERT
  5
102
330
FD
100
AcDbEntity
  8
0
  6
Continuous
 62
     7
100
AcDbBlockReference
  2
_OPEN30
 10
-1480.805336820999
 20
-465.7339408139296
 30
0.0
 41
27.69999958723784
 42
27.69999958723784
 43
27.69999958723784
 50
270.0
  0
INSERT
  5
103
330
FD
100
AcDbEntity
  8
0
  6
Continuous
 62
     7
100
AcDbBlockReference
  2
_OPEN30
 10
-1480.805336820999
 20
274.2660481592111
 30
0.0
 41
27.69999958723784
 42
27.69999958723784
 43
27.69999958723784
 50
90.0
  0
MTEXT
  5
104
330
FD
100
AcDbEntity
  8
0
  6
Continuous
 62
     7
100
AcDbMText
 10
-1511.641236668211
 20
-95.73394081392967
 30
0.0
 40
41.67179999244511
 41
0.0
 71
     5
 72
     1
  1
\A1;740
  7
MX_DIMTXSTY_4
 11
0.0000000000000001
 21
1.0
 31
0.0
 73
     1
 44
0.9000000901137655
1001
ACAD
1000
MTEXTBEGIN
1070
    73
1070
     1
1070
    44
1040
0.9000000901137655
1070
    74
1070
     0
1000
MTEXTEND
  0
POINT
  5
105
330
FD
100
AcDbEntity
  8
DEFPOINTS
  6
Continuous
 62
     0
100
AcDbPoint
 10
-1236.914193022171
 20
-465.7339408139296
 30
0.0
  0
POINT
  5
106
330
FD
100
AcDbEntity
  8
DEFPOINTS
  6
Continuous
 62
     0
100
AcDbPoint
 10
-1209.414193022171
 20
274.2660481592111
 30
0.0
  0
POINT
  5
107
330
FD
100
AcDbEntity
  8
DEFPOINTS
  6
Continuous
 62
     0
100
AcDbPoint
 10
-1480.805336820999
 20
274.2660481592111
 30
0.0
  0
ENDBLK
  5
108
330
FD
100
AcDbEntity
  8
0
  6
ByBlock
 62
     0
370
    -2
100
AcDbBlockEnd
  0
BLOCK
  5
10B
330
10A
100
AcDbEntity
  8
0
  6
ByBlock
 62
     0
370
    -2
100
AcDbBlockBegin
  2
*D11
 70
     1
 10
0.0
 20
0.0
 30
0.0
  3
*D11
  1

  0
LINE
  5
10C
330
10A
100
AcDbEntity
  8
0
  6
Continuous
 62
     7
100
AcDbLine
 10
-234.3699611072247
 20
-687.9461567409909
 30
0.0
 11
-444.3699579779809
 21
-687.9461567409909
 31
0.0
  0
LINE
  5
10D
330
10A
100
AcDbEntity
  8
0
  6
Continuous
 62
     7
100
AcDbLine
 10
-234.3699611072247
 20
-384.6532669567143
 30
0.0
 11
-234.3699611072247
 21
-699.9348345408613
 31
0.0
  0
LINE
  5
10E
330
10A
100
AcDbEntity
  8
0
  6
Continuous
 62
     7
100
AcDbLine
 10
-444.3699579779809
 20
-473.4339371227299
 30
0.0
 11
-444.3699579779809
 21
-699.9348345408613
 31
0.0
  0
INSERT
  5
10F
330
10A
100
AcDbEntity
  8
0
  6
Continuous
 62
     7
100
AcDbBlockReference
  2
_OPEN30
 10
-234.3699611072247
 20
-687.9461567409909
 30
0.0
 41
27.69999958723784
 42
27.69999958723784
 43
27.69999958723784
  0
INSERT
  5
110
330
10A
100
AcDbEntity
  8
0
  6
Continuous
 62
     7
100
AcDbBlockReference
  2
_OPEN30
 10
-444.3699579779809
 20
-687.9461567409909
 30
0.0
 41
27.69999958723784
 42
27.69999958723784
 43
27.69999958723784
 50
180.0
  0
MTEXT
  5
111
330
10A
100
AcDbEntity
  8
0
  6
Continuous
 62
     7
100
AcDbMText
 10
-314.3310511951154
 20
-657.1102568937799
 30
0.0
 40
41.67179999244511
 41
0.0
 71
     5
 72
     1
  1
\A1;210
  7
MX_DIMTXSTY_3
 73
     1
 44
0.9000000901137655
1001
ACAD
1000
MTEXTBEGIN
1070
    73
1070
     1
1070
    44
1040
0.9000000901137655
1070
    74
1070
     0
1000
MTEXTEND
  0
POINT
  5
112
330
10A
100
AcDbEntity
  8
DEFPOINTS
  6
Continuous
 62
     0
100
AcDbPoint
 10
-234.3699611072247
 20
-371.953267336694
 30
0.0
  0
POINT
  5
113
330
10A
100
AcDbEntity
  8
DEFPOINTS
  6
Continuous
 62
     0
100
AcDbPoint
 10
-444.3699579779809
 20
-460.7339375027096
 30
0.0
  0
POINT
  5
114
330
10A
100
AcDbEntity
  8
DEFPOINTS
  6
Continuous
 62
     0
100
AcDbPoint
 10
-444.3699579779809
 20
-687.9461567409909
 30
0.0
  0
ENDBLK
  5
115
330
10A
100
AcDbEntity
  8
0
  6
ByBlock
 62
     0
370
    -2
100
AcDbBlockEnd
  0
BLOCK
  5
118
330
117
100
AcDbEntity
  8
0
  6
ByBlock
 62
     0
370
    -2
100
AcDbBlockBegin
  2
*D12
 70
     1
 10
0.0
 20
0.0
 30
0.0
  3
*D12
  1

  0
LINE
  5
119
330
117
100
AcDbEntity
  8
0
  6
Continuous
 62
     7
100
AcDbLine
 10
-104.3699630443757
 20
-583.3810337874139
 30
0.0
 11
-364.3699591700738
 21
-583.3810337874139
 31
0.0
  0
LINE
  5
11A
330
117
100
AcDbEntity
  8
0
  6
Continuous
 62
     7
100
AcDbLine
 10
-104.3699630443757
 20
-503.4339386808717
 30
0.0
 11
-104.3699630443757
 21
-595.3697115872842
 31
0.0
  0
LINE
  5
11B
330
117
100
AcDbEntity
  8
0
  6
Continuous
 62
     7
100
AcDbLine
 10
-364.3699591700738
 20
-503.4339386808717
 30
0.0
 11
-364.3699591700738
 21
-595.3697115872842
 31
0.0
  0
INSERT
  5
11C
330
117
100
AcDbEntity
  8
0
  6
Continuous
 62
     7
100
AcDbBlockReference
  2
_OPEN30
 10
-104.3699630443757
 20
-583.3810337874139
 30
0.0
 41
27.69999958723784
 42
27.69999958723784
 43
27.69999958723784
  0
INSERT
  5
11D
330
117
100
AcDbEntity
  8
0
  6
Continuous
 62
     7
100
AcDbBlockReference
  2
_OPEN30
 10
-364.3699591700738
 20
-583.3810337874139
 30
0.0
 41
27.69999958723784
 42
27.69999958723784
 43
27.69999958723784
 50
180.0
  0
MTEXT
  5
11E
330
117
100
AcDbEntity
  8
0
  6
Continuous
 62
     7
100
AcDbMText
 10
-234.3699630443757
 20
-552.5451339402029
 30
0.0
 40
41.67179999244511
 41
0.0
 71
     5
 72
     1
  1
\A1;260
  7
MX_DIMTXSTY_4
 73
     1
 44
0.9000000901137655
1001
ACAD
1000
MTEXTBEGIN
1070
    73
1070
     1
1070
    44
1040
0.9000000901137655
1070
    74
1070
     0
1000
MTEXTEND
  0
POINT
  5
11F
330
117
100
AcDbEntity
  8
DEFPOINTS
  6
Continuous
 62
     0
100
AcDbPoint
 10
-104.3699630443757
 20
-490.7339390608513
 30
0.0
  0
POINT
  5
120
330
117
100
AcDbEntity
  8
DEFPOINTS
  6
Continuous
 62
     0
100
AcDbPoint
 10
-364.3699591700738
 20
-490.7339390608513
 30
0.0
  0
POINT
  5
121
330
117
100
AcDbEntity
  8
DEFPOINTS
  6
Continuous
 62
     0
100
AcDbPoint
 10
-364.3699591700738
 20
-583.3810337874139
 30
0.0
  0
ENDBLK
  5
122
330
117
100
AcDbEntity
  8
0
  6
ByBlock
 62
     0
370
    -2
100
AcDbBlockEnd
  0
BLOCK
  5
125
330
124
100
AcDbEntity
  8
0
  6
ByBlock
 62
     0
370
    -2
100
AcDbBlockBegin
  2
*D13
 70
     1
 10
0.0
 20
0.0
 30
0.0
  3
*D13
  1

  0
LINE
  5
126
330
124
100
AcDbEntity
  8
0
  6
Continuous
 62
     7
100
AcDbLine
 10
-921.9142013502983
 20
-604.1268830876516
 30
0.0
 11
-1311.914195538846
 21
-604.1268830876516
 31
0.0
  0
LINE
  5
127
330
124
100
AcDbEntity
  8
0
  6
Continuous
 62
     7
100
AcDbLine
 10
-921.9142013502983
 20
-472.4338773365783
 30
0.0
 11
-921.9142013502983
 21
-616.115560887522
 31
0.0
  0
LINE
  5
128
330
124
100
AcDbEntity
  8
0
  6
Continuous
 62
     7
100
AcDbLine
 10
-1311.914195538846
 20
-472.4338773365783
 30
0.0
 11
-1311.914195538846
 21
-616.115560887522
 31
0.0
  0
INSERT
  5
129
330
124
100
AcDbEntity
  8
0
  6
Continuous
 62
     7
100
AcDbBlockReference
  2
_OPEN30
 10
-921.9142013502983
 20
-604.1268830876516
 30
0.0
 41
27.69999958723784
 42
27.69999958723784
 43
27.69999958723784
  0
INSERT
  5
12A
330
124
100
AcDbEntity
  8
0
  6
Continuous
 62
     7
100
AcDbBlockReference
  2
_OPEN30
 10
-1311.914195538846
 20
-604.1268830876516
 30
0.0
 41
27.69999958723784
 42
27.69999958723784
 43
27.69999958723784
 50
180.0
  0
MTEXT
  5
12B
330
124
100
AcDbEntity
  8
0
  6
Continuous
 62
     7
100
AcDbMText
 10
-1116.914201350298
 20
-573.2909832404406
 30
0.0
 40
41.67179999244511
 41
0.0
 71
     5
 72
     1
  1
\A1;390
  7
MX_DIMTXSTY_4
 73
     1
 44
0.9000000901137655
1001
ACAD
1000
MTEXTBEGIN
1070
    73
1070
     1
1070
    44
1040
0.9000000901137655
1070
    74
1070
     0
1000
MTEXTEND
  0
POINT
  5
12C
330
124
100
AcDbEntity
  8
DEFPOINTS
  6
Continuous
 62
     0
100
AcDbPoint
 10
-921.9142013502983
 20
-459.7338777165579
 30
0.0
  0
POINT
  5
12D
330
124
100
AcDbEntity
  8
DEFPOINTS
  6
Continuous
 62
     0
100
AcDbPoint
 10
-1311.914195538846
 20
-459.7338777165579
 30
0.0
  0
POINT
  5
12E
330
124
100
AcDbEntity
  8
DEFPOINTS
  6
Continuous
 62
     0
100
AcDbPoint
 10
-1311.914195538846
 20
-604.1268830876516
 30
0.0
  0
ENDBLK
  5
12F
330
124
100
AcDbEntity
  8
0
  6
ByBlock
 62
     0
370
    -2
100
AcDbBlockEnd
  0
BLOCK
  5
132
330
131
100
AcDbEntity
  8
0
  6
ByBlock
 62
     0
370
    -2
100
AcDbBlockBegin
  2
*D14
 70
     1
 10
0.0
 20
0.0
 30
0.0
  3
*D14
  1

  0
LINE
  5
133
330
131
100
AcDbEntity
  8
0
  6
Continuous
 62
     7
100
AcDbLine
 10
-956.9142008287576
 20
-532.7250592004499
 30
0.0
 11
-1276.914196060386
 21
-532.7250592004499
 31
0.0
  0
LINE
  5
134
330
131
100
AcDbEntity
  8
0
  6
Continuous
 62
     7
100
AcDbLine
 10
-956.9142008287576
 20
-497.4338784005484
 30
0.0
 11
-956.9142008287576
 21
-544.7137370003202
 31
0.0
  0
LINE
  5
135
330
131
100
AcDbEntity
  8
0
  6
Continuous
 62
     7
100
AcDbLine
 10
-1276.914196060386
 20
-497.4338784005484
 30
0.0
 11
-1276.914196060386
 21
-544.7137370003202
 31
0.0
  0
INSERT
  5
136
330
131
100
AcDbEntity
  8
0
  6
Continuous
 62
     7
100
AcDbBlockReference
  2
_OPEN30
 10
-956.9142008287576
 20
-532.7250592004499
 30
0.0
 41
27.69999958723784
 42
27.69999958723784
 43
27.69999958723784
  0
INSERT
  5
137
330
131
100
AcDbEntity
  8
0
  6
Continuous
 62
     7
100
AcDbBlockReference
  2
_OPEN30
 10
-1276.914196060386
 20
-532.7250592004499
 30
0.0
 41
27.69999958723784
 42
27.69999958723784
 43
27.69999958723784
 50
180.0
  0
MTEXT
  5
138
330
131
100
AcDbEntity
  8
0
  6
Continuous
 62
     7
100
AcDbMText
 10
-1116.914200828758
 20
-501.8891593532389
 30
0.0
 40
41.67179999244511
 41
0.0
 71
     5
 72
     1
  1
\A1;320
  7
MX_DIMTXSTY_4
 73
     1
 44
0.9000000901137655
1001
ACAD
1000
MTEXTBEGIN
1070
    73
1070
     1
1070
    44
1040
0.9000000901137655
1070
    74
1070
     0
1000
MTEXTEND
  0
POINT
  5
139
330
131
100
AcDbEntity
  8
DEFPOINTS
  6
Continuous
 62
     0
100
AcDbPoint
 10
-956.9142008287576
 20
-484.733878780528
 30
0.0
  0
POINT
  5
13A
330
131
100
AcDbEntity
  8
DEFPOINTS
  6
Continuous
 62
     0
100
AcDbPoint
 10
-1276.914196060386
 20
-484.733878780528
 30
0.0
  0
POINT
  5
13B
330
131
100
AcDbEntity
  8
DEFPOINTS
  6
Continuous
 62
     0
100
AcDbPoint
 10
-1276.914196060386
 20
-532.7250592004499
 30
0.0
  0
ENDBLK
  5
13C
330
131
100
AcDbEntity
  8
0
  6
ByBlock
 62
     0
370
    -2
100
AcDbBlockEnd
  0
BLOCK
  5
36B
330
36A
100
AcDbEntity
  8
0
  6
ByBlock
 62
     0
370
    -2
100
AcDbBlockBegin
  2
*X15
 70
     1
 10
0.0
 20
0.0
 30
0.0
  3
*X15
  1

  0
LINE
  5
36C
330
36A
100
AcDbEntity
  8
0
  6
Continuous
 62
     0
100
AcDbLine
 10
855.6305814374887
 20
-1099.999983608723
 30
0.0
 11
888.5524370057527
 21
-1099.999983608723
 31
0.0
  0
LINE
  5
36D
330
36A
100
AcDbEntity
  8
0
  6
Continuous
 62
     0
100
AcDbLine
 10
912.5749574810555
 20
-1099.999983608723
 30
0.0
 11
972.3516527214497
 21
-1099.999983608723
 31
0.0
  0
LINE
  5
36E
330
36A
100
AcDbEntity
  8
0
  6
Continuous
 62
     0
100
AcDbLine
 10
986.8519125589354
 20
-1099.999983608723
 30
0.0
 11
1014.406062197442
 21
-1099.999983608723
 31
0.0
  0
LINE
  5
36F
330
36A
100
AcDbEntity
  8
0
  6
Continuous
 62
     0
100
AcDbLine
 10
1027.1141549106
 20
-1099.999983608723
 30
0.0
 11
1047.292489072934
 21
-1099.999983608723
 31
0.0
  0
LINE
  5
370
330
36A
100
AcDbEntity
  8
0
  6
Continuous
 62
     0
100
AcDbLine
 10
1068.969174122876
 20
-1099.999983608723
 30
0.0
 11
1101.514786064641
 21
-1099.999983608723
 31
0.0
  0
LINE
  5
371
330
36A
100
AcDbEntity
  8
0
  6
Continuous
 62
     0
100
AcDbLine
 10
1114.009061584526
 20
-1099.999983608723
 30
0.0
 11
1148.289175329527
 21
-1099.999983608723
 31
0.0
  0
LINE
  5
372
330
36A
100
AcDbEntity
  8
0
  6
Continuous
 62
     0
100
AcDbLine
 10
846.3806165685836
 20
-1089.999983757734
 30
0.0
 11
866.4144419377324
 21
-1089.999983757734
 31
0.0
  0
LINE
  5
373
330
36A
100
AcDbEntity
  8
0
  6
Continuous
 62
     0
100
AcDbLine
 10
889.5784252101316
 20
-1089.999983757734
 30
0.0
 11
898.1180386712766
 21
-1089.999983757734
 31
0.0
  0
LINE
  5
374
330
36A
100
AcDbEntity
  8
0
  6
Continuous
 62
     0
100
AcDbLine
 10
918.3976418018692
 20
-1089.999983757734
 30
0.0
 11
939.3927911014438
 21
-1089.999983757734
 31
0.0
  0
LINE
  5
375
330
36A
100
AcDbEntity
  8
0
  6
Continuous
 62
     0
100
AcDbLine
 10
971.0154390110774
 20
-1089.999983757734
 30
0.0
 11
974.1149219479655
 21
-1089.999983757734
 31
0.0
  0
LINE
  5
376
330
36A
100
AcDbEntity
  8
0
  6
Continuous
 62
     0
100
AcDbLine
 10
982.1888364592295
 20
-1089.999983757734
 30
0.0
 11
1005.354499334711
 21
-1089.999983757734
 31
0.0
  0
LINE
  5
377
330
36A
100
AcDbEntity
  8
0
  6
Continuous
 62
     0
100
AcDbLine
 10
1012.441201365424
 20
-1089.999983757734
 30
0.0
 11
1019.069145442826
 21
-1089.999983757734
 31
0.0
  0
LINE
  5
378
330
36A
100
AcDbEntity
  8
0
  6
Continuous
 62
     0
100
AcDbLine
 10
1035.531192845853
 20
-1089.999983757734
 30
0.0
 11
1092.222990329267
 21
-1089.999983757734
 31
0.0
  0
LINE
  5
379
330
36A
100
AcDbEntity
  8
0
  6
Continuous
 62
     0
100
AcDbLine
 10
1103.621860053717
 20
-1089.999983757734
 30
0.0
 11
1125.726772713852
 21
-1089.999983757734
 31
0.0
  0
LINE
  5
37A
330
36A
100
AcDbEntity
  8
0
  6
Continuous
 62
     0
100
AcDbLine
 10
1152.026222434467
 20
-1089.999983757734
 30
0.0
 11
1158.676376178337
 21
-1089.999983757734
 31
0.0
  0
LINE
  5
37B
330
36A
100
AcDbEntity
  8
0
  6
Continuous
 62
     0
100
AcDbLine
 10
845.2643554618305
 20
-1079.999983906746
 30
0.0
 11
866.2594856879191
 21
-1079.999983906746
 31
0.0
  0
LINE
  5
37C
330
36A
100
AcDbEntity
  8
0
  6
Continuous
 62
     0
100
AcDbLine
 10
889.7333203295868
 20
-1079.999983906746
 30
0.0
 11
899.3561706042861
 21
-1079.999983906746
 31
0.0
  0
LINE
  5
37D
330
36A
100
AcDbEntity
  8
0
  6
Continuous
 62
     0
100
AcDbLine
 10
918.3976418018692
 20
-1079.999983906746
 30
0.0
 11
939.3927911014438
 21
-1079.999983906746
 31
0.0
  0
LINE
  5
37E
330
36A
100
AcDbEntity
  8
0
  6
Continuous
 62
     0
100
AcDbLine
 10
977.5257603595237
 20
-1079.999983906746
 30
0.0
 11
1000.691423235005
 21
-1079.999983906746
 31
0.0
  0
LINE
  5
37F
330
36A
100
AcDbEntity
  8
0
  6
Continuous
 62
     0
100
AcDbLine
 10
1017.104284610808
 20
-1079.999983906746
 30
0.0
 11
1023.73222868821
 21
-1079.999983906746
 31
0.0
  0
LINE
  5
380
330
36A
100
AcDbEntity
  8
0
  6
Continuous
 62
     0
100
AcDbLine
 10
1040.194250445875
 20
-1079.999983906746
 30
0.0
 11
1048.817255889416
 21
-1079.999983906746
 31
0.0
  0
LINE
  5
381
330
36A
100
AcDbEntity
  8
0
  6
Continuous
 62
     0
100
AcDbLine
 10
1064.394284696995
 20
-1079.999983906746
 30
0.0
 11
1087.559911949894
 21
-1079.999983906746
 31
0.0
  0
LINE
  5
382
330
36A
100
AcDbEntity
  8
0
  6
Continuous
 62
     0
100
AcDbLine
 10
1100.998373252164
 20
-1079.999983906746
 30
0.0
 11
1121.993747040837
 21
-1079.999983906746
 31
0.0
  0
LINE
  5
383
330
36A
100
AcDbEntity
  8
0
  6
Continuous
 62
     0
100
AcDbLine
 10
845.2643554618305
 20
-1069.999984055757
 30
0.0
 11
866.2594856879191
 21
-1069.999984055757
 31
0.0
  0
LINE
  5
384
330
36A
100
AcDbEntity
  8
0
  6
Continuous
 62
     0
100
AcDbLine
 10
889.7333203295868
 20
-1069.999984055757
 30
0.0
 11
899.3561706042861
 21
-1069.999984055757
 31
0.0
  0
LINE
  5
385
330
36A
100
AcDbEntity
  8
0
  6
Continuous
 62
     0
100
AcDbLine
 10
918.3976418018692
 20
-1069.999984055757
 30
0.0
 11
939.3927911014438
 21
-1069.999984055757
 31
0.0
  0
LINE
  5
386
330
36A
100
AcDbEntity
  8
0
  6
Continuous
 62
     0
100
AcDbLine
 10
972.8626842598179
 20
-1069.999984055757
 30
0.0
 11
996.0283471352996
 21
-1069.999984055757
 31
0.0
  0
LINE
  5
387
330
36A
100
AcDbEntity
  8
0
  6
Continuous
 62
     0
100
AcDbLine
 10
1021.767367856193
 20
-1069.999984055757
 30
0.0
 11
1028.395311933594
 21
-1069.999984055757
 31
0.0
  0
LINE
  5
388
330
36A
100
AcDbEntity
  8
0
  6
Continuous
 62
     0
100
AcDbLine
 10
1044.857308045897
 20
-1069.999984055757
 30
0.0
 11
1053.480330367119
 21
-1069.999984055757
 31
0.0
  0
LINE
  5
389
330
36A
100
AcDbEntity
  8
0
  6
Continuous
 62
     0
100
AcDbLine
 10
1059.731206317622
 20
-1069.999984055757
 30
0.0
 11
1082.896833570521
 21
-1069.999984055757
 31
0.0
  0
LINE
  5
38A
330
36A
100
AcDbEntity
  8
0
  6
Continuous
 62
     0
100
AcDbLine
 10
1103.804393515975
 20
-1069.999984055757
 30
0.0
 11
1126.012038073583
 21
-1069.999984055757
 31
0.0
  0
LINE
  5
38B
330
36A
100
AcDbEntity
  8
0
  6
Continuous
 62
     0
100
AcDbLine
 10
1151.740956627868
 20
-1069.999984055757
 30
0.0
 11
1160.859052526071
 21
-1069.999984055757
 31
0.0
  0
LINE
  5
38C
330
36A
100
AcDbEntity
  8
0
  6
Continuous
 62
     0
100
AcDbLine
 10
839.1407650837187
 20
-1059.999984204769
 30
0.0
 11
872.3831714334611
 21
-1059.999984204769
 31
0.0
  0
LINE
  5
38D
330
36A
100
AcDbEntity
  8
0
  6
Continuous
 62
     0
100
AcDbLine
 10
884.0470754497188
 20
-1059.999984204769
 30
0.0
 11
905.0422342860365
 21
-1059.999984204769
 31
0.0
  0
LINE
  5
38E
330
36A
100
AcDbEntity
  8
0
  6
Continuous
 62
     0
100
AcDbLine
 10
912.2739369828412
 20
-1059.999984204769
 30
0.0
 11
945.5164100897846
 21
-1059.999984204769
 31
0.0
  0
LINE
  5
38F
330
36A
100
AcDbEntity
  8
0
  6
Continuous
 62
     0
100
AcDbLine
 10
963.5956429899389
 20
-1059.999984204769
 30
0.0
 11
996.8381083482785
 21
-1059.999984204769
 31
0.0
  0
LINE
  5
390
330
36A
100
AcDbEntity
  8
0
  6
Continuous
 62
     0
100
AcDbLine
 10
1016.666950335101
 20
-1059.999984204769
 30
0.0
 11
1037.662099634675
 21
-1059.999984204769
 31
0.0
  0
LINE
  5
391
330
36A
100
AcDbEntity
  8
0
  6
Continuous
 62
     0
100
AcDbLine
 10
1049.520365645919
 20
-1059.999984204769
 30
0.0
 11
1078.233755191147
 21
-1059.999984204769
 31
0.0
  0
LINE
  5
392
330
36A
100
AcDbEntity
  8
0
  6
Continuous
 62
     0
100
AcDbLine
 10
1114.60373921751
 20
-1059.999984204769
 30
0.0
 11
1147.694494968548
 21
-1059.999984204769
 31
0.0
  0
LINE
  5
393
330
36A
100
AcDbEntity
  8
0
  6
Continuous
 62
     0
100
AcDbLine
 10
1157.937359731523
 20
-1059.999984204769
 30
0.0
 11
1160.859052526071
 21
-1059.999984204769
 31
0.0
  0
ENDBLK
  5
394
330
36A
100
AcDbEntity
  8
0
  6
ByBlock
 62
     0
370
    -2
100
AcDbBlockEnd
  0
BLOCK
  5
4CD
330
4CB
100
AcDbEntity
  8
0
370
     0
100
AcDbBlockBegin
  2
GENAXEH
 70
     0
 10
0.0
 20
0.0
 30
0.0
  3
GENAXEH
  1

  0
LINE
  5
4CC
330
4CB
100
AcDbEntity
  8
0
100
AcDbLine
 10
-1.0
 20
0.0
 30
0.0
 11
1.0
 21
0.0
 31
0.0
  0
ENDBLK
  5
4CE
330
4CB
100
AcDbEntity
  8
0
370
     0
100
AcDbBlockEnd
  0
ENDSEC
  0
SECTION
  2
ENTITIES
  0
DIMENSION
  5
9C
330
A
100
AcDbEntity
  8
PV
  6
Continuous
 62
     7
100
AcDbDimension
  2
*D1
 10
285.6300311441715
 20
526.1073224826556
 30
0.0
 11
-85.11992728904038
 21
526.1073224826556
 31
0.0
 70
   160
  1
<>
 71
     5
 41
0.9000000901137655
 42
741.4999389648437
  3
MXDIMSTYLE
100
AcDbAlignedDimension
 13
-455.8698967714621
 23
-201.7339861110944
 33
0.0
 14
285.6300311441715
 24
-201.7329485134382
 34
0.0
100
AcDbRotatedDimension
1001
ACAD
1000
DSTYLE
1002
{
1070
     6
1000
_OPEN30
1070
     7
1000
_OPEN30
1070
    41
1040
2.77
1070
    44
1040
1.198867797851562
1070
   140
1040
4.167180061340332
1070
   144
1040
1.000000014901161
1070
   173
1070
     1
1070
   271
1070
     0
1070
   284
1070
     8
1070
   340
1005
96
1070
   341
1005
8E
1002
}
  0
DIMENSION
  5
AD
330
A
100
AcDbEntity
  8
PV
  6
Continuous
 62
     7
100
AcDbDimension
  2
*D3
 10
296.3638261502411
 20
-465.7339408139296
 30
0.0
 11
296.3638261502411
 21
-545.6152282545872
 31
0.0
 70
   160
  1
(55)
 71
     5
 41
0.9000000901137655
 42
0.0
  3
MXDIMSTYLE
100
AcDbAlignedDimension
 13
23.19753586703797
 23
-410.7339416334935
 33
0.0
 14
75.63007676059266
 24
-465.7339408139296
 34
0.0
 50
90.0
100
AcDbRotatedDimension
1001
ACAD
1000
DSTYLE
1002
{
1070
     6
1000
_OPEN30
1070
     7
1000
_OPEN30
1070
    41
1040
2.77
1070
    44
1040
1.198867797851562
1070
    78
1070
     0
1070
   140
1040
4.167180061340332
1070
   144
1040
1.0
1070
   173
1070
     1
1070
   271
1070
     0
1070
   340
1005
A7
1070
   341
1005
8E
1002
}
  0
DIMENSION
  5
BD
330
A
100
AcDbEntity
  8
PV
  6
Continuous
 62
     7
100
AcDbDimension
  2
*D4
 10
-455.8698967714621
 20
35.67374176273135
 30
0.0
 11
-594.8237536941475
 21
35.67374176273135
 31
0.0
 70
   160
  1
(34)
 71
     5
 41
0.9000000901137655
 42
0.0
  3
MXDIMSTYLE
100
AcDbAlignedDimension
 13
-489.3699573074287
 23
-175.7339425634405
 33
0.0
 14
-455.8698967714621
 24
-201.7340035985967
 34
0.0
100
AcDbRotatedDimension
1001
ACAD
1000
DSTYLE
1002
{
1070
     6
1000
_OPEN30
1070
     7
1000
_OPEN30
1070
    41
1040
2.77
1070
    44
1040
1.198883056640625
1070
    78
1070
     0
1070
   140
1040
4.167180061340332
1070
   144
1040
1.0
1070
   173
1070
     1
1070
   271
1070
     0
1070
   340
1005
A7
1070
   341
1005
8E
1002
}
  0
DIMENSION
  5
CA
330
A
100
AcDbEntity
  8
PV
  6
Continuous
 62
     7
100
AcDbDimension
  2
*D5
 10
-234.3699611072247
 20
663.029164924783
 30
0.0
 11
-114.3698902969083
 21
663.029164924783
 31
0.0
 70
   160
  1
(240)
 71
     5
 41
0.9000000901137655
 42
0.0
  3
MXDIMSTYLE
100
AcDbAlignedDimension
 13
5.630140220669802
 23
911.1054893876737
 33
0.0
 14
-234.3699611072247
 24
804.9055382157986
 34
0.0
100
AcDbRotatedDimension
1001
ACAD
1000
DSTYLE
1002
{
1070
     6
1000
_OPEN30
1070
     7
1000
_OPEN30
1070
    41
1040
2.77
1070
    44
1040
1.198883056640625
1070
    78
1070
     0
1070
   140
1040
4.167180061340332
1070
   144
1040
1.0
1070
   173
1070
     1
1070
   271
1070
     0
1070
   340
1005
A7
1070
   341
1005
8E
1002
}
  0
DIMENSION
  5
D4
330
A
100
AcDbEntity
  8
PV
  6
Continuous
 62
     7
100
AcDbDimension
  2
*D6
 10
-916.5448151714915
 20
-102.9443722701757
 30
0.0
 11
-1232.205254385628
 21
-296.3865281065265
 31
0.0
 70
   163
  1
<>
 71
     5
 41
0.9000000901137655
 42
470.0
  3
MXDIMSTYLE
100
AcDbDiametricDimension
 15
-1317.282478937044
 25
-348.5233171535528
 35
0.0
 40
0.0
1001
ACAD
1000
DSTYLE
1002
{
1070
     6
1000
_OPEN30
1070
     7
1000
_OPEN30
1070
    41
1040
2.77
1070
   140
1040
4.167180061340332
1070
   144
1040
1.000000694137649
1070
   173
1070
     1
1070
   271
1070
     0
1070
   284
1070
     8
1070
   289
1070
     2
1070
   341
1005
8E
1002
}
  0
DIMENSION
  5
E2
330
A
100
AcDbEntity
  8
PV
  6
Continuous
 62
     7
100
AcDbDimension
  2
*D7
 10
483.5269092987938
 20
-465.7339408139296
 30
0.0
 11
483.5269092987938
 21
-190.7339490095683
 31
0.0
 70
   160
  1
<>
 71
     5
 41
0.9000000901137655
 42
550.0
  3
MXDIMSTYLE
100
AcDbAlignedDimension
 13
87.8877186249657
 23
84.26605099043174
 33
0.0
 14
75.63008923043446
 24
-465.7339408139296
 34
0.0
 50
90.0
100
AcDbRotatedDimension
1001
ACAD
1000
DSTYLE
1002
{
1070
     6
1000
_OPEN30
1070
     7
1000
_OPEN30
1070
    41
1040
2.77
1070
    44
1040
1.198867797851562
1070
   140
1040
4.167180061340332
1070
   144
1040
1.000000014901161
1070
   173
1070
     1
1070
   271
1070
     0
1070
   284
1070
     8
1070
   340
1005
DC
1070
   341
1005
8E
1002
}
  0
DIMENSION
  5
EF
330
A
100
AcDbEntity
  8
PV
  6
Continuous
 62
     7
100
AcDbDimension
  2
*D8
 10
15.63003516748495
 20
392.8262270565893
 30
0.0
 11
-109.3699611072248
 21
392.8262270565893
 31
0.0
 70
   160
  1
<>
 71
     5
 41
0.9000000901137655
 42
250.0
  3
MXDIMSTYLE
100
AcDbAlignedDimension
 13
-234.3699611072247
 23
301.231683599558
 33
0.0
 14
15.63003516748495
 24
176.7660463925268
 34
0.0
100
AcDbRotatedDimension
1001
ACAD
1000
DSTYLE
1002
{
1070
     6
1000
_OPEN30
1070
     7
1000
_OPEN30
1070
    41
1040
2.77
1070
    44
1040
1.198867797851562
1070
   140
1040
4.167180061340332
1070
   144
1040
1.000000014901161
1070
   173
1070
     1
1070
   271
1070
     0
1070
   284
1070
     8
1070
   340
1005
DC
1070
   341
1005
8E
1002
}
  0
DIMENSION
  5
FC
330
A
100
AcDbEntity
  8
PV
  6
Continuous
 62
     7
100
AcDbDimension
  2
*D9
 10
-234.3699611072247
 20
392.8262270565893
 30
0.0
 11
-339.3699579779809
 21
392.8262270565893
 31
0.0
 70
   160
  1
<>
 71
     5
 41
0.9000000901137655
 42
210.0
  3
MXDIMSTYLE
100
AcDbAlignedDimension
 13
-444.3699579779809
 23
9.266046392526789
 33
0.0
 14
-234.3699611072247
 24
301.231683599558
 34
0.0
100
AcDbRotatedDimension
1001
ACAD
1000
DSTYLE
1002
{
1070
     6
1000
_OPEN30
1070
     7
1000
_OPEN30
1070
    41
1040
2.77
1070
    44
1040
1.198867797851562
1070
   140
1040
4.167180061340332
1070
   144
1040
1.000000014901161
1070
   173
1070
     1
1070
   271
1070
     0
1070
   284
1070
     8
1070
   340
1005
A7
1070
   341
1005
8E
1002
}
  0
DIMENSION
  5
109
330
A
100
AcDbEntity
  8
PV
  6
Continuous
 62
     7
100
AcDbDimension
  2
*D10
 10
-1480.805336820999
 20
274.2660481592111
 30
0.0
 11
-1480.805336820999
 21
-95.73394081392967
 31
0.0
 70
   160
  1
<>
 71
     5
 41
0.9000000901137655
 42
740.0
  3
MXDIMSTYLE
100
AcDbAlignedDimension
 13
-1236.914193022171
 23
-465.7339408139296
 33
0.0
 14
-1209.414193022171
 24
274.2660481592111
 34
0.0
 50
90.0
100
AcDbRotatedDimension
1001
ACAD
1000
DSTYLE
1002
{
1070
     6
1000
_OPEN30
1070
     7
1000
_OPEN30
1070
    41
1040
2.77
1070
    44
1040
1.198867797851562
1070
   140
1040
4.167180061340332
1070
   144
1040
1.000000014901161
1070
   173
1070
     1
1070
   271
1070
     0
1070
   284
1070
     8
1070
   340
1005
DC
1070
   341
1005
8E
1002
}
  0
DIMENSION
  5
116
330
A
100
AcDbEntity
  8
PV
  6
Continuous
 62
     7
100
AcDbDimension
  2
*D11
 10
-444.3699579779809
 20
-687.9461567409909
 30
0.0
 11
-314.3310511951154
 21
-687.9461567409909
 31
0.0
 70
   160
  1
<>
 71
     5
 41
0.9000000901137655
 42
210.0
  3
MXDIMSTYLE
100
AcDbAlignedDimension
 13
-234.3699611072247
 23
-371.953267336694
 33
0.0
 14
-444.3699579779809
 24
-460.7339375027096
 34
0.0
100
AcDbRotatedDimension
1001
ACAD
1000
DSTYLE
1002
{
1070
     6
1000
_OPEN30
1070
     7
1000
_OPEN30
1070
    41
1040
2.77
1070
    44
1040
1.198867797851562
1070
   140
1040
4.167180061340332
1070
   144
1040
1.000000014901161
1070
   173
1070
     1
1070
   271
1070
     0
1070
   284
1070
     8
1070
   340
1005
A7
1070
   341
1005
8E
1002
}
  0
DIMENSION
  5
123
330
A
100
AcDbEntity
  8
PV
  6
Continuous
 62
     7
100
AcDbDimension
  2
*D12
 10
-364.3699591700738
 20
-583.3810337874139
 30
0.0
 11
-234.3699630443757
 21
-583.3810337874139
 31
0.0
 70
   160
  1
<>
 71
     5
 41
0.9000000901137655
 42
260.0
  3
MXDIMSTYLE
100
AcDbAlignedDimension
 13
-104.3699630443757
 23
-490.7339390608513
 33
0.0
 14
-364.3699591700738
 24
-490.7339390608513
 34
0.0
100
AcDbRotatedDimension
1001
ACAD
1000
DSTYLE
1002
{
1070
     6
1000
_OPEN30
1070
     7
1000
_OPEN30
1070
    41
1040
2.77
1070
    44
1040
1.198867797851562
1070
   140
1040
4.167180061340332
1070
   144
1040
1.000000014901161
1070
   173
1070
     1
1070
   271
1070
     0
1070
   284
1070
     8
1070
   340
1005
DC
1070
   341
1005
8E
1002
}
  0
DIMENSION
  5
130
330
A
100
AcDbEntity
  8
PV
  6
Continuous
 62
     7
100
AcDbDimension
  2
*D13
 10
-1311.914195538846
 20
-604.1268830876516
 30
0.0
 11
-1116.914201350298
 21
-604.1268830876516
 31
0.0
 70
   160
  1
<>
 71
     5
 41
0.9000000901137655
 42
390.0
  3
MXDIMSTYLE
100
AcDbAlignedDimension
 13
-921.9142013502983
 23
-459.7338777165579
 33
0.0
 14
-1311.914195538846
 24
-459.7338777165579
 34
0.0
100
AcDbRotatedDimension
1001
ACAD
1000
DSTYLE
1002
{
1070
     6
1000
_OPEN30
1070
     7
1000
_OPEN30
1070
    41
1040
2.77
1070
    44
1040
1.198867797851562
1070
   140
1040
4.167180061340332
1070
   144
1040
1.00000001490116
1070
   173
1070
     1
1070
   271
1070
     0
1070
   284
1070
     8
1070
   340
1005
DC
1070
   341
1005
8E
1002
}
  0
DIMENSION
  5
13D
330
A
100
AcDbEntity
  8
PV
  6
Continuous
 62
     7
100
AcDbDimension
  2
*D14
 10
-1276.914196060386
 20
-532.7250592004499
 30
0.0
 11
-1116.914200828758
 21
-532.7250592004499
 31
0.0
 70
   160
  1
<>
 71
     5
 41
0.9000000901137655
 42
320.0
  3
MXDIMSTYLE
100
AcDbAlignedDimension
 13
-956.9142008287576
 23
-484.733878780528
 33
0.0
 14
-1276.914196060386
 24
-484.733878780528
 34
0.0
100
AcDbRotatedDimension
1001
ACAD
1000
DSTYLE
1002
{
1070
     6
1000
_OPEN30
1070
     7
1000
_OPEN30
1070
    41
1040
2.77
1070
    44
1040
1.198867797851562
1070
   140
1040
4.167180061340332
1070
   144
1040
1.00000001490116
1070
   173
1070
     1
1070
   271
1070
     0
1070
   284
1070
     8
1070
   340
1005
DC
1070
   341
1005
8E
1002
}
  0
LEADER
  5
13E
330
A
100
AcDbEntity
  8
PV
  6
Continuous
 62
     7
100
AcDbLeader
  3
MXDIMSTYLE
 74
     0
 76
     3
 10
15.63003622948882
 20
84.26605222325974
 30
0.0
 10
382.0632648099651
 20
433.4417630754425
 30
0.0
 10
632.7925433744182
 20
433.4417630754425
 30
0.0
1001
ACAD
1000
DSTYLE
1002
{
1070
     6
1000
_OPEN30
1070
     7
1000
_OPEN30
1070
    41
1040
2.77
1070
   173
1070
     1
1070
   341
1005
8E
1002
}
  0
MTEXT
  5
13F
330
A
100
AcDbEntity
  8
PV
  6
Continuous
 62
     7
100
AcDbMText
 10
632.7925433744182
 20
402.1867639035746
 30
0.0
 40
41.59999785423281
 41
0.0
 71
     4
 72
     1
  1
\W0.855;\A1;\P
 73
     1
 44
0.9015865825732978
1001
ACAD
1000
MTEXTBEGIN
1070
    73
1070
     1
1070
    44
1040
0.9015865825732978
1070
    74
1070
     0
1000
MTEXTEND
  0
LEADER
  5
140
330
A
100
AcDbEntity
  8
PV
  6
Continuous
 62
     7
100
AcDbLeader
  3
MXDIMSTYLE
 74
     0
 76
     3
 10
222.4119550780029
 20
-222.9530351133075
 30
0.0
 10
454.9430784140827
 20
192.9069462093071
 30
0.0
 10
991.1167844687701
 20
192.9069462093071
 30
0.0
1001
ACAD
1000
DSTYLE
1002
{
1070
     6
1000
_OPEN30
1070
     7
1000
_OPEN30
1070
    41
1040
2.77
1070
   173
1070
     1
1070
   341
1005
8E
1002
}
  0
MTEXT
  5
141
330
A
100
AcDbEntity
  8
PV
  6
Continuous
 62
     7
100
AcDbMText
 10
991.1167844687701
 20
161.6519470374392
 30
0.0
 40
41.59999785423281
 41
0.0
 71
     4
 72
     1
  1
\W0.855;\A1;\P
 73
     1
 44
0.9015865825732978
1001
ACAD
1000
MTEXTBEGIN
1070
    73
1070
     1
1070
    44
1040
0.9015865825732978
1070
    74
1070
     0
1000
MTEXTEND
  0
LEADER
  5
142
330
A
100
AcDbEntity
  8
PV
  6
Continuous
 62
     7
100
AcDbLeader
  3
MXDIMSTYLE
 74
     0
 76
     3
 10
-964.2417319264275
 20
-231.0722115339107
 30
0.0
 10
-822.6708366437136
 20
-139.5220662101819
 30
0.0
 10
-548.2149955792606
 20
-139.5220662101819
 30
0.0
1001
ACAD
1000
DSTYLE
1002
{
1070
     6
1000
_OPEN30
1070
     7
1000
_OPEN30
1070
    41
1040
2.77
1070
   173
1070
     1
1070
   341
1005
8E
1002
}
  0
MTEXT
  5
143
330
A
100
AcDbEntity
  8
PV
  6
Continuous
 62
     7
100
AcDbMText
 10
-548.2149955792606
 20
-170.7770653820499
 30
0.0
 40
41.59999785423281
 41
0.0
 71
     4
 72
     1
  1
\W0.855;\A1;\P
 73
     1
 44
0.9015865825732978
1001
ACAD
1000
MTEXTBEGIN
1070
    73
1070
     1
1070
    44
1040
0.9015865825732978
1070
    74
1070
     0
1000
MTEXTEND
  0
LEADER
  5
144
330
A
100
AcDbEntity
  8
PV
  6
Continuous
 62
     7
100
AcDbLeader
  3
MXDIMSTYLE
 74
     0
 76
     3
 10
-365.7838406263759
 20
81.2286021683769
 30
0.0
 10
-528.401024867172
 20
145.2075090445437
 30
0.0
 10
-920.6644855864942
 20
145.2075090445437
 30
0.0
1001
ACAD
1000
DSTYLE
1002
{
1070
     6
1000
_OPEN30
1070
     7
1000
_OPEN30
1070
    41
1040
2.77
1070
   173
1070
     1
1070
   341
1005
8E
1002
}
  0
MTEXT
  5
145
330
A
100
AcDbEntity
  8
PV
  6
Continuous
 62
     7
100
AcDbMText
 10
-828.4971552382657
 20
113.9525098726757
 30
0.0
 40
41.59999785423281
 41
0.0
 71
     4
 72
     1
  1
\W0.855;\A1;\P
 73
     1
 44
0.9015865825732978
1001
ACAD
1000
MTEXTBEGIN
1070
    73
1070
     1
1070
    44
1040
0.9015865825732978
1070
    74
1070
     0
1000
MTEXTEND
  0
LEADER
  5
146
330
A
100
AcDbEntity
  8
PV
  6
Continuous
 62
     7
100
AcDbLeader
  3
MXDIMSTYLE
 74
     0
 76
     3
 10
-371.0678108770229
 20
166.6404738647474
 30
0.0
 10
-541.4073185192046
 20
252.4613949479658
 30
0.0
 10
-745.9245151744781
 20
252.4613949479658
 30
0.0
1001
ACAD
1000
DSTYLE
1002
{
1070
     6
1000
_OPEN30
1070
     7
1000
_OPEN30
1070
    41
1040
2.77
1070
   173
1070
     1
1070
   341
1005
8E
1002
}
  0
MTEXT
  5
147
330
A
100
AcDbEntity
  8
PV
  6
Continuous
 62
     7
100
AcDbMText
 10
-745.9245151744781
 20
221.2063957760978
 30
0.0
 40
41.59999785423281
 41
0.0
 71
     4
 72
     1
  1
\W0.855;\A1;\P
 73
     1
 44
0.9015865825732978
1001
ACAD
1000
MTEXTBEGIN
1070
    73
1070
     1
1070
    44
1040
0.9015865825732978
1070
    74
1070
     0
1000
MTEXTEND
  0
LEADER
  5
148
330
A
100
AcDbEntity
  8
PV
  6
Continuous
 62
     7
100
AcDbLeader
  3
MXDIMSTYLE
 74
     0
 76
     3
 10
-234.3699820078618
 20
274.2660541943814
 30
0.0
 10
-603.9866554471122
 20
454.8875228557611
 30
0.0
 10
-905.8077919217215
 20
454.8875228557611
 30
0.0
1001
ACAD
1000
DSTYLE
1002
{
1070
     6
1000
_OPEN30
1070
     7
1000
_OPEN30
1070
    41
1040
2.77
1070
   173
1070
     1
1070
   341
1005
8E
1002
}
  0
MTEXT
  5
149
330
A
100
AcDbEntity
  8
PV
  6
Continuous
 62
     7
100
AcDbMText
 10
-905.8077919217215
 20
423.6325236838931
 30
0.0
 40
41.59999785423281
 41
0.0
 71
     4
 72
     1
  1
\W0.855;\A1;\P
 73
     1
 44
0.9015865825732978
1001
ACAD
1000
MTEXTBEGIN
1070
    73
1070
     1
1070
    44
1040
0.9015865825732978
1070
    74
1070
     0
1000
MTEXTEND
  0
LEADER
  5
14A
330
A
100
AcDbEntity
  8
PV
  6
Continuous
 62
     7
100
AcDbLeader
  3
MXDIMSTYLE
 74
     0
 76
     3
 10
5.630144811348788
 20
911.1054974536296
 30
0.0
 10
120.4738039664627
 20
757.3794661938515
 30
0.0
 10
566.5152773551345
 20
757.3794661938515
 30
0.0
1001
ACAD
1000
DSTYLE
1002
{
1070
     6
1000
_OPEN30
1070
     7
1000
_OPEN30
1070
    41
1040
2.77
1070
   173
1070
     1
1070
   341
1005
8E
1002
}
  0
MTEXT
  5
14B
330
A
100
AcDbEntity
  8
PV
  6
Continuous
 62
     7
100
AcDbMText
 10
566.5152773551345
 20
726.1244670219837
 30
0.0
 40
41.59999785423281
 41
0.0
 71
     4
 72
     1
  1
\W0.855;\A1;\P
 73
     1
 44
0.9015865825732978
1001
ACAD
1000
MTEXTBEGIN
1070
    73
1070
     1
1070
    44
1040
0.9015865825732978
1070
    74
1070
     0
1000
MTEXTEND
  0
LEADER
  5
14C
330
A
100
AcDbEntity
  8
PV
  6
Continuous
 62
     7
100
AcDbLeader
  3
MXDIMSTYLE
 74
     0
 76
     3
 10
-956.9142059103537
 20
-465.7339449299626
 30
0.0
 10
-840.2545101811048
 20
-620.6272835422986
 30
0.0
 10
-600.430093066847
 20
-620.6272835422986
 30
0.0
1001
ACAD
1000
DSTYLE
1002
{
1070
     6
1000
_OPEN30
1070
     7
1000
_OPEN30
1070
    41
1040
2.77
1070
   173
1070
     1
1070
   341
1005
8E
1002
}
  0
MTEXT
  5
14D
330
A
100
AcDbEntity
  8
PV
  6
Continuous
 62
     7
100
AcDbMText
 10
-600.430093066847
 20
-651.8822827141665
 30
0.0
 40
41.59999785423281
 41
0.0
 71
     4
 72
     1
  1
\W0.855;\A1;\P
 73
     1
 44
0.9015865825732978
1001
ACAD
1000
MTEXTBEGIN
1070
    73
1070
     1
1070
    44
1040
0.9015865825732978
1070
    74
1070
     0
1000
MTEXTEND
  0
HATCH
  5
14E
330
A
100
AcDbEntity
  8
PV
  6
Continuous
 62
     7
100
AcDbHatch
 10
0.0
 20
0.0
 30
0.0
210
0.0
220
0.0
230
1.0
  2
ANSI37
 70
     0
 71
     0
 91
        1
 92
        2
 72
     0
 73
     1
 93
        4
 10
31.00875808285537
 20
1036.10670453151
 10
31.00875808285537
 20
978.1066748781997
 10
74.63007815733435
 20
978.1066748781997
 10
74.63007815733435
 20
1036.10670453151
 97
        0
 75
     0
 76
     1
 52
0.0000012522390307
 41
9.999999700803462
 77
     0
 78
     2
 53
45.00000125223903
 43
0.0
 44
0.0
 45
-22.4506401216318
 46
22.45063914028318
 79
     0
 53
135.000001252239
 43
0.0
 44
0.0
 45
-22.45063914028318
 46
-22.4506401216318
 79
     0
 98
        1
 10
0.0
 20
0.0
  0
HATCH
  5
14F
330
A
100
AcDbEntity
  8
PV
  6
Continuous
 62
     7
100
AcDbHatch
 10
0.0
 20
0.0
 30
0.0
210
0.0
220
0.0
230
1.0
  2
HONEY
 70
     0
 71
     0
 91
        1
 92
        2
 72
     0
 73
     1
 93
        4
 10
59.63014513805291
 20
973.1065223648172
 10
59.63014513805291
 20
1053.106063409059
 10
-4.369888240547653
 20
1053.106063409059
 10
-4.369888240547653
 20
973.1065223648172
 97
        0
 75
     0
 76
     1
 52
0.0
 41
55.42561724714378
 77
     0
 78
     3
 53
0.0
 43
0.0
 44
0.0
 45
263.9645021395223
 46
152.3999763667587
 79
     2
 49
175.9763347596815
 49
-351.952669519363
 53
120.0
 43
0.0
 44
0.0
 45
-263.9645021395222
 46
152.3999763667588
 79
     2
 49
175.9763347596815
 49
-351.952669519363
 53
60.0
 43
0.0
 44
0.0
 45
0.0000000000001137
 46
304.7999527335174
 79
     2
 49
-351.952669519363
 49
175.9763347596815
 98
        1
 10
0.0
 20
0.0
  0
HATCH
  5
150
330
A
100
AcDbEntity
  8
PV
  6
Continuous
 62
     7
100
AcDbHatch
 10
0.0
 20
0.0
 30
0.0
210
0.0
220
0.0
230
1.0
  2
HONEY
 70
     0
 71
     0
 91
        1
 92
        2
 72
     0
 73
     1
 93
        4
 10
-4.369888240547653
 20
973.1065223648172
 10
59.63014513805291
 20
973.1065223648172
 10
59.63014513805291
 20
1053.106063409059
 10
-4.369888240547653
 20
1053.106063409059
 97
        0
 75
     0
 76
     1
 52
0.0
 41
55.42561724714378
 77
     0
 78
     3
 53
0.0
 43
0.0
 44
0.0
 45
263.9645021395223
 46
152.3999763667587
 79
     2
 49
175.9763347596815
 49
-351.952669519363
 53
120.0
 43
0.0
 44
0.0
 45
-263.9645021395222
 46
152.3999763667588
 79
     2
 49
175.9763347596815
 49
-351.952669519363
 53
60.0
 43
0.0
 44
0.0
 45
0.0000000000001137
 46
304.7999527335174
 79
     2
 49
-351.952669519363
 49
175.9763347596815
 98
        1
 10
0.0
 20
0.0
  0
HATCH
  5
151
330
A
100
AcDbEntity
  8
PV
  6
Continuous
 62
     7
100
AcDbHatch
 10
0.0
 20
0.0
 30
0.0
210
0.0
220
0.0
230
1.0
  2
HONEY
 70
     0
 71
     0
 91
        1
 92
        2
 72
     0
 73
     1
 93
        4
 10
74.63149913204462
 20
950.1063396020777
 10
74.63149913204462
 20
1030.106643585761
 10
10.63003524199075
 20
1030.106643585761
 10
10.63003524199075
 20
950.1063396020777
 97
        0
 75
     0
 76
     1
 52
359.9999389648437
 41
55.42561724714378
 77
     0
 78
     3
 53
359.9999389648437
 43
0.0
 44
0.0
 45
263.9646644856473
 46
152.3996951746758
 79
     2
 49
175.9763347596815
 49
-351.952669519363
 53
119.9999389648437
 43
0.0
 44
0.0
 45
-263.9643397930977
 46
152.4002575586686
 79
     2
 49
175.9763347596815
 49
-351.952669519363
 53
59.99993896484375
 43
0.0
 44
0.0
 45
0.0003246925498104
 46
304.7999527333445
 79
     2
 49
-351.952669519363
 49
175.9763347596815
 98
        1
 10
0.0
 20
0.0
  0
HATCH
  5
152
330
A
100
AcDbEntity
  8
PV
  6
Continuous
 62
     7
100
AcDbHatch
 10
0.0
 20
0.0
 30
0.0
210
0.0
220
0.0
230
1.0
  2
HONEY
 70
     0
 71
     0
 91
        1
 92
        2
 72
     0
 73
     1
 93
        4
 10
10.63003524199075
 20
950.1063396020777
 10
74.63149913204462
 20
950.1063396020777
 10
74.63149913204462
 20
1030.106643585761
 10
10.63003524199075
 20
1030.106643585761
 97
        0
 75
     0
 76
     1
 52
359.9999389648437
 41
55.42561724714378
 77
     0
 78
     3
 53
359.9999389648437
 43
0.0
 44
0.0
 45
263.9646644856473
 46
152.3996951746758
 79
     2
 49
175.9763347596815
 49
-351.952669519363
 53
119.9999389648437
 43
0.0
 44
0.0
 45
-263.9643397930977
 46
152.4002575586686
 79
     2
 49
175.9763347596815
 49
-351.952669519363
 53
59.99993896484375
 43
0.0
 44
0.0
 45
0.0003246925498104
 46
304.7999527333445
 79
     2
 49
-351.952669519363
 49
175.9763347596815
 98
        1
 10
0.0
 20
0.0
  0
HATCH
  5
153
330
A
100
AcDbEntity
  8
PV
  6
Continuous
 62
     7
100
AcDbHatch
 10
0.0
 20
0.0
 30
0.0
210
0.0
220
0.0
230
1.0
  2
HONEY
 70
     0
 71
     0
 91
        1
 92
        2
 72
     0
 73
     1
 93
        4
 10
74.63149913204462
 20
950.1075603051845
 10
74.63149913204462
 20
1030.107101349426
 10
10.63003524199075
 20
1030.107101349426
 10
10.63003524199075
 20
950.1075603051845
 97
        0
 75
     0
 76
     1
 52
0.0
 41
55.42561724714378
 77
     0
 78
     3
 53
0.0
 43
0.0
 44
0.0
 45
263.9645021395223
 46
152.3999763667587
 79
     2
 49
175.9763347596815
 49
-351.952669519363
 53
120.0
 43
0.0
 44
0.0
 45
-263.9645021395222
 46
152.3999763667588
 79
     2
 49
175.9763347596815
 49
-351.952669519363
 53
60.0
 43
0.0
 44
0.0
 45
0.0000000000001137
 46
304.7999527335174
 79
     2
 49
-351.952669519363
 49
175.9763347596815
 98
        1
 10
0.0
 20
0.0
  0
HATCH
  5
154
330
A
100
AcDbEntity
  8
PV
  6
Continuous
 62
     7
100
AcDbHatch
 10
0.0
 20
0.0
 30
0.0
210
0.0
220
0.0
230
1.0
  2
HONEY
 70
     0
 71
     0
 91
        1
 92
        2
 72
     0
 73
     1
 93
        4
 10
10.63003524199075
 20
950.1075603051845
 10
74.63149913204462
 20
950.1075603051845
 10
74.63149913204462
 20
1030.107101349426
 10
10.63003524199075
 20
1030.107101349426
 97
        0
 75
     0
 76
     1
 52
0.0
 41
55.42561724714378
 77
     0
 78
     3
 53
0.0
 43
0.0
 44
0.0
 45
263.9645021395223
 46
152.3999763667587
 79
     2
 49
175.9763347596815
 49
-351.952669519363
 53
120.0
 43
0.0
 44
0.0
 45
-263.9645021395222
 46
152.3999763667588
 79
     2
 49
175.9763347596815
 49
-351.952669519363
 53
60.0
 43
0.0
 44
0.0
 45
0.0000000000001137
 46
304.7999527335174
 79
     2
 49
-351.952669519363
 49
175.9763347596815
 98
        1
 10
0.0
 20
0.0
  0
HATCH
  5
155
330
A
100
AcDbEntity
  8
PV
  6
Continuous
 62
     7
100
AcDbHatch
 10
0.0
 20
0.0
 30
0.0
210
0.0
220
0.0
230
1.0
  2
HONEY
 70
     0
 71
     0
 91
        1
 92
        2
 72
     0
 73
     1
 93
        4
 10
59.63014513805291
 20
-260.7330283413376
 10
59.63014513805291
 20
-180.7334872970955
 10
-4.369888240547653
 20
-180.7334872970955
 10
-4.369888240547653
 20
-260.7330283413376
 97
        0
 75
     0
 76
     1
 52
0.0
 41
55.42561724714378
 77
     0
 78
     3
 53
0.0
 43
0.0
 44
0.0
 45
263.9645021395223
 46
152.3999763667587
 79
     2
 49
175.9763347596815
 49
-351.952669519363
 53
120.0
 43
0.0
 44
0.0
 45
-263.9645021395222
 46
152.3999763667588
 79
     2
 49
175.9763347596815
 49
-351.952669519363
 53
60.0
 43
0.0
 44
0.0
 45
0.0000000000001137
 46
304.7999527335174
 79
     2
 49
-351.952669519363
 49
175.9763347596815
 98
        1
 10
0.0
 20
0.0
  0
HATCH
  5
156
330
A
100
AcDbEntity
  8
PV
  6
Continuous
 62
     7
100
AcDbHatch
 10
0.0
 20
0.0
 30
0.0
210
0.0
220
0.0
230
1.0
  2
HONEY
 70
     0
 71
     0
 91
        1
 92
        2
 72
     0
 73
     1
 93
        4
 10
-4.369888240547653
 20
-260.7330283413376
 10
59.63014513805291
 20
-260.7330283413376
 10
59.63014513805291
 20
-180.7334872970955
 10
-4.369888240547653
 20
-180.7334872970955
 97
        0
 75
     0
 76
     1
 52
0.0
 41
55.42561724714378
 77
     0
 78
     3
 53
0.0
 43
0.0
 44
0.0
 45
263.9645021395223
 46
152.3999763667587
 79
     2
 49
175.9763347596815
 49
-351.952669519363
 53
120.0
 43
0.0
 44
0.0
 45
-263.9645021395222
 46
152.3999763667588
 79
     2
 49
175.9763347596815
 49
-351.952669519363
 53
60.0
 43
0.0
 44
0.0
 45
0.0000000000001137
 46
304.7999527335174
 79
     2
 49
-351.952669519363
 49
175.9763347596815
 98
        1
 10
0.0
 20
0.0
  0
MTEXT
  5
157
330
A
100
AcDbEntity
  8
PV
  6
Continuous
 62
     7
100
AcDbMText
 10
136.1988287767493
 20
806.6217206921916
 30
0.0
 40
41.67180952918813
 41
0.0
 71
     1
 72
     1
  1
\A1;{\W0.869;OIL DRAIN\W1.069;(1/2B)}
 73
     1
 44
0.9015865947471841
1001
ACAD
1000
MTEXTBEGIN
1070
    73
1070
     1
1070
    44
1040
0.9015865947471841
1070
    74
1070
     0
1000
MTEXTEND
  0
MTEXT
  5
158
102
{ACAD_XDICTIONARY
360
555
102
}
330
A
100
AcDbEntity
  8
PV
  6
Continuous
 62
     7
100
AcDbMText
 10
473.8963750774741
 20
247.7987920075834
 30
0.0
 40
41.67180952918813
 41
0.0
 71
     1
 72
     1
  1
\A1;{\W0.84;MOTOR\P\W0.94;(AC200V,3\U+2205,90W)}
 73
     1
 44
0.9015865947471841
1001
ACAD
1000
MTEXTBEGIN
1070
    73
1070
     1
1070
    44
1040
0.9015865947471841
1070
    74
1070
     0
1000
MTEXTEND
  0
MTEXT
  5
159
330
A
100
AcDbEntity
  8
PV
  6
Continuous
 62
     7
100
AcDbMText
 10
-803.3492879102082
 20
-89.93882045240965
 30
0.0
 40
41.67180952918813
 41
0.0
 71
     1
 72
     1
  1
\A1;{\W0.531;OIL LEVEL GAUGE}
 73
     1
 44
0.9000000214576726
1001
ACAD
1000
MTEXTBEGIN
1070
    73
1070
     1
1070
    44
1040
0.9000000214576726
1070
    74
1070
     0
1000
MTEXTEND
  0
MTEXT
  5
15A
102
{ACAD_XDICTIONARY
360
557
102
}
330
A
100
AcDbEntity
  8
PV
  6
Continuous
 62
     7
100
AcDbMText
 10
-932.4568610157275
 20
194.4803228400842
 30
0.0
 40
41.67180952918813
 41
0.0
 71
     1
 72
     1
  1
\A1;{\W0.483;OIL FILLER PORT\W0.883;(\U+220518)}
 73
     1
 44
0.9015865947471841
1001
ACAD
1000
MTEXTBEGIN
1070
    73
1070
     1
1070
    44
1040
0.9015865947471841
1070
    74
1070
     0
1000
MTEXTEND
  0
MTEXT
  5
15B
330
A
100
AcDbEntity
  8
PV
  6
Continuous
 62
     7
100
AcDbMText
 10
-776.7193041050505
 20
302.991520133106
 30
0.0
 40
41.67180952918813
 41
0.0
 71
     1
 72
     1
  1
\A1;{\W0.512;HANGING HOLE}
 73
     1
 44
0.9015865947471841
1001
ACAD
1000
MTEXTBEGIN
1070
    73
1070
     1
1070
    44
1040
0.9015865947471841
1070
    74
1070
     0
1000
MTEXTEND
  0
MTEXT
  5
15C
330
A
100
AcDbEntity
  8
PV
  6
Continuous
 62
     7
100
AcDbMText
 10
394.7106810623515
 20
483.724234048661
 30
0.0
 40
41.67180952918813
 41
0.0
 71
     1
 72
     1
  1
\A1;{\W0.707;OUTLET FLANGE\W0.907;\P(VG100)}
 73
     1
 44
0.9015865947471841
1001
ACAD
1000
MTEXTBEGIN
1070
    73
1070
     1
1070
    44
1040
0.9015865947471841
1070
    74
1070
     0
1000
MTEXTEND
  0
MTEXT
  5
15D
330
A
100
AcDbEntity
  8
PV
  6
Continuous
 62
     7
100
AcDbMText
 10
1082.95069218821
 20
897.6822051751282
 30
0.0
 40
41.67180952918813
 41
0.0
 71
     1
 72
     1
  1
\W1.007;\A1;100A(VG100)
 73
     1
 44
0.9015865947471841
1001
ACAD
1000
MTEXTBEGIN
1070
    73
1070
     1
1070
    44
1040
0.9015865947471841
1070
    74
1070
     0
1000
MTEXTEND
  0
MTEXT
  5
15E
330
A
100
AcDbEntity
  8
PV
  6
Continuous
 62
     7
100
AcDbMText
 10
1070.016384262737
 20
1032.584546914927
 30
0.0
 40
41.67180952918813
 41
0.0
 71
     1
 72
     1
  1
\W0.945;\A1;TRO-100
 73
     1
 44
0.9015865947471841
1001
ACAD
1000
MTEXTBEGIN
1070
    73
1070
     1
1070
    44
1040
0.9015865947471841
1070
    74
1070
     0
1000
MTEXTEND
  0
MTEXT
  5
15F
330
A
100
AcDbEntity
  8
PV
  6
Continuous
 62
     7
100
AcDbMText
 10
1074.124582371474
 20
678.9868348987871
 30
0.0
 40
41.67180952918813
 41
0.0
 71
     1
 72
     1
  1
\W0.914;\A1;ULVOIL R-7,R-4
 73
     1
 44
0.9015865947471841
1001
ACAD
1000
MTEXTBEGIN
1070
    73
1070
     1
1070
    44
1040
0.9015865947471841
1070
    74
1070
     0
1000
MTEXTEND
  0
MTEXT
  5
160
330
A
100
AcDbEntity
  8
PV
  6
Continuous
 62
     7
100
AcDbMText
 10
736.6876445397291
 20
678.4672731389511
 30
0.0
 40
41.67180952918813
 41
0.0
 71
     1
 72
     1
  1
\A1;{\W0.712;USE OIL}
 73
     1
 44
0.9015865947471841
1001
ACAD
1000
MTEXTBEGIN
1070
    73
1070
     1
1070
    44
1040
0.9015865947471841
1070
    74
1070
     0
1000
MTEXTEND
  0
MTEXT
  5
161
330
A
100
AcDbEntity
  8
PV
  6
Continuous
 62
     7
100
AcDbMText
 10
1075.441384438779
 20
962.9814290556096
 30
0.0
 40
41.67180952918813
 41
0.0
 71
     1
 72
     1
  1
\W1.007;\A1;100A(VG100)
 73
     1
 44
0.9015865947471841
1001
ACAD
1000
MTEXTBEGIN
1070
    73
1070
     1
1070
    44
1040
0.9015865947471841
1070
    74
1070
     0
1000
MTEXTEND
  0
MTEXT
  5
162
330
A
100
AcDbEntity
  8
PV
  6
Continuous
 62
     7
100
AcDbMText
 10
739.3622129780023
 20
890.9814606460709
 30
0.0
 40
41.67180952918813
 41
0.0
 71
     1
 72
     1
  1
\A1;{\W0.458;OUTLET FLANGE}
 73
     1
 44
0.9000000214576726
1001
ACAD
1000
MTEXTBEGIN
1070
    73
1070
     1
1070
    44
1040
0.9000000214576726
1070
    74
1070
     0
1000
MTEXTEND
  0
MTEXT
  5
163
330
A
100
AcDbEntity
  8
PV
  6
Continuous
 62
     7
100
AcDbMText
 10
739.3622129780023
 20
962.9814290556096
 30
0.0
 40
41.67180952918813
 41
0.0
 71
     1
 72
     1
  1
\A1;{\W0.558;INLET FLANGE}
 73
     1
 44
0.9000000214576726
1001
ACAD
1000
MTEXTBEGIN
1070
    73
1070
     1
1070
    44
1040
0.9000000214576726
1070
    74
1070
     0
1000
MTEXTEND
  0
MTEXT
  5
164
330
A
100
AcDbEntity
  8
PV
  6
Continuous
 62
     7
100
AcDbMText
 10
897.6220457353868
 20
1043.467849441352
 30
0.0
 40
29.99999955296517
 41
0.0
 71
     1
 72
     1
  1
\W0.712;\A1;機種
 73
     1
 44
0.9015865540882717
1001
ACAD
1000
MTEXTBEGIN
1070
    73
1070
     1
1070
    44
1040
0.9015865540882717
1070
    74
1070
     0
1000
MTEXTEND
  0
MTEXT
  5
165
330
A
100
AcDbEntity
  8
PV
  6
Continuous
 62
     7
100
AcDbMText
 10
739.3232504868009
 20
1021.213974040538
 30
0.0
 40
29.99999955296517
 41
0.0
 71
     1
 72
     1
  1
\W0.712;\A1;仕様
 73
     1
 44
0.9015865540882717
1001
ACAD
1000
MTEXTBEGIN
1070
    73
1070
     1
1070
    44
1040
0.9015865540882717
1070
    74
1070
     0
1000
MTEXTEND
  0
MTEXT
  5
166
330
A
100
AcDbEntity
  8
PV
  6
Continuous
 62
     7
100
AcDbMText
 10
1074.173414256987
 20
606.9868188055334
 30
0.0
 40
41.67171416175791
 41
0.0
 71
     1
 72
     1
  1
\W0.921;\A1;約 130Kｇ
 73
     1
 44
0.9015865983781221
1001
ACAD
1000
MTEXTBEGIN
1070
    73
1070
     1
1070
    44
1040
0.9015865983781221
1070
    74
1070
     0
1000
MTEXTEND
  0
MTEXT
  5
167
330
A
100
AcDbEntity
  8
PV
  6
Continuous
 62
     7
100
AcDbMText
 10
1076.479247802581
 20
746.9819339069435
 30
0.0
 40
41.67171416175791
 41
0.0
 71
     1
 72
     1
  1
\W1.157;\A1;19.0 L
 73
     1
 44
0.9015865983781221
1001
ACAD
1000
MTEXTBEGIN
1070
    73
1070
     1
1070
    44
1040
0.9015865983781221
1070
    74
1070
     0
1000
MTEXTEND
  0
MTEXT
  5
168
102
{ACAD_XDICTIONARY
360
559
102
}
330
A
100
AcDbEntity
  8
PV
  6
Continuous
 62
     7
100
AcDbMText
 10
1074.782925379917
 20
818.9814445528172
 30
0.0
 40
41.67171416175791
 41
0.0
 71
     1
 72
     1
  1
\W0.913;\A1;AC200V,3\U+2205,90ｗ
 73
     1
 44
0.9015865983781221
1001
ACAD
1000
MTEXTBEGIN
1070
    73
1070
     1
1070
    44
1040
0.9015865983781221
1070
    74
1070
     0
1000
MTEXTEND
  0
MTEXT
  5
169
330
A
100
AcDbEntity
  8
PV
  6
Continuous
 62
     7
100
AcDbMText
 10
736.6876738122324
 20
606.4672570456973
 30
0.0
 40
41.67171416175791
 41
0.0
 71
     1
 72
     1
  1
\A1;{\W0.712;WEIGHT}
 73
     1
 44
0.9015865983781221
1001
ACAD
1000
MTEXTBEGIN
1070
    73
1070
     1
1070
    44
1040
0.9015865983781221
1070
    74
1070
     0
1000
MTEXTEND
  0
MTEXT
  5
16A
330
A
100
AcDbEntity
  8
PV
  6
Continuous
 62
     7
100
AcDbMText
 10
739.5120299579996
 20
746.9819339069435
 30
0.0
 40
41.67171416175791
 41
0.0
 71
     1
 72
     1
  1
\A1;{\W0.518;AMOUNT OF OIL}
 73
     1
 44
0.9015865983781221
1001
ACAD
1000
MTEXTBEGIN
1070
    73
1070
     1
1070
    44
1040
0.9015865983781221
1070
    74
1070
     0
1000
MTEXTEND
  0
MTEXT
  5
16B
330
A
100
AcDbEntity
  8
PV
  6
Continuous
 62
     7
100
AcDbMText
 10
738.0451449527026
 20
818.9814445528172
 30
0.0
 40
41.67171416175791
 41
0.0
 71
     1
 72
     1
  1
\A1;{\W0.806;POWER}
 73
     1
 44
0.9015865983781221
1001
ACAD
1000
MTEXTBEGIN
1070
    73
1070
     1
1070
    44
1040
0.9015865983781221
1070
    74
1070
     0
1000
MTEXTEND
  0
MTEXT
  5
16C
102
{ACAD_XDICTIONARY
360
55B
102
}
330
A
100
AcDbEntity
  8
PV
  6
Continuous
 62
     7
100
AcDbMText
 10
-828.0589731766394
 20
-570.8028803646135
 30
0.0
 40
41.67180952918813
 41
0.0
 71
     1
 72
     1
  1
\W0.996;\A1;4-\U+220512ｷﾘ
 73
     1
 44
0.9015865947471841
1001
ACAD
1000
MTEXTBEGIN
1070
    73
1070
     1
1070
    44
1040
0.9015865947471841
1070
    74
1070
     0
1000
MTEXTEND
  0
MTEXT
  5
16D
330
A
100
AcDbEntity
  8
PV
  6
Continuous
 62
     7
100
AcDbMText
 10
-874.0116816240087
 20
505.8793850857111
 30
0.0
 40
41.67180952918813
 41
0.0
 71
     1
 72
     1
  1
\A1;{\W0.707;INLET FLANGE\W0.907;\P(VG100)}
 73
     1
 44
0.9015865947471841
1001
ACAD
1000
MTEXTBEGIN
1070
    73
1070
     1
1070
    44
1040
0.9015865947471841
1070
    74
1070
     0
1000
MTEXTEND
  0
ELLIPSE
  5
16E
330
A
100
AcDbEntity
  8
PV
  6
Continuous
 62
     3
100
AcDbEllipse
 10
-372.8301946397096
 20
1008.105606315946
 30
0.0
 11
-0.0000000000000037
 21
-19.99999970197677
 31
0.0
210
0.0
220
0.0
230
1.0
 40
0.8999996185302734
 41
3.776299856626036
 42
5.648515271727968
  0
ELLIPSE
  5
16F
330
A
100
AcDbEntity
  8
PV
  6
Continuous
 62
     3
100
AcDbEllipse
 10
-1116.914198444572
 20
76.76568870595561
 30
0.0
 11
19.99999970197677
 21
0.0
 31
0.0
210
0.0
220
0.0
230
1.0
 40
0.8650002479553224
 41
3.141592653589793
 42
6.283185307179586
  0
ELLIPSE
  5
170
330
A
100
AcDbEntity
  8
PV
  6
Continuous
 62
     3
100
AcDbEllipse
 10
-1116.914198444572
 20
86.76545013836845
 30
0.0
 11
9.000015124678384
 21
0.0
 31
0.0
210
0.0
220
0.0
230
1.0
 40
0.8611100220404356
 41
0.0
 42
6.283185307179586
  0
ELLIPSE
  5
171
330
A
100
AcDbEntity
  8
PV
  6
Continuous
 62
     3
100
AcDbEllipse
 10
-1116.914198444572
 20
69.26568881771432
 30
0.0
 11
14.00001505017258
 21
0.0
 31
0.0
210
0.0
220
0.0
230
1.0
 40
0.8642847995378772
 41
3.813207632402322
 42
5.722911235505982
  0
ELLIPSE
  5
172
330
A
100
AcDbEntity
  8
PV
  6
Continuous
 62
     3
100
AcDbEllipse
 10
-1116.914198444572
 20
86.76545013836845
 30
0.0
 11
19.99999970197677
 21
0.0
 31
0.0
210
0.0
220
0.0
230
1.0
 40
0.8650002479553222
 41
0.0
 42
6.283185307179586
  0
ELLIPSE
  5
173
330
A
100
AcDbEntity
  8
PV
  6
Continuous
 62
     3
100
AcDbEllipse
 10
-342.5199839097264
 20
69.26605121394915
 30
0.0
 11
-0.000000000000003
 21
-16.14999747052792
 31
0.0
210
0.0
220
0.0
230
1.0
 40
0.8637774956449849
 41
0.0
 42
3.141592653589793
  0
CIRCLE
  5
174
330
A
100
AcDbEntity
  8
PV
  6
Continuous
 62
     3
100
AcDbCircle
 10
211.2120024679302
 20
114.8806745576758
 30
0.0
 40
4.999999925494194
  0
CIRCLE
  5
175
330
A
100
AcDbEntity
  8
PV
  6
Continuous
 62
     3
100
AcDbCircle
 10
211.2120024679302
 20
53.65142742318766
 30
0.0
 40
4.999999925494194
  0
CIRCLE
  5
176
330
A
100
AcDbEntity
  8
PV
  6
Continuous
 62
     3
100
AcDbCircle
 10
167.9162572634778
 20
10.35568221873518
 30
0.0
 40
4.999999925494194
  0
CIRCLE
  5
177
330
A
100
AcDbEntity
  8
PV
  6
Continuous
 62
     3
100
AcDbCircle
 10
167.9164098513661
 20
158.1764197621283
 30
0.0
 40
4.999999925494194
  0
ARC
  5
179
330
A
100
AcDbEntity
  8
PV
  6
CENTER
 62
     7
100
AcDbCircle
 10
137.3015860125186
 20
84.26605099043174
 30
0.0
 40
79.99999880790712
100
AcDbArc
 50
270.0000179860893
 51
89.99998201391065
  0
CIRCLE
  5
17A
330
A
100
AcDbEntity
  8
PV
  6
Continuous
 62
     3
100
AcDbCircle
 10
-160.4595923355282
 20
1038.72022988319
 30
0.0
 40
4.999999925494194
  0
CIRCLE
  5
17B
330
A
100
AcDbEntity
  8
PV
  6
Continuous
 62
     3
100
AcDbCircle
 10
-160.4595923355282
 20
977.4909827487023
 30
0.0
 40
4.999999925494194
  0
CIRCLE
  5
17C
330
A
100
AcDbEntity
  8
PV
  6
Continuous
 62
     3
100
AcDbCircle
 10
-203.7553375399807
 20
934.1952375442497
 30
0.0
 40
4.999999925494194
  0
CIRCLE
  5
17D
330
A
100
AcDbEntity
  8
PV
  6
Continuous
 62
     3
100
AcDbCircle
 10
-264.9845846744689
 20
934.1952375442497
 30
0.0
 40
4.999999925494194
  0
CIRCLE
  5
17E
330
A
100
AcDbEntity
  8
PV
  6
Continuous
 62
     3
100
AcDbCircle
 10
-308.2803298789213
 20
977.4909827487023
 30
0.0
 40
4.999999925494194
  0
CIRCLE
  5
17F
330
A
100
AcDbEntity
  8
PV
  6
Continuous
 62
     3
100
AcDbCircle
 10
-308.2803298789213
 20
1038.720382471079
 30
0.0
 40
4.999999925494194
  0
CIRCLE
  5
180
330
A
100
AcDbEntity
  8
PV
  6
Continuous
 62
     3
100
AcDbCircle
 10
-264.9845846744689
 20
1082.015975087643
 30
0.0
 40
4.999999925494194
  0
CIRCLE
  5
181
330
A
100
AcDbEntity
  8
PV
  6
Continuous
 62
     3
100
AcDbCircle
 10
-203.7551849520924
 20
1082.015975087643
 30
0.0
 40
4.999999925494194
  0
CIRCLE
  5
182
330
A
100
AcDbEntity
  8
PV
  6
Continuous
 62
     3
100
AcDbCircle
 10
-182.7076693965842
 20
1132.829267787497
 30
0.0
 40
4.999999925494194
  0
CIRCLE
  5
183
330
A
100
AcDbEntity
  8
PV
  6
Continuous
 62
     3
100
AcDbCircle
 10
-109.6462328784729
 20
1059.767898026587
 30
0.0
 40
4.999999925494194
  0
CIRCLE
  5
184
330
A
100
AcDbEntity
  8
PV
  6
Continuous
 62
     3
100
AcDbCircle
 10
-109.6462042682438
 20
956.4434671931939
 30
0.0
 40
4.999999925494194
  0
CIRCLE
  5
185
330
A
100
AcDbEntity
  8
PV
  6
Continuous
 62
     3
100
AcDbCircle
 10
-182.7076693965842
 20
883.3817922565073
 30
0.0
 40
4.999999925494194
  0
CIRCLE
  5
186
330
A
100
AcDbEntity
  8
PV
  6
Continuous
 62
     3
100
AcDbCircle
 10
-286.032100229977
 20
883.3817922565073
 30
0.0
 40
4.999999925494194
  0
CIRCLE
  5
187
330
A
100
AcDbEntity
  8
PV
  6
Continuous
 62
     3
100
AcDbCircle
 10
-359.0936225787755
 20
956.4433146053056
 30
0.0
 40
4.999999925494194
  0
CIRCLE
  5
188
330
A
100
AcDbEntity
  8
PV
  6
Continuous
 62
     3
100
AcDbCircle
 10
-359.0936225787755
 20
1059.767898026587
 30
0.0
 40
4.999999925494194
  0
CIRCLE
  5
189
330
A
100
AcDbEntity
  8
PV
  6
Continuous
 62
     3
100
AcDbCircle
 10
-286.0322528178654
 20
1132.829267787497
 30
0.0
 40
4.999999925494194
  0
CIRCLE
  5
18A
330
A
100
AcDbEntity
  8
PV
  6
CENTER
 62
     7
100
AcDbCircle
 10
-234.3699611072247
 20
1008.105606315946
 30
0.0
 40
134.9999979883433
  0
CIRCLE
  5
18B
330
A
100
AcDbEntity
  8
PV
  6
CENTER
 62
     7
100
AcDbCircle
 10
-234.3699611072247
 20
1008.105606315946
 30
0.0
 40
79.99999880790712
  0
CIRCLE
  5
18C
330
A
100
AcDbEntity
  8
PV
  6
Continuous
 62
     3
100
AcDbCircle
 10
-234.3699611072247
 20
1008.105606315946
 30
0.0
 40
64.99999903142454
  0
CIRCLE
  5
18D
330
A
100
AcDbEntity
  8
PV
  6
Continuous
 62
     3
100
AcDbCircle
 10
-234.3699611072247
 20
1008.105606315946
 30
0.0
 40
59.99999910593034
  0
CIRCLE
  5
18E
330
A
100
AcDbEntity
  8
PV
  6
Continuous
 62
     3
100
AcDbCircle
 10
-234.3699611072247
 20
1008.105606315946
 30
0.0
 40
92.4999986216426
  0
CIRCLE
  5
18F
330
A
100
AcDbEntity
  8
PV
  6
Continuous
 62
     3
100
AcDbCircle
 10
-234.3699611072247
 20
1008.105606315946
 30
0.0
 40
149.9999977648258
  0
ARC
  5
190
330
A
100
AcDbEntity
  8
PV
  6
Continuous
 62
     3
100
AcDbCircle
 10
282.6300006712973
 20
986.1056371613496
 30
0.0
 40
3.000000074505805
100
AcDbArc
 50
270.0000179860893
 51
0.0
  0
ARC
  5
191
330
A
100
AcDbEntity
  8
PV
  6
Continuous
 62
     3
100
AcDbCircle
 10
282.6300006712973
 20
1036.105636416291
 30
0.0
 40
3.000000074505805
100
AcDbArc
 50
270.0000179860893
 51
0.0
  0
ARC
  5
192
330
A
100
AcDbEntity
  8
PV
  6
Continuous
 62
     3
100
AcDbCircle
 10
282.6300006712973
 20
966.1056374593728
 30
0.0
 40
3.000000074505805
100
AcDbArc
 50
270.0000179860893
 51
0.0
  0
ARC
  5
193
330
A
100
AcDbEntity
  8
PV
  6
Continuous
 62
     3
100
AcDbCircle
 10
282.6300006712973
 20
1050.10557517252
 30
0.0
 40
3.000000074505805
100
AcDbArc
 50
0.0
 51
89.99998201391065
  0
ARC
  5
194
330
A
100
AcDbEntity
  8
PV
  6
Continuous
 62
     3
100
AcDbCircle
 10
282.6300006712973
 20
-265.7328756789435
 30
0.0
 40
3.000000074505805
100
AcDbArc
 50
270.0000179860893
 51
0.0
  0
ARC
  5
195
330
A
100
AcDbEntity
  8
PV
  6
Continuous
 62
     3
100
AcDbCircle
 10
282.6300006712973
 20
-215.7328764240014
 30
0.0
 40
3.000000074505805
100
AcDbArc
 50
270.0000179860893
 51
0.0
  0
ARC
  5
196
330
A
100
AcDbEntity
  8
PV
  6
Continuous
 62
     3
100
AcDbCircle
 10
282.6300006712973
 20
-285.7328753809202
 30
0.0
 40
3.000000074505805
100
AcDbArc
 50
270.0000179860893
 51
0.0
  0
ARC
  5
197
330
A
100
AcDbEntity
  8
PV
  6
Continuous
 62
     3
100
AcDbCircle
 10
282.6300006712973
 20
-201.7329376677731
 30
0.0
 40
3.000000074505805
100
AcDbArc
 50
0.0
 51
89.99998201391065
  0
ARC
  5
198
330
A
100
AcDbEntity
  8
PV
  6
Continuous
 62
     3
100
AcDbCircle
 10
5.630140220669802
 20
-390.7339419315168
 30
0.0
 40
49.99999925494195
100
AcDbArc
 50
179.9999813306653
 51
359.9999826971572
  0
CIRCLE
  5
199
330
A
100
AcDbEntity
  8
PV
  6
Continuous
 62
     3
100
AcDbCircle
 10
-104.3699630443757
 20
163.2659887780846
 30
0.0
 40
7.499999888241292
  0
CIRCLE
  5
19A
330
A
100
AcDbEntity
  8
PV
  6
Continuous
 62
     3
100
AcDbCircle
 10
-364.3699591700738
 20
163.2659887780846
 30
0.0
 40
7.499999888241292
  0
ARC
  5
19B
330
A
100
AcDbEntity
  8
PV
  6
Continuous
 62
     3
100
AcDbCircle
 10
-982.4140783784676
 20
-451.2338189596857
 30
0.0
 40
8.500000111758707
100
AcDbArc
 50
180.0000186693347
 51
270.0000006832453
  0
ARC
  5
19C
330
A
100
AcDbEntity
  8
PV
  6
Continuous
 62
     3
100
AcDbCircle
 10
-1251.414318510676
 20
-451.2338189596857
 30
0.0
 40
8.500000111758707
100
AcDbArc
 50
270.0000179860893
 51
0.0
  0
ARC
  5
19D
330
A
100
AcDbEntity
  8
PV
  6
Continuous
 62
     3
100
AcDbCircle
 10
-1307.914256633605
 20
-463.7338187734212
 30
0.0
 40
3.99999970197678
100
AcDbArc
 50
89.99998201391065
 51
180.0000186693347
  0
ARC
  5
19E
330
A
100
AcDbEntity
  8
PV
  6
Continuous
 62
     3
100
AcDbCircle
 10
-925.9141402555384
 20
-463.7338187734212
 30
0.0
 40
3.99999970197678
100
AcDbArc
 50
0.0
 51
89.99998201391065
  0
CIRCLE
  5
19F
330
A
100
AcDbEntity
  8
PV
  6
Continuous
 62
     3
100
AcDbCircle
 10
-1201.104565842382
 20
-22.48045887827189
 30
0.0
 40
10.99996550381235
  0
CIRCLE
  5
1A0
330
A
100
AcDbEntity
  8
PV
  6
Continuous
 62
     3
100
AcDbCircle
 10
-1032.723831046762
 20
-22.48045887827189
 30
0.0
 40
10.99996550381235
  0
CIRCLE
  5
1A1
330
A
100
AcDbEntity
  8
PV
  6
Continuous
 62
     3
100
AcDbCircle
 10
-913.6607224693785
 20
-141.5436151393709
 30
0.0
 40
10.99996550381235
  0
CIRCLE
  5
1A2
330
A
100
AcDbEntity
  8
PV
  6
Continuous
 62
     3
100
AcDbCircle
 10
-913.6607224693785
 20
-309.9243117880178
 30
0.0
 40
10.99996550381235
  0
CIRCLE
  5
1A3
330
A
100
AcDbEntity
  8
PV
  6
Continuous
 62
     3
100
AcDbCircle
 10
-1032.723831046762
 20
-428.9874203654017
 30
0.0
 40
10.99996550381235
  0
CIRCLE
  5
1A4
330
A
100
AcDbEntity
  8
PV
  6
Continuous
 62
     3
100
AcDbCircle
 10
-1201.104565842382
 20
-428.9874203654017
 30
0.0
 40
10.99996550381235
  0
CIRCLE
  5
1A5
330
A
100
AcDbEntity
  8
PV
  6
Continuous
 62
     3
100
AcDbCircle
 10
-1320.167674419765
 20
-309.9243117880178
 30
0.0
 40
10.99996550381235
  0
CIRCLE
  5
1A6
330
A
100
AcDbEntity
  8
PV
  6
Continuous
 62
     3
100
AcDbCircle
 10
-1320.167674419765
 20
-141.5435293086837
 30
0.0
 40
10.99996550381235
  0
CIRCLE
  5
1A7
330
A
100
AcDbEntity
  8
PV
  6
Continuous
 62
     3
100
AcDbCircle
 10
-1116.914198444572
 20
-225.7339443902083
 30
0.0
 40
234.9999964982272
  0
CIRCLE
  5
1A8
330
A
100
AcDbEntity
  8
PV
  6
CENTER
 62
     7
100
AcDbCircle
 10
-1116.914198444572
 20
-225.7339443902083
 30
0.0
 40
219.9999967217446
  0
ARC
  5
1A9
330
A
100
AcDbEntity
  8
PV
  6
Continuous
 62
     3
100
AcDbCircle
 10
-484.3699573819345
 20
-175.7339451352664
 30
0.0
 40
4.999969527125812
100
AcDbArc
 50
89.99998201391065
 51
270.0000006832453
  0
ARC
  5
1AA
330
A
100
AcDbEntity
  8
PV
  6
Continuous
 62
     3
100
AcDbCircle
 10
-464.3699576799576
 20
953.10560713551
 30
0.0
 40
24.99999962747098
100
AcDbArc
 50
180.0000359721787
 51
270.0000179860893
  0
ARC
  5
1AB
330
A
100
AcDbEntity
  8
PV
  6
Continuous
 62
     3
100
AcDbCircle
 10
-464.3699576799576
 20
1063.105452908494
 30
0.0
 40
24.99999962747098
100
AcDbArc
 50
89.99998201391065
 51
180.0000186693347
  0
ARC
  5
1AC
330
A
100
AcDbEntity
  8
PV
  6
Continuous
 62
     3
100
AcDbCircle
 10
-464.3699576799576
 20
953.10560713551
 30
0.0
 40
14.99999977648258
100
AcDbArc
 50
180.0000359721787
 51
270.0000179860893
  0
ARC
  5
1AD
330
A
100
AcDbEntity
  8
PV
  6
Continuous
 62
     3
100
AcDbCircle
 10
-464.3699576799576
 20
1063.105605496382
 30
0.0
 40
14.99999977648258
100
AcDbArc
 50
89.99998201391065
 51
180.0000186693347
  0
ARC
  5
1AE
330
A
100
AcDbEntity
  8
PV
  6
Continuous
 62
     3
100
AcDbCircle
 10
-464.3699576799576
 20
953.10560713551
 30
0.0
 40
19.99999970197678
100
AcDbArc
 50
180.0000359721787
 51
270.0000179860893
  0
ARC
  5
1AF
330
A
100
AcDbEntity
  8
PV
  6
Continuous
 62
     3
100
AcDbCircle
 10
-464.3699576799576
 20
1063.105605496382
 30
0.0
 40
19.99999970197678
100
AcDbArc
 50
89.99998201391065
 51
180.0000186693347
  0
ARC
  5
1B0
330
A
100
AcDbEntity
  8
PV
  6
Continuous
 62
     3
100
AcDbCircle
 10
-1041.914199562159
 20
-175.7339451352664
 30
0.0
 40
4.999969527125812
100
AcDbArc
 50
270.0000179860893
 51
89.99998201391065
  0
ARC
  5
1B1
330
A
100
AcDbEntity
  8
PV
  6
Continuous
 62
     3
100
AcDbCircle
 10
-1191.914197326985
 20
-175.7339451352664
 30
0.0
 40
4.999969527125812
100
AcDbArc
 50
89.99998201391065
 51
270.0000006832453
  0
ARC
  5
1B2
330
A
100
AcDbEntity
  8
PV
  6
Continuous
 62
     3
100
AcDbCircle
 10
5.630140220669802
 20
939.008927658067
 30
0.0
 40
9.999999850988389
100
AcDbArc
 50
134.4279583382557
 51
225.5720243589002
  0
ARC
  5
1B3
330
A
100
AcDbEntity
  8
PV
  6
Continuous
 62
     3
100
AcDbCircle
 10
5.630140220669802
 20
939.008927658067
 30
0.0
 40
14.99999977648258
100
AcDbArc
 50
311.8097778958934
 51
48.19022210410654
  0
ARC
  5
1B4
330
A
100
AcDbEntity
  8
PV
  6
Continuous
 62
     3
100
AcDbCircle
 10
5.630140220669802
 20
939.008927658067
 30
0.0
 40
14.99999977648258
100
AcDbArc
 50
127.8277006564623
 51
254.5339388927219
  0
ARC
  5
1B5
330
A
100
AcDbEntity
  8
PV
  6
Continuous
 62
     3
100
AcDbCircle
 10
282.6319843138459
 20
986.1056371613496
 30
0.0
 40
3.000000074505805
100
AcDbArc
 50
270.0000179860893
 51
0.0
  0
ARC
  5
1B6
330
A
100
AcDbEntity
  8
PV
  6
Continuous
 62
     3
100
AcDbCircle
 10
282.6319843138459
 20
1036.105636416291
 30
0.0
 40
3.000000074505805
100
AcDbArc
 50
270.0000179860893
 51
0.0
  0
ARC
  5
1B7
330
A
100
AcDbEntity
  8
PV
  6
Continuous
 62
     3
100
AcDbCircle
 10
282.6319843138459
 20
966.1056374593728
 30
0.0
 40
3.000000074505805
100
AcDbArc
 50
270.0000179860893
 51
0.0
  0
ARC
  5
1B8
330
A
100
AcDbEntity
  8
PV
  6
Continuous
 62
     3
100
AcDbCircle
 10
282.6319843138459
 20
1050.10557517252
 30
0.0
 40
3.000000074505805
100
AcDbArc
 50
0.0
 51
89.99998201391065
  0
CIRCLE
  5
1B9
330
A
100
AcDbEntity
  8
PV
  6
Continuous
 62
     3
100
AcDbCircle
 10
-960.0440835946189
 20
-272.6040608792892
 30
0.0
 40
4.999999925494194
  0
CIRCLE
  5
1BA
330
A
100
AcDbEntity
  8
PV
  6
Continuous
 62
     3
100
AcDbCircle
 10
-1013.784164580939
 20
-272.6040608792892
 30
0.0
 40
4.999999925494194
  0
CIRCLE
  5
1BB
330
A
100
AcDbEntity
  8
PV
  6
Continuous
 62
     3
100
AcDbCircle
 10
-1013.784164580939
 20
-218.8639798929694
 30
0.0
 40
4.999999925494194
  0
CIRCLE
  5
1BC
330
A
100
AcDbEntity
  8
PV
  6
Continuous
 62
     3
100
AcDbCircle
 10
-960.0440835946189
 20
-218.8639798929694
 30
0.0
 40
4.999999925494194
  0
CIRCLE
  5
1BD
330
A
100
AcDbEntity
  8
PV
  6
Continuous
 62
     3
100
AcDbCircle
 10
-986.9142003817231
 20
-245.7339440921852
 30
0.0
 40
26.99999769032005
  0
CIRCLE
  5
1BE
330
A
100
AcDbEntity
  8
PV
  6
Continuous
 62
     3
100
AcDbCircle
 10
-986.9142003817231
 20
-245.7339440921852
 30
0.0
 40
44.00000506639472
  0
CIRCLE
  5
1BF
330
A
100
AcDbEntity
  8
PV
  6
CENTER
 62
     7
100
AcDbCircle
 10
-986.9142003817231
 20
-245.7339440921852
 30
0.0
 40
38.00000134110449
  0
ARC
  5
1C0
330
A
100
AcDbEntity
  8
PV
  6
Continuous
 62
     3
100
AcDbCircle
 10
13.70848635273447
 20
-388.7335147152317
 30
0.0
 40
1.99999985098839
100
AcDbArc
 50
270.0000179860893
 51
357.7093364061644
  0
CIRCLE
  5
1C1
330
A
100
AcDbEntity
  8
PV
  6
Continuous
 62
     3
100
AcDbCircle
 10
5.630140220669802
 20
-410.7339416334935
 30
0.0
 40
8.499995939433635
  0
CIRCLE
  5
1C2
330
A
100
AcDbEntity
  8
PV
  6
Continuous
 62
     3
100
AcDbCircle
 10
5.630140220669802
 20
-410.7339416334935
 30
0.0
 40
9.999996274709756
  0
ARC
  5
1C3
330
A
100
AcDbEntity
  8
PV
  6
Continuous
 62
     3
100
AcDbCircle
 10
-1.448259332056949
 20
-388.7335147152317
 30
0.0
 40
1.99999985098839
100
AcDbArc
 50
182.2906628537475
 51
270.000127269116
  0
ARC
  5
1C4
330
A
100
AcDbEntity
  8
PV
  6
Continuous
 62
     3
100
AcDbCircle
 10
5.596914207981314
 20
-395.2709902037532
 30
0.0
 40
9.037233456414439
100
AcDbArc
 50
70.39001713318381
 51
109.1658206740466
  0
ARC
  5
1C5
330
A
100
AcDbEntity
  8
PV
  6
Continuous
 62
     3
100
AcDbCircle
 10
1.249990444630526
 20
-388.1167544705159
 30
0.0
 40
1.953382462957762
100
AcDbArc
 50
45.03704478320265
 51
74.57222392425265
  0
ARC
  5
1C6
330
A
100
AcDbEntity
  8
PV
  6
Continuous
 62
     3
100
AcDbCircle
 10
10.00022873282091
 20
-388.018640458306
 30
0.0
 40
1.862153979209751
100
AcDbArc
 50
106.5339575415439
 51
137.3743380216592
  0
ARC
  5
1C7
330
A
100
AcDbEntity
  8
PV
  6
Continuous
 62
     3
100
AcDbCircle
 10
10.00022873282091
 20
-388.018640458306
 30
0.0
 40
1.862153979209751
100
AcDbArc
 50
106.5339575415439
 51
137.3743380216592
  0
LINE
  5
1C8
330
A
100
AcDbEntity
  8
PV
  6
CENTER
 62
     7
100
AcDbLine
 10
137.3015860125186
 20
176.0534641734739
 30
0.0
 11
137.3015860125186
 21
-15.13999916404487
 31
0.0
  0
LINE
  5
1C9
330
A
100
AcDbEntity
  8
PV
  6
CENTER
 62
     7
100
AcDbLine
 10
204.2829288232915
 20
56.52152599958418
 30
0.0
 11
218.1411211798453
 21
50.78127424595969
 31
0.0
  0
LINE
  5
1CA
330
A
100
AcDbEntity
  8
PV
  6
CENTER
 62
     7
100
AcDbLine
 10
204.2827895428992
 20
112.0105812458722
 30
0.0
 11
218.140981899453
 21
117.7508329994967
 31
0.0
  0
LINE
  5
1CB
330
A
100
AcDbEntity
  8
PV
  6
CENTER
 62
     7
100
AcDbLine
 10
165.0461925001168
 20
151.2473076051273
 30
0.0
 11
170.7864442537412
 21
165.1054999616811
 31
0.0
  0
LINE
  5
1CC
330
A
100
AcDbEntity
  8
PV
  6
CENTER
 62
     7
100
AcDbLine
 10
165.0460590071381
 20
17.28476074756962
 30
0.0
 11
170.7863107607626
 21
3.426568391015829
 31
0.0
  0
LINE
  5
1CD
330
A
100
AcDbEntity
  8
PV
  6
CENTER
 62
     7
100
AcDbLine
 10
-116.5750221043571
 20
959.3136458666823
 30
0.0
 11
-102.7168297478033
 21
953.573394113058
 31
0.0
  0
LINE
  5
1CE
330
A
100
AcDbEntity
  8
PV
  6
CENTER
 62
     7
100
AcDbLine
 10
-315.2093119139778
 20
1041.590505088671
 30
0.0
 11
-301.351119557424
 21
1035.850253335047
 31
0.0
  0
LINE
  5
1CF
330
A
100
AcDbEntity
  8
PV
  6
CENTER
 62
     7
100
AcDbLine
 10
-167.3884524712481
 20
980.3610946571495
 30
0.0
 11
-153.5302601146943
 21
974.6208429035249
 31
0.0
  0
LINE
  5
1D0
330
A
100
AcDbEntity
  8
PV
  6
CENTER
 62
     7
100
AcDbLine
 10
-366.0225429151857
 20
1062.638036459101
 30
0.0
 11
-352.1643505586319
 21
1056.897784705476
 31
0.0
  0
LINE
  5
1D1
330
A
100
AcDbEntity
  8
PV
  6
CENTER
 62
     7
100
AcDbLine
 10
-315.2094619688746
 20
974.6208663716114
 30
0.0
 11
-301.3512696123208
 21
980.361118125236
 31
0.0
  0
LINE
  5
1D2
330
A
100
AcDbEntity
  8
PV
  6
CENTER
 62
     7
100
AcDbLine
 10
-167.3889285257972
 20
1035.850141769643
 30
0.0
 11
-153.5307361692434
 21
1041.590393523268
 31
0.0
  0
LINE
  5
1D3
330
A
100
AcDbEntity
  8
PV
  6
CENTER
 62
     7
100
AcDbLine
 10
-116.5755565517666
 20
1056.897731532933
 30
0.0
 11
-102.7173641952128
 21
1062.637983286558
 31
0.0
  0
LINE
  5
1D4
330
A
100
AcDbEntity
  8
PV
  6
CENTER
 62
     7
100
AcDbLine
 10
-366.022789888898
 20
953.5732948560907
 30
0.0
 11
-352.1645975323441
 21
959.313546609715
 31
0.0
  0
LINE
  5
1D5
330
A
100
AcDbEntity
  8
PV
  6
CENTER
 62
     7
100
AcDbLine
 10
-288.9019662145349
 20
876.4527590195466
 30
0.0
 11
-283.1617144609103
 21
890.3109513761004
 31
0.0
  0
LINE
  5
1D6
330
A
100
AcDbEntity
  8
PV
  6
CENTER
 62
     7
100
AcDbLine
 10
-267.8545174240676
 20
927.2661893864377
 30
0.0
 11
-262.1142656704432
 21
941.1243817429914
 31
0.0
  0
LINE
  5
1D7
330
A
100
AcDbEntity
  8
PV
  6
CENTER
 62
     7
100
AcDbLine
 10
-206.6251653854063
 20
1075.086907856344
 30
0.0
 11
-200.8849136317818
 21
1088.945100212898
 31
0.0
  0
LINE
  5
1D8
330
A
100
AcDbEntity
  8
PV
  6
CENTER
 62
     7
100
AcDbLine
 10
-185.5776340149769
 20
1125.900138857552
 30
0.0
 11
-179.8373822613524
 21
1139.758331214106
 31
0.0
  0
LINE
  5
1D9
330
A
100
AcDbEntity
  8
PV
  6
CENTER
 62
     7
100
AcDbLine
 10
-206.6255004671328
 20
941.1243869633089
 30
0.0
 11
-200.8852487135082
 21
927.2661946067552
 31
0.0
  0
LINE
  5
1DA
330
A
100
AcDbEntity
  8
PV
  6
CENTER
 62
     7
100
AcDbLine
 10
-267.8547115329715
 20
1088.945163826076
 30
0.0
 11
-262.114459779347
 21
1075.086971469523
 31
0.0
  0
LINE
  5
1DB
330
A
100
AcDbEntity
  8
PV
  6
CENTER
 62
     7
100
AcDbLine
 10
-185.5779107038429
 20
890.3110149892782
 30
0.0
 11
-179.8376589502184
 21
876.4528226327245
 31
0.0
  0
LINE
  5
1DC
330
A
100
AcDbEntity
  8
PV
  6
CENTER
 62
     7
100
AcDbLine
 10
-288.902442269084
 20
1139.758477407246
 30
0.0
 11
-283.1621905154595
 21
1125.900285050693
 31
0.0
  0
LINE
  5
1DD
330
A
100
AcDbEntity
  8
PV
  6
Continuous
 62
     3
100
AcDbLine
 10
70.6300820316362
 20
967.9055641903644
 30
0.0
 11
70.6300820316362
 21
978.1066748781997
 31
0.0
  0
LINE
  5
1DE
330
A
100
AcDbEntity
  8
PV
  6
Continuous
 62
     3
100
AcDbLine
 10
70.6300820316362
 20
1067.905562700248
 30
0.0
 11
70.6300820316362
 21
1078.105605272865
 31
0.0
  0
LINE
  5
1DF
330
A
100
AcDbEntity
  8
PV
  6
Continuous
 62
     3
100
AcDbLine
 10
22.17536893225656
 20
954.1056681557643
 30
0.0
 11
67.63008016899108
 21
954.1056681557643
 31
0.0
  0
LINE
  5
1E0
330
A
100
AcDbEntity
  8
PV
  6
Continuous
 62
     3
100
AcDbLine
 10
21.74924818054962
 20
962.1055459662445
 30
0.0
 11
67.63008016899108
 21
962.1055459662445
 31
0.0
  0
LINE
  5
1E1
330
A
100
AcDbEntity
  8
PV
  6
Continuous
 62
     3
100
AcDbLine
 10
67.63008016899108
 20
948.3056499316445
 30
0.0
 11
67.63008016899108
 21
967.9055641903644
 31
0.0
  0
LINE
  5
1E2
330
A
100
AcDbEntity
  8
PV
  6
Continuous
 62
     3
100
AcDbLine
 10
67.63008016899108
 20
953.3056498571387
 30
0.0
 11
74.63007815733435
 21
953.3056498571387
 31
0.0
  0
LINE
  5
1E3
330
A
100
AcDbEntity
  8
PV
  6
Continuous
 62
     3
100
AcDbLine
 10
67.63008016899108
 20
962.9055642648703
 30
0.0
 11
74.63007815733435
 21
962.9055642648703
 31
0.0
  0
LINE
  5
1E4
330
A
100
AcDbEntity
  8
PV
  6
Continuous
 62
     3
100
AcDbLine
 10
67.63008016899108
 20
948.3056499316445
 30
0.0
 11
74.63007815733435
 21
948.3056499316445
 31
0.0
  0
LINE
  5
1E5
330
A
100
AcDbEntity
  8
PV
  6
Continuous
 62
     3
100
AcDbLine
 10
67.63008016899108
 20
967.9055641903644
 30
0.0
 11
74.63007815733435
 21
967.9055641903644
 31
0.0
  0
LINE
  5
1E6
330
A
100
AcDbEntity
  8
PV
  6
Continuous
 62
     3
100
AcDbLine
 10
74.63007815733435
 20
946.1056377573958
 30
0.0
 11
74.63007815733435
 21
970.1055763646129
 31
0.0
  0
LINE
  5
1E7
330
A
100
AcDbEntity
  8
PV
  6
Continuous
 62
     3
100
AcDbLine
 10
74.63007815733435
 20
946.1056377573958
 30
0.0
 11
75.6300819571304
 21
946.1056377573958
 31
0.0
  0
LINE
  5
1E8
330
A
100
AcDbEntity
  8
PV
  6
Continuous
 62
     3
100
AcDbLine
 10
74.63007815733435
 20
970.1055763646129
 30
0.0
 11
75.6300819571304
 21
970.1055763646129
 31
0.0
  0
LINE
  5
1E9
330
A
100
AcDbEntity
  8
PV
  6
Continuous
 62
     3
100
AcDbLine
 10
22.96671833147528
 20
953.10560713551
 30
0.0
 11
67.63008016899108
 21
953.10560713551
 31
0.0
  0
LINE
  5
1EA
330
A
100
AcDbEntity
  8
PV
  6
Continuous
 62
     3
100
AcDbLine
 10
23.51458514460049
 20
963.1056069864987
 30
0.0
 11
67.63008016899108
 21
963.1056069864987
 31
0.0
  0
LINE
  5
1EB
330
A
100
AcDbEntity
  8
PV
  6
CENTER
 62
     7
100
AcDbLine
 10
21.99274030338615
 20
958.1056070610044
 30
0.0
 11
103.8539584896868
 21
958.1056070610044
 31
0.0
  0
LINE
  5
1EC
330
A
100
AcDbEntity
  8
PV
  6
Continuous
 62
     3
100
AcDbLine
 10
70.6300820316362
 20
1036.10670453151
 30
0.0
 11
70.6300820316362
 21
1048.305648441528
 31
0.0
  0
LINE
  5
1ED
330
A
100
AcDbEntity
  8
PV
  6
Continuous
 62
     3
100
AcDbLine
 10
70.6300820316362
 20
938.1056073590276
 30
0.0
 11
70.6300820316362
 21
948.3056499316445
 31
0.0
  0
LINE
  5
1EE
330
A
100
AcDbEntity
  8
PV
  6
Continuous
 62
     3
100
AcDbLine
 10
75.6300819571304
 20
943.1056072845217
 30
0.0
 11
100.6300339008862
 21
943.1056072845217
 31
0.0
  0
LINE
  5
1EF
330
A
100
AcDbEntity
  8
PV
  6
Continuous
 62
     3
100
AcDbLine
 10
75.6300819571304
 20
1073.105605347371
 30
0.0
 11
100.6300339008862
 21
1073.105605347371
 31
0.0
  0
LINE
  5
1F0
330
A
100
AcDbEntity
  8
PV
  6
Continuous
 62
     3
100
AcDbLine
 10
20.63013999715239
 20
932.1055464132792
 30
0.0
 11
75.6300819571304
 21
932.1055464132792
 31
0.0
  0
LINE
  5
1F1
330
A
100
AcDbEntity
  8
PV
  6
Continuous
 62
     3
100
AcDbLine
 10
-44.36991625473027
 20
932.1055464132792
 30
0.0
 11
-9.369859555812782
 21
932.1055464132792
 31
0.0
  0
LINE
  5
1F2
330
A
100
AcDbEntity
  8
PV
  6
Continuous
 62
     3
100
AcDbLine
 10
-44.36991625473027
 20
1084.105666218613
 30
0.0
 11
3.63003546550817
 21
1084.105666218613
 31
0.0
  0
LINE
  5
1F3
330
A
100
AcDbEntity
  8
PV
  6
Continuous
 62
     3
100
AcDbLine
 10
17.07723592106646
 20
1084.105666218613
 30
0.0
 11
75.6300819571304
 21
1084.105666218613
 31
0.0
  0
LINE
  5
1F4
330
A
100
AcDbEntity
  8
PV
  6
Continuous
 62
     3
100
AcDbLine
 10
20.63013999715239
 20
938.1056073590276
 30
0.0
 11
75.6300819571304
 21
938.1056073590276
 31
0.0
  0
LINE
  5
1F5
330
A
100
AcDbEntity
  8
PV
  6
Continuous
 62
     3
100
AcDbLine
 10
17.07723592106646
 20
1078.105605272865
 30
0.0
 11
75.6300819571304
 21
1078.105605272865
 31
0.0
  0
LINE
  5
1F6
330
A
100
AcDbEntity
  8
PV
  6
Continuous
 62
     3
100
AcDbLine
 10
-44.36991625473027
 20
938.1056073590276
 30
0.0
 11
-9.369859555812782
 21
938.1056073590276
 31
0.0
  0
LINE
  5
1F7
330
A
100
AcDbEntity
  8
PV
  6
Continuous
 62
     3
100
AcDbLine
 10
-44.36991625473027
 20
1078.105605272865
 30
0.0
 11
3.63003546550817
 21
1078.105605272865
 31
0.0
  0
LINE
  5
1F8
330
A
100
AcDbEntity
  8
PV
  6
Continuous
 62
     3
100
AcDbLine
 10
-44.36991625473027
 20
863.1056084766147
 30
0.0
 11
75.6300819571304
 21
863.1056084766147
 31
0.0
  0
LINE
  5
1F9
330
A
100
AcDbEntity
  8
PV
  6
Continuous
 62
     3
100
AcDbLine
 10
-44.36991625473027
 20
1153.105604155278
 30
0.0
 11
75.6300819571304
 21
1153.105604155278
 31
0.0
  0
LINE
  5
1FA
330
A
100
AcDbEntity
  8
PV
  6
Continuous
 62
     3
100
AcDbLine
 10
-44.36991625473027
 20
1065.255568843252
 30
0.0
 11
-44.36991625473027
 21
1211.305523942328
 31
0.0
  0
LINE
  5
1FB
330
A
100
AcDbEntity
  8
PV
  6
Continuous
 62
     3
100
AcDbLine
 10
-59.36993510469889
 20
1065.255568843252
 30
0.0
 11
-59.36993510469889
 21
1211.305523942328
 31
0.0
  0
LINE
  5
1FC
330
A
100
AcDbEntity
  8
PV
  6
Continuous
 62
     3
100
AcDbLine
 10
-269.3699605856842
 20
799.9055361761817
 30
0.0
 11
-199.369809040877
 21
799.9055361761817
 31
0.0
  0
LINE
  5
1FD
330
A
100
AcDbEntity
  8
PV
  6
Continuous
 62
     3
100
AcDbLine
 10
21.68837514984049
 20
1054.105666665648
 30
0.0
 11
67.63008016899108
 21
1054.105666665648
 31
0.0
  0
LINE
  5
1FE
330
A
100
AcDbEntity
  8
PV
  6
Continuous
 62
     3
100
AcDbLine
 10
19.61867303224395
 20
1062.105544476128
 30
0.0
 11
67.63008016899108
 21
1062.105544476128
 31
0.0
  0
LINE
  5
1FF
330
A
100
AcDbEntity
  8
PV
  6
Continuous
 62
     3
100
AcDbLine
 10
67.63008016899108
 20
1048.305648441528
 30
0.0
 11
67.63008016899108
 21
1067.905562700248
 31
0.0
  0
LINE
  5
200
330
A
100
AcDbEntity
  8
PV
  6
Continuous
 62
     3
100
AcDbLine
 10
67.63008016899108
 20
1053.305648367023
 30
0.0
 11
74.63007815733435
 21
1053.305648367023
 31
0.0
  0
LINE
  5
201
330
A
100
AcDbEntity
  8
PV
  6
Continuous
 62
     3
100
AcDbLine
 10
67.63008016899108
 20
1062.905562774754
 30
0.0
 11
74.63007815733435
 21
1062.905562774754
 31
0.0
  0
LINE
  5
202
330
A
100
AcDbEntity
  8
PV
  6
Continuous
 62
     3
100
AcDbLine
 10
67.63008016899108
 20
1048.305648441528
 30
0.0
 11
74.63007815733435
 21
1048.305648441528
 31
0.0
  0
LINE
  5
203
330
A
100
AcDbEntity
  8
PV
  6
Continuous
 62
     3
100
AcDbLine
 10
67.63008016899108
 20
1067.905562700248
 30
0.0
 11
74.63007815733435
 21
1067.905562700248
 31
0.0
  0
LINE
  5
204
330
A
100
AcDbEntity
  8
PV
  6
Continuous
 62
     3
100
AcDbLine
 10
74.63007815733435
 20
1046.10563626728
 30
0.0
 11
74.63007815733435
 21
1070.105574874497
 31
0.0
  0
LINE
  5
205
330
A
100
AcDbEntity
  8
PV
  6
Continuous
 62
     3
100
AcDbLine
 10
74.63007815733435
 20
1046.10563626728
 30
0.0
 11
75.6300819571304
 21
1046.10563626728
 31
0.0
  0
LINE
  5
206
330
A
100
AcDbEntity
  8
PV
  6
Continuous
 62
     3
100
AcDbLine
 10
74.63007815733435
 20
1070.105574874497
 30
0.0
 11
75.6300819571304
 21
1070.105574874497
 31
0.0
  0
LINE
  5
207
330
A
100
AcDbEntity
  8
PV
  6
Continuous
 62
     3
100
AcDbLine
 10
22.66235317792962
 20
1053.105605645394
 30
0.0
 11
67.63008016899108
 21
1053.105605645394
 31
0.0
  0
LINE
  5
208
330
A
100
AcDbEntity
  8
PV
  6
Continuous
 62
     3
100
AcDbLine
 10
23.87982332885528
 20
1063.105605496382
 30
0.0
 11
67.63008016899108
 21
1063.105605496382
 31
0.0
  0
LINE
  5
209
330
A
100
AcDbEntity
  8
PV
  6
CENTER
 62
     7
100
AcDbLine
 10
22.72322620863875
 20
1058.105605570888
 30
0.0
 11
103.8539584896868
 21
1058.105605570888
 31
0.0
  0
LINE
  5
20A
330
A
100
AcDbEntity
  8
PV
  6
Continuous
 62
     3
100
AcDbLine
 10
74.63007815733435
 20
978.1066748781997
 30
0.0
 11
74.63007815733435
 21
1036.10670453151
 31
0.0
  0
LINE
  5
20B
330
A
100
AcDbEntity
  8
PV
  6
Continuous
 62
     3
100
AcDbLine
 10
30.87159110797061
 20
978.1066748781997
 30
0.0
 11
75.6300819571304
 21
978.1066748781997
 31
0.0
  0
LINE
  5
20C
330
A
100
AcDbEntity
  8
PV
  6
Continuous
 62
     3
100
AcDbLine
 10
33.61495921589495
 20
1036.10670453151
 30
0.0
 11
75.6300819571304
 21
1036.10670453151
 31
0.0
  0
LINE
  5
20D
330
A
100
AcDbEntity
  8
PV
  6
Continuous
 62
     3
100
AcDbLine
 10
75.6300819571304
 20
863.1056084766147
 30
0.0
 11
75.6300819571304
 21
1153.105604155278
 31
0.0
  0
LINE
  5
20E
330
A
100
AcDbEntity
  8
PV
  6
Continuous
 62
     3
100
AcDbLine
 10
-95.68368769163358
 20
950.9556437886407
 30
0.0
 11
3.63003546550817
 21
950.9556437886407
 31
0.0
  0
LINE
  5
20F
330
A
100
AcDbEntity
  8
PV
  6
Continuous
 62
     3
100
AcDbLine
 10
-95.68368769163358
 20
1065.255568843252
 30
0.0
 11
3.63003546550817
 21
1065.255568843252
 31
0.0
  0
LINE
  5
210
330
A
100
AcDbEntity
  8
PV
  6
Continuous
 62
     3
100
AcDbLine
 10
3.63003546550817
 20
915.6056076943036
 30
0.0
 11
15.63003516748495
 21
915.6056076943036
 31
0.0
  0
LINE
  5
211
330
A
100
AcDbEntity
  8
PV
  6
Continuous
 62
     3
100
AcDbLine
 10
3.63003546550817
 20
1100.605604937589
 30
0.0
 11
15.63003516748495
 21
1100.605604937589
 31
0.0
  0
LINE
  5
212
330
A
100
AcDbEntity
  8
PV
  6
Continuous
 62
     3
100
AcDbLine
 10
3.63003546550817
 20
915.6056076943036
 30
0.0
 11
3.63003546550817
 21
1100.605604937589
 31
0.0
  0
LINE
  5
213
330
A
100
AcDbEntity
  8
PV
  6
Continuous
 62
     3
100
AcDbLine
 10
15.63003516748495
 20
915.6056076943036
 30
0.0
 11
15.63003516748495
 21
1100.605604937589
 31
0.0
  0
LINE
  5
214
330
A
100
AcDbEntity
  8
PV
  6
Continuous
 62
     3
100
AcDbLine
 10
-414.3699584250158
 20
1211.305523942328
 30
0.0
 11
-44.36991625473027
 21
1211.305523942328
 31
0.0
  0
LINE
  5
215
330
A
100
AcDbEntity
  8
PV
  6
Continuous
 62
     3
100
AcDbLine
 10
-414.3699584250158
 20
804.9055361016758
 30
0.0
 11
-44.36991625473027
 21
804.9055361016758
 31
0.0
  0
LINE
  5
216
330
A
100
AcDbEntity
  8
PV
  6
Continuous
 62
     3
100
AcDbLine
 10
-444.3699579779809
 20
773.1056098177192
 30
0.0
 11
-414.3699584250158
 21
773.1056098177192
 31
0.0
  0
LINE
  5
217
330
A
100
AcDbEntity
  8
PV
  6
Continuous
 62
     3
100
AcDbLine
 10
-444.3699579779809
 20
1243.105602814173
 30
0.0
 11
-414.3699584250158
 21
1243.105602814173
 31
0.0
  0
LINE
  5
218
330
A
100
AcDbEntity
  8
PV
  6
Continuous
 62
     3
100
AcDbLine
 10
-455.8698967714621
 20
834.1056699439036
 30
0.0
 11
-444.3699579779809
 21
834.1056699439036
 31
0.0
  0
LINE
  5
219
330
A
100
AcDbEntity
  8
PV
  6
Continuous
 62
     3
100
AcDbLine
 10
-455.8698967714621
 20
922.1055465622908
 30
0.0
 11
-444.3699579779809
 21
922.1055465622908
 31
0.0
  0
LINE
  5
21A
330
A
100
AcDbEntity
  8
PV
  6
Continuous
 62
     3
100
AcDbLine
 10
-455.8698967714621
 20
922.1055465622908
 30
0.0
 11
-455.8698967714621
 21
834.1056699439036
 31
0.0
  0
LINE
  5
21B
330
A
100
AcDbEntity
  8
PV
  6
Continuous
 62
     3
100
AcDbLine
 10
-59.36993510469889
 20
804.9055361016758
 30
0.0
 11
-59.36993510469889
 21
950.9556437886407
 31
0.0
  0
LINE
  5
21C
330
A
100
AcDbEntity
  8
PV
  6
CENTER
 62
     7
100
AcDbLine
 10
-534.3701092247648
 20
1008.105606315946
 30
0.0
 11
306.8547012380555
 21
1008.105606315946
 31
0.0
  0
LINE
  5
21D
330
A
100
AcDbEntity
  8
PV
  6
Continuous
 62
     3
100
AcDbLine
 10
75.6300819571304
 20
1035.106643511256
 30
0.0
 11
85.63008180811879
 21
1035.106643511256
 31
0.0
  0
LINE
  5
21E
330
A
100
AcDbEntity
  8
PV
  6
Continuous
 62
     3
100
AcDbLine
 10
85.63008180811879
 20
943.1056072845217
 30
0.0
 11
85.63008180811879
 21
1073.105605347371
 31
0.0
  0
LINE
  5
21F
330
A
100
AcDbEntity
  8
PV
  6
Continuous
 62
     3
100
AcDbLine
 10
-44.36991625473027
 20
804.9055361016758
 30
0.0
 11
-44.36991625473027
 21
950.9556437886407
 31
0.0
  0
LINE
  5
220
330
A
100
AcDbEntity
  8
PV
  6
Continuous
 62
     3
100
AcDbLine
 10
-414.3699584250158
 20
773.1056098177192
 30
0.0
 11
-414.3699584250158
 21
1243.105602814173
 31
0.0
  0
LINE
  5
221
330
A
100
AcDbEntity
  8
PV
  6
Continuous
 62
     3
100
AcDbLine
 10
-444.3699579779809
 20
773.1056098177192
 30
0.0
 11
-444.3699579779809
 21
1243.105602814173
 31
0.0
  0
LINE
  5
222
330
A
100
AcDbEntity
  8
PV
  6
Continuous
 62
     3
100
AcDbLine
 10
-429.3699582014983
 20
773.1056098177192
 30
0.0
 11
-429.3699582014983
 21
1243.105602814173
 31
0.0
  0
LINE
  5
223
330
A
100
AcDbEntity
  8
PV
  6
Continuous
 62
     3
100
AcDbLine
 10
-199.369809040877
 20
799.9055361761817
 30
0.0
 11
-199.369809040877
 21
804.9055361016758
 31
0.0
  0
LINE
  5
224
330
A
100
AcDbEntity
  8
PV
  6
Continuous
 62
     3
100
AcDbLine
 10
-269.3699605856842
 20
799.9055361761817
 30
0.0
 11
-269.3699605856842
 21
804.9055361016758
 31
0.0
  0
LINE
  5
225
330
A
100
AcDbEntity
  8
PV
  6
CENTER
 62
     7
100
AcDbLine
 10
-234.3699611072247
 20
799.9055361761817
 30
0.0
 11
-234.3699611072247
 21
1236.210613903245
 31
0.0
  0
LINE
  5
226
330
A
100
AcDbEntity
  8
PV
  6
CENTER
 62
     7
100
AcDbLine
 10
-364.3699591700738
 20
-440.7339411864586
 30
0.0
 11
-364.3699591700738
 21
-490.7339404414007
 31
0.0
  0
LINE
  5
227
330
A
100
AcDbEntity
  8
PV
  6
CENTER
 62
     7
100
AcDbLine
 10
-104.3699630443757
 20
-440.7339411864586
 30
0.0
 11
-104.3699630443757
 21
-490.7339404414007
 31
0.0
  0
LINE
  5
228
330
A
100
AcDbEntity
  8
PV
  6
Continuous
 62
     3
100
AcDbLine
 10
-36.36991446659096
 20
-319.7328138391254
 30
0.0
 11
67.63008016899108
 21
-319.7328138391254
 31
0.0
  0
LINE
  5
229
330
A
100
AcDbEntity
  8
PV
  6
Continuous
 62
     3
100
AcDbLine
 10
-36.36991446659096
 20
-311.7329360286454
 30
0.0
 11
67.63008016899108
 21
-311.7329360286454
 31
0.0
  0
LINE
  5
22A
330
A
100
AcDbEntity
  8
PV
  6
Continuous
 62
     3
100
AcDbLine
 10
93.6300835962581
 20
-319.7328138391254
 30
0.0
 11
102.6300796474504
 21
-319.7328138391254
 31
0.0
  0
LINE
  5
22B
330
A
100
AcDbEntity
  8
PV
  6
Continuous
 62
     3
100
AcDbLine
 10
93.6300835962581
 20
-311.7329360286454
 30
0.0
 11
102.6300796474504
 21
-311.7329360286454
 31
0.0
  0
LINE
  5
22C
330
A
100
AcDbEntity
  8
PV
  6
Continuous
 62
     3
100
AcDbLine
 10
102.6300796474504
 20
-320.7328748593796
 30
0.0
 11
102.6300796474504
 21
-310.7328750083912
 31
0.0
  0
LINE
  5
22D
330
A
100
AcDbEntity
  8
PV
  6
Continuous
 62
     3
100
AcDbLine
 10
102.6300336699712
 20
-320.7328329406853
 30
0.0
 11
103.630035980713
 21
-319.7327953944754
 31
0.0
  0
LINE
  5
22E
330
A
100
AcDbEntity
  8
PV
  6
Continuous
 62
     3
100
AcDbLine
 10
102.6300517164138
 20
-310.7328478417211
 30
0.0
 11
103.6301369723185
 21
-311.7329373969802
 31
0.0
  0
LINE
  5
22F
330
A
100
AcDbEntity
  8
PV
  6
Continuous
 62
     3
100
AcDbLine
 10
103.6300834472465
 20
-319.7328138391254
 30
0.0
 11
103.6300834472465
 21
-311.7329360286454
 31
0.0
  0
LINE
  5
230
330
A
100
AcDbEntity
  8
PV
  6
Continuous
 62
     3
100
AcDbLine
 10
93.6300835962581
 20
-320.7328748593796
 30
0.0
 11
102.6300796474504
 21
-320.7328748593796
 31
0.0
  0
LINE
  5
231
330
A
100
AcDbEntity
  8
PV
  6
Continuous
 62
     3
100
AcDbLine
 10
93.6300835962581
 20
-310.7328750083912
 30
0.0
 11
102.6300796474504
 21
-310.7328750083912
 31
0.0
  0
LINE
  5
232
330
A
100
AcDbEntity
  8
PV
  6
Continuous
 62
     3
100
AcDbLine
 10
67.63008016899108
 20
-325.5328320632453
 30
0.0
 11
67.63008016899108
 21
-305.9329178045255
 31
0.0
  0
LINE
  5
233
330
A
100
AcDbEntity
  8
PV
  6
Continuous
 62
     3
100
AcDbLine
 10
67.63008016899108
 20
-320.5328321377511
 30
0.0
 11
74.63007815733435
 21
-320.5328321377511
 31
0.0
  0
LINE
  5
234
330
A
100
AcDbEntity
  8
PV
  6
Continuous
 62
     3
100
AcDbLine
 10
67.63008016899108
 20
-310.9329177300197
 30
0.0
 11
74.63007815733435
 21
-310.9329177300197
 31
0.0
  0
LINE
  5
235
330
A
100
AcDbEntity
  8
PV
  6
Continuous
 62
     3
100
AcDbLine
 10
67.63008016899108
 20
-325.5328320632453
 30
0.0
 11
74.63007815733435
 21
-325.5328320632453
 31
0.0
  0
LINE
  5
236
330
A
100
AcDbEntity
  8
PV
  6
Continuous
 62
     3
100
AcDbLine
 10
67.63008016899108
 20
-305.9329178045255
 30
0.0
 11
74.63007815733435
 21
-305.9329178045255
 31
0.0
  0
LINE
  5
237
330
A
100
AcDbEntity
  8
PV
  6
Continuous
 62
     3
100
AcDbLine
 10
74.63007815733435
 20
-327.7328442374938
 30
0.0
 11
74.63007815733435
 21
-303.732905630277
 31
0.0
  0
LINE
  5
238
330
A
100
AcDbEntity
  8
PV
  6
Continuous
 62
     3
100
AcDbLine
 10
86.63008560791483
 20
-320.5328321377511
 30
0.0
 11
93.6300835962581
 21
-320.5328321377511
 31
0.0
  0
LINE
  5
239
330
A
100
AcDbEntity
  8
PV
  6
Continuous
 62
     3
100
AcDbLine
 10
86.63008560791483
 20
-310.9329177300197
 30
0.0
 11
93.6300835962581
 21
-310.9329177300197
 31
0.0
  0
LINE
  5
23A
330
A
100
AcDbEntity
  8
PV
  6
Continuous
 62
     3
100
AcDbLine
 10
86.63008560791483
 20
-325.5328320632453
 30
0.0
 11
93.6300835962581
 21
-325.5328320632453
 31
0.0
  0
LINE
  5
23B
330
A
100
AcDbEntity
  8
PV
  6
Continuous
 62
     3
100
AcDbLine
 10
86.63008560791483
 20
-305.9329178045255
 30
0.0
 11
93.6300835962581
 21
-305.9329178045255
 31
0.0
  0
LINE
  5
23C
330
A
100
AcDbEntity
  8
PV
  6
Continuous
 62
     3
100
AcDbLine
 10
93.6300835962581
 20
-325.5328320632453
 30
0.0
 11
93.6300835962581
 21
-305.9329178045255
 31
0.0
  0
LINE
  5
23D
330
A
100
AcDbEntity
  8
PV
  6
Continuous
 62
     3
100
AcDbLine
 10
-43.36991245493423
 20
-320.5328321377511
 30
0.0
 11
-36.36991446659096
 21
-320.5328321377511
 31
0.0
  0
LINE
  5
23E
330
A
100
AcDbEntity
  8
PV
  6
Continuous
 62
     3
100
AcDbLine
 10
-43.36991245493423
 20
-310.9329177300197
 30
0.0
 11
-36.36991446659096
 21
-310.9329177300197
 31
0.0
  0
LINE
  5
23F
330
A
100
AcDbEntity
  8
PV
  6
Continuous
 62
     3
100
AcDbLine
 10
74.63007815733435
 20
-327.7328442374938
 30
0.0
 11
75.6300819571304
 21
-327.7328442374938
 31
0.0
  0
LINE
  5
240
330
A
100
AcDbEntity
  8
PV
  6
Continuous
 62
     3
100
AcDbLine
 10
85.63008180811879
 20
-327.7328442374938
 30
0.0
 11
86.63008560791483
 21
-327.7328442374938
 31
0.0
  0
LINE
  5
241
330
A
100
AcDbEntity
  8
PV
  6
Continuous
 62
     3
100
AcDbLine
 10
74.63007815733435
 20
-303.732905630277
 30
0.0
 11
75.6300819571304
 21
-303.732905630277
 31
0.0
  0
LINE
  5
242
330
A
100
AcDbEntity
  8
PV
  6
Continuous
 62
     3
100
AcDbLine
 10
85.63008180811879
 20
-303.732905630277
 30
0.0
 11
86.63008560791483
 21
-303.732905630277
 31
0.0
  0
LINE
  5
243
330
A
100
AcDbEntity
  8
PV
  6
Continuous
 62
     3
100
AcDbLine
 10
-44.36991625473027
 20
-327.7328442374938
 30
0.0
 11
-43.36991245493423
 21
-327.7328442374938
 31
0.0
  0
LINE
  5
244
330
A
100
AcDbEntity
  8
PV
  6
Continuous
 62
     3
100
AcDbLine
 10
-44.36991625473027
 20
-303.732905630277
 30
0.0
 11
-43.36991245493423
 21
-303.732905630277
 31
0.0
  0
LINE
  5
245
330
A
100
AcDbEntity
  8
PV
  6
Continuous
 62
     3
100
AcDbLine
 10
-43.36991245493423
 20
-325.5328320632453
 30
0.0
 11
-36.36991446659096
 21
-325.5328320632453
 31
0.0
  0
LINE
  5
246
330
A
100
AcDbEntity
  8
PV
  6
Continuous
 62
     3
100
AcDbLine
 10
-43.36991245493423
 20
-305.9329178045255
 30
0.0
 11
-36.36991446659096
 21
-305.9329178045255
 31
0.0
  0
LINE
  5
247
330
A
100
AcDbEntity
  8
PV
  6
Continuous
 62
     3
100
AcDbLine
 10
-36.36991446659096
 20
-325.5328320632453
 30
0.0
 11
-36.36991446659096
 21
-305.9329178045255
 31
0.0
  0
LINE
  5
248
330
A
100
AcDbEntity
  8
PV
  6
Continuous
 62
     3
100
AcDbLine
 10
-43.36991245493423
 20
-327.7328442374938
 30
0.0
 11
-43.36991245493423
 21
-303.732905630277
 31
0.0
  0
LINE
  5
249
330
A
100
AcDbEntity
  8
PV
  6
Continuous
 62
     3
100
AcDbLine
 10
86.63008560791483
 20
-327.7328442374938
 30
0.0
 11
86.63008560791483
 21
-303.732905630277
 31
0.0
  0
LINE
  5
24A
330
A
100
AcDbEntity
  8
PV
  6
Continuous
 62
     3
100
AcDbLine
 10
-36.36991446659096
 20
-320.7328748593796
 30
0.0
 11
67.63008016899108
 21
-320.7328748593796
 31
0.0
  0
LINE
  5
24B
330
A
100
AcDbEntity
  8
PV
  6
Continuous
 62
     3
100
AcDbLine
 10
-36.36991446659096
 20
-310.7328750083912
 30
0.0
 11
67.63008016899108
 21
-310.7328750083912
 31
0.0
  0
LINE
  5
24C
330
A
100
AcDbEntity
  8
PV
  6
Continuous
 62
     3
100
AcDbLine
 10
165.6300329323108
 20
-153.7329078654511
 30
0.0
 11
245.6300317402179
 21
-153.7329078654511
 31
0.0
  0
LINE
  5
24D
330
A
100
AcDbEntity
  8
PV
  6
Continuous
 62
     3
100
AcDbLine
 10
165.6300329323108
 20
-288.7329058537944
 30
0.0
 11
165.6300329323108
 21
-153.7329078654511
 31
0.0
  0
LINE
  5
24E
330
A
100
AcDbEntity
  8
PV
  6
Continuous
 62
     3
100
AcDbLine
 10
285.6300311441715
 20
-285.7328753809202
 30
0.0
 11
285.6300311441715
 21
-201.7329376677731
 31
0.0
  0
LINE
  5
24F
330
A
100
AcDbEntity
  8
PV
  6
Continuous
 62
     3
100
AcDbLine
 10
245.6300317402179
 20
-268.7329061518176
 30
0.0
 11
282.6300006712973
 21
-268.7329061518176
 31
0.0
  0
LINE
  5
250
330
A
100
AcDbEntity
  8
PV
  6
Continuous
 62
     3
100
AcDbLine
 10
245.6300317402179
 20
-218.7329068968757
 30
0.0
 11
282.6300006712973
 21
-218.7329068968757
 31
0.0
  0
LINE
  5
251
330
A
100
AcDbEntity
  8
PV
  6
Continuous
 62
     3
100
AcDbLine
 10
245.6300317402179
 20
-288.7329058537944
 30
0.0
 11
245.6300317402179
 21
-153.7329078654511
 31
0.0
  0
LINE
  5
252
330
A
100
AcDbEntity
  8
PV
  6
CENTER
 62
     7
100
AcDbLine
 10
85.63008180811879
 20
-243.7329065243467
 30
0.0
 11
311.1636306172068
 21
-243.7329065243467
 31
0.0
  0
LINE
  5
253
330
A
100
AcDbEntity
  8
PV
  6
Continuous
 62
     3
100
AcDbLine
 10
85.63008180811879
 20
-273.7327534894235
 30
0.0
 11
142.6301839555772
 21
-273.7327534894235
 31
0.0
  0
LINE
  5
254
330
A
100
AcDbEntity
  8
PV
  6
Continuous
 62
     3
100
AcDbLine
 10
85.63008180811879
 20
-213.7329069713814
 30
0.0
 11
142.6301839555772
 21
-213.7329069713814
 31
0.0
  0
LINE
  5
255
330
A
100
AcDbEntity
  8
PV
  6
Continuous
 62
     3
100
AcDbLine
 10
142.6301839555772
 20
-213.7329069713814
 30
0.0
 11
142.6301839555772
 21
-198.7329071948989
 31
0.0
  0
LINE
  5
256
330
A
100
AcDbEntity
  8
PV
  6
Continuous
 62
     3
100
AcDbLine
 10
142.6301839555772
 20
-288.7327532659061
 30
0.0
 11
142.6301839555772
 21
-273.7327534894235
 31
0.0
  0
LINE
  5
257
330
A
100
AcDbEntity
  8
PV
  6
Continuous
 62
     3
100
AcDbLine
 10
150.6301571334875
 20
-288.7327532659061
 30
0.0
 11
150.6301571334875
 21
-198.7329071948989
 31
0.0
  0
LINE
  5
258
330
A
100
AcDbEntity
  8
PV
  6
Continuous
 62
     3
100
AcDbLine
 10
85.63008180811879
 20
-288.7327532659061
 30
0.0
 11
282.6300006712973
 21
-288.7327532659061
 31
0.0
  0
LINE
  5
259
330
A
100
AcDbEntity
  8
PV
  6
Continuous
 62
     3
100
AcDbLine
 10
85.63008180811879
 20
-198.7329071948989
 30
0.0
 11
282.6300006712973
 21
-198.7329071948989
 31
0.0
  0
LINE
  5
25A
330
A
100
AcDbEntity
  8
PV
  6
CENTER
 62
     7
100
AcDbLine
 10
-41.77263197641623
 20
-315.7328749338854
 30
0.0
 11
103.8539584896868
 21
-315.7328749338854
 31
0.0
  0
LINE
  5
25B
330
A
100
AcDbEntity
  8
PV
  6
Continuous
 62
     3
100
AcDbLine
 10
74.63007815733435
 20
-255.7328758279551
 30
0.0
 11
74.63007815733435
 21
-197.7328461746447
 31
0.0
  0
LINE
  5
25C
330
A
100
AcDbEntity
  8
PV
  6
Continuous
 62
     3
100
AcDbLine
 10
0.6300830747174758
 20
-255.7328758279551
 30
0.0
 11
75.6300819571304
 21
-255.7328758279551
 31
0.0
  0
LINE
  5
25D
330
A
100
AcDbEntity
  8
PV
  6
Continuous
 62
     3
100
AcDbLine
 10
0.6300830747174758
 20
-197.7328461746447
 30
0.0
 11
75.6300819571304
 21
-197.7328461746447
 31
0.0
  0
LINE
  5
25E
330
A
100
AcDbEntity
  8
PV
  6
Continuous
 62
     3
100
AcDbLine
 10
75.6300819571304
 20
-435.7339412609644
 30
0.0
 11
85.63008180811879
 21
-435.7339412609644
 31
0.0
  0
LINE
  5
260
330
A
100
AcDbEntity
  8
PV
  6
DASHED
 62
     3
100
AcDbLine
 10
-384.3699588720506
 20
-428.9340146044787
 30
0.0
 11
-44.36991625473027
 21
-428.9340146044787
 31
0.0
  0
LINE
  5
261
330
A
100
AcDbEntity
  8
PV
  6
Continuous
 62
     3
100
AcDbLine
 10
-384.3699588720506
 20
-465.7339408139296
 30
0.0
 11
-384.3699588720506
 21
-390.7339419315168
 31
0.0
  0
LINE
  5
262
330
A
100
AcDbEntity
  8
PV
  6
Continuous
 62
     3
100
AcDbLine
 10
55.63013947561174
 20
-390.7339419315168
 30
0.0
 11
75.6300819571304
 21
-390.7339419315168
 31
0.0
  0
LINE
  5
263
330
A
100
AcDbEntity
  8
PV
  6
DASHED
 62
     3
100
AcDbLine
 10
69.63007823184016
 20
-465.7339408139296
 30
0.0
 11
69.63007823184016
 21
-390.7339419315168
 31
0.0
  0
LINE
  5
264
330
A
100
AcDbEntity
  8
PV
  6
Continuous
 62
     3
100
AcDbLine
 10
-384.3699588720506
 20
-459.7338798681812
 30
0.0
 11
75.6300819571304
 21
-459.7338798681812
 31
0.0
  0
LINE
  5
265
330
A
100
AcDbEntity
  8
PV
  6
Continuous
 62
     3
100
AcDbLine
 10
75.6300819571304
 20
-465.7339408139296
 30
0.0
 11
75.6300819571304
 21
-197.7328461746447
 31
0.0
  0
LINE
  5
266
330
A
100
AcDbEntity
  8
PV
  6
Continuous
 62
     3
100
AcDbLine
 10
-384.3699588720506
 20
-390.7339419315168
 30
0.0
 11
-44.36985903427214
 21
-390.7339419315168
 31
0.0
  0
LINE
  5
267
330
A
100
AcDbEntity
  8
PV
  6
Continuous
 62
     3
100
AcDbLine
 10
-384.3699588720506
 20
-465.7339408139296
 30
0.0
 11
75.6300819571304
 21
-465.7339408139296
 31
0.0
  0
LINE
  5
268
330
A
100
AcDbEntity
  8
PV
  6
Continuous
 62
     3
100
AcDbLine
 10
-126.2199347713465
 20
178.2660445763193
 30
0.0
 11
-116.2199984829143
 21
188.2659808647516
 31
0.0
  0
LINE
  5
269
330
A
100
AcDbEntity
  8
PV
  6
Continuous
 62
     3
100
AcDbLine
 10
-126.2199819758154
 20
151.4160955065056
 30
0.0
 11
-116.2199715089321
 21
141.4160850396224
 31
0.0
  0
LINE
  5
26A
330
A
100
AcDbEntity
  8
PV
  6
Continuous
 62
     3
100
AcDbLine
 10
-352.5200195036548
 20
188.2660280692203
 30
0.0
 11
-342.5200090367714
 21
178.2660176023371
 31
0.0
  0
LINE
  5
26B
330
A
100
AcDbEntity
  8
PV
  6
Continuous
 62
     3
100
AcDbLine
 10
-374.3699449075817
 20
148.265970029984
 30
0.0
 11
-384.3699595891542
 21
158.2659762821779
 31
0.0
  0
LINE
  5
26C
330
A
100
AcDbEntity
  8
PV
  6
Continuous
 62
     3
100
AcDbLine
 10
-374.3699590210622
 20
148.2659890016021
 30
0.0
 11
-342.5199839097264
 21
148.2659890016021
 31
0.0
  0
LINE
  5
26D
330
A
100
AcDbEntity
  8
PV
  6
Continuous
 62
     3
100
AcDbLine
 10
-342.5200254324335
 20
-22.53395046654419
 30
0.0
 11
-282.0370013934241
 21
-57.45384130361912
 31
0.0
  0
LINE
  5
26E
330
A
100
AcDbEntity
  8
PV
  6
Continuous
 62
     3
100
AcDbLine
 10
-180.7274849908034
 20
-54.00388499418372
 30
0.0
 11
-126.2199332988866
 21
-22.53393478715817
 31
0.0
  0
LINE
  5
26F
330
A
100
AcDbEntity
  8
PV
  6
Continuous
 62
     3
100
AcDbLine
 10
-144.0744217694597
 20
58.04092620783645
 30
0.0
 11
-126.2199365237325
 21
27.11605117429485
 31
0.0
  0
LINE
  5
270
330
A
100
AcDbEntity
  8
PV
  6
Continuous
 62
     3
100
AcDbLine
 10
-143.0728625733302
 20
112.2259226190958
 30
0.0
 11
-126.2199356165115
 21
141.4160478406416
 31
0.0
  0
LINE
  5
271
330
A
100
AcDbEntity
  8
PV
  6
Continuous
 62
     3
100
AcDbLine
 10
-126.2199383047232
 20
27.1160503161542
 30
0.0
 11
-126.2199383047232
 21
-22.53395046988203
 31
0.0
  0
LINE
  5
272
330
A
100
AcDbEntity
  8
PV
  6
Continuous
 62
     3
100
AcDbLine
 10
-342.5199839097264
 20
53.09972683936763
 30
0.0
 11
-342.5199839097264
 21
-22.53395046988203
 31
0.0
  0
LINE
  5
273
330
A
100
AcDbEntity
  8
PV
  6
Continuous
 62
     3
100
AcDbLine
 10
-291.5199236345302
 20
262.2660788556028
 30
0.0
 11
-291.5199236345302
 21
220.2661099990292
 31
0.0
  0
LINE
  5
274
330
A
100
AcDbEntity
  8
PV
  6
Continuous
 62
     3
100
AcDbLine
 10
-177.2199985799193
 20
262.2660788556028
 30
0.0
 11
-177.2199985799193
 21
220.2661099990292
 31
0.0
  0
LINE
  5
275
330
A
100
AcDbEntity
  8
PV
  6
Continuous
 62
     3
100
AcDbLine
 10
-326.8699597288674
 20
274.2660481592111
 30
0.0
 11
-326.8699597288674
 21
262.2660788556028
 31
0.0
  0
LINE
  5
276
330
A
100
AcDbEntity
  8
PV
  6
Continuous
 62
     3
100
AcDbLine
 10
-141.8699624855822
 20
274.2660481592111
 30
0.0
 11
-141.8699624855822
 21
262.2660788556028
 31
0.0
  0
LINE
  5
277
330
A
100
AcDbEntity
  8
PV
  6
Continuous
 62
     3
100
AcDbLine
 10
-384.3699588720506
 20
220.2661099990292
 30
0.0
 11
-84.36996334239895
 21
220.2661099990292
 31
0.0
  0
LINE
  5
278
330
A
100
AcDbEntity
  8
PV
  6
Continuous
 62
     3
100
AcDbLine
 10
-326.8699597288674
 20
262.2660788556028
 30
0.0
 11
-141.8699624855822
 21
262.2660788556028
 31
0.0
  0
LINE
  5
279
330
A
100
AcDbEntity
  8
PV
  6
Continuous
 62
     3
100
AcDbLine
 10
-326.8699597288674
 20
274.2660481592111
 30
0.0
 11
-141.8699624855822
 21
274.2660481592111
 31
0.0
  0
LINE
  5
27A
330
A
100
AcDbEntity
  8
PV
  6
Continuous
 62
     3
100
AcDbLine
 10
-342.5199839097264
 20
188.2659884055556
 30
0.0
 11
-342.5199839097264
 21
88.68508206777152
 31
0.0
  0
LINE
  5
27B
330
A
100
AcDbEntity
  8
PV
  6
Continuous
 62
     3
100
AcDbLine
 10
-126.2199383047232
 20
188.2659884055556
 30
0.0
 11
-126.2199383047232
 21
141.4160516647092
 31
0.0
  0
LINE
  5
27C
330
A
100
AcDbEntity
  8
PV
  6
Continuous
 62
     3
100
AcDbLine
 10
-384.3699588720506
 20
220.2661099990292
 30
0.0
 11
-384.3699588720506
 21
158.2659793158474
 31
0.0
  0
LINE
  5
27D
330
A
100
AcDbEntity
  8
PV
  6
Continuous
 62
     3
100
AcDbLine
 10
-84.36996334239895
 20
220.2661099990292
 30
0.0
 11
-84.36996334239895
 21
141.4160516647092
 31
0.0
  0
LINE
  5
27E
330
A
100
AcDbEntity
  8
PV
  6
Continuous
 62
     3
100
AcDbLine
 10
-384.3699588720506
 20
188.2659884055556
 30
0.0
 11
-84.36996334239895
 21
188.2659884055556
 31
0.0
  0
LINE
  5
27F
330
A
100
AcDbEntity
  8
PV
  6
Continuous
 62
     3
100
AcDbLine
 10
-384.3699588720506
 20
204.2660492022924
 30
0.0
 11
-84.36996334239895
 21
204.2660492022924
 31
0.0
  0
LINE
  5
280
330
A
100
AcDbEntity
  8
PV
  6
Continuous
 62
     3
100
AcDbLine
 10
-1174.064160971877
 20
262.2660788556028
 30
0.0
 11
-1174.064160971877
 21
220.2661099990292
 31
0.0
  0
LINE
  5
281
330
A
100
AcDbEntity
  8
PV
  6
Continuous
 62
     3
100
AcDbLine
 10
-1059.764235917266
 20
262.2660788556028
 30
0.0
 11
-1059.764235917266
 21
220.2661099990292
 31
0.0
  0
LINE
  5
282
330
A
100
AcDbEntity
  8
PV
  6
Continuous
 62
     3
100
AcDbLine
 10
-1209.414197066214
 20
274.2660481592111
 30
0.0
 11
-1209.414197066214
 21
262.2660788556028
 31
0.0
  0
LINE
  5
283
330
A
100
AcDbEntity
  8
PV
  6
Continuous
 62
     3
100
AcDbLine
 10
-1024.414199822929
 20
274.2660481592111
 30
0.0
 11
-1024.414199822929
 21
262.2660788556028
 31
0.0
  0
LINE
  5
284
330
A
100
AcDbEntity
  8
PV
  6
Continuous
 62
     3
100
AcDbLine
 10
-1266.914196209398
 20
220.2661099990292
 30
0.0
 11
-966.9142006797462
 21
220.2661099990292
 31
0.0
  0
LINE
  5
285
330
A
100
AcDbEntity
  8
PV
  6
Continuous
 62
     3
100
AcDbLine
 10
-1209.414197066214
 20
262.2660788556028
 30
0.0
 11
-1024.414199822929
 21
262.2660788556028
 31
0.0
  0
LINE
  5
286
330
A
100
AcDbEntity
  8
PV
  6
Continuous
 62
     3
100
AcDbLine
 10
-1209.414197066214
 20
274.2660481592111
 30
0.0
 11
-1024.414199822929
 21
274.2660481592111
 31
0.0
  0
LINE
  5
287
330
A
100
AcDbEntity
  8
PV
  6
CENTER
 62
     7
100
AcDbLine
 10
-956.9142008287576
 20
-434.7338802407103
 30
0.0
 11
-956.9142008287576
 21
-484.7338794956523
 31
0.0
  0
LINE
  5
288
330
A
100
AcDbEntity
  8
PV
  6
CENTER
 62
     7
100
AcDbLine
 10
-1276.914196060386
 20
-434.7338802407103
 30
0.0
 11
-1276.914196060386
 21
-484.7338794956523
 31
0.0
  0
LINE
  5
289
330
A
100
AcDbEntity
  8
PV
  6
Continuous
 62
     3
100
AcDbLine
 10
-1064.150374767923
 20
-454.733879942687
 30
0.0
 11
-996.9142002327114
 21
-454.733879942687
 31
0.0
  0
LINE
  5
28A
330
A
100
AcDbEntity
  8
PV
  6
Continuous
 62
     3
100
AcDbLine
 10
-1095.2570942751
 20
-459.7338798681812
 30
0.0
 11
-996.9142002327114
 21
-459.7338798681812
 31
0.0
  0
LINE
  5
28B
330
A
100
AcDbEntity
  8
PV
  6
Continuous
 62
     3
100
AcDbLine
 10
-1236.914196656433
 20
-454.733879942687
 30
0.0
 11
-1169.67802212122
 21
-454.733879942687
 31
0.0
  0
LINE
  5
28C
330
A
100
AcDbEntity
  8
PV
  6
Continuous
 62
     3
100
AcDbLine
 10
-1236.914196656433
 20
-459.7338798681812
 30
0.0
 11
-1138.571302614043
 21
-459.7338798681812
 31
0.0
  0
LINE
  5
28D
330
A
100
AcDbEntity
  8
PV
  6
Continuous
 62
     3
100
AcDbLine
 10
-990.914139286963
 20
-424.099725125734
 30
0.0
 11
-990.914139286963
 21
-451.2338189596857
 31
0.0
  0
LINE
  5
28E
330
A
100
AcDbEntity
  8
PV
  6
Continuous
 62
     3
100
AcDbLine
 10
-982.4140783784676
 20
-459.7338798681812
 30
0.0
 11
-925.9141402555384
 21
-459.7338798681812
 31
0.0
  0
LINE
  5
28F
330
A
100
AcDbEntity
  8
PV
  6
Continuous
 62
     3
100
AcDbLine
 10
-1307.914256633605
 20
-459.7338798681812
 30
0.0
 11
-1251.414318510676
 21
-459.7338798681812
 31
0.0
  0
LINE
  5
290
330
A
100
AcDbEntity
  8
PV
  6
Continuous
 62
     3
100
AcDbLine
 10
-1242.914257602181
 20
-424.099725125734
 30
0.0
 11
-1242.914257602181
 21
-451.2338189596857
 31
0.0
  0
LINE
  5
291
330
A
100
AcDbEntity
  8
PV
  6
Continuous
 62
     3
100
AcDbLine
 10
-996.9142002327114
 20
-465.7339408139296
 30
0.0
 11
-921.9142013502983
 21
-465.7339408139296
 31
0.0
  0
LINE
  5
292
330
A
100
AcDbEntity
  8
PV
  6
Continuous
 62
     3
100
AcDbLine
 10
-1311.914195538846
 20
-465.7339408139296
 30
0.0
 11
-1236.914196656433
 21
-465.7339408139296
 31
0.0
  0
LINE
  5
293
330
A
100
AcDbEntity
  8
PV
  6
Continuous
 62
     3
100
AcDbLine
 10
-1311.914195538846
 20
-463.7338187734212
 30
0.0
 11
-1311.914195538846
 21
-465.7339408139296
 31
0.0
  0
LINE
  5
294
330
A
100
AcDbEntity
  8
PV
  6
Continuous
 62
     3
100
AcDbLine
 10
-921.9142013502983
 20
-463.7338187734212
 30
0.0
 11
-921.9142013502983
 21
-465.7339408139296
 31
0.0
  0
LINE
  5
295
330
A
100
AcDbEntity
  8
PV
  6
Continuous
 62
     3
100
AcDbLine
 10
-1236.914196656433
 20
-427.7859433325239
 30
0.0
 11
-1236.914196656433
 21
-465.7339408139296
 31
0.0
  0
LINE
  5
296
330
A
100
AcDbEntity
  8
PV
  6
Continuous
 62
     3
100
AcDbLine
 10
-996.9142002327114
 20
-427.7859433325239
 30
0.0
 11
-996.9142002327114
 21
-465.7339408139296
 31
0.0
  0
LINE
  5
297
330
A
100
AcDbEntity
  8
PV
  6
Continuous
 62
     3
100
AcDbLine
 10
-1119.414198407319
 20
148.2659890016021
 30
0.0
 11
-1114.414045893936
 21
148.2659890016021
 31
0.0
  0
LINE
  5
298
330
A
100
AcDbEntity
  8
PV
  6
Continuous
 62
     3
100
AcDbLine
 10
-126.2199669149523
 20
27.1160503161542
 30
0.0
 11
3.63003546550817
 21
27.1160503161542
 31
0.0
  0
LINE
  5
299
330
A
100
AcDbEntity
  8
PV
  6
Continuous
 62
     3
100
AcDbLine
 10
-126.2199669149523
 20
141.4160516647092
 30
0.0
 11
3.63003546550817
 21
141.4160516647092
 31
0.0
  0
LINE
  5
29A
330
A
100
AcDbEntity
  8
PV
  6
Continuous
 62
     3
100
AcDbLine
 10
3.63003546550817
 20
-8.233947631210869
 30
0.0
 11
15.63003516748495
 21
-8.233947631210869
 31
0.0
  0
LINE
  5
29B
330
A
100
AcDbEntity
  8
PV
  6
Continuous
 62
     3
100
AcDbLine
 10
3.63003546550817
 20
176.7660496120743
 30
0.0
 11
15.63003516748495
 21
176.7660496120743
 31
0.0
  0
LINE
  5
29C
330
A
100
AcDbEntity
  8
PV
  6
Continuous
 62
     3
100
AcDbLine
 10
3.63003546550817
 20
-8.233947631210869
 30
0.0
 11
3.63003546550817
 21
176.7660496120743
 31
0.0
  0
LINE
  5
29D
330
A
100
AcDbEntity
  8
PV
  6
Continuous
 62
     3
100
AcDbLine
 10
15.63003516748495
 20
-8.233947631210869
 30
0.0
 11
15.63003516748495
 21
176.7660496120743
 31
0.0
  0
LINE
  5
29E
330
A
100
AcDbEntity
  8
PV
  6
CENTER
 62
     7
100
AcDbLine
 10
-234.3699611072247
 20
84.26605099043174
 30
0.0
 11
87.88771498370595
 21
84.26605099043174
 31
0.0
  0
LINE
  5
29F
330
A
100
AcDbEntity
  8
PV
  6
Continuous
 62
     3
100
AcDbLine
 10
-126.2199669149523
 20
-22.53395046988203
 30
0.0
 11
-44.36991625473027
 21
-22.53395046988203
 31
0.0
  0
LINE
  5
2A0
330
A
100
AcDbEntity
  8
PV
  6
Continuous
 62
     3
100
AcDbLine
 10
-414.3699584250158
 20
-22.53395046988203
 30
0.0
 11
-342.5199839097264
 21
-22.53395046988203
 31
0.0
  0
LINE
  5
2A1
330
A
100
AcDbEntity
  8
PV
  6
Continuous
 62
     3
100
AcDbLine
 10
-414.3699584250158
 20
-428.9340146044787
 30
0.0
 11
-384.3699588720506
 21
-428.9340146044787
 31
0.0
  0
LINE
  5
2A2
330
A
100
AcDbEntity
  8
PV
  6
Continuous
 62
     3
100
AcDbLine
 10
-444.3699579779809
 20
-460.7339408884354
 30
0.0
 11
-414.3699584250158
 21
-460.7339408884354
 31
0.0
  0
LINE
  5
2A3
330
A
100
AcDbEntity
  8
PV
  6
Continuous
 62
     3
100
AcDbLine
 10
-444.3699579779809
 20
9.266052108018813
 30
0.0
 11
-414.3699584250158
 21
9.266052108018813
 31
0.0
  0
LINE
  5
2A4
330
A
100
AcDbEntity
  8
PV
  6
Continuous
 62
     3
100
AcDbLine
 10
-1225.064221247073
 20
188.2659884055556
 30
0.0
 11
-1225.064221247073
 21
-17.09892247469839
 31
0.0
  0
LINE
  5
2A5
330
A
100
AcDbEntity
  8
PV
  6
Continuous
 62
     3
100
AcDbLine
 10
-1008.76417564207
 20
188.2659884055556
 30
0.0
 11
-1008.76417564207
 21
-17.09892247469839
 31
0.0
  0
LINE
  5
2A6
330
A
100
AcDbEntity
  8
PV
  6
Continuous
 62
     3
100
AcDbLine
 10
-1266.914196209398
 20
220.2661099990292
 30
0.0
 11
-1266.914196209398
 21
188.2659884055556
 31
0.0
  0
LINE
  5
2A7
330
A
100
AcDbEntity
  8
PV
  6
Continuous
 62
     3
100
AcDbLine
 10
-966.9142006797462
 20
220.2661099990292
 30
0.0
 11
-966.9142006797462
 21
188.2659884055556
 31
0.0
  0
LINE
  5
2A8
330
A
100
AcDbEntity
  8
PV
  6
Continuous
 62
     3
100
AcDbLine
 10
-1266.914196209398
 20
188.2659884055556
 30
0.0
 11
-966.9142006797462
 21
188.2659884055556
 31
0.0
  0
LINE
  5
2A9
330
A
100
AcDbEntity
  8
PV
  6
Continuous
 62
     3
100
AcDbLine
 10
-1266.914196209398
 20
204.2660492022924
 30
0.0
 11
-966.9142006797462
 21
204.2660492022924
 31
0.0
  0
LINE
  5
2AA
330
A
100
AcDbEntity
  8
PV
  6
Continuous
 62
     3
100
AcDbLine
 10
-1212.104398360071
 20
-28.82983230362882
 30
0.0
 11
-1201.10438549787
 21
-35.18069280469675
 31
0.0
  0
LINE
  5
2AB
330
A
100
AcDbEntity
  8
PV
  6
Continuous
 62
     3
100
AcDbLine
 10
-1201.104409772875
 20
-9.780650463338881
 30
0.0
 11
-1190.104529055659
 21
-16.13143467046263
 31
0.0
  0
LINE
  5
2AC
330
A
100
AcDbEntity
  8
PV
  6
Continuous
 62
     3
100
AcDbLine
 10
-1201.104641775056
 20
-35.18049366821541
 30
0.0
 11
-1190.10476105784
 21
-28.82970946109166
 31
0.0
  0
LINE
  5
2AD
330
A
100
AcDbEntity
  8
PV
  6
Continuous
 62
     3
100
AcDbLine
 10
-1212.104630362253
 20
-16.13131182792548
 30
0.0
 11
-1201.104617500052
 21
-9.780451326857551
 31
0.0
  0
LINE
  5
2AE
330
A
100
AcDbEntity
  8
PV
  6
Continuous
 62
     3
100
AcDbLine
 10
-1212.104474125736
 20
-16.13127684397583
 30
0.0
 11
-1212.104474125736
 21
-28.82964091256795
 31
0.0
  0
LINE
  5
2AF
330
A
100
AcDbEntity
  8
PV
  6
Continuous
 62
     3
100
AcDbLine
 10
-1190.104504971139
 20
-16.13127684397583
 30
0.0
 11
-1190.104504971139
 21
-28.82964091256795
 31
0.0
  0
LINE
  5
2B0
330
A
100
AcDbEntity
  8
PV
  6
Continuous
 62
     3
100
AcDbLine
 10
-1043.723670201899
 20
-28.829831088744
 30
0.0
 11
-1032.723657339698
 21
-35.18069158981193
 31
0.0
  0
LINE
  5
2B1
330
A
100
AcDbEntity
  8
PV
  6
Continuous
 62
     3
100
AcDbLine
 10
-1032.723681614702
 20
-9.780649248454066
 30
0.0
 11
-1021.723800897486
 21
-16.13143345557782
 31
0.0
  0
LINE
  5
2B2
330
A
100
AcDbEntity
  8
PV
  6
Continuous
 62
     3
100
AcDbLine
 10
-1032.723913616884
 20
-35.18049488310023
 30
0.0
 11
-1021.724032899668
 21
-28.82971067597648
 31
0.0
  0
LINE
  5
2B3
330
A
100
AcDbEntity
  8
PV
  6
Continuous
 62
     3
100
AcDbLine
 10
-1043.723902204081
 20
-16.13131304281029
 30
0.0
 11
-1032.723889341879
 21
-9.780452541742365
 31
0.0
  0
LINE
  5
2B4
330
A
100
AcDbEntity
  8
PV
  6
Continuous
 62
     3
100
AcDbLine
 10
-1043.723739330117
 20
-16.13127684397583
 30
0.0
 11
-1043.723739330117
 21
-28.82964091256795
 31
0.0
  0
LINE
  5
2B5
330
A
100
AcDbEntity
  8
PV
  6
Continuous
 62
     3
100
AcDbLine
 10
-1021.72377017552
 20
-16.13127684397583
 30
0.0
 11
-1021.72377017552
 21
-28.82964091256795
 31
0.0
  0
LINE
  5
2B6
330
A
100
AcDbEntity
  8
PV
  6
Continuous
 62
     3
100
AcDbLine
 10
-924.6605470828139
 20
-147.8930026939734
 30
0.0
 11
-913.6605342206127
 21
-154.2438631950413
 31
0.0
  0
LINE
  5
2B7
330
A
100
AcDbEntity
  8
PV
  6
Continuous
 62
     3
100
AcDbLine
 10
-913.6605584956171
 20
-128.8438208536834
 30
0.0
 11
-902.660677778401
 21
-135.1946050608072
 31
0.0
  0
LINE
  5
2B8
330
A
100
AcDbEntity
  8
PV
  6
Continuous
 62
     3
100
AcDbLine
 10
-913.6607420116545
 20
-154.2436180021855
 30
0.0
 11
-902.6608612944386
 21
-147.8928337950618
 31
0.0
  0
LINE
  5
2B9
330
A
100
AcDbEntity
  8
PV
  6
Continuous
 62
     3
100
AcDbLine
 10
-924.6607305988513
 20
-135.1944361618956
 30
0.0
 11
-913.6607177366501
 21
-128.8435756608276
 31
0.0
  0
LINE
  5
2BA
330
A
100
AcDbEntity
  8
PV
  6
Continuous
 62
     3
100
AcDbLine
 10
-924.6606307527327
 20
-135.1944331050748
 30
0.0
 11
-924.6606307527327
 21
-147.892797173667
 31
0.0
  0
LINE
  5
2BB
330
A
100
AcDbEntity
  8
PV
  6
Continuous
 62
     3
100
AcDbLine
 10
-902.6606615981359
 20
-135.1944331050748
 30
0.0
 11
-902.6606615981359
 21
-147.892797173667
 31
0.0
  0
LINE
  5
2BC
330
A
100
AcDbEntity
  8
PV
  6
Continuous
 62
     3
100
AcDbLine
 10
-924.6605458679292
 20
-316.2737308521457
 30
0.0
 11
-913.660533005728
 21
-322.6245913532136
 31
0.0
  0
LINE
  5
2BD
330
A
100
AcDbEntity
  8
PV
  6
Continuous
 62
     3
100
AcDbLine
 10
-913.6605572807324
 20
-297.2245490118557
 30
0.0
 11
-902.6606765635163
 21
-303.5753332189795
 31
0.0
  0
LINE
  5
2BE
330
A
100
AcDbEntity
  8
PV
  6
Continuous
 62
     3
100
AcDbLine
 10
-913.6607432265394
 20
-322.6243461603578
 30
0.0
 11
-902.6608625093235
 21
-316.2735619532341
 31
0.0
  0
LINE
  5
2BF
330
A
100
AcDbEntity
  8
PV
  6
Continuous
 62
     3
100
AcDbLine
 10
-924.6607318137362
 20
-303.5751643200679
 30
0.0
 11
-913.660718951535
 21
-297.2243038189999
 31
0.0
  0
LINE
  5
2C0
330
A
100
AcDbEntity
  8
PV
  6
Continuous
 62
     3
100
AcDbLine
 10
-924.6606307527327
 20
-303.5751297537218
 30
0.0
 11
-924.6606307527327
 21
-316.2734938223139
 31
0.0
  0
LINE
  5
2C1
330
A
100
AcDbEntity
  8
PV
  6
Continuous
 62
     3
100
AcDbLine
 10
-902.6606615981359
 20
-303.5751297537218
 30
0.0
 11
-902.6606615981359
 21
-316.2734938223139
 31
0.0
  0
LINE
  5
2C2
330
A
100
AcDbEntity
  8
PV
  6
Continuous
 62
     3
100
AcDbLine
 10
-1043.723717473158
 20
-435.3368539712309
 30
0.0
 11
-1032.723704610957
 21
-441.6877144722987
 31
0.0
  0
LINE
  5
2C3
330
A
100
AcDbEntity
  8
PV
  6
Continuous
 62
     3
100
AcDbLine
 10
-1032.723728885962
 20
-416.287672130941
 30
0.0
 11
-1021.723848168746
 21
-422.6384563380647
 31
0.0
  0
LINE
  5
2C4
330
A
100
AcDbEntity
  8
PV
  6
Continuous
 62
     3
100
AcDbLine
 10
-1032.723866345624
 20
-441.6875177655872
 30
0.0
 11
-1021.723985628408
 21
-435.3367335584634
 31
0.0
  0
LINE
  5
2C5
330
A
100
AcDbEntity
  8
PV
  6
Continuous
 62
     3
100
AcDbLine
 10
-1043.723854932821
 20
-422.6383359252972
 30
0.0
 11
-1032.72384207062
 21
-416.2874754242293
 31
0.0
  0
LINE
  5
2C6
330
A
100
AcDbEntity
  8
PV
  6
Continuous
 62
     3
100
AcDbLine
 10
-1043.723739330117
 20
-422.6382383311056
 30
0.0
 11
-1043.723739330117
 21
-435.3366023996978
 31
0.0
  0
LINE
  5
2C7
330
A
100
AcDbEntity
  8
PV
  6
Continuous
 62
     3
100
AcDbLine
 10
-1021.72377017552
 20
-422.6382383311056
 30
0.0
 11
-1021.72377017552
 21
-435.3366023996978
 31
0.0
  0
LINE
  5
2C8
330
A
100
AcDbEntity
  8
PV
  6
Continuous
 62
     3
100
AcDbLine
 10
-1212.104445631331
 20
-435.3368551861158
 30
0.0
 11
-1201.10443276913
 21
-441.6877156871836
 31
0.0
  0
LINE
  5
2C9
330
A
100
AcDbEntity
  8
PV
  6
Continuous
 62
     3
100
AcDbLine
 10
-1201.104457044134
 20
-416.2876733458258
 30
0.0
 11
-1190.104576326918
 21
-422.6384575529496
 31
0.0
  0
LINE
  5
2CA
330
A
100
AcDbEntity
  8
PV
  6
Continuous
 62
     3
100
AcDbLine
 10
-1201.104594503797
 20
-441.6875165507023
 30
0.0
 11
-1190.104713786581
 21
-435.3367323435785
 31
0.0
  0
LINE
  5
2CB
330
A
100
AcDbEntity
  8
PV
  6
Continuous
 62
     3
100
AcDbLine
 10
-1212.104583090994
 20
-422.6383347104124
 30
0.0
 11
-1201.104570228793
 21
-416.2874742093444
 31
0.0
  0
LINE
  5
2CC
330
A
100
AcDbEntity
  8
PV
  6
Continuous
 62
     3
100
AcDbLine
 10
-1212.104474125736
 20
-422.6382383311056
 30
0.0
 11
-1212.104474125736
 21
-435.3366023996978
 31
0.0
  0
LINE
  5
2CD
330
A
100
AcDbEntity
  8
PV
  6
Continuous
 62
     3
100
AcDbLine
 10
-1190.104504971139
 20
-422.6382383311056
 30
0.0
 11
-1190.104504971139
 21
-435.3366023996978
 31
0.0
  0
LINE
  5
2CE
330
A
100
AcDbEntity
  8
PV
  6
Continuous
 62
     3
100
AcDbLine
 10
-1331.167568750416
 20
-316.2736835808864
 30
0.0
 11
-1320.167555888215
 21
-322.6245440819543
 31
0.0
  0
LINE
  5
2CF
330
A
100
AcDbEntity
  8
PV
  6
Continuous
 62
     3
100
AcDbLine
 10
-1320.167580163219
 20
-297.2245017405965
 30
0.0
 11
-1309.167699446003
 21
-303.5752859477202
 31
0.0
  0
LINE
  5
2D0
330
A
100
AcDbEntity
  8
PV
  6
Continuous
 62
     3
100
AcDbLine
 10
-1320.167766109026
 20
-322.6243934316171
 30
0.0
 11
-1309.16788539181
 21
-316.2736092244933
 31
0.0
  0
LINE
  5
2D1
330
A
100
AcDbEntity
  8
PV
  6
Continuous
 62
     3
100
AcDbLine
 10
-1331.167754696223
 20
-303.5752115913271
 30
0.0
 11
-1320.167741834022
 21
-297.2243510902592
 31
0.0
  0
LINE
  5
2D2
330
A
100
AcDbEntity
  8
PV
  6
Continuous
 62
     3
100
AcDbLine
 10
-1331.167582703119
 20
-303.5751297537218
 30
0.0
 11
-1331.167582703119
 21
-316.2734938223139
 31
0.0
  0
LINE
  5
2D3
330
A
100
AcDbEntity
  8
PV
  6
Continuous
 62
     3
100
AcDbLine
 10
-1309.167613548523
 20
-303.5751297537218
 30
0.0
 11
-1309.167613548523
 21
-316.2734938223139
 31
0.0
  0
LINE
  5
2D4
330
A
100
AcDbEntity
  8
PV
  6
Continuous
 62
     3
100
AcDbLine
 10
-1331.167569965301
 20
-147.8929554227141
 30
0.0
 11
-1320.1675571031
 21
-154.243815923782
 31
0.0
  0
LINE
  5
2D5
330
A
100
AcDbEntity
  8
PV
  6
Continuous
 62
     3
100
AcDbLine
 10
-1320.167581378104
 20
-128.8437735824242
 30
0.0
 11
-1309.167700660888
 21
-135.1945577895479
 31
0.0
  0
LINE
  5
2D6
330
A
100
AcDbEntity
  8
PV
  6
Continuous
 62
     3
100
AcDbLine
 10
-1320.167764894141
 20
-154.2436652734448
 30
0.0
 11
-1309.167884176925
 21
-147.892881066321
 31
0.0
  0
LINE
  5
2D7
330
A
100
AcDbEntity
  8
PV
  6
Continuous
 62
     3
100
AcDbLine
 10
-1331.167753481338
 20
-135.1944834331548
 30
0.0
 11
-1320.167740619137
 21
-128.8436229320869
 31
0.0
  0
LINE
  5
2D8
330
A
100
AcDbEntity
  8
PV
  6
Continuous
 62
     3
100
AcDbLine
 10
-1331.167582703119
 20
-135.1943472743876
 30
0.0
 11
-1331.167582703119
 21
-147.8927113429798
 31
0.0
  0
LINE
  5
2D9
330
A
100
AcDbEntity
  8
PV
  6
Continuous
 62
     3
100
AcDbLine
 10
-1309.167613548523
 20
-135.1943472743876
 30
0.0
 11
-1309.167613548523
 21
-147.8927113429798
 31
0.0
  0
LINE
  5
2DA
330
A
100
AcDbEntity
  8
PV
  6
Continuous
 62
     3
100
AcDbLine
 10
714.255055274739
 20
546.1460795082736
 30
0.0
 11
1794.255039181485
 21
546.1460795082736
 31
0.0
  0
LINE
  5
2DB
330
A
100
AcDbEntity
  8
PV
  6
Continuous
 62
     3
100
AcDbLine
 10
714.255055274739
 20
618.1460479178123
 30
0.0
 11
1794.255039181485
 21
618.1460479178123
 31
0.0
  0
LINE
  5
2DC
330
A
100
AcDbEntity
  8
PV
  6
Continuous
 62
     3
100
AcDbLine
 10
714.255055274739
 20
978.1465003170595
 30
0.0
 11
1794.255039181485
 21
978.1465003170595
 31
0.0
  0
LINE
  5
2DD
330
A
100
AcDbEntity
  8
PV
  6
Continuous
 62
     3
100
AcDbLine
 10
1794.255039181485
 20
1050.146621314486
 30
0.0
 11
1794.255039181485
 21
546.1460795082736
 31
0.0
  0
LINE
  5
2DE
330
A
100
AcDbEntity
  8
PV
  6
Continuous
 62
     3
100
AcDbLine
 10
714.2550799636999
 20
1050.146633036345
 30
0.0
 11
1014.255019605267
 21
978.1466563491678
 31
0.0
  0
LINE
  5
2DF
330
A
100
AcDbEntity
  8
PV
  6
Continuous
 62
     3
100
AcDbLine
 10
714.255055274739
 20
1050.146621314486
 30
0.0
 11
1794.255039181485
 21
1050.146621314486
 31
0.0
  0
LINE
  5
2E0
330
A
100
AcDbEntity
  8
PV
  6
Continuous
 62
     3
100
AcDbLine
 10
714.255055274739
 20
762.1461373247781
 30
0.0
 11
1794.255039181485
 21
762.1461373247781
 31
0.0
  0
LINE
  5
2E1
330
A
100
AcDbEntity
  8
PV
  6
Continuous
 62
     3
100
AcDbLine
 10
714.255055274739
 20
690.1466266789044
 30
0.0
 11
1794.255039181485
 21
690.1466266789044
 31
0.0
  0
LINE
  5
2E2
330
A
100
AcDbEntity
  8
PV
  6
Continuous
 62
     3
100
AcDbLine
 10
714.255055274739
 20
834.1461057343167
 30
0.0
 11
1794.255039181485
 21
834.1461057343167
 31
0.0
  0
LINE
  5
2E3
330
A
100
AcDbEntity
  8
PV
  6
Continuous
 62
     3
100
AcDbLine
 10
714.255055274739
 20
906.1460741438555
 30
0.0
 11
1794.255039181485
 21
906.1460741438555
 31
0.0
  0
LINE
  5
2E4
330
A
100
AcDbEntity
  8
PV
  6
Continuous
 62
     3
100
AcDbLine
 10
1014.255050804391
 20
1050.146621314486
 30
0.0
 11
1014.255050804391
 21
546.1460795082736
 31
0.0
  0
LINE
  5
2E5
330
A
100
AcDbEntity
  8
PV
  6
Continuous
 62
     3
100
AcDbLine
 10
714.255055274739
 20
1050.146621314486
 30
0.0
 11
714.255055274739
 21
546.1460795082736
 31
0.0
  0
LINE
  5
2E6
330
A
100
AcDbEntity
  8
PV
  6
Continuous
 62
     3
100
AcDbLine
 10
-484.3699573819345
 20
-180.7339450607606
 30
0.0
 11
-444.3699579779809
 21
-180.7339450607606
 31
0.0
  0
LINE
  5
2E7
330
A
100
AcDbEntity
  8
PV
  6
Continuous
 62
     3
100
AcDbLine
 10
-484.3699573819345
 20
-170.7340977976605
 30
0.0
 11
-444.3699579779809
 21
-170.7340977976605
 31
0.0
  0
LINE
  5
2E8
330
A
100
AcDbEntity
  8
PV
  6
Continuous
 62
     3
100
AcDbLine
 10
-464.3699576799576
 20
928.1056075080391
 30
0.0
 11
-444.3699579779809
 21
928.1056075080391
 31
0.0
  0
LINE
  5
2E9
330
A
100
AcDbEntity
  8
PV
  6
Continuous
 62
     3
100
AcDbLine
 10
-464.3699576799576
 20
938.1056073590276
 30
0.0
 11
-444.3699579779809
 21
938.1056073590276
 31
0.0
  0
LINE
  5
2EA
330
A
100
AcDbEntity
  8
PV
  6
Continuous
 62
     3
100
AcDbLine
 10
-464.3699576799576
 20
1078.105605272865
 30
0.0
 11
-444.3699579779809
 21
1078.105605272865
 31
0.0
  0
LINE
  5
2EB
330
A
100
AcDbEntity
  8
PV
  6
Continuous
 62
     3
100
AcDbLine
 10
-464.3699576799576
 20
1088.105605123853
 30
0.0
 11
-444.3699579779809
 21
1088.105605123853
 31
0.0
  0
LINE
  5
2EC
330
A
100
AcDbEntity
  8
PV
  6
Continuous
 62
     3
100
AcDbLine
 10
-489.3699573074287
 20
953.10560713551
 30
0.0
 11
-489.3699573074287
 21
1063.105452908494
 31
0.0
  0
LINE
  5
2ED
330
A
100
AcDbEntity
  8
PV
  6
Continuous
 62
     3
100
AcDbLine
 10
-479.3699574564402
 20
953.10560713551
 30
0.0
 11
-479.3699574564402
 21
1063.105605496382
 31
0.0
  0
LINE
  5
2EE
330
A
100
AcDbEntity
  8
PV
  6
CENTER
 62
     7
100
AcDbLine
 10
-484.3699573819345
 20
953.10560713551
 30
0.0
 11
-484.3699573819345
 21
1063.105605496382
 31
0.0
  0
LINE
  5
2EF
330
A
100
AcDbEntity
  8
PV
  6
CENTER
 62
     7
100
AcDbLine
 10
-464.3699576799576
 20
933.1056074335334
 30
0.0
 11
-444.3699579779809
 21
933.1056074335334
 31
0.0
  0
LINE
  5
2F0
330
A
100
AcDbEntity
  8
PV
  6
CENTER
 62
     7
100
AcDbLine
 10
-464.3699576799576
 20
1083.105605198359
 30
0.0
 11
-444.3699579779809
 21
1083.105605198359
 31
0.0
  0
LINE
  5
2F1
330
A
100
AcDbEntity
  8
PV
  6
Continuous
 62
     3
100
AcDbLine
 10
-1191.914197326985
 20
-180.7339450607606
 30
0.0
 11
-1041.914199562159
 21
-180.7339450607606
 31
0.0
  0
LINE
  5
2F2
330
A
100
AcDbEntity
  8
PV
  6
Continuous
 62
     3
100
AcDbLine
 10
-1191.914197326985
 20
-170.7340977976605
 30
0.0
 11
-1041.914199562159
 21
-170.7340977976605
 31
0.0
  0
LINE
  5
2F3
330
A
100
AcDbEntity
  8
PV
  6
CENTER
 62
     7
100
AcDbLine
 10
-1204.397107297225
 20
-175.7339451352664
 30
0.0
 11
-1028.843673633878
 21
-175.7339451352664
 31
0.0
  0
LINE
  5
2F4
330
A
100
AcDbEntity
  8
PV
  6
Continuous
 62
     3
100
AcDbLine
 10
3.630035130509902
 20
916.5087661797247
 30
0.0
 11
2.630697114586074
 21
916.5087687211729
 31
0.0
  0
LINE
  5
2F5
330
A
100
AcDbEntity
  8
PV
  6
Continuous
 62
     3
100
AcDbLine
 10
20.63013999715239
 20
966.1056374593728
 30
0.0
 11
15.63003516748495
 21
966.1056374593728
 31
0.0
  0
LINE
  5
2F6
330
A
100
AcDbEntity
  8
PV
  6
Continuous
 62
     3
100
AcDbLine
 10
20.63013999715239
 20
911.1054856910483
 30
0.0
 11
-9.369859555812782
 21
911.1054856910483
 31
0.0
  0
LINE
  5
2F7
330
A
100
AcDbEntity
  8
PV
  6
Continuous
 62
     3
100
AcDbLine
 10
-9.369859555812782
 20
950.9556437886407
 30
0.0
 11
-9.369859555812782
 21
911.1054856910483
 31
0.0
  0
LINE
  5
2F8
330
A
100
AcDbEntity
  8
PV
  6
Continuous
 62
     3
100
AcDbLine
 10
20.63013999715239
 20
966.1056374593728
 30
0.0
 11
20.63013999715239
 21
911.1054856910483
 31
0.0
  0
LINE
  5
2F9
330
A
100
AcDbEntity
  8
PV
  6
Continuous
 62
     3
100
AcDbLine
 10
-1.869859667571489
 20
926.0183577832822
 30
0.0
 11
-1.869859667571489
 21
911.1054856910483
 31
0.0
  0
LINE
  5
2FA
330
A
100
AcDbEntity
  8
PV
  6
Continuous
 62
     3
100
AcDbLine
 10
13.13014010891109
 20
915.6056076943036
 30
0.0
 11
13.13014010891109
 21
911.1054856910483
 31
0.0
  0
LINE
  5
2FB
330
A
100
AcDbEntity
  8
PV
  6
Continuous
 62
     3
100
AcDbLine
 10
1.631116842759894
 20
924.5518355883382
 30
0.0
 11
1.631116842759894
 21
928.1056075080391
 31
0.0
  0
LINE
  5
2FC
330
A
100
AcDbEntity
  8
PV
  6
Continuous
 62
     3
100
AcDbLine
 10
2.630326148246568
 20
916.5086547149964
 30
0.0
 11
1.630298975228293
 21
924.5520427262679
 31
0.0
  0
LINE
  5
2FD
330
A
100
AcDbEntity
  8
PV
  6
Continuous
 62
     3
100
AcDbLine
 10
173.6305210943442
 20
981.1056372358555
 30
0.0
 11
245.6300317402179
 21
981.1056372358555
 31
0.0
  0
LINE
  5
2FE
330
A
100
AcDbEntity
  8
PV
  6
Continuous
 62
     3
100
AcDbLine
 10
173.6305210943442
 20
1035.105575396037
 30
0.0
 11
245.6300317402179
 21
1035.105575396037
 31
0.0
  0
LINE
  5
2FF
330
A
100
AcDbEntity
  8
PV
  6
Continuous
 62
     3
100
AcDbLine
 10
173.6305210943442
 20
963.1056069864987
 30
0.0
 11
173.6305210943442
 21
1053.105605645394
 31
0.0
  0
LINE
  5
300
330
A
100
AcDbEntity
  8
PV
  6
Continuous
 62
     3
100
AcDbLine
 10
165.6300329323108
 20
963.1056069864987
 30
0.0
 11
165.6300329323108
 21
1053.105605645394
 31
0.0
  0
LINE
  5
301
330
A
100
AcDbEntity
  8
PV
  6
Continuous
 62
     3
100
AcDbLine
 10
285.6300311441715
 20
966.1056374593728
 30
0.0
 11
285.6300311441715
 21
1050.10557517252
 31
0.0
  0
LINE
  5
302
330
A
100
AcDbEntity
  8
PV
  6
Continuous
 62
     3
100
AcDbLine
 10
245.6300317402179
 20
983.1056066884755
 30
0.0
 11
282.6319843138459
 21
983.1056066884755
 31
0.0
  0
LINE
  5
303
330
A
100
AcDbEntity
  8
PV
  6
Continuous
 62
     3
100
AcDbLine
 10
245.6300317402179
 20
1033.105605943417
 30
0.0
 11
282.6319843138459
 21
1033.105605943417
 31
0.0
  0
LINE
  5
304
330
A
100
AcDbEntity
  8
PV
  6
Continuous
 62
     3
100
AcDbLine
 10
100.6300339008862
 20
963.1056069864987
 30
0.0
 11
282.6319843138459
 21
963.1056069864987
 31
0.0
  0
LINE
  5
305
330
A
100
AcDbEntity
  8
PV
  6
Continuous
 62
     3
100
AcDbLine
 10
100.6300339008862
 20
1053.105605645394
 30
0.0
 11
282.6319843138459
 21
1053.105605645394
 31
0.0
  0
LINE
  5
306
330
A
100
AcDbEntity
  8
PV
  6
Continuous
 62
     3
100
AcDbLine
 10
245.6300317402179
 20
963.1056069864987
 30
0.0
 11
245.6300317402179
 21
1053.105605645394
 31
0.0
  0
LINE
  5
307
330
A
100
AcDbEntity
  8
PV
  6
Continuous
 62
     3
100
AcDbLine
 10
100.6300339008862
 20
943.1056072845217
 30
0.0
 11
100.6300339008862
 21
1073.105605347371
 31
0.0
  0
LINE
  5
308
330
A
100
AcDbEntity
  8
PV
  6
Continuous
 62
     3
100
AcDbLine
 10
-1119.414198407319
 20
188.2659884055556
 30
0.0
 11
-1119.414198407319
 21
148.2659890016021
 31
0.0
  0
LINE
  5
309
330
A
100
AcDbEntity
  8
PV
  6
Continuous
 62
     3
100
AcDbLine
 10
-1114.414045893936
 20
188.2659884055556
 30
0.0
 11
-1114.414045893936
 21
148.2659890016021
 31
0.0
  0
LINE
  5
30A
330
A
100
AcDbEntity
  8
PV
  6
Continuous
 62
     3
100
AcDbLine
 10
-455.8698967714621
 20
-289.7338824013787
 30
0.0
 11
-444.3699579779809
 21
-289.7338824013787
 31
0.0
  0
LINE
  5
30B
330
A
100
AcDbEntity
  8
PV
  6
Continuous
 62
     3
100
AcDbLine
 10
-455.8698967714621
 20
-201.7340057829915
 30
0.0
 11
-444.3699579779809
 21
-201.7340057829915
 31
0.0
  0
LINE
  5
30C
330
A
100
AcDbEntity
  8
PV
  6
Continuous
 62
     3
100
AcDbLine
 10
-455.8698967714621
 20
-201.7340057829915
 30
0.0
 11
-455.8698967714621
 21
-289.7338824013787
 31
0.0
  0
LINE
  5
30D
330
A
100
AcDbEntity
  8
PV
  6
Continuous
 62
     3
100
AcDbLine
 10
-59.36993510469889
 20
-428.9340146044787
 30
0.0
 11
-59.36993510469889
 21
-22.53395046988203
 31
0.0
  0
LINE
  5
30E
330
A
100
AcDbEntity
  8
PV
  6
CENTER
 62
     7
100
AcDbLine
 10
-534.3701092247648
 20
-225.7339443902083
 30
0.0
 11
96.99676369135433
 21
-225.7339443902083
 31
0.0
  0
LINE
  5
30F
330
A
100
AcDbEntity
  8
PV
  6
Continuous
 62
     3
100
AcDbLine
 10
75.6300819571304
 20
-198.7329071948989
 30
0.0
 11
85.63008180811879
 21
-198.7329071948989
 31
0.0
  0
LINE
  5
310
330
A
100
AcDbEntity
  8
PV
  6
Continuous
 62
     3
100
AcDbLine
 10
85.63008180811879
 20
-435.7339412609644
 30
0.0
 11
85.63008180811879
 21
-198.7329071948989
 31
0.0
  0
LINE
  5
311
330
A
100
AcDbEntity
  8
PV
  6
Continuous
 62
     3
100
AcDbLine
 10
-44.36991625473027
 20
-390.7339419315168
 30
0.0
 11
-44.36991625473027
 21
-22.53395046988203
 31
0.0
  0
LINE
  5
312
330
A
100
AcDbEntity
  8
PV
  6
Continuous
 62
     3
100
AcDbLine
 10
-9.369945386499979
 20
-260.7339438686677
 30
0.0
 11
-9.369945386499979
 21
-190.733944911749
 31
0.0
  0
LINE
  5
313
330
A
100
AcDbEntity
  8
PV
  6
Continuous
 62
     3
100
AcDbLine
 10
-44.36991625473027
 20
-260.7339438686677
 30
0.0
 11
0.6300830747174758
 21
-260.7339438686677
 31
0.0
  0
LINE
  5
314
330
A
100
AcDbEntity
  8
PV
  6
Continuous
 62
     3
100
AcDbLine
 10
-44.36991625473027
 20
-190.733944911749
 30
0.0
 11
0.6300830747174758
 21
-190.733944911749
 31
0.0
  0
LINE
  5
315
330
A
100
AcDbEntity
  8
PV
  6
Continuous
 62
     3
100
AcDbLine
 10
0.6300830747174758
 20
-260.7339438686677
 30
0.0
 11
0.6300830747174758
 21
-190.733944911749
 31
0.0
  0
LINE
  5
316
330
A
100
AcDbEntity
  8
PV
  6
DASHED
 62
     3
100
AcDbLine
 10
-44.36991625473027
 20
-429.9848873915538
 30
0.0
 11
-44.36991625473027
 21
-410.7339416334935
 31
0.0
  0
LINE
  5
317
330
A
100
AcDbEntity
  8
PV
  6
Continuous
 62
     3
100
AcDbLine
 10
-414.3699584250158
 20
-460.7339408884354
 30
0.0
 11
-414.3699584250158
 21
9.266052108018813
 31
0.0
  0
LINE
  5
318
330
A
100
AcDbEntity
  8
PV
  6
Continuous
 62
     3
100
AcDbLine
 10
-444.3699579779809
 20
-460.7339408884354
 30
0.0
 11
-444.3699579779809
 21
9.266052108018813
 31
0.0
  0
LINE
  5
319
330
A
100
AcDbEntity
  8
PV
  6
Continuous
 62
     3
100
AcDbLine
 10
-429.3699582014983
 20
-460.7339408884354
 30
0.0
 11
-429.3699582014983
 21
9.266052108018813
 31
0.0
  0
LINE
  5
31A
330
A
100
AcDbEntity
  8
PV
  6
CENTER
 62
     7
100
AcDbLine
 10
-1367.368601450792
 20
-225.7339443902083
 30
0.0
 11
-870.4054130553391
 21
-225.7339443902083
 31
0.0
  0
LINE
  5
31B
330
A
100
AcDbEntity
  8
PV
  6
Continuous
 62
     3
100
AcDbLine
 10
-269.3699605856842
 20
-250.7330284903492
 30
0.0
 11
-199.369809040877
 21
-250.7330284903492
 31
0.0
  0
LINE
  5
31C
330
A
100
AcDbEntity
  8
PV
  6
Continuous
 62
     3
100
AcDbLine
 10
-269.3699605856842
 20
-200.7334869990723
 30
0.0
 11
-199.369809040877
 21
-200.7334869990723
 31
0.0
  0
LINE
  5
31D
330
A
100
AcDbEntity
  8
PV
  6
Continuous
 62
     3
100
AcDbLine
 10
-199.369809040877
 20
-250.7330284903492
 30
0.0
 11
-199.369809040877
 21
-200.7334869990723
 31
0.0
  0
LINE
  5
31E
330
A
100
AcDbEntity
  8
PV
  6
Continuous
 62
     3
100
AcDbLine
 10
-269.3699605856842
 20
-250.7330284903492
 30
0.0
 11
-269.3699605856842
 21
-200.7334869990723
 31
0.0
  0
LINE
  5
31F
330
A
100
AcDbEntity
  8
PV
  6
CENTER
 62
     7
100
AcDbLine
 10
-1116.914198444572
 20
303.3270218472627
 30
0.0
 11
-1116.914198444572
 21
-440.3193598938083
 31
0.0
  0
LINE
  5
320
330
A
100
AcDbEntity
  8
PV
  6
CENTER
 62
     7
100
AcDbLine
 10
-234.3699611072247
 20
-371.9532720453549
 30
0.0
 11
-234.3699611072247
 21
301.2316849644231
 31
0.0
  0
LINE
  5
321
330
A
100
AcDbEntity
  8
PV
  6
CENTER
 62
     7
100
AcDbLine
 10
-1036.914047048776
 20
-245.7339440921852
 30
0.0
 11
-936.9142011267809
 21
-245.7339440921852
 31
0.0
  0
LINE
  5
322
330
A
100
AcDbEntity
  8
PV
  6
CENTER
 62
     7
100
AcDbLine
 10
-986.9142003817231
 20
-195.7340974251315
 30
0.0
 11
-986.9142003817231
 21
-295.7339433471271
 31
0.0
  0
LINE
  5
323
330
A
100
AcDbEntity
  8
PV
  6
CENTER
 62
     7
100
AcDbLine
 10
-1019.087297001646
 20
-277.907435743086
 30
0.0
 11
-1008.480695623422
 21
-267.3008343648627
 31
0.0
  0
LINE
  5
324
330
A
100
AcDbEntity
  8
PV
  6
CENTER
 62
     7
100
AcDbLine
 10
-965.3472480895386
 20
-224.1673868309786
 30
0.0
 11
-954.7406467113153
 21
-213.5607854527553
 31
0.0
  0
LINE
  5
325
330
A
100
AcDbEntity
  8
PV
  6
CENTER
 62
     7
100
AcDbLine
 10
-965.3472480895386
 20
-267.3009422607914
 30
0.0
 11
-954.7406467113153
 21
-277.9075436390147
 31
0.0
  0
LINE
  5
326
330
A
100
AcDbEntity
  8
PV
  6
CENTER
 62
     7
100
AcDbLine
 10
-1019.087297001646
 20
-213.560893348684
 30
0.0
 11
-1008.480695623422
 21
-224.1674947269073
 31
0.0
  0
LINE
  5
327
330
A
100
AcDbEntity
  8
PV
  6
Continuous
 62
     3
100
AcDbLine
 10
-1096.914198742595
 20
86.76545013836845
 30
0.0
 11
-1096.914198742595
 21
76.76568870595561
 31
0.0
  0
LINE
  5
328
330
A
100
AcDbEntity
  8
PV
  6
Continuous
 62
     3
100
AcDbLine
 10
-1136.914198146549
 20
86.76545013836845
 30
0.0
 11
-1136.914198146549
 21
76.76568870595561
 31
0.0
  0
LINE
  5
329
330
A
100
AcDbEntity
  8
PV
  6
Continuous
 62
     3
100
AcDbLine
 10
-19.36988801703024
 20
-273.7344319561954
 30
0.0
 11
-17.36982319698001
 21
-273.7344319561954
 31
0.0
  0
LINE
  5
32A
330
A
100
AcDbEntity
  8
PV
  6
Continuous
 62
     3
100
AcDbLine
 10
-19.36988801703024
 20
-267.7345235983353
 30
0.0
 11
-17.36982319698001
 21
-267.7345235983353
 31
0.0
  0
LINE
  5
32B
330
A
100
AcDbEntity
  8
PV
  6
Continuous
 62
     3
100
AcDbLine
 10
-19.36988801703024
 20
-273.7344319561954
 30
0.0
 11
-19.36988801703024
 21
-276.7344624290696
 31
0.0
  0
LINE
  5
32C
330
A
100
AcDbEntity
  8
PV
  6
Continuous
 62
     3
100
AcDbLine
 10
-25.36988220557746
 20
-273.7344319561954
 30
0.0
 11
-25.36988220557746
 21
-276.7344624290696
 31
0.0
  0
LINE
  5
32D
330
A
100
AcDbEntity
  8
PV
  6
Continuous
 62
     3
100
AcDbLine
 10
-25.36988220557746
 20
-276.7344624290696
 30
0.0
 11
-19.36988801703024
 21
-276.7344624290696
 31
0.0
  0
LINE
  5
32E
330
A
100
AcDbEntity
  8
PV
  6
Continuous
 62
     3
100
AcDbLine
 10
-19.36988801703024
 20
-260.7339438686677
 30
0.0
 11
-19.36988801703024
 21
-267.7345235983353
 31
0.0
  0
LINE
  5
32F
330
A
100
AcDbEntity
  8
PV
  6
Continuous
 62
     3
100
AcDbLine
 10
-25.36988220557746
 20
-260.7339438686677
 30
0.0
 11
-25.36988220557746
 21
-267.7345235983353
 31
0.0
  0
LINE
  5
330
330
A
100
AcDbEntity
  8
PV
  6
Continuous
 62
     3
100
AcDbLine
 10
-32.3698229734626
 20
-273.7344319561954
 30
0.0
 11
-25.41913948328585
 21
-273.7344319561954
 31
0.0
  0
LINE
  5
331
330
A
100
AcDbEntity
  8
PV
  6
Continuous
 62
     3
100
AcDbLine
 10
-32.3698229734626
 20
-267.7345235983353
 30
0.0
 11
-25.41913948328585
 21
-267.7345235983353
 31
0.0
  0
LINE
  5
332
330
A
100
AcDbEntity
  8
PV
  6
Continuous
 62
     3
100
AcDbLine
 10
-17.36982319698001
 20
-276.7344624290696
 30
0.0
 11
-12.36985188171488
 21
-276.7344624290696
 31
0.0
  0
LINE
  5
333
330
A
100
AcDbEntity
  8
PV
  6
Continuous
 62
     3
100
AcDbLine
 10
-17.36982319698001
 20
-264.7344931254612
 30
0.0
 11
-12.36985188171488
 21
-264.7344931254612
 31
0.0
  0
LINE
  5
334
330
A
100
AcDbEntity
  8
PV
  6
Continuous
 62
     3
100
AcDbLine
 10
-17.36982319698001
 20
-264.7344931254612
 30
0.0
 11
-17.36982319698001
 21
-276.7344624290696
 31
0.0
  0
LINE
  5
335
330
A
100
AcDbEntity
  8
PV
  6
Continuous
 62
     3
100
AcDbLine
 10
-32.3698229734626
 20
-267.7345235983353
 30
0.0
 11
-32.3698229734626
 21
-273.7344319561954
 31
0.0
  0
LINE
  5
336
330
A
100
AcDbEntity
  8
PV
  6
Continuous
 62
     3
100
AcDbLine
 10
-12.36985188171488
 20
-264.7344931254612
 30
0.0
 11
-12.36985188171488
 21
-276.7344624290696
 31
0.0
  0
LINE
  5
337
330
A
100
AcDbEntity
  8
PV
  6
Continuous
 62
     3
100
AcDbLine
 10
-23.36991275295745
 20
-420.7343992481469
 30
0.0
 11
-34.36951586053497
 21
-420.7343992481469
 31
0.0
  0
LINE
  5
338
330
A
100
AcDbEntity
  8
PV
  6
Continuous
 62
     3
100
AcDbLine
 10
-23.36991275295745
 20
-400.73348401884
 30
0.0
 11
-44.36991625473027
 21
-400.73348401884
 31
0.0
  0
LINE
  5
339
330
A
100
AcDbEntity
  8
PV
  6
Continuous
 62
     3
100
AcDbLine
 10
5.630140220669802
 20
-424.7334226260568
 30
0.0
 11
-23.36991275295745
 21
-424.7334226260568
 31
0.0
  0
LINE
  5
33A
330
A
100
AcDbEntity
  8
PV
  6
Continuous
 62
     3
100
AcDbLine
 10
-17.38886807279485
 20
-396.7344606409302
 30
0.0
 11
-23.36991275295745
 21
-396.7344606409302
 31
0.0
  0
LINE
  5
33B
330
A
100
AcDbEntity
  8
PV
  6
Continuous
 62
     3
100
AcDbLine
 10
-23.36991275295745
 20
-396.7344606409302
 30
0.0
 11
-23.36991275295745
 21
-424.7334226260568
 31
0.0
  0
LINE
  5
33C
330
A
100
AcDbEntity
  8
PV
  6
Continuous
 62
     3
100
AcDbLine
 10
11.38010961741045
 20
-386.7690982405975
 30
0.0
 11
11.38010961741045
 21
-391.2339724416439
 31
0.0
  0
LINE
  5
33D
330
A
100
AcDbEntity
  8
PV
  6
Continuous
 62
     3
100
AcDbLine
 10
11.38010961741045
 20
-388.6938418642604
 30
0.0
 11
11.38010961741045
 21
-389.3090762300927
 31
0.0
  0
LINE
  5
33E
330
A
100
AcDbEntity
  8
PV
  6
Continuous
 62
     3
100
AcDbLine
 10
-0.1196384412104124
 20
-390.7343996951818
 30
0.0
 11
-1.448259332056949
 21
-390.7343996951818
 31
0.0
  0
LINE
  5
33F
330
A
100
AcDbEntity
  8
PV
  6
Continuous
 62
     3
100
AcDbLine
 10
8.630056252627726
 20
-386.7573489731945
 30
0.0
 11
8.630056252627726
 21
-391.2339724416439
 31
0.0
  0
LINE
  5
340
330
A
100
AcDbEntity
  8
PV
  6
Continuous
 62
     3
100
AcDbLine
 10
2.630052527337483
 20
-386.7353763172719
 30
0.0
 11
2.630052527337483
 21
-391.2339724416439
 31
0.0
  0
LINE
  5
341
330
A
100
AcDbEntity
  8
PV
  6
Continuous
 62
     3
100
AcDbLine
 10
0.7295205918376582
 20
-386.2345358108117
 30
0.0
 11
-0.1192466484246897
 21
-386.7245718726687
 31
0.0
  0
LINE
  5
342
330
A
100
AcDbEntity
  8
PV
  6
Continuous
 62
     3
100
AcDbLine
 10
10.45338687234262
 20
-386.2331535557369
 30
0.0
 11
11.37945892897637
 21
-386.7678215802571
 31
0.0
  0
LINE
  5
343
330
A
100
AcDbEntity
  8
PV
  6
Continuous
 62
     3
100
AcDbLine
 10
10.45378669420202
 20
-386.2344302798147
 30
0.0
 11
0.7292365919167311
 21
-386.2344302798147
 31
0.0
  0
LINE
  5
344
330
A
100
AcDbEntity
  8
PV
  6
Continuous
 62
     3
100
AcDbLine
 10
-0.1196384412104124
 20
-386.7236270498689
 30
0.0
 11
-0.1196384412104124
 21
-391.2339724416439
 31
0.0
  0
LINE
  5
345
330
A
100
AcDbEntity
  8
PV
  6
Continuous
 62
     3
100
AcDbLine
 10
-5.869970657978592
 20
-376.2343705689896
 30
0.0
 11
-4.62272792259339
 21
-388.706800911332
 31
0.0
  0
LINE
  5
346
330
A
100
AcDbEntity
  8
PV
  6
Continuous
 62
     3
100
AcDbLine
 10
17.1302308137213
 20
-376.234355118794
 30
0.0
 11
15.88298807833609
 21
-388.7067854611364
 31
0.0
  0
LINE
  5
347
330
A
100
AcDbEntity
  8
PV
  6
Continuous
 62
     3
100
AcDbLine
 10
-5.869884403498702
 20
-376.2339726651613
 30
0.0
 11
-16.61964391738707
 21
-376.2339726651613
 31
0.0
  0
LINE
  5
348
330
A
100
AcDbEntity
  8
PV
  6
Continuous
 62
     3
100
AcDbLine
 10
-16.62010348873591
 20
-376.23430550834
 30
0.0
 11
-17.37010273526731
 21
-396.2342858134872
 31
0.0
  0
LINE
  5
349
330
A
100
AcDbEntity
  8
PV
  6
Continuous
 62
     3
100
AcDbLine
 10
27.88019854585645
 20
-376.2337959273702
 30
0.0
 11
28.6302035104145
 21
-396.2339287132309
 31
0.0
  0
LINE
  5
34A
330
A
100
AcDbEntity
  8
PV
  6
CENTER
 62
     7
100
AcDbLine
 10
5.630140220669802
 20
-383.7617435490825
 30
0.0
 11
5.630140220669802
 21
-429.4781430143394
 31
0.0
  0
LINE
  5
34B
330
A
100
AcDbEntity
  8
PV
  6
Continuous
 62
     3
100
AcDbLine
 10
27.88010555684409
 20
-376.2339726651613
 30
0.0
 11
17.12981198534649
 21
-376.2339726651613
 31
0.0
  0
LINE
  5
34C
330
A
100
AcDbEntity
  8
PV
  6
Continuous
 62
     3
100
AcDbLine
 10
-17.36964199886259
 20
-395.3120363457197
 30
0.0
 11
-17.36964199886259
 21
-396.233514603473
 31
0.0
  0
LINE
  5
34D
330
A
100
AcDbEntity
  8
PV
  6
Continuous
 62
     3
100
AcDbLine
 10
28.63010363831961
 20
-395.3120363457197
 30
0.0
 11
28.63010363831961
 21
-396.233514603473
 31
0.0
  0
LINE
  5
34E
330
A
100
AcDbEntity
  8
PV
  6
Continuous
 62
     3
100
AcDbLine
 10
-8.869886266143824
 20
-391.2339724416439
 30
0.0
 11
-8.869886266143824
 21
-396.233514603473
 31
0.0
  0
LINE
  5
34F
330
A
100
AcDbEntity
  8
PV
  6
Continuous
 62
     3
100
AcDbLine
 10
20.12989967867881
 20
-391.2339724416439
 30
0.0
 11
20.12989967867881
 21
-396.233514603473
 31
0.0
  0
LINE
  5
350
330
A
100
AcDbEntity
  8
PV
  6
Continuous
 62
     3
100
AcDbLine
 10
20.12989967867881
 20
-391.2339724416439
 30
0.0
 11
-8.869886266143824
 21
-391.2339724416439
 31
0.0
  0
LINE
  5
351
330
A
100
AcDbEntity
  8
PV
  6
Continuous
 62
     3
100
AcDbLine
 10
-17.37009976252765
 20
-396.233514603473
 30
0.0
 11
28.63010363831961
 21
-396.233514603473
 31
0.0
  0
LINE
  5
352
330
A
100
AcDbEntity
  8
PV
  6
Continuous
 62
     3
100
AcDbLine
 10
0.6303596402651125
 20
-396.233514603473
 30
0.0
 11
0.6303596402651125
 21
-397.7334535459659
 31
0.0
  0
LINE
  5
353
330
A
100
AcDbEntity
  8
PV
  6
Continuous
 62
     3
100
AcDbLine
 10
10.63011153593493
 20
-396.233514603473
 30
0.0
 11
10.63011153593493
 21
-397.7334535459659
 31
0.0
  0
LINE
  5
354
330
A
100
AcDbEntity
  8
PV
  6
Continuous
 62
     3
100
AcDbLine
 10
13.70848635273447
 20
-390.7343996951818
 30
0.0
 11
11.38010961741045
 21
-390.7343996951818
 31
0.0
  0
LINE
  5
355
330
A
100
AcDbEntity
  8
PV
  6
Continuous
 62
     3
100
AcDbLine
 10
-1.875721550303003
 20
-397.7335398311458
 30
0.0
 11
-9.370356211362453
 21
-410.7337100984103
 31
0.0
  0
LINE
  5
356
330
A
100
AcDbEntity
  8
PV
  6
Continuous
 62
     3
100
AcDbLine
 10
13.1351290889816
 20
-397.7344315004657
 30
0.0
 11
20.62979863223644
 21
-410.7345811961791
 31
0.0
  0
LINE
  5
357
330
A
100
AcDbEntity
  8
PV
  6
Continuous
 62
     3
100
AcDbLine
 10
-1.875257464121915
 20
-397.7334535459659
 30
0.0
 11
13.13545207477432
 21
-397.7334535459659
 31
0.0
  0
LINE
  5
358
330
A
100
AcDbEntity
  8
PV
  6
Continuous
 62
     3
100
AcDbLine
 10
-9.370746573522124
 20
-410.7333165779667
 30
0.0
 11
-1.876283640193804
 21
-423.7335861253257
 31
0.0
  0
LINE
  5
359
330
A
100
AcDbEntity
  8
PV
  6
Continuous
 62
     3
100
AcDbLine
 10
-1.875715227786969
 20
-423.7344297210211
 30
0.0
 11
13.13572864032195
 21
-423.7344297210211
 31
0.0
  0
LINE
  5
35A
330
A
100
AcDbEntity
  8
PV
  6
Continuous
 62
     3
100
AcDbLine
 10
20.62906608727951
 20
-410.7334689694769
 30
0.0
 11
13.13455753877261
 21
-423.7337116843781
 31
0.0
  0
LINE
  5
35B
330
A
100
AcDbEntity
  8
PV
  6
CENTER
 62
     7
100
AcDbLine
 10
23.19755519632168
 20
-410.7339416334935
 30
0.0
 11
-13.3060739441801
 21
-410.7339416334935
 31
0.0
  0
LINE
  5
35C
330
A
100
AcDbEntity
  8
PV
  6
Continuous
 62
     3
100
AcDbLine
 10
-28.36988406822257
 20
-180.7334872970955
 30
0.0
 11
-28.36988406822257
 21
-190.733944911749
 31
0.0
  0
LINE
  5
35D
330
A
100
AcDbEntity
  8
PV
  6
Continuous
 62
     3
100
AcDbLine
 10
-16.36988615438512
 20
-180.7334872970955
 30
0.0
 11
-16.36988615438512
 21
-190.733944911749
 31
0.0
  0
LINE
  5
35E
330
A
100
AcDbEntity
  8
PV
  6
Continuous
 62
     3
100
AcDbLine
 10
-32.36991834089282
 20
-170.7344029734372
 30
0.0
 11
-12.3699472491451
 21
-170.7344029734372
 31
0.0
  0
LINE
  5
35F
330
A
100
AcDbEntity
  8
PV
  6
Continuous
 62
     3
100
AcDbLine
 10
-32.36991834089282
 20
-180.7334872970955
 30
0.0
 11
-12.3699472491451
 21
-180.7334872970955
 31
0.0
  0
LINE
  5
360
330
A
100
AcDbEntity
  8
PV
  6
Continuous
 62
     3
100
AcDbLine
 10
-32.36991834089282
 20
-165.7334875206129
 30
0.0
 11
-32.36991834089282
 21
-180.7334872970955
 31
0.0
  0
LINE
  5
361
330
A
100
AcDbEntity
  8
PV
  6
Continuous
 62
     3
100
AcDbLine
 10
-12.3699472491451
 20
-165.7334875206129
 30
0.0
 11
-12.3699472491451
 21
-180.7334872970955
 31
0.0
  0
LINE
  5
362
330
A
100
AcDbEntity
  8
PV
  6
Continuous
 62
     3
100
AcDbLine
 10
-32.36991834089282
 20
-165.7334875206129
 30
0.0
 11
-12.3699472491451
 21
-165.7334875206129
 31
0.0
  0
LINE
  5
363
330
A
100
AcDbEntity
  8
PV
  6
Continuous
 62
     3
100
AcDbLine
 10
-362.5101893154925
 20
64.64107679421542
 30
0.0
 11
-342.5198245267758
 21
53.09963409510257
 31
0.0
  0
LINE
  5
364
330
A
100
AcDbEntity
  8
PV
  6
Continuous
 62
     3
100
AcDbLine
 10
-348.5099024681438
 20
88.89028449913128
 30
0.0
 11
-342.5196381417647
 21
85.43180371570572
 31
0.0
  0
LINE
  5
365
330
A
100
AcDbEntity
  8
PV
  6
Continuous
 62
     3
100
AcDbLine
 10
-365.5101911781376
 20
59.44492123857461
 30
0.0
 11
-345.5099006054986
 21
94.0864400547721
 31
0.0
  0
LINE
  5
366
330
A
100
AcDbEntity
  8
PV
  6
Continuous
 62
     3
100
AcDbLine
 10
-382.8303022499024
 20
69.44469220773047
 30
0.0
 11
-365.5101911781376
 21
59.44492123857461
 31
0.0
  0
LINE
  5
367
330
A
100
AcDbEntity
  8
PV
  6
Continuous
 62
     3
100
AcDbLine
 10
-362.8300116772635
 20
104.0862110239279
 30
0.0
 11
-345.5099006054986
 21
94.0864400547721
 31
0.0
  0
LINE
  5
368
330
A
100
AcDbEntity
  8
PV
  6
Continuous
 62
     3
100
AcDbLine
 10
-382.8303022499024
 20
69.44469220773047
 30
0.0
 11
-362.8300116772635
 21
104.0862110239279
 31
0.0
  0
INSERT
  5
369
330
A
100
AcDbEntity
  8
FV
  6
ByBlock
100
AcDbBlockReference
  2
MS_1
 10
999.9999850988389
 20
-1079.999983906746
 30
0.0
 41
9.999999850988389
 42
9.999999850988389
 43
9.999999850988389
  0
INSERT
  5
395
330
A
100
AcDbEntity
  8
FV
  6
ByBlock
100
AcDbBlockReference
  2
*X15
 10
0.0
 20
0.0
 30
0.0
  0
MTEXT
  5
396
330
A
100
AcDbEntity
  8
FV
  6
Continuous
 62
     7
100
AcDbMText
 10
535.5679868677431
 20
-1186.159974542857
 30
0.0
 40
41.67171416175791
 41
0.0
 71
     1
 72
     1
  1
\W0.712;\A1;田島
 73
     1
 44
0.9015865983781221
1001
ACAD
1000
MTEXTBEGIN
1070
    73
1070
     1
1070
    44
1040
0.9015865983781221
1070
    74
1070
     0
1000
MTEXTEND
  0
MTEXT
  5
397
330
A
100
AcDbEntity
  8
FV
  6
Continuous
 62
     7
100
AcDbMText
 10
687.3726415880993
 20
-1189.880677612413
 30
0.0
 40
41.67171416175791
 41
0.0
 71
     1
 72
     1
  1
\W0.712;\A1;田島
 73
     1
 44
0.9015865983781221
1001
ACAD
1000
MTEXTBEGIN
1070
    73
1070
     1
1070
    44
1040
0.9015865983781221
1070
    74
1070
     0
1000
MTEXTEND
  0
MTEXT
  5
398
330
A
100
AcDbEntity
  8
FV
  6
Continuous
 62
     7
100
AcDbMText
 10
995.7664357207669
 20
-1151.929475785353
 30
0.0
 40
41.67171416175791
 41
0.0
 71
     1
 72
     1
  1
\W1.080;\A1;1/10
 73
     1
 44
0.9015865983781221
1001
ACAD
1000
MTEXTBEGIN
1070
    73
1070
     1
1070
    44
1040
0.9015865983781221
1070
    74
1070
     0
1000
MTEXTEND
  0
MTEXT
  5
399
330
A
100
AcDbEntity
  8
FV
  6
Continuous
 62
     7
100
AcDbMText
 10
1372.256744808991
 20
-1178.746196348277
 30
0.0
 40
62.50757124263687
 41
0.0
 71
     1
 72
     1
  1
\A1;{\W0.587;TRO-100}
 73
     1
 44
0.899999746832735
1001
ACAD
1000
MTEXTBEGIN
1070
    73
1070
     1
1070
    44
1040
0.899999746832735
1070
    74
1070
     0
1000
MTEXTEND
  0
MTEXT
  5
39A
330
A
100
AcDbEntity
  8
FV
  6
Continuous
 62
     7
100
AcDbMText
 10
189.4399996185303
 20
1339.999980032444
 30
0.0
 40
41.66999754801396
 41
0.0
 71
     4
 72
     1
  1
\A1;SET
 73
     1
 44
0.9000000214576726
1001
ACAD
1000
MTEXTBEGIN
1070
    73
1070
     1
1070
    44
1040
0.9000000214576726
1070
    74
1070
     0
1000
MTEXTEND
  0
MTEXT
  5
39B
330
A
100
AcDbEntity
  8
FV
  6
Continuous
 62
     7
100
AcDbMText
 10
232.6693068906471
 20
-814.4982407316827
 30
0.0
 40
41.66999754801396
 41
0.0
 71
     1
 72
     1
  1
\W2.560;\A1;|
 73
     1
 44
0.8999280667599519
1001
ACAD
1000
MTEXTBEGIN
1070
    73
1070
     1
1070
    44
1040
0.8999280667599519
1070
    74
1070
     0
1000
MTEXTEND
  0
MTEXT
  5
39C
330
A
100
AcDbEntity
  8
FV
  6
Continuous
 62
     7
100
AcDbMText
 10
187.2522810694997
 20
-866.9998039752274
 30
0.0
 40
29.99999955296517
 41
0.0
 71
     1
 72
     1
  1
\W1.011;\A1;Nｏ.
 73
     1
 44
0.8999281144125012
1001
ACAD
1000
MTEXTBEGIN
1070
    73
1070
     1
1070
    44
1040
0.8999281144125012
1070
    74
1070
     0
1000
MTEXTEND
  0
MTEXT
  5
39D
330
A
100
AcDbEntity
  8
FV
  6
Continuous
 62
     7
100
AcDbMText
 10
202.1327846924545
 20
-774.3333319673935
 30
0.0
 40
29.99999955296517
 41
0.0
 71
     1
 72
     1
  1
\W0.853;\A1;M
 73
     1
 44
0.8999281144125012
1001
ACAD
1000
MTEXTBEGIN
1070
    73
1070
     1
1070
    44
1040
0.8999281144125012
1070
    74
1070
     0
1000
MTEXTEND
  0
MTEXT
  5
39E
330
A
100
AcDbEntity
  8
FV
  6
Continuous
 62
     7
100
AcDbMText
 10
895.492158701084
 20
-955.8315516139336
 30
0.0
 40
41.66999754801396
 41
0.0
 71
     1
 72
     1
  1
\W0.711;\A1;Ａ３
 73
     1
 44
0.8999280667599519
1001
ACAD
1000
MTEXTBEGIN
1070
    73
1070
     1
1070
    44
1040
0.8999280667599519
1070
    74
1070
     0
1000
MTEXTEND
  0
MTEXT
  5
39F
330
A
100
AcDbEntity
  8
FV
  6
Continuous
 62
     7
100
AcDbMText
 10
1863.878446937107
 20
-252.833248185616
 30
0.0
 40
24.99999962747098
 41
0.0
 71
     1
 72
     1
  1
\W0.931;\A1;30
 73
     1
 44
0.8999279236776331
1001
ACAD
1000
MTEXTBEGIN
1070
    73
1070
     1
1070
    44
1040
0.8999279236776331
1070
    74
1070
     0
1000
MTEXTEND
  0
MTEXT
  5
3A0
330
A
100
AcDbEntity
  8
FV
  6
Continuous
 62
     7
100
AcDbMText
 10
1884.599747333336
 20
-553.4999001994743
 30
0.0
 40
24.99999962747098
 41
0.0
 71
     1
 72
     1
  1
\W1.024;\A1;0
 73
     1
 44
0.8999279236776331
1001
ACAD
1000
MTEXTBEGIN
1070
    73
1070
     1
1070
    44
1040
0.8999279236776331
1070
    74
1070
     0
1000
MTEXTEND
  0
MTEXT
  5
3A1
330
A
100
AcDbEntity
  8
FV
  6
Continuous
 62
     7
100
AcDbMText
 10
879.9999868869782
 20
-1169.999982565641
 30
0.0
 40
24.99999962747098
 41
0.0
 71
     5
 72
     1
  1
\W0.833;\A1;SCALE
 73
     1
 44
0.9000718903558704
1001
ACAD
1000
MTEXTBEGIN
1070
    73
1070
     1
1070
    44
1040
0.9000718903558704
1070
    74
1070
     0
1000
MTEXTEND
  0
MTEXT
  5
3A2
330
A
100
AcDbEntity
  8
FV
  6
Continuous
 62
     7
100
AcDbMText
 10
879.9999868869782
 20
-1239.99998152256
 30
0.0
 40
24.99999962747098
 41
0.0
 71
     5
 72
     1
  1
\W0.833;\A1;DATE
 73
     1
 44
0.9000718903558704
1001
ACAD
1000
MTEXTBEGIN
1070
    73
1070
     1
1070
    44
1040
0.9000718903558704
1070
    74
1070
     0
1000
MTEXTEND
  0
MTEXT
  5
3A3
330
A
100
AcDbEntity
  8
FV
  6
Continuous
 62
     7
100
AcDbMText
 10
1339.220179629025
 20
-1328.979014620497
 30
0.0
 40
62.50499632202094
 41
0.0
 71
     5
 72
     1
  1
\W0.908;\A1;KG2302-012A
 73
     1
 44
0.9000720677008102
1001
ACAD
1000
MTEXTBEGIN
1070
    73
1070
     1
1070
    44
1040
0.9000720677008102
1070
    74
1070
     0
1000
MTEXTEND
  0
MTEXT
  5
3A4
330
A
100
AcDbEntity
  8
FV
  6
Continuous
 62
     7
100
AcDbMText
 10
1067.599919623138
 20
-1241.099072082354
 30
0.0
 40
29.99999955296517
 41
0.0
 71
     5
 72
     1
  1
\W1.170;\A1;91.05.16
 73
     1
 44
0.9000721192377117
1001
ACAD
1000
MTEXTBEGIN
1070
    73
1070
     1
1070
    44
1040
0.9000721192377117
1070
    74
1070
     0
1000
MTEXTEND
  0
MTEXT
  5
3A5
330
A
100
AcDbEntity
  8
FV
  6
Continuous
 62
     7
100
AcDbMText
 10
1554.999976828695
 20
-999.9999850988389
 30
0.0
 40
29.99999955296517
 41
0.0
 71
     5
 72
     1
  1
\W0.890;\A1;REVISION
 73
     1
 44
0.8999998307228047
1001
ACAD
1000
MTEXTBEGIN
1070
    73
1070
     1
1070
    44
1040
0.8999998307228047
1070
    74
1070
     0
1000
MTEXTEND
  0
MTEXT
  5
3A6
330
A
100
AcDbEntity
  8
FV
  6
Continuous
 62
     7
100
AcDbMText
 10
1739.99997407198
 20
-949.999985843897
 30
0.0
 40
29.99999955296517
 41
0.0
 71
     5
 72
     1
  1
\W0.853;\A1;REMARKS
 73
     1
 44
0.9358846887561007
1001
ACAD
1000
MTEXTBEGIN
1070
    73
1070
     1
1070
    44
1040
0.9358846887561007
1070
    74
1070
     0
1000
MTEXTEND
  0
MTEXT
  5
3A7
330
A
100
AcDbEntity
  8
FV
  6
Continuous
 62
     7
100
AcDbMText
 10
1444.999978467822
 20
-949.999985843897
 30
0.0
 40
29.99999955296517
 41
0.0
 71
     5
 72
     1
  1
\W0.853;\A1;DATE
 73
     1
 44
0.9358846887561007
1001
ACAD
1000
MTEXTBEGIN
1070
    73
1070
     1
1070
    44
1040
0.9358846887561007
1070
    74
1070
     0
1000
MTEXTEND
  0
MTEXT
  5
3A8
330
A
100
AcDbEntity
  8
FV
  6
Continuous
 62
     7
100
AcDbMText
 10
1259.999981224537
 20
-949.999985843897
 30
0.0
 40
29.99999955296517
 41
0.0
 71
     5
 72
     1
  1
\W0.853;\A1;MARK
 73
     1
 44
0.9358846887561007
1001
ACAD
1000
MTEXTBEGIN
1070
    73
1070
     1
1070
    44
1040
0.9358846887561007
1070
    74
1070
     0
1000
MTEXTEND
  0
MTEXT
  5
3A9
330
A
100
AcDbEntity
  8
FV
  6
Continuous
 62
     7
100
AcDbMText
 10
1259.999981224537
 20
-834.9999875575305
 30
0.0
 40
29.99999955296517
 41
0.0
 71
     5
 72
     1
  1
\W0.853;\A1;-
 73
     1
 44
0.9358846887561007
1001
ACAD
1000
MTEXTBEGIN
1070
    73
1070
     1
1070
    44
1040
0.9358846887561007
1070
    74
1070
     0
1000
MTEXTEND
  0
MTEXT
  5
3AA
330
A
100
AcDbEntity
  8
FV
  6
Continuous
 62
     7
100
AcDbMText
 10
1212.37982214918
 20
-831.9995946884214
 30
0.0
 40
17.99999210238468
 41
0.0
 71
     1
 72
     1
  1
\W0.853;\A1;C
 73
     1
 44
0.9358845768093797
1001
ACAD
1000
MTEXTBEGIN
1070
    73
1070
     1
1070
    44
1040
0.9358845768093797
1070
    74
1070
     0
1000
MTEXTEND
  0
MTEXT
  5
3AB
330
A
100
AcDbEntity
  8
FV
  6
Continuous
 62
     7
100
AcDbMText
 10
1259.999981224537
 20
-894.9999866634609
 30
0.0
 40
29.99999955296517
 41
0.0
 71
     5
 72
     1
  1
\W0.853;\A1;-
 73
     1
 44
0.9358846887561007
1001
ACAD
1000
MTEXTBEGIN
1070
    73
1070
     1
1070
    44
1040
0.9358846887561007
1070
    74
1070
     0
1000
MTEXTEND
  0
MTEXT
  5
3AC
330
A
100
AcDbEntity
  8
FV
  6
Continuous
 62
     7
100
AcDbMText
 10
1212.37982214918
 20
-891.9995937943518
 30
0.0
 40
17.99999210238468
 41
0.0
 71
     1
 72
     1
  1
\W0.853;\A1;B
 73
     1
 44
0.9358845768093797
1001
ACAD
1000
MTEXTBEGIN
1070
    73
1070
     1
1070
    44
1040
0.9358845768093797
1070
    74
1070
     0
1000
MTEXTEND
  0
MTEXT
  5
3AD
330
A
100
AcDbEntity
  8
FV
  6
Continuous
 62
     7
100
AcDbMText
 10
1259.999981224537
 20
-774.9999884516001
 30
0.0
 40
29.99999955296517
 41
0.0
 71
     5
 72
     1
  1
\W0.853;\A1;-
 73
     1
 44
0.9358846887561007
1001
ACAD
1000
MTEXTBEGIN
1070
    73
1070
     1
1070
    44
1040
0.9358846887561007
1070
    74
1070
     0
1000
MTEXTEND
  0
MTEXT
  5
3AE
330
A
100
AcDbEntity
  8
FV
  6
Continuous
 62
     7
100
AcDbMText
 10
1212.37982214918
 20
-771.9995955824911
 30
0.0
 40
17.99999210238468
 41
0.0
 71
     1
 72
     1
  1
\W0.853;\A1;D
 73
     1
 44
0.9358845768093797
1001
ACAD
1000
MTEXTBEGIN
1070
    73
1070
     1
1070
    44
1040
0.9358845768093797
1070
    74
1070
     0
1000
MTEXTEND
  0
MTEXT
  5
3AF
330
A
100
AcDbEntity
  8
FV
  6
Continuous
 62
     7
100
AcDbMText
 10
502.7274935296366
 20
-974.999985471368
 30
0.0
 40
29.99999955296517
 41
0.0
 71
     4
 72
     1
  1
\W1.010;\A1;JIS B 0401-   級\P\U+00B1
 73
     1
 44
0.8999998307228047
1001
ACAD
1000
MTEXTBEGIN
1070
    73
1070
     1
1070
    44
1040
0.8999998307228047
1070
    74
1070
     0
1000
MTEXTEND
  0
MTEXT
  5
3B0
330
A
100
AcDbEntity
  8
FV
  6
Continuous
 62
     7
100
AcDbMText
 10
197.2608160353099
 20
-974.999985471368
 30
0.0
 40
29.99999955296517
 41
0.0
 71
     4
 72
     1
  1
\W0.815;\A1;TOLERANCES\PUNLESS NOTED
 73
     1
 44
0.8999998307228047
1001
ACAD
1000
MTEXTBEGIN
1070
    73
1070
     1
1070
    44
1040
0.8999998307228047
1070
    74
1070
     0
1000
MTEXTEND
  0
MTEXT
  5
3B1
330
A
100
AcDbEntity
  8
FV
  6
Continuous
 62
     7
100
AcDbMText
 10
962.2903861276748
 20
-1326.985453859188
 30
0.0
 40
24.99999962747098
 41
0.0
 71
     4
 72
     1
  1
\W0.768;\A1;DWG\PNｏ.
 73
     1
 44
0.93588457431518
1001
ACAD
1000
MTEXTBEGIN
1070
    73
1070
     1
1070
    44
1040
0.93588457431518
1070
    74
1070
     0
1000
MTEXTEND
  0
MTEXT
  5
3B2
330
A
100
AcDbEntity
  8
FV
  6
Continuous
 62
     7
100
AcDbMText
 10
192.6459538045632
 20
-1326.985453859188
 30
0.0
 40
24.99999962747098
 41
0.0
 71
     4
 72
     1
  1
\W0.853;\A1;MFG\PNｏ.
 73
     1
 44
0.93588457431518
1001
ACAD
1000
MTEXTBEGIN
1070
    73
1070
     1
1070
    44
1040
0.93588457431518
1070
    74
1070
     0
1000
MTEXTEND
  0
MTEXT
  5
3B3
330
A
100
AcDbEntity
  8
FV
  6
Continuous
 62
     7
100
AcDbMText
 10
700.1554873474225
 20
-1077.499983943999
 30
0.0
 40
29.99999955296517
 41
0.0
 71
     1
 72
     1
  1
\W0.711;\A1;製　図
 73
     1
 44
0.9358846887561007
1001
ACAD
1000
MTEXTBEGIN
1070
    73
1070
     1
1070
    44
1040
0.9358846887561007
1070
    74
1070
     0
1000
MTEXTEND
  0
MTEXT
  5
3B4
330
A
100
AcDbEntity
  8
FV
  6
Continuous
 62
     7
100
AcDbMText
 10
540.1554897316083
 20
-1077.499983943999
 30
0.0
 40
29.99999955296517
 41
0.0
 71
     1
 72
     1
  1
\W0.711;\A1;設　計
 73
     1
 44
0.9358846887561007
1001
ACAD
1000
MTEXTBEGIN
1070
    73
1070
     1
1070
    44
1040
0.9358846887561007
1070
    74
1070
     0
1000
MTEXTEND
  0
MTEXT
  5
3B5
330
A
100
AcDbEntity
  8
FV
  6
Continuous
 62
     7
100
AcDbMText
 10
380.155492115794
 20
-1077.499983943999
 30
0.0
 40
29.99999955296517
 41
0.0
 71
     1
 72
     1
  1
\W0.711;\A1;検　図
 73
     1
 44
0.9358846887561007
1001
ACAD
1000
MTEXTBEGIN
1070
    73
1070
     1
1070
    44
1040
0.9358846887561007
1070
    74
1070
     0
1000
MTEXTEND
  0
MTEXT
  5
3B6
330
A
100
AcDbEntity
  8
FV
  6
Continuous
 62
     7
100
AcDbMText
 10
220.1554944999799
 20
-1077.499983943999
 30
0.0
 40
29.99999955296517
 41
0.0
 71
     1
 72
     1
  1
\W0.711;\A1;承　認
 73
     1
 44
0.9358846887561007
1001
ACAD
1000
MTEXTBEGIN
1070
    73
1070
     1
1070
    44
1040
0.9358846887561007
1070
    74
1070
     0
1000
MTEXTEND
  0
MTEXT
  5
3B7
330
A
100
AcDbEntity
  8
FV
  6
Continuous
 62
     7
100
AcDbMText
 10
1213.268404987562
 20
-1046.271499301917
 30
0.0
 40
24.99999962747098
 41
0.0
 71
     1
 72
     1
  1
\W0.776;\A1;TITLE
 73
     1
 44
0.8999997925758311
1001
ACAD
1000
MTEXTBEGIN
1070
    73
1070
     1
1070
    44
1040
0.8999997925758311
1070
    74
1070
     0
1000
MTEXTEND
  0
MTEXT
  5
3B8
330
A
100
AcDbEntity
  8
FV
  6
Continuous
 62
     7
100
AcDbMText
 10
691.3163595288589
 20
-1034.999984577298
 30
0.0
 40
24.99999962747098
 41
0.0
 71
     1
 72
     1
  1
\W0.874;\A1;DRAW
 73
     1
 44
0.8999997925758311
1001
ACAD
1000
MTEXTBEGIN
1070
    73
1070
     1
1070
    44
1040
0.8999997925758311
1070
    74
1070
     0
1000
MTEXTEND
  0
MTEXT
  5
3B9
330
A
100
AcDbEntity
  8
FV
  6
Continuous
 62
     7
100
AcDbMText
 10
529.1176972413005
 20
-1034.999984577298
 30
0.0
 40
24.99999962747098
 41
0.0
 71
     1
 72
     1
  1
\W0.847;\A1;DESIG
 73
     1
 44
0.8999997925758311
1001
ACAD
1000
MTEXTBEGIN
1070
    73
1070
     1
1070
    44
1040
0.8999997925758311
1070
    74
1070
     0
1000
MTEXTEND
  0
MTEXT
  5
3BA
330
A
100
AcDbEntity
  8
FV
  6
Continuous
 62
     7
100
AcDbMText
 10
368.882405824228
 20
-1034.999984577298
 30
0.0
 40
24.99999962747098
 41
0.0
 71
     1
 72
     1
  1
\W0.791;\A1;CHECK
 73
     1
 44
0.8999997925758311
1001
ACAD
1000
MTEXTBEGIN
1070
    73
1070
     1
1070
    44
1040
0.8999997925758311
1070
    74
1070
     0
1000
MTEXTEND
  0
MTEXT
  5
3BB
330
A
100
AcDbEntity
  8
FV
  6
Continuous
 62
     7
100
AcDbMText
 10
208.6765260961556
 20
-1034.999984577298
 30
0.0
 40
24.99999962747098
 41
0.0
 71
     1
 72
     1
  1
\W0.741;\A1;APPRV
 73
     1
 44
0.8999997925758311
1001
ACAD
1000
MTEXTBEGIN
1070
    73
1070
     1
1070
    44
1040
0.8999997925758311
1070
    74
1070
     0
1000
MTEXTEND
  0
LWPOLYLINE
  5
3BC
330
A
100
AcDbEntity
  8
FV
  6
Continuous
 62
     7
100
AcDbPolyline
 90
       22
 70
     1
 43
0.0
 10
454.9999932199717
 20
1339.999980032444
 10
528.5000531598917
 20
1384.999979361892
 10
675.5000204518434
 20
1294.999980702996
 10
822.5001403316834
 20
1384.999979361892
 10
969.5001076236351
 20
1294.999980702996
 10
1116.499922327698
 20
1384.999979361892
 10
1263.49988961965
 20
1294.999980702996
 10
1410.499856911602
 20
1384.999979361892
 10
1557.499824203553
 20
1294.999980702996
 10
1704.499944083393
 20
1384.999979361892
 10
1851.499911375345
 20
1294.999980702996
 10
1924.999971315265
 20
1339.999980032444
 10
1851.499911375345
 20
1384.999979361892
 10
1704.499944083393
 20
1294.999980702996
 10
1557.499824203553
 20
1384.999979361892
 10
1410.499856911602
 20
1294.999980702996
 10
1263.49988961965
 20
1384.999979361892
 10
1116.499922327698
 20
1294.999980702996
 10
969.5001076236351
 20
1384.999979361892
 10
822.5001403316834
 20
1294.999980702996
 10
675.5000204518434
 20
1384.999979361892
 10
528.5000531598917
 20
1294.999980702996
  0
CIRCLE
  5
3BD
330
A
100
AcDbEntity
  8
FV
  6
Continuous
 62
     3
100
AcDbCircle
 10
1028.47700493817
 20
-974.999985471368
 30
0.0
 40
31.99999761581425
  0
CIRCLE
  5
3BE
330
A
100
AcDbEntity
  8
FV
  6
Continuous
 62
     3
100
AcDbCircle
 10
1028.47700493817
 20
-974.999985471368
 30
0.0
 40
15.99999403953561
  0
LINE
  5
3BF
330
A
100
AcDbEntity
  8
FV
  6
Continuous
 62
     3
100
AcDbLine
 10
1334.99998010695
 20
-1249.999981373548
 30
0.0
 11
1834.999972656369
 21
-1249.999981373548
 31
0.0
  0
LINE
  5
3C0
330
A
100
AcDbEntity
  8
FV
  6
Continuous
 62
     7
100
AcDbLine
 10
314.9999953061343
 20
1384.999979361892
 30
0.0
 11
314.9999953061343
 21
1294.999980702996
 31
0.0
  0
LINE
  5
3C1
330
A
100
AcDbEntity
  8
FV
  6
Continuous
 62
     7
100
AcDbLine
 10
454.9999932199717
 20
1384.999979361892
 30
0.0
 11
454.9999932199717
 21
1294.999980702996
 31
0.0
  0
LINE
  5
3C2
330
A
100
AcDbEntity
  8
FV
  6
Continuous
 62
     7
100
AcDbLine
 10
174.9999973922968
 20
1384.999979361892
 30
0.0
 11
174.9999973922968
 21
1294.999980702996
 31
0.0
  0
LINE
  5
3C3
330
A
100
AcDbEntity
  8
FV
  6
Continuous
 62
     7
100
AcDbLine
 10
174.9999973922968
 20
1294.999980702996
 30
0.0
 11
1924.999971315265
 21
1294.999980702996
 31
0.0
  0
LINE
  5
3C4
330
A
100
AcDbEntity
  8
FV
  6
Continuous
 62
     7
100
AcDbLine
 10
974.999985471368
 20
-924.999986216426
 30
0.0
 11
974.999985471368
 21
-1024.99998472631
 31
0.0
  0
LINE
  5
3C5
330
A
100
AcDbEntity
  8
FV
  6
Continuous
 62
     7
100
AcDbLine
 10
244.9999963492156
 20
-924.999986216426
 30
0.0
 11
244.9999963492156
 21
-744.999988898635
 31
0.0
  0
LINE
  5
3C6
330
A
100
AcDbEntity
  8
FV
  6
Continuous
 62
     7
100
AcDbLine
 10
1899.999971687794
 20
-264.9999960511923
 30
0.0
 11
1924.999971315265
 21
-264.9999960511923
 31
0.0
  0
LINE
  5
3C7
330
A
100
AcDbEntity
  8
FV
  6
Continuous
 62
     7
100
AcDbLine
 10
1909.999971538782
 20
-314.9999953061343
 30
0.0
 11
1924.999971315265
 21
-314.9999953061343
 31
0.0
  0
LINE
  5
3C8
330
A
100
AcDbEntity
  8
FV
  6
Continuous
 62
     7
100
AcDbLine
 10
1899.999971687794
 20
-364.9999945610762
 30
0.0
 11
1924.999971315265
 21
-364.9999945610762
 31
0.0
  0
LINE
  5
3C9
330
A
100
AcDbEntity
  8
FV
  6
Continuous
 62
     7
100
AcDbLine
 10
1909.999971538782
 20
-414.9999938160181
 30
0.0
 11
1924.999971315265
 21
-414.9999938160181
 31
0.0
  0
LINE
  5
3CA
330
A
100
AcDbEntity
  8
FV
  6
Continuous
 62
     7
100
AcDbLine
 10
1899.999971687794
 20
-464.9999930709601
 30
0.0
 11
1924.999971315265
 21
-464.9999930709601
 31
0.0
  0
LINE
  5
3CB
330
A
100
AcDbEntity
  8
FV
  6
Continuous
 62
     7
100
AcDbLine
 10
1909.999971538782
 20
-514.9999923259021
 30
0.0
 11
1924.999971315265
 21
-514.9999923259021
 31
0.0
  0
LINE
  5
3CC
330
A
100
AcDbEntity
  8
FV
  6
Continuous
 62
     7
100
AcDbLine
 10
1899.999971687794
 20
-564.999991580844
 30
0.0
 11
1924.999971315265
 21
-564.999991580844
 31
0.0
  0
LINE
  5
3CD
330
A
100
AcDbEntity
  8
FV
  6
Continuous
 62
     7
100
AcDbLine
 10
944.9999859184028
 20
-1134.999983087182
 30
0.0
 11
944.9999859184028
 21
-1384.999979361892
 31
0.0
  0
LINE
  5
3CE
330
A
100
AcDbEntity
  8
FV
  6
Continuous
 62
     7
100
AcDbLine
 10
334.9999950081111
 20
-1024.99998472631
 30
0.0
 11
334.9999950081111
 21
-1274.999981001019
 31
0.0
  0
LINE
  5
3CF
330
A
100
AcDbEntity
  8
FV
  6
Continuous
 62
     7
100
AcDbLine
 10
494.9999926239253
 20
-924.999986216426
 30
0.0
 11
494.9999926239253
 21
-1274.999981001019
 31
0.0
  0
LINE
  5
3D0
330
A
100
AcDbEntity
  8
FV
  6
Continuous
 62
     7
100
AcDbLine
 10
654.9999902397395
 20
-1024.99998472631
 30
0.0
 11
654.9999902397395
 21
-1274.999981001019
 31
0.0
  0
LINE
  5
3D1
330
A
100
AcDbEntity
  8
FV
  6
Continuous
 62
     7
100
AcDbLine
 10
1184.999982342124
 20
-864.9999871104956
 30
0.0
 11
1924.999971315265
 21
-864.9999871104956
 31
0.0
  0
LINE
  5
3D2
330
A
100
AcDbEntity
  8
FV
  6
Continuous
 62
     7
100
AcDbLine
 10
1184.999982342124
 20
-804.9999880045653
 30
0.0
 11
1924.999971315265
 21
-804.9999880045653
 31
0.0
  0
LINE
  5
3D3
330
A
100
AcDbEntity
  8
FV
  6
Continuous
 62
     7
100
AcDbLine
 10
174.9999973922968
 20
-744.999988898635
 30
0.0
 11
1924.999971315265
 21
-744.999988898635
 31
0.0
  0
LINE
  5
3D4
330
A
100
AcDbEntity
  8
FV
  6
Continuous
 62
     7
100
AcDbLine
 10
1554.999976828695
 20
-744.999988898635
 30
0.0
 11
1554.999976828695
 21
-974.999985471368
 31
0.0
  0
LINE
  5
3D5
330
A
100
AcDbEntity
  8
FV
  6
Continuous
 62
     7
100
AcDbLine
 10
1195.000352185911
 20
-853.9891781963019
 30
0.0
 11
1217.500256483204
 21
-815.018201487412
 31
0.0
  0
LINE
  5
3D6
330
A
100
AcDbEntity
  8
FV
  6
Continuous
 62
     7
100
AcDbLine
 10
1240.000492568189
 20
-853.9894713802246
 30
0.0
 11
1217.500495585674
 21
-815.0183294901031
 31
0.0
  0
LINE
  5
3D7
330
A
100
AcDbEntity
  8
FV
  6
Continuous
 62
     7
100
AcDbLine
 10
1194.999677017336
 20
-853.9901606143986
 30
0.0
 11
1239.999676346783
 21
-853.9901606143986
 31
0.0
  0
LINE
  5
3D8
330
A
100
AcDbEntity
  8
FV
  6
Continuous
 62
     7
100
AcDbLine
 10
1195.000293177313
 20
-913.9892778927784
 30
0.0
 11
1217.500202242979
 21
-875.018292924827
 31
0.0
  0
LINE
  5
3D9
330
A
100
AcDbEntity
  8
FV
  6
Continuous
 62
     7
100
AcDbLine
 10
1240.000562784745
 20
-913.9895940657465
 30
0.0
 11
1217.50056580223
 21
-875.0184521756251
 31
0.0
  0
LINE
  5
3DA
330
A
100
AcDbEntity
  8
FV
  6
Continuous
 62
     7
100
AcDbLine
 10
1194.999677017336
 20
-913.9901597203289
 30
0.0
 11
1239.999676346783
 21
-913.9901597203289
 31
0.0
  0
LINE
  5
3DB
330
A
100
AcDbEntity
  8
FV
  6
Continuous
 62
     7
100
AcDbLine
 10
1195.000406426137
 20
-793.9890867588868
 30
0.0
 11
1217.500334565288
 21
-755.0180687546891
 31
0.0
  0
LINE
  5
3DC
330
A
100
AcDbEntity
  8
FV
  6
Continuous
 62
     7
100
AcDbLine
 10
1240.000422351634
 20
-793.9893486947026
 30
0.0
 11
1217.500425369119
 21
-755.0182068045812
 31
0.0
  0
LINE
  5
3DD
330
A
100
AcDbEntity
  8
FV
  6
Continuous
 62
     7
100
AcDbLine
 10
1194.999677017336
 20
-793.9901615084683
 30
0.0
 11
1239.999676346783
 21
-793.9901615084683
 31
0.0
  0
LINE
  5
3DE
330
A
100
AcDbEntity
  8
FV
  6
Continuous
 62
     7
100
AcDbLine
 10
814.9999878555536
 20
-1204.999982044101
 30
0.0
 11
1184.999982342124
 21
-1204.999982044101
 31
0.0
  0
LINE
  5
3DF
330
A
100
AcDbEntity
  8
FV
  6
Continuous
 62
     7
100
AcDbLine
 10
1842.499932448555
 20
-1357.499964284362
 30
0.0
 11
1897.499990016413
 21
-1302.499906716504
 31
0.0
  0
LINE
  5
3E0
330
A
100
AcDbEntity
  8
FV
  6
Continuous
 62
     7
100
AcDbLine
 10
1334.99998010695
 20
-744.999988898635
 30
0.0
 11
1334.99998010695
 21
-974.999985471368
 31
0.0
  0
LINE
  5
3E1
330
A
100
AcDbEntity
  8
FV
  6
Continuous
 62
     7
100
AcDbLine
 10
1184.999982342124
 20
-974.999985471368
 30
0.0
 11
1924.999971315265
 21
-974.999985471368
 31
0.0
  0
LINE
  5
3E2
330
A
100
AcDbEntity
  8
FV
  6
Continuous
 62
     7
100
AcDbLine
 10
874.9999869614841
 20
-924.999986216426
 30
0.0
 11
874.9999869614841
 21
-1024.99998472631
 31
0.0
  0
LINE
  5
3E3
330
A
100
AcDbEntity
  8
FV
  6
Continuous
 62
     7
100
AcDbLine
 10
174.9999973922968
 20
-924.999986216426
 30
0.0
 11
1924.999971315265
 21
-924.999986216426
 31
0.0
  0
LINE
  5
3E4
330
A
100
AcDbEntity
  8
FV
  6
Continuous
 62
     7
100
AcDbLine
 10
814.9999878555536
 20
-1134.999983087182
 30
0.0
 11
1184.999982342124
 21
-1134.999983087182
 31
0.0
  0
LINE
  5
3E5
330
A
100
AcDbEntity
  8
FV
  6
Continuous
 62
     7
100
AcDbLine
 10
814.9999878555536
 20
-1024.99998472631
 30
0.0
 11
814.9999878555536
 21
-1274.999981001019
 31
0.0
  0
LINE
  5
3E6
330
A
100
AcDbEntity
  8
FV
  6
Continuous
 62
     7
100
AcDbLine
 10
1814.999972954393
 20
-1384.999979361892
 30
0.0
 11
1814.999972954393
 21
-1274.999981001019
 31
0.0
  0
LINE
  5
3E7
330
A
100
AcDbEntity
  8
FV
  6
CENTER
 62
     7
100
AcDbLine
 10
1028.47700493817
 20
-934.9999860674143
 30
0.0
 11
1028.47700493817
 21
-1014.999984875321
 31
0.0
  0
LINE
  5
3E8
330
A
100
AcDbEntity
  8
FV
  6
Continuous
 62
     3
100
AcDbLine
 10
1092.476077756602
 20
-958.9957517960042
 30
0.0
 11
1172.475631491242
 21
-942.9958439667425
 31
0.0
  0
LINE
  5
3E9
330
A
100
AcDbEntity
  8
FV
  6
Continuous
 62
     3
100
AcDbLine
 10
1092.477313212359
 20
-990.9958854671126
 30
0.0
 11
1172.477465445908
 21
-1006.995912996134
 31
0.0
  0
LINE
  5
3EA
330
A
100
AcDbEntity
  8
FV
  6
Continuous
 62
     3
100
AcDbLine
 10
1092.47694294934
 20
-959.0000772625195
 30
0.0
 11
1092.47694294934
 21
-991.0000462681049
 31
0.0
  0
LINE
  5
3EB
330
A
100
AcDbEntity
  8
FV
  6
Continuous
 62
     3
100
AcDbLine
 10
1172.476941757247
 20
-943.0000164657828
 30
0.0
 11
1172.476941757247
 21
-1007.000107064841
 31
0.0
  0
LINE
  5
3EC
330
A
100
AcDbEntity
  8
FV
  6
CENTER
 62
     7
100
AcDbLine
 10
984.9999853223565
 20
-974.999985471368
 30
0.0
 11
1179.99998241663
 21
-974.999985471368
 31
0.0
  0
LINE
  5
3ED
330
A
100
AcDbEntity
  8
FV
  6
Continuous
 62
     7
100
AcDbLine
 10
174.9999973922968
 20
-1114.999983385205
 30
0.0
 11
814.9999878555536
 21
-1114.999983385205
 31
0.0
  0
LINE
  5
3EE
330
A
100
AcDbEntity
  8
FV
  6
Continuous
 62
     7
100
AcDbLine
 10
1184.999982342124
 20
-744.999988898635
 30
0.0
 11
1184.999982342124
 21
-1274.999981001019
 31
0.0
  0
LINE
  5
3EF
330
A
100
AcDbEntity
  8
FV
  6
Continuous
 62
     7
100
AcDbLine
 10
174.9999973922968
 20
-744.999988898635
 30
0.0
 11
174.9999973922968
 21
-1384.999979361892
 31
0.0
  0
LINE
  5
3F0
330
A
100
AcDbEntity
  8
FV
  6
Continuous
 62
     7
100
AcDbLine
 10
174.3470738180417
 20
-1024.99998472631
 30
0.0
 11
1924.999971315265
 21
-1024.99998472631
 31
0.0
  0
LINE
  5
3F1
330
A
100
AcDbEntity
  8
FV
  6
Continuous
 62
     7
100
AcDbLine
 10
174.9999973922968
 20
-1274.999981001019
 30
0.0
 11
1924.999971315265
 21
-1274.999981001019
 31
0.0
  0
LINE
  5
3F2
330
A
100
AcDbEntity
  8
FV
  6
Continuous
 62
     1
100
AcDbLine
 10
1924.999971315265
 20
-1384.999979361892
 30
0.0
 11
1924.999971315265
 21
1384.999979361892
 31
0.0
  0
LINE
  5
3F3
330
A
100
AcDbEntity
  8
FV
  6
Continuous
 62
     1
100
AcDbLine
 10
-1924.999971315265
 20
-1384.999979361892
 30
0.0
 11
1924.999971315265
 21
-1384.999979361892
 31
0.0
  0
LINE
  5
3F4
330
A
100
AcDbEntity
  8
FV
  6
Continuous
 62
     1
100
AcDbLine
 10
-1924.999971315265
 20
1384.999979361892
 30
0.0
 11
1924.999971315265
 21
1384.999979361892
 31
0.0
  0
LINE
  5
3F5
330
A
100
AcDbEntity
  8
FV
  6
Continuous
 62
     7
100
AcDbLine
 10
1924.999971315265
 20
0.0
 30
0.0
 11
1894.9999717623
 21
0.0
 31
0.0
  0
LINE
  5
3F6
330
A
100
AcDbEntity
  8
FV
  6
Continuous
 62
     7
100
AcDbLine
 10
0.0
 20
-1354.999979808927
 30
0.0
 11
0.0
 21
-1384.999979361892
 31
0.0
  0
LINE
  5
3F7
330
A
100
AcDbEntity
  8
FV
  6
Continuous
 62
     7
100
AcDbLine
 10
0.0
 20
1384.999979361892
 30
0.0
 11
0.0
 21
1354.999979808927
 31
0.0
  0
LINE
  5
3F8
330
A
100
AcDbEntity
  8
FV
  6
Continuous
 62
     7
100
AcDbLine
 10
-1924.999971315265
 20
0.0
 30
0.0
 11
-1894.9999717623
 21
0.0
 31
0.0
  0
LINE
  5
3F9
330
A
100
AcDbEntity
  8
FV
  6
Continuous
 62
     1
100
AcDbLine
 10
-1924.999971315265
 20
1384.999979361892
 30
0.0
 11
-1924.999971315265
 21
-1384.999979361892
 31
0.0
  0
LINE
  5
3FB
330
A
100
AcDbEntity
  8
DEFPOINTS
  6
NON_PLOTING
 62
     3
100
AcDbLine
 10
-2174.999967589975
 20
-1484.999977871776
 30
0.0
 11
2024.999969825149
 21
-1484.999977871776
 31
0.0
  0
LINE
  5
3FC
330
A
100
AcDbEntity
  8
DEFPOINTS
  6
NON_PLOTING
 62
     3
100
AcDbLine
 10
2024.999969825149
 20
1484.999977871776
 30
0.0
 11
2024.999969825149
 21
-1484.999977871776
 31
0.0
  0
ENDSEC
  0
SECTION
  2
OBJECTS
  0
DICTIONARY
  5
19
330
0
100
AcDbDictionary
281
     1
  3
ACAD_COLOR
350
42B
  3
ACAD_GROUP
350
1A
  3
ACAD_LAYOUT
350
1E
  3
ACAD_MATERIAL
350
3FE
  3
ACAD_MLEADERSTYLE
350
440
  3
ACAD_MLINESTYLE
350
1B
  3
ACAD_PLOTSETTINGS
350
22
  3
ACAD_PLOTSTYLENAME
350
1F
  3
ACAD_SCALELIST
350
42E
  3
ACAD_TABLESTYLE
350
42C
  3
ACAD_VISUALSTYLE
350
417
  3
ACDB_RECOMPOSE_DATA
350
54D
  3
AcDbVariableDictionary
350
543
  3
AcmDictionary
350
49D
  3
AMG
350
446
  3
AMGSNAPSETTINGS
350
4E1
  3
DWGPROPS
350
54E
  0
DICTIONARY
  5
4E8
330
14
100
AcDbDictionary
280
     1
281
     1
  3
ADSK_XREC_LAYER_RECONCILED
360
4E9
  0
DICTIONARY
  5
4EA
330
24
100
AcDbDictionary
280
     1
281
     1
  3
ADSK_XREC_LAYER_RECONCILED
360
4EB
  0
DICTIONARY
  5
4EC
330
25
100
AcDbDictionary
280
     1
281
     1
  3
ADSK_XREC_LAYER_RECONCILED
360
4ED
  0
DICTIONARY
  5
553
330
D0
100
AcDbDictionary
280
     1
281
     1
  3
ACAD_MTEXT_RT
360
554
  0
DICTIONARY
  5
555
330
158
100
AcDbDictionary
280
     1
281
     1
  3
ACAD_MTEXT_RT
360
556
  0
DICTIONARY
  5
557
330
15A
100
AcDbDictionary
280
     1
281
     1
  3
ACAD_MTEXT_RT
360
558
  0
DICTIONARY
  5
559
330
168
100
AcDbDictionary
280
     1
281
     1
  3
ACAD_MTEXT_RT
360
55A
  0
DICTIONARY
  5
55B
330
16C
100
AcDbDictionary
280
     1
281
     1
  3
ACAD_MTEXT_RT
360
55C
  0
DICTIONARY
  5
42B
102
{ACAD_REACTORS
330
19
102
}
330
19
100
AcDbDictionary
281
     1
  0
DICTIONARY
  5
1A
102
{ACAD_REACTORS
330
19
102
}
330
19
100
AcDbDictionary
281
     1
  0
DICTIONARY
  5
1E
102
{ACAD_REACTORS
330
19
102
}
330
19
100
AcDbDictionary
281
     1
  3
Layout1
350
21
  3
Model
350
20
  0
DICTIONARY
  5
3FE
102
{ACAD_REACTORS
330
19
102
}
330
19
100
AcDbDictionary
281
     1
  3
ByBlock
350
407
  3
ByLayer
350
3FF
  3
Global
350
40F
  0
DICTIONARY
  5
440
102
{ACAD_REACTORS
330
19
102
}
330
19
100
AcDbDictionary
281
     1
  3
Standard
350
441
  0
DICTIONARY
  5
1B
102
{ACAD_REACTORS
330
19
102
}
330
19
100
AcDbDictionary
281
     1
  3
Standard
350
1C
  0
DICTIONARY
  5
22
102
{ACAD_REACTORS
330
19
102
}
330
19
100
AcDbDictionary
281
     1
  0
ACDBDICTIONARYWDFLT
  5
1F
102
{ACAD_REACTORS
330
19
102
}
330
19
100
AcDbDictionary
281
     1
  3
Normal
350
1D
100
AcDbDictionaryWithDefault
340
1D
  0
DICTIONARY
  5
42E
102
{ACAD_REACTORS
330
19
102
}
330
19
100
AcDbDictionary
281
     1
  3
A0
350
42F
  3
A1
350
430
  3
A2
350
431
  3
A3
350
432
  3
A4
350
433
  3
A5
350
434
  3
A6
350
435
  3
A7
350
436
  3
A8
350
437
  3
A9
350
438
  3
B0
350
439
  3
B1
350
43A
  3
B2
350
43B
  3
B3
350
43C
  3
B4
350
43D
  3
B5
350
43E
  3
B6
350
43F
  0
DICTIONARY
  5
42C
102
{ACAD_REACTORS
330
19
102
}
330
19
100
AcDbDictionary
281
     1
  3
Standard
350
42D
  0
DICTIONARY
  5
417
102
{ACAD_REACTORS
330
19
102
}
330
19
100
AcDbDictionary
281
     1
  3
2dWireframe
350
41D
  3
3D Hidden
350
41F
  3
3dWireframe
350
41E
  3
Basic
350
41C
  3
Brighten
350
423
  3
ColorChange
350
427
  3
Conceptual
350
420
  3
Dim
350
422
  3
EdgeColorOff
350
42A
  3
Facepattern
350
426
  3
Flat
350
418
  3
FlatWithEdges
350
419
  3
Gouraud
350
41A
  3
GouraudWithEdges
350
41B
  3
JitterOff
350
428
  3
Linepattern
350
425
  3
OverhangOff
350
429
  3
Realistic
350
421
  3
Thicken
350
424
  0
XRECORD
  5
54D
102
{ACAD_REACTORS
330
19
102
}
330
19
100
AcDbXrecord
280
     1
 90
        1
330
D4
330
42D
  0
DICTIONARY
  5
543
102
{ACAD_REACTORS
330
19
102
}
330
19
100
AcDbDictionary
281
     1
  3
CANNOSCALE
350
546
  3
CMLEADERSTYLE
350
545
  3
CTABLESTYLE
350
544
  3
DIMASSOC
350
549
  3
INDEXCTL
350
548
  3
SORTENTS
350
547
  3
XCLIPFRAME
350
54A
  0
DICTIONARY
  5
49D
102
{ACAD_REACTORS
330
19
102
}
330
19
100
AcDbDictionary
281
     1
  3
AcmStdDictionary
350
4A7
  0
DICTIONARY
  5
446
102
{ACAD_REACTORS
330
19
102
}
330
19
100
AcDbDictionary
281
     1
  0
DICTIONARY
  5
4E1
102
{ACAD_REACTORS
330
19
102
}
330
19
100
AcDbDictionary
281
     1
  0
XRECORD
  5
54E
102
{ACAD_REACTORS
330
19
102
}
330
19
100
AcDbXrecord
280
     1
  1
DWGPROPS COOKIE
  2

  3

  4

  6

  7

  8
UJ35116
  9

300
=
301
=
302
=
303
=
304
=
305
=
306
=
307
=
308
=
309
=
 40
0.0075245833333333
 41
2455378.027349537
 42
2457884.792089386
  1

 90
        0
  0
XRECORD
  5
4E9
102
{ACAD_REACTORS
330
4E8
102
}
330
4E8
100
AcDbXrecord
280
     1
290
     1
  0
XRECORD
  5
4EB
102
{ACAD_REACTORS
330
4EA
102
}
330
4EA
100
AcDbXrecord
280
     1
290
     1
  0
XRECORD
  5
4ED
102
{ACAD_REACTORS
330
4EC
102
}
330
4EC
100
AcDbXrecord
280
     1
290
     1
  0
XRECORD
  5
554
102
{ACAD_REACTORS
330
553
102
}
330
553
100
AcDbXrecord
280
     1
 40
5800.0
  1
\A1;\U+2205470
  0
XRECORD
  5
556
102
{ACAD_REACTORS
330
555
102
}
330
555
100
AcDbXrecord
280
     1
 40
74413.0
  1
\A1;{\W0.84;MOTOR\P\W0.94;(AC200V,3\U+2205,90W)}
  0
XRECORD
  5
558
102
{ACAD_REACTORS
330
557
102
}
330
557
100
AcDbXrecord
280
     1
 40
75374.0
  1
\A1;{\W0.483;OIL FILLER PORT\W0.883;(\U+220518)}
  0
XRECORD
  5
55A
102
{ACAD_REACTORS
330
559
102
}
330
559
100
AcDbXrecord
280
     1
 40
19227.0
  1
\W0.913;\A1;AC200V,3\U+2205,90ｗ
  0
XRECORD
  5
55C
102
{ACAD_REACTORS
330
55B
102
}
330
55B
100
AcDbXrecord
280
     1
 40
12972.0
  1
\W0.996;\A1;4-\U+220512ｷﾘ
  0
LAYOUT
  5
21
102
{ACAD_XDICTIONARY
360
551
102
}
102
{ACAD_REACTORS
330
1E
102
}
330
1E
100
AcDbPlotSettings
  1

  2

  4

  6

 40
0.0
 41
0.0
 42
0.0
 43
0.0
 44
0.0
 45
0.0
 46
0.0
 47
0.0
 48
0.0
 49
0.0
140
0.0
141
0.0
142
1.0
143
1.0
 70
     0
 72
     0
 73
     0
 74
     0
  7

 75
     0
147
1.0
148
0.0
149
0.0
100
AcDbLayout
  1
Layout1
 70
     0
 71
     1
 10
0.0
 20
0.0
 11
12.0
 21
9.0
 12
0.0
 22
0.0
 32
0.0
 14
1.000000000000000E+20
 24
1.000000000000000E+20
 34
1.000000000000000E+20
 15
-1.000000000000000E+20
 25
-1.000000000000000E+20
 35
-1.000000000000000E+20
146
0.0
 13
0.0
 23
0.0
 33
0.0
 16
1.0
 26
0.0
 36
0.0
 17
0.0
 27
1.0
 37
0.0
 76
     0
330
B
  0
LAYOUT
  5
20
102
{ACAD_XDICTIONARY
360
54F
102
}
102
{ACAD_REACTORS
330
1E
102
}
330
1E
100
AcDbPlotSettings
  1

  2

  4

  6

 40
0.0
 41
0.0
 42
0.0
 43
0.0
 44
0.0
 45
0.0
 46
0.0
 47
0.0
 48
0.0
 49
0.0
140
0.0
141
0.0
142
1.0
143
1.0
 70
  1024
 72
     0
 73
     0
 74
     0
  7

 75
     0
147
1.0
148
0.0
149
0.0
100
AcDbLayout
  1
Model
 70
     0
 71
     0
 10
0.0
 20
0.0
 11
0.0
 21
0.0
 12
0.0
 22
0.0
 32
0.0
 14
0.0
 24
0.0
 34
0.0
 15
0.0
 25
0.0
 35
0.0
146
0.0
 13
0.0
 23
0.0
 33
0.0
 16
0.0
 26
0.0
 36
0.0
 17
0.0
 27
0.0
 37
0.0
 76
     0
330
A
331
15
  0
MATERIAL
  5
407
102
{ACAD_XDICTIONARY
360
408
102
}
102
{ACAD_REACTORS
330
3FE
102
}
330
3FE
100
AcDbMaterial
  1
ByBlock
 72
     0
 43
0.0208333333333333
 43
0.0
 43
0.0
 43
0.0
 43
0.0
 43
0.0208333333333333
 43
0.0
 43
0.0
 43
0.0
 43
0.0
 43
1.0
 43
0.0
 43
0.0
 43
0.0
 43
0.0
 43
1.0
 77
     0
 47
0.0208333333333333
 47
0.0
 47
0.0
 47
0.0
 47
0.0
 47
0.0208333333333333
 47
0.0
 47
0.0
 47
0.0
 47
0.0
 47
1.0
 47
0.0
 47
0.0
 47
0.0
 47
0.0
 47
1.0
171
     0
 49
0.0208333333333333
 49
0.0
 49
0.0
 49
0.0
 49
0.0
 49
0.0208333333333333
 49
0.0
 49
0.0
 49
0.0
 49
0.0
 49
1.0
 49
0.0
 49
0.0
 49
0.0
 49
0.0
 49
1.0
175
     0
142
0.0208333333333333
142
0.0
142
0.0
142
0.0
142
0.0
142
0.0208333333333333
142
0.0
142
0.0
142
0.0
142
0.0
142
1.0
142
0.0
142
0.0
142
0.0
142
0.0
142
1.0
179
     0
144
0.0208333333333333
144
0.0
144
0.0
144
0.0
144
0.0
144
0.0208333333333333
144
0.0
144
0.0
144
0.0
144
0.0
144
1.0
144
0.0
144
0.0
144
0.0
144
0.0
144
1.0
147
0.0208333333333333
147
0.0
147
0.0
147
0.0
147
0.0
147
0.0208333333333333
147
0.0
147
0.0
147
0.0
147
0.0
147
1.0
147
0.0
147
0.0
147
0.0
147
0.0
147
1.0
  0
MATERIAL
  5
3FF
102
{ACAD_XDICTIONARY
360
400
102
}
102
{ACAD_REACTORS
330
3FE
102
}
330
3FE
100
AcDbMaterial
  1
ByLayer
 72
     0
 43
0.0208333333333333
 43
0.0
 43
0.0
 43
0.0
 43
0.0
 43
0.0208333333333333
 43
0.0
 43
0.0
 43
0.0
 43
0.0
 43
1.0
 43
0.0
 43
0.0
 43
0.0
 43
0.0
 43
1.0
 77
     0
 47
0.0208333333333333
 47
0.0
 47
0.0
 47
0.0
 47
0.0
 47
0.0208333333333333
 47
0.0
 47
0.0
 47
0.0
 47
0.0
 47
1.0
 47
0.0
 47
0.0
 47
0.0
 47
0.0
 47
1.0
171
     0
 49
0.0208333333333333
 49
0.0
 49
0.0
 49
0.0
 49
0.0
 49
0.0208333333333333
 49
0.0
 49
0.0
 49
0.0
 49
0.0
 49
1.0
 49
0.0
 49
0.0
 49
0.0
 49
0.0
 49
1.0
175
     0
142
0.0208333333333333
142
0.0
142
0.0
142
0.0
142
0.0
142
0.0208333333333333
142
0.0
142
0.0
142
0.0
142
0.0
142
1.0
142
0.0
142
0.0
142
0.0
142
0.0
142
1.0
179
     0
144
0.0208333333333333
144
0.0
144
0.0
144
0.0
144
0.0
144
0.0208333333333333
144
0.0
144
0.0
144
0.0
144
0.0
144
1.0
144
0.0
144
0.0
144
0.0
144
0.0
144
1.0
147
0.0208333333333333
147
0.0
147
0.0
147
0.0
147
0.0
147
0.0208333333333333
147
0.0
147
0.0
147
0.0
147
0.0
147
1.0
147
0.0
147
0.0
147
0.0
147
0.0
147
1.0
  0
MATERIAL
  5
40F
102
{ACAD_XDICTIONARY
360
410
102
}
102
{ACAD_REACTORS
330
3FE
102
}
330
3FE
100
AcDbMaterial
  1
Global
 72
     0
 43
0.0208333333333333
 43
0.0
 43
0.0
 43
0.0
 43
0.0
 43
0.0208333333333333
 43
0.0
 43
0.0
 43
0.0
 43
0.0
 43
1.0
 43
0.0
 43
0.0
 43
0.0
 43
0.0
 43
1.0
 77
     0
 47
0.0208333333333333
 47
0.0
 47
0.0
 47
0.0
 47
0.0
 47
0.0208333333333333
 47
0.0
 47
0.0
 47
0.0
 47
0.0
 47
1.0
 47
0.0
 47
0.0
 47
0.0
 47
0.0
 47
1.0
171
     0
 49
0.0208333333333333
 49
0.0
 49
0.0
 49
0.0
 49
0.0
 49
0.0208333333333333
 49
0.0
 49
0.0
 49
0.0
 49
0.0
 49
1.0
 49
0.0
 49
0.0
 49
0.0
 49
0.0
 49
1.0
175
     0
142
0.0208333333333333
142
0.0
142
0.0
142
0.0
142
0.0
142
0.0208333333333333
142
0.0
142
0.0
142
0.0
142
0.0
142
1.0
142
0.0
142
0.0
142
0.0
142
0.0
142
1.0
179
     0
144
0.0208333333333333
144
0.0
144
0.0
144
0.0
144
0.0
144
0.0208333333333333
144
0.0
144
0.0
144
0.0
144
0.0
144
1.0
144
0.0
144
0.0
144
0.0
144
0.0
144
1.0
147
0.0208333333333333
147
0.0
147
0.0
147
0.0
147
0.0
147
0.0208333333333333
147
0.0
147
0.0
147
0.0
147
0.0
147
1.0
147
0.0
147
0.0
147
0.0
147
0.0
147
1.0
  0
MLEADERSTYLE
  5
441
102
{ACAD_REACTORS
330
440
102
}
330
440
100
AcDbMLeaderStyle
170
     2
171
     1
172
     0
 90
        2
 40
0.0
 41
0.0
173
     1
 91
-1056964608
340
11
 92
       -2
290
     1
 42
2.0
291
     1
 43
0.36
  3
Standard
 44
4.0
300

342
17
174
     1
178
     6
175
     1
176
     0
 93
-1056964608
 45
4.0
292
     0
297
     0
 46
4.0
 94
-1056964608
 47
1.0
 49
1.0
140
1.0
293
     1
141
0.0
294
     1
177
     0
142
1.0
295
     0
296
     0
143
0.125
1001
ACAD_MLEADERVER
1070
     2
  0
MLINESTYLE
  5
1C
102
{ACAD_REACTORS
330
1B
102
}
330
1B
100
AcDbMlineStyle
  2
STANDARD
 70
     0
  3

 62
     0
 51
90.0
 52
90.0
 71
     2
 49
0.5
 62
   256
  6
BYLAYER
 49
-0.5
 62
   256
  6
BYLAYER
  0
ACDBPLACEHOLDER
  5
1D
102
{ACAD_REACTORS
330
1F
102
}
330
1F
  0
SCALE
  5
42F
102
{ACAD_REACTORS
330
42E
102
}
330
42E
100
AcDbScale
 70
     0
300
1:1
140
1.0
141
1.0
290
     1
  0
SCALE
  5
430
102
{ACAD_REACTORS
330
42E
102
}
330
42E
100
AcDbScale
 70
     0
300
1:2
140
1.0
141
2.0
290
     0
  0
SCALE
  5
431
102
{ACAD_REACTORS
330
42E
102
}
330
42E
100
AcDbScale
 70
     0
300
1:4
140
1.0
141
4.0
290
     0
  0
SCALE
  5
432
102
{ACAD_REACTORS
330
42E
102
}
330
42E
100
AcDbScale
 70
     0
300
1:5
140
1.0
141
5.0
290
     0
  0
SCALE
  5
433
102
{ACAD_REACTORS
330
42E
102
}
330
42E
100
AcDbScale
 70
     0
300
1:8
140
1.0
141
8.0
290
     0
  0
SCALE
  5
434
102
{ACAD_REACTORS
330
42E
102
}
330
42E
100
AcDbScale
 70
     0
300
1:10
140
1.0
141
10.0
290
     0
  0
SCALE
  5
435
102
{ACAD_REACTORS
330
42E
102
}
330
42E
100
AcDbScale
 70
     0
300
1:16
140
1.0
141
16.0
290
     0
  0
SCALE
  5
436
102
{ACAD_REACTORS
330
42E
102
}
330
42E
100
AcDbScale
 70
     0
300
1:20
140
1.0
141
20.0
290
     0
  0
SCALE
  5
437
102
{ACAD_REACTORS
330
42E
102
}
330
42E
100
AcDbScale
 70
     0
300
1:30
140
1.0
141
30.0
290
     0
  0
SCALE
  5
438
102
{ACAD_REACTORS
330
42E
102
}
330
42E
100
AcDbScale
 70
     0
300
1:40
140
1.0
141
40.0
290
     0
  0
SCALE
  5
439
102
{ACAD_REACTORS
330
42E
102
}
330
42E
100
AcDbScale
 70
     0
300
1:50
140
1.0
141
50.0
290
     0
  0
SCALE
  5
43A
102
{ACAD_REACTORS
330
42E
102
}
330
42E
100
AcDbScale
 70
     0
300
1:100
140
1.0
141
100.0
290
     0
  0
SCALE
  5
43B
102
{ACAD_REACTORS
330
42E
102
}
330
42E
100
AcDbScale
 70
     0
300
2:1
140
2.0
141
1.0
290
     0
  0
SCALE
  5
43C
102
{ACAD_REACTORS
330
42E
102
}
330
42E
100
AcDbScale
 70
     0
300
4:1
140
4.0
141
1.0
290
     0
  0
SCALE
  5
43D
102
{ACAD_REACTORS
330
42E
102
}
330
42E
100
AcDbScale
 70
     0
300
8:1
140
8.0
141
1.0
290
     0
  0
SCALE
  5
43E
102
{ACAD_REACTORS
330
42E
102
}
330
42E
100
AcDbScale
 70
     0
300
10:1
140
10.0
141
1.0
290
     0
  0
SCALE
  5
43F
102
{ACAD_REACTORS
330
42E
102
}
330
42E
100
AcDbScale
 70
     0
300
100:1
140
100.0
141
1.0
290
     0
  0
TABLESTYLE
  5
42D
102
{ACAD_XDICTIONARY
360
54B
102
}
102
{ACAD_REACTORS
330
42C
102
}
330
42C
100
AcDbTableStyle
  3
Standard
 70
     0
 71
     0
 40
1.5
 41
1.5
280
     0
281
     0
  7
MX_NOTE_STANDARD
140
4.5
170
     2
 62
     0
 63
     7
283
     0
274
    -2
284
     1
 64
     0
275
    -2
285
     1
 65
     0
276
    -2
286
     1
 66
     0
277
    -2
287
     1
 67
     0
278
    -2
288
     1
 68
     0
279
    -2
289
     1
 69
     0
  7
MX_NOTE_STANDARD
140
6.0
170
     5
 62
     0
 63
     7
283
     0
274
    -2
284
     1
 64
     0
275
    -2
285
     1
 65
     0
276
    -2
286
     1
 66
     0
277
    -2
287
     1
 67
     0
278
    -2
288
     1
 68
     0
279
    -2
289
     1
 69
     0
  7
MX_NOTE_STANDARD
140
4.5
170
     5
 62
     0
 63
     7
283
     0
274
    -2
284
     1
 64
     0
275
    -2
285
     1
 65
     0
276
    -2
286
     1
 66
     0
277
    -2
287
     1
 67
     0
278
    -2
288
     1
 68
     0
279
    -2
289
     1
 69
     0
  0
VISUALSTYLE
  5
41D
102
{ACAD_XDICTIONARY
360
56A
102
}
102
{ACAD_REACTORS
330
417
102
}
330
417
100
AcDbVisualStyle
  2
2dWireframe
 70
     4
 71
     0
 72
     2
 73
     0
 90
        0
 40
-0.6
 41
-30.0
 62
     5
 63
     7
 74
     1
 91
        4
 64
     7
 65
   257
 75
     1
175
     1
 42
1.0
 92
        0
 66
   257
 43
1.0
 76
     1
 77
     6
 78
     2
 67
     7
 79
     5
170
     0
171
     0
290
     0
174
     0
 93
        1
 44
0.0
173
     0
291
     0
 45
0.0
1001
ACAD
1000
AcDbSavedByObjectVersion
1070
     0
  0
VISUALSTYLE
  5
41F
102
{ACAD_XDICTIONARY
360
56E
102
}
102
{ACAD_REACTORS
330
417
102
}
330
417
100
AcDbVisualStyle
  2
3D Hidden
 70
     6
 71
     1
 72
     2
 73
     2
 90
        0
 40
-0.6
 41
-30.0
 62
     5
 63
     7
 74
     2
 91
        2
 64
     7
 65
   257
 75
     2
175
     1
 42
179.0
 92
        0
 66
   257
 43
1.0
 76
     1
 77
     6
 78
     2
 67
     7
 79
     3
170
     0
171
     0
290
     0
174
     0
 93
        1
 44
0.0
173
     0
291
     0
 45
0.0
1001
ACAD
1000
AcDbSavedByObjectVersion
1070
     0
  0
VISUALSTYLE
  5
41E
102
{ACAD_XDICTIONARY
360
56C
102
}
102
{ACAD_REACTORS
330
417
102
}
330
417
100
AcDbVisualStyle
  2
3dWireframe
 70
     5
 71
     0
 72
     2
 73
     0
 90
        0
 40
-0.6
 41
-30.0
 62
     5
 63
     7
 74
     1
 91
        4
 64
     7
 65
   257
 75
     1
175
     1
 42
1.0
 92
        0
 66
   257
 43
1.0
 76
     1
 77
     6
 78
     2
 67
     7
 79
     5
170
     0
171
     0
290
     0
174
     0
 93
        1
 44
0.0
173
     0
291
     0
 45
0.0
1001
ACAD
1000
AcDbSavedByObjectVersion
1070
     0
  0
VISUALSTYLE
  5
41C
102
{ACAD_XDICTIONARY
360
568
102
}
102
{ACAD_REACTORS
330
417
102
}
330
417
100
AcDbVisualStyle
  2
Basic
 70
     7
 71
     1
 72
     0
 73
     1
 90
        0
 40
-0.6
 41
-30.0
 62
     5
 63
     7
 74
     0
 91
        4
 64
     7
 65
   257
 75
     1
175
     1
 42
1.0
 92
        8
 66
     7
 43
1.0
 76
     1
 77
     6
 78
     2
 67
     7
 79
     5
170
     0
171
     0
290
     0
174
     0
 93
        1
 44
0.0
173
     0
291
     1
 45
0.0
1001
ACAD
1000
AcDbSavedByObjectVersion
1070
     0
  0
VISUALSTYLE
  5
423
102
{ACAD_XDICTIONARY
360
576
102
}
102
{ACAD_REACTORS
330
417
102
}
330
417
100
AcDbVisualStyle
  2
Brighten
 70
    12
 71
     2
 72
     2
 73
     0
 90
        0
 40
-0.6
 41
-30.0
 62
     5
 63
     7
 74
     1
 91
        4
 64
     7
 65
   257
 75
     1
175
     1
 42
1.0
 92
        8
 66
     7
 43
1.0
 76
     1
 77
     6
 78
     2
 67
     7
 79
     5
170
     0
171
     0
290
     0
174
     0
 93
        1
 44
50.0
173
     0
291
     1
 45
0.0
1001
ACAD
1000
AcDbSavedByObjectVersion
1070
     0
  0
VISUALSTYLE
  5
427
102
{ACAD_XDICTIONARY
360
57E
102
}
102
{ACAD_REACTORS
330
417
102
}
330
417
100
AcDbVisualStyle
  2
ColorChange
 70
    16
 71
     2
 72
     2
 73
     3
 90
        0
 40
-0.6
 41
-30.0
 62
     5
 63
     8
 74
     1
 91
        4
 64
     7
 65
   257
 75
     1
175
     1
 42
1.0
 92
        8
 66
     8
 43
1.0
 76
     1
 77
     6
 78
     2
 67
     7
 79
     5
170
     0
171
     0
290
     0
174
     0
 93
        1
 44
0.0
173
     0
291
     1
 45
0.0
1001
ACAD
1000
AcDbSavedByObjectVersion
1070
     0
  0
VISUALSTYLE
  5
420
102
{ACAD_XDICTIONARY
360
570
102
}
102
{ACAD_REACTORS
330
417
102
}
330
417
100
AcDbVisualStyle
  2
Conceptual
 70
     9
 71
     3
 72
     2
 73
     0
 90
        0
 40
-0.6
 41
-30.0
 62
     5
 63
     7
 74
     2
 91
        2
 64
     7
 65
   257
 75
     1
175
     1
 42
179.0
 92
        8
 66
     7
 43
1.0
 76
     1
 77
     6
 78
     2
 67
     7
 79
     3
170
     0
171
     0
290
     0
174
     0
 93
        1
 44
0.0
173
     0
291
     0
 45
0.0
1001
ACAD
1000
AcDbSavedByObjectVersion
1070
     0
  0
VISUALSTYLE
  5
422
102
{ACAD_XDICTIONARY
360
574
102
}
102
{ACAD_REACTORS
330
417
102
}
330
417
100
AcDbVisualStyle
  2
Dim
 70
    11
 71
     2
 72
     2
 73
     0
 90
        0
 40
-0.6
 41
-30.0
 62
     5
 63
     7
 74
     1
 91
        4
 64
     7
 65
   257
 75
     1
175
     1
 42
1.0
 92
        8
 66
     7
 43
1.0
 76
     1
 77
     6
 78
     2
 67
     7
 79
     5
170
     0
171
     0
290
     0
174
     0
 93
        1
 44
-50.0
173
     0
291
     1
 45
0.0
1001
ACAD
1000
AcDbSavedByObjectVersion
1070
     0
  0
VISUALSTYLE
  5
42A
102
{ACAD_XDICTIONARY
360
584
102
}
102
{ACAD_REACTORS
330
417
102
}
330
417
100
AcDbVisualStyle
  2
EdgeColorOff
 70
    22
 71
     2
 72
     2
 73
     0
 90
        0
 40
-0.6
 41
-30.0
 62
     5
 63
     7
 74
     1
 91
        4
 64
     7
 65
   257
 75
     1
175
     1
 42
1.0
 92
        8
 66
     7
 43
1.0
 76
     1
 77
     6
 78
     2
 67
     7
 79
     5
170
     0
171
     0
290
     0
174
     0
 93
        1
 44
0.0
173
     0
291
     1
 45
0.0
1001
ACAD
1000
AcDbSavedByObjectVersion
1070
     0
  0
VISUALSTYLE
  5
426
102
{ACAD_XDICTIONARY
360
57C
102
}
102
{ACAD_REACTORS
330
417
102
}
330
417
100
AcDbVisualStyle
  2
Facepattern
 70
    15
 71
     2
 72
     2
 73
     0
 90
        0
 40
-0.6
 41
-30.0
 62
     5
 63
     7
 74
     1
 91
        4
 64
     7
 65
   257
 75
     1
175
     1
 42
1.0
 92
        8
 66
     7
 43
1.0
 76
     1
 77
     6
 78
     2
 67
     7
 79
     5
170
     0
171
     0
290
     0
174
     0
 93
        1
 44
0.0
173
     0
291
     1
 45
0.0
1001
ACAD
1000
AcDbSavedByObjectVersion
1070
     0
  0
VISUALSTYLE
  5
418
102
{ACAD_XDICTIONARY
360
560
102
}
102
{ACAD_REACTORS
330
417
102
}
330
417
100
AcDbVisualStyle
  2
Flat
 70
     0
 71
     2
 72
     1
 73
     1
 90
        2
 40
-0.6
 41
30.0
 62
     5
 63
     7
 74
     0
 91
        4
 64
     7
 65
   257
 75
     1
175
     1
 42
1.0
 92
        8
 66
     7
 43
1.0
 76
     1
 77
     6
 78
     2
 67
     7
 79
     5
170
     0
171
     0
290
     0
174
     0
 93
       13
 44
0.0
173
     0
291
     1
 45
0.0
1001
ACAD
1000
AcDbSavedByObjectVersion
1070
     0
  0
VISUALSTYLE
  5
419
102
{ACAD_XDICTIONARY
360
562
102
}
102
{ACAD_REACTORS
330
417
102
}
330
417
100
AcDbVisualStyle
  2
FlatWithEdges
 70
     1
 71
     2
 72
     1
 73
     1
 90
        2
 40
-0.6
 41
30.0
 62
     5
 63
     7
 74
     1
 91
        4
 64
     7
 65
   257
 75
     1
175
     1
 42
1.0
 92
        0
 66
   257
 43
1.0
 76
     1
 77
     6
 78
     2
 67
     7
 79
     5
170
     0
171
     0
290
     0
174
     0
 93
       13
 44
0.0
173
     0
291
     1
 45
0.0
1001
ACAD
1000
AcDbSavedByObjectVersion
1070
     0
  0
VISUALSTYLE
  5
41A
102
{ACAD_XDICTIONARY
360
564
102
}
102
{ACAD_REACTORS
330
417
102
}
330
417
100
AcDbVisualStyle
  2
Gouraud
 70
     2
 71
     2
 72
     2
 73
     1
 90
        2
 40
-0.6
 41
30.0
 62
     5
 63
     7
 74
     0
 91
        4
 64
     7
 65
   257
 75
     1
175
     1
 42
1.0
 92
        0
 66
     7
 43
1.0
 76
     1
 77
     6
 78
     2
 67
     7
 79
     5
170
     0
171
     0
290
     0
174
     0
 93
       13
 44
0.0
173
     0
291
     1
 45
0.0
1001
ACAD
1000
AcDbSavedByObjectVersion
1070
     0
  0
VISUALSTYLE
  5
41B
102
{ACAD_XDICTIONARY
360
566
102
}
102
{ACAD_REACTORS
330
417
102
}
330
417
100
AcDbVisualStyle
  2
GouraudWithEdges
 70
     3
 71
     2
 72
     2
 73
     1
 90
        2
 40
-0.6
 41
30.0
 62
     5
 63
     7
 74
     1
 91
        4
 64
     7
 65
   257
 75
     1
175
     1
 42
1.0
 92
        0
 66
   257
 43
1.0
 76
     1
 77
     6
 78
     2
 67
     7
 79
     5
170
     0
171
     0
290
     0
174
     0
 93
       13
 44
0.0
173
     0
291
     1
 45
0.0
1001
ACAD
1000
AcDbSavedByObjectVersion
1070
     0
  0
VISUALSTYLE
  5
428
102
{ACAD_XDICTIONARY
360
580
102
}
102
{ACAD_REACTORS
330
417
102
}
330
417
100
AcDbVisualStyle
  2
JitterOff
 70
    20
 71
     2
 72
     2
 73
     0
 90
        0
 40
-0.6
 41
-30.0
 62
     5
 63
     7
 74
     1
 91
        4
 64
     7
 65
   257
 75
     1
175
     1
 42
1.0
 92
       10
 66
     7
 43
1.0
 76
     1
 77
     6
 78
     2
 67
     7
 79
     5
170
     0
171
     0
290
     0
174
     0
 93
        1
 44
0.0
173
     0
291
     1
 45
0.0
1001
ACAD
1000
AcDbSavedByObjectVersion
1070
     0
  0
VISUALSTYLE
  5
425
102
{ACAD_XDICTIONARY
360
57A
102
}
102
{ACAD_REACTORS
330
417
102
}
330
417
100
AcDbVisualStyle
  2
Linepattern
 70
    14
 71
     2
 72
     2
 73
     0
 90
        0
 40
-0.6
 41
-30.0
 62
     5
 63
     7
 74
     1
 91
        4
 64
     7
 65
   257
 75
     7
175
     7
 42
1.0
 92
        8
 66
     7
 43
1.0
 76
     1
 77
     6
 78
     2
 67
     7
 79
     5
170
     0
171
     0
290
     0
174
     0
 93
        1
 44
0.0
173
     0
291
     1
 45
0.0
1001
ACAD
1000
AcDbSavedByObjectVersion
1070
     0
  0
VISUALSTYLE
  5
429
102
{ACAD_XDICTIONARY
360
582
102
}
102
{ACAD_REACTORS
330
417
102
}
330
417
100
AcDbVisualStyle
  2
OverhangOff
 70
    21
 71
     2
 72
     2
 73
     0
 90
        0
 40
-0.6
 41
-30.0
 62
     5
 63
     7
 74
     1
 91
        4
 64
     7
 65
   257
 75
     1
175
     1
 42
1.0
 92
        9
 66
     7
 43
1.0
 76
     1
 77
     6
 78
     2
 67
     7
 79
     5
170
     0
171
     0
290
     0
174
     0
 93
        1
 44
0.0
173
     0
291
     1
 45
0.0
1001
ACAD
1000
AcDbSavedByObjectVersion
1070
     0
  0
VISUALSTYLE
  5
421
102
{ACAD_XDICTIONARY
360
572
102
}
102
{ACAD_REACTORS
330
417
102
}
330
417
100
AcDbVisualStyle
  2
Realistic
 70
     8
 71
     2
 72
     2
 73
     0
 90
        0
 40
-0.6
 41
-30.0
 62
     5
 63
     7
 74
     1
 91
        0
 64
     7
 65
   257
 75
     1
175
     1
 42
1.0
 92
        8
 66
     8
 43
1.0
 76
     1
 77
     6
 78
     2
 67
     7
 79
     5
170
     0
171
     0
290
     0
174
     0
 93
       13
 44
0.0
173
     0
291
     0
 45
0.0
1001
ACAD
1000
AcDbSavedByObjectVersion
1070
     0
  0
VISUALSTYLE
  5
424
102
{ACAD_XDICTIONARY
360
578
102
}
102
{ACAD_REACTORS
330
417
102
}
330
417
100
AcDbVisualStyle
  2
Thicken
 70
    13
 71
     2
 72
     2
 73
     0
 90
        0
 40
-0.6
 41
-30.0
 62
     5
 63
     7
 74
     1
 91
        4
 64
     7
 65
   257
 75
     1
175
     1
 42
1.0
 92
       12
 66
     7
 43
1.0
 76
     1
 77
     6
 78
     2
 67
     7
 79
     5
170
     0
171
     0
290
     0
174
     0
 93
        1
 44
0.0
173
     0
291
     1
 45
0.0
1001
ACAD
1000
AcDbSavedByObjectVersion
1070
     0
  0
DICTIONARYVAR
  5
546
102
{ACAD_REACTORS
330
543
102
}
330
543
100
DictionaryVariables
280
     0
  1
1:1
  0
DICTIONARYVAR
  5
545
102
{ACAD_REACTORS
330
543
102
}
330
543
100
DictionaryVariables
280
     0
  1
STANDARD
  0
DICTIONARYVAR
  5
544
102
{ACAD_REACTORS
330
543
102
}
330
543
100
DictionaryVariables
280
     0
  1
STANDARD
  0
DICTIONARYVAR
  5
549
102
{ACAD_REACTORS
330
543
102
}
330
543
100
DictionaryVariables
280
     0
  1
1
  0
DICTIONARYVAR
  5
548
102
{ACAD_REACTORS
330
543
102
}
330
543
100
DictionaryVariables
280
     0
  1
0
  0
DICTIONARYVAR
  5
547
102
{ACAD_REACTORS
330
543
102
}
330
543
100
DictionaryVariables
280
     0
  1
127
  0
DICTIONARYVAR
  5
54A
102
{ACAD_REACTORS
330
543
102
}
330
543
100
DictionaryVariables
280
     0
  1
2
  0
DICTIONARY
  5
4A7
102
{ACAD_REACTORS
330
49D
102
}
330
49D
100
AcDbDictionary
281
     1
  0
DICTIONARY
  5
551
330
21
100
AcDbDictionary
280
     1
281
     1
  3
ACAD_XREC_ROUNDTRIP
360
552
  0
DICTIONARY
  5
54F
330
20
100
AcDbDictionary
280
     1
281
     1
  3
ACAD_XREC_ROUNDTRIP
360
550
  0
DICTIONARY
  5
408
330
407
100
AcDbDictionary
280
     1
281
     1
  3
ACAD_XREC_ROUNDTRIP
360
55E
  3
BUMPTILE
360
40A
  3
DIFFUSETILE
360
409
  3
OPACITYTILE
360
40D
  3
REFLECTIONTILE
360
40C
  3
REFRACTIONTILE
360
40E
  3
SPECULARTILE
360
40B
  0
DICTIONARY
  5
400
330
3FF
100
AcDbDictionary
280
     1
281
     1
  3
ACAD_XREC_ROUNDTRIP
360
55D
  3
BUMPTILE
360
402
  3
DIFFUSETILE
360
401
  3
OPACITYTILE
360
405
  3
REFLECTIONTILE
360
404
  3
REFRACTIONTILE
360
406
  3
SPECULARTILE
360
403
  0
DICTIONARY
  5
410
330
40F
100
AcDbDictionary
280
     1
281
     1
  3
ACAD_XREC_ROUNDTRIP
360
55F
  3
BUMPTILE
360
412
  3
DIFFUSETILE
360
411
  3
OPACITYTILE
360
415
  3
REFLECTIONTILE
360
414
  3
REFRACTIONTILE
360
416
  3
SPECULARTILE
360
413
  0
DICTIONARY
  5
54B
330
42D
100
AcDbDictionary
280
     1
281
     1
  3
ACAD_ROUNDTRIP_2008_TABLESTYLE_CELLSTYLEMAP
360
54C
  3
ACAD_XREC_ROUNDTRIP
360
586
  0
DICTIONARY
  5
56A
330
41D
100
AcDbDictionary
280
     1
281
     1
  3
ACAD_XREC_ROUNDTRIP
360
56B
  0
DICTIONARY
  5
56E
330
41F
100
AcDbDictionary
280
     1
281
     1
  3
ACAD_XREC_ROUNDTRIP
360
56F
  0
DICTIONARY
  5
56C
330
41E
100
AcDbDictionary
280
     1
281
     1
  3
ACAD_XREC_ROUNDTRIP
360
56D
  0
DICTIONARY
  5
568
330
41C
100
AcDbDictionary
280
     1
281
     1
  3
ACAD_XREC_ROUNDTRIP
360
569
  0
DICTIONARY
  5
576
330
423
100
AcDbDictionary
280
     1
281
     1
  3
ACAD_XREC_ROUNDTRIP
360
577
  0
DICTIONARY
  5
57E
330
427
100
AcDbDictionary
280
     1
281
     1
  3
ACAD_XREC_ROUNDTRIP
360
57F
  0
DICTIONARY
  5
570
330
420
100
AcDbDictionary
280
     1
281
     1
  3
ACAD_XREC_ROUNDTRIP
360
571
  0
DICTIONARY
  5
574
330
422
100
AcDbDictionary
280
     1
281
     1
  3
ACAD_XREC_ROUNDTRIP
360
575
  0
DICTIONARY
  5
584
330
42A
100
AcDbDictionary
280
     1
281
     1
  3
ACAD_XREC_ROUNDTRIP
360
585
  0
DICTIONARY
  5
57C
330
426
100
AcDbDictionary
280
     1
281
     1
  3
ACAD_XREC_ROUNDTRIP
360
57D
  0
DICTIONARY
  5
560
330
418
100
AcDbDictionary
280
     1
281
     1
  3
ACAD_XREC_ROUNDTRIP
360
561
  0
DICTIONARY
  5
562
330
419
100
AcDbDictionary
280
     1
281
     1
  3
ACAD_XREC_ROUNDTRIP
360
563
  0
DICTIONARY
  5
564
330
41A
100
AcDbDictionary
280
     1
281
     1
  3
ACAD_XREC_ROUNDTRIP
360
565
  0
DICTIONARY
  5
566
330
41B
100
AcDbDictionary
280
     1
281
     1
  3
ACAD_XREC_ROUNDTRIP
360
567
  0
DICTIONARY
  5
580
330
428
100
AcDbDictionary
280
     1
281
     1
  3
ACAD_XREC_ROUNDTRIP
360
581
  0
DICTIONARY
  5
57A
330
425
100
AcDbDictionary
280
     1
281
     1
  3
ACAD_XREC_ROUNDTRIP
360
57B
  0
DICTIONARY
  5
582
330
429
100
AcDbDictionary
280
     1
281
     1
  3
ACAD_XREC_ROUNDTRIP
360
583
  0
DICTIONARY
  5
572
330
421
100
AcDbDictionary
280
     1
281
     1
  3
ACAD_XREC_ROUNDTRIP
360
573
  0
DICTIONARY
  5
578
330
424
100
AcDbDictionary
280
     1
281
     1
  3
ACAD_XREC_ROUNDTRIP
360
579
  0
XRECORD
  5
552
102
{ACAD_REACTORS
330
551
102
}
330
551
100
AcDbXrecord
280
     1
102
SHADEPLOT
 70
     0
102
SHADEPLOTRESLEVEL
 70
     2
102
SHADEPLOTCUSTOMDPI
 70
   300
  0
XRECORD
  5
550
102
{ACAD_REACTORS
330
54F
102
}
330
54F
100
AcDbXrecord
280
     1
102
SHADEPLOT
 70
     0
102
SHADEPLOTRESLEVEL
 70
     2
102
SHADEPLOTCUSTOMDPI
 70
   300
  0
XRECORD
  5
55E
102
{ACAD_REACTORS
330
408
102
}
330
408
100
AcDbXrecord
280
     1
102
MATERIAL
148
0.0
149
0.0
149
0.0
 93
        0
 94
      127
282
     0
 72
     0
 77
     0
171
     0
175
     0
179
     0
273
     0
  0
XRECORD
  5
40A
102
{ACAD_REACTORS
330
408
102
}
330
408
100
AcDbXrecord
280
     1
270
     1
271
     1
  0
XRECORD
  5
409
102
{ACAD_REACTORS
330
408
102
}
330
408
100
AcDbXrecord
280
     1
270
     1
271
     1
  0
XRECORD
  5
40D
102
{ACAD_REACTORS
330
408
102
}
330
408
100
AcDbXrecord
280
     1
270
     1
271
     1
  0
XRECORD
  5
40C
102
{ACAD_REACTORS
330
408
102
}
330
408
100
AcDbXrecord
280
     1
270
     1
271
     1
  0
XRECORD
  5
40E
102
{ACAD_REACTORS
330
408
102
}
330
408
100
AcDbXrecord
280
     1
270
     1
271
     1
  0
XRECORD
  5
40B
102
{ACAD_REACTORS
330
408
102
}
330
408
100
AcDbXrecord
280
     1
270
     1
271
     1
  0
XRECORD
  5
55D
102
{ACAD_REACTORS
330
400
102
}
330
400
100
AcDbXrecord
280
     1
102
MATERIAL
148
0.0
149
0.0
149
0.0
 93
        0
 94
      127
282
     0
 72
     0
 77
     0
171
     0
175
     0
179
     0
273
     0
  0
XRECORD
  5
402
102
{ACAD_REACTORS
330
400
102
}
330
400
100
AcDbXrecord
280
     1
270
     1
271
     1
  0
XRECORD
  5
401
102
{ACAD_REACTORS
330
400
102
}
330
400
100
AcDbXrecord
280
     1
270
     1
271
     1
  0
XRECORD
  5
405
102
{ACAD_REACTORS
330
400
102
}
330
400
100
AcDbXrecord
280
     1
270
     1
271
     1
  0
XRECORD
  5
404
102
{ACAD_REACTORS
330
400
102
}
330
400
100
AcDbXrecord
280
     1
270
     1
271
     1
  0
XRECORD
  5
406
102
{ACAD_REACTORS
330
400
102
}
330
400
100
AcDbXrecord
280
     1
270
     1
271
     1
  0
XRECORD
  5
403
102
{ACAD_REACTORS
330
400
102
}
330
400
100
AcDbXrecord
280
     1
270
     1
271
     1
  0
XRECORD
  5
55F
102
{ACAD_REACTORS
330
410
102
}
330
410
100
AcDbXrecord
280
     1
102
MATERIAL
148
0.0
149
0.0
149
0.0
 93
        0
 94
      127
282
     0
 72
     0
 77
     0
171
     0
175
     0
179
     0
273
     0
  0
XRECORD
  5
412
102
{ACAD_REACTORS
330
410
102
}
330
410
100
AcDbXrecord
280
     1
270
     1
271
     1
  0
XRECORD
  5
411
102
{ACAD_REACTORS
330
410
102
}
330
410
100
AcDbXrecord
280
     1
270
     1
271
     1
  0
XRECORD
  5
415
102
{ACAD_REACTORS
330
410
102
}
330
410
100
AcDbXrecord
280
     1
270
     1
271
     1
  0
XRECORD
  5
414
102
{ACAD_REACTORS
330
410
102
}
330
410
100
AcDbXrecord
280
     1
270
     1
271
     1
  0
XRECORD
  5
416
102
{ACAD_REACTORS
330
410
102
}
330
410
100
AcDbXrecord
280
     1
270
     1
271
     1
  0
XRECORD
  5
413
102
{ACAD_REACTORS
330
410
102
}
330
410
100
AcDbXrecord
280
     1
270
     1
271
     1
  0
CELLSTYLEMAP
  5
54C
102
{ACAD_REACTORS
330
54B
102
}
330
54B
100
AcDbCellStyleMap
 90
        3
300
CELLSTYLE
  1
TABLEFORMAT_BEGIN
 90
        5
170
     1
 91
        0
 92
    32768
 62
   257
 93
        1
300
CONTENTFORMAT
  1
CONTENTFORMAT_BEGIN
 90
        0
 91
        0
 92
      512
 93
        0
300

 40
0.0
140
1.0
 94
        5
 62
     0
340
17
144
6.0
309
CONTENTFORMAT_END
171
     1
301
MARGIN
  1
CELLMARGIN_BEGIN
 40
1.5
 40
1.5
 40
1.5
 40
1.5
 40
4.5
 40
4.5
309
CELLMARGIN_END
 94
        6
 95
        1
302
GRIDFORMAT
  1
GRIDFORMAT_BEGIN
 90
        0
 91
        1
 62
     0
 92
       -2
340
0
 93
        0
 40
1.125
309
GRIDFORMAT_END
 95
        2
302
GRIDFORMAT
  1
GRIDFORMAT_BEGIN
 90
        0
 91
        1
 62
     0
 92
       -2
340
0
 93
        0
 40
1.125
309
GRIDFORMAT_END
 95
        4
302
GRIDFORMAT
  1
GRIDFORMAT_BEGIN
 90
        0
 91
        1
 62
     0
 92
       -2
340
0
 93
        0
 40
1.125
309
GRIDFORMAT_END
 95
        8
302
GRIDFORMAT
  1
GRIDFORMAT_BEGIN
 90
        0
 91
        1
 62
     0
 92
       -2
340
0
 93
        0
 40
1.125
309
GRIDFORMAT_END
 95
       16
302
GRIDFORMAT
  1
GRIDFORMAT_BEGIN
 90
        0
 91
        1
 62
     0
 92
       -2
340
0
 93
        0
 40
1.125
309
GRIDFORMAT_END
 95
       32
302
GRIDFORMAT
  1
GRIDFORMAT_BEGIN
 90
        0
 91
        1
 62
     0
 92
       -2
340
0
 93
        0
 40
1.125
309
GRIDFORMAT_END
309
TABLEFORMAT_END
  1
CELLSTYLE_BEGIN
 90
        1
 91
        1
300
_TITLE
309
CELLSTYLE_END
300
CELLSTYLE
  1
TABLEFORMAT_BEGIN
 90
        5
170
     1
 91
        0
 92
        0
 62
   257
 93
        1
300
CONTENTFORMAT
  1
CONTENTFORMAT_BEGIN
 90
        0
 91
        0
 92
      512
 93
        0
300

 40
0.0
140
1.0
 94
        5
 62
     0
340
17
144
4.5
309
CONTENTFORMAT_END
171
     1
301
MARGIN
  1
CELLMARGIN_BEGIN
 40
1.5
 40
1.5
 40
1.5
 40
1.5
 40
4.5
 40
4.5
309
CELLMARGIN_END
 94
        6
 95
        1
302
GRIDFORMAT
  1
GRIDFORMAT_BEGIN
 90
        0
 91
        1
 62
     0
 92
       -2
340
0
 93
        0
 40
1.125
309
GRIDFORMAT_END
 95
        2
302
GRIDFORMAT
  1
GRIDFORMAT_BEGIN
 90
        0
 91
        1
 62
     0
 92
       -2
340
0
 93
        0
 40
1.125
309
GRIDFORMAT_END
 95
        4
302
GRIDFORMAT
  1
GRIDFORMAT_BEGIN
 90
        0
 91
        1
 62
     0
 92
       -2
340
0
 93
        0
 40
1.125
309
GRIDFORMAT_END
 95
        8
302
GRIDFORMAT
  1
GRIDFORMAT_BEGIN
 90
        0
 91
        1
 62
     0
 92
       -2
340
0
 93
        0
 40
1.125
309
GRIDFORMAT_END
 95
       16
302
GRIDFORMAT
  1
GRIDFORMAT_BEGIN
 90
        0
 91
        1
 62
     0
 92
       -2
340
0
 93
        0
 40
1.125
309
GRIDFORMAT_END
 95
       32
302
GRIDFORMAT
  1
GRIDFORMAT_BEGIN
 90
        0
 91
        1
 62
     0
 92
       -2
340
0
 93
        0
 40
1.125
309
GRIDFORMAT_END
309
TABLEFORMAT_END
  1
CELLSTYLE_BEGIN
 90
        2
 91
        1
300
_HEADER
309
CELLSTYLE_END
300
CELLSTYLE
  1
TABLEFORMAT_BEGIN
 90
        5
170
     1
 91
        0
 92
        0
 62
   257
 93
        1
300
CONTENTFORMAT
  1
CONTENTFORMAT_BEGIN
 90
        0
 91
        0
 92
      512
 93
        0
300

 40
0.0
140
1.0
 94
        2
 62
     0
340
17
144
4.5
309
CONTENTFORMAT_END
171
     1
301
MARGIN
  1
CELLMARGIN_BEGIN
 40
1.5
 40
1.5
 40
1.5
 40
1.5
 40
4.5
 40
4.5
309
CELLMARGIN_END
 94
        6
 95
        1
302
GRIDFORMAT
  1
GRIDFORMAT_BEGIN
 90
        0
 91
        1
 62
     0
 92
       -2
340
0
 93
        0
 40
1.125
309
GRIDFORMAT_END
 95
        2
302
GRIDFORMAT
  1
GRIDFORMAT_BEGIN
 90
        0
 91
        1
 62
     0
 92
       -2
340
0
 93
        0
 40
1.125
309
GRIDFORMAT_END
 95
        4
302
GRIDFORMAT
  1
GRIDFORMAT_BEGIN
 90
        0
 91
        1
 62
     0
 92
       -2
340
0
 93
        0
 40
1.125
309
GRIDFORMAT_END
 95
        8
302
GRIDFORMAT
  1
GRIDFORMAT_BEGIN
 90
        0
 91
        1
 62
     0
 92
       -2
340
0
 93
        0
 40
1.125
309
GRIDFORMAT_END
 95
       16
302
GRIDFORMAT
  1
GRIDFORMAT_BEGIN
 90
        0
 91
        1
 62
     0
 92
       -2
340
0
 93
        0
 40
1.125
309
GRIDFORMAT_END
 95
       32
302
GRIDFORMAT
  1
GRIDFORMAT_BEGIN
 90
        0
 91
        1
 62
     0
 92
       -2
340
0
 93
        0
 40
1.125
309
GRIDFORMAT_END
309
TABLEFORMAT_END
  1
CELLSTYLE_BEGIN
 90
        3
 91
        2
300
_DATA
309
CELLSTYLE_END
  0
XRECORD
  5
586
102
{ACAD_REACTORS
330
54B
102
}
330
54B
100
AcDbXrecord
280
     1
102
ACAD_ROUNDTRIP_PRE2007_TABLESTYLE
 90
      512
 91
        0
  1

 92
      512
 93
        0
  2

 94
      512
 95
        0
  3

  0
XRECORD
  5
56B
102
{ACAD_REACTORS
330
56A
102
}
330
56A
100
AcDbXrecord
280
     1
102
RTVSPropertyOp0
 70
     1
102
RTVSPropertyOp1
 70
     1
102
RTVSPropertyOp2
 70
     1
102
RTVSPropertyOp3
 70
     1
102
RTVSPropertyOp4
 70
     1
102
RTVSPropertyOp5
 70
     1
102
RTVSPropertyOp6
 70
     1
102
RTVSPropertyOp7
 70
     1
102
RTVSPropertyOp8
 70
     1
102
RTVSPropertyOp9
 70
     1
102
RTVSPropertyOp10
 70
     1
102
RTVSPropertyOp11
 70
     1
102
RTVSPropertyOp12
 70
     1
102
RTVSPropertyOp13
 70
     1
102
RTVSPropertyOp14
 70
     1
102
RTVSPropertyOp15
 70
     1
102
RTVSPropertyOp16
 70
     1
102
RTVSPropertyOp17
 70
     1
102
RTVSPropertyOp18
 70
     1
102
RTVSPropertyOp19
 70
     1
102
RTVSPropertyOp20
 70
     1
102
RTVSPropertyOp21
 70
     1
102
RTVSPropertyOp22
 70
     1
102
RTVSPropertyOp23
 70
     1
102
RTVSPropertyOp24
 70
     1
102
RTVSPropertyOp25
 70
     1
102
RTVSPropertyOp26
 70
     1
102
RTVSPropertyOp27
 70
     1
  0
XRECORD
  5
56F
102
{ACAD_REACTORS
330
56E
102
}
330
56E
100
AcDbXrecord
280
     1
102
RTVSPropertyOp0
 70
     1
102
RTVSPropertyOp1
 70
     1
102
RTVSPropertyOp2
 70
     1
102
RTVSPropertyOp3
 70
     1
102
RTVSPropertyOp4
 70
     1
102
RTVSPropertyOp5
 70
     1
102
RTVSPropertyOp6
 70
     1
102
RTVSPropertyOp7
 70
     1
102
RTVSPropertyOp8
 70
     1
102
RTVSPropertyOp9
 70
     1
102
RTVSPropertyOp10
 70
     1
102
RTVSPropertyOp11
 70
     1
102
RTVSPropertyOp12
 70
     1
102
RTVSPropertyOp13
 70
     1
102
RTVSPropertyOp14
 70
     1
102
RTVSPropertyOp15
 70
     1
102
RTVSPropertyOp16
 70
     1
102
RTVSPropertyOp17
 70
     1
102
RTVSPropertyOp18
 70
     1
102
RTVSPropertyOp19
 70
     1
102
RTVSPropertyOp20
 70
     1
102
RTVSPropertyOp21
 70
     1
102
RTVSPropertyOp22
 70
     1
102
RTVSPropertyOp23
 70
     1
102
RTVSPropertyOp24
 70
     1
102
RTVSPropertyOp25
 70
     1
102
RTVSPropertyOp26
 70
     1
102
RTVSPropertyOp27
 70
     1
  0
XRECORD
  5
56D
102
{ACAD_REACTORS
330
56C
102
}
330
56C
100
AcDbXrecord
280
     1
102
RTVSPropertyOp0
 70
     1
102
RTVSPropertyOp1
 70
     1
102
RTVSPropertyOp2
 70
     1
102
RTVSPropertyOp3
 70
     1
102
RTVSPropertyOp4
 70
     1
102
RTVSPropertyOp5
 70
     1
102
RTVSPropertyOp6
 70
     1
102
RTVSPropertyOp7
 70
     1
102
RTVSPropertyOp8
 70
     1
102
RTVSPropertyOp9
 70
     1
102
RTVSPropertyOp10
 70
     1
102
RTVSPropertyOp11
 70
     1
102
RTVSPropertyOp12
 70
     1
102
RTVSPropertyOp13
 70
     1
102
RTVSPropertyOp14
 70
     1
102
RTVSPropertyOp15
 70
     1
102
RTVSPropertyOp16
 70
     1
102
RTVSPropertyOp17
 70
     1
102
RTVSPropertyOp18
 70
     1
102
RTVSPropertyOp19
 70
     1
102
RTVSPropertyOp20
 70
     1
102
RTVSPropertyOp21
 70
     1
102
RTVSPropertyOp22
 70
     1
102
RTVSPropertyOp23
 70
     1
102
RTVSPropertyOp24
 70
     1
102
RTVSPropertyOp25
 70
     1
102
RTVSPropertyOp26
 70
     1
102
RTVSPropertyOp27
 70
     1
  0
XRECORD
  5
569
102
{ACAD_REACTORS
330
568
102
}
330
568
100
AcDbXrecord
280
     1
102
RTVSPropertyOp0
 70
     1
102
RTVSPropertyOp1
 70
     1
102
RTVSPropertyOp2
 70
     1
102
RTVSPropertyOp3
 70
     1
102
RTVSPropertyOp4
 70
     1
102
RTVSPropertyOp5
 70
     1
102
RTVSPropertyOp6
 70
     1
102
RTVSPropertyOp7
 70
     1
102
RTVSPropertyOp8
 70
     1
102
RTVSPropertyOp9
 70
     1
102
RTVSPropertyOp10
 70
     1
102
RTVSPropertyOp11
 70
     1
102
RTVSPropertyOp12
 70
     1
102
RTVSPropertyOp13
 70
     1
102
RTVSPropertyOp14
 70
     1
102
RTVSPropertyOp15
 70
     1
102
RTVSPropertyOp16
 70
     1
102
RTVSPropertyOp17
 70
     1
102
RTVSPropertyOp18
 70
     1
102
RTVSPropertyOp19
 70
     1
102
RTVSPropertyOp20
 70
     1
102
RTVSPropertyOp21
 70
     1
102
RTVSPropertyOp22
 70
     1
102
RTVSPropertyOp23
 70
     1
102
RTVSPropertyOp24
 70
     1
102
RTVSPropertyOp25
 70
     1
102
RTVSPropertyOp26
 70
     1
102
RTVSPropertyOp27
 70
     1
  0
XRECORD
  5
577
102
{ACAD_REACTORS
330
576
102
}
330
576
100
AcDbXrecord
280
     1
102
RTVSPropertyOp0
 70
     1
102
RTVSPropertyOp1
 70
     1
102
RTVSPropertyOp2
 70
     1
102
RTVSPropertyOp3
 70
     1
102
RTVSPropertyOp4
 70
     1
102
RTVSPropertyOp5
 70
     1
102
RTVSPropertyOp6
 70
     1
102
RTVSPropertyOp7
 70
     1
102
RTVSPropertyOp8
 70
     1
102
RTVSPropertyOp9
 70
     1
102
RTVSPropertyOp10
 70
     1
102
RTVSPropertyOp11
 70
     1
102
RTVSPropertyOp12
 70
     1
102
RTVSPropertyOp13
 70
     1
102
RTVSPropertyOp14
 70
     1
102
RTVSPropertyOp15
 70
     1
102
RTVSPropertyOp16
 70
     1
102
RTVSPropertyOp17
 70
     1
102
RTVSPropertyOp18
 70
     1
102
RTVSPropertyOp19
 70
     1
102
RTVSPropertyOp20
 70
     1
102
RTVSPropertyOp21
 70
     1
102
RTVSPropertyOp22
 70
     1
102
RTVSPropertyOp23
 70
     1
102
RTVSPropertyOp24
 70
     1
102
RTVSPropertyOp25
 70
     1
102
RTVSPropertyOp26
 70
     1
102
RTVSPropertyOp27
 70
     1
  0
XRECORD
  5
57F
102
{ACAD_REACTORS
330
57E
102
}
330
57E
100
AcDbXrecord
280
     1
102
RTVSPropertyOp0
 70
     1
102
RTVSPropertyOp1
 70
     1
102
RTVSPropertyOp2
 70
     1
102
RTVSPropertyOp3
 70
     1
102
RTVSPropertyOp4
 70
     1
102
RTVSPropertyOp5
 70
     1
102
RTVSPropertyOp6
 70
     1
102
RTVSPropertyOp7
 70
     1
102
RTVSPropertyOp8
 70
     1
102
RTVSPropertyOp9
 70
     1
102
RTVSPropertyOp10
 70
     1
102
RTVSPropertyOp11
 70
     1
102
RTVSPropertyOp12
 70
     1
102
RTVSPropertyOp13
 70
     1
102
RTVSPropertyOp14
 70
     1
102
RTVSPropertyOp15
 70
     1
102
RTVSPropertyOp16
 70
     1
102
RTVSPropertyOp17
 70
     1
102
RTVSPropertyOp18
 70
     1
102
RTVSPropertyOp19
 70
     1
102
RTVSPropertyOp20
 70
     1
102
RTVSPropertyOp21
 70
     1
102
RTVSPropertyOp22
 70
     1
102
RTVSPropertyOp23
 70
     1
102
RTVSPropertyOp24
 70
     1
102
RTVSPropertyOp25
 70
     1
102
RTVSPropertyOp26
 70
     1
102
RTVSPropertyOp27
 70
     1
  0
XRECORD
  5
571
102
{ACAD_REACTORS
330
570
102
}
330
570
100
AcDbXrecord
280
     1
102
RTVSPropertyOp0
 70
     1
102
RTVSPropertyOp1
 70
     1
102
RTVSPropertyOp2
 70
     1
102
RTVSPropertyOp3
 70
     1
102
RTVSPropertyOp4
 70
     1
102
RTVSPropertyOp5
 70
     1
102
RTVSPropertyOp6
 70
     1
102
RTVSPropertyOp7
 70
     1
102
RTVSPropertyOp8
 70
     1
102
RTVSPropertyOp9
 70
     1
102
RTVSPropertyOp10
 70
     1
102
RTVSPropertyOp11
 70
     1
102
RTVSPropertyOp12
 70
     1
102
RTVSPropertyOp13
 70
     1
102
RTVSPropertyOp14
 70
     1
102
RTVSPropertyOp15
 70
     1
102
RTVSPropertyOp16
 70
     1
102
RTVSPropertyOp17
 70
     1
102
RTVSPropertyOp18
 70
     1
102
RTVSPropertyOp19
 70
     1
102
RTVSPropertyOp20
 70
     1
102
RTVSPropertyOp21
 70
     1
102
RTVSPropertyOp22
 70
     1
102
RTVSPropertyOp23
 70
     1
102
RTVSPropertyOp24
 70
     1
102
RTVSPropertyOp25
 70
     1
102
RTVSPropertyOp26
 70
     1
102
RTVSPropertyOp27
 70
     1
  0
XRECORD
  5
575
102
{ACAD_REACTORS
330
574
102
}
330
574
100
AcDbXrecord
280
     1
102
RTVSPropertyOp0
 70
     1
102
RTVSPropertyOp1
 70
     1
102
RTVSPropertyOp2
 70
     1
102
RTVSPropertyOp3
 70
     1
102
RTVSPropertyOp4
 70
     1
102
RTVSPropertyOp5
 70
     1
102
RTVSPropertyOp6
 70
     1
102
RTVSPropertyOp7
 70
     1
102
RTVSPropertyOp8
 70
     1
102
RTVSPropertyOp9
 70
     1
102
RTVSPropertyOp10
 70
     1
102
RTVSPropertyOp11
 70
     1
102
RTVSPropertyOp12
 70
     1
102
RTVSPropertyOp13
 70
     1
102
RTVSPropertyOp14
 70
     1
102
RTVSPropertyOp15
 70
     1
102
RTVSPropertyOp16
 70
     1
102
RTVSPropertyOp17
 70
     1
102
RTVSPropertyOp18
 70
     1
102
RTVSPropertyOp19
 70
     1
102
RTVSPropertyOp20
 70
     1
102
RTVSPropertyOp21
 70
     1
102
RTVSPropertyOp22
 70
     1
102
RTVSPropertyOp23
 70
     1
102
RTVSPropertyOp24
 70
     1
102
RTVSPropertyOp25
 70
     1
102
RTVSPropertyOp26
 70
     1
102
RTVSPropertyOp27
 70
     1
  0
XRECORD
  5
585
102
{ACAD_REACTORS
330
584
102
}
330
584
100
AcDbXrecord
280
     1
102
RTVSPropertyOp0
 70
     0
102
RTVSPropertyOp1
 70
     0
102
RTVSPropertyOp2
 70
     0
102
RTVSPropertyOp3
 70
     0
102
RTVSPropertyOp4
 70
     0
102
RTVSPropertyOp5
 70
     0
102
RTVSPropertyOp6
 70
     0
102
RTVSPropertyOp7
 70
     0
102
RTVSPropertyOp8
 70
     0
102
RTVSPropertyOp9
 70
     0
102
RTVSPropertyOp10
 70
     0
102
RTVSPropertyOp11
 70
     0
102
RTVSPropertyOp12
 70
     0
102
RTVSPropertyOp13
 70
     0
102
RTVSPropertyOp14
 70
     2
102
RTVSPropertyOp15
 70
     0
102
RTVSPropertyOp16
 70
     0
102
RTVSPropertyOp17
 70
     0
102
RTVSPropertyOp18
 70
     0
102
RTVSPropertyOp19
 70
     0
102
RTVSPropertyOp20
 70
     0
102
RTVSPropertyOp21
 70
     0
102
RTVSPropertyOp22
 70
     0
102
RTVSPropertyOp23
 70
     0
102
RTVSPropertyOp24
 70
     0
102
RTVSPropertyOp25
 70
     0
102
RTVSPropertyOp26
 70
     0
102
RTVSPropertyOp27
 70
     0
  0
XRECORD
  5
57D
102
{ACAD_REACTORS
330
57C
102
}
330
57C
100
AcDbXrecord
280
     1
102
RTVSPropertyOp0
 70
     1
102
RTVSPropertyOp1
 70
     1
102
RTVSPropertyOp2
 70
     1
102
RTVSPropertyOp3
 70
     1
102
RTVSPropertyOp4
 70
     1
102
RTVSPropertyOp5
 70
     1
102
RTVSPropertyOp6
 70
     1
102
RTVSPropertyOp7
 70
     1
102
RTVSPropertyOp8
 70
     1
102
RTVSPropertyOp9
 70
     1
102
RTVSPropertyOp10
 70
     1
102
RTVSPropertyOp11
 70
     1
102
RTVSPropertyOp12
 70
     1
102
RTVSPropertyOp13
 70
     1
102
RTVSPropertyOp14
 70
     1
102
RTVSPropertyOp15
 70
     1
102
RTVSPropertyOp16
 70
     1
102
RTVSPropertyOp17
 70
     1
102
RTVSPropertyOp18
 70
     1
102
RTVSPropertyOp19
 70
     1
102
RTVSPropertyOp20
 70
     1
102
RTVSPropertyOp21
 70
     1
102
RTVSPropertyOp22
 70
     1
102
RTVSPropertyOp23
 70
     1
102
RTVSPropertyOp24
 70
     1
102
RTVSPropertyOp25
 70
     1
102
RTVSPropertyOp26
 70
     1
102
RTVSPropertyOp27
 70
     1
  0
XRECORD
  5
561
102
{ACAD_REACTORS
330
560
102
}
330
560
100
AcDbXrecord
280
     1
102
RTVSPropertyOp0
 70
     1
102
RTVSPropertyOp1
 70
     1
102
RTVSPropertyOp2
 70
     1
102
RTVSPropertyOp3
 70
     1
102
RTVSPropertyOp4
 70
     1
102
RTVSPropertyOp5
 70
     1
102
RTVSPropertyOp6
 70
     1
102
RTVSPropertyOp7
 70
     1
102
RTVSPropertyOp8
 70
     1
102
RTVSPropertyOp9
 70
     1
102
RTVSPropertyOp10
 70
     1
102
RTVSPropertyOp11
 70
     1
102
RTVSPropertyOp12
 70
     1
102
RTVSPropertyOp13
 70
     1
102
RTVSPropertyOp14
 70
     1
102
RTVSPropertyOp15
 70
     1
102
RTVSPropertyOp16
 70
     1
102
RTVSPropertyOp17
 70
     1
102
RTVSPropertyOp18
 70
     1
102
RTVSPropertyOp19
 70
     1
102
RTVSPropertyOp20
 70
     1
102
RTVSPropertyOp21
 70
     1
102
RTVSPropertyOp22
 70
     1
102
RTVSPropertyOp23
 70
     1
102
RTVSPropertyOp24
 70
     1
102
RTVSPropertyOp25
 70
     1
102
RTVSPropertyOp26
 70
     1
102
RTVSPropertyOp27
 70
     1
  0
XRECORD
  5
563
102
{ACAD_REACTORS
330
562
102
}
330
562
100
AcDbXrecord
280
     1
102
RTVSPropertyOp0
 70
     1
102
RTVSPropertyOp1
 70
     1
102
RTVSPropertyOp2
 70
     1
102
RTVSPropertyOp3
 70
     1
102
RTVSPropertyOp4
 70
     1
102
RTVSPropertyOp5
 70
     1
102
RTVSPropertyOp6
 70
     1
102
RTVSPropertyOp7
 70
     1
102
RTVSPropertyOp8
 70
     1
102
RTVSPropertyOp9
 70
     1
102
RTVSPropertyOp10
 70
     1
102
RTVSPropertyOp11
 70
     1
102
RTVSPropertyOp12
 70
     1
102
RTVSPropertyOp13
 70
     1
102
RTVSPropertyOp14
 70
     1
102
RTVSPropertyOp15
 70
     1
102
RTVSPropertyOp16
 70
     1
102
RTVSPropertyOp17
 70
     1
102
RTVSPropertyOp18
 70
     1
102
RTVSPropertyOp19
 70
     1
102
RTVSPropertyOp20
 70
     1
102
RTVSPropertyOp21
 70
     1
102
RTVSPropertyOp22
 70
     1
102
RTVSPropertyOp23
 70
     1
102
RTVSPropertyOp24
 70
     1
102
RTVSPropertyOp25
 70
     1
102
RTVSPropertyOp26
 70
     1
102
RTVSPropertyOp27
 70
     1
  0
XRECORD
  5
565
102
{ACAD_REACTORS
330
564
102
}
330
564
100
AcDbXrecord
280
     1
102
RTVSPropertyOp0
 70
     1
102
RTVSPropertyOp1
 70
     1
102
RTVSPropertyOp2
 70
     1
102
RTVSPropertyOp3
 70
     1
102
RTVSPropertyOp4
 70
     1
102
RTVSPropertyOp5
 70
     1
102
RTVSPropertyOp6
 70
     1
102
RTVSPropertyOp7
 70
     1
102
RTVSPropertyOp8
 70
     1
102
RTVSPropertyOp9
 70
     1
102
RTVSPropertyOp10
 70
     1
102
RTVSPropertyOp11
 70
     1
102
RTVSPropertyOp12
 70
     1
102
RTVSPropertyOp13
 70
     1
102
RTVSPropertyOp14
 70
     1
102
RTVSPropertyOp15
 70
     1
102
RTVSPropertyOp16
 70
     1
102
RTVSPropertyOp17
 70
     1
102
RTVSPropertyOp18
 70
     1
102
RTVSPropertyOp19
 70
     1
102
RTVSPropertyOp20
 70
     1
102
RTVSPropertyOp21
 70
     1
102
RTVSPropertyOp22
 70
     1
102
RTVSPropertyOp23
 70
     1
102
RTVSPropertyOp24
 70
     1
102
RTVSPropertyOp25
 70
     1
102
RTVSPropertyOp26
 70
     1
102
RTVSPropertyOp27
 70
     1
  0
XRECORD
  5
567
102
{ACAD_REACTORS
330
566
102
}
330
566
100
AcDbXrecord
280
     1
102
RTVSPropertyOp0
 70
     1
102
RTVSPropertyOp1
 70
     1
102
RTVSPropertyOp2
 70
     1
102
RTVSPropertyOp3
 70
     1
102
RTVSPropertyOp4
 70
     1
102
RTVSPropertyOp5
 70
     1
102
RTVSPropertyOp6
 70
     1
102
RTVSPropertyOp7
 70
     1
102
RTVSPropertyOp8
 70
     1
102
RTVSPropertyOp9
 70
     1
102
RTVSPropertyOp10
 70
     1
102
RTVSPropertyOp11
 70
     1
102
RTVSPropertyOp12
 70
     1
102
RTVSPropertyOp13
 70
     1
102
RTVSPropertyOp14
 70
     1
102
RTVSPropertyOp15
 70
     1
102
RTVSPropertyOp16
 70
     1
102
RTVSPropertyOp17
 70
     1
102
RTVSPropertyOp18
 70
     1
102
RTVSPropertyOp19
 70
     1
102
RTVSPropertyOp20
 70
     1
102
RTVSPropertyOp21
 70
     1
102
RTVSPropertyOp22
 70
     1
102
RTVSPropertyOp23
 70
     1
102
RTVSPropertyOp24
 70
     1
102
RTVSPropertyOp25
 70
     1
102
RTVSPropertyOp26
 70
     1
102
RTVSPropertyOp27
 70
     1
  0
XRECORD
  5
581
102
{ACAD_REACTORS
330
580
102
}
330
580
100
AcDbXrecord
280
     1
102
RTVSPropertyOp0
 70
     0
102
RTVSPropertyOp1
 70
     0
102
RTVSPropertyOp2
 70
     0
102
RTVSPropertyOp3
 70
     0
102
RTVSPropertyOp4
 70
     0
102
RTVSPropertyOp5
 70
     0
102
RTVSPropertyOp6
 70
     0
102
RTVSPropertyOp7
 70
     0
102
RTVSPropertyOp8
 70
     0
102
RTVSPropertyOp9
 70
     0
102
RTVSPropertyOp10
 70
     0
102
RTVSPropertyOp11
 70
     0
102
RTVSPropertyOp12
 70
     0
102
RTVSPropertyOp13
 70
     0
102
RTVSPropertyOp14
 70
     2
102
RTVSPropertyOp15
 70
     0
102
RTVSPropertyOp16
 70
     0
102
RTVSPropertyOp17
 70
     0
102
RTVSPropertyOp18
 70
     0
102
RTVSPropertyOp19
 70
     0
102
RTVSPropertyOp20
 70
     0
102
RTVSPropertyOp21
 70
     0
102
RTVSPropertyOp22
 70
     0
102
RTVSPropertyOp23
 70
     0
102
RTVSPropertyOp24
 70
     0
102
RTVSPropertyOp25
 70
     0
102
RTVSPropertyOp26
 70
     0
102
RTVSPropertyOp27
 70
     0
  0
XRECORD
  5
57B
102
{ACAD_REACTORS
330
57A
102
}
330
57A
100
AcDbXrecord
280
     1
102
RTVSPropertyOp0
 70
     1
102
RTVSPropertyOp1
 70
     1
102
RTVSPropertyOp2
 70
     1
102
RTVSPropertyOp3
 70
     1
102
RTVSPropertyOp4
 70
     1
102
RTVSPropertyOp5
 70
     1
102
RTVSPropertyOp6
 70
     1
102
RTVSPropertyOp7
 70
     1
102
RTVSPropertyOp8
 70
     1
102
RTVSPropertyOp9
 70
     1
102
RTVSPropertyOp10
 70
     1
102
RTVSPropertyOp11
 70
     1
102
RTVSPropertyOp12
 70
     1
102
RTVSPropertyOp13
 70
     1
102
RTVSPropertyOp14
 70
     1
102
RTVSPropertyOp15
 70
     1
102
RTVSPropertyOp16
 70
     1
102
RTVSPropertyOp17
 70
     1
102
RTVSPropertyOp18
 70
     1
102
RTVSPropertyOp19
 70
     1
102
RTVSPropertyOp20
 70
     1
102
RTVSPropertyOp21
 70
     1
102
RTVSPropertyOp22
 70
     1
102
RTVSPropertyOp23
 70
     1
102
RTVSPropertyOp24
 70
     1
102
RTVSPropertyOp25
 70
     1
102
RTVSPropertyOp26
 70
     1
102
RTVSPropertyOp27
 70
     1
  0
XRECORD
  5
583
102
{ACAD_REACTORS
330
582
102
}
330
582
100
AcDbXrecord
280
     1
102
RTVSPropertyOp0
 70
     0
102
RTVSPropertyOp1
 70
     0
102
RTVSPropertyOp2
 70
     0
102
RTVSPropertyOp3
 70
     0
102
RTVSPropertyOp4
 70
     0
102
RTVSPropertyOp5
 70
     0
102
RTVSPropertyOp6
 70
     0
102
RTVSPropertyOp7
 70
     0
102
RTVSPropertyOp8
 70
     0
102
RTVSPropertyOp9
 70
     0
102
RTVSPropertyOp10
 70
     0
102
RTVSPropertyOp11
 70
     0
102
RTVSPropertyOp12
 70
     0
102
RTVSPropertyOp13
 70
     0
102
RTVSPropertyOp14
 70
     2
102
RTVSPropertyOp15
 70
     0
102
RTVSPropertyOp16
 70
     0
102
RTVSPropertyOp17
 70
     0
102
RTVSPropertyOp18
 70
     0
102
RTVSPropertyOp19
 70
     0
102
RTVSPropertyOp20
 70
     0
102
RTVSPropertyOp21
 70
     0
102
RTVSPropertyOp22
 70
     0
102
RTVSPropertyOp23
 70
     0
102
RTVSPropertyOp24
 70
     0
102
RTVSPropertyOp25
 70
     0
102
RTVSPropertyOp26
 70
     0
102
RTVSPropertyOp27
 70
     0
  0
XRECORD
  5
573
102
{ACAD_REACTORS
330
572
102
}
330
572
100
AcDbXrecord
280
     1
102
RTVSPropertyOp0
 70
     1
102
RTVSPropertyOp1
 70
     1
102
RTVSPropertyOp2
 70
     1
102
RTVSPropertyOp3
 70
     1
102
RTVSPropertyOp4
 70
     1
102
RTVSPropertyOp5
 70
     1
102
RTVSPropertyOp6
 70
     1
102
RTVSPropertyOp7
 70
     1
102
RTVSPropertyOp8
 70
     1
102
RTVSPropertyOp9
 70
     1
102
RTVSPropertyOp10
 70
     1
102
RTVSPropertyOp11
 70
     1
102
RTVSPropertyOp12
 70
     1
102
RTVSPropertyOp13
 70
     1
102
RTVSPropertyOp14
 70
     1
102
RTVSPropertyOp15
 70
     1
102
RTVSPropertyOp16
 70
     1
102
RTVSPropertyOp17
 70
     1
102
RTVSPropertyOp18
 70
     1
102
RTVSPropertyOp19
 70
     1
102
RTVSPropertyOp20
 70
     1
102
RTVSPropertyOp21
 70
     1
102
RTVSPropertyOp22
 70
     1
102
RTVSPropertyOp23
 70
     1
102
RTVSPropertyOp24
 70
     1
102
RTVSPropertyOp25
 70
     1
102
RTVSPropertyOp26
 70
     1
102
RTVSPropertyOp27
 70
     1
  0
XRECORD
  5
579
102
{ACAD_REACTORS
330
578
102
}
330
578
100
AcDbXrecord
280
     1
102
RTVSPropertyOp0
 70
     1
102
RTVSPropertyOp1
 70
     1
102
RTVSPropertyOp2
 70
     1
102
RTVSPropertyOp3
 70
     1
102
RTVSPropertyOp4
 70
     1
102
RTVSPropertyOp5
 70
     1
102
RTVSPropertyOp6
 70
     1
102
RTVSPropertyOp7
 70
     1
102
RTVSPropertyOp8
 70
     1
102
RTVSPropertyOp9
 70
     1
102
RTVSPropertyOp10
 70
     1
102
RTVSPropertyOp11
 70
     1
102
RTVSPropertyOp12
 70
     1
102
RTVSPropertyOp13
 70
     1
102
RTVSPropertyOp14
 70
     1
102
RTVSPropertyOp15
 70
     1
102
RTVSPropertyOp16
 70
     1
102
RTVSPropertyOp17
 70
     1
102
RTVSPropertyOp18
 70
     1
102
RTVSPropertyOp19
 70
     1
102
RTVSPropertyOp20
 70
     1
102
RTVSPropertyOp21
 70
     1
102
RTVSPropertyOp22
 70
     1
102
RTVSPropertyOp23
 70
     1
102
RTVSPropertyOp24
 70
     1
102
RTVSPropertyOp25
 70
     1
102
RTVSPropertyOp26
 70
     1
102
RTVSPropertyOp27
 70
     1
  0
ENDSEC
  0
EOF
