  0
SECTION
  2
HEADER
  9
$ACADVER
  1
AC1015
  9
$ACADMAINTVER
 70
    20
  9
$DWGCODEPAGE
  3
ANSI_932
  9
$INSBASE
 10
0.0
 20
0.0
 30
0.0
  9
$EXTMIN
 10
-1343.594706911867
 20
-1153.934044115815
 30
0.0
  9
$EXTMAX
 10
1806.405293088134
 20
1073.565955884185
 30
0.0
  9
$LIMMIN
 10
-674.999979883433
 20
-890.9999734461313
  9
$LIMMAX
 10
584.999982565642
 20
890.9999734461313
  9
$ORTHOMODE
 70
     0
  9
$REGENMODE
 70
     1
  9
$FILLMODE
 70
     1
  9
$QTEXTMODE
 70
     0
  9
$MIRRTEXT
 70
     1
  9
$LTSCALE
 40
1.0
  9
$ATTMODE
 70
     1
  9
$TEXTSIZE
 40
25.00199815624958
  9
$TRACEWID
 40
0.05
  9
$TEXTSTYLE
  7
MX_NOTE_STANDARD
  9
$CLAYER
  8
DEFPOINTS
  9
$CELTYPE
  6
CONTINUOUS
  9
$CECOLOR
 62
   256
  9
$CELTSCALE
 40
1.0
  9
$DISPSILH
 70
     0
  9
$DIMSCALE
 40
5.999999821186071
  9
$DIMASZ
 40
2.5
  9
$DIMEXO
 40
1.269999980926513
  9
$DIMDLI
 40
3.75
  9
$DIMRND
 40
0.0
  9
$DIMDLE
 40
0.0
  9
$DIMEXE
 40
1.200000047683715
  9
$DIMTP
 40
0.0
  9
$DIMTM
 40
0.0
  9
$DIMTXT
 40
4.166999816894531
  9
$DIMCEN
 40
2.5
  9
$DIMTSZ
 40
0.0
  9
$DIMTOL
 70
     0
  9
$DIMLIM
 70
     0
  9
$DIMTIH
 70
     0
  9
$DIMTOH
 70
     0
  9
$DIMSE1
 70
     0
  9
$DIMSE2
 70
     0
  9
$DIMTAD
 70
     1
  9
$DIMZIN
 70
     8
  9
$DIMBLK
  1

  9
$DIMASO
 70
     1
  9
$DIMSHO
 70
     1
  9
$DIMPOST
  1

  9
$DIMAPOST
  1

  9
$DIMALT
 70
     0
  9
$DIMALTD
 70
     4
  9
$DIMALTF
 40
0.03937007874016
  9
$DIMLFAC
 40
1.0
  9
$DIMTOFL
 70
     1
  9
$DIMTVP
 40
0.0
  9
$DIMTIX
 70
     0
  9
$DIMSOXD
 70
     0
  9
$DIMSAH
 70
     0
  9
$DIMBLK1
  1

  9
$DIMBLK2
  1

  9
$DIMSTYLE
  2
MXDIMSTYLE
  9
$DIMCLRD
 70
     0
  9
$DIMCLRE
 70
     0
  9
$DIMCLRT
 70
     0
  9
$DIMTFAC
 40
1.0
  9
$DIMGAP
 40
1.0
  9
$DIMJUST
 70
     0
  9
$DIMSD1
 70
     0
  9
$DIMSD2
 70
     0
  9
$DIMTOLJ
 70
     1
  9
$DIMTZIN
 70
     0
  9
$DIMALTZ
 70
     0
  9
$DIMALTTZ
 70
     0
  9
$DIMUPT
 70
     1
  9
$DIMDEC
 70
     0
  9
$DIMTDEC
 70
     4
  9
$DIMALTU
 70
     2
  9
$DIMALTTD
 70
     4
  9
$DIMTXSTY
  7
MX_NOTE_STANDARD
  9
$DIMAUNIT
 70
     0
  9
$DIMADEC
 70
     0
  9
$DIMALTRND
 40
0.0
  9
$DIMAZIN
 70
     0
  9
$DIMDSEP
 70
     0
  9
$DIMATFIT
 70
     3
  9
$DIMFRAC
 70
     0
  9
$DIMLDRBLK
  1

  9
$DIMLUNIT
 70
     2
  9
$DIMLWD
 70
     0
  9
$DIMLWE
 70
     0
  9
$DIMTMOVE
 70
     0
  9
$LUNITS
 70
     2
  9
$LUPREC
 70
     2
  9
$SKETCHINC
 40
0.1
  9
$FILLETRAD
 40
0.0
  9
$AUNITS
 70
     0
  9
$AUPREC
 70
     0
  9
$MENU
  1
acad
  9
$ELEVATION
 40
0.0
  9
$PELEVATION
 40
0.0
  9
$THICKNESS
 40
0.0
  9
$LIMCHECK
 70
     0
  9
$CHAMFERA
 40
0.0
  9
$CHAMFERB
 40
0.0
  9
$CHAMFERC
 40
0.0
  9
$CHAMFERD
 40
0.0
  9
$SKPOLY
 70
     0
  9
$TDCREATE
 40
2454352.036527778
  9
$TDUCREATE
 40
2454351.661527777
  9
$TDUPDATE
 40
2457984.638554375
  9
$TDUUPDATE
 40
2457984.263554375
  9
$TDINDWG
 40
0.1393429514
  9
$TDUSRTIMER
 40
0.1393429051
  9
$USRTIMER
 70
     1
  9
$ANGBASE
 50
0.0
  9
$ANGDIR
 70
     0
  9
$PDMODE
 70
     0
  9
$PDSIZE
 40
0.0
  9
$PLINEWID
 40
0.0
  9
$SPLFRAME
 70
     0
  9
$SPLINETYPE
 70
     6
  9
$SPLINESEGS
 70
     8
  9
$HANDSEED
  5
D75
  9
$SURFTAB1
 70
     6
  9
$SURFTAB2
 70
     6
  9
$SURFTYPE
 70
     6
  9
$SURFU
 70
     6
  9
$SURFV
 70
     6
  9
$UCSBASE
  2

  9
$UCSNAME
  2

  9
$UCSORG
 10
0.0
 20
0.0
 30
0.0
  9
$UCSXDIR
 10
1.0
 20
0.0
 30
0.0
  9
$UCSYDIR
 10
0.0
 20
1.0
 30
0.0
  9
$UCSORTHOREF
  2

  9
$UCSORTHOVIEW
 70
     0
  9
$UCSORGTOP
 10
0.0
 20
0.0
 30
0.0
  9
$UCSORGBOTTOM
 10
0.0
 20
0.0
 30
0.0
  9
$UCSORGLEFT
 10
0.0
 20
0.0
 30
0.0
  9
$UCSORGRIGHT
 10
0.0
 20
0.0
 30
0.0
  9
$UCSORGFRONT
 10
0.0
 20
0.0
 30
0.0
  9
$UCSORGBACK
 10
0.0
 20
0.0
 30
0.0
  9
$PUCSBASE
  2

  9
$PUCSNAME
  2

  9
$PUCSORG
 10
0.0
 20
0.0
 30
0.0
  9
$PUCSXDIR
 10
1.0
 20
0.0
 30
0.0
  9
$PUCSYDIR
 10
0.0
 20
1.0
 30
0.0
  9
$PUCSORTHOREF
  2

  9
$PUCSORTHOVIEW
 70
     0
  9
$PUCSORGTOP
 10
0.0
 20
0.0
 30
0.0
  9
$PUCSORGBOTTOM
 10
0.0
 20
0.0
 30
0.0
  9
$PUCSORGLEFT
 10
0.0
 20
0.0
 30
0.0
  9
$PUCSORGRIGHT
 10
0.0
 20
0.0
 30
0.0
  9
$PUCSORGFRONT
 10
0.0
 20
0.0
 30
0.0
  9
$PUCSORGBACK
 10
0.0
 20
0.0
 30
0.0
  9
$USERI1
 70
     0
  9
$USERI2
 70
     0
  9
$USERI3
 70
     0
  9
$USERI4
 70
     0
  9
$USERI5
 70
     0
  9
$USERR1
 40
0.0
  9
$USERR2
 40
0.0
  9
$USERR3
 40
0.0
  9
$USERR4
 40
0.0
  9
$USERR5
 40
0.0
  9
$WORLDVIEW
 70
     1
  9
$SHADEDGE
 70
     3
  9
$SHADEDIF
 70
    70
  9
$TILEMODE
 70
     1
  9
$MAXACTVP
 70
    16
  9
$PINSBASE
 10
0.0
 20
0.0
 30
0.0
  9
$PLIMCHECK
 70
     0
  9
$PEXTMIN
 10
1.000000000000000E+20
 20
1.000000000000000E+20
 30
1.000000000000000E+20
  9
$PEXTMAX
 10
-1.000000000000000E+20
 20
-1.000000000000000E+20
 30
-1.000000000000000E+20
  9
$PLIMMIN
 10
0.0
 20
0.0
  9
$PLIMMAX
 10
12.0
 20
9.0
  9
$UNITMODE
 70
     0
  9
$VISRETAIN
 70
     0
  9
$PLINEGEN
 70
     1
  9
$PSLTSCALE
 70
     0
  9
$TREEDEPTH
 70
  3020
  9
$CMLSTYLE
  2
Standard
  9
$CMLJUST
 70
     0
  9
$CMLSCALE
 40
1.0
  9
$PROXYGRAPHICS
 70
     1
  9
$MEASUREMENT
 70
     1
  9
$CELWEIGHT
370
     0
  9
$ENDCAPS
280
     0
  9
$JOINSTYLE
280
     0
  9
$LWDISPLAY
290
     0
  9
$INSUNITS
 70
     0
  9
$HYPERLINKBASE
  1

  9
$STYLESHEET
  1

  9
$XEDIT
290
     1
  9
$CEPSNTYPE
380
     0
  9
$PSTYLEMODE
290
     1
  9
$FINGERPRINTGUID
  2

  9
$VERSIONGUID
  2
{65D8A463-72E4-4F28-B261-B6FEBC25F6ED}
  9
$EXTNAMES
290
     1
  9
$PSVPSCALE
 40
0.0
  9
$OLESTARTUP
290
     0
  0
ENDSEC
  0
SECTION
  2
CLASSES
  0
CLASS
  1
IMAGE
  2
AcDbRasterImage
  3
ISM
 90
    34943
280
     0
281
     1
  0
CLASS
  1
DICTIONARYVAR
  2
AcDbDictionaryVar
  3
ObjectDBX Classes
 90
        0
280
     0
281
     0
  0
CLASS
  1
RASTERVARIABLES
  2
AcDbRasterVariables
  3
ISM
 90
    32768
280
     0
281
     0
  0
CLASS
  1
IMAGEDEF
  2
AcDbRasterImageDef
  3
ISM
 90
    32768
280
     0
281
     0
  0
CLASS
  1
IMAGEDEF_REACTOR
  2
AcDbRasterImageDefReactor
  3
ISM
 90
    32769
280
     0
281
     0
  0
CLASS
  1
IDBUFFER
  2
AcDbIdBuffer
  3
ObjectDBX Classes
 90
    32768
280
     0
281
     0
  0
CLASS
  1
SPATIAL_FILTER
  2
AcDbSpatialFilter
  3
ObjectDBX Classes
 90
    32768
280
     0
281
     0
  0
CLASS
  1
SORTENTSTABLE
  2
AcDbSortentsTable
  3
ObjectDBX Classes
 90
    32768
280
     0
281
     0
  0
CLASS
  1
LAYER_INDEX
  2
AcDbLayerIndex
  3
ObjectDBX Classes
 90
    32768
280
     0
281
     0
  0
CLASS
  1
SPATIAL_INDEX
  2
AcDbSpatialIndex
  3
ObjectDBX Classes
 90
    32768
280
     0
281
     0
  0
CLASS
  1
OBJECT_PTR
  2
CAseDLPNTableRecord
  3
ASE-LPNTableRecord
 90
    32769
280
     0
281
     0
  0
CLASS
  1
PLOTSETTINGS
  2
AcDbPlotSettings
  3
ObjectDBX Classes
 90
    32768
280
     0
281
     0
  0
CLASS
  1
ACDBDICTIONARYWDFLT
  2
AcDbDictionaryWithDefault
  3
ObjectDBX Classes
 90
        0
280
     0
281
     0
  0
CLASS
  1
MATERIAL
  2
AcDbMaterial
  3
ObjectDBX Classes
 90
     1153
280
     0
281
     0
  0
CLASS
  1
VISUALSTYLE
  2
AcDbVisualStyle
  3
ObjectDBX Classes
 90
     4095
280
     0
281
     0
  0
CLASS
  1
TABLESTYLE
  2
AcDbTableStyle
  3
ObjectDBX Classes
 90
     4095
280
     0
281
     0
  0
CLASS
  1
SCALE
  2
AcDbScale
  3
ObjectDBX Classes
 90
     1153
280
     0
281
     0
  0
CLASS
  1
MLEADERSTYLE
  2
AcDbMLeaderStyle
  3
ACDB_MLEADERSTYLE_CLASS
 90
     4095
280
     0
281
     0
  0
CLASS
  1
ACME_DOCUMENT
  2
AcMeDbDoc
  3
AcMeServices
 90
     1024
280
     0
281
     0
  0
CLASS
  1
AMGSETTINGSOBJ
  2
AmgSettingsObj
  3
"AcadM|Product Description: AutoCAD Mechanical|Company: Autodesk, Inc."
 90
     1024
280
     0
281
     0
  0
CLASS
  1
ACMESCOPE
  2
AcMeScope
  3
AcMeServices
 90
     1024
280
     0
281
     0
  0
CLASS
  1
ACMECOMMANDHISTORY
  2
AcMeCommandHistory
  3
AcMeServices
 90
     1024
280
     0
281
     0
  0
CLASS
  1
ACIMSYSVARMAN
  2
AcImSysVarManager
  3
AcMeServices
 90
     1024
280
     0
281
     0
  0
CLASS
  1
ACIMINTSYSVAR
  2
AcImIntSysVar
  3
AcMeServices
 90
     1024
280
     0
281
     0
  0
CLASS
  1
ACMEDRAWINGMAN
  2
AcMeDrawingMan
  3
AcMeServices
 90
     1024
280
     0
281
     0
  0
CLASS
  1
ACMEVIEW
  2
AcMeView
  3
AcMeServices
 90
     1024
280
     0
281
     0
  0
CLASS
  1
ACDBENTITYCACHE
  2
AcMeEntityCache
  3
AcMeServices
 90
     1024
280
     0
281
     0
  0
CLASS
  1
ACMESTATEMGR
  2
AcMeStateMgr
  3
AcMeServices
 90
     1024
280
     0
281
     0
  0
CLASS
  1
ACGREFMASTER
  2
AcGrefMaster
  3
AcAttribServices
 90
     1024
280
     0
281
     0
  0
CLASS
  1
AM_DRAWING_MGR
  2
AcDmDwgMgr
  3
AcMechDwgViewMgmt
 90
     1024
280
     0
281
     0
  0
CLASS
  1
AM_DWG_DOCUMENT
  2
AcDmDwgDocument
  3
AcMechDwgViewMgmt
 90
     1024
280
     0
281
     0
  0
CLASS
  1
AM_DWG_SHEET
  2
AcDmSheet
  3
AcMechDwgViewMgmt
 90
     1024
280
     0
281
     0
  0
CLASS
  1
AM_VIEWDIMPARMAP
  2
AcDmViewDimParMap
  3
AcMechDwgViewMgmt
 90
     1024
280
     0
281
     0
  0
CLASS
  1
AMDTINTERNALREACTOR
  2
AmdtInternalReactor
  3
AcMeServices
 90
     1024
280
     0
281
     0
  0
CLASS
  1
ACIMREALSYSVAR
  2
AcImRealSysVar
  3
AcMeServices
 90
     1024
280
     0
281
     0
  0
CLASS
  1
AM_DWGMGR_NAME
  2
AcDmDwgMgrName
  3
AcMechDwgViewMgmt
 90
     1024
280
     0
281
     0
  0
CLASS
  1
ACME_DATABASE
  2
AcMeDbDatabase
  3
AcMeServices
 90
     1024
280
     0
281
     0
  0
CLASS
  1
ACRFINSADJUSTERMGR
  2
AcRfInsAdjusterMgr
  3
AcMeServices
 90
     1024
280
     0
281
     0
  0
CLASS
  1
ACGREFACADMASTER
  2
AcGrefacadMaster
  3
AcGrefServices
 90
     1024
280
     0
281
     0
  0
CLASS
  1
AMDTMENUSTATEMGR
  2
AmdtMenuStateMgr
  3
McadcomServices
 90
     1024
280
     0
281
     0
  0
CLASS
  1
AMDTMCOMMENUSTATE
  2
AmdtMcomMenuState
  3
McadcomServices
 90
     1024
280
     0
281
     0
  0
CLASS
  1
AMIMASTER
  2
AmiMaster
  3
AmiServices
 90
     1024
280
     0
281
     0
  0
CLASS
  1
MAPIAMMOUDLE
  2
MApiAmModule
  3
MApiAmServices
 90
     1024
280
     0
281
     0
  0
CLASS
  1
ACIMSTRSYSVAR
  2
AcImStrSysVar
  3
AcMeServices
 90
     1024
280
     0
281
     0
  0
CLASS
  1
AMDTADMENUSTATE
  2
AmdtAdMenuState
  3
DesignerServices
 90
     1024
280
     0
281
     0
  0
CLASS
  1
ADAPPL
  2
AcAdAppl
  3
DesignerServices
 90
     1024
280
     0
281
     0
  0
CLASS
  1
DEPMGR
  2
AcAdDepMgr
  3
DesignerServices
 90
     1024
280
     0
281
     0
  0
CLASS
  1
PARAMMGR
  2
AcAdParamMgr
  3
DesignerServices
 90
     1024
280
     0
281
     0
  0
CLASS
  1
PARAMSCOPE
  2
AcAdParamScope
  3
DesignerServices
 90
     1024
280
     0
281
     0
  0
CLASS
  1
NAMEDAPPL
  2
AcAdNamedAppl
  3
DesignerServices
 90
     1024
280
     0
281
     0
  0
CLASS
  1
AMDTDMMENUSTATE
  2
AmdtDmMenuState
  3
AcMechDwgViewMgmt
 90
     1024
280
     0
281
     0
  0
CLASS
  1
AMDTAMMENUSTATE
  2
AmdtAmMenuState
  3
DesignerAssemblies
 90
     1024
280
     0
281
     0
  0
CLASS
  1
ACAMPROJECT
  2
AcAmProject
  3
DesignerAssemblies
 90
     1024
280
     0
281
     0
  0
CLASS
  1
ACAMGRCOMPDEF
  2
AcAmGrCompDef
  3
DesignerAssemblies
 90
     1024
280
     0
281
     0
  0
CLASS
  1
ACAMCOMPDEF
  2
AcAmCompDef
  3
DesignerAssemblies
 90
     1024
280
     0
281
     0
  0
CLASS
  1
ACAMCOMPDEFMGR
  2
AcAmCompDefMgr
  3
DesignerAssemblies
 90
     1024
280
     0
281
     0
  0
CLASS
  1
AMCONTEXTMGR
  2
AcAmContextMgr
  3
DesignerAssemblies
 90
     1024
280
     0
281
     0
  0
CLASS
  1
ACAMCONTEXTMODELER
  2
AcAmContextModeler
  3
DesignerAssemblies
 90
     1024
280
     0
281
     0
  0
CLASS
  1
ACMDATADICTIONARY
  2
AcmDataDictionary
  3
"AcmSymBB|Product Description: AutoCAD Mechanical|Company: Autodesk, Inc."
 90
     1024
280
     0
281
     0
  0
CLASS
  1
CATALOGSTATE
  2
AcAmCatalogState
  3
DesignerAssemblies
 90
     1024
280
     0
281
     0
  0
CLASS
  1
ACAMGRCOMPDEFSET
  2
AcAmGrCompDefSet
  3
DesignerAssemblies
 90
     1024
280
     0
281
     0
  0
CLASS
  1
AMDTBROWSERDBTAB
  2
AmdtBrowserDbTab
  3
McadcomServices
 90
     1024
280
     0
281
     0
  0
CLASS
  1
CBROWSERAPPOBJECT
  2
CBrowserAppObject
  3
McadcomServices
 90
     1024
280
     0
281
     0
  0
CLASS
  1
DM_PLACEHOLDER
  2
AcDmSelsetPlaceholder
  3
AcMechDwgViewMgmt
 90
     1024
280
     0
281
     0
  0
CLASS
  1
ACMSTANDARDISO
  2
AcmStandardISO
  3
"Amdt_StdImp|Product Description: AutoCAD Mechanical|Company: Autodesk, Inc."
 90
     1024
280
     0
281
     0
  0
CLASS
  1
AMDTEDGESTANDARDISO13715
  2
AmdtEdgeStdISO13715
  3
"Amdt_StdImp|Product Description: AutoCAD Mechanical|Company: Autodesk, Inc."
 90
     1024
280
     0
281
     0
  0
CLASS
  1
ACMSURFSTANDARDISO2002
  2
AcmSurfTextStdISO2002
  3
"Amdt_StdImp|Product Description: AutoCAD Mechanical|Company: Autodesk, Inc."
 90
     1024
280
     0
281
     0
  0
CLASS
  1
ACMFCFSTANDARDISO
  2
AcmFCFStdISO
  3
"Amdt_StdImp|Product Description: AutoCAD Mechanical|Company: Autodesk, Inc."
 90
     1024
280
     0
281
     0
  0
CLASS
  1
ACMWELDSTANDARDISO
  2
AcmWeldingStdISO
  3
"Amdt_StdImp|Product Description: AutoCAD Mechanical|Company: Autodesk, Inc."
 90
     1024
280
     0
281
     0
  0
CLASS
  1
ACMIDSTANDARDISO
  2
AcmIdStdISO
  3
"Amdt_StdImp|Product Description: AutoCAD Mechanical|Company: Autodesk, Inc."
 90
     1024
280
     0
281
     0
  0
CLASS
  1
ACMDATUMSTANDARDISO
  2
AcmDatumStdISO
  3
"Amdt_StdImp|Product Description: AutoCAD Mechanical|Company: Autodesk, Inc."
 90
     1024
280
     0
281
     0
  0
CLASS
  1
ACMBOMSTANDARDISO
  2
AcmBOMStdISO
  3
"Amdt_StdImp|Product Description: AutoCAD Mechanical|Company: Autodesk, Inc."
 90
     1024
280
     0
281
     0
  0
CLASS
  1
ACMDETAILSTANDARDISO
  2
AmdtDetailSymStdISO
  3
"Amdt_StdImp|Product Description: AutoCAD Mechanical|Company: Autodesk, Inc."
 90
     1024
280
     0
281
     0
  0
CLASS
  1
ACMSECTIONSTANDARDISO2001
  2
AmdtSectionSymStdISO2001
  3
"Amdt_StdImp|Product Description: AutoCAD Mechanical|Company: Autodesk, Inc."
 90
     1024
280
     0
281
     0
  0
CLASS
  1
ACMCENTERLINESTANDARDISO
  2
AmdtCenterLineStdISO
  3
"Amdt_StdImp|Product Description: AutoCAD Mechanical|Company: Autodesk, Inc."
 90
     1024
280
     0
281
     0
  0
CLASS
  1
ACMTHREADLINESTANDARDISO
  2
AmdtThreadLineStdISO
  3
"Amdt_StdImp|Product Description: AutoCAD Mechanical|Company: Autodesk, Inc."
 90
     1024
280
     0
281
     0
  0
CLASS
  1
ACMNOTESTANDARDISO
  2
AmdtNoteStdISO
  3
"Amdt_StdImp|Product Description: AutoCAD Mechanical|Company: Autodesk, Inc."
 90
     1024
280
     0
281
     0
  0
CLASS
  1
ACMTAPERSTANDARDISO
  2
AcmTaperStdISO
  3
"Amdt_StdImp|Product Description: AutoCAD Mechanical|Company: Autodesk, Inc."
 90
     1024
280
     0
281
     0
  0
CLASS
  1
ACMANOOTATIONVIEWSTANDARDISO
  2
AmdtAnViewStdISO
  3
"Amdt_StdImp|Product Description: AutoCAD Mechanical|Company: Autodesk, Inc."
 90
     1024
280
     0
281
     0
  0
CLASS
  1
ACAMGLAYSTD
  2
AcAmgLayStd
  3
"AmgLay|Product Description: AutoCAD Mechanical|Company: Autodesk, Inc."
 90
     1024
280
     0
281
     0
  0
CLASS
  1
ACAMGDIMSTD
  2
AcAmgDimStd
  3
"AmgDim|Product Description: AutoCAD Mechanical|Company: Autodesk, Inc."
 90
     1024
280
     0
281
     0
  0
CLASS
  1
AMGOBJPROPCFG
  2
AmgObjPropCfg
  3
"AmgLay|Product Description: AutoCAD Mechanical|Company: Autodesk, Inc."
 90
     1025
280
     0
281
     0
  0
CLASS
  1
ACAMGHOLECHARTSTDISO
  2
AcAmgHoleChartStdISO
  3
AmgDim|Product Description: AutoCAD Mechanical|Company: Autodesk, Inc.
 90
     1024
280
     0
281
     0
  0
CLASS
  1
ACAMGTITLESTD
  2
AcAmgTitleStd
  3
"AmgTitle|Product Description: AutoCAD Mechanical|Company: Autodesk, Inc."
 90
     4095
280
     0
281
     0
  0
CLASS
  1
AMDTNOTETEMPLATEDB
  2
AmdtNoteTemplateDB
  3
AcmSymBB|Product Description: AutoCAD Mechanical|Company: Autodesk, Inc.
 90
     1024
280
     0
281
     0
  0
CLASS
  1
CAMSSTRUCTBTNSTATE
  2
StructBtnState
  3
DesignerAssemblies
 90
    33792
280
     0
281
     0
  0
CLASS
  1
ACAMGFILTERDAT
  2
AcAmgFilterDat
  3
"AcadM|Product Description: AutoCAD Mechanical|Company: Autodesk, Inc."
 90
    33792
280
     0
281
     0
  0
CLASS
  1
ACMSTANDARDJIS
  2
AcmStandardJIS
  3
"Amdt_StdImp|Product Description: AutoCAD Mechanical|Company: Autodesk, Inc."
 90
    33792
280
     0
281
     0
  0
CLASS
  1
ACMSURFSTANDARDJIS
  2
AcmSurfTextStdJIS
  3
"Amdt_StdImp|Product Description: AutoCAD Mechanical|Company: Autodesk, Inc."
 90
    33792
280
     0
281
     0
  0
CLASS
  1
ACMFCFSTANDARDJIS98
  2
AcmFCFStdJIS98
  3
"Amdt_StdImp|Product Description: AutoCAD Mechanical|Company: Autodesk, Inc."
 90
    33792
280
     0
281
     0
  0
CLASS
  1
ACMWELDSTANDARDJIS
  2
AcmWeldingStdJIS
  3
"Amdt_StdImp|Product Description: AutoCAD Mechanical|Company: Autodesk, Inc."
 90
    33792
280
     0
281
     0
  0
CLASS
  1
ACMIDSTANDARDJIS
  2
AcmIdStdJIS
  3
"Amdt_StdImp|Product Description: AutoCAD Mechanical|Company: Autodesk, Inc."
 90
    33792
280
     0
281
     0
  0
CLASS
  1
ACMDATUMSTANDARDJIS
  2
AcmDatumStdJIS
  3
"Amdt_StdImp|Product Description: AutoCAD Mechanical|Company: Autodesk, Inc."
 90
    33792
280
     0
281
     0
  0
CLASS
  1
ACMBOMSTANDARDJIS
  2
AcmBOMStdJIS
  3
"Amdt_StdImp|Product Description: AutoCAD Mechanical|Company: Autodesk, Inc."
 90
    33792
280
     0
281
     0
  0
CLASS
  1
ACMDETAILSTANDARDJIS
  2
AmdtDetailSymStdJIS
  3
"Amdt_StdImp|Product Description: AutoCAD Mechanical|Company: Autodesk, Inc."
 90
    33792
280
     0
281
     0
  0
CLASS
  1
ACMSECTIONSTANDARDJIS
  2
AmdtSectionSymStdJIS
  3
"Amdt_StdImp|Product Description: AutoCAD Mechanical|Company: Autodesk, Inc."
 90
    33792
280
     0
281
     0
  0
CLASS
  1
ACMCENTERLINESTANDARDJIS
  2
AmdtCenterLineStdJIS
  3
"Amdt_StdImp|Product Description: AutoCAD Mechanical|Company: Autodesk, Inc."
 90
    33792
280
     0
281
     0
  0
CLASS
  1
ACMTHREADLINESTANDARDJIS
  2
AmdtThreadLineStdJIS
  3
"Amdt_StdImp|Product Description: AutoCAD Mechanical|Company: Autodesk, Inc."
 90
    33792
280
     0
281
     0
  0
CLASS
  1
ACMNOTESTANDARDJIS
  2
AmdtNoteStdJIS
  3
"Amdt_StdImp|Product Description: AutoCAD Mechanical|Company: Autodesk, Inc."
 90
    33792
280
     0
281
     0
  0
CLASS
  1
ACAMGHOLECHARTSTDJIS
  2
AcAmgHoleChartStdJIS
  3
AmgDim|Product Description: AutoCAD Mechanical|Company: Autodesk, Inc.
 90
    33792
280
     0
281
     0
  0
CLASS
  1
ACMTAPERSTANDARDJIS
  2
AcmTaperStdJIS
  3
"Amdt_StdImp|Product Description: AutoCAD Mechanical|Company: Autodesk, Inc."
 90
    33792
280
     0
281
     0
  0
CLASS
  1
ACMANOOTATIONVIEWSTANDARDJIS
  2
AmdtAnViewStdJIS
  3
"Amdt_StdImp|Product Description: AutoCAD Mechanical|Company: Autodesk, Inc."
 90
    33792
280
     0
281
     0
  0
CLASS
  1
AMDTEDGESTANDARDJIS
  2
AmdtEdgeStdJIS
  3
"Amdt_StdImp|Product Description: AutoCAD Mechanical|Company: Autodesk, Inc."
 90
    33792
280
     0
281
     0
  0
CLASS
  1
CELLSTYLEMAP
  2
AcDbCellStyleMap
  3
ObjectDBX Classes
 90
     1152
280
     0
281
     0
  0
CLASS
  1
AEC_REFEDIT_STATUS_TRACKER
  2
AecDbRefEditStatusTracker
  3
AecArchBase60|Product Desc: Autodesk Architectural Desktop 2007 |Company: Autodesk,Inc. |WEB Address: www.autodesk.com
 90
      129
280
     0
281
     0
  0
CLASS
  1
NPOCOLLECTION
  2
AcDbImpNonPersistentObjectsCollection
  3
ObjectDBX Classes
 90
     1153
280
     0
281
     0
  0
CLASS
  1
ACDBPLACEHOLDER
  2
AcDbPlaceHolder
  3
ObjectDBX Classes
 90
        0
280
     0
281
     0
  0
CLASS
  1
LAYOUT
  2
AcDbLayout
  3
ObjectDBX Classes
 90
        0
280
     0
281
     0
  0
ENDSEC
  0
SECTION
  2
TABLES
  0
TABLE
  2
VPORT
  5
7
330
0
100
AcDbSymbolTable
 70
     1
  0
VPORT
  5
15
330
7
100
AcDbSymbolTableRecord
100
AcDbViewportTableRecord
  2
*ACTIVE
 70
     0
 10
0.0
 20
0.0
 11
1.0
 21
1.0
 12
317.097690679459
 22
145.922641807248
 13
0.0
 23
0.0
 14
1.0
 24
1.0
 15
0.0
 25
0.0
 16
0.0
 26
0.0
 36
1.0
 17
0.0
 27
0.0
 37
0.0
 40
3266.425331551879
 41
1.550978372811534
 42
50.0
 43
0.0
 44
0.0
 50
0.0
 51
0.0
 71
     0
 72
   100
 73
     1
 74
     1
 75
     0
 76
     0
 77
     0
 78
     0
281
     0
 65
     0
110
0.0
120
0.0
130
0.0
111
1.0
121
0.0
131
0.0
112
0.0
122
1.0
132
0.0
 79
     0
146
0.0
  0
ENDTAB
  0
TABLE
  2
LTYPE
  5
4
330
0
100
AcDbSymbolTable
 70
    21
  0
LTYPE
  5
11
330
4
100
AcDbSymbolTableRecord
100
AcDbLinetypeTableRecord
  2
BYBLOCK
 70
     0
  3

 72
    65
 73
     0
 40
0.0
  0
LTYPE
  5
12
330
4
100
AcDbSymbolTableRecord
100
AcDbLinetypeTableRecord
  2
BYLAYER
 70
     0
  3

 72
    65
 73
     0
 40
0.0
  0
LTYPE
  5
13
330
4
100
AcDbSymbolTableRecord
100
AcDbLinetypeTableRecord
  2
CONTINUOUS
 70
     0
  3
Solid line
 72
    65
 73
     0
 40
0.0
  0
LTYPE
  5
127
330
4
100
AcDbSymbolTableRecord
100
AcDbLinetypeTableRecord
  2
CENTER
 70
     0
  3
Center ____ _ ____ _ ____ _ ____ _ ____ _ ____
 72
    65
 73
     4
 40
50.8
 49
31.75
 74
     0
 49
-6.349999999999998
 74
     0
 49
6.349999999999998
 74
     0
 49
-6.349999999999998
 74
     0
  0
LTYPE
  5
213
330
4
100
AcDbSymbolTableRecord
100
AcDbLinetypeTableRecord
  2
NON_PLOTING
 70
     0
  3
Solid line
 72
    65
 73
     0
 40
0.0
  0
LTYPE
  5
28F
330
4
100
AcDbSymbolTableRecord
100
AcDbLinetypeTableRecord
  2
HIDDEN
 70
     0
  3
Hidden __ __ __ __ __ __ __ __ __ __ __ __ __ _
 72
    65
 73
     2
 40
9.524999999999996
 49
6.349999999999998
 74
     0
 49
-3.174999999999998
 74
     0
  0
LTYPE
  5
290
330
4
100
AcDbSymbolTableRecord
100
AcDbLinetypeTableRecord
  2
PHANTOM2
 70
     0
  3
Phantom (.5x) ___ _ _ ___ _ _ ___ _ _ ___ _ _
 72
    65
 73
     6
 40
31.75
 49
15.875
 74
     0
 49
-3.174999999999998
 74
     0
 49
3.174999999999998
 74
     0
 49
-3.174999999999998
 74
     0
 49
3.174999999999998
 74
     0
 49
-3.174999999999998
 74
     0
  0
LTYPE
  5
2D6
330
4
100
AcDbSymbolTableRecord
100
AcDbLinetypeTableRecord
  2
AM_ISO02W050
 70
     0
  3
__ __ __ __ __ __ __ __ __ __ __ __ __ __ __
 72
    65
 73
     2
 40
7.5
 49
6.0
 74
     0
 49
-1.5
 74
     0
  0
LTYPE
  5
2D7
330
4
100
AcDbSymbolTableRecord
100
AcDbLinetypeTableRecord
  2
AM_ISO08W050
 70
     0
  3
____ . ____ . ____ . ____ . ____ . ____ . ____
 72
    65
 73
     4
 40
18.0
 49
12.0
 74
     0
 49
-1.5
 74
     0
 49
3.0
 74
     0
 49
-1.5
 74
     0
  0
LTYPE
  5
2D8
330
4
100
AcDbSymbolTableRecord
100
AcDbLinetypeTableRecord
  2
AM_ISO09W050
 70
     0
  3
_____ . . _____ . . _____ . . ____ .. ____
 72
    65
 73
     6
 40
22.5
 49
12.0
 74
     0
 49
-1.5
 74
     0
 49
3.0
 74
     0
 49
-1.5
 74
     0
 49
3.0
 74
     0
 49
-1.5
 74
     0
  0
LTYPE
  5
2D9
330
4
100
AcDbSymbolTableRecord
100
AcDbLinetypeTableRecord
  2
Amconstr
 70
     0
  3
_______________________
 72
    65
 73
     2
 40
9999.0
 49
9999.0
 74
     0
 49
0.0
 74
     0
  0
LTYPE
  5
2DA
330
4
100
AcDbSymbolTableRecord
100
AcDbLinetypeTableRecord
  2
AM_ISO08W050x2
 70
     0
  3
__ . __ . __ . __ . __ . __
 72
    65
 73
     4
 40
9.0
 49
6.0
 74
     0
 49
-0.75
 74
     0
 49
1.5
 74
     0
 49
-0.75
 74
     0
  0
LTYPE
  5
2DB
330
4
100
AcDbSymbolTableRecord
100
AcDbLinetypeTableRecord
  2
AM_ISO02W050x2
 70
     0
  3
 _ _ _ _ _ _ _ _ _ _ _ _
 72
    65
 73
     2
 40
3.75
 49
3.0
 74
     0
 49
-0.75
 74
     0
  0
LTYPE
  5
2DE
330
4
100
AcDbSymbolTableRecord
100
AcDbLinetypeTableRecord
  2
Amzigzag
 70
     0
  3
/\/-/\/-/\/-/\/-/\/-/\/
 72
    65
 73
     2
 40
11.0001
 49
0.0001
 74
     4
 75
   136
340
2DD
 46
0.04
 50
0.0
 44
0.0
 45
0.0
 49
-11.0
 74
     0
  0
LTYPE
  5
2ED
330
4
100
AcDbSymbolTableRecord
100
AcDbLinetypeTableRecord
  2
ACISOWELD
 70
     0
  3
_ _ _ _ _
 72
    65
 73
     2
 40
2.0
 49
2.0
 74
     0
 49
-1.0
 74
     0
  0
LTYPE
  5
2EE
330
4
100
AcDbSymbolTableRecord
100
AcDbLinetypeTableRecord
  2
ACISOTGB
 70
     0
  3
__ . . __ . .
 72
    65
 73
     6
 40
9.0
 49
4.0
 74
     0
 49
-1.0
 74
     0
 49
1.0
 74
     0
 49
-1.0
 74
     0
 49
1.0
 74
     0
 49
-1.0
 74
     0
  0
LTYPE
  5
2EF
330
4
100
AcDbSymbolTableRecord
100
AcDbLinetypeTableRecord
  2
ACISOTGL
 70
     0
  3
_ _ _ _ _
 72
    65
 73
     2
 40
3.0
 49
2.0
 74
     0
 49
-1.0
 74
     0
  0
LTYPE
  5
43A
330
4
100
AcDbSymbolTableRecord
100
AcDbLinetypeTableRecord
  2
CENTER2
 70
     0
  3
Center (.5x) ___ _ ___ _ ___ _ ___ _ ___ _ ___
 72
    65
 73
     4
 40
28.575
 49
19.05
 74
     0
 49
-3.174999999999998
 74
     0
 49
3.174999999999998
 74
     0
 49
-3.174999999999998
 74
     0
  0
LTYPE
  5
43B
330
4
100
AcDbSymbolTableRecord
100
AcDbLinetypeTableRecord
  2
HIDDEN2
 70
     0
  3
Hidden (.5x) _ _ _ _ _ _ _ _ _ _ _ _ _ _ _ _ _
 72
    65
 73
     2
 40
4.762499999999998
 49
3.174999999999998
 74
     0
 49
-1.587499999999999
 74
     0
  0
LTYPE
  5
43C
330
4
100
AcDbSymbolTableRecord
100
AcDbLinetypeTableRecord
  2
ACJISWELD
 70
     0
  3
_ _ _ _ _
 72
    65
 73
     2
 40
2.0
 49
2.0
 74
     0
 49
-1.0
 74
     0
  0
LTYPE
  5
43D
330
4
100
AcDbSymbolTableRecord
100
AcDbLinetypeTableRecord
  2
ACJISTGB
 70
     0
  3
__ . . __ . .
 72
    65
 73
     6
 40
9.0
 49
4.0
 74
     0
 49
-1.0
 74
     0
 49
1.0
 74
     0
 49
-1.0
 74
     0
 49
1.0
 74
     0
 49
-1.0
 74
     0
  0
LTYPE
  5
43E
330
4
100
AcDbSymbolTableRecord
100
AcDbLinetypeTableRecord
  2
ACJISTGL
 70
     0
  3
_ _ _ _ _
 72
    65
 73
     2
 40
3.0
 49
2.0
 74
     0
 49
-1.0
 74
     0
  0
ENDTAB
  0
TABLE
  2
LAYER
  5
2
102
{ACAD_XDICTIONARY
360
3CD
102
}
330
0
100
AcDbSymbolTable
 70
     9
  0
LAYER
  5
14
102
{ACAD_XDICTIONARY
360
2F6
102
}
330
2
100
AcDbSymbolTableRecord
100
AcDbLayerTableRecord
  2
0
 70
     0
 62
     7
  6
CONTINUOUS
370
    -3
390
1D
  0
LAYER
  5
23
330
2
100
AcDbSymbolTableRecord
100
AcDbLayerTableRecord
  2
DEFPOINTS
 70
     0
 62
     7
  6
CONTINUOUS
290
     0
370
    -3
390
1D
  0
LAYER
  5
24
102
{ACAD_XDICTIONARY
360
2F8
102
}
330
2
100
AcDbSymbolTableRecord
100
AcDbLayerTableRecord
  2
PV
 70
     0
 62
     7
  6
CONTINUOUS
370
    -3
390
1D
  0
LAYER
  5
25
102
{ACAD_XDICTIONARY
360
2FA
102
}
330
2
100
AcDbSymbolTableRecord
100
AcDbLayerTableRecord
  2
FV
 70
     0
 62
     7
  6
CONTINUOUS
370
    -3
390
1D
  0
LAYER
  5
4CB
330
2
100
AcDbSymbolTableRecord
100
AcDbLayerTableRecord
  2
AM_5
 70
     0
 62
     3
  6
CONTINUOUS
370
    25
390
1D
1001
AcAecLayerStandard
1000

1000

  0
LAYER
  5
D14
102
{ACAD_XDICTIONARY
360
D15
102
}
330
2
100
AcDbSymbolTableRecord
100
AcDbLayerTableRecord
  2
HIDDEN1
 70
     0
 62
     3
  6
HIDDEN
370
    18
390
1D
  0
LAYER
  5
D16
102
{ACAD_XDICTIONARY
360
D17
102
}
330
2
100
AcDbSymbolTableRecord
100
AcDbLayerTableRecord
  2
HATCH
 70
     0
 62
     7
  6
CONTINUOUS
370
    18
390
1D
  0
LAYER
  5
D18
102
{ACAD_XDICTIONARY
360
D19
102
}
330
2
100
AcDbSymbolTableRecord
100
AcDbLayerTableRecord
  2
M1
 70
     0
 62
     7
  6
CONTINUOUS
370
    -3
390
1D
  0
LAYER
  5
D1A
102
{ACAD_XDICTIONARY
360
D1B
102
}
330
2
100
AcDbSymbolTableRecord
100
AcDbLayerTableRecord
  2
M2
 70
     0
 62
     7
  6
CONTINUOUS
370
    -3
390
1D
  0
ENDTAB
  0
TABLE
  2
STYLE
  5
3
330
0
100
AcDbSymbolTable
 70
    12
  0
STYLE
  5
17
330
3
100
AcDbSymbolTableRecord
100
AcDbTextStyleTableRecord
  2
MX_NOTE_STANDARD
 70
     0
 40
0.0
 41
1.0
 50
0.0
 71
     0
 42
25.00199815624958
  3
txt.shx
  4
extfont.shx
  0
STYLE
  5
A1
330
3
100
AcDbSymbolTableRecord
100
AcDbTextStyleTableRecord
  2
MX_DIMTXSTY_2
 70
     0
 40
0.0
 41
1.35
 50
0.0
 71
     0
 42
25.00199815624958
  3
txt.shx
  4
extfont.shx
  0
STYLE
  5
B0
330
3
100
AcDbSymbolTableRecord
100
AcDbTextStyleTableRecord
  2
MX_DIMTXSTY_3
 70
     0
 40
0.0
 41
1.1
 50
0.0
 71
     0
 42
25.00199815624958
  3
txt.shx
  4
extfont.shx
  0
STYLE
  5
CF
330
3
100
AcDbSymbolTableRecord
100
AcDbTextStyleTableRecord
  2
MX_DIMTXSTY_4
 70
     0
 40
0.0
 41
0.85
 50
0.0
 71
     0
 42
25.00199815624958
  3
txt.shx
  4
extfont.shx
  0
STYLE
  5
DD
330
3
100
AcDbSymbolTableRecord
100
AcDbTextStyleTableRecord
  2
MX_DIMTXSTY_5
 70
     0
 40
0.0
 41
0.8
 50
0.0
 71
     0
 42
25.00199815624958
  3
txt.shx
  4
extfont.shx
  0
STYLE
  5
2DD
330
3
100
AcDbSymbolTableRecord
100
AcDbTextStyleTableRecord
  2

 70
     1
 40
0.0
 41
1.0
 50
0.0
 71
     0
 42
25.00199815624958
  3
genltshp.shx
  4

  0
STYLE
  5
2EB
330
3
100
AcDbSymbolTableRecord
100
AcDbTextStyleTableRecord
  2
ACISOTS
 70
     0
 40
1.0
 41
1.0
 50
0.0
 71
     0
 42
25.00199815624958
  3
isocp.shx
  4
extfont.shx
  0
STYLE
  5
2EC
330
3
100
AcDbSymbolTableRecord
100
AcDbTextStyleTableRecord
  2
ACISOGDT
 70
     0
 40
0.0
 41
1.0
 50
0.0
 71
     0
 42
25.00199815624958
  3
amgdt.shx
  4

  0
STYLE
  5
43F
330
3
100
AcDbSymbolTableRecord
100
AcDbTextStyleTableRecord
  2

 70
     1
 40
0.0
 41
1.0
 50
0.0
 71
     0
 42
2.5
  3
ltypeshp.shx
  4

  0
STYLE
  5
440
330
3
100
AcDbSymbolTableRecord
100
AcDbTextStyleTableRecord
  2
ULVAC
 70
     0
 40
0.0
 41
1.0
 50
0.0
 71
     0
 42
4.0
  3
extslim2.shx
  4
extfont2.shx
  0
STYLE
  5
441
330
3
100
AcDbSymbolTableRecord
100
AcDbTextStyleTableRecord
  2
ACJISGDT
 70
     0
 40
0.0
 41
1.0
 50
0.0
 71
     0
 42
2.5
  3
amgdt.shx
  4
extfont.shx
  0
STYLE
  5
B4C
330
3
100
AcDbSymbolTableRecord
100
AcDbTextStyleTableRecord
  2
Standard
 70
     0
 40
0.0
 41
1.0
 50
0.0
 71
     0
 42
0.2
  3

  4

  0
ENDTAB
  0
TABLE
  2
VIEW
  5
5
330
0
100
AcDbSymbolTable
 70
     0
  0
ENDTAB
  0
TABLE
  2
UCS
  5
6
330
0
100
AcDbSymbolTable
 70
     0
  0
ENDTAB
  0
TABLE
  2
APPID
  5
8
330
0
100
AcDbSymbolTable
 70
    23
  0
APPID
  5
16
330
8
100
AcDbSymbolTableRecord
100
AcDbRegAppTableRecord
  2
ACAD
 70
     0
  0
APPID
  5
264
330
8
100
AcDbSymbolTableRecord
100
AcDbRegAppTableRecord
  2
MCAD_NO_VIS
 70
     0
  0
APPID
  5
265
330
8
100
AcDbSymbolTableRecord
100
AcDbRegAppTableRecord
  2
ACAD_TEMP_GRAPHIC
 70
     0
  0
APPID
  5
292
330
8
100
AcDbSymbolTableRecord
100
AcDbRegAppTableRecord
  2
AD_DRAW
 70
     0
  0
APPID
  5
295
330
8
100
AcDbSymbolTableRecord
100
AcDbRegAppTableRecord
  2
ACATTRIBSERVICES
 70
     0
  0
APPID
  5
2B5
330
8
100
AcDbSymbolTableRecord
100
AcDbRegAppTableRecord
  2
DESIGNERASSEMBLIES
 70
     0
  0
APPID
  5
2BB
330
8
100
AcDbSymbolTableRecord
100
AcDbRegAppTableRecord
  2
ACADM_DIM_EDIT
 70
     0
  0
APPID
  5
2BC
330
8
100
AcDbSymbolTableRecord
100
AcDbRegAppTableRecord
  2
AMDT_DM_ADJ
 70
     0
  0
APPID
  5
2D3
330
8
100
AcDbSymbolTableRecord
100
AcDbRegAppTableRecord
  2
ACAD_DSTYLE_DIMJAG
 70
     0
  0
APPID
  5
2D4
330
8
100
AcDbSymbolTableRecord
100
AcDbRegAppTableRecord
  2
ACAD_DSTYLE_DIMBREAK
 70
     0
  0
APPID
  5
2FF
330
8
100
AcDbSymbolTableRecord
100
AcDbRegAppTableRecord
  2
DCO15
 70
     0
  0
APPID
  5
309
330
8
100
AcDbSymbolTableRecord
100
AcDbRegAppTableRecord
  2
ACAD_EXEMPT_FROM_CAD_STANDARDS
 70
     0
  0
APPID
  5
3CC
330
8
100
AcDbSymbolTableRecord
100
AcDbRegAppTableRecord
  2
ACAD_PSEXT
 70
     0
  0
APPID
  5
44B
330
8
100
AcDbSymbolTableRecord
100
AcDbRegAppTableRecord
  2
ACAD_DSTYLE_DIMTEXT_FILL
 70
     0
  0
APPID
  5
44C
330
8
100
AcDbSymbolTableRecord
100
AcDbRegAppTableRecord
  2
ACAD_DSTYLE_DIMTALN
 70
     0
  0
APPID
  5
4CC
330
8
100
AcDbSymbolTableRecord
100
AcDbRegAppTableRecord
  2
AcAecLayerStandard
 70
     0
  0
APPID
  5
4E5
330
8
100
AcDbSymbolTableRecord
100
AcDbRegAppTableRecord
  2
ACAD_DSTYLE_DIMINSPECT
 70
     0
  0
APPID
  5
564
330
8
100
AcDbSymbolTableRecord
100
AcDbRegAppTableRecord
  2
GENIUS_GENDTOL_13
 70
     0
  0
APPID
  5
D64
330
8
100
AcDbSymbolTableRecord
100
AcDbRegAppTableRecord
  2
ACAD_MLEADERVER
 70
     0
  0
APPID
  5
D65
330
8
100
AcDbSymbolTableRecord
100
AcDbRegAppTableRecord
  2
ACAD_DSTYLE_DIMARC_LENGTH_SYMBOL
 70
     0
  0
APPID
  5
D66
330
8
100
AcDbSymbolTableRecord
100
AcDbRegAppTableRecord
  2
ACAD_DSTYLE_DIM_LINETYPE
 70
     0
  0
APPID
  5
D67
330
8
100
AcDbSymbolTableRecord
100
AcDbRegAppTableRecord
  2
ACAD_DSTYLE_DIM_EXT1_LINETYPE
 70
     0
  0
APPID
  5
D68
330
8
100
AcDbSymbolTableRecord
100
AcDbRegAppTableRecord
  2
ACAD_DSTYLE_DIM_EXT2_LINETYPE
 70
     0
  0
ENDTAB
  0
TABLE
  2
DIMSTYLE
  5
9
330
0
100
AcDbSymbolTable
 70
    18
100
AcDbDimStyleTable
 71
     1
340
18
  0
DIMSTYLE
105
18
102
{ACAD_REACTORS
330
D5
330
E3
102
}
330
9
100
AcDbSymbolTableRecord
100
AcDbDimStyleTableRecord
  2
MXDIMSTYLE
 70
     0
 40
5.999999821186071
 41
2.5
 42
1.269999980926513
 43
3.75
 44
1.200000047683715
 73
     0
 74
     0
 77
     1
 78
     8
140
4.166999816894531
141
2.5
143
0.03937007874016
144
0.1666666716337204
147
1.0
171
     4
172
     1
274
     4
288
     1
340
17
  0
DIMSTYLE
105
2D2
102
{ACAD_REACTORS
330
BAC
102
}
330
9
100
AcDbSymbolTableRecord
100
AcDbDimStyleTableRecord
  2
AM_ISO
 70
     0
  4
"
 41
3.5
 42
1.0
 43
10.0
 44
1.0
 47
0.1
 48
0.1
 73
     0
 74
     0
 77
     1
 78
     8
 79
     2
140
3.5
141
0.0
143
0.0393701
146
0.71
147
1.5
172
     1
176
   256
177
   256
178
     2
271
     2
272
     3
274
     4
283
     0
284
     8
340
17
371
    -1
372
    -1
1001
ACAD_DSTYLE_DIMJAG
1070
   388
1040
1.5
1001
ACAD_DSTYLE_DIMBREAK
1070
   391
1040
3.75
1001
ACAD_DSTYLE_DIMARC_LENGTH_SYMBOL
1070
   379
1070
     1
1001
ACAD_DSTYLE_DIM_LINETYPE
1070
   380
1005
11
1001
ACAD_DSTYLE_DIM_EXT1_LINETYPE
1070
   381
1005
11
1001
ACAD_DSTYLE_DIM_EXT2_LINETYPE
1070
   382
1005
11
  0
DIMSTYLE
105
2DF
330
9
100
AcDbSymbolTableRecord
100
AcDbDimStyleTableRecord
  2
AM_ISO$3
 70
     0
  4
"
 41
3.5
 42
1.0
 43
10.0
 44
1.0
 47
0.1
 48
0.1
 73
     0
 77
     1
 78
     8
 79
     2
140
3.5
141
0.0
143
0.0393701
146
0.71
147
1.5
176
   256
177
   256
178
     2
271
     2
272
     3
274
     4
283
     0
284
     8
288
     1
289
     0
340
17
371
    -1
372
    -1
1001
ACAD_DSTYLE_DIMBREAK
1070
   391
1040
3.75
1001
ACAD_DSTYLE_DIMJAG
1070
   388
1040
1.5
1001
ACAD_DSTYLE_DIMARC_LENGTH_SYMBOL
1070
   379
1070
     1
1001
ACAD_DSTYLE_DIM_LINETYPE
1070
   380
1005
11
1001
ACAD_DSTYLE_DIM_EXT1_LINETYPE
1070
   381
1005
11
1001
ACAD_DSTYLE_DIM_EXT2_LINETYPE
1070
   382
1005
11
  0
DIMSTYLE
105
2E0
330
9
100
AcDbSymbolTableRecord
100
AcDbDimStyleTableRecord
  2
AM_ISO$4
 70
     0
  4
"
 41
3.5
 42
1.0
 43
10.0
 44
1.0
 47
0.1
 48
0.1
 73
     0
 77
     1
 78
     8
 79
     2
140
3.5
141
0.0
143
0.0393701
146
0.71
147
1.5
176
   256
177
   256
178
     2
271
     2
272
     3
274
     4
283
     0
284
     8
288
     1
289
     0
340
17
371
    -1
372
    -1
1001
ACAD_DSTYLE_DIMBREAK
1070
   391
1040
3.75
1001
ACAD_DSTYLE_DIMJAG
1070
   388
1040
1.5
1001
ACAD_DSTYLE_DIMARC_LENGTH_SYMBOL
1070
   379
1070
     1
1001
ACAD_DSTYLE_DIM_LINETYPE
1070
   380
1005
11
1001
ACAD_DSTYLE_DIM_EXT1_LINETYPE
1070
   381
1005
11
1001
ACAD_DSTYLE_DIM_EXT2_LINETYPE
1070
   382
1005
11
  0
DIMSTYLE
105
2E1
330
9
100
AcDbSymbolTableRecord
100
AcDbDimStyleTableRecord
  2
AM_ISO$6
 70
     0
  4
"
 41
3.5
 42
1.0
 43
10.0
 44
1.0
 47
0.1
 48
0.1
 73
     0
 74
     0
 78
     8
 79
     2
140
3.5
141
0.0
143
0.0393701
146
0.71
147
1.5
172
     1
176
   256
177
   256
178
     2
271
     2
272
     3
274
     4
283
     0
284
     8
340
17
371
    -1
372
    -1
1001
ACAD_DSTYLE_DIMBREAK
1070
   391
1040
3.75
1001
ACAD_DSTYLE_DIMJAG
1070
   388
1040
1.5
1001
ACAD_DSTYLE_DIMARC_LENGTH_SYMBOL
1070
   379
1070
     1
1001
ACAD_DSTYLE_DIM_LINETYPE
1070
   380
1005
11
1001
ACAD_DSTYLE_DIM_EXT1_LINETYPE
1070
   381
1005
11
1001
ACAD_DSTYLE_DIM_EXT2_LINETYPE
1070
   382
1005
11
  0
DIMSTYLE
105
2E2
330
9
100
AcDbSymbolTableRecord
100
AcDbDimStyleTableRecord
  2
AM_ISO$7
 70
     0
  4
"
 41
3.5
 42
1.0
 43
10.0
 44
1.0
 47
0.1
 48
0.1
 73
     0
 74
     0
 77
     1
 78
     8
 79
     2
140
3.5
141
0.0
143
0.0393701
146
0.71
147
1.5
172
     1
176
   256
177
   256
178
     2
271
     2
272
     3
274
     4
283
     0
284
     8
340
17
371
    -1
372
    -1
1001
ACAD_DSTYLE_DIMBREAK
1070
   391
1040
3.75
1001
ACAD_DSTYLE_DIMJAG
1070
   388
1040
1.5
1001
ACAD_DSTYLE_DIMARC_LENGTH_SYMBOL
1070
   379
1070
     1
1001
ACAD_DSTYLE_DIM_LINETYPE
1070
   380
1005
11
1001
ACAD_DSTYLE_DIM_EXT1_LINETYPE
1070
   381
1005
11
1001
ACAD_DSTYLE_DIM_EXT2_LINETYPE
1070
   382
1005
11
  0
DIMSTYLE
105
2E3
330
9
100
AcDbSymbolTableRecord
100
AcDbDimStyleTableRecord
  2
AM_ISO$SF
 70
     0
  4
"
 41
3.5
 42
1.0
 43
10.0
 44
1.0
 47
0.1
 48
0.1
 73
     0
 74
     0
 75
     1
 76
     1
 77
     1
 78
     8
 79
     2
140
3.5
141
0.0
143
0.0393701
146
0.71
147
1.5
172
     1
176
   256
177
   256
178
     2
271
     2
272
     3
274
     4
283
     0
284
     8
340
17
371
    -1
372
    -1
1001
ACAD_DSTYLE_DIMBREAK
1070
   391
1040
3.75
1001
ACAD_DSTYLE_DIMJAG
1070
   388
1040
1.5
1001
ACAD_DSTYLE_DIMARC_LENGTH_SYMBOL
1070
   379
1070
     1
1001
ACAD_DSTYLE_DIM_LINETYPE
1070
   380
1005
11
1001
ACAD_DSTYLE_DIM_EXT1_LINETYPE
1070
   381
1005
11
1001
ACAD_DSTYLE_DIM_EXT2_LINETYPE
1070
   382
1005
11
  0
DIMSTYLE
105
2E8
330
9
100
AcDbSymbolTableRecord
100
AcDbDimStyleTableRecord
  2
AM_ISO$SH
 70
     0
  4
"
 41
3.5
 42
1.0
 43
10.0
 44
1.0
 47
0.1
 48
0.1
 73
     0
 74
     0
 75
     1
 76
     1
 77
     1
 78
     8
 79
     2
140
3.5
141
0.0
143
0.0393701
144
2.0
146
0.71
147
1.5
172
     1
173
     1
176
   256
177
   256
178
     2
271
     2
272
     3
274
     4
283
     0
284
     8
340
17
343
2E4
371
    -1
372
    -1
1001
ACAD_DSTYLE_DIMBREAK
1070
   391
1040
3.75
1001
ACAD_DSTYLE_DIMJAG
1070
   388
1040
1.5
1001
ACAD_DSTYLE_DIMARC_LENGTH_SYMBOL
1070
   379
1070
     1
1001
ACAD_DSTYLE_DIM_LINETYPE
1070
   380
1005
11
1001
ACAD_DSTYLE_DIM_EXT1_LINETYPE
1070
   381
1005
11
1001
ACAD_DSTYLE_DIM_EXT2_LINETYPE
1070
   382
1005
11
  0
DIMSTYLE
105
442
330
9
100
AcDbSymbolTableRecord
100
AcDbDimStyleTableRecord
  2
ULVAC
 70
     0
 41
2.9
 42
1.269999980926513
 43
10.0
 44
1.200000047683715
 73
     0
 74
     0
 77
     1
 78
     9
 79
     2
140
4.0
141
0.0
143
0.03937007874016
146
0.75
147
1.0
171
     4
172
     1
179
     2
271
     2
272
     2
274
     4
284
     8
288
     1
340
440
341
99
342
99
371
    -1
372
    -1
1001
ACAD_DSTYLE_DIMTEXT_FILL
1070
   376
1070
     1
1070
   377
1004
1800000001000000000000C0000000000000000000000000
1001
ACAD_DSTYLE_DIMJAG
1070
   388
1040
1.5
1001
ACAD_DSTYLE_DIMTALN
1070
   392
1070
     0
1001
ACAD_DSTYLE_DIMARC_LENGTH_SYMBOL
1070
   379
1070
     1
1001
ACAD_DSTYLE_DIM_LINETYPE
1070
   380
1005
12
1001
ACAD_DSTYLE_DIM_EXT1_LINETYPE
1070
   381
1005
12
1001
ACAD_DSTYLE_DIM_EXT2_LINETYPE
1070
   382
1005
12
  0
DIMSTYLE
105
443
330
9
100
AcDbSymbolTableRecord
100
AcDbDimStyleTableRecord
  2
ULVAC$0
 70
     0
 41
2.9
 42
1.269999980926513
 43
10.0
 44
1.200000047683715
 73
     0
 74
     0
 77
     1
 78
     9
140
4.0
141
0.0
143
0.03937007874016
146
0.75
147
1.0
171
     4
172
     1
179
     2
271
     2
272
     2
274
     4
284
     8
288
     1
340
440
341
99
342
99
371
    -1
372
    -1
1001
ACAD_DSTYLE_DIMTEXT_FILL
1070
   376
1070
     1
1070
   377
1004
1800000001000000000000C0000000000000000000000000
1001
ACAD_DSTYLE_DIMBREAK
1070
   391
1040
3.75
1001
ACAD_DSTYLE_DIMJAG
1070
   388
1040
1.5
1001
ACAD_DSTYLE_DIMTALN
1070
   392
1070
     0
1001
ACAD_DSTYLE_DIMARC_LENGTH_SYMBOL
1070
   379
1070
     1
1001
ACAD_DSTYLE_DIM_LINETYPE
1070
   380
1005
12
1001
ACAD_DSTYLE_DIM_EXT1_LINETYPE
1070
   381
1005
12
1001
ACAD_DSTYLE_DIM_EXT2_LINETYPE
1070
   382
1005
12
  0
DIMSTYLE
105
444
330
9
100
AcDbSymbolTableRecord
100
AcDbDimStyleTableRecord
  2
ULVAC$2
 70
     0
 41
2.9
 42
1.269999980926513
 43
10.0
 44
1.200000047683715
 73
     0
 74
     0
 77
     1
 78
     9
 79
     2
140
4.0
141
0.0
143
0.03937007874016
146
0.75
147
1.0
171
     4
172
     1
179
     2
274
     4
284
     8
340
440
341
99
342
99
371
    -1
372
    -1
1001
ACAD_DSTYLE_DIMTEXT_FILL
1070
   376
1070
     1
1070
   377
1004
1800000001000000000000C0000000000000000000000000
1001
ACAD_DSTYLE_DIMBREAK
1070
   391
1040
3.75
1001
ACAD_DSTYLE_DIMJAG
1070
   388
1040
1.5
1001
ACAD_DSTYLE_DIMTALN
1070
   392
1070
     0
1001
ACAD_DSTYLE_DIMARC_LENGTH_SYMBOL
1070
   379
1070
     1
1001
ACAD_DSTYLE_DIM_LINETYPE
1070
   380
1005
12
1001
ACAD_DSTYLE_DIM_EXT1_LINETYPE
1070
   381
1005
12
1001
ACAD_DSTYLE_DIM_EXT2_LINETYPE
1070
   382
1005
12
  0
DIMSTYLE
105
445
330
9
100
AcDbSymbolTableRecord
100
AcDbDimStyleTableRecord
  2
ULVAC$3
 70
     0
 41
2.9
 42
1.269999980926513
 43
10.0
 44
1.200000047683715
 73
     0
 74
     0
 77
     1
 78
     9
140
4.0
141
0.0
143
0.03937007874016
146
0.75
147
1.0
171
     4
172
     1
179
     2
271
     2
272
     2
274
     4
284
     8
288
     1
289
     2
340
440
341
99
342
99
371
    -1
372
    -1
1001
ACAD_DSTYLE_DIMTEXT_FILL
1070
   376
1070
     1
1070
   377
1004
1800000001000000000000C0000000000000000000000000
1001
ACAD_DSTYLE_DIMBREAK
1070
   391
1040
3.75
1001
ACAD_DSTYLE_DIMJAG
1070
   388
1040
1.5
1001
ACAD_DSTYLE_DIMTALN
1070
   392
1070
     0
1001
ACAD_DSTYLE_DIMARC_LENGTH_SYMBOL
1070
   379
1070
     1
1001
ACAD_DSTYLE_DIM_LINETYPE
1070
   380
1005
12
1001
ACAD_DSTYLE_DIM_EXT1_LINETYPE
1070
   381
1005
12
1001
ACAD_DSTYLE_DIM_EXT2_LINETYPE
1070
   382
1005
12
  0
DIMSTYLE
105
446
330
9
100
AcDbSymbolTableRecord
100
AcDbDimStyleTableRecord
  2
ULVAC$4
 70
     0
 41
2.9
 42
1.269999980926513
 43
10.0
 44
1.200000047683715
 73
     0
 74
     0
 77
     1
 78
     9
140
4.0
141
0.0
143
0.03937007874016
146
0.75
147
1.0
171
     4
179
     2
271
     2
272
     2
274
     4
284
     8
288
     1
289
     0
340
440
341
99
342
99
371
    -1
372
    -1
1001
ACAD_DSTYLE_DIMTEXT_FILL
1070
   376
1070
     1
1070
   377
1004
1800000001000000000000C0000000000000000000000000
1001
ACAD_DSTYLE_DIMBREAK
1070
   391
1040
3.75
1001
ACAD_DSTYLE_DIMJAG
1070
   388
1040
1.5
1001
ACAD_DSTYLE_DIMTALN
1070
   392
1070
     0
1001
ACAD_DSTYLE_DIMARC_LENGTH_SYMBOL
1070
   379
1070
     1
1001
ACAD_DSTYLE_DIM_LINETYPE
1070
   380
1005
12
1001
ACAD_DSTYLE_DIM_EXT1_LINETYPE
1070
   381
1005
12
1001
ACAD_DSTYLE_DIM_EXT2_LINETYPE
1070
   382
1005
12
  0
DIMSTYLE
105
447
330
9
100
AcDbSymbolTableRecord
100
AcDbDimStyleTableRecord
  2
ULVAC$6
 70
     0
 41
2.9
 42
1.269999980926513
 43
10.0
 44
1.200000047683715
 73
     0
 74
     0
 77
     1
 78
     9
140
4.0
141
0.0
143
0.03937007874016
146
0.75
147
1.0
171
     4
172
     1
176
   256
179
     2
271
     2
272
     2
274
     4
284
     8
288
     1
340
440
341
99
342
99
371
    -1
372
    -1
1001
ACAD_DSTYLE_DIMTEXT_FILL
1070
   376
1070
     1
1070
   377
1004
1800000001000000000000C0000000000000000000000000
1001
ACAD_DSTYLE_DIMBREAK
1070
   391
1040
3.75
1001
ACAD_DSTYLE_DIMJAG
1070
   388
1040
1.5
1001
ACAD_DSTYLE_DIMTALN
1070
   392
1070
     0
1001
ACAD_DSTYLE_DIMARC_LENGTH_SYMBOL
1070
   379
1070
     1
1001
ACAD_DSTYLE_DIM_LINETYPE
1070
   380
1005
12
1001
ACAD_DSTYLE_DIM_EXT1_LINETYPE
1070
   381
1005
12
1001
ACAD_DSTYLE_DIM_EXT2_LINETYPE
1070
   382
1005
12
  0
DIMSTYLE
105
448
330
9
100
AcDbSymbolTableRecord
100
AcDbDimStyleTableRecord
  2
ULVAC$7
 70
     0
 41
2.9
 42
1.269999980926513
 43
10.0
 44
1.200000047683715
 73
     0
 74
     0
 77
     1
 78
     1
140
4.0
141
0.0
143
0.03937007874016
147
1.0
171
     4
172
     1
177
   256
179
     2
271
     2
272
     2
274
     4
288
     1
340
440
341
99
342
99
371
    -1
1001
ACAD_DSTYLE_DIMTEXT_FILL
1070
   376
1070
     1
1070
   377
1004
1800000001000000000000C0000000000000000000000000
1001
ACAD_DSTYLE_DIMBREAK
1070
   391
1040
3.75
1001
ACAD_DSTYLE_DIMJAG
1070
   388
1040
1.5
1001
ACAD_DSTYLE_DIMTALN
1070
   392
1070
     0
1001
ACAD_DSTYLE_DIMARC_LENGTH_SYMBOL
1070
   379
1070
     1
1001
ACAD_DSTYLE_DIM_LINETYPE
1070
   380
1005
12
1001
ACAD_DSTYLE_DIM_EXT1_LINETYPE
1070
   381
1005
12
1001
ACAD_DSTYLE_DIM_EXT2_LINETYPE
1070
   382
1005
12
  0
DIMSTYLE
105
449
330
9
100
AcDbSymbolTableRecord
100
AcDbDimStyleTableRecord
  2
ULVAC$SF
 70
     0
 41
2.9
 42
1.269999980926513
 43
10.0
 44
1.200000047683715
 73
     0
 74
     0
 77
     1
 78
     9
 79
     2
140
4.0
141
0.0
143
0.03937007874016
144
2.0
146
0.75
147
1.0
171
     4
172
     1
179
     2
271
     2
272
     2
274
     4
284
     8
288
     1
340
440
341
99
342
99
371
    -1
372
    -1
1001
ACAD_DSTYLE_DIMTEXT_FILL
1070
   376
1070
     1
1070
   377
1004
1800000001000000000000C0000000000000000000000000
1001
ACAD_DSTYLE_DIMBREAK
1070
   391
1040
3.75
1001
ACAD_DSTYLE_DIMJAG
1070
   388
1040
1.5
1001
ACAD_DSTYLE_DIMTALN
1070
   392
1070
     0
1001
ACAD_DSTYLE_DIMARC_LENGTH_SYMBOL
1070
   379
1070
     1
1001
ACAD_DSTYLE_DIM_LINETYPE
1070
   380
1005
12
1001
ACAD_DSTYLE_DIM_EXT1_LINETYPE
1070
   381
1005
12
1001
ACAD_DSTYLE_DIM_EXT2_LINETYPE
1070
   382
1005
12
  0
DIMSTYLE
105
44A
330
9
100
AcDbSymbolTableRecord
100
AcDbDimStyleTableRecord
  2
ULVAC$SH
 70
     0
 41
2.9
 42
1.269999980926513
 43
10.0
 44
1.200000047683715
 73
     0
 74
     0
 77
     1
 78
     9
 79
     3
140
4.0
141
0.0
143
0.03937007874016
144
2.0
146
0.75
147
1.0
171
     4
172
     1
179
     2
271
     2
272
     2
274
     4
284
     8
288
     1
340
440
341
99
342
99
371
    -1
372
    -1
1001
ACAD_DSTYLE_DIMTEXT_FILL
1070
   376
1070
     1
1070
   377
1004
1800000001000000000000C0000000000000000000000000
1001
ACAD_DSTYLE_DIMBREAK
1070
   391
1040
3.75
1001
ACAD_DSTYLE_DIMJAG
1070
   388
1040
1.5
1001
ACAD_DSTYLE_DIMTALN
1070
   392
1070
     0
1001
ACAD_DSTYLE_DIMARC_LENGTH_SYMBOL
1070
   379
1070
     2
1001
ACAD_DSTYLE_DIM_LINETYPE
1070
   380
1005
12
1001
ACAD_DSTYLE_DIM_EXT1_LINETYPE
1070
   381
1005
12
1001
ACAD_DSTYLE_DIM_EXT2_LINETYPE
1070
   382
1005
12
  0
DIMSTYLE
105
4CD
102
{ACAD_REACTORS
330
742
330
76A
330
792
330
A39
102
}
330
9
100
AcDbSymbolTableRecord
100
AcDbDimStyleTableRecord
  2
MXDIMSTYLE$0
 70
     0
 40
5.999999821186071
 41
2.5
 42
1.269999980926513
 43
3.75
 44
1.200000047683715
 73
     0
 74
     0
 77
     1
 78
     8
140
4.166999816894531
141
2.5
143
0.03937007874016
144
0.1666666716337204
147
1.0
171
     4
172
     1
274
     4
288
     1
340
17
1001
ACAD_DSTYLE_DIMBREAK
1070
   391
1040
3.75
1001
ACAD_DSTYLE_DIMJAG
1070
   388
1040
1.5
  0
ENDTAB
  0
TABLE
  2
BLOCK_RECORD
  5
1
330
0
100
AcDbSymbolTable
 70
    14
  0
BLOCK_RECORD
  5
A
330
1
100
AcDbSymbolTableRecord
100
AcDbBlockTableRecord
  2
*MODEL_SPACE
340
20
  0
BLOCK_RECORD
  5
B
330
1
100
AcDbSymbolTableRecord
100
AcDbBlockTableRecord
  2
*PAPER_SPACE
340
21
  0
BLOCK_RECORD
  5
26
330
1
100
AcDbSymbolTableRecord
100
AcDbBlockTableRecord
  2
MS_1
340
0
  0
BLOCK_RECORD
  5
27
330
1
100
AcDbSymbolTableRecord
100
AcDbBlockTableRecord
  2
MS_2
340
0
  0
BLOCK_RECORD
  5
99
330
1
100
AcDbSymbolTableRecord
100
AcDbBlockTableRecord
  2
_OPEN30
340
0
102
{BLKREFS
331
93A
331
93B
331
943
331
944
331
94C
331
94D
331
955
331
956
331
95E
331
95F
331
A88
331
A89
102
}
  0
BLOCK_RECORD
  5
C8
330
1
100
AcDbSymbolTableRecord
100
AcDbBlockTableRecord
  2
*D3
340
0
  0
BLOCK_RECORD
  5
D6
330
1
100
AcDbSymbolTableRecord
100
AcDbBlockTableRecord
  2
*D4
340
0
  0
BLOCK_RECORD
  5
1E0
330
1
100
AcDbSymbolTableRecord
100
AcDbBlockTableRecord
  2
*X5
340
0
  0
BLOCK_RECORD
  5
2E4
330
1
100
AcDbSymbolTableRecord
100
AcDbBlockTableRecord
  2
GENAXEH
340
0
  0
BLOCK_RECORD
  5
743
330
1
100
AcDbSymbolTableRecord
100
AcDbBlockTableRecord
  2
*D7
340
0
  0
BLOCK_RECORD
  5
76B
330
1
100
AcDbSymbolTableRecord
100
AcDbBlockTableRecord
  2
*D8
340
0
  0
BLOCK_RECORD
  5
793
330
1
100
AcDbSymbolTableRecord
100
AcDbBlockTableRecord
  2
*D9
340
0
  0
BLOCK_RECORD
  5
A3A
330
1
100
AcDbSymbolTableRecord
100
AcDbBlockTableRecord
  2
*D10
340
0
  0
BLOCK_RECORD
  5
BC7
330
1
100
AcDbSymbolTableRecord
100
AcDbBlockTableRecord
  2
JZB_0006
340
0
102
{BLKREFS
331
D20
331
D2B
102
}
  0
ENDTAB
  0
ENDSEC
  0
SECTION
  2
BLOCKS
  0
BLOCK
  5
D
330
A
100
AcDbEntity
  8
0
100
AcDbBlockBegin
  2
*MODEL_SPACE
 70
     0
 10
0.0
 20
0.0
 30
0.0
  3
*MODEL_SPACE
  1

  0
ENDBLK
  5
E
330
A
100
AcDbEntity
  8
0
100
AcDbBlockEnd
  0
BLOCK
  5
F
330
B
100
AcDbEntity
 67
     1
  8
0
100
AcDbBlockBegin
  2
*PAPER_SPACE
 70
     0
 10
0.0
 20
0.0
 30
0.0
  3
*PAPER_SPACE
  1

  0
ENDBLK
  5
10
330
B
100
AcDbEntity
 67
     1
  8
0
100
AcDbBlockEnd
  0
BLOCK
  5
28
330
26
100
AcDbEntity
  8
0
370
    -2
100
AcDbBlockBegin
  2
MS_1
 70
     0
 10
0.0
 20
0.0
 30
0.0
  3
MS_1
  1

  0
LINE
  5
29
330
26
100
AcDbEntity
  8
0
  6
Continuous
 62
     3
100
AcDbLine
 10
0.0000000000000001
 20
-0.0000000000000016
 30
0.0
 11
5.000000063117226
 21
20.20725965062695
 31
0.0
  0
LINE
  5
2A
330
26
100
AcDbEntity
  8
0
  6
Continuous
 62
     3
100
AcDbLine
 10
-35.00000073604497
 20
-2.88675135881974
 30
0.0
 11
0.000000000000003
 21
-0.0000000000000036
 31
0.0
  0
LINE
  5
2B
330
26
100
AcDbEntity
  8
0
  6
Continuous
 62
     3
100
AcDbLine
 10
-7.499999999999968
 20
12.99038082361223
 30
0.0
 11
4.99999986100903
 21
20.20725923776627
 31
0.0
  0
LINE
  5
2C
330
26
100
AcDbEntity
  8
0
  6
Continuous
 62
     3
100
AcDbLine
 10
-52.50000098787154
 20
21.65063351392746
 30
0.0
 11
-37.50000049393577
 21
30.31088799238205
 31
0.0
  0
LINE
  5
2D
330
26
100
AcDbEntity
  8
0
  6
Continuous
 62
     3
100
AcDbLine
 10
-34.99999952903863
 20
-2.886751592159271
 30
0.0
 11
-22.50000049393577
 21
4.330126345157623
 31
0.0
  0
LINE
  5
2E
330
26
100
AcDbEntity
  8
0
  6
Continuous
 62
     3
100
AcDbLine
 10
-52.500000366432
 20
21.65063592791558
 30
0.0
 11
-22.49999937856046
 21
4.330126971006392
 31
0.0
  0
LINE
  5
2F
330
26
100
AcDbEntity
  8
0
  6
Continuous
 62
     3
100
AcDbLine
 10
-37.49999929355796
 20
30.31088903546333
 30
0.0
 11
-7.499999957498745
 21
12.99038103222847
 31
0.0
  0
POINT
  5
30
330
26
100
AcDbEntity
  8
0
  6
Continuous
 62
     7
100
AcDbPoint
 10
0.0
 20
0.0
 30
0.0
  0
ENDBLK
  5
31
330
26
100
AcDbEntity
  8
0
370
    -2
100
AcDbBlockEnd
  0
BLOCK
  5
32
330
27
100
AcDbEntity
  8
0
370
    -2
100
AcDbBlockBegin
  2
MS_2
 70
     0
 10
0.0
 20
0.0
 30
0.0
  3
MS_2
  1

  0
ELLIPSE
  5
33
330
27
100
AcDbEntity
  8
0
  6
Continuous
 62
     7
100
AcDbEllipse
 10
13.88765144348144
 20
-0.0160179436206818
 30
0.0
 11
1.688363075256346
 21
-0.0000001192092898
 31
0.0
210
0.0
220
0.0
230
1.0
 40
0.9291879639195471
 41
0.2651412738457682
 42
6.006474423724084
  0
ELLIPSE
  5
34
330
27
100
AcDbEntity
  8
0
  6
Continuous
 62
     7
100
AcDbEllipse
 10
13.11491346359253
 20
-0.0160178802907467
 30
0.0
 11
3.015141010284423
 21
-0.0000001825392261
 31
0.0
210
0.0
220
0.0
230
1.0
 40
0.799806870214157
 41
0.7911690653191048
 42
6.104511488825124
  0
ARC
  5
35
330
27
100
AcDbEntity
  8
0
  6
Continuous
 62
     7
100
AcDbCircle
 10
15.41536426544189
 20
1.927800178527831
 30
0.0
 40
0.2915999293327331
100
AcDbArc
 50
231.6715098735924
 51
330.0000128255523
  0
ARC
  5
36
330
27
100
AcDbEntity
  8
0
  6
Continuous
 62
     7
100
AcDbCircle
 10
5.660588264465332
 20
1.256252288818359
 30
0.0
 40
0.1749599575996399
100
AcDbArc
 50
24.9969145885484
 51
155.0011438164944
  0
ARC
  5
37
330
27
100
AcDbEntity
  8
0
  6
Continuous
 62
     7
100
AcDbCircle
 10
6.376239776611327
 20
-0.2784740328788757
 30
0.0
 40
0.1749599575996399
100
AcDbArc
 50
270.000127269116
 51
24.99996426801281
  0
ARC
  5
38
330
27
100
AcDbEntity
  8
0
  6
Continuous
 62
     7
100
AcDbCircle
 10
4.94492721557617
 20
-0.2784740328788757
 30
0.0
 40
0.1749599575996399
100
AcDbArc
 50
154.9993952880669
 51
270.0014213625927
  0
ARC
  5
39
330
27
100
AcDbEntity
  8
0
  6
Continuous
 62
     7
100
AcDbCircle
 10
4.663116455078125
 20
-1.526512145996093
 30
0.0
 40
0.3499199151992798
100
AcDbArc
 50
89.99867061759001
 51
235.001073187346
  0
ARC
  5
3A
330
27
100
AcDbEntity
  8
0
  6
Continuous
 62
     7
100
AcDbCircle
 10
6.725593566894531
 20
-1.588626861572264
 30
0.0
 40
0.412037193775177
100
AcDbArc
 50
314.9998382383154
 51
359.9999826971572
  0
ARC
  5
3B
330
27
100
AcDbEntity
  8
0
  6
Continuous
 62
     7
100
AcDbCircle
 10
6.725593566894531
 20
-1.588626861572264
 30
0.0
 40
0.412037193775177
100
AcDbArc
 50
0.0
 51
89.99998201391065
  0
ARC
  5
3C
330
27
100
AcDbEntity
  8
0
  6
Continuous
 62
     7
100
AcDbCircle
 10
9.706324577331542
 20
-1.348008155822753
 30
0.0
 40
0.2915999293327331
100
AcDbArc
 50
205.0009325610132
 51
236.0005930525732
  0
ARC
  5
3D
330
27
100
AcDbEntity
  8
0
  6
Continuous
 62
     7
100
AcDbCircle
 10
3.028962135314941
 20
-1.434097290039061
 30
0.0
 40
0.2915999293327331
100
AcDbArc
 50
303.9994463347001
 51
334.9993902791106
  0
ARC
  5
3E
330
27
100
AcDbEntity
  8
0
  6
Continuous
 62
     7
100
AcDbCircle
 10
3.32199478149414
 20
1.34463596343994
 30
0.0
 40
0.2915999293327331
100
AcDbArc
 50
123.9996255134803
 51
154.9999417032005
  0
ARC
  5
3F
330
27
100
AcDbEntity
  8
0
  6
Continuous
 62
     7
100
AcDbCircle
 10
2.03849411010742
 20
1.393499374389647
 30
0.0
 40
0.2915999293327331
100
AcDbArc
 50
334.9988882602066
 51
55.99856608025141
  0
ARC
  5
40
330
27
100
AcDbEntity
  8
0
  6
Continuous
 62
     7
100
AcDbCircle
 10
-0.3615722060203552
 20
1.613658905029295
 30
0.0
 40
0.2915999293327331
100
AcDbArc
 50
124.0006090607208
 51
205.0002595600088
  0
ARC
  5
41
330
27
100
AcDbEntity
  8
0
  6
Continuous
 62
     7
100
AcDbCircle
 10
-3.196181297302246
 20
1.34463596343994
 30
0.0
 40
0.2915999293327331
100
AcDbArc
 50
24.99991645668862
 51
55.99987747657205
  0
ARC
  5
42
330
27
100
AcDbEntity
  8
0
  6
Continuous
 62
     7
100
AcDbCircle
 10
0.8897945284843443
 20
-1.345890045166014
 30
0.0
 40
0.1749599575996399
100
AcDbArc
 50
205.0003861458796
 51
335.0002986942702
  0
ARC
  5
43
330
27
100
AcDbEntity
  8
0
  6
Continuous
 62
     7
100
AcDbCircle
 10
-3.499093055725096
 20
-1.188255310058593
 30
0.0
 40
0.2915999293327331
100
AcDbArc
 50
270.0001819106294
 51
315.0003163515573
  0
ARC
  5
44
330
27
100
AcDbEntity
  8
0
  6
Continuous
 62
     7
100
AcDbCircle
 10
-5.769119262695312
 20
1.298173904418945
 30
0.0
 40
0.2915999293327331
100
AcDbArc
 50
133.0006673677765
 51
180.0005650844682
  0
ARC
  5
45
330
27
100
AcDbEntity
  8
0
  6
Continuous
 62
     7
100
AcDbCircle
 10
-8.451834678649902
 20
-1.330237388610839
 30
0.0
 40
0.2915999293327331
100
AcDbArc
 50
312.9995866040259
 51
359.999929587228
  0
ARC
  5
46
330
27
100
AcDbEntity
  8
0
  6
Continuous
 62
     7
100
AcDbCircle
 10
-8.451834678649902
 20
1.298173904418945
 30
0.0
 40
0.2915999293327331
100
AcDbArc
 50
359.9986770302107
 51
46.99901320719422
  0
ARC
  5
47
330
27
100
AcDbEntity
  8
0
  6
Continuous
 62
     7
100
AcDbCircle
 10
-13.72395610809326
 20
-0.3850881457328796
 30
0.0
 40
1.749599456787109
100
AcDbArc
 50
180.0001452552054
 51
235.1504803877167
  0
ARC
  5
48
330
27
100
AcDbEntity
  8
0
  6
Continuous
 62
     7
100
AcDbCircle
 10
-11.81398010253906
 20
-0.3535323739051819
 30
0.0
 40
1.749599456787109
100
AcDbArc
 50
306.7425459280256
 51
359.9999624930069
  0
ARC
  5
49
330
27
100
AcDbEntity
  8
0
  6
Continuous
 62
     7
100
AcDbCircle
 10
-11.60986709594726
 20
-0.8664843440055847
 30
0.0
 40
0.5831999182701111
100
AcDbArc
 50
319.8303563401182
 51
359.9992788485525
  0
ARC
  5
4A
330
27
100
AcDbEntity
  8
0
  6
Continuous
 62
     7
100
AcDbCircle
 10
-12.79084777832031
 20
-0.8664664626121519
 30
0.0
 40
0.5831999182701111
100
AcDbArc
 50
180.0000359721787
 51
220.16766814135
  0
ARC
  5
4B
330
27
100
AcDbEntity
  8
0
  6
Continuous
 62
     7
100
AcDbCircle
 10
-12.20034885406494
 20
-0.3680287599563599
 30
0.0
 40
1.355938911437988
100
AcDbArc
 50
220.16766814135
 51
319.8309061703463
  0
ARC
  5
4C
330
27
100
AcDbEntity
  8
0
  6
Continuous
 62
     7
100
AcDbCircle
 10
-12.79084777832031
 20
0.9550097584724426
 30
0.0
 40
3.382558822631834
100
AcDbArc
 50
235.1504257462033
 51
306.7425698336877
  0
ARC
  5
4D
330
27
100
AcDbEntity
  8
0
  6
Continuous
 62
     7
100
AcDbCircle
 10
-9.772781372070312
 20
1.457438468933104
 30
0.0
 40
0.2915999293327331
100
AcDbArc
 50
124.0007183437475
 51
180.0013847071687
  0
ARC
  5
4E
330
27
100
AcDbEntity
  8
0
  6
Continuous
 62
     7
100
AcDbCircle
 10
-11.31826686859131
 20
1.457429885864256
 30
0.0
 40
0.2915999293327331
100
AcDbArc
 50
359.9996313399246
 51
55.99980917468034
  0
ARC
  5
4F
330
27
100
AcDbEntity
  8
0
  6
Continuous
 62
     7
100
AcDbCircle
 10
-13.082444190979
 20
1.427920341491699
 30
0.0
 40
0.2915999293327331
100
AcDbArc
 50
124.0011554758543
 51
180.0016579147355
  0
ARC
  5
50
330
27
100
AcDbEntity
  8
0
  6
Continuous
 62
     7
100
AcDbCircle
 10
-15.76515865325928
 20
1.427920341491699
 30
0.0
 40
0.2915999293327331
100
AcDbArc
 50
359.9993128519744
 51
55.99964183504567
  0
LINE
  5
51
330
27
100
AcDbEntity
  8
0
  6
Continuous
 62
     7
100
AcDbLine
 10
15.91095404115839
 20
2.203026654192511
 30
0.0
 11
15.66787904030281
 21
1.782000930520665
 31
0.0
  0
LINE
  5
52
330
27
100
AcDbEntity
  8
0
  6
Continuous
 62
     7
100
AcDbLine
 10
15.91095638275146
 20
2.203025817871093
 30
0.0
 11
16.08590698242187
 21
2.203025817871093
 31
0.0
  0
LINE
  5
53
330
27
100
AcDbEntity
  8
0
  6
Continuous
 62
     7
100
AcDbLine
 10
16.08590698242187
 20
2.203025817871093
 30
0.0
 11
16.08590698242187
 21
0.3951122164726257
 31
0.0
  0
LINE
  5
54
330
27
100
AcDbEntity
  8
0
  6
Continuous
 62
     7
100
AcDbLine
 10
15.51238441467285
 20
0.395121157169342
 30
0.0
 11
16.08378601074219
 21
0.395121157169342
 31
0.0
  0
LINE
  5
55
330
27
100
AcDbEntity
  8
0
  6
Continuous
 62
     7
100
AcDbLine
 10
15.5052433013916
 20
-0.4446792602539064
 30
0.0
 11
16.08226013183594
 21
-0.4446792602539064
 31
0.0
  0
LINE
  5
56
330
27
100
AcDbEntity
  8
0
  6
Continuous
 62
     7
100
AcDbLine
 10
4.769335810521056
 20
-2.028068048539295
 30
0.0
 11
4.462407658139112
 21
-1.813154723325624
 31
0.0
  0
LINE
  5
57
330
27
100
AcDbEntity
  8
0
  6
Continuous
 62
     7
100
AcDbLine
 10
4.786353348141773
 20
-0.2045305765140313
 30
0.0
 11
5.50200858730875
 21
1.330197698841999
 31
0.0
  0
LINE
  5
58
330
27
100
AcDbEntity
  8
0
  6
Continuous
 62
     7
100
AcDbLine
 10
6.868855164774799
 20
-2.028064431855739
 30
0.0
 11
7.016942079232476
 21
-1.879978353742841
 31
0.0
  0
LINE
  5
59
330
27
100
AcDbEntity
  8
0
  6
Continuous
 62
     7
100
AcDbLine
 10
10.19308930573379
 20
-2.028065446271624
 30
0.0
 11
9.54327055069382
 21
-1.589757185596566
 31
0.0
  0
LINE
  5
5A
330
27
100
AcDbEntity
  8
0
  6
Continuous
 62
     7
100
AcDbLine
 10
2.669809025537516
 20
-2.02806432169143
 30
0.0
 11
3.192014703603831
 21
-1.675840001068195
 31
0.0
  0
LINE
  5
5B
330
27
100
AcDbEntity
  8
0
  6
Continuous
 62
     7
100
AcDbLine
 10
1.666702460879796
 20
1.996014965814431
 30
0.0
 11
2.201558844887133
 21
1.63524983772488
 31
0.0
  0
LINE
  5
5C
330
27
100
AcDbEntity
  8
0
  6
Continuous
 62
     7
100
AcDbLine
 10
3.76621448669475
 20
1.996016345505218
 30
0.0
 11
3.158927662341781
 21
1.586387965072794
 31
0.0
  0
LINE
  5
5D
330
27
100
AcDbEntity
  8
0
  6
Continuous
 62
     7
100
AcDbLine
 10
-0.3161834185185803
 20
1.996012417202443
 30
0.0
 11
-0.5246363088941735
 21
1.855405294209275
 31
0.0
  0
LINE
  5
5E
330
27
100
AcDbEntity
  8
0
  6
Continuous
 62
     7
100
AcDbLine
 10
-3.640431001544957
 20
1.996018264254935
 30
0.0
 11
-3.033118856895303
 21
1.586381379411256
 31
0.0
  0
LINE
  5
5F
330
27
100
AcDbEntity
  8
0
  6
Continuous
 62
     7
100
AcDbLine
 10
4.94492721557617
 20
-0.4534268975257875
 30
0.0
 11
6.376239776611327
 21
-0.4534268975257875
 31
0.0
  0
LINE
  5
60
330
27
100
AcDbEntity
  8
0
  6
Continuous
 62
     7
100
AcDbLine
 10
4.663116455078125
 20
-1.176588058471679
 30
0.0
 11
6.725593566894531
 21
-1.176588058471679
 31
0.0
  0
LINE
  5
61
330
27
100
AcDbEntity
  8
0
  6
Continuous
 62
     7
100
AcDbLine
 10
6.868857383728027
 20
-2.028063774108886
 30
0.0
 11
6.868857383728027
 21
-2.203017234802246
 31
0.0
  0
LINE
  5
62
330
27
100
AcDbEntity
  8
0
  6
Continuous
 62
     7
100
AcDbLine
 10
10.19308757781982
 20
-2.028063774108886
 30
0.0
 11
10.19308757781982
 21
-2.203017234802246
 31
0.0
  0
LINE
  5
63
330
27
100
AcDbEntity
  8
0
  6
Continuous
 62
     7
100
AcDbLine
 10
6.868857383728027
 20
-2.203017234802246
 30
0.0
 11
10.19308757781982
 21
-2.203017234802246
 31
0.0
  0
LINE
  5
64
330
27
100
AcDbEntity
  8
0
  6
Continuous
 62
     7
100
AcDbLine
 10
4.769333839416503
 20
-2.028063774108886
 30
0.0
 11
4.769333839416503
 21
-2.203017234802246
 31
0.0
  0
LINE
  5
65
330
27
100
AcDbEntity
  8
0
  6
Continuous
 62
     7
100
AcDbLine
 10
2.66981029510498
 20
-2.028063774108886
 30
0.0
 11
2.66981029510498
 21
-2.203017234802246
 31
0.0
  0
LINE
  5
66
330
27
100
AcDbEntity
  8
0
  6
Continuous
 62
     7
100
AcDbLine
 10
5.819153250643012
 20
1.330187368560018
 30
0.0
 11
6.534805316648544
 21
-0.2045328250937928
 31
0.0
  0
LINE
  5
67
330
27
100
AcDbEntity
  8
0
  6
Continuous
 62
     7
100
AcDbLine
 10
7.743648458376809
 20
2.170978610602105
 30
0.0
 11
9.442048205501121
 21
-1.47124994238311
 31
0.0
  0
LINE
  5
68
330
27
100
AcDbEntity
  8
0
  6
Continuous
 62
     7
100
AcDbLine
 10
5.031767869148608
 20
2.170981452431361
 30
0.0
 11
3.293235034794576
 21
-1.557329608484371
 31
0.0
  0
LINE
  5
69
330
27
100
AcDbEntity
  8
0
  6
Continuous
 62
     7
100
AcDbLine
 10
2.66981029510498
 20
-2.203017234802246
 30
0.0
 11
4.769333839416503
 21
-2.203017234802246
 31
0.0
  0
LINE
  5
6A
330
27
100
AcDbEntity
  8
0
  6
Continuous
 62
     7
100
AcDbLine
 10
5.031771659851074
 20
2.17098045349121
 30
0.0
 11
7.743658065795897
 21
2.17098045349121
 31
0.0
  0
LINE
  5
6B
330
27
100
AcDbEntity
  8
0
  6
Continuous
 62
     7
100
AcDbLine
 10
1.666696548461914
 20
2.17098045349121
 30
0.0
 11
3.766211509704588
 21
2.17098045349121
 31
0.0
  0
LINE
  5
6C
330
27
100
AcDbEntity
  8
0
  6
Continuous
 62
     7
100
AcDbLine
 10
1.048352444644362
 20
-1.41982803990438
 30
0.0
 11
2.302766284712959
 21
1.270267224119577
 31
0.0
  0
LINE
  5
6D
330
27
100
AcDbEntity
  8
0
  6
Continuous
 62
     7
100
AcDbLine
 10
1.345939400448173
 20
-2.203016930455531
 30
0.0
 11
3.057706742392752
 21
1.467874662564668
 31
0.0
  0
LINE
  5
6E
330
27
100
AcDbEntity
  8
0
  6
Continuous
 62
     7
100
AcDbLine
 10
0.7312247846646898
 20
-1.419837330947475
 30
0.0
 11
-0.6258497270637946
 21
1.49041859462812
 31
0.0
  0
LINE
  5
6F
330
27
100
AcDbEntity
  8
0
  6
Continuous
 62
     7
100
AcDbLine
 10
-1.220137231701584
 20
-2.203020892613181
 30
0.0
 11
-2.93190119173164
 21
1.467869073125796
 31
0.0
  0
LINE
  5
70
330
27
100
AcDbEntity
  8
0
  6
Continuous
 62
     7
100
AcDbLine
 10
1.666696548461914
 20
2.17098045349121
 30
0.0
 11
1.666696548461914
 21
1.99601936340332
 31
0.0
  0
LINE
  5
71
330
27
100
AcDbEntity
  8
0
  6
Continuous
 62
     7
100
AcDbLine
 10
3.766211509704588
 20
2.17098045349121
 30
0.0
 11
3.766211509704588
 21
1.99601936340332
 31
0.0
  0
LINE
  5
72
330
27
100
AcDbEntity
  8
0
  6
Continuous
 62
     7
100
AcDbLine
 10
-0.3161876797676086
 20
2.17098045349121
 30
0.0
 11
-0.3161876797676086
 21
1.99601936340332
 31
0.0
  0
LINE
  5
73
330
27
100
AcDbEntity
  8
0
  6
Continuous
 62
     7
100
AcDbLine
 10
-3.640434265136718
 20
2.17098045349121
 30
0.0
 11
-3.640434265136718
 21
1.99601936340332
 31
0.0
  0
LINE
  5
74
330
27
100
AcDbEntity
  8
0
  6
Continuous
 62
     7
100
AcDbLine
 10
-1.220130920410156
 20
-2.203017234802246
 30
0.0
 11
1.34594440460205
 21
-2.203017234802246
 31
0.0
  0
LINE
  5
75
330
27
100
AcDbEntity
  8
0
  6
Continuous
 62
     7
100
AcDbLine
 10
-3.640434265136718
 20
2.17098045349121
 30
0.0
 11
-0.3161876797676086
 21
2.17098045349121
 31
0.0
  0
LINE
  5
76
330
27
100
AcDbEntity
  8
0
  6
Continuous
 62
     7
100
AcDbLine
 10
-2.734547852499871
 20
-0.8360918108463691
 30
0.0
 11
-3.292898454584984
 21
-1.394446601770937
 31
0.0
  0
LINE
  5
77
330
27
100
AcDbEntity
  8
0
  6
Continuous
 62
     7
100
AcDbLine
 10
-2.734549522399901
 20
-0.8360894918441772
 30
0.0
 11
-2.559597015380858
 21
-0.8360894918441772
 31
0.0
  0
LINE
  5
78
330
27
100
AcDbEntity
  8
0
  6
Continuous
 62
     7
100
AcDbLine
 10
-2.800630741500015
 20
-2.203016917724653
 30
0.0
 11
-2.559604583520409
 21
-0.8360891374889547
 31
0.0
  0
LINE
  5
79
330
27
100
AcDbEntity
  8
0
  6
Continuous
 62
     7
100
AcDbLine
 10
-6.060719490051268
 20
-1.479854583740234
 30
0.0
 11
-3.499093055725096
 21
-1.479854583740234
 31
0.0
  0
LINE
  5
7A
330
27
100
AcDbEntity
  8
0
  6
Continuous
 62
     7
100
AcDbLine
 10
-8.772604942321777
 20
-2.02807331085205
 30
0.0
 11
-8.772604942321777
 21
-2.203017234802246
 31
0.0
  0
LINE
  5
7B
330
27
100
AcDbEntity
  8
0
  6
Continuous
 62
     7
100
AcDbLine
 10
-8.772597861236079
 20
-2.028063652604543
 30
0.0
 11
-8.25296186146528
 21
-1.543501462522668
 31
0.0
  0
LINE
  5
7C
330
27
100
AcDbEntity
  8
0
  6
Continuous
 62
     7
100
AcDbLine
 10
-5.44835551145411
 20
1.99601119841759
 30
0.0
 11
-5.967990972767211
 21
1.511438653587446
 31
0.0
  0
LINE
  5
7D
330
27
100
AcDbEntity
  8
0
  6
Continuous
 62
     7
100
AcDbLine
 10
-8.772599743276032
 20
1.996015632302372
 30
0.0
 11
-8.252954958117468
 21
1.511437669363771
 31
0.0
  0
LINE
  5
7E
330
27
100
AcDbEntity
  8
0
  6
Continuous
 62
     7
100
AcDbLine
 10
-6.060719490051268
 20
1.298173904418945
 30
0.0
 11
-6.060719490051268
 21
-1.479854583740234
 31
0.0
  0
LINE
  5
7F
330
27
100
AcDbEntity
  8
0
  6
Continuous
 62
     7
100
AcDbLine
 10
-8.160234451293945
 20
1.298173904418945
 30
0.0
 11
-8.160234451293945
 21
-1.330237388610839
 31
0.0
  0
LINE
  5
80
330
27
100
AcDbEntity
  8
0
  6
Continuous
 62
     7
100
AcDbLine
 10
-5.448357582092285
 20
2.17098045349121
 30
0.0
 11
-5.448357582092285
 21
1.996001243591307
 31
0.0
  0
LINE
  5
81
330
27
100
AcDbEntity
  8
0
  6
Continuous
 62
     7
100
AcDbLine
 10
-8.772604942321777
 20
2.17098045349121
 30
0.0
 11
-5.448357582092285
 21
2.17098045349121
 31
0.0
  0
LINE
  5
82
330
27
100
AcDbEntity
  8
0
  6
Continuous
 62
     7
100
AcDbLine
 10
-8.772604942321777
 20
2.17098045349121
 30
0.0
 11
-8.772604942321777
 21
1.996010780334471
 31
0.0
  0
LINE
  5
83
330
27
100
AcDbEntity
  8
0
  6
Continuous
 62
     7
100
AcDbLine
 10
-11.59529113769531
 20
2.17098045349121
 30
0.0
 11
-9.49577522277832
 21
2.17098045349121
 31
0.0
  0
LINE
  5
84
330
27
100
AcDbEntity
  8
0
  6
Continuous
 62
     7
100
AcDbLine
 10
-9.495771263513802
 20
1.996022872827721
 30
0.0
 11
-9.935841707738973
 21
1.699191626442767
 31
0.0
  0
LINE
  5
85
330
27
100
AcDbEntity
  8
0
  6
Continuous
 62
     7
100
AcDbLine
 10
-11.59528471490597
 20
1.996017233212966
 30
0.0
 11
-11.15519997602627
 21
1.699176514207408
 31
0.0
  0
LINE
  5
86
330
27
100
AcDbEntity
  8
0
  6
Continuous
 62
     7
100
AcDbLine
 10
-10.06438159942627
 20
1.457438468933104
 30
0.0
 11
-10.06438159942627
 21
-0.3535324335098267
 31
0.0
  0
LINE
  5
87
330
27
100
AcDbEntity
  8
0
  6
Continuous
 62
     7
100
AcDbLine
 10
-11.02666664123535
 20
1.457429885864256
 30
0.0
 11
-11.02666664123535
 21
-0.8664843440055847
 31
0.0
  0
LINE
  5
88
330
27
100
AcDbEntity
  8
0
  6
Continuous
 62
     7
100
AcDbLine
 10
-12.76167378305553
 20
1.996031481660509
 30
0.0
 11
-13.24550668190545
 21
1.669679097631274
 31
0.0
  0
LINE
  5
89
330
27
100
AcDbEntity
  8
0
  6
Continuous
 62
     7
100
AcDbLine
 10
-16.0859184709999
 20
1.996009578958306
 30
0.0
 11
-15.60208957599764
 21
1.669663189021719
 31
0.0
  0
LINE
  5
8A
330
27
100
AcDbEntity
  8
0
  6
Continuous
 62
     7
100
AcDbLine
 10
-13.37405014038086
 20
1.427920341491699
 30
0.0
 11
-13.37405014038086
 21
-0.8664664626121519
 31
0.0
  0
LINE
  5
8B
330
27
100
AcDbEntity
  8
0
  6
Continuous
 62
     7
100
AcDbLine
 10
-15.4735631942749
 20
1.427920341491699
 30
0.0
 11
-15.4735631942749
 21
-0.3850880265235901
 31
0.0
  0
LINE
  5
8C
330
27
100
AcDbEntity
  8
0
  6
Continuous
 62
     7
100
AcDbLine
 10
-11.59529113769531
 20
2.17098045349121
 30
0.0
 11
-11.59529113769531
 21
1.996010780334471
 31
0.0
  0
LINE
  5
8D
330
27
100
AcDbEntity
  8
0
  6
Continuous
 62
     7
100
AcDbLine
 10
-12.76168155670166
 20
2.17098045349121
 30
0.0
 11
-12.76168155670166
 21
1.99601936340332
 31
0.0
  0
LINE
  5
8E
330
27
100
AcDbEntity
  8
0
  6
Continuous
 62
     7
100
AcDbLine
 10
-9.49577522277832
 20
2.17098045349121
 30
0.0
 11
-9.49577522277832
 21
1.99601936340332
 31
0.0
  0
LINE
  5
8F
330
27
100
AcDbEntity
  8
0
  6
Continuous
 62
     7
100
AcDbLine
 10
-16.08592224121094
 20
2.17098045349121
 30
0.0
 11
-16.08592224121094
 21
1.99601936340332
 31
0.0
  0
LINE
  5
90
330
27
100
AcDbEntity
  8
0
  6
Continuous
 62
     7
100
AcDbLine
 10
-8.772604942321777
 20
-2.203017234802246
 30
0.0
 11
-2.800623893737791
 21
-2.203017234802246
 31
0.0
  0
LINE
  5
91
330
27
100
AcDbEntity
  8
0
  6
Continuous
 62
     7
100
AcDbLine
 10
-16.08592224121094
 20
2.17098045349121
 30
0.0
 11
-12.76168155670166
 21
2.17098045349121
 31
0.0
  0
POINT
  5
92
330
27
100
AcDbEntity
  8
0
  6
Continuous
 62
     7
100
AcDbPoint
 10
0.0
 20
0.0
 30
0.0
  0
ENDBLK
  5
93
330
27
100
AcDbEntity
  8
0
370
    -2
100
AcDbBlockEnd
  0
BLOCK
  5
9A
330
99
100
AcDbEntity
  8
0
  6
ByBlock
 62
     0
370
    -2
100
AcDbBlockBegin
  2
_OPEN30
 70
     2
 10
0.0
 20
0.0
 30
0.0
  3
_OPEN30
  1

  0
LINE
  5
9B
330
99
100
AcDbEntity
  8
0
  6
ByBlock
 62
     0
370
    -2
100
AcDbLine
 10
-1.0
 20
0.267949
 30
0.0
 11
0.0
 21
0.0
 31
0.0
  0
LINE
  5
9C
330
99
100
AcDbEntity
  8
0
  6
ByBlock
 62
     0
370
    -2
100
AcDbLine
 10
0.0
 20
0.0
 30
0.0
 11
-1.0
 21
-0.267949
 31
0.0
  0
LINE
  5
9D
330
99
100
AcDbEntity
  8
0
  6
ByBlock
 62
     0
370
    -2
100
AcDbLine
 10
0.0
 20
0.0
 30
0.0
 11
-1.0
 21
0.0
 31
0.0
  0
ENDBLK
  5
9E
330
99
100
AcDbEntity
  8
0
  6
ByBlock
 62
     0
370
    -2
100
AcDbBlockEnd
  0
BLOCK
  5
C9
330
C8
100
AcDbEntity
  8
0
  6
ByBlock
 62
     0
370
    -2
100
AcDbBlockBegin
  2
*D3
 70
     1
 10
0.0
 20
0.0
 30
0.0
  3
*D3
  1

  0
LINE
  5
937
330
C8
100
AcDbEntity
  8
PV
 62
     0
370
    -2
100
AcDbLine
 10
-186.3975477379481
 20
22.48414676333875
 30
0.0
 11
-186.3975477379481
 21
107.8117590762253
 31
0.0
  0
LINE
  5
938
330
C8
100
AcDbEntity
  8
PV
 62
     0
370
    -2
100
AcDbLine
 10
216.0021938401616
 20
22.58008639956922
 30
0.0
 11
216.0021938401616
 21
107.8117590762253
 31
0.0
  0
LINE
  5
939
330
C8
100
AcDbEntity
  8
PV
 62
     0
370
    -2
100
AcDbLine
 10
-169.7775482332627
 20
95.81180521021906
 30
0.0
 11
199.3821943354762
 21
95.81180521021906
 31
0.0
  0
INSERT
  5
93A
330
C8
100
AcDbEntity
  8
PV
 62
     0
370
    -2
100
AcDbBlockReference
  2
_OPEN30
 10
-186.3975477379481
 20
95.81180521021906
 30
0.0
 41
16.61999950468542
 42
16.61999950468542
 43
16.61999950468542
 50
180.0
  0
INSERT
  5
93B
330
C8
100
AcDbEntity
  8
PV
 62
     0
370
    -2
100
AcDbBlockReference
  2
_OPEN30
 10
216.0021938401616
 20
95.81180521021906
 30
0.0
 41
16.61999950468542
 42
16.61999950468542
 43
16.61999950468542
  0
MTEXT
  5
93C
102
{ACAD_XDICTIONARY
360
D6B
102
}
330
C8
100
AcDbEntity
  8
PV
 62
     0
100
AcDbMText
 10
76.09922036797797
 20
114.3128041095299
 30
0.0
 40
25.00199815624958
 41
0.0
 71
     5
 72
     1
  1
\A1;\U+2205402
  7
MX_DIMTXSTY_4
 73
     1
 44
0.9359251894303499
1001
ACAD
1000
MTEXTBEGIN
1070
    73
1070
     1
1070
    44
1040
0.9359251894303499
1070
    74
1070
     0
1000
MTEXTEND
  0
POINT
  5
93D
330
C8
100
AcDbEntity
  8
DEFPOINTS
 62
     0
370
     0
100
AcDbPoint
 10
-186.3975477379481
 20
14.86414710487335
 30
0.0
  0
POINT
  5
93E
330
C8
100
AcDbEntity
  8
DEFPOINTS
 62
     0
370
     0
100
AcDbPoint
 10
216.0021938401616
 20
14.96008674110382
 30
0.0
  0
POINT
  5
93F
330
C8
100
AcDbEntity
  8
DEFPOINTS
 62
     0
370
     0
100
AcDbPoint
 10
216.0021938401616
 20
95.81180521021906
 30
0.0
  0
ENDBLK
  5
D4
330
C8
100
AcDbEntity
  8
0
  6
ByBlock
 62
     0
370
    -2
100
AcDbBlockEnd
  0
BLOCK
  5
D7
330
D6
100
AcDbEntity
  8
0
  6
ByBlock
 62
     0
370
    -2
100
AcDbBlockBegin
  2
*D4
 70
     1
 10
0.0
 20
0.0
 30
0.0
  3
*D4
  1

  0
LINE
  5
940
330
D6
100
AcDbEntity
  8
PV
 62
     0
370
    -2
100
AcDbLine
 10
-206.3978485029767
 20
224.7601343639018
 30
0.0
 11
-206.3978485029767
 21
299.4989446082368
 31
0.0
  0
LINE
  5
941
330
D6
100
AcDbEntity
  8
PV
 62
     0
370
    -2
100
AcDbLine
 10
236.0021856147209
 20
224.7601343639018
 30
0.0
 11
236.0021856147209
 21
299.4989446082368
 31
0.0
  0
LINE
  5
942
330
D6
100
AcDbEntity
  8
PV
 62
     0
370
    -2
100
AcDbLine
 10
-189.7778489982913
 20
287.4989907422305
 30
0.0
 11
219.3821861100355
 21
287.4989907422305
 31
0.0
  0
INSERT
  5
943
330
D6
100
AcDbEntity
  8
PV
 62
     0
370
    -2
100
AcDbBlockReference
  2
_OPEN30
 10
-206.3978485029767
 20
287.4989907422305
 30
0.0
 41
16.61999950468542
 42
16.61999950468542
 43
16.61999950468542
 50
180.0
  0
INSERT
  5
944
330
D6
100
AcDbEntity
  8
PV
 62
     0
370
    -2
100
AcDbBlockReference
  2
_OPEN30
 10
236.0021856147209
 20
287.4989907422305
 30
0.0
 41
16.61999950468542
 42
16.61999950468542
 43
16.61999950468542
  0
MTEXT
  5
945
102
{ACAD_XDICTIONARY
360
D6D
102
}
330
D6
100
AcDbEntity
  8
PV
 62
     0
100
AcDbMText
 10
81.88697705203049
 20
305.9999896415413
 30
0.0
 40
25.00199815624958
 41
0.0
 71
     5
 72
     1
  1
\A1;\U+2205442
  7
MX_DIMTXSTY_5
 73
     1
 44
0.9359251894303499
1001
ACAD
1000
MTEXTBEGIN
1070
    73
1070
     1
1070
    44
1040
0.9359251894303499
1070
    74
1070
     0
1000
MTEXTEND
  0
POINT
  5
946
330
D6
100
AcDbEntity
  8
DEFPOINTS
 62
     0
370
     0
100
AcDbPoint
 10
-206.3978485029767
 20
217.1401347054365
 30
0.0
  0
POINT
  5
947
330
D6
100
AcDbEntity
  8
DEFPOINTS
 62
     0
370
     0
100
AcDbPoint
 10
236.0021856147209
 20
217.1401347054365
 30
0.0
  0
POINT
  5
948
330
D6
100
AcDbEntity
  8
DEFPOINTS
 62
     0
370
     0
100
AcDbPoint
 10
236.0021856147209
 20
287.4989907422305
 30
0.0
  0
ENDBLK
  5
E2
330
D6
100
AcDbEntity
  8
0
  6
ByBlock
 62
     0
370
    -2
100
AcDbBlockEnd
  0
BLOCK
  5
1E1
330
1E0
100
AcDbEntity
  8
0
  6
ByBlock
 62
     0
370
    -2
100
AcDbBlockBegin
  2
*X5
 70
     1
 10
0.0
 20
0.0
 30
0.0
  3
*X5
  1

  0
LINE
  5
1E2
330
1E0
100
AcDbEntity
  8
0
  6
Continuous
 62
     0
100
AcDbLine
 10
-495.4338710409771
 20
791.9999763965615
 30
0.0
 11
-482.6808745549483
 21
791.9999763965615
 31
0.0
  0
LINE
  5
1E3
330
1E0
100
AcDbEntity
  8
0
  6
Continuous
 62
     0
100
AcDbLine
 10
-473.7232831907657
 20
791.9999763965615
 30
0.0
 11
-467.9540767163981
 21
791.9999763965615
 31
0.0
  0
LINE
  5
1E4
330
1E0
100
AcDbEntity
  8
0
  6
Continuous
 62
     0
100
AcDbLine
 10
-454.2884607780171
 20
791.9999763965615
 30
0.0
 11
-421.0600070763203
 21
791.9999763965615
 31
0.0
  0
LINE
  5
1E5
330
1E0
100
AcDbEntity
  8
0
  6
Continuous
 62
     0
100
AcDbLine
 10
-414.2877550352917
 20
791.9999763965615
 30
0.0
 11
-400.1582117575266
 21
791.9999763965615
 31
0.0
  0
LINE
  5
1E6
330
1E0
100
AcDbEntity
  8
0
  6
Continuous
 62
     0
100
AcDbLine
 10
-399.164230078996
 20
791.9999763965615
 30
0.0
 11
-394.9574159062296
 21
791.9999763965615
 31
0.0
  0
LINE
  5
1E7
330
1E0
100
AcDbEntity
  8
0
  6
Continuous
 62
     0
100
AcDbLine
 10
-385.0801795631781
 20
791.9999763965615
 30
0.0
 11
-379.1147746053279
 21
791.9999763965615
 31
0.0
  0
LINE
  5
1E8
330
1E0
100
AcDbEntity
  8
0
  6
Continuous
 62
     0
100
AcDbLine
 10
-362.2320712793483
 20
791.9999763965615
 30
0.0
 11
-348.2551744123099
 21
791.9999763965615
 31
0.0
  0
LINE
  5
1E9
330
1E0
100
AcDbEntity
  8
0
  6
Continuous
 62
     0
100
AcDbLine
 10
-340.5704163840626
 20
791.9999763965615
 30
0.0
 11
-324.9600011878243
 21
791.9999763965615
 31
0.0
  0
LINE
  5
1EA
330
1E0
100
AcDbEntity
  8
0
  6
Continuous
 62
     0
100
AcDbLine
 10
-318.388162118186
 20
791.9999763965615
 30
0.0
 11
-312.0506019959609
 21
791.9999763965615
 31
0.0
  0
LINE
  5
1EB
330
1E0
100
AcDbEntity
  8
0
  6
Continuous
 62
     0
100
AcDbLine
 10
-497.8186522130256
 20
797.9999762177473
 30
0.0
 11
-485.2442863808785
 21
797.9999762177473
 31
0.0
  0
LINE
  5
1EC
330
1E0
100
AcDbEntity
  8
0
  6
Continuous
 62
     0
100
AcDbLine
 10
-471.1599858057502
 20
797.9999762177473
 30
0.0
 11
-465.4231192677599
 21
797.9999762177473
 31
0.0
  0
LINE
  5
1ED
330
1E0
100
AcDbEntity
  8
0
  6
Continuous
 62
     0
100
AcDbLine
 10
-453.9613931786599
 20
797.9999762177473
 30
0.0
 11
-441.3643037866263
 21
797.9999762177473
 31
0.0
  0
LINE
  5
1EE
330
1E0
100
AcDbEntity
  8
0
  6
Continuous
 62
     0
100
AcDbLine
 10
-417.085600666719
 20
797.9999762177473
 30
0.0
 11
-403.1862022108398
 21
797.9999762177473
 31
0.0
  0
LINE
  5
1EF
330
1E0
100
AcDbEntity
  8
0
  6
Continuous
 62
     0
100
AcDbLine
 10
-396.1363326428659
 20
797.9999762177473
 30
0.0
 11
-392.1595659873956
 21
797.9999762177473
 31
0.0
  0
LINE
  5
1F0
330
1E0
100
AcDbEntity
  8
0
  6
Continuous
 62
     0
100
AcDbLine
 10
-382.2823452288594
 20
797.9999762177473
 30
0.0
 11
-351.0651091093068
 21
797.9999762177473
 31
0.0
  0
LINE
  5
1F1
330
1E0
100
AcDbEntity
  8
0
  6
Continuous
 62
     0
100
AcDbLine
 10
-344.0332744753364
 20
797.9999762177473
 30
0.0
 11
-331.3101428698419
 21
797.9999762177473
 31
0.0
  0
LINE
  5
1F2
330
1E0
100
AcDbEntity
  8
0
  6
Continuous
 62
     0
100
AcDbLine
 10
-312.0380205702286
 20
797.9999762177473
 30
0.0
 11
-308.5877443138862
 21
797.9999762177473
 31
0.0
  0
LINE
  5
1F3
330
1E0
100
AcDbEntity
  8
0
  6
Continuous
 62
     0
100
AcDbLine
 10
-497.8413643288204
 20
803.9999760389335
 30
0.0
 11
-485.2442863808785
 21
803.9999760389335
 31
0.0
  0
LINE
  5
1F4
330
1E0
100
AcDbEntity
  8
0
  6
Continuous
 62
     0
100
AcDbLine
 10
-471.1599858057502
 20
803.9999760389335
 30
0.0
 11
-465.3862757269656
 21
803.9999760389335
 31
0.0
  0
LINE
  5
1F5
330
1E0
100
AcDbEntity
  8
0
  6
Continuous
 62
     0
100
AcDbLine
 10
-453.9613931786599
 20
803.9999760389335
 30
0.0
 11
-441.3643037866263
 21
803.9999760389335
 31
0.0
  0
LINE
  5
1F6
330
1E0
100
AcDbEntity
  8
0
  6
Continuous
 62
     0
100
AcDbLine
 10
-419.8834462981462
 20
803.9999760389335
 30
0.0
 11
-405.9840478422671
 21
803.9999760389335
 31
0.0
  0
LINE
  5
1F7
330
1E0
100
AcDbEntity
  8
0
  6
Continuous
 62
     0
100
AcDbLine
 10
-393.3384827240321
 20
803.9999760389335
 30
0.0
 11
-389.3617160685618
 21
803.9999760389335
 31
0.0
  0
LINE
  5
1F8
330
1E0
100
AcDbEntity
  8
0
  6
Continuous
 62
     0
100
AcDbLine
 10
-379.4845108945406
 20
803.9999760389335
 30
0.0
 11
-374.3107015870194
 21
803.9999760389335
 31
0.0
  0
LINE
  5
1F9
330
1E0
100
AcDbEntity
  8
0
  6
Continuous
 62
     0
100
AcDbLine
 10
-367.7623322398622
 20
803.9999760389335
 30
0.0
 11
-353.8629560952397
 21
803.9999760389335
 31
0.0
  0
LINE
  5
1FA
330
1E0
100
AcDbEntity
  8
0
  6
Continuous
 62
     0
100
AcDbLine
 10
-343.982338036328
 20
803.9999760389335
 30
0.0
 11
-331.2405807950144
 21
803.9999760389335
 31
0.0
  0
LINE
  5
1FB
330
1E0
100
AcDbEntity
  8
0
  6
Continuous
 62
     0
100
AcDbLine
 10
-312.1075827791163
 20
803.9999760389335
 30
0.0
 11
-308.4845489119128
 21
803.9999760389335
 31
0.0
  0
LINE
  5
1FC
330
1E0
100
AcDbEntity
  8
0
  6
Continuous
 62
     0
100
AcDbLine
 10
-497.8956313570046
 20
809.9999758601196
 30
0.0
 11
-485.1899564101914
 21
809.9999758601196
 31
0.0
  0
LINE
  5
1FD
330
1E0
100
AcDbEntity
  8
0
  6
Continuous
 62
     0
100
AcDbLine
 10
-471.1787321927056
 20
809.9999758601196
 30
0.0
 11
-465.3675369388008
 21
809.9999758601196
 31
0.0
  0
LINE
  5
1FE
330
1E0
100
AcDbEntity
  8
0
  6
Continuous
 62
     0
100
AcDbLine
 10
-454.4481870000174
 20
809.9999758601196
 30
0.0
 11
-440.8775099652687
 21
809.9999758601196
 31
0.0
  0
LINE
  5
1FF
330
1E0
100
AcDbEntity
  8
0
  6
Continuous
 62
     0
100
AcDbLine
 10
-422.69649041771
 20
809.9999758601196
 30
0.0
 11
-408.7806436313671
 21
809.9999758601196
 31
0.0
  0
LINE
  5
200
330
1E0
100
AcDbEntity
  8
0
  6
Continuous
 62
     0
100
AcDbLine
 10
-391.1402901624784
 20
809.9999758601196
 30
0.0
 11
-386.5486045597552
 21
809.9999758601196
 31
0.0
  0
LINE
  5
201
330
1E0
100
AcDbEntity
  8
0
  6
Continuous
 62
     0
100
AcDbLine
 10
-376.6866765602218
 20
809.9999758601196
 30
0.0
 11
-356.6608030811726
 21
809.9999758601196
 31
0.0
  0
LINE
  5
202
330
1E0
100
AcDbEntity
  8
0
  6
Continuous
 62
     0
100
AcDbLine
 10
-340.3794936973236
 20
809.9999758601196
 30
0.0
 11
-324.2798357849401
 21
809.9999758601196
 31
0.0
  0
LINE
  5
203
330
1E0
100
AcDbEntity
  8
0
  6
Continuous
 62
     0
100
AcDbLine
 10
-319.0683279232508
 20
809.9999758601196
 30
0.0
 11
-308.4845489119128
 21
809.9999758601196
 31
0.0
  0
ENDBLK
  5
204
330
1E0
100
AcDbEntity
  8
0
  6
ByBlock
 62
     0
370
    -2
100
AcDbBlockEnd
  0
BLOCK
  5
2E6
330
2E4
100
AcDbEntity
  8
0
370
     0
100
AcDbBlockBegin
  2
GENAXEH
 70
     0
 10
0.0
 20
0.0
 30
0.0
  3
GENAXEH
  1

  0
LINE
  5
2E5
330
2E4
100
AcDbEntity
  8
0
100
AcDbLine
 10
-1.0
 20
0.0
 30
0.0
 11
1.0
 21
0.0
 31
0.0
  0
ENDBLK
  5
2E7
330
2E4
100
AcDbEntity
  8
0
370
     0
100
AcDbBlockEnd
  0
BLOCK
  5
744
330
743
100
AcDbEntity
  8
0
370
     0
100
AcDbBlockBegin
  2
*D7
 70
     1
 10
0.0
 20
0.0
 30
0.0
  3
*D7
  1

  0
LINE
  5
949
330
743
100
AcDbEntity
  8
PV
  6
Continuous
 62
     0
370
     0
100
AcDbLine
 10
82.42238266051797
 20
-401.6595465072732
 30
0.0
 11
290.1628510173231
 21
-401.6595465072734
 31
0.0
  0
LINE
  5
94A
330
743
100
AcDbEntity
  8
PV
  6
Continuous
 62
     0
370
     0
100
AcDbLine
 10
-13.10964984320503
 20
-311.6595720776653
 30
0.0
 11
290.1628510173231
 21
-311.6595720776654
 31
0.0
  0
LINE
  5
94B
330
743
100
AcDbEntity
  8
PV
  6
Continuous
 62
     0
370
     0
100
AcDbLine
 10
282.9628507312208
 20
-386.6595465072734
 30
0.0
 11
282.9628507312208
 21
-326.6595720776654
 31
0.0
  0
INSERT
  5
94C
330
743
100
AcDbEntity
  8
PV
  6
Continuous
 62
     0
370
     0
100
AcDbBlockReference
  2
_OPEN30
 10
282.9628507312208
 20
-401.6595465072734
 30
0.0
 41
15.0
 42
15.0
 43
15.0
 50
270.0
  0
INSERT
  5
94D
330
743
100
AcDbEntity
  8
PV
  6
Continuous
 62
     0
370
     0
100
AcDbBlockReference
  2
_OPEN30
 10
282.9628507312208
 20
-311.6595720776654
 30
0.0
 41
15.0
 42
15.0
 43
15.0
 50
90.0
  0
MTEXT
  5
94E
330
743
100
AcDbEntity
  8
PV
  6
Continuous
 62
     0
100
AcDbMText
 10
264.4618512805373
 20
-359.5121281583589
 30
0.0
 40
25.00199890136719
 41
0.0
 71
     5
 72
     1
  1
\A1;90
 11
0.0000000000000001
 21
1.0
 31
0.0
 73
     1
 44
1.0
1001
ACAD
1000
MTEXTBEGIN
1070
    73
1070
     1
1070
    44
1040
1.0
1070
    74
1070
     0
1000
MTEXTEND
  0
POINT
  5
94F
330
743
100
AcDbEntity
  8
DEFPOINTS
  6
Continuous
 62
     0
370
     0
100
AcDbPoint
 10
74.8023827749589
 20
-401.6595465072732
 30
0.0
  0
POINT
  5
950
330
743
100
AcDbEntity
  8
DEFPOINTS
  6
Continuous
 62
     0
370
     0
100
AcDbPoint
 10
-20.72964972876413
 20
-311.6595720776653
 30
0.0
  0
POINT
  5
951
330
743
100
AcDbEntity
  8
DEFPOINTS
  6
Continuous
 62
     0
370
     0
100
AcDbPoint
 10
282.9628507312208
 20
-311.6595720776654
 30
0.0
  0
ENDBLK
  5
745
330
743
100
AcDbEntity
  8
0
370
     0
100
AcDbBlockEnd
  0
BLOCK
  5
76C
330
76B
100
AcDbEntity
  8
0
370
     0
100
AcDbBlockBegin
  2
*D8
 70
     1
 10
0.0
 20
0.0
 30
0.0
  3
*D8
  1

  0
LINE
  5
952
330
76B
100
AcDbEntity
  8
PV
  6
Continuous
 62
     0
370
     0
100
AcDbLine
 10
82.42238266051797
 20
-401.6595465072732
 30
0.0
 11
359.822460039033
 21
-401.6595465072734
 31
0.0
  0
LINE
  5
953
330
76B
100
AcDbEntity
  8
PV
  6
Continuous
 62
     0
370
     0
100
AcDbLine
 10
121.4221769350928
 20
-221.6596434244229
 30
0.0
 11
359.822460039033
 21
-221.659643424423
 31
0.0
  0
LINE
  5
954
330
76B
100
AcDbEntity
  8
PV
  6
Continuous
 62
     0
370
     0
100
AcDbLine
 10
352.6224597529307
 20
-386.6595465072734
 30
0.0
 11
352.6224597529307
 21
-236.659643424423
 31
0.0
  0
INSERT
  5
955
330
76B
100
AcDbEntity
  8
PV
  6
Continuous
 62
     0
370
     0
100
AcDbBlockReference
  2
_OPEN30
 10
352.6224597529307
 20
-401.6595465072734
 30
0.0
 41
15.0
 42
15.0
 43
15.0
 50
270.0
  0
INSERT
  5
956
330
76B
100
AcDbEntity
  8
PV
  6
Continuous
 62
     0
370
     0
100
AcDbBlockReference
  2
_OPEN30
 10
352.6224597529307
 20
-221.659643424423
 30
0.0
 41
15.0
 42
15.0
 43
15.0
 50
90.0
  0
MTEXT
  5
957
330
76B
100
AcDbEntity
  8
PV
  6
Continuous
 62
     0
100
AcDbMText
 10
334.1214603022472
 20
-313.0801744102309
 30
0.0
 40
25.00199890136719
 41
0.0
 71
     5
 72
     1
  1
\A1;181
 11
0.0000000000000001
 21
1.0
 31
0.0
 73
     1
 44
1.0
1001
ACAD
1000
MTEXTBEGIN
1070
    73
1070
     1
1070
    44
1040
1.0
1070
    74
1070
     0
1000
MTEXTEND
  0
POINT
  5
958
330
76B
100
AcDbEntity
  8
DEFPOINTS
  6
Continuous
 62
     0
370
     0
100
AcDbPoint
 10
74.8023827749589
 20
-401.6595465072732
 30
0.0
  0
POINT
  5
959
330
76B
100
AcDbEntity
  8
DEFPOINTS
  6
Continuous
 62
     0
370
     0
100
AcDbPoint
 10
113.8021770495337
 20
-221.6596434244229
 30
0.0
  0
POINT
  5
95A
330
76B
100
AcDbEntity
  8
DEFPOINTS
  6
Continuous
 62
     0
370
     0
100
AcDbPoint
 10
352.6224597529307
 20
-221.659643424423
 30
0.0
  0
ENDBLK
  5
76D
330
76B
100
AcDbEntity
  8
0
370
     0
100
AcDbBlockEnd
  0
BLOCK
  5
794
330
793
100
AcDbEntity
  8
0
370
     0
100
AcDbBlockBegin
  2
*D9
 70
     1
 10
0.0
 20
0.0
 30
0.0
  3
*D9
  1

  0
LINE
  5
95B
330
793
100
AcDbEntity
  8
PV
  6
Continuous
 62
     0
370
     0
100
AcDbLine
 10
82.42238266051797
 20
-401.6595465072732
 30
0.0
 11
399.9295051200405
 21
-401.6595465072734
 31
0.0
  0
LINE
  5
95C
330
793
100
AcDbEntity
  8
PV
  6
Continuous
 62
     0
370
     0
100
AcDbLine
 10
84.92239164591804
 20
463.3405841163018
 30
0.0
 11
399.9295051200407
 21
463.3405841163017
 31
0.0
  0
LINE
  5
95D
330
793
100
AcDbEntity
  8
PV
  6
Continuous
 62
     0
370
     0
100
AcDbLine
 10
392.7295048339382
 20
-386.6595465072735
 30
0.0
 11
392.7295048339384
 21
448.3405841163016
 31
0.0
  0
INSERT
  5
95E
330
793
100
AcDbEntity
  8
PV
  6
Continuous
 62
     0
370
     0
100
AcDbBlockReference
  2
_OPEN30
 10
392.7295048339382
 20
-401.6595465072734
 30
0.0
 41
15.0
 42
15.0
 43
15.0
 50
270.0
  0
INSERT
  5
95F
330
793
100
AcDbEntity
  8
PV
  6
Continuous
 62
     0
370
     0
100
AcDbBlockReference
  2
_OPEN30
 10
392.7295048339384
 20
463.3405841163017
 30
0.0
 41
15.0
 42
15.0
 43
15.0
 50
90.0
  0
MTEXT
  5
960
330
793
100
AcDbEntity
  8
PV
  6
Continuous
 62
     0
100
AcDbMText
 10
374.2285053832548
 20
49.93328535424826
 30
0.0
 40
25.00199890136719
 41
0.0
 71
     5
 72
     1
  1
\A1;866
 11
0.0000000000000001
 21
1.0
 31
0.0
 73
     1
 44
1.0
1001
ACAD
1000
MTEXTBEGIN
1070
    73
1070
     1
1070
    44
1040
1.0
1070
    74
1070
     0
1000
MTEXTEND
  0
POINT
  5
961
330
793
100
AcDbEntity
  8
DEFPOINTS
  6
Continuous
 62
     0
370
     0
100
AcDbPoint
 10
74.8023827749589
 20
-401.6595465072732
 30
0.0
  0
POINT
  5
962
330
793
100
AcDbEntity
  8
DEFPOINTS
  6
Continuous
 62
     0
370
     0
100
AcDbPoint
 10
77.30239176035896
 20
463.3405841163018
 30
0.0
  0
POINT
  5
963
330
793
100
AcDbEntity
  8
DEFPOINTS
  6
Continuous
 62
     0
370
     0
100
AcDbPoint
 10
392.7295048339384
 20
463.3405841163017
 30
0.0
  0
ENDBLK
  5
795
330
793
100
AcDbEntity
  8
0
370
     0
100
AcDbBlockEnd
  0
BLOCK
  5
A3B
330
A3A
100
AcDbEntity
  8
0
370
     0
100
AcDbBlockBegin
  2
*D10
 70
     1
 10
0.0
 20
0.0
 30
0.0
  3
*D10
  1

  0
LINE
  5
A85
330
A3A
100
AcDbEntity
  8
PV
  6
Continuous
 62
     0
370
     0
100
AcDbLine
 10
22.4224170056663
 20
543.3403452208754
 30
0.0
 11
479.129506406143
 21
543.3403452208753
 31
0.0
  0
LINE
  5
A86
330
A3A
100
AcDbEntity
  8
PV
  6
Continuous
 62
     0
370
     0
100
AcDbLine
 10
82.42238266051797
 20
-401.6595465072732
 30
0.0
 11
479.1295064061428
 21
-401.6595465072734
 31
0.0
  0
LINE
  5
A87
330
A3A
100
AcDbEntity
  8
PV
  6
Continuous
 62
     0
370
     0
100
AcDbLine
 10
471.9295061200408
 20
528.3403452208752
 30
0.0
 11
471.9295061200405
 21
-386.6595465072735
 31
0.0
  0
INSERT
  5
A88
330
A3A
100
AcDbEntity
  8
PV
  6
Continuous
 62
     0
370
     0
100
AcDbBlockReference
  2
_OPEN30
 10
471.9295061200408
 20
543.3403452208753
 30
0.0
 41
15.0
 42
15.0
 43
15.0
 50
90.0
  0
INSERT
  5
A89
330
A3A
100
AcDbEntity
  8
PV
  6
Continuous
 62
     0
370
     0
100
AcDbBlockReference
  2
_OPEN30
 10
471.9295061200405
 20
-401.6595465072734
 30
0.0
 41
15.0
 42
15.0
 43
15.0
 50
270.0
  0
MTEXT
  5
A8A
330
A3A
100
AcDbEntity
  8
PV
  6
Continuous
 62
     0
100
AcDbMText
 10
453.4285066693571
 20
70.84039935680099
 30
0.0
 40
25.00199890136719
 41
0.0
 71
     5
 72
     1
  1
\A1;(945)
 11
0.0000000000000001
 21
1.0
 31
0.0
 73
     1
 44
1.0
1001
ACAD
1000
MTEXTBEGIN
1070
    73
1070
     1
1070
    44
1040
1.0
1070
    74
1070
     0
1000
MTEXTEND
  0
POINT
  5
A8B
330
A3A
100
AcDbEntity
  8
DEFPOINTS
  6
Continuous
 62
     0
370
     0
100
AcDbPoint
 10
14.80241712010722
 20
543.3403452208754
 30
0.0
  0
POINT
  5
A8C
330
A3A
100
AcDbEntity
  8
DEFPOINTS
  6
Continuous
 62
     0
370
     0
100
AcDbPoint
 10
74.8023827749589
 20
-401.6595465072732
 30
0.0
  0
POINT
  5
A8D
330
A3A
100
AcDbEntity
  8
DEFPOINTS
  6
Continuous
 62
     0
370
     0
100
AcDbPoint
 10
471.9295061200405
 20
-401.6595465072734
 30
0.0
  0
ENDBLK
  5
A3C
330
A3A
100
AcDbEntity
  8
0
370
     0
100
AcDbBlockEnd
  0
BLOCK
  5
BC8
330
BC7
100
AcDbEntity
  8
0
100
AcDbBlockBegin
  2
JZB_0006
 70
     0
 10
0.0
 20
0.0
 30
0.0
  3
JZB_0006
  1
JZB_0006
  0
LINE
  5
BC9
330
BC7
100
AcDbEntity
  8
HATCH
  6
Continuous
 62
     7
370
    25
100
AcDbLine
 10
441.7385171754004
 20
1363.333333333333
 30
0.0
 11
462.224459573796
 21
1363.333333333333
 31
0.0
  0
LINE
  5
BCA
330
BC7
100
AcDbEntity
  8
HATCH
  6
Continuous
 62
     7
370
    25
100
AcDbLine
 10
433.6030745521102
 20
1366.666666666665
 30
0.0
 11
470.3605719726238
 21
1366.666666666665
 31
0.0
  0
LINE
  5
BCB
330
BC7
100
AcDbEntity
  8
HATCH
  6
Continuous
 62
     7
370
    25
100
AcDbLine
 10
428.8303096916341
 20
1369.999999999999
 30
0.0
 11
475.1328253351513
 21
1369.999999999999
 31
0.0
  0
LINE
  5
BCC
330
BC7
100
AcDbEntity
  8
HATCH
  6
Continuous
 62
     7
370
    25
100
AcDbLine
 10
468.1237614169645
 20
1373.333333333333
 30
0.0
 11
478.4298081764167
 21
1373.333333333333
 31
0.0
  0
LINE
  5
BCD
330
BC7
100
AcDbEntity
  8
HATCH
  6
Continuous
 62
     7
370
    25
100
AcDbLine
 10
425.5334420080485
 20
1373.333333333333
 30
0.0
 11
443.9587104004038
 21
1373.333333333333
 31
0.0
  0
LINE
  5
BCE
330
BC7
100
AcDbEntity
  8
HATCH
  6
Continuous
 62
     7
370
    25
100
AcDbLine
 10
473.4792036257045
 20
1376.666666666667
 30
0.0
 11
480.7607919742089
 21
1376.666666666667
 31
0.0
  0
LINE
  5
BCF
330
BC7
100
AcDbEntity
  8
HATCH
  6
Continuous
 62
     7
370
    25
100
AcDbLine
 10
423.2030554545974
 20
1376.666666666667
 30
0.0
 11
438.6029453881219
 21
1376.666666666667
 31
0.0
  0
LINE
  5
BD0
330
BC7
100
AcDbEntity
  8
HATCH
  6
Continuous
 62
     7
370
    25
100
AcDbLine
 10
421.6155585646914
 20
1379.999999999999
 30
0.0
 11
435.5593503295497
 21
1379.999999999999
 31
0.0
  0
LINE
  5
BD1
330
BC7
100
AcDbEntity
  8
HATCH
  6
Continuous
 62
     7
370
    25
100
AcDbLine
 10
420.654518569689
 20
1383.333333333333
 30
0.0
 11
433.8541916174484
 21
1383.333333333333
 31
0.0
  0
LINE
  5
BD2
330
BC7
100
AcDbEntity
  8
HATCH
  6
Continuous
 62
     7
370
    25
100
AcDbLine
 10
420.2643360480671
 20
1386.666666666667
 30
0.0
 11
433.1862701589648
 21
1386.666666666667
 31
0.0
  0
LINE
  5
BD3
330
BC7
100
AcDbEntity
  8
HATCH
  6
Continuous
 62
     7
370
    25
100
AcDbLine
 10
420.4277679437396
 20
1389.999999999999
 30
0.0
 11
433.4631027298794
 21
1389.999999999999
 31
0.0
  0
LINE
  5
BD4
330
BC7
100
AcDbEntity
  8
HATCH
  6
Continuous
 62
     7
370
    25
100
AcDbLine
 10
421.1494810179038
 20
1393.333333333333
 30
0.0
 11
434.721214113719
 21
1393.333333333333
 31
0.0
  0
LINE
  5
BD5
330
BC7
100
AcDbEntity
  8
HATCH
  6
Continuous
 62
     7
370
    25
100
AcDbLine
 10
474.9268617757466
 20
1396.666666666667
 30
0.0
 11
483.2271264936291
 21
1396.666666666667
 31
0.0
  0
LINE
  5
BD6
330
BC7
100
AcDbEntity
  8
HATCH
  6
Continuous
 62
     7
370
    25
100
AcDbLine
 10
422.4680945211319
 20
1396.666666666667
 30
0.0
 11
437.1563378559418
 21
1396.666666666667
 31
0.0
  0
LINE
  5
BD7
330
BC7
100
AcDbEntity
  8
HATCH
  6
Continuous
 62
     7
370
    25
100
AcDbLine
 10
470.7421037632967
 20
1399.999999999999
 30
0.0
 11
483.2312318159065
 21
1399.999999999999
 31
0.0
  0
LINE
  5
BD8
330
BC7
100
AcDbEntity
  8
HATCH
  6
Continuous
 62
     7
370
    25
100
AcDbLine
 10
424.4772090077558
 20
1399.999999999999
 30
0.0
 11
441.3432870756786
 21
1399.999999999999
 31
0.0
  0
LINE
  5
BD9
330
BC7
100
AcDbEntity
  8
HATCH
  6
Continuous
 62
     7
370
    25
100
AcDbLine
 10
461.7676340489231
 20
1403.333333333333
 30
0.0
 11
483.2353371381855
 21
1403.333333333333
 31
0.0
  0
LINE
  5
BDA
330
BC7
100
AcDbEntity
  8
HATCH
  6
Continuous
 62
     7
370
    25
100
AcDbLine
 10
427.3365626322235
 20
1403.333333333333
 30
0.0
 11
450.3150181814127
 21
1403.333333333333
 31
0.0
  0
LINE
  5
BDB
330
BC7
100
AcDbEntity
  8
HATCH
  6
Continuous
 62
     7
370
    25
100
AcDbLine
 10
480.5383173479298
 20
1406.666666666666
 30
0.0
 11
483.2394424604633
 21
1406.666666666666
 31
0.0
  0
LINE
  5
BDC
330
BC7
100
AcDbEntity
  8
HATCH
  6
Continuous
 62
     7
370
    25
100
AcDbLine
 10
431.4063100745697
 20
1406.666666666666
 30
0.0
 11
472.5582215415474
 21
1406.666666666666
 31
0.0
  0
LINE
  5
BDD
330
BC7
100
AcDbEntity
  8
HATCH
  6
Continuous
 62
     7
370
    25
100
AcDbLine
 10
481.6475483659902
 20
1410.0
 30
0.0
 11
483.2435477827428
 21
1410.0
 31
0.0
  0
LINE
  5
BDE
330
BC7
100
AcDbEntity
  8
HATCH
  6
Continuous
 62
     7
370
    25
100
AcDbLine
 10
437.6740024598175
 20
1410.0
 30
0.0
 11
466.2907419313036
 21
1410.0
 31
0.0
  0
LINE
  5
BDF
330
BC7
100
AcDbEntity
  8
HATCH
  6
Continuous
 62
     7
370
    25
100
AcDbLine
 10
389.2986971619719
 20
1363.333333333333
 30
0.0
 11
420.3615360327892
 21
1363.333333333333
 31
0.0
  0
LINE
  5
BE0
330
BC7
100
AcDbEntity
  8
HATCH
  6
Continuous
 62
     7
370
    25
100
AcDbLine
 10
340.3799309503447
 20
1363.333333333333
 30
0.0
 11
358.1428221640363
 21
1363.333333333333
 31
0.0
  0
LINE
  5
BE1
330
BC7
100
AcDbEntity
  8
HATCH
  6
Continuous
 62
     7
370
    25
100
AcDbLine
 10
392.4824411281004
 20
1366.666666666665
 30
0.0
 11
414.3520327116876
 21
1366.666666666665
 31
0.0
  0
LINE
  5
BE2
330
BC7
100
AcDbEntity
  8
HATCH
  6
Continuous
 62
     7
370
    25
100
AcDbLine
 10
345.6857992726889
 20
1366.666666666665
 30
0.0
 11
354.765853090746
 21
1366.666666666665
 31
0.0
  0
LINE
  5
BE3
330
BC7
100
AcDbEntity
  8
HATCH
  6
Continuous
 62
     7
370
    25
100
AcDbLine
 10
392.6307264253896
 20
1369.999999999999
 30
0.0
 11
411.3570695444619
 21
1369.999999999999
 31
0.0
  0
LINE
  5
BE4
330
BC7
100
AcDbEntity
  8
HATCH
  6
Continuous
 62
     7
370
    25
100
AcDbLine
 10
348.4689568427546
 20
1369.999999999999
 30
0.0
 11
354.5676519553633
 21
1369.999999999999
 31
0.0
  0
LINE
  5
BE5
330
BC7
100
AcDbEntity
  8
HATCH
  6
Continuous
 62
     7
370
    25
100
AcDbLine
 10
390.8267536252931
 20
1373.333333333333
 30
0.0
 11
409.3280840373036
 21
1373.333333333333
 31
0.0
  0
LINE
  5
BE6
330
BC7
100
AcDbEntity
  8
HATCH
  6
Continuous
 62
     7
370
    25
100
AcDbLine
 10
350.4434235382757
 20
1373.333333333333
 30
0.0
 11
356.402296953443
 21
1373.333333333333
 31
0.0
  0
LINE
  5
BE7
330
BC7
100
AcDbEntity
  8
HATCH
  6
Continuous
 62
     7
370
    25
100
AcDbLine
 10
352.4178902337969
 20
1376.666666666667
 30
0.0
 11
407.2990985301443
 21
1376.666666666667
 31
0.0
  0
LINE
  5
BE8
330
BC7
100
AcDbEntity
  8
HATCH
  6
Continuous
 62
     7
370
    25
100
AcDbLine
 10
354.3923569293182
 20
1379.999999999999
 30
0.0
 11
405.2701130229848
 21
1379.999999999999
 31
0.0
  0
LINE
  5
BE9
330
BC7
100
AcDbEntity
  8
HATCH
  6
Continuous
 62
     7
370
    25
100
AcDbLine
 10
385.1317199233091
 20
1383.333333333333
 30
0.0
 11
403.2411275158265
 21
1383.333333333333
 31
0.0
  0
LINE
  5
BEA
330
BC7
100
AcDbEntity
  8
HATCH
  6
Continuous
 62
     7
370
    25
100
AcDbLine
 10
383.233375355981
 20
1386.666666666667
 30
0.0
 11
401.2121420086672
 21
1386.666666666667
 31
0.0
  0
LINE
  5
BEB
330
BC7
100
AcDbEntity
  8
HATCH
  6
Continuous
 62
     7
370
    25
100
AcDbLine
 10
381.3350307886531
 20
1389.999999999999
 30
0.0
 11
399.1831565015088
 21
1389.999999999999
 31
0.0
  0
LINE
  5
BEC
330
BC7
100
AcDbEntity
  8
HATCH
  6
Continuous
 62
     7
370
    25
100
AcDbLine
 10
379.4366862213252
 20
1393.333333333333
 30
0.0
 11
397.1541709943496
 21
1393.333333333333
 31
0.0
  0
LINE
  5
BED
330
BC7
100
AcDbEntity
  8
HATCH
  6
Continuous
 62
     7
370
    25
100
AcDbLine
 10
377.538341653998
 20
1396.666666666667
 30
0.0
 11
395.1251854871916
 21
1396.666666666667
 31
0.0
  0
LINE
  5
BEE
330
BC7
100
AcDbEntity
  8
HATCH
  6
Continuous
 62
     7
370
    25
100
AcDbLine
 10
375.6399970866691
 20
1399.999999999999
 30
0.0
 11
393.0961999800318
 21
1399.999999999999
 31
0.0
  0
LINE
  5
BEF
330
BC7
100
AcDbEntity
  8
HATCH
  6
Continuous
 62
     7
370
    25
100
AcDbLine
 10
356.3668236248395
 20
1383.333333333333
 30
0.0
 11
362.3256970400068
 21
1383.333333333333
 31
0.0
  0
LINE
  5
BF0
330
BC7
100
AcDbEntity
  8
HATCH
  6
Continuous
 62
     7
370
    25
100
AcDbLine
 10
358.3412903203607
 20
1386.666666666667
 30
0.0
 11
364.3001637355283
 21
1386.666666666667
 31
0.0
  0
LINE
  5
BF1
330
BC7
100
AcDbEntity
  8
HATCH
  6
Continuous
 62
     7
370
    25
100
AcDbLine
 10
360.3157570158828
 20
1389.999999999999
 30
0.0
 11
366.2746304310504
 21
1389.999999999999
 31
0.0
  0
LINE
  5
BF2
330
BC7
100
AcDbEntity
  8
HATCH
  6
Continuous
 62
     7
370
    25
100
AcDbLine
 10
362.2902237114041
 20
1393.333333333333
 30
0.0
 11
368.2490971265718
 21
1393.333333333333
 31
0.0
  0
LINE
  5
BF3
330
BC7
100
AcDbEntity
  8
HATCH
  6
Continuous
 62
     7
370
    25
100
AcDbLine
 10
364.2646904069252
 20
1396.666666666667
 30
0.0
 11
370.2235638220927
 21
1396.666666666667
 31
0.0
  0
LINE
  5
BF4
330
BC7
100
AcDbEntity
  8
HATCH
  6
Continuous
 62
     7
370
    25
100
AcDbLine
 10
366.2391571024464
 20
1399.999999999999
 30
0.0
 11
372.1980305176142
 21
1399.999999999999
 31
0.0
  0
LINE
  5
BF5
330
BC7
100
AcDbEntity
  8
HATCH
  6
Continuous
 62
     7
370
    25
100
AcDbLine
 10
368.2136237979676
 20
1403.333333333333
 30
0.0
 11
391.0672144728736
 21
1403.333333333333
 31
0.0
  0
LINE
  5
BF6
330
BC7
100
AcDbEntity
  8
HATCH
  6
Continuous
 62
     7
370
    25
100
AcDbLine
 10
370.1880904934887
 20
1406.666666666666
 30
0.0
 11
389.0382289657143
 21
1406.666666666666
 31
0.0
  0
LINE
  5
BF7
330
BC7
100
AcDbEntity
  8
HATCH
  6
Continuous
 62
     7
370
    25
100
AcDbLine
 10
310.1260134857232
 20
1363.333333333333
 30
0.0
 11
328.6564212177711
 21
1363.333333333333
 31
0.0
  0
LINE
  5
BF8
330
BC7
100
AcDbEntity
  8
HATCH
  6
Continuous
 62
     7
370
    25
100
AcDbLine
 10
308.1488278005183
 20
1366.666666666665
 30
0.0
 11
330.5876795732722
 21
1366.666666666665
 31
0.0
  0
LINE
  5
BF9
330
BC7
100
AcDbEntity
  8
HATCH
  6
Continuous
 62
     7
370
    25
100
AcDbLine
 10
326.3836196585007
 20
1369.999999999999
 30
0.0
 11
332.5189379287743
 21
1369.999999999999
 31
0.0
  0
LINE
  5
BFA
330
BC7
100
AcDbEntity
  8
HATCH
  6
Continuous
 62
     7
370
    25
100
AcDbLine
 10
328.3148780140016
 20
1373.333333333333
 30
0.0
 11
334.4501962842755
 21
1373.333333333333
 31
0.0
  0
LINE
  5
BFB
330
BC7
100
AcDbEntity
  8
HATCH
  6
Continuous
 62
     7
370
    25
100
AcDbLine
 10
330.2461363695034
 20
1376.666666666665
 30
0.0
 11
336.3814546397772
 21
1376.666666666665
 31
0.0
  0
LINE
  5
BFC
330
BC7
100
AcDbEntity
  8
HATCH
  6
Continuous
 62
     7
370
    25
100
AcDbLine
 10
332.1773947250044
 20
1379.999999999999
 30
0.0
 11
338.3127129952783
 21
1379.999999999999
 31
0.0
  0
LINE
  5
BFD
330
BC7
100
AcDbEntity
  8
HATCH
  6
Continuous
 62
     7
370
    25
100
AcDbLine
 10
334.1086530805061
 20
1383.333333333333
 30
0.0
 11
340.2439713507801
 21
1383.333333333333
 31
0.0
  0
LINE
  5
BFE
330
BC7
100
AcDbEntity
  8
HATCH
  6
Continuous
 62
     7
370
    25
100
AcDbLine
 10
336.0399114360071
 20
1386.666666666667
 30
0.0
 11
342.175229706281
 21
1386.666666666667
 31
0.0
  0
LINE
  5
BFF
330
BC7
100
AcDbEntity
  8
HATCH
  6
Continuous
 62
     7
370
    25
100
AcDbLine
 10
337.9711697915091
 20
1389.999999999999
 30
0.0
 11
344.1064880617832
 21
1389.999999999999
 31
0.0
  0
LINE
  5
C00
330
BC7
100
AcDbEntity
  8
HATCH
  6
Continuous
 62
     7
370
    25
100
AcDbLine
 10
339.9024281470099
 20
1393.333333333333
 30
0.0
 11
346.0377464172841
 21
1393.333333333333
 31
0.0
  0
LINE
  5
C01
330
BC7
100
AcDbEntity
  8
HATCH
  6
Continuous
 62
     7
370
    25
100
AcDbLine
 10
341.8336865025117
 20
1396.666666666667
 30
0.0
 11
347.9690047727859
 21
1396.666666666667
 31
0.0
  0
LINE
  5
C02
330
BC7
100
AcDbEntity
  8
HATCH
  6
Continuous
 62
     7
370
    25
100
AcDbLine
 10
306.1716421153142
 20
1369.999999999999
 30
0.0
 11
323.0112019421337
 21
1369.999999999999
 31
0.0
  0
LINE
  5
C03
330
BC7
100
AcDbEntity
  8
HATCH
  6
Continuous
 62
     7
370
    25
100
AcDbLine
 10
304.1944564301093
 20
1373.333333333333
 30
0.0
 11
321.0340162569289
 21
1373.333333333333
 31
0.0
  0
LINE
  5
C04
330
BC7
100
AcDbEntity
  8
HATCH
  6
Continuous
 62
     7
370
    25
100
AcDbLine
 10
302.2172707449045
 20
1376.666666666665
 30
0.0
 11
319.0568305717243
 21
1376.666666666665
 31
0.0
  0
LINE
  5
C05
330
BC7
100
AcDbEntity
  8
HATCH
  6
Continuous
 62
     7
370
    25
100
AcDbLine
 10
300.2400850596994
 20
1379.999999999999
 30
0.0
 11
317.0796448865189
 21
1379.999999999999
 31
0.0
  0
LINE
  5
C06
330
BC7
100
AcDbEntity
  8
HATCH
  6
Continuous
 62
     7
370
    25
100
AcDbLine
 10
298.2628993744943
 20
1383.333333333333
 30
0.0
 11
315.1024592013138
 21
1383.333333333333
 31
0.0
  0
LINE
  5
C07
330
BC7
100
AcDbEntity
  8
HATCH
  6
Continuous
 62
     7
370
    25
100
AcDbLine
 10
296.2857136892893
 20
1386.666666666667
 30
0.0
 11
313.1252735161092
 21
1386.666666666667
 31
0.0
  0
LINE
  5
C08
330
BC7
100
AcDbEntity
  8
HATCH
  6
Continuous
 62
     7
370
    25
100
AcDbLine
 10
294.3085280040855
 20
1389.999999999999
 30
0.0
 11
311.1480878309053
 21
1389.999999999999
 31
0.0
  0
LINE
  5
C09
330
BC7
100
AcDbEntity
  8
HATCH
  6
Continuous
 62
     7
370
    25
100
AcDbLine
 10
292.3313423188804
 20
1393.333333333333
 30
0.0
 11
309.1709021457002
 21
1393.333333333333
 31
0.0
  0
LINE
  5
C0A
330
BC7
100
AcDbEntity
  8
HATCH
  6
Continuous
 62
     7
370
    25
100
AcDbLine
 10
290.3541566336753
 20
1396.666666666667
 30
0.0
 11
307.1937164604951
 21
1396.666666666667
 31
0.0
  0
LINE
  5
C0B
330
BC7
100
AcDbEntity
  8
HATCH
  6
Continuous
 62
     7
370
    25
100
AcDbLine
 10
343.7345600489164
 20
1399.999999999999
 30
0.0
 11
349.9002631282873
 21
1399.999999999999
 31
0.0
  0
LINE
  5
C0C
330
BC7
100
AcDbEntity
  8
HATCH
  6
Continuous
 62
     7
370
    25
100
AcDbLine
 10
288.3769709484704
 20
1399.999999999999
 30
0.0
 11
305.2849355207493
 21
1399.999999999999
 31
0.0
  0
LINE
  5
C0D
330
BC7
100
AcDbEntity
  8
HATCH
  6
Continuous
 62
     7
370
    25
100
AcDbLine
 10
344.0229787197964
 20
1403.333333333333
 30
0.0
 11
352.1072751406302
 21
1403.333333333333
 31
0.0
  0
LINE
  5
C0E
330
BC7
100
AcDbEntity
  8
HATCH
  6
Continuous
 62
     7
370
    25
100
AcDbLine
 10
286.0839293582012
 20
1403.333333333333
 30
0.0
 11
305.2367358555721
 21
1403.333333333333
 31
0.0
  0
LINE
  5
C0F
330
BC7
100
AcDbEntity
  8
HATCH
  6
Continuous
 62
     7
370
    25
100
AcDbLine
 10
341.0485208272044
 20
1406.666666666666
 30
0.0
 11
357.885194306272
 21
1406.666666666666
 31
0.0
  0
LINE
  5
C10
330
BC7
100
AcDbEntity
  8
HATCH
  6
Continuous
 62
     7
370
    25
100
AcDbLine
 10
279.7293854348595
 20
1406.666666666666
 30
0.0
 11
308.8766840221432
 21
1406.666666666666
 31
0.0
  0
LINE
  5
C11
330
BC7
100
AcDbEntity
  8
HATCH
  6
Continuous
 62
     7
370
    25
100
AcDbLine
 10
235.3691143953854
 20
1363.333333333333
 30
0.0
 11
291.8397707496477
 21
1363.333333333333
 31
0.0
  0
LINE
  5
C12
330
BC7
100
AcDbEntity
  8
HATCH
  6
Continuous
 62
     7
370
    25
100
AcDbLine
 10
239.5334958247149
 20
1366.666666666665
 30
0.0
 11
292.4118881186016
 21
1366.666666666665
 31
0.0
  0
LINE
  5
C13
330
BC7
100
AcDbEntity
  8
HATCH
  6
Continuous
 62
     7
370
    25
100
AcDbLine
 10
289.3819207742918
 20
1369.999999999999
 30
0.0
 11
292.9840054875555
 21
1369.999999999999
 31
0.0
  0
LINE
  5
C14
330
BC7
100
AcDbEntity
  8
HATCH
  6
Continuous
 62
     7
370
    25
100
AcDbLine
 10
241.0411116041032
 20
1369.999999999999
 30
0.0
 11
259.5148170289137
 21
1369.999999999999
 31
0.0
  0
LINE
  5
C15
330
BC7
100
AcDbEntity
  8
HATCH
  6
Continuous
 62
     7
370
    25
100
AcDbLine
 10
291.8988004315386
 20
1373.333333333333
 30
0.0
 11
293.5561228565084
 21
1373.333333333333
 31
0.0
  0
LINE
  5
C16
330
BC7
100
AcDbEntity
  8
HATCH
  6
Continuous
 62
     7
370
    25
100
AcDbLine
 10
241.1403659962807
 20
1373.333333333333
 30
0.0
 11
257.7128264882728
 21
1373.333333333333
 31
0.0
  0
LINE
  5
C17
330
BC7
100
AcDbEntity
  8
HATCH
  6
Continuous
 62
     7
370
    25
100
AcDbLine
 10
241.1403659962807
 20
1376.666666666665
 30
0.0
 11
257.4425436735337
 21
1376.666666666665
 31
0.0
  0
LINE
  5
C18
330
BC7
100
AcDbEntity
  8
HATCH
  6
Continuous
 62
     7
370
    25
100
AcDbLine
 10
241.1403659962807
 20
1379.999999999999
 30
0.0
 11
257.4425436735337
 21
1379.999999999999
 31
0.0
  0
LINE
  5
C19
330
BC7
100
AcDbEntity
  8
HATCH
  6
Continuous
 62
     7
370
    25
100
AcDbLine
 10
241.1403659962807
 20
1383.333333333333
 30
0.0
 11
257.4425436735337
 21
1383.333333333333
 31
0.0
  0
LINE
  5
C1A
330
BC7
100
AcDbEntity
  8
HATCH
  6
Continuous
 62
     7
370
    25
100
AcDbLine
 10
241.1403659962807
 20
1386.666666666667
 30
0.0
 11
257.4425436735337
 21
1386.666666666667
 31
0.0
  0
LINE
  5
C1B
330
BC7
100
AcDbEntity
  8
HATCH
  6
Continuous
 62
     7
370
    25
100
AcDbLine
 10
241.1403659962807
 20
1389.999999999999
 30
0.0
 11
257.4425436735337
 21
1389.999999999999
 31
0.0
  0
LINE
  5
C1C
330
BC7
100
AcDbEntity
  8
HATCH
  6
Continuous
 62
     7
370
    25
100
AcDbLine
 10
241.1403659962807
 20
1393.333333333333
 30
0.0
 11
257.4425436735337
 21
1393.333333333333
 31
0.0
  0
LINE
  5
C1D
330
BC7
100
AcDbEntity
  8
HATCH
  6
Continuous
 62
     7
370
    25
100
AcDbLine
 10
241.1403659962807
 20
1396.666666666667
 30
0.0
 11
257.4425436735337
 21
1396.666666666667
 31
0.0
  0
LINE
  5
C1E
330
BC7
100
AcDbEntity
  8
HATCH
  6
Continuous
 62
     7
370
    25
100
AcDbLine
 10
241.1403659962807
 20
1399.999999999999
 30
0.0
 11
257.4425436735337
 21
1399.999999999999
 31
0.0
  0
LINE
  5
C1F
330
BC7
100
AcDbEntity
  8
HATCH
  6
Continuous
 62
     7
370
    25
100
AcDbLine
 10
240.7337118754499
 20
1403.333333333333
 30
0.0
 11
257.845845303241
 21
1403.333333333333
 31
0.0
  0
LINE
  5
C20
330
BC7
100
AcDbEntity
  8
HATCH
  6
Continuous
 62
     7
370
    25
100
AcDbLine
 10
236.4071586018101
 20
1406.666666666666
 30
0.0
 11
262.1433845570184
 21
1406.666666666666
 31
0.0
  0
LINE
  5
C21
330
BC7
100
AcDbEntity
  8
HATCH
  6
Continuous
 62
     7
370
    25
100
AcDbLine
 10
177.2195170905479
 20
1363.333333333333
 30
0.0
 11
219.6997054554498
 21
1363.333333333333
 31
0.0
  0
LINE
  5
C22
330
BC7
100
AcDbEntity
  8
HATCH
  6
Continuous
 62
     7
370
    25
100
AcDbLine
 10
171.9319987079766
 20
1366.666666666665
 30
0.0
 11
225.0159281254074
 21
1366.666666666665
 31
0.0
  0
LINE
  5
C23
330
BC7
100
AcDbEntity
  8
HATCH
  6
Continuous
 62
     7
370
    25
100
AcDbLine
 10
216.6926433988674
 20
1369.999999999999
 30
0.0
 11
226.4698860830698
 21
1369.999999999999
 31
0.0
  0
LINE
  5
C24
330
BC7
100
AcDbEntity
  8
HATCH
  6
Continuous
 62
     7
370
    25
100
AcDbLine
 10
167.8481892097841
 20
1369.999999999999
 30
0.0
 11
185.013101429252
 21
1369.999999999999
 31
0.0
  0
LINE
  5
C25
330
BC7
100
AcDbEntity
  8
HATCH
  6
Continuous
 62
     7
370
    25
100
AcDbLine
 10
218.6861356992545
 20
1373.333333333333
 30
0.0
 11
226.5617428178665
 21
1373.333333333333
 31
0.0
  0
LINE
  5
C26
330
BC7
100
AcDbEntity
  8
HATCH
  6
Continuous
 62
     7
370
    25
100
AcDbLine
 10
166.680338187788
 20
1373.333333333333
 30
0.0
 11
183.0196091260119
 21
1373.333333333333
 31
0.0
  0
LINE
  5
C27
330
BC7
100
AcDbEntity
  8
HATCH
  6
Continuous
 62
     7
370
    25
100
AcDbLine
 10
218.7369004811537
 20
1376.666666666665
 30
0.0
 11
226.5617428178659
 21
1376.666666666665
 31
0.0
  0
LINE
  5
C28
330
BC7
100
AcDbEntity
  8
HATCH
  6
Continuous
 62
     7
370
    25
100
AcDbLine
 10
218.7369004811537
 20
1379.999999999999
 30
0.0
 11
226.5617428178659
 21
1379.999999999999
 31
0.0
  0
LINE
  5
C29
330
BC7
100
AcDbEntity
  8
HATCH
  6
Continuous
 62
     7
370
    25
100
AcDbLine
 10
218.7369004811537
 20
1383.333333333333
 30
0.0
 11
226.5617428178662
 21
1383.333333333333
 31
0.0
  0
LINE
  5
C2A
330
BC7
100
AcDbEntity
  8
HATCH
  6
Continuous
 62
     7
370
    25
100
AcDbLine
 10
218.7369004811537
 20
1386.666666666667
 30
0.0
 11
226.5617428178662
 21
1386.666666666667
 31
0.0
  0
LINE
  5
C2B
330
BC7
100
AcDbEntity
  8
HATCH
  6
Continuous
 62
     7
370
    25
100
AcDbLine
 10
218.7369004811537
 20
1389.999999999999
 30
0.0
 11
226.5617428178662
 21
1389.999999999999
 31
0.0
  0
LINE
  5
C2C
330
BC7
100
AcDbEntity
  8
HATCH
  6
Continuous
 62
     7
370
    25
100
AcDbLine
 10
218.7369004811537
 20
1393.333333333333
 30
0.0
 11
226.5617428178665
 21
1393.333333333333
 31
0.0
  0
LINE
  5
C2D
330
BC7
100
AcDbEntity
  8
HATCH
  6
Continuous
 62
     7
370
    25
100
AcDbLine
 10
218.7369004811537
 20
1396.666666666667
 30
0.0
 11
226.5617428178665
 21
1396.666666666667
 31
0.0
  0
LINE
  5
C2E
330
BC7
100
AcDbEntity
  8
HATCH
  6
Continuous
 62
     7
370
    25
100
AcDbLine
 10
218.7369004811537
 20
1399.999999999999
 30
0.0
 11
226.5617428178668
 21
1399.999999999999
 31
0.0
  0
LINE
  5
C2F
330
BC7
100
AcDbEntity
  8
HATCH
  6
Continuous
 62
     7
370
    25
100
AcDbLine
 10
166.666666666668
 20
1376.666666666665
 30
0.0
 11
182.9688443439193
 21
1376.666666666665
 31
0.0
  0
LINE
  5
C30
330
BC7
100
AcDbEntity
  8
HATCH
  6
Continuous
 62
     7
370
    25
100
AcDbLine
 10
166.666666666668
 20
1379.999999999999
 30
0.0
 11
182.9688443439199
 21
1379.999999999999
 31
0.0
  0
LINE
  5
C31
330
BC7
100
AcDbEntity
  8
HATCH
  6
Continuous
 62
     7
370
    25
100
AcDbLine
 10
166.666666666668
 20
1383.333333333333
 30
0.0
 11
182.9688443439199
 21
1383.333333333333
 31
0.0
  0
LINE
  5
C32
330
BC7
100
AcDbEntity
  8
HATCH
  6
Continuous
 62
     7
370
    25
100
AcDbLine
 10
166.666666666668
 20
1386.666666666667
 30
0.0
 11
182.9688443439205
 21
1386.666666666667
 31
0.0
  0
LINE
  5
C33
330
BC7
100
AcDbEntity
  8
HATCH
  6
Continuous
 62
     7
370
    25
100
AcDbLine
 10
166.666666666668
 20
1389.999999999999
 30
0.0
 11
182.9688443439205
 21
1389.999999999999
 31
0.0
  0
LINE
  5
C34
330
BC7
100
AcDbEntity
  8
HATCH
  6
Continuous
 62
     7
370
    25
100
AcDbLine
 10
166.6666666666672
 20
1393.333333333333
 30
0.0
 11
182.9688443439201
 21
1393.333333333333
 31
0.0
  0
LINE
  5
C35
330
BC7
100
AcDbEntity
  8
HATCH
  6
Continuous
 62
     7
370
    25
100
AcDbLine
 10
166.6666666666672
 20
1396.666666666667
 30
0.0
 11
182.9688443439201
 21
1396.666666666667
 31
0.0
  0
LINE
  5
C36
330
BC7
100
AcDbEntity
  8
HATCH
  6
Continuous
 62
     7
370
    25
100
AcDbLine
 10
166.6666666666672
 20
1399.999999999999
 30
0.0
 11
182.9688443439208
 21
1399.999999999999
 31
0.0
  0
LINE
  5
C37
330
BC7
100
AcDbEntity
  8
HATCH
  6
Continuous
 62
     7
370
    25
100
AcDbLine
 10
218.0904577844312
 20
1403.333333333333
 30
0.0
 11
226.9274906181554
 21
1403.333333333333
 31
0.0
  0
LINE
  5
C38
330
BC7
100
AcDbEntity
  8
HATCH
  6
Continuous
 62
     7
370
    25
100
AcDbLine
 10
165.9519962607201
 20
1403.333333333333
 30
0.0
 11
183.6832651024563
 21
1403.333333333333
 31
0.0
  0
LINE
  5
C39
330
BC7
100
AcDbEntity
  8
HATCH
  6
Continuous
 62
     7
370
    25
100
AcDbLine
 10
214.1787957156605
 20
1406.666666666666
 30
0.0
 11
231.4283038387229
 21
1406.666666666666
 31
0.0
  0
LINE
  5
C3A
330
BC7
100
AcDbEntity
  8
HATCH
  6
Continuous
 62
     7
370
    25
100
AcDbLine
 10
161.7116067185564
 20
1406.666666666666
 30
0.0
 11
187.9224248678931
 21
1406.666666666666
 31
0.0
  0
LINE
  5
C3B
330
BC7
100
AcDbEntity
  8
HIDDEN1
  6
Continuous
 62
     7
370
   100
100
AcDbLine
 10
525.0000000000019
 20
1335.000000000002
 30
0.0
 11
525.0000000000015
 21
1435.000000000003
 31
0.0
  0
LINE
  5
C3C
330
BC7
100
AcDbEntity
  8
HIDDEN1
  6
Continuous
 62
     7
370
   100
100
AcDbLine
 10
125.0000000000011
 20
1335.000000000002
 30
0.0
 11
525.0000000000011
 21
1335.000000000001
 31
0.0
  0
LINE
  5
C3D
330
BC7
100
AcDbEntity
  8
HIDDEN1
  6
Continuous
 62
     7
370
    25
100
AcDbLine
 10
1496.666666666667
 20
210.0000000000011
 30
0.0
 11
2050.0
 21
210.0000000000011
 31
0.0
  0
LINE
  5
C3E
330
BC7
100
AcDbEntity
  8
HIDDEN1
  6
Continuous
 62
     7
370
    25
100
AcDbLine
 10
1616.666666666668
 20
49.99999999999909
 30
0.0
 11
1616.666666666668
 21
210.0
 31
0.0
  0
CIRCLE
  5
C3F
330
BC7
100
AcDbEntity
  8
M2
  6
Continuous
 62
     4
370
    50
100
AcDbCircle
 10
161.5789944481721
 20
1407.532686521243
 30
0.0
 40
0.0000005
  0
LINE
  5
C40
330
BC7
100
AcDbEntity
  8
M2
  6
Continuous
 62
     4
370
    50
100
AcDbLine
 10
236.0103369809526
 20
1407.532686521243
 30
0.0
 11
262.5368564603185
 21
1407.532686521243
 31
0.0
  0
LINE
  5
C41
330
BC7
100
AcDbEntity
  8
M2
  6
Continuous
 62
     4
370
    50
100
AcDbLine
 10
357.9850350583743
 20
1376.005342790404
 30
0.0
 11
389.3050352342896
 21
1376.005342790404
 31
0.0
  0
LINE
  5
C42
330
BC7
100
AcDbEntity
  8
M2
  6
Continuous
 62
     4
370
    50
100
AcDbLine
 10
360.9745417968693
 20
1381.052286597689
 30
0.0
 11
386.4307837268384
 21
1381.052286597689
 31
0.0
  0
LINE
  5
C43
330
BC7
100
AcDbEntity
  8
M2
  6
Continuous
 62
     4
370
    50
100
AcDbLine
 10
166.666666666668
 20
1373.540138805874
 30
0.0
 11
166.666666666668
 21
1400.89537699617
 31
0.0
  0
LINE
  5
C44
330
BC7
100
AcDbEntity
  8
M2
  6
Continuous
 62
     4
370
    50
100
AcDbLine
 10
182.9688443439215
 20
1373.949392196047
 30
0.0
 11
182.9688443439215
 21
1400.895783134031
 31
0.0
  0
LINE
  5
C45
330
BC7
100
AcDbEntity
  8
M2
  6
Continuous
 62
     4
370
    50
100
AcDbLine
 10
412.2646605777219
 20
1368.50895758815
 30
0.0
 11
388.5110864455596
 21
1407.532686521243
 31
0.0
  0
LINE
  5
C46
330
BC7
100
AcDbEntity
  8
M2
  6
Continuous
 62
     4
370
    50
100
AcDbLine
 10
347.5375990922339
 20
1368.427663610578
 30
0.0
 11
370.7010687016455
 21
1407.532686521243
 31
0.0
  0
LINE
  5
C47
330
BC7
100
AcDbEntity
  8
M2
  6
Continuous
 62
     4
370
    50
100
AcDbLine
 10
392.2865742838171
 20
1370.770011086415
 30
0.0
 11
389.3050352342894
 21
1376.005342790405
 31
0.0
  0
LINE
  5
C48
330
BC7
100
AcDbEntity
  8
M2
  6
Continuous
 62
     4
370
    50
100
AcDbLine
 10
354.9668749144241
 20
1370.910025743029
 30
0.0
 11
357.9850350583738
 21
1376.005342790404
 31
0.0
  0
LINE
  5
C49
330
BC7
100
AcDbEntity
  8
M2
  6
Continuous
 62
     4
370
    50
100
AcDbLine
 10
340.4896489627026
 20
1362.46731347876
 30
0.0
 11
358.0171028684333
 21
1362.46731347876
 31
0.0
  0
LINE
  5
C4A
330
BC7
100
AcDbEntity
  8
M2
  6
Continuous
 62
     4
370
    50
100
AcDbLine
 10
389.4287223682636
 20
1362.46731347876
 30
0.0
 11
420.2616085002823
 21
1362.46731347876
 31
0.0
  0
LINE
  5
C4B
330
BC7
100
AcDbEntity
  8
M2
  6
Continuous
 62
     4
370
    50
100
AcDbLine
 10
370.7010687016459
 20
1407.532686521243
 30
0.0
 11
388.5110864455601
 21
1407.532686521243
 31
0.0
  0
LINE
  5
C4C
330
BC7
100
AcDbEntity
  8
M2
  6
Continuous
 62
     4
370
    50
100
AcDbLine
 10
279.4614601332687
 20
1407.532686521243
 30
0.0
 11
309.1291340982922
 21
1407.532686521243
 31
0.0
  0
LINE
  5
C4D
330
BC7
100
AcDbEntity
  8
M2
  6
Continuous
 62
     4
370
    50
100
AcDbLine
 10
340.9175153460051
 20
1407.532686521243
 30
0.0
 11
358.1114342217317
 21
1407.532686521243
 31
0.0
  0
LINE
  5
C4E
330
BC7
100
AcDbEntity
  8
M2
  6
Continuous
 62
     4
370
    50
100
AcDbLine
 10
360.9745417968693
 20
1381.052286597689
 30
0.0
 11
373.952840627492
 21
1402.962504784809
 31
0.0
  0
LINE
  5
C4F
330
BC7
100
AcDbEntity
  8
M2
  6
Continuous
 62
     4
370
    50
100
AcDbLine
 10
386.4307837268386
 20
1381.052286597689
 30
0.0
 11
373.9528406274922
 21
1402.962504784809
 31
0.0
  0
LINE
  5
C50
330
BC7
100
AcDbEntity
  8
M2
  6
Continuous
 62
     4
370
    50
100
AcDbLine
 10
328.1546687937187
 20
1362.46731347876
 30
0.0
 11
351.1925646826601
 21
1402.230500044512
 31
0.0
  0
LINE
  5
C51
330
BC7
100
AcDbEntity
  8
M2
  6
Continuous
 62
     4
370
    50
100
AcDbLine
 10
324.7172250970991
 20
1367.123819025982
 30
0.0
 11
343.6145691637175
 21
1399.740452999
 31
0.0
  0
LINE
  5
C52
330
BC7
100
AcDbEntity
  8
M2
  6
Continuous
 62
     4
370
    50
100
AcDbLine
 10
324.7172250970991
 20
1367.123819025982
 30
0.0
 11
305.577202926163
 21
1399.391943552948
 31
0.0
  0
LINE
  5
C53
330
BC7
100
AcDbEntity
  8
M2
  6
Continuous
 62
     4
370
    50
100
AcDbLine
 10
310.6396981035928
 20
1362.46731347876
 30
0.0
 11
287.0874647256725
 21
1402.173975923535
 31
0.0
  0
LINE
  5
C54
330
BC7
100
AcDbEntity
  8
M2
  6
Continuous
 62
     4
370
    50
100
AcDbLine
 10
310.6396981035928
 20
1362.46731347876
 30
0.0
 11
328.1546687937187
 21
1362.46731347876
 31
0.0
  0
LINE
  5
C55
330
BC7
100
AcDbEntity
  8
M2
  6
Continuous
 62
     4
370
    50
100
AcDbLine
 10
257.4425436735339
 20
1375.249085796511
 30
0.0
 11
257.4425436735339
 21
1401.912608711376
 31
0.0
  0
LINE
  5
C56
330
BC7
100
AcDbEntity
  8
M2
  6
Continuous
 62
     4
370
    50
100
AcDbLine
 10
241.1403659962807
 20
1371.03335411841
 30
0.0
 11
241.1403659962807
 21
1401.906979114198
 31
0.0
  0
LINE
  5
C57
330
BC7
100
AcDbEntity
  8
M2
  6
Continuous
 62
     4
370
    50
100
AcDbLine
 10
218.7369004811537
 20
1373.949392193726
 30
0.0
 11
218.7369004811537
 21
1401.00945260022
 31
0.0
  0
LINE
  5
C58
330
BC7
100
AcDbEntity
  8
M2
  6
Continuous
 62
     4
370
    50
100
AcDbLine
 10
265.2206531082202
 20
1367.470976361826
 30
0.0
 11
283.1094791659522
 21
1367.470976361826
 31
0.0
  0
LINE
  5
C59
330
BC7
100
AcDbEntity
  8
M2
  6
Continuous
 62
     4
370
    50
100
AcDbLine
 10
291.6911312494492
 20
1362.46731347876
 30
0.0
 11
294.0674841899267
 21
1376.312683149574
 31
0.0
  0
LINE
  5
C5A
330
BC7
100
AcDbEntity
  8
M2
  6
Continuous
 62
     4
370
    50
100
AcDbLine
 10
235.3964951424002
 20
1362.46731347876
 30
0.0
 11
291.6911312494501
 21
1362.46731347876
 31
0.0
  0
LINE
  5
C5B
330
BC7
100
AcDbEntity
  8
M2
  6
Continuous
 62
     4
370
    50
100
AcDbLine
 10
161.5789944481721
 20
1407.532686521243
 30
0.0
 11
188.0553269882066
 21
1407.532686521243
 31
0.0
  0
ARC
  5
C5C
330
BC7
100
AcDbEntity
  8
M2
  6
Continuous
 62
     4
370
    50
100
AcDbCircle
 10
197.2270595423261
 20
1453.643098092239
 30
0.0
 40
86.59303079641356
100
AcDbArc
 50
275.6515343203796
 51
277.9658516661099
  0
ARC
  5
C5D
330
BC7
100
AcDbEntity
  8
M2
  6
Continuous
 62
     4
370
    50
100
AcDbCircle
 10
197.2270595423261
 20
1453.643098092239
 30
0.0
 40
93.11390711220958
100
AcDbArc
 50
261.6064190564241
 51
284.4688421435062
  0
LINE
  5
C5E
330
BC7
100
AcDbEntity
  8
M2
  6
Continuous
 62
     4
370
    50
100
AcDbLine
 10
214.1336304187046
 20
1407.529124884826
 30
0.0
 11
231.5362226576989
 21
1407.529124884826
 31
0.0
  0
LINE
  5
C5F
330
BC7
100
AcDbEntity
  8
M2
  6
Continuous
 62
     4
370
    50
100
AcDbLine
 10
262.7198707999544
 20
1407.290478242083
 30
0.0
 11
262.7198707999544
 21
1407.349672181604
 31
0.0
  0
LINE
  5
C60
330
BC7
100
AcDbEntity
  8
M2
  6
Continuous
 62
     4
370
    50
100
AcDbLine
 10
235.8273226413139
 20
1407.291202562255
 30
0.0
 11
235.8273226413139
 21
1407.349672181604
 31
0.0
  0
ARC
  5
C61
330
BC7
100
AcDbEntity
  8
M2
  6
Continuous
 62
     4
370
    50
100
AcDbCircle
 10
262.2623349508563
 20
1407.290478242083
 30
0.0
 40
0.4575358490992202
100
AcDbArc
 50
289.3958740160404
 51
0.0
  0
ARC
  5
C62
330
BC7
100
AcDbEntity
  8
M2
  6
Continuous
 62
     4
370
    50
100
AcDbCircle
 10
262.5368564603184
 20
1407.349672181604
 30
0.0
 40
0.183014339639688
100
AcDbArc
 50
0.0
 51
90.0
  0
ARC
  5
C63
330
BC7
100
AcDbEntity
  8
M2
  6
Continuous
 62
     4
370
    50
100
AcDbCircle
 10
236.0103369809526
 20
1407.349672181604
 30
0.0
 40
0.183014339639688
100
AcDbArc
 50
90.0
 51
180.0
  0
ARC
  5
C64
330
BC7
100
AcDbEntity
  8
M2
  6
Continuous
 62
     4
370
    50
100
AcDbCircle
 10
236.2848584904148
 20
1407.291202562255
 30
0.0
 40
0.4575358490992202
100
AcDbArc
 50
180.0
 51
250.7248663130126
  0
LINE
  5
C65
330
BC7
100
AcDbEntity
  8
M2
  6
Continuous
 62
     4
370
    50
100
AcDbLine
 10
236.1338237320055
 20
1406.859314202879
 30
0.0
 11
239.9766550551229
 21
1404.150870940524
 31
0.0
  0
LINE
  5
C66
330
BC7
100
AcDbEntity
  8
M2
  6
Continuous
 62
     4
370
    50
100
AcDbLine
 10
262.4142794986076
 20
1406.858909119439
 30
0.0
 11
258.5990043670817
 21
1404.151372961746
 31
0.0
  0
ARC
  5
C67
330
BC7
100
AcDbEntity
  8
M2
  6
Continuous
 62
     4
370
    50
100
AcDbCircle
 10
260.1877587681292
 20
1401.912608711376
 30
0.0
 40
2.745215094595319
100
AcDbArc
 50
125.3616783504514
 51
180.0
  0
ARC
  5
C68
330
BC7
100
AcDbEntity
  8
M2
  6
Continuous
 62
     4
370
    50
100
AcDbCircle
 10
238.3951509016854
 20
1401.906979114199
 30
0.0
 40
2.745215094595319
100
AcDbArc
 50
0.0
 51
54.82366186718007
  0
LINE
  5
C69
330
BC7
100
AcDbEntity
  8
M2
  6
Continuous
 62
     4
370
    50
100
AcDbLine
 10
195.9511758626284
 20
1367.470976352094
 30
0.0
 11
205.7545689859069
 21
1367.470976352094
 31
0.0
  0
LINE
  5
C6A
330
BC7
100
AcDbEntity
  8
M2
  6
Continuous
 62
     4
370
    50
100
AcDbLine
 10
238.2270705239173
 20
1365.420794718329
 30
0.0
 11
235.6019201990726
 21
1363.573390272581
 31
0.0
  0
LINE
  5
C6B
330
BC7
100
AcDbEntity
  8
M2
  6
Continuous
 62
     4
370
    50
100
AcDbLine
 10
235.2134808027588
 20
1362.825049019237
 30
0.0
 11
235.2134808027588
 21
1362.650327818399
 31
0.0
  0
ARC
  5
C6C
330
BC7
100
AcDbEntity
  8
M2
  6
Continuous
 62
     4
370
    50
100
AcDbCircle
 10
235.3964951424002
 20
1362.6503278184
 30
0.0
 40
0.183014339639688
100
AcDbArc
 50
180.0
 51
270.0
  0
ARC
  5
C6D
330
BC7
100
AcDbEntity
  8
M2
  6
Continuous
 62
     4
370
    50
100
AcDbCircle
 10
234.2773282597932
 20
1371.03335411841
 30
0.0
 40
6.863037736488299
100
AcDbArc
 50
305.1353088423134
 51
0.0
  0
ARC
  5
C6E
330
BC7
100
AcDbEntity
  8
M2
  6
Continuous
 62
     4
370
    50
100
AcDbCircle
 10
236.1285525009557
 20
1362.825049019237
 30
0.0
 40
0.9150716981984404
100
AcDbArc
 50
125.1353088423179
 51
180.0
  0
ARC
  5
C6F
330
BC7
100
AcDbEntity
  8
M2
  6
Continuous
 62
     4
370
    50
100
AcDbCircle
 10
265.2206531082202
 20
1375.249085796511
 30
0.0
 40
7.77810943468674
100
AcDbArc
 50
180.0
 51
270.0
  0
LINE
  5
C70
330
BC7
100
AcDbEntity
  8
M2
  6
Continuous
 62
     4
370
    50
100
AcDbLine
 10
226.5617428178682
 20
1370.956335867093
 30
0.0
 11
226.5617428178682
 21
1401.977524306871
 31
0.0
  0
ARC
  5
C71
330
BC7
100
AcDbEntity
  8
M2
  6
Continuous
 62
     4
370
    50
100
AcDbCircle
 10
219.6987050813782
 20
1370.956335867093
 30
0.0
 40
6.863037736488299
100
AcDbArc
 50
305.1353088423134
 51
0.0
  0
LINE
  5
C72
330
BC7
100
AcDbEntity
  8
M2
  6
Continuous
 62
     4
370
    50
100
AcDbLine
 10
223.6484473455066
 20
1365.343776467014
 30
0.0
 11
221.9818856616776
 21
1364.170962310552
 31
0.0
  0
LINE
  5
C73
330
BC7
100
AcDbEntity
  8
M2
  6
Continuous
 62
     4
370
    50
100
AcDbLine
 10
231.7192369998338
 20
1407.105098553136
 30
0.0
 11
231.7192369998338
 21
1407.34611054751
 31
0.0
  0
LINE
  5
C74
330
BC7
100
AcDbEntity
  8
M2
  6
Continuous
 62
     4
370
    50
100
AcDbLine
 10
213.9506160790631
 20
1407.065789701448
 30
0.0
 11
213.9506160790631
 21
1407.346110545188
 31
0.0
  0
ARC
  5
C75
330
BC7
100
AcDbEntity
  8
M2
  6
Continuous
 62
     4
370
    50
100
AcDbCircle
 10
229.3069579124626
 20
1401.977524306872
 30
0.0
 40
2.745215094595319
100
AcDbArc
 50
127.5212181517538
 51
180.0
  0
LINE
  5
C76
330
BC7
100
AcDbEntity
  8
M2
  6
Continuous
 62
     4
370
    50
100
AcDbLine
 10
227.6349704193622
 20
1404.15483083984
 30
0.0
 11
231.514307852268
 21
1406.723616040366
 31
0.0
  0
ARC
  5
C77
330
BC7
100
AcDbEntity
  8
M2
  6
Continuous
 62
     4
370
    50
100
AcDbCircle
 10
231.5362226601951
 20
1407.346110545189
 30
0.0
 40
0.183014339639688
100
AcDbArc
 50
0.0
 51
90.0
  0
ARC
  5
C78
330
BC7
100
AcDbEntity
  8
M2
  6
Continuous
 62
     4
370
    50
100
AcDbCircle
 10
231.2617011507359
 20
1407.105098553136
 30
0.0
 40
0.4575358490992202
100
AcDbArc
 50
303.5113754732186
 51
0.0
  0
LINE
  5
C79
330
BC7
100
AcDbEntity
  8
M2
  6
Continuous
 62
     4
370
    50
100
AcDbLine
 10
214.1379310055015
 20
1406.696574715069
 30
0.0
 11
216.8637512167804
 21
1404.701602464006
 31
0.0
  0
ARC
  5
C7A
330
BC7
100
AcDbEntity
  8
M2
  6
Continuous
 62
     4
370
    50
100
AcDbCircle
 10
214.4081519281622
 20
1407.065789701448
 30
0.0
 40
0.4575358490992202
100
AcDbArc
 50
180.0
 51
233.8003635869543
  0
ARC
  5
C7B
330
BC7
100
AcDbEntity
  8
M2
  6
Continuous
 62
     4
370
    50
100
AcDbCircle
 10
214.1336304187046
 20
1407.346110545189
 30
0.0
 40
0.183014339639688
100
AcDbArc
 50
90.0
 51
180.0
  0
ARC
  5
C7C
330
BC7
100
AcDbEntity
  8
M2
  6
Continuous
 62
     4
370
    50
100
AcDbCircle
 10
214.1615419901609
 20
1401.009452600219
 30
0.0
 40
4.575358490992199
100
AcDbArc
 50
0.0
 51
53.80036358695486
  0
LINE
  5
C7D
330
BC7
100
AcDbEntity
  8
M2
  6
Continuous
 62
     4
370
    50
100
AcDbLine
 10
161.3959801085352
 20
1407.025279977978
 30
0.0
 11
161.3959801085352
 21
1407.349672181604
 31
0.0
  0
LINE
  5
C7E
330
BC7
100
AcDbEntity
  8
M2
  6
Continuous
 62
     4
370
    50
100
AcDbLine
 10
188.2383413278451
 20
1407.02551427208
 30
0.0
 11
188.2383413278451
 21
1407.349672181603
 31
0.0
  0
LINE
  5
C7F
330
BC7
100
AcDbEntity
  8
M2
  6
Continuous
 62
     4
370
    50
100
AcDbLine
 10
161.5171884914564
 20
1406.797558340037
 30
0.0
 11
164.6465269512958
 21
1404.690737628549
 31
0.0
  0
LINE
  5
C80
330
BC7
100
AcDbEntity
  8
M2
  6
Continuous
 62
     4
370
    50
100
AcDbLine
 10
184.9884590140582
 20
1404.690790227997
 30
0.0
 11
188.1171644476376
 21
1406.797813846444
 31
0.0
  0
ARC
  5
C81
330
BC7
100
AcDbEntity
  8
M2
  6
Continuous
 62
     4
370
    50
100
AcDbCircle
 10
187.5442028349125
 20
1400.89578313403
 30
0.0
 40
4.575358490992199
100
AcDbArc
 50
123.9582570957734
 51
180.0
  0
ARC
  5
C82
330
BC7
100
AcDbEntity
  8
M2
  6
Continuous
 62
     4
370
    50
100
AcDbCircle
 10
162.0913081756744
 20
1400.89537699617
 30
0.0
 40
4.575358490992199
100
AcDbArc
 50
0.0
 51
56.04966949673376
  0
ARC
  5
C83
330
BC7
100
AcDbEntity
  8
M2
  6
Continuous
 62
     4
370
    50
100
AcDbCircle
 10
187.9638198183884
 20
1407.02551427208
 30
0.0
 40
0.2745215094595319
100
AcDbArc
 50
303.9582570957783
 51
0.0
  0
ARC
  5
C84
330
BC7
100
AcDbEntity
  8
M2
  6
Continuous
 62
     4
370
    50
100
AcDbCircle
 10
161.6705016179928
 20
1407.025279977978
 30
0.0
 40
0.2745215094595319
100
AcDbArc
 50
180.0
 51
236.0496694967011
  0
ARC
  5
C85
330
BC7
100
AcDbEntity
  8
M2
  6
Continuous
 62
     4
370
    50
100
AcDbCircle
 10
188.0553269882064
 20
1407.349672181604
 30
0.0
 40
0.183014339639688
100
AcDbArc
 50
0.0
 51
90.0
  0
ARC
  5
C86
330
BC7
100
AcDbEntity
  8
M2
  6
Continuous
 62
     4
370
    50
100
AcDbCircle
 10
161.5789944481721
 20
1407.349672181604
 30
0.0
 40
0.183014339639688
100
AcDbArc
 50
90.0
 51
180.0
  0
LINE
  5
C87
330
BC7
100
AcDbEntity
  8
M2
  6
Continuous
 62
     4
370
    50
100
AcDbLine
 10
217.5051266469391
 20
1370.793438130722
 30
0.0
 11
217.7823873839185
 21
1371.152360918316
 31
0.0
  0
LINE
  5
C88
330
BC7
100
AcDbEntity
  8
M2
  6
Continuous
 62
     4
370
    50
100
AcDbLine
 10
209.2273707618135
 20
1367.885617292344
 30
0.0
 11
214.8639921662382
 21
1369.121233246792
 31
0.0
  0
ARC
  5
C89
330
BC7
100
AcDbEntity
  8
M2
  6
Continuous
 62
     4
370
    50
100
AcDbCircle
 10
213.8842812531834
 20
1373.590469406131
 30
0.0
 40
4.575358490992199
100
AcDbArc
 50
282.3643554319389
 51
322.3146252338199
  0
ARC
  5
C8A
330
BC7
100
AcDbEntity
  8
M2
  6
Continuous
 62
     4
370
    50
100
AcDbCircle
 10
204.4786852827492
 20
1453.64309809456
 30
0.0
 40
86.59303079641356
100
AcDbArc
 50
262.0341483338901
 51
264.3484656952251
  0
LINE
  5
C8B
330
BC7
100
AcDbEntity
  8
M2
  6
Continuous
 62
     4
370
    50
100
AcDbLine
 10
192.4783740632618
 20
1367.885617294667
 30
0.0
 11
186.8417526588371
 21
1369.121233249114
 31
0.0
  0
ARC
  5
C8C
330
BC7
100
AcDbEntity
  8
M2
  6
Continuous
 62
     4
370
    50
100
AcDbCircle
 10
187.8214635718916
 20
1373.590469408452
 30
0.0
 40
4.575358490992199
100
AcDbArc
 50
217.6853747661801
 51
257.6356445680611
  0
ARC
  5
C8D
330
BC7
100
AcDbEntity
  8
M2
  6
Continuous
 62
     4
370
    50
100
AcDbCircle
 10
187.5442028349125
 20
1373.949392196047
 30
0.0
 40
4.575358490992199
100
AcDbArc
 50
180.0
 51
217.6853747661801
  0
LINE
  5
C8E
330
BC7
100
AcDbEntity
  8
M2
  6
Continuous
 62
     4
370
    50
100
AcDbLine
 10
184.2006181781361
 20
1370.793438133044
 30
0.0
 11
183.9233574411592
 21
1371.152360920638
 31
0.0
  0
LINE
  5
C8F
330
BC7
100
AcDbEntity
  8
M2
  6
Continuous
 62
     4
370
    50
100
AcDbLine
 10
279.2784457936275
 20
1407.061800017433
 30
0.0
 11
279.2784457936275
 21
1407.349672181604
 31
0.0
  0
LINE
  5
C90
330
BC7
100
AcDbEntity
  8
M2
  6
Continuous
 62
     4
370
    50
100
AcDbLine
 10
309.3121484379335
 20
1407.080944038485
 30
0.0
 11
309.3121484379335
 21
1407.349672181604
 31
0.0
  0
LINE
  5
C91
330
BC7
100
AcDbEntity
  8
M2
  6
Continuous
 62
     4
370
    50
100
AcDbLine
 10
279.4301976130825
 20
1406.816260484217
 30
0.0
 11
285.1984562606538
 21
1403.932132959945
 31
0.0
  0
LINE
  5
C92
330
BC7
100
AcDbEntity
  8
M2
  6
Continuous
 62
     4
370
    50
100
AcDbLine
 10
307.1817728823194
 20
1405.663396530155
 30
0.0
 11
309.1774629290126
 21
1406.844706970882
 31
0.0
  0
ARC
  5
C93
330
BC7
100
AcDbEntity
  8
M2
  6
Continuous
 62
     4
370
    50
100
AcDbCircle
 10
283.1522947605372
 20
1399.839807406359
 30
0.0
 40
4.575358490992199
100
AcDbArc
 50
30.67454069282717
 51
63.434963122481
  0
ARC
  5
C94
330
BC7
100
AcDbEntity
  8
M2
  6
Continuous
 62
     4
370
    50
100
AcDbCircle
 10
309.5123728913037
 20
1401.726112070122
 30
0.0
 40
4.575358490992199
100
AcDbArc
 50
120.6225974401399
 51
210.6745406928272
  0
ARC
  5
C95
330
BC7
100
AcDbEntity
  8
M2
  6
Continuous
 62
     4
370
    50
100
AcDbCircle
 10
279.5529673030896
 20
1407.061800017433
 30
0.0
 40
0.2745215094595319
100
AcDbArc
 50
180.0
 51
243.434963122464
  0
ARC
  5
C96
330
BC7
100
AcDbEntity
  8
M2
  6
Continuous
 62
     4
370
    50
100
AcDbCircle
 10
279.4614601332687
 20
1407.349672181604
 30
0.0
 40
0.183014339639688
100
AcDbArc
 50
90.0
 51
180.0
  0
ARC
  5
C97
330
BC7
100
AcDbEntity
  8
M2
  6
Continuous
 62
     4
370
    50
100
AcDbCircle
 10
309.1291340982921
 20
1407.349672181604
 30
0.0
 40
0.183014339639688
100
AcDbArc
 50
0.0
 51
90.0
  0
ARC
  5
C98
330
BC7
100
AcDbEntity
  8
M2
  6
Continuous
 62
     4
370
    50
100
AcDbCircle
 10
309.0376269284714
 20
1407.080944038485
 30
0.0
 40
0.2745215094595319
100
AcDbArc
 50
300.6225974401536
 51
0.0
  0
LINE
  5
C99
330
BC7
100
AcDbEntity
  8
M2
  6
Continuous
 62
     4
370
    50
100
AcDbLine
 10
358.2944485613707
 20
1407.054321061558
 30
0.0
 11
358.2944485613707
 21
1407.349672181605
 31
0.0
  0
LINE
  5
C9A
330
BC7
100
AcDbEntity
  8
M2
  6
Continuous
 62
     4
370
    50
100
AcDbLine
 10
340.7345010063646
 20
1407.032982783734
 30
0.0
 11
340.7345010063646
 21
1407.349672181605
 31
0.0
  0
LINE
  5
C9B
330
BC7
100
AcDbEntity
  8
M2
  6
Continuous
 62
     4
370
    50
100
AcDbLine
 10
352.9436558772245
 20
1403.944234721385
 30
0.0
 11
358.1523953951699
 21
1406.813875231505
 31
0.0
  0
LINE
  5
C9C
330
BC7
100
AcDbEntity
  8
M2
  6
Continuous
 62
     4
370
    50
100
AcDbLine
 10
340.8489105588828
 20
1406.809989016106
 30
0.0
 11
342.3242048638556
 21
1405.750711616795
 31
0.0
  0
ARC
  5
C9D
330
BC7
100
AcDbEntity
  8
M2
  6
Continuous
 62
     4
370
    50
100
AcDbCircle
 10
358.0199270519142
 20
1407.054321061558
 30
0.0
 40
0.2745215094595319
100
AcDbArc
 50
298.8516001624275
 51
0.0
  0
ARC
  5
C9E
330
BC7
100
AcDbEntity
  8
M2
  6
Continuous
 62
     4
370
    50
100
AcDbCircle
 10
341.009022515824
 20
1407.032982783734
 30
0.0
 40
0.2745215094595319
100
AcDbArc
 50
180.0
 51
234.3212406879435
  0
ARC
  5
C9F
330
BC7
100
AcDbEntity
  8
M2
  6
Continuous
 62
     4
370
    50
100
AcDbCircle
 10
358.111434221732
 20
1407.349672181604
 30
0.0
 40
0.183014339639688
100
AcDbArc
 50
0.0
 51
90.0
  0
ARC
  5
CA0
330
BC7
100
AcDbEntity
  8
M2
  6
Continuous
 62
     4
370
    50
100
AcDbCircle
 10
340.9175153460051
 20
1407.349672181604
 30
0.0
 40
0.183014339639688
100
AcDbArc
 50
90.0
 51
180.0
  0
ARC
  5
CA1
330
BC7
100
AcDbEntity
  8
M2
  6
Continuous
 62
     4
370
    50
100
AcDbCircle
 10
355.1514615982123
 20
1399.936804220492
 30
0.0
 40
4.575358490992199
100
AcDbArc
 50
118.8516001624027
 51
149.9129623574221
  0
ARC
  5
CA2
330
BC7
100
AcDbEntity
  8
M2
  6
Continuous
 62
     4
370
    50
100
AcDbCircle
 10
339.6556722481635
 20
1402.034148823018
 30
0.0
 40
4.575358490992199
100
AcDbArc
 50
329.9129623574221
 51
54.32124068794309
  0
LINE
  5
CA3
330
BC7
100
AcDbEntity
  8
M2
  6
Continuous
 62
     4
370
    50
100
AcDbLine
 10
358.20011720807
 20
1362.6503278184
 30
0.0
 11
358.20011720807
 21
1363.167200047822
 31
0.0
  0
LINE
  5
CA4
330
BC7
100
AcDbEntity
  8
M2
  6
Continuous
 62
     4
370
    50
100
AcDbLine
 10
340.3066346230642
 20
1362.6503278184
 30
0.0
 11
340.3066346230642
 21
1363.147991417691
 31
0.0
  0
LINE
  5
CA5
330
BC7
100
AcDbEntity
  8
M2
  6
Continuous
 62
     4
370
    50
100
AcDbLine
 10
340.435515209083
 20
1363.380694620453
 30
0.0
 11
346.028369625886
 21
1366.881069657215
 31
0.0
  0
LINE
  5
CA6
330
BC7
100
AcDbEntity
  8
M2
  6
Continuous
 62
     4
370
    50
100
AcDbLine
 10
356.0641005262743
 20
1364.990478497087
 30
0.0
 11
358.0959568533204
 21
1363.382465317019
 31
0.0
  0
ARC
  5
CA7
330
BC7
100
AcDbEntity
  8
M2
  6
Continuous
 62
     4
370
    50
100
AcDbCircle
 10
358.9034531047571
 20
1368.578232983692
 30
0.0
 40
4.575358490992199
100
AcDbArc
 50
149.3600439739263
 51
231.6418720694284
  0
ARC
  5
CA8
330
BC7
100
AcDbEntity
  8
M2
  6
Continuous
 62
     4
370
    50
100
AcDbCircle
 10
343.6010209019022
 20
1370.759456369917
 30
0.0
 40
4.575358490992199
100
AcDbArc
 50
302.0410322244241
 51
329.3600439739262
  0
ARC
  5
CA9
330
BC7
100
AcDbEntity
  8
M2
  6
Continuous
 62
     4
370
    50
100
AcDbCircle
 10
357.9255956986126
 20
1363.167200047822
 30
0.0
 40
0.2745215094595319
100
AcDbArc
 50
0.0
 51
51.64187206942068
  0
ARC
  5
CAA
330
BC7
100
AcDbEntity
  8
M2
  6
Continuous
 62
     4
370
    50
100
AcDbCircle
 10
340.5811561325208
 20
1363.147991417691
 30
0.0
 40
0.2745215094595319
100
AcDbArc
 50
122.0410322243414
 51
180.0
  0
ARC
  5
CAB
330
BC7
100
AcDbEntity
  8
M2
  6
Continuous
 62
     4
370
    50
100
AcDbCircle
 10
358.0171028684331
 20
1362.6503278184
 30
0.0
 40
0.183014339639688
100
AcDbArc
 50
270.0
 51
0.0
  0
ARC
  5
CAC
330
BC7
100
AcDbEntity
  8
M2
  6
Continuous
 62
     4
370
    50
100
AcDbCircle
 10
214.1615419901609
 20
1373.949392193726
 30
0.0
 40
4.575358490992199
100
AcDbArc
 50
322.3146252338199
 51
0.0
  0
LINE
  5
CAD
330
BC7
100
AcDbEntity
  8
M2
  6
Continuous
 62
     4
370
    50
100
AcDbLine
 10
389.2457080286249
 20
1362.6503278184
 30
0.0
 11
389.2457080286249
 21
1363.172870602416
 31
0.0
  0
LINE
  5
CAE
330
BC7
100
AcDbEntity
  8
M2
  6
Continuous
 62
     4
370
    50
100
AcDbLine
 10
413.9600508534845
 20
1366.883267390248
 30
0.0
 11
420.3028737907843
 21
1363.378360188512
 31
0.0
  0
LINE
  5
CAF
330
BC7
100
AcDbEntity
  8
M2
  6
Continuous
 62
     4
370
    50
100
AcDbLine
 10
389.3427026922081
 20
1363.382265631366
 30
0.0
 11
391.2695383922871
 21
1365.015852952278
 31
0.0
  0
ARC
  5
CB0
330
BC7
100
AcDbEntity
  8
M2
  6
Continuous
 62
     4
370
    50
100
AcDbCircle
 10
389.4287223682636
 20
1362.6503278184
 30
0.0
 40
0.183014339639688
100
AcDbArc
 50
180.0
 51
270.0
  0
LINE
  5
CB1
330
BC7
100
AcDbEntity
  8
M2
  6
Continuous
 62
     4
370
    50
100
AcDbLine
 10
420.4446228399236
 20
1362.6503278184
 30
0.0
 11
420.4446228399236
 21
1363.138082155941
 31
0.0
  0
ARC
  5
CB2
330
BC7
100
AcDbEntity
  8
M2
  6
Continuous
 62
     4
370
    50
100
AcDbCircle
 10
420.2616085002823
 20
1362.6503278184
 30
0.0
 40
0.183014339639688
100
AcDbArc
 50
270.0
 51
0.0
  0
ARC
  5
CB3
330
BC7
100
AcDbEntity
  8
M2
  6
Continuous
 62
     4
370
    50
100
AcDbCircle
 10
420.1701013304613
 20
1363.138082155941
 30
0.0
 40
0.2745215094595319
100
AcDbArc
 50
0.0
 51
61.07590656970693
  0
ARC
  5
CB4
330
BC7
100
AcDbEntity
  8
M2
  6
Continuous
 62
     4
370
    50
100
AcDbCircle
 10
389.5202295380841
 20
1363.172870602416
 30
0.0
 40
0.2745215094595319
100
AcDbArc
 50
130.2915552042657
 51
180.0
  0
ARC
  5
CB5
330
BC7
100
AcDbEntity
  8
M2
  6
Continuous
 62
     4
370
    50
100
AcDbCircle
 10
416.1729251921902
 20
1370.88790126642
 30
0.0
 40
4.575358490992199
100
AcDbArc
 50
211.3286928667046
 51
241.0759065697404
  0
ARC
  5
CB6
330
BC7
100
AcDbEntity
  8
M2
  6
Continuous
 62
     4
370
    50
100
AcDbCircle
 10
388.3107576276899
 20
1368.50577010146
 30
0.0
 40
4.575358490992199
100
AcDbArc
 50
310.2915552042605
 51
29.66165865502361
  0
ARC
  5
CB7
330
BC7
100
AcDbEntity
  8
M2
  6
Continuous
 62
     4
370
    50
100
AcDbCircle
 10
219.3487241522582
 20
1367.912668577272
 30
0.0
 40
4.575358490992199
100
AcDbArc
 50
284.4688421409207
 51
305.1353088423113
  0
LINE
  5
CB8
330
BC7
100
AcDbEntity
  8
M2
  6
Continuous
 62
     4
370
    50
100
AcDbLine
 10
167.4521431885425
 20
1370.743657209394
 30
0.0
 11
167.0208755435799
 21
1371.774975567911
 31
0.0
  0
LINE
  5
CB9
330
BC7
100
AcDbEntity
  8
M2
  6
Continuous
 62
     4
370
    50
100
AcDbLine
 10
176.8350564297737
 20
1363.444172766445
 30
0.0
 11
183.0354455529121
 21
1361.656609861855
 31
0.0
  0
LINE
  5
CBA
330
BC7
100
AcDbEntity
  8
M2
  6
Continuous
 62
     4
370
    50
100
AcDbLine
 10
168.9850014911362
 20
1368.806524518384
 30
0.0
 11
175.4142127510334
 21
1364.138180036675
 31
0.0
  0
ARC
  5
CBB
330
BC7
100
AcDbEntity
  8
M2
  6
Continuous
 62
     4
370
    50
100
AcDbCircle
 10
184.3028931856597
 20
1366.05291306106
 30
0.0
 40
4.575358490992199
100
AcDbArc
 50
253.917807673234
 51
261.6064190568468
  0
ARC
  5
CBC
330
BC7
100
AcDbEntity
  8
M2
  6
Continuous
 62
     4
370
    50
100
AcDbCircle
 10
178.1025040625157
 20
1367.84047596565
 30
0.0
 40
4.575358490992199
100
AcDbArc
 50
234.0160489479939
 51
253.917807673234
  0
ARC
  5
CBD
330
BC7
100
AcDbEntity
  8
M2
  6
Continuous
 62
     4
370
    50
100
AcDbCircle
 10
171.2420251576609
 20
1373.540138805874
 30
0.0
 40
4.575358490992199
100
AcDbArc
 50
180.0
 51
202.6932775652895
  0
ARC
  5
CBE
330
BC7
100
AcDbEntity
  8
M2
  6
Continuous
 62
     4
370
    50
100
AcDbCircle
 10
171.6732928026208
 20
1372.508820447358
 30
0.0
 40
4.575358490992199
100
AcDbArc
 50
202.6932775652895
 51
234.0160489479939
  0
LINE
  5
CBF
330
BC7
100
AcDbEntity
  8
M2
  6
Continuous
 62
     4
370
    50
100
AcDbLine
 10
290.7556680458498
 20
1371.594624924015
 30
0.0
 11
293.9008339035124
 21
1376.378433338398
 31
0.0
  0
ARC
  5
CC0
330
BC7
100
AcDbEntity
  8
M2
  6
Continuous
 62
     4
370
    50
100
AcDbCircle
 10
283.1094791659521
 20
1376.62169334381
 30
0.0
 40
9.1507169819844
100
AcDbArc
 50
270.0
 51
326.6766537949969
  0
ARC
  5
CC1
330
BC7
100
AcDbEntity
  8
M2
  6
Continuous
 62
     4
370
    50
100
AcDbCircle
 10
293.977295792311
 20
1376.328162654198
 30
0.0
 40
0.091507169819844
100
AcDbArc
 50
350.260920291933
 51
146.6766537949511
  0
ELLIPSE
  5
CC2
330
BC7
100
AcDbEntity
  8
M2
  6
Continuous
 62
     4
370
    50
100
AcDbEllipse
 10
451.9819535460952
 20
1387.350946836552
 30
0.0
 11
-31.72930735277049
 21
0.0000019209185211
 31
0.0
210
0.0
220
0.0
230
1.0
 40
0.7998068702141468
 41
3.912065716262853
 42
9.112969794885263
  0
ELLIPSE
  5
CC3
330
BC7
100
AcDbEntity
  8
M2
  6
Continuous
 62
     4
370
    50
100
AcDbEllipse
 10
456.0416570275863
 20
1387.350946170113
 30
0.0
 11
22.87679245496082
 21
-0.0000016152487206
 31
0.0
210
0.0
220
0.0
230
0.9999999999999998
 40
0.721651058197022
 41
0.4426733724476526
 42
5.79210961745615
  0
LINE
  5
CC4
330
BC7
100
AcDbEntity
  8
M2
  6
Continuous
 62
     4
370
    50
100
AcDbLine
 10
483.2466825048284
 20
1412.545250509541
 30
0.0
 11
483.2243628458246
 21
1394.422711448998
 31
0.0
  0
LINE
  5
CC5
330
BC7
100
AcDbEntity
  8
M2
  6
Continuous
 62
     4
370
    50
100
AcDbLine
 10
482.6807157044976
 20
1412.728264849179
 30
0.0
 11
483.063668165187
 21
1412.728264849179
 31
0.0
  0
ARC
  5
CC6
330
BC7
100
AcDbEntity
  8
M2
  6
Continuous
 62
     4
370
    50
100
AcDbCircle
 10
483.063668165187
 20
1412.545250509541
 30
0.0
 40
0.183014339639688
100
AcDbArc
 50
0.0
 51
90.0
  0
ARC
  5
CC7
330
BC7
100
AcDbEntity
  8
M2
  6
Continuous
 62
     4
370
    50
100
AcDbCircle
 10
482.6807157044976
 20
1412.545250509541
 30
0.0
 40
0.183014339639688
100
AcDbArc
 50
90.0
 51
150.0004403131211
  0
LINE
  5
CC8
330
BC7
100
AcDbEntity
  8
M2
  6
Continuous
 62
     4
370
    50
100
AcDbLine
 10
480.5521779833175
 20
1406.697932069528
 30
0.0
 11
482.5222199338928
 21
1412.636756461337
 31
0.0
  0
ARC
  5
CC9
330
BC7
100
AcDbEntity
  8
M2
  6
Continuous
 62
     4
370
    50
100
AcDbCircle
 10
477.0780498654606
 20
1407.850378695714
 30
0.0
 40
3.660286792793761
100
AcDbArc
 50
230.5099444785177
 51
341.6481534343632
  0
LINE
  5
CCA
330
BC7
100
AcDbEntity
  8
M2
  6
Continuous
 62
     4
370
    50
100
AcDbLine
 10
476.7133499326114
 20
1394.422711448998
 30
0.0
 11
483.2243628458241
 21
1394.422711448998
 31
0.0
  0
LINE
  5
CCB
330
BC7
100
AcDbEntity
  8
M2
  6
Continuous
 62
     4
370
    50
100
AcDbLine
 10
476.2150091672381
 20
1379.565688499641
 30
0.0
 11
482.1812864504131
 21
1379.565688499641
 31
0.0
  0
ARC
  5
CCC
330
BC7
100
AcDbEntity
  8
M2
  6
Continuous
 62
     4
370
    50
100
AcDbCircle
 10
340.4896489627026
 20
1362.6503278184
 30
0.0
 40
0.183014339639688
100
AcDbArc
 50
180.0
 51
270.0
  0
LINE
  5
CCD
330
BC7
100
AcDbEntity
  8
HIDDEN1
  6
Continuous
 62
     7
370
    25
100
AcDbLine
 10
1496.666666666667
 20
210.0000000000011
 30
0.0
 11
1496.666666666667
 21
49.99999999999925
 31
0.0
  0
LINE
  5
CCE
330
BC7
100
AcDbEntity
  8
HIDDEN1
  6
Continuous
 62
     7
370
    25
100
AcDbLine
 10
1496.666666666667
 20
103.3333333333337
 30
0.0
 11
2050.0
 21
103.3333333333337
 31
0.0
  0
LINE
  5
CCF
330
BC7
100
AcDbEntity
  8
M1
  6
Continuous
 62
     7
370
    25
100
AcDbLine
 10
2100.000000000001
 20
0.0
 30
0.0
 11
2100.000000000001
 21
1485.0
 31
0.0
  0
LINE
  5
CD0
330
BC7
100
AcDbEntity
  8
M1
  6
Continuous
 62
     7
370
    25
100
AcDbLine
 10
0.0
 20
0.0
 30
0.0
 11
2100.0
 21
0.0
 31
0.0
  0
LINE
  5
CD1
330
BC7
100
AcDbEntity
  8
HIDDEN1
  6
Continuous
 62
     7
370
    25
100
AcDbLine
 10
2049.999999999998
 20
1237.499999999997
 30
0.0
 11
2074.999999999998
 21
1237.499999999997
 31
0.0
  0
LINE
  5
CD2
330
BC7
100
AcDbEntity
  8
HIDDEN1
  6
Continuous
 62
     7
370
    25
100
AcDbLine
 10
2049.999999999998
 20
989.9999999999982
 30
0.0
 11
2074.999999999998
 21
989.9999999999975
 31
0.0
  0
LINE
  5
CD3
330
BC7
100
AcDbEntity
  8
HIDDEN1
  6
Continuous
 62
     7
370
    25
100
AcDbLine
 10
2024.999999999999
 20
742.4999999999982
 30
0.0
 11
2074.999999999999
 21
742.4999999999977
 31
0.0
  0
LINE
  5
CD4
330
BC7
100
AcDbEntity
  8
HIDDEN1
  6
Continuous
 62
     7
370
    25
100
AcDbLine
 10
2049.999999999998
 20
494.9999999999991
 30
0.0
 11
2074.999999999998
 21
494.9999999999991
 31
0.0
  0
LINE
  5
CD5
330
BC7
100
AcDbEntity
  8
HIDDEN1
  6
Continuous
 62
     7
370
    25
100
AcDbLine
 10
2049.999999999998
 20
247.4999999999995
 30
0.0
 11
2074.999999999998
 21
247.4999999999995
 31
0.0
  0
LINE
  5
CD6
330
BC7
100
AcDbEntity
  8
HIDDEN1
  6
Continuous
 62
     7
370
    25
100
AcDbLine
 10
125.0000000000011
 20
1237.499999999997
 30
0.0
 11
100.0000000000011
 21
1237.499999999997
 31
0.0
  0
LINE
  5
CD7
330
BC7
100
AcDbEntity
  8
HIDDEN1
  6
Continuous
 62
     7
370
    25
100
AcDbLine
 10
125.0000000000011
 20
989.9999999999982
 30
0.0
 11
100.0000000000011
 21
989.9999999999982
 31
0.0
  0
LINE
  5
CD8
330
BC7
100
AcDbEntity
  8
HIDDEN1
  6
Continuous
 62
     7
370
    25
100
AcDbLine
 10
150.0000000000014
 20
742.4999999999982
 30
0.0
 11
100.0000000000014
 21
742.4999999999982
 31
0.0
  0
LINE
  5
CD9
330
BC7
100
AcDbEntity
  8
HIDDEN1
  6
Continuous
 62
     7
370
    25
100
AcDbLine
 10
125.000000000002
 20
494.9999999999991
 30
0.0
 11
100.000000000002
 21
494.9999999999991
 31
0.0
  0
LINE
  5
CDA
330
BC7
100
AcDbEntity
  8
HIDDEN1
  6
Continuous
 62
     7
370
    25
100
AcDbLine
 10
125.000000000002
 20
247.4999999999995
 30
0.0
 11
100.000000000002
 21
247.4999999999995
 31
0.0
  0
LINE
  5
CDB
330
BC7
100
AcDbEntity
  8
HIDDEN1
  6
Continuous
 62
     7
370
    25
100
AcDbLine
 10
125.0000000000011
 20
1435.000000000002
 30
0.0
 11
100.0000000000011
 21
1435.000000000002
 31
0.0
  0
LINE
  5
CDC
330
BC7
100
AcDbEntity
  8
HIDDEN1
  6
Continuous
 62
     7
370
    25
100
AcDbLine
 10
125.0000000000011
 20
1435.000000000002
 30
0.0
 11
125.0000000000011
 21
1460.000000000002
 31
0.0
  0
LINE
  5
CDD
330
BC7
100
AcDbEntity
  8
HIDDEN1
  6
Continuous
 62
     7
370
    25
100
AcDbLine
 10
2049.999999999998
 20
1435.0
 30
0.0
 11
2049.999999999998
 21
1460.0
 31
0.0
  0
LINE
  5
CDE
330
BC7
100
AcDbEntity
  8
HIDDEN1
  6
Continuous
 62
     7
370
    25
100
AcDbLine
 10
2049.999999999998
 20
1435.0
 30
0.0
 11
2074.999999999998
 21
1435.0
 31
0.0
  0
LINE
  5
CDF
330
BC7
100
AcDbEntity
  8
HIDDEN1
  6
Continuous
 62
     7
370
    25
100
AcDbLine
 10
2050.0
 20
49.99999999999909
 30
0.0
 11
2075.0
 21
49.99999999999909
 31
0.0
  0
LINE
  5
CE0
330
BC7
100
AcDbEntity
  8
HIDDEN1
  6
Continuous
 62
     7
370
    25
100
AcDbLine
 10
2050.0
 20
49.99999999999909
 30
0.0
 11
2050.0
 21
24.99999999999909
 31
0.0
  0
LINE
  5
CE1
330
BC7
100
AcDbEntity
  8
HIDDEN1
  6
Continuous
 62
     7
370
    25
100
AcDbLine
 10
125.000000000002
 20
49.99999999999545
 30
0.0
 11
125.000000000002
 21
24.99999999999546
 31
0.0
  0
LINE
  5
CE2
330
BC7
100
AcDbEntity
  8
HIDDEN1
  6
Continuous
 62
     7
370
    25
100
AcDbLine
 10
125.000000000002
 20
49.99999999999545
 30
0.0
 11
100.000000000002
 21
49.99999999999545
 31
0.0
  0
LINE
  5
CE3
330
BC7
100
AcDbEntity
  8
HIDDEN1
  6
Continuous
 62
     7
370
    25
100
AcDbLine
 10
1837.500000000001
 20
1435.000000000002
 30
0.0
 11
1837.500000000001
 21
1460.000000000002
 31
0.0
  0
LINE
  5
CE4
330
BC7
100
AcDbEntity
  8
HIDDEN1
  6
Continuous
 62
     7
370
    25
100
AcDbLine
 10
1575.0
 20
1435.000000000002
 30
0.0
 11
1575.0
 21
1460.000000000002
 31
0.0
  0
LINE
  5
CE5
330
BC7
100
AcDbEntity
  8
HIDDEN1
  6
Continuous
 62
     7
370
    25
100
AcDbLine
 10
1312.5
 20
1435.000000000002
 30
0.0
 11
1312.5
 21
1460.000000000002
 31
0.0
  0
LINE
  5
CE6
330
BC7
100
AcDbEntity
  8
HIDDEN1
  6
Continuous
 62
     7
370
    25
100
AcDbLine
 10
787.5000000000003
 20
1435.000000000002
 30
0.0
 11
787.5000000000003
 21
1460.000000000002
 31
0.0
  0
LINE
  5
CE7
330
BC7
100
AcDbEntity
  8
HIDDEN1
  6
Continuous
 62
     7
370
    25
100
AcDbLine
 10
525.0
 20
1435.0
 30
0.0
 11
525.0
 21
1460.0
 31
0.0
  0
LINE
  5
CE8
330
BC7
100
AcDbEntity
  8
HIDDEN1
  6
Continuous
 62
     7
370
    25
100
AcDbLine
 10
262.5000000000009
 20
1435.0
 30
0.0
 11
262.5000000000009
 21
1460.0
 31
0.0
  0
LINE
  5
CE9
330
BC7
100
AcDbEntity
  8
HIDDEN1
  6
Continuous
 62
     7
370
    25
100
AcDbLine
 10
1050.0
 20
1459.999999999997
 30
0.0
 11
1050.0
 21
1409.999999999997
 31
0.0
  0
LINE
  5
CEA
330
BC7
100
AcDbEntity
  8
HIDDEN1
  6
Continuous
 62
     7
370
    25
100
AcDbLine
 10
1837.500000000002
 20
49.99999999999727
 30
0.0
 11
1837.500000000002
 21
24.99999999999728
 31
0.0
  0
LINE
  5
CEB
330
BC7
100
AcDbEntity
  8
HIDDEN1
  6
Continuous
 62
     7
370
    25
100
AcDbLine
 10
1575.000000000001
 20
49.99999999999727
 30
0.0
 11
1575.000000000001
 21
24.99999999999728
 31
0.0
  0
LINE
  5
CEC
330
BC7
100
AcDbEntity
  8
HIDDEN1
  6
Continuous
 62
     7
370
    25
100
AcDbLine
 10
1312.500000000001
 20
49.99999999999727
 30
0.0
 11
1312.500000000001
 21
24.99999999999728
 31
0.0
  0
LINE
  5
CED
330
BC7
100
AcDbEntity
  8
HIDDEN1
  6
Continuous
 62
     7
370
    25
100
AcDbLine
 10
787.500000000001
 20
49.99999999999727
 30
0.0
 11
787.500000000001
 21
24.99999999999728
 31
0.0
  0
LINE
  5
CEE
330
BC7
100
AcDbEntity
  8
HIDDEN1
  6
Continuous
 62
     7
370
    25
100
AcDbLine
 10
525.0000000000019
 20
49.99999999999727
 30
0.0
 11
525.0000000000019
 21
24.99999999999728
 31
0.0
  0
LINE
  5
CEF
330
BC7
100
AcDbEntity
  8
HIDDEN1
  6
Continuous
 62
     7
370
    25
100
AcDbLine
 10
262.5000000000018
 20
49.99999999999727
 30
0.0
 11
262.5000000000018
 21
24.99999999999728
 31
0.0
  0
LINE
  5
CF0
330
BC7
100
AcDbEntity
  8
HIDDEN1
  6
Continuous
 62
     7
370
    25
100
AcDbLine
 10
1050.0
 20
24.99999999999956
 30
0.0
 11
1050.0
 21
74.99999999999954
 31
0.0
  0
LINE
  5
CF1
330
BC7
100
AcDbEntity
  8
HIDDEN1
  6
Continuous
 62
     7
370
   100
100
AcDbLine
 10
125.000000000002
 20
49.99999999999545
 30
0.0
 11
125.0000000000014
 21
1435.000000000001
 31
0.0
  0
LINE
  5
CF2
330
BC7
100
AcDbEntity
  8
HIDDEN1
  6
Continuous
 62
     7
370
   100
100
AcDbLine
 10
2050.0
 20
49.99999999999909
 30
0.0
 11
125.0000000000014
 21
49.99999999999576
 31
0.0
  0
LINE
  5
CF3
330
BC7
100
AcDbEntity
  8
HIDDEN1
  6
Continuous
 62
     7
370
   100
100
AcDbLine
 10
2049.999999999998
 20
1435.0
 30
0.0
 11
2050.0
 21
50.00000000000023
 31
0.0
  0
LINE
  5
CF4
330
BC7
100
AcDbEntity
  8
HIDDEN1
  6
Continuous
 62
     7
370
   100
100
AcDbLine
 10
125.0000000000011
 20
1435.000000000002
 30
0.0
 11
2049.999999999999
 21
1434.999999999999
 31
0.0
  0
MTEXT
  5
CF5
330
BC7
100
AcDbEntity
  8
HIDDEN1
 62
     7
370
    25
100
AcDbMText
 10
2064.999999585442
 20
124.4166655680428
 30
0.0
 40
15.0
 41
0.0
 71
     5
 72
     5
  1
\A1;F
  7
Standard
 73
     1
 44
1.0
1001
ACAD
1000
MTEXTBEGIN
1070
    73
1070
     1
1070
    44
1040
1.0
1070
    74
1070
     0
1000
MTEXTEND
1000
ACAD_MTEXT_DEFINED_HEIGHT_BEGIN
1070
    46
1040
15.0
1000
ACAD_MTEXT_DEFINED_HEIGHT_END
  0
MTEXT
  5
CF6
330
BC7
100
AcDbEntity
  8
HIDDEN1
 62
     7
370
    25
100
AcDbMText
 10
2064.999999585442
 20
371.916665568044
 30
0.0
 40
15.0
 41
0.0
 71
     5
 72
     5
  1
\A1;E
  7
Standard
 73
     1
 44
1.0
1001
ACAD
1000
MTEXTBEGIN
1070
    73
1070
     1
1070
    44
1040
1.0
1070
    74
1070
     0
1000
MTEXTEND
1000
ACAD_MTEXT_DEFINED_HEIGHT_BEGIN
1070
    46
1040
15.0
1000
ACAD_MTEXT_DEFINED_HEIGHT_END
  0
MTEXT
  5
CF7
330
BC7
100
AcDbEntity
  8
HIDDEN1
 62
     7
370
    25
100
AcDbMText
 10
2064.999999585442
 20
619.4166655680438
 30
0.0
 40
15.0
 41
0.0
 71
     5
 72
     5
  1
\A1;D
  7
Standard
 73
     1
 44
1.0
1001
ACAD
1000
MTEXTBEGIN
1070
    73
1070
     1
1070
    44
1040
1.0
1070
    74
1070
     0
1000
MTEXTEND
1000
ACAD_MTEXT_DEFINED_HEIGHT_BEGIN
1070
    46
1040
15.0
1000
ACAD_MTEXT_DEFINED_HEIGHT_END
  0
MTEXT
  5
CF8
330
BC7
100
AcDbEntity
  8
HIDDEN1
 62
     7
370
    25
100
AcDbMText
 10
2064.999999585442
 20
866.9166655680431
 30
0.0
 40
15.0
 41
0.0
 71
     5
 72
     5
  1
\A1;C
  7
Standard
 73
     1
 44
1.0
1001
ACAD
1000
MTEXTBEGIN
1070
    73
1070
     1
1070
    44
1040
1.0
1070
    74
1070
     0
1000
MTEXTEND
1000
ACAD_MTEXT_DEFINED_HEIGHT_BEGIN
1070
    46
1040
15.0
1000
ACAD_MTEXT_DEFINED_HEIGHT_END
  0
MTEXT
  5
CF9
330
BC7
100
AcDbEntity
  8
HIDDEN1
 62
     7
370
    25
100
AcDbMText
 10
2064.999999585442
 20
1114.416665568043
 30
0.0
 40
15.0
 41
0.0
 71
     5
 72
     5
  1
\A1;B
  7
Standard
 73
     1
 44
1.0
1001
ACAD
1000
MTEXTBEGIN
1070
    73
1070
     1
1070
    44
1040
1.0
1070
    74
1070
     0
1000
MTEXTEND
1000
ACAD_MTEXT_DEFINED_HEIGHT_BEGIN
1070
    46
1040
15.0
1000
ACAD_MTEXT_DEFINED_HEIGHT_END
  0
MTEXT
  5
CFA
330
BC7
100
AcDbEntity
  8
HIDDEN1
 62
     7
370
    25
100
AcDbMText
 10
2064.999999585444
 20
1361.916665568042
 30
0.0
 40
15.0
 41
0.0
 71
     5
 72
     5
  1
\A1;A
  7
Standard
 73
     1
 44
1.0
1001
ACAD
1000
MTEXTBEGIN
1070
    73
1070
     1
1070
    44
1040
1.0
1070
    74
1070
     0
1000
MTEXTEND
1000
ACAD_MTEXT_DEFINED_HEIGHT_BEGIN
1070
    46
1040
15.0
1000
ACAD_MTEXT_DEFINED_HEIGHT_END
  0
MTEXT
  5
CFB
330
BC7
100
AcDbEntity
  8
HIDDEN1
 62
     7
370
    25
100
AcDbMText
 10
1968.749999585444
 20
1450.666665568046
 30
0.0
 40
15.0
 41
0.0
 71
     5
 72
     5
  1
\A1;8
  7
Standard
 73
     1
 44
1.0
1001
ACAD
1000
MTEXTBEGIN
1070
    73
1070
     1
1070
    44
1040
1.0
1070
    74
1070
     0
1000
MTEXTEND
1000
ACAD_MTEXT_DEFINED_HEIGHT_BEGIN
1070
    46
1040
15.0
1000
ACAD_MTEXT_DEFINED_HEIGHT_END
  0
MTEXT
  5
CFC
330
BC7
100
AcDbEntity
  8
HIDDEN1
 62
     7
370
    25
100
AcDbMText
 10
1706.249999585444
 20
1450.666665568046
 30
0.0
 40
15.0
 41
0.0
 71
     5
 72
     5
  1
\A1;7
  7
Standard
 73
     1
 44
1.0
1001
ACAD
1000
MTEXTBEGIN
1070
    73
1070
     1
1070
    44
1040
1.0
1070
    74
1070
     0
1000
MTEXTEND
1000
ACAD_MTEXT_DEFINED_HEIGHT_BEGIN
1070
    46
1040
15.0
1000
ACAD_MTEXT_DEFINED_HEIGHT_END
  0
MTEXT
  5
CFD
330
BC7
100
AcDbEntity
  8
HIDDEN1
 62
     7
370
    25
100
AcDbMText
 10
1443.749999585444
 20
1450.666665568046
 30
0.0
 40
15.0
 41
0.0
 71
     5
 72
     5
  1
\A1;6
  7
Standard
 73
     1
 44
1.0
1001
ACAD
1000
MTEXTBEGIN
1070
    73
1070
     1
1070
    44
1040
1.0
1070
    74
1070
     0
1000
MTEXTEND
1000
ACAD_MTEXT_DEFINED_HEIGHT_BEGIN
1070
    46
1040
15.0
1000
ACAD_MTEXT_DEFINED_HEIGHT_END
  0
MTEXT
  5
CFE
330
BC7
100
AcDbEntity
  8
HIDDEN1
 62
     7
370
    25
100
AcDbMText
 10
1181.249999585444
 20
1450.666665568046
 30
0.0
 40
15.0
 41
0.0
 71
     5
 72
     5
  1
\A1;5
  7
Standard
 73
     1
 44
1.0
1001
ACAD
1000
MTEXTBEGIN
1070
    73
1070
     1
1070
    44
1040
1.0
1070
    74
1070
     0
1000
MTEXTEND
1000
ACAD_MTEXT_DEFINED_HEIGHT_BEGIN
1070
    46
1040
15.0
1000
ACAD_MTEXT_DEFINED_HEIGHT_END
  0
MTEXT
  5
CFF
330
BC7
100
AcDbEntity
  8
HIDDEN1
 62
     7
370
    25
100
AcDbMText
 10
918.7499995854439
 20
1450.666665568046
 30
0.0
 40
15.0
 41
0.0
 71
     5
 72
     5
  1
\A1;4
  7
Standard
 73
     1
 44
1.0
1001
ACAD
1000
MTEXTBEGIN
1070
    73
1070
     1
1070
    44
1040
1.0
1070
    74
1070
     0
1000
MTEXTEND
1000
ACAD_MTEXT_DEFINED_HEIGHT_BEGIN
1070
    46
1040
15.0
1000
ACAD_MTEXT_DEFINED_HEIGHT_END
  0
MTEXT
  5
D00
330
BC7
100
AcDbEntity
  8
HIDDEN1
 62
     7
370
    25
100
AcDbMText
 10
656.249999585445
 20
1450.666665568046
 30
0.0
 40
15.0
 41
0.0
 71
     5
 72
     5
  1
\A1;3
  7
Standard
 73
     1
 44
1.0
1001
ACAD
1000
MTEXTBEGIN
1070
    73
1070
     1
1070
    44
1040
1.0
1070
    74
1070
     0
1000
MTEXTEND
1000
ACAD_MTEXT_DEFINED_HEIGHT_BEGIN
1070
    46
1040
15.0
1000
ACAD_MTEXT_DEFINED_HEIGHT_END
  0
MTEXT
  5
D01
330
BC7
100
AcDbEntity
  8
HIDDEN1
 62
     7
370
    25
100
AcDbMText
 10
393.7499995854448
 20
1450.666665568044
 30
0.0
 40
15.0
 41
0.0
 71
     5
 72
     5
  1
\A1;2
  7
Standard
 73
     1
 44
1.0
1001
ACAD
1000
MTEXTBEGIN
1070
    73
1070
     1
1070
    44
1040
1.0
1070
    74
1070
     0
1000
MTEXTEND
1000
ACAD_MTEXT_DEFINED_HEIGHT_BEGIN
1070
    46
1040
15.0
1000
ACAD_MTEXT_DEFINED_HEIGHT_END
  0
MTEXT
  5
D02
330
BC7
100
AcDbEntity
  8
HIDDEN1
 62
     7
370
    25
100
AcDbMText
 10
193.7499998792059
 20
1450.666665568044
 30
0.0
 40
15.0
 41
0.0
 71
     5
 72
     5
  1
\A1;\W1.5000;1
  7
Standard
 73
     1
 44
1.0
1001
ACAD
1000
MTEXTBEGIN
1070
    73
1070
     1
1070
    44
1040
1.0
1070
    74
1070
     0
1000
MTEXTEND
1000
ACAD_MTEXT_DEFINED_HEIGHT_BEGIN
1070
    46
1040
15.0
1000
ACAD_MTEXT_DEFINED_HEIGHT_END
  0
MTEXT
  5
D03
330
BC7
100
AcDbEntity
  8
HIDDEN1
 62
     7
370
    25
100
AcDbMText
 10
109.9999995854455
 20
1361.916665568044
 30
0.0
 40
15.0
 41
0.0
 71
     5
 72
     5
  1
\A1;A
  7
Standard
 73
     1
 44
1.0
1001
ACAD
1000
MTEXTBEGIN
1070
    73
1070
     1
1070
    44
1040
1.0
1070
    74
1070
     0
1000
MTEXTEND
1000
ACAD_MTEXT_DEFINED_HEIGHT_BEGIN
1070
    46
1040
15.0
1000
ACAD_MTEXT_DEFINED_HEIGHT_END
  0
MTEXT
  5
D04
330
BC7
100
AcDbEntity
  8
HIDDEN1
 62
     7
370
    25
100
AcDbMText
 10
109.9999995854455
 20
1114.416665568045
 30
0.0
 40
15.0
 41
0.0
 71
     5
 72
     5
  1
\A1;B
  7
Standard
 73
     1
 44
1.0
1001
ACAD
1000
MTEXTBEGIN
1070
    73
1070
     1
1070
    44
1040
1.0
1070
    74
1070
     0
1000
MTEXTEND
1000
ACAD_MTEXT_DEFINED_HEIGHT_BEGIN
1070
    46
1040
15.0
1000
ACAD_MTEXT_DEFINED_HEIGHT_END
  0
MTEXT
  5
D05
330
BC7
100
AcDbEntity
  8
HIDDEN1
 62
     7
370
    25
100
AcDbMText
 10
109.9999995854455
 20
866.9166655680431
 30
0.0
 40
15.0
 41
0.0
 71
     5
 72
     5
  1
\A1;C
  7
Standard
 73
     1
 44
1.0
1001
ACAD
1000
MTEXTBEGIN
1070
    73
1070
     1
1070
    44
1040
1.0
1070
    74
1070
     0
1000
MTEXTEND
1000
ACAD_MTEXT_DEFINED_HEIGHT_BEGIN
1070
    46
1040
15.0
1000
ACAD_MTEXT_DEFINED_HEIGHT_END
  0
MTEXT
  5
D06
330
BC7
100
AcDbEntity
  8
HIDDEN1
 62
     7
370
    25
100
AcDbMText
 10
109.9999995854455
 20
619.4166655680438
 30
0.0
 40
15.0
 41
0.0
 71
     5
 72
     5
  1
\A1;D
  7
Standard
 73
     1
 44
1.0
1001
ACAD
1000
MTEXTBEGIN
1070
    73
1070
     1
1070
    44
1040
1.0
1070
    74
1070
     0
1000
MTEXTEND
1000
ACAD_MTEXT_DEFINED_HEIGHT_BEGIN
1070
    46
1040
15.0
1000
ACAD_MTEXT_DEFINED_HEIGHT_END
  0
MTEXT
  5
D07
330
BC7
100
AcDbEntity
  8
HIDDEN1
 62
     7
370
    25
100
AcDbMText
 10
109.9999995854455
 20
371.916665568044
 30
0.0
 40
15.0
 41
0.0
 71
     5
 72
     5
  1
\A1;E
  7
Standard
 73
     1
 44
1.0
1001
ACAD
1000
MTEXTBEGIN
1070
    73
1070
     1
1070
    44
1040
1.0
1070
    74
1070
     0
1000
MTEXTEND
1000
ACAD_MTEXT_DEFINED_HEIGHT_BEGIN
1070
    46
1040
15.0
1000
ACAD_MTEXT_DEFINED_HEIGHT_END
  0
MTEXT
  5
D08
330
BC7
100
AcDbEntity
  8
HIDDEN1
 62
     7
370
    25
100
AcDbMText
 10
109.9999995854455
 20
124.4166655680447
 30
0.0
 40
15.0
 41
0.0
 71
     5
 72
     5
  1
\A1;F
  7
Standard
 73
     1
 44
1.0
1001
ACAD
1000
MTEXTBEGIN
1070
    73
1070
     1
1070
    44
1040
1.0
1070
    74
1070
     0
1000
MTEXTEND
1000
ACAD_MTEXT_DEFINED_HEIGHT_BEGIN
1070
    46
1040
15.0
1000
ACAD_MTEXT_DEFINED_HEIGHT_END
  0
MTEXT
  5
D09
330
BC7
100
AcDbEntity
  8
HIDDEN1
 62
     7
370
    25
100
AcDbMText
 10
193.7499998792068
 20
35.66666556804057
 30
0.0
 40
15.0
 41
0.0
 71
     5
 72
     5
  1
\A1;\W1.5000;1
  7
Standard
 73
     1
 44
1.0
1001
ACAD
1000
MTEXTBEGIN
1070
    73
1070
     1
1070
    44
1040
1.0
1070
    74
1070
     0
1000
MTEXTEND
1000
ACAD_MTEXT_DEFINED_HEIGHT_BEGIN
1070
    46
1040
15.0
1000
ACAD_MTEXT_DEFINED_HEIGHT_END
  0
MTEXT
  5
D0A
330
BC7
100
AcDbEntity
  8
HIDDEN1
 62
     7
370
    25
100
AcDbMText
 10
393.7499995854457
 20
35.66666556804057
 30
0.0
 40
15.0
 41
0.0
 71
     5
 72
     5
  1
\A1;2
  7
Standard
 73
     1
 44
1.0
1001
ACAD
1000
MTEXTBEGIN
1070
    73
1070
     1
1070
    44
1040
1.0
1070
    74
1070
     0
1000
MTEXTEND
1000
ACAD_MTEXT_DEFINED_HEIGHT_BEGIN
1070
    46
1040
15.0
1000
ACAD_MTEXT_DEFINED_HEIGHT_END
  0
MTEXT
  5
D0B
330
BC7
100
AcDbEntity
  8
HIDDEN1
 62
     7
370
    25
100
AcDbMText
 10
656.249999585446
 20
35.66666556804057
 30
0.0
 40
15.0
 41
0.0
 71
     5
 72
     5
  1
\A1;3
  7
Standard
 73
     1
 44
1.0
1001
ACAD
1000
MTEXTBEGIN
1070
    73
1070
     1
1070
    44
1040
1.0
1070
    74
1070
     0
1000
MTEXTEND
1000
ACAD_MTEXT_DEFINED_HEIGHT_BEGIN
1070
    46
1040
15.0
1000
ACAD_MTEXT_DEFINED_HEIGHT_END
  0
MTEXT
  5
D0C
330
BC7
100
AcDbEntity
  8
HIDDEN1
 62
     7
370
    25
100
AcDbMText
 10
918.749999585445
 20
35.66666556804057
 30
0.0
 40
15.0
 41
0.0
 71
     5
 72
     5
  1
\A1;4
  7
Standard
 73
     1
 44
1.0
1001
ACAD
1000
MTEXTBEGIN
1070
    73
1070
     1
1070
    44
1040
1.0
1070
    74
1070
     0
1000
MTEXTEND
1000
ACAD_MTEXT_DEFINED_HEIGHT_BEGIN
1070
    46
1040
15.0
1000
ACAD_MTEXT_DEFINED_HEIGHT_END
  0
MTEXT
  5
D0D
330
BC7
100
AcDbEntity
  8
HIDDEN1
 62
     7
370
    25
100
AcDbMText
 10
1181.249999585444
 20
35.66666556804057
 30
0.0
 40
15.0
 41
0.0
 71
     5
 72
     5
  1
\A1;5
  7
Standard
 73
     1
 44
1.0
1001
ACAD
1000
MTEXTBEGIN
1070
    73
1070
     1
1070
    44
1040
1.0
1070
    74
1070
     0
1000
MTEXTEND
1000
ACAD_MTEXT_DEFINED_HEIGHT_BEGIN
1070
    46
1040
15.0
1000
ACAD_MTEXT_DEFINED_HEIGHT_END
  0
MTEXT
  5
D0E
330
BC7
100
AcDbEntity
  8
HIDDEN1
 62
     7
370
    25
100
AcDbMText
 10
1443.749999585446
 20
35.66666556804057
 30
0.0
 40
15.0
 41
0.0
 71
     5
 72
     5
  1
\A1;6
  7
Standard
 73
     1
 44
1.0
1001
ACAD
1000
MTEXTBEGIN
1070
    73
1070
     1
1070
    44
1040
1.0
1070
    74
1070
     0
1000
MTEXTEND
1000
ACAD_MTEXT_DEFINED_HEIGHT_BEGIN
1070
    46
1040
15.0
1000
ACAD_MTEXT_DEFINED_HEIGHT_END
  0
MTEXT
  5
D0F
330
BC7
100
AcDbEntity
  8
HIDDEN1
 62
     7
370
    25
100
AcDbMText
 10
1706.249999585445
 20
35.66666556804057
 30
0.0
 40
15.0
 41
0.0
 71
     5
 72
     5
  1
\A1;7
  7
Standard
 73
     1
 44
1.0
1001
ACAD
1000
MTEXTBEGIN
1070
    73
1070
     1
1070
    44
1040
1.0
1070
    74
1070
     0
1000
MTEXTEND
1000
ACAD_MTEXT_DEFINED_HEIGHT_BEGIN
1070
    46
1040
15.0
1000
ACAD_MTEXT_DEFINED_HEIGHT_END
  0
MTEXT
  5
D10
330
BC7
100
AcDbEntity
  8
HIDDEN1
 62
     7
370
    25
100
AcDbMText
 10
1968.749999585446
 20
35.66666556804057
 30
0.0
 40
15.0
 41
0.0
 71
     5
 72
     5
  1
\A1;8
  7
Standard
 73
     1
 44
1.0
1001
ACAD
1000
MTEXTBEGIN
1070
    73
1070
     1
1070
    44
1040
1.0
1070
    74
1070
     0
1000
MTEXTEND
1000
ACAD_MTEXT_DEFINED_HEIGHT_BEGIN
1070
    46
1040
15.0
1000
ACAD_MTEXT_DEFINED_HEIGHT_END
  0
MTEXT
  5
D11
330
BC7
100
AcDbEntity
  8
M2
 62
     4
370
    50
100
AcDbMText
 10
1506.666666666667
 20
93.33333531695894
 30
0.0
 40
20.0
 41
0.0
 71
     1
 72
     5
  1
\A1;\W0.7875;DWG No.
  7
Standard
 73
     1
 44
1.0
1001
ACAD
1000
MTEXTBEGIN
1070
    73
1070
     1
1070
    44
1040
1.0
1070
    74
1070
     0
1000
MTEXTEND
1000
ACAD_MTEXT_DEFINED_HEIGHT_BEGIN
1070
    46
1040
20.0
1000
ACAD_MTEXT_DEFINED_HEIGHT_END
  0
MTEXT
  5
D12
330
BC7
100
AcDbEntity
  8
M2
 62
     4
370
    50
100
AcDbMText
 10
1506.666666666667
 20
200.0000019836266
 30
0.0
 40
20.0
 41
0.0
 71
     1
 72
     5
  1
\A1;\W0.8036;TITLE
  7
Standard
 73
     1
 44
1.0
1001
ACAD
1000
MTEXTBEGIN
1070
    73
1070
     1
1070
    44
1040
1.0
1070
    74
1070
     0
1000
MTEXTEND
1000
ACAD_MTEXT_DEFINED_HEIGHT_BEGIN
1070
    46
1040
20.0
1000
ACAD_MTEXT_DEFINED_HEIGHT_END
  0
ENDBLK
  5
D13
330
BC7
100
AcDbEntity
  8
0
100
AcDbBlockEnd
  0
ENDSEC
  0
SECTION
  2
ENTITIES
  0
LEADER
  5
A8
330
A
100
AcDbEntity
  8
PV
  6
Continuous
370
     0
100
AcDbLeader
  3
MXDIMSTYLE
 74
     0
 76
     2
 10
14.80225903508988
 20
463.3405461902701
 30
0.0
 10
165.3422571111423
 20
577.4361053305382
 30
0.0
1001
ACAD
1000
DSTYLE
1002
{
1070
     6
1000
_OPEN30
1070
     7
1000
_OPEN30
1070
    41
1040
2.77
1070
   173
1070
     1
1070
   341
1005
99
1002
}
  0
LEADER
  5
C7
330
A
100
AcDbEntity
  8
PV
  6
Continuous
 62
     7
370
     0
100
AcDbLeader
  3
MXDIMSTYLE
 74
     0
 76
     2
 10
-20.72964972876413
 20
-311.6595720776653
 30
0.0
 10
154.6400988773173
 20
-446.2114521441179
 30
0.0
1001
ACAD
1000
DSTYLE
1002
{
1070
     6
1000
_OPEN30
1070
     7
1000
_OPEN30
1070
    41
1040
2.77
1070
   173
1070
     1
1070
   341
1005
99
1002
}
  0
DIMENSION
  5
D5
330
A
100
AcDbEntity
  8
PV
100
AcDbDimension
  2
*D3
 10
216.0021938401616
 20
95.81180521021906
 30
0.0
 11
76.09922036797797
 21
95.81180521021906
 31
0.0
 70
   160
  1
\U+2205<>
 71
     5
 41
0.9359251894303499
 42
402.3997192382813
  3
MXDIMSTYLE
100
AcDbAlignedDimension
 13
-186.3975477379481
 23
14.86414710487335
 33
0.0
 14
216.0021938401616
 24
14.96008674110382
 34
0.0
100
AcDbRotatedDimension
1001
ACAD
1000
DSTYLE
1002
{
1070
     6
1000
_OPEN30
1070
     7
1000
_OPEN30
1070
    41
1040
2.77
1070
    44
1040
1.999992370605468
1070
   144
1040
0.9999999444834919
1070
   173
1070
     1
1070
   271
1070
     0
1070
   284
1070
     8
1070
   340
1005
CF
1070
   341
1005
99
1002
}
  0
DIMENSION
  5
E3
330
A
100
AcDbEntity
  8
PV
100
AcDbDimension
  2
*D4
 10
236.0021856147209
 20
287.4989907422305
 30
0.0
 11
81.88697705203049
 21
287.4989907422305
 31
0.0
 70
   160
  1
\U+2205<>
 71
     5
 41
0.9359251894303499
 42
442.4000244140625
  3
MXDIMSTYLE
100
AcDbAlignedDimension
 13
-206.3978485029767
 23
217.1401347054365
 33
0.0
 14
236.0021856147209
 24
217.1401347054365
 34
0.0
100
AcDbRotatedDimension
1001
ACAD
1000
DSTYLE
1002
{
1070
     6
1000
_OPEN30
1070
     7
1000
_OPEN30
1070
    41
1040
2.77
1070
    44
1040
1.999992370605468
1070
   144
1040
0.9999999780659257
1070
   173
1070
     1
1070
   271
1070
     0
1070
   284
1070
     8
1070
   340
1005
DD
1070
   341
1005
99
1002
}
  0
MTEXT
  5
101
330
A
100
AcDbEntity
  8
PV
  6
Continuous
 62
     7
100
AcDbMText
 10
170.6481536215628
 20
627.6345474206435
 30
0.0
 40
16.668
 41
0.0
 71
     1
 72
     1
  1
\A1;{\W0.859;G4 メネジ JIS B0202\PG4 Internal Thread}
 73
     1
 44
0.9359251894303499
1001
ACAD
1000
MTEXTBEGIN
1070
    73
1070
     1
1070
    44
1040
0.9359251894303499
1070
    74
1070
     0
1000
MTEXTEND
  0
MTEXT
  5
103
330
A
100
AcDbEntity
  8
PV
  6
Continuous
 62
     7
100
AcDbMText
 10
165.6341734929956
 20
-423.758797482795
 30
0.0
 40
16.668
 41
0.0
 71
     1
 72
     1
  1
\A1;{\W0.711;圧力モニタ－取り付けポ－ト\PＧ１／４ JIS B0202\PPressure Measuring Port}
 73
     1
 44
0.9359251894303499
1001
ACAD
1000
MTEXTBEGIN
1070
    73
1070
     1
1070
    44
1040
0.9359251894303499
1070
    74
1070
     0
1000
MTEXTEND
  0
SPLINE
  5
10A
330
A
100
AcDbEntity
  8
PV
100
AcDbSpline
210
0.0
220
0.0
230
1.0
 70
     8
 71
     3
 72
     9
 73
     5
 74
     3
 42
0.0000000001
 43
0.0000000001
 44
0.000001
 12
-0.6000000079350492
 22
-0.7999999940487133
 32
0.0
 13
-1.0
 23
-0.000000000000001
 33
0.0
 40
0.0
 40
0.0
 40
0.0
 40
0.0
 40
0.9559162961139453
 40
1.843899604518432
 40
1.843899604518432
 40
1.843899604518432
 40
1.843899604518432
 10
232.5521811399024
 20
213.1401978960965
 30
0.0
 10
232.3609978781512
 20
212.8852868856958
 30
0.0
 10
231.9441126663674
 20
212.4344178337298
 30
0.0
 10
231.3482213971064
 20
212.1401445201387
 30
0.0
 10
231.0522269609716
 20
212.1401445201387
 30
0.0
 11
232.5521811399024
 21
213.1401978960965
 31
0.0
 11
231.8806440430987
 21
212.4598936312322
 31
0.0
 11
231.0522269609716
 21
212.1401445201387
 31
0.0
  0
SPLINE
  5
10B
330
A
100
AcDbEntity
  8
PV
100
AcDbSpline
210
0.0
220
0.0
230
1.0
 70
     8
 71
     3
 72
     9
 73
     5
 74
     3
 42
0.0000000001
 43
0.0000000001
 44
0.000001
 12
1.0
 22
-0.0000000000000014
 32
0.0
 13
0.600000023805149
 23
-0.7999999821461378
 33
0.0
 40
0.0
 40
0.0
 40
0.0
 40
0.0
 40
0.8879812005407302
 40
1.843899074071082
 40
1.843899074071082
 40
1.843899074071082
 40
1.843899074071082
 10
231.0522269609716
 20
229.6402202925411
 30
0.0
 10
231.3482206944852
 20
229.6402202925411
 30
0.0
 10
231.9441107020995
 20
229.3459452529805
 30
0.0
 10
232.3609975576111
 20
228.8950783438358
 30
0.0
 10
232.5521811399024
 20
228.6401669165833
 30
0.0
 11
231.0522269609716
 21
229.6402202925411
 31
0.0
 11
231.8806417750441
 21
229.3204711590958
 31
0.0
 11
232.5521811399024
 21
228.6401669165833
 31
0.0
  0
SPLINE
  5
10C
330
A
100
AcDbEntity
  8
PV
100
AcDbSpline
210
0.0
220
0.0
230
1.0
 70
     8
 71
     3
 72
     9
 73
     5
 74
     3
 42
0.0000000001
 43
0.0000000001
 44
0.000001
 12
0.6000000238051496
 22
0.7999999821461374
 32
0.0
 13
1.0
 23
-0.0000000000000014
 33
0.0
 40
0.0
 40
0.0
 40
0.0
 40
0.0
 40
0.9559209316289686
 40
1.843876718293121
 40
1.843876718293121
 40
1.843876718293121
 40
1.843876718293121
 10
221.0522425177835
 20
228.6401669165833
 30
0.0
 10
221.2434267116946
 20
228.8950791593288
 30
0.0
 10
221.6603129318599
 20
229.3459331110567
 30
0.0
 10
222.2561885463098
 20
229.6402202925411
 30
0.0
 10
222.5521738085312
 20
229.6402202925411
 30
0.0
 11
221.0522425177835
 21
228.6401669165833
 31
0.0
 11
221.7237862357542
 21
229.3204711590958
 31
0.0
 11
222.5521738085312
 21
229.6402202925411
 31
0.0
  0
SPLINE
  5
10D
330
A
100
AcDbEntity
  8
PV
100
AcDbSpline
210
0.0
220
0.0
230
1.0
 70
     8
 71
     3
 72
     9
 73
     5
 74
     3
 42
0.0000000001
 43
0.0000000001
 44
0.000001
 12
0.6000000079350492
 22
-0.7999999940487133
 32
0.0
 13
1.0
 23
0.0000000000000019
 33
0.0
 40
0.0
 40
0.0
 40
0.0
 40
0.0
 40
0.9559209396861479
 40
1.843876728726195
 40
1.843876728726195
 40
1.843876728726195
 40
1.843876728726195
 10
221.0522425177835
 20
213.1401978960965
 30
0.0
 10
221.2434267082492
 20
212.8852856474098
 30
0.0
 10
221.6603129085752
 20
212.4344316617448
 30
0.0
 10
222.2561885455179
 20
212.1401445201387
 30
0.0
 10
222.5521738085312
 20
212.1401445201387
 30
0.0
 11
221.0522425177835
 21
213.1401978960965
 31
0.0
 11
221.7237862245799
 21
212.4598936312322
 31
0.0
 11
222.5521738085312
 21
212.1401445201387
 31
0.0
  0
ARC
  5
114
330
A
100
AcDbEntity
  8
PV
100
AcDbCircle
 10
109.8022382038974
 20
-145.4593678900397
 30
0.0
 40
61.20003708600886
100
AcDbArc
 50
278.8633632267182
 51
359.9999640278219
  0
ARC
  5
115
330
A
100
AcDbEntity
  8
PV
100
AcDbCircle
 10
120.0024370271051
 20
-210.8691183096042
 30
0.0
 40
5.000002235174112
100
AcDbArc
 50
98.86338189605282
 51
179.9999640278211
  0
ARC
  5
116
330
A
100
AcDbEntity
  8
PV
100
AcDbCircle
 10
-80.19759782372965
 20
-145.4593678900397
 30
0.0
 40
61.20003708600886
100
AcDbArc
 50
180.0000906136921
 51
261.1366727454607
  0
ARC
  5
117
330
A
100
AcDbEntity
  8
PV
100
AcDbCircle
 10
-90.39764215170269
 20
-210.8691183096042
 30
0.0
 40
5.000002235174112
100
AcDbArc
 50
0.0000359721780749
 51
81.13663677328188
  0
ARC
  5
118
330
A
100
AcDbEntity
  8
PV
100
AcDbCircle
 10
-160.1979025226647
 20
14.96008524153308
 30
0.0
 40
26.19999712109575
100
AcDbArc
 50
180.0000359721789
 51
270.0000179860893
  0
ARC
  5
119
330
A
100
AcDbEntity
  8
PV
100
AcDbCircle
 10
189.8020908612199
 20
14.96008524153308
 30
0.0
 40
26.19999712109575
100
AcDbArc
 50
270.0000179860893
 51
0.0
  0
ARC
  5
11A
330
A
100
AcDbEntity
  8
PV
100
AcDbCircle
 10
221.0021860617557
 20
212.1406480601627
 30
0.0
 40
5.000002235174112
100
AcDbArc
 50
89.99998201391065
 51
180.0000186693345
  0
ARC
  5
11B
330
A
100
AcDbEntity
  8
PV
100
AcDbCircle
 10
-191.3975514036336
 20
212.1406480601627
 30
0.0
 40
5.000002235174112
100
AcDbArc
 50
0.0
 51
89.99998201391065
  0
ARC
  5
11D
330
A
100
AcDbEntity
  8
PV
100
AcDbCircle
 10
232.8022574263948
 20
219.8401412389031
 30
0.0
 40
3.200000429153428
100
AcDbArc
 50
359.9999813306647
 51
90.00003665542399
  0
ARC
  5
11E
330
A
100
AcDbEntity
  8
PV
100
AcDbCircle
 10
221.0021860617557
 20
228.0401074251891
 30
0.0
 40
5.000002235174112
100
AcDbArc
 50
180.0000359721789
 51
270.0000179860893
  0
ARC
  5
11F
330
A
100
AcDbEntity
  8
PV
100
AcDbCircle
 10
164.8022327500726
 20
358.368190394137
 30
0.0
 40
51.20000686645487
100
AcDbArc
 50
0.0000359721780749
 51
64.62309717164534
  0
ARC
  5
120
330
A
100
AcDbEntity
  8
PV
100
AcDbCircle
 10
-203.1979203146506
 20
219.8401412389031
 30
0.0
 40
3.200000429153428
100
AcDbArc
 50
89.99998201391065
 51
180.0000186693345
  0
ARC
  5
121
330
A
100
AcDbEntity
  8
PV
100
AcDbCircle
 10
-191.3978489500115
 20
228.0401074251891
 30
0.0
 40
5.000002235174112
100
AcDbArc
 50
270.0000179860893
 51
3.809107707656881
  0
ARC
  5
122
330
A
100
AcDbEntity
  8
PV
100
AcDbCircle
 10
-135.1977468651395
 20
358.368190394137
 30
0.0
 40
51.20000686645487
100
AcDbArc
 50
115.3769214976893
 51
179.9999640278211
  0
ARC
  5
129
330
A
100
AcDbEntity
  8
PV
100
AcDbCircle
 10
83.30230002881339
 20
442.5230951126876
 30
0.0
 40
5.000002235174112
100
AcDbArc
 50
179.9999093863076
 51
260.2914605139625
  0
ARC
  5
12A
330
A
100
AcDbEntity
  8
PV
100
AcDbCircle
 10
14.80224294246655
 20
42.14045476230549
 30
0.0
 40
401.2000002503395
100
AcDbArc
 50
64.57069596033278
 51
80.2914964861412
  0
ARC
  5
12B
330
A
100
AcDbEntity
  8
PV
100
AcDbCircle
 10
77.30224298717003
 20
450.8405692300421
 30
0.0
 40
0.9999848902229995
100
AcDbArc
 50
180.0000359721789
 51
269.999963344576
  0
ARC
  5
12C
330
A
100
AcDbEntity
  8
PV
100
AcDbCircle
 10
77.30224298717003
 20
450.8405692300421
 30
0.0
 40
0.9999848902229995
100
AcDbArc
 50
90.00003665542399
 51
180.0000186693345
  0
ARC
  5
12D
330
A
100
AcDbEntity
  8
PV
100
AcDbCircle
 10
-53.69781414388028
 20
442.5230951126876
 30
0.0
 40
5.000002235174112
100
AcDbArc
 50
279.7085581553722
 51
0.0000810678504318
  0
ARC
  5
12E
330
A
100
AcDbEntity
  8
PV
100
AcDbCircle
 10
14.80224294246655
 20
42.14045476230549
 30
0.0
 40
401.2000002503395
100
AcDbArc
 50
99.70852218319343
 51
115.4293227090017
  0
ARC
  5
12F
330
A
100
AcDbEntity
  8
PV
100
AcDbCircle
 10
-47.69790587542585
 20
450.8405692300421
 30
0.0
 40
0.9999848902229995
100
AcDbArc
 50
270.0000179860893
 51
359.9999826971572
  0
ARC
  5
130
330
A
100
AcDbEntity
  8
PV
100
AcDbCircle
 10
-47.69790587542585
 20
450.8405692300421
 30
0.0
 40
0.9999848902229995
100
AcDbArc
 50
0.0
 51
89.99998201391065
  0
LINE
  5
146
330
A
100
AcDbEntity
  8
PV
  6
Continuous
 62
     7
370
     0
100
AcDbLine
 10
154.6400988773173
 20
-446.2114521441179
 30
0.0
 11
449.7106619829433
 21
-446.2114521441179
 31
0.0
  0
LINE
  5
14B
330
A
100
AcDbEntity
  8
PV
100
AcDbLine
 10
-102.9523030037588
 20
-229.7533000540308
 30
0.0
 11
-109.0396535576436
 21
-219.3637334590348
 31
0.0
  0
LINE
  5
14C
330
A
100
AcDbEntity
  8
PV
100
AcDbLine
 10
-102.9524679581247
 20
-229.7533109036057
 30
0.0
 11
-100.4803449780087
 21
-222.1448987181758
 31
0.0
  0
LINE
  5
14D
330
A
100
AcDbEntity
  8
PV
100
AcDbLine
 10
-100.4802018957542
 20
-222.1450807148726
 30
0.0
 11
-111.5118714220587
 21
-226.9723907671541
 31
0.0
  0
LINE
  5
14E
330
A
100
AcDbEntity
  8
PV
100
AcDbLine
 10
-98.19782785276659
 20
-222.8865334903593
 30
0.0
 11
-111.3225285259503
 21
-218.622059727561
 31
0.0
  0
LINE
  5
14F
330
A
100
AcDbEntity
  8
PV
100
AcDbLine
 10
-98.19761017320615
 20
-222.8866042187361
 30
0.0
 11
-97.2705627295056
 21
-220.0334455677081
 31
0.0
  0
LINE
  5
150
330
A
100
AcDbEntity
  8
PV
  6
CENTER
 62
     7
100
AcDbLine
 10
-107.6904194489087
 20
-229.7730129589194
 30
0.0
 11
-98.23984934611068
 21
-200.6871489838123
 31
0.0
  0
LINE
  5
151
330
A
100
AcDbEntity
  8
PV
100
AcDbLine
 10
-94.79796535704693
 20
-220.8369253873883
 30
0.0
 11
-89.93794628430249
 21
-205.8793247211154
 31
0.0
  0
LINE
  5
152
330
A
100
AcDbEntity
  8
PV
100
AcDbLine
 10
-112.8681032096402
 20
-214.9654974446989
 30
0.0
 11
-94.79801678996123
 21
-220.8368244446103
 31
0.0
  0
LINE
  5
153
330
A
100
AcDbEntity
  8
PV
100
AcDbLine
 10
-112.8681279645721
 20
-214.9655736325451
 30
0.0
 11
-107.9990804145318
 21
-199.9801861703781
 31
0.0
  0
LINE
  5
154
330
A
100
AcDbEntity
  8
PV
100
AcDbLine
 10
-111.3223108463898
 20
-218.6221304559378
 30
0.0
 11
-110.3952634026892
 21
-215.7689718049098
 31
0.0
  0
LINE
  5
155
330
A
100
AcDbEntity
  8
PV
100
AcDbLine
 10
-102.9524679581247
 20
-229.7533109036057
 30
0.0
 11
-111.512134380824
 21
-226.9721066851744
 31
0.0
  0
LINE
  5
156
330
A
100
AcDbEntity
  8
PV
100
AcDbLine
 10
-111.5119167012635
 20
-226.9721774135512
 30
0.0
 11
-109.0397937211476
 21
-219.3637652281213
 31
0.0
  0
LINE
  5
157
330
A
100
AcDbEntity
  8
PV
  6
CENTER
 62
     7
100
AcDbLine
 10
-200.8570302555821
 20
-24.73921158979138
 30
0.0
 11
-176.24865867268
 21
-0.130914682679574
 31
0.0
  0
LINE
  5
160
330
A
100
AcDbEntity
  8
PV
  6
Continuous
 62
     3
100
AcDbLine
 10
-70.39077820022419
 20
-11.65947802153859
 30
0.0
 11
-70.34789718953925
 21
-11.65947802153859
 31
0.0
  0
LINE
  5
161
330
A
100
AcDbEntity
  8
PV
100
AcDbLine
 10
-85.69732490897054
 20
-217.8595928021996
 30
0.0
 11
-84.19738789617703
 21
-217.8595928021996
 31
0.0
  0
LINE
  5
162
330
A
100
AcDbEntity
  8
PV
100
AcDbLine
 10
-84.19738789617703
 20
-217.8595928021996
 30
0.0
 11
-84.19738789617703
 21
-221.6596434244229
 31
0.0
  0
LINE
  5
163
330
A
100
AcDbEntity
  8
PV
100
AcDbLine
 10
113.8021770495337
 20
-217.6596073040093
 30
0.0
 11
113.8021770495337
 21
-221.6596434244229
 31
0.0
  0
LINE
  5
164
330
A
100
AcDbEntity
  8
PV
100
AcDbLine
 10
115.3022685575619
 20
-217.6596073040093
 30
0.0
 11
113.8021770495337
 21
-217.6596073040093
 31
0.0
  0
LINE
  5
165
330
A
100
AcDbEntity
  8
PV
100
AcDbLine
 10
115.3022685575619
 20
-216.6596397587374
 30
0.0
 11
115.0024333614195
 21
-216.6596397587374
 31
0.0
  0
LINE
  5
166
330
A
100
AcDbEntity
  8
PV
100
AcDbLine
 10
115.3022685575619
 20
-216.6596397587374
 30
0.0
 11
115.3022685575619
 21
-217.6596073040093
 31
0.0
  0
LINE
  5
167
330
A
100
AcDbEntity
  8
PV
100
AcDbLine
 10
-85.69732490897054
 20
-216.6596397587374
 30
0.0
 11
-85.39764420806283
 21
-216.6596397587374
 31
0.0
  0
LINE
  5
168
330
A
100
AcDbEntity
  8
PV
100
AcDbLine
 10
-85.69732490897054
 20
-216.6596397587374
 30
0.0
 11
-85.69732490897054
 21
-217.8595928021996
 31
0.0
  0
LINE
  5
169
330
A
100
AcDbEntity
  8
PV
100
AcDbLine
 10
-84.19738789617703
 20
-221.6596434244229
 30
0.0
 11
113.8021770495337
 21
-221.6596434244229
 31
0.0
  0
LINE
  5
16A
330
A
100
AcDbEntity
  8
PV
100
AcDbLine
 10
-85.39764420806283
 20
-210.8690267568726
 30
0.0
 11
-85.39764420806283
 21
-216.6596397587374
 31
0.0
  0
LINE
  5
16B
330
A
100
AcDbEntity
  8
PV
100
AcDbLine
 10
-141.3975490790526
 20
-11.65951235381295
 30
0.0
 11
-141.3975490790526
 21
-146.4989105340772
 31
0.0
  0
LINE
  5
16C
330
A
100
AcDbEntity
  8
PV
100
AcDbLine
 10
115.0024333614195
 20
-210.8690267568726
 30
0.0
 11
115.0024333614195
 21
-216.6596397587374
 31
0.0
  0
LINE
  5
16D
330
A
100
AcDbEntity
  8
PV
100
AcDbLine
 10
171.002492727644
 20
-11.65951235381295
 30
0.0
 11
171.002492727644
 21
-146.4989105340772
 31
0.0
  0
LINE
  5
16F
330
A
100
AcDbEntity
  8
PV
100
AcDbLine
 10
223.802166141884
 20
232.3404078951747
 30
0.0
 11
229.8022346276189
 21
232.3404078951747
 31
0.0
  0
LINE
  5
170
330
A
100
AcDbEntity
  8
PV
100
AcDbLine
 10
188.3019993531918
 20
-11.65951235381295
 30
0.0
 11
189.8020908612199
 21
-11.65951235381295
 31
0.0
  0
LINE
  5
171
330
A
100
AcDbEntity
  8
PV
100
AcDbLine
 10
-143.1979335468813
 20
-11.65951235381295
 30
0.0
 11
-141.3980068427108
 21
-11.65951235381295
 31
0.0
  0
LINE
  5
172
330
A
100
AcDbEntity
  8
PV
100
AcDbLine
 10
-185.9152235532782
 20
3.63753624820218
 30
0.0
 11
-172.4802384994305
 21
-9.797448805645599
 31
0.0
  0
LINE
  5
173
330
A
100
AcDbEntity
  8
PV
  6
CENTER
 62
     7
 48
3.0
100
AcDbLine
 10
14.80224294246655
 20
564.010319885641
 30
0.0
 11
14.80224294246655
 21
-523.0719711199262
 31
0.0
  0
LINE
  5
174
330
A
100
AcDbEntity
  8
PV
100
AcDbLine
 10
171.0021837371747
 20
-11.65951235381295
 30
0.0
 11
189.8020908612199
 21
-11.65951235381295
 31
0.0
  0
LINE
  5
175
330
A
100
AcDbEntity
  8
PV
100
AcDbLine
 10
-141.3975490790526
 20
-11.65951235381295
 30
0.0
 11
-70.19790520487362
 21
-11.65951235381295
 31
0.0
  0
LINE
  5
176
330
A
100
AcDbEntity
  8
PV
100
AcDbLine
 10
99.80224231661779
 20
-11.65951235381295
 30
0.0
 11
172.8021104413452
 21
-11.65951235381295
 31
0.0
  0
LINE
  5
177
330
A
100
AcDbEntity
  8
PV
100
AcDbLine
 10
-70.34789718953925
 20
-11.65951235381295
 30
0.0
 11
99.80224231661779
 21
-11.65951235381295
 31
0.0
  0
LINE
  5
178
330
A
100
AcDbEntity
  8
PV
100
AcDbLine
 10
-196.5218187043049
 20
-6.968961796490106
 30
0.0
 11
-183.0867850972899
 21
-20.40399540350511
 31
0.0
  0
LINE
  5
179
330
A
100
AcDbEntity
  8
PV
100
AcDbLine
 10
-183.0867244058309
 20
-20.40416129349306
 30
0.0
 11
-172.480125208707
 21
-9.797562096369091
 31
0.0
  0
LINE
  5
17A
330
A
100
AcDbEntity
  8
PV
100
AcDbLine
 10
-196.5218227504021
 20
-6.969062948921786
 30
0.0
 11
-185.9152235532782
 21
3.63753624820218
 31
0.0
  0
LINE
  5
17B
330
A
100
AcDbEntity
  8
PV
  6
CENTER
 62
     7
100
AcDbLine
 10
226.8023491579404
 20
232.7463298191125
 30
0.0
 11
226.8023491579404
 21
208.3404086104304
 31
0.0
  0
LINE
  5
17C
330
A
100
AcDbEntity
  8
PV
  6
CENTER
 62
     7
100
AcDbLine
 10
-197.1978747170987
 20
247.6128683775199
 30
0.0
 11
-197.1978747170987
 21
208.3404086104304
 31
0.0
  0
LINE
  5
17D
330
A
100
AcDbEntity
  8
PV
100
AcDbLine
 10
-205.1978897374687
 20
217.1406402817568
 30
0.0
 11
-191.3975514036336
 21
217.1406402817568
 31
0.0
  0
LINE
  5
17E
330
A
100
AcDbEntity
  8
PV
100
AcDbLine
 10
-191.3975514036336
 20
217.1406402817568
 30
0.0
 11
236.0021856147209
 21
217.1406402817568
 31
0.0
  0
LINE
  5
17F
330
A
100
AcDbEntity
  8
PV
100
AcDbLine
 10
216.0021938401616
 20
212.1406480601627
 30
0.0
 11
216.0021938401616
 21
14.96008524153308
 31
0.0
  0
LINE
  5
180
330
A
100
AcDbEntity
  8
PV
100
AcDbLine
 10
-186.3975477379481
 20
212.1406480601627
 30
0.0
 11
-186.3975477379481
 21
14.86414942285898
 31
0.0
  0
LINE
  5
181
330
A
100
AcDbEntity
  8
PV
  6
Continuous
 62
     3
100
AcDbLine
 10
-160.1979025226647
 20
-11.23990329649406
 30
0.0
 11
-160.1979025226647
 21
-11.65951235381295
 31
0.0
  0
LINE
  5
182
330
A
100
AcDbEntity
  8
PV
100
AcDbLine
 10
189.8020908612199
 20
-11.23990329649406
 30
0.0
 11
189.8020908612199
 21
-11.65951235381295
 31
0.0
  0
LINE
  5
183
330
A
100
AcDbEntity
  8
PV
100
AcDbLine
 10
-160.1979025226647
 20
-11.65951235381295
 30
0.0
 11
-141.3975490790526
 21
-11.65951235381295
 31
0.0
  0
LINE
  5
186
330
A
100
AcDbEntity
  8
PV
100
AcDbLine
 10
229.8022346276189
 20
229.6401516279924
 30
0.0
 11
229.8022346276189
 21
232.3404078951747
 31
0.0
  0
LINE
  5
187
330
A
100
AcDbEntity
  8
PV
100
AcDbLine
 10
223.802166141884
 20
229.6401516279924
 30
0.0
 11
223.802166141884
 21
232.3404078951747
 31
0.0
  0
LINE
  5
188
330
A
100
AcDbEntity
  8
PV
100
AcDbLine
 10
232.5521811399024
 20
223.040115203595
 30
0.0
 11
232.5521811399024
 21
228.6401669165833
 31
0.0
  0
LINE
  5
189
330
A
100
AcDbEntity
  8
PV
100
AcDbLine
 10
221.0522425177835
 20
223.040115203595
 30
0.0
 11
221.0522425177835
 21
228.6401669165833
 31
0.0
  0
LINE
  5
18A
330
A
100
AcDbEntity
  8
PV
100
AcDbLine
 10
221.0522425177835
 20
213.1401978960965
 30
0.0
 11
221.0522425177835
 21
217.1401367417328
 31
0.0
  0
LINE
  5
18B
330
A
100
AcDbEntity
  8
PV
100
AcDbLine
 10
232.5521811399024
 20
213.1401978960965
 30
0.0
 11
232.5521811399024
 21
217.1406402817568
 31
0.0
  0
LINE
  5
18C
330
A
100
AcDbEntity
  8
PV
100
AcDbLine
 10
222.5521738085312
 20
229.6402202925411
 30
0.0
 11
231.0522269609716
 21
229.6402202925411
 31
0.0
  0
LINE
  5
18D
330
A
100
AcDbEntity
  8
PV
100
AcDbLine
 10
222.5521738085312
 20
212.1401445201387
 30
0.0
 11
231.0522269609716
 21
212.1401445201387
 31
0.0
  0
LINE
  5
18E
330
A
100
AcDbEntity
  8
PV
100
AcDbLine
 10
221.0522425177835
 20
224.6401365182153
 30
0.0
 11
232.5521811399024
 21
224.6401365182153
 31
0.0
  0
LINE
  5
1B1
330
A
100
AcDbEntity
  8
PV
  6
Continuous
 62
     3
100
AcDbLine
 10
236.0021856147209
 20
217.1401367417328
 30
0.0
 11
234.802226849213
 21
217.1401367417328
 31
0.0
  0
LINE
  5
1B2
330
A
100
AcDbEntity
  8
PV
100
AcDbLine
 10
232.5521811399024
 20
223.040115203595
 30
0.0
 11
-191.3978489500115
 21
223.040115203595
 31
0.0
  0
LINE
  5
1B3
330
A
100
AcDbEntity
  8
PV
100
AcDbLine
 10
236.0021856147209
 20
219.8401412389031
 30
0.0
 11
236.0021856147209
 21
217.1401367417328
 31
0.0
  0
LINE
  5
1B4
330
A
100
AcDbEntity
  8
PV
100
AcDbLine
 10
216.0021938401616
 20
359.2725940537071
 30
0.0
 11
216.0021938401616
 21
227.8969876174427
 31
0.0
  0
LINE
  5
1B5
330
A
100
AcDbEntity
  8
PV
100
AcDbLine
 10
-206.3978485029767
 20
217.1401367417328
 30
0.0
 11
-205.1978897374687
 21
217.1401367417328
 31
0.0
  0
LINE
  5
1B6
330
A
100
AcDbEntity
  8
PV
100
AcDbLine
 10
-203.1979203146506
 20
223.040115203595
 30
0.0
 11
-191.3978489500115
 21
223.040115203595
 31
0.0
  0
LINE
  5
1B7
330
A
100
AcDbEntity
  8
PV
100
AcDbLine
 10
-206.3978485029767
 20
219.8401412389031
 30
0.0
 11
-206.3978485029767
 21
217.1401367417328
 31
0.0
  0
LINE
  5
1B8
330
A
100
AcDbEntity
  8
PV
100
AcDbLine
 10
-186.3978567284175
 20
358.763927076679
 30
0.0
 11
-186.3978567284175
 21
228.1888119495659
 31
0.0
  0
LINE
  5
1B9
330
A
100
AcDbEntity
  8
PV
100
AcDbLine
 10
-205.1978897374687
 20
218.3400955072407
 30
0.0
 11
-205.1978897374687
 21
217.1401367417328
 31
0.0
  0
LINE
  5
1D3
330
A
100
AcDbEntity
  8
PV
100
AcDbLine
 10
-41.69784597275962
 20
463.3405841163018
 30
0.0
 11
77.30239176035896
 21
463.3405841163018
 31
0.0
  0
LINE
  5
1D4
330
A
100
AcDbEntity
  8
PV
100
AcDbLine
 10
78.30230208517356
 20
462.340507852161
 30
0.0
 11
78.30230208517356
 21
451.8405081650852
 31
0.0
  0
LINE
  5
1D5
330
A
100
AcDbEntity
  8
PV
100
AcDbLine
 10
78.30230208517356
 20
451.8405081650852
 30
0.0
 11
77.30224298717003
 21
451.8405081650852
 31
0.0
  0
LINE
  5
1D6
330
A
100
AcDbEntity
  8
PV
100
AcDbLine
 10
78.30230208517356
 20
449.8405387422671
 30
0.0
 11
77.30224298717003
 21
449.8405387422671
 31
0.0
  0
LINE
  5
1D7
330
A
100
AcDbEntity
  8
PV
100
AcDbLine
 10
77.30242391053916
 20
463.3405369075786
 30
0.0
 11
78.30241406835977
 21
462.3405572863106
 31
0.0
  0
LINE
  5
1D8
330
A
100
AcDbEntity
  8
PV
100
AcDbLine
 10
78.30230208517356
 20
449.8405387422671
 30
0.0
 11
78.30230208517356
 21
442.5230951126876
 31
0.0
  0
LINE
  5
1D9
330
A
100
AcDbEntity
  8
PV
100
AcDbLine
 10
-48.69781620024046
 20
462.340507852161
 30
0.0
 11
-48.69781620024046
 21
451.8405081650852
 31
0.0
  0
LINE
  5
1DA
330
A
100
AcDbEntity
  8
PV
100
AcDbLine
 10
-48.69781620024046
 20
451.8405081650852
 30
0.0
 11
77.95211288662564
 21
451.8405081650852
 31
0.0
  0
LINE
  5
1DB
330
A
100
AcDbEntity
  8
PV
100
AcDbLine
 10
-48.69781620024046
 20
449.8405387422671
 30
0.0
 11
78.30230208517356
 21
449.8405387422671
 31
0.0
  0
LINE
  5
1DC
330
A
100
AcDbEntity
  8
PV
100
AcDbLine
 10
-47.69788419837334
 20
463.3406276172455
 30
0.0
 11
-48.69789054066896
 21
462.3406318116731
 31
0.0
  0
LINE
  5
1DD
330
A
100
AcDbEntity
  8
PV
100
AcDbLine
 10
-48.69781620024046
 20
449.8405387422671
 30
0.0
 11
-48.69781620024046
 21
442.5230951126876
 31
0.0
  0
LINE
  5
1DE
330
A
100
AcDbEntity
  8
PV
100
AcDbLine
 10
-47.69790587542585
 20
463.3405841163018
 30
0.0
 11
-41.71280053926952
 21
463.3405841163018
 31
0.0
  0
LINE
  5
314
330
A
100
AcDbEntity
  8
PV
100
AcDbLine
 10
-194.3941156679276
 20
-24.64925436510276
 30
0.0
 11
-195.1080102255923
 21
-12.62888476353572
 31
0.0
  0
LINE
  5
315
330
A
100
AcDbEntity
  8
PV
100
AcDbLine
 10
-194.3942676057646
 20
-24.64918923024413
 30
0.0
 11
-188.7406393102511
 21
-18.98917022776856
 31
0.0
  0
LINE
  5
316
330
A
100
AcDbEntity
  8
PV
100
AcDbLine
 10
-188.7405943195155
 20
-18.98939732061944
 30
0.0
 11
-200.7618342479386
 21
-18.28907920594417
 31
0.0
  0
LINE
  5
317
330
A
100
AcDbEntity
  8
PV
100
AcDbLine
 10
-187.0426384675671
 20
-20.68525386384909
 30
0.0
 11
-196.8063123329605
 21
-10.93260412726493
 31
0.0
  0
LINE
  5
318
330
A
100
AcDbEntity
  8
PV
100
AcDbLine
 10
-187.0424765322752
 20
-20.6854156163005
 30
0.0
 11
-184.9223628885991
 21
-18.56290545408544
 31
0.0
  0
LINE
  5
31A
330
A
100
AcDbEntity
  8
PV
100
AcDbLine
 10
-196.8061503976687
 20
-10.93276587971638
 30
0.0
 11
-194.6860367539925
 21
-8.81025571750132
 31
0.0
  0
LINE
  5
31B
330
A
100
AcDbEntity
  8
PV
100
AcDbLine
 10
-194.3942676057646
 20
-24.64918923024413
 30
0.0
 11
-200.7619397857902
 21
-18.28870676582107
 31
0.0
  0
LINE
  5
31C
330
A
100
AcDbEntity
  8
PV
100
AcDbLine
 10
-200.7617778504983
 20
-18.28886851827246
 30
0.0
 11
-195.1081495549848
 21
-12.6288495157969
 31
0.0
  0
LEADER
  5
3DC
330
A
100
AcDbEntity
  8
PV
  6
Continuous
 62
     7
370
     0
100
AcDbLeader
  3
MXDIMSTYLE
 74
     0
 76
     2
 10
-197.5781036957774
 20
-21.46894799803261
 30
0.0
 10
-238.7057495828521
 20
-105.0529490292792
 30
0.0
1001
ACAD
1000
DSTYLE
1002
{
1070
     6
1000
_OPEN30
1070
     7
1000
_OPEN30
1070
    41
1040
2.77
1070
   173
1070
     1
1070
   341
1005
99
1002
}
  0
MTEXT
  5
3DD
330
A
100
AcDbEntity
  8
PV
  6
Continuous
 62
     7
100
AcDbMText
 10
-398.1741400178052
 20
-84.13426473905337
 30
0.0
 40
16.668
 41
0.0
 71
     1
 72
     1
  1
\A1;{\W0.711;油戻しポ－ト\PG1/4 メネジ\PJIS B0202\POil Return Port\PG1/4 Internal thread}
 73
     1
 44
0.9359251894303499
1001
ACAD
1000
MTEXTBEGIN
1070
    73
1070
     1
1070
    44
1040
0.9359251894303499
1070
    74
1070
     0
1000
MTEXTEND
  0
LINE
  5
3DE
330
A
100
AcDbEntity
  8
PV
  6
Continuous
 62
     7
370
     0
100
AcDbLine
 10
-401.3233032937895
 20
-105.0529490292792
 30
0.0
 11
-238.7057495828521
 21
-105.0529490292792
 31
0.0
  0
LINE
  5
3DF
330
A
100
AcDbEntity
  8
PV
  6
Continuous
 62
     7
370
     0
100
AcDbLine
 10
-400.777363241369
 20
-130.8913653747486
 30
0.0
 11
-238.1598095304316
 21
-130.8913653747486
 31
0.0
  0
LINE
  5
3E0
330
A
100
AcDbEntity
  8
PV
  6
Continuous
 62
     7
370
     0
100
AcDbLine
 10
-400.2314231889486
 20
-157.2465471413051
 30
0.0
 11
-237.6138694780111
 21
-157.2465471413051
 31
0.0
  0
LINE
  5
3E1
330
A
100
AcDbEntity
  8
PV
  6
Continuous
 62
     7
370
     0
100
AcDbLine
 10
-399.6854831365281
 20
-183.6017339178997
 30
0.0
 11
-237.0679294255906
 21
-183.6017339178997
 31
0.0
  0
LINE
  5
3E2
330
A
100
AcDbEntity
  8
PV
  6
Continuous
 62
     7
370
     0
100
AcDbLine
 10
-400.4002008523128
 20
-208.9233798322439
 30
0.0
 11
-177.2877303823043
 21
-208.9233798322439
 31
0.0
  0
LEADER
  5
3E4
330
A
100
AcDbEntity
  8
PV
  6
Continuous
 62
     7
370
     0
100
AcDbLeader
  3
MXDIMSTYLE
 74
     0
 76
     2
 10
-111.512134380824
 20
-226.9721066851744
 30
0.0
 10
-177.2877303823043
 20
-208.9233798322439
 30
0.0
1001
ACAD
1000
DSTYLE
1002
{
1070
     6
1000
_OPEN30
1070
     7
1000
_OPEN30
1070
    41
1040
2.77
1070
   173
1070
     1
1070
   341
1005
99
1002
}
  0
LINE
  5
3E6
330
A
100
AcDbEntity
  8
PV
  6
Continuous
 62
     7
370
     0
100
AcDbLine
 10
154.6400988773173
 20
-472.4898200018841
 30
0.0
 11
449.7106619829433
 21
-472.4898200018841
 31
0.0
  0
LINE
  5
3E7
330
A
100
AcDbEntity
  8
PV
  6
Continuous
 62
     7
370
     0
100
AcDbLine
 10
154.6400988773173
 20
-498.7681878596503
 30
0.0
 11
449.7106619829433
 21
-498.7681878596503
 31
0.0
  0
LINE
  5
4C9
330
A
100
AcDbEntity
  8
PV
100
AcDbLine
 10
-47.69784156849334
 20
463.3405841163018
 30
0.0
 11
-41.71273623233685
 21
463.3405841163018
 31
0.0
  0
ELLIPSE
  5
64A
330
A
100
AcDbEntity
  8
PV
100
AcDbEllipse
 10
-2.652673372167781
 20
-311.6595720776653
 30
0.0
 11
0.0000000000000006
 21
9.500014975666571
 31
0.0
210
0.0
220
0.0
230
1.0
 40
0.707163590921355
 41
3.141596455705123
 42
6.283185307179585
  0
ELLIPSE
  5
64B
330
A
100
AcDbEntity
  8
PV
100
AcDbEllipse
 10
-20.72964972876413
 20
-311.6595720776653
 30
0.0
 11
0.0000000000000006
 21
9.500014975666571
 31
0.0
210
0.0
220
0.0
230
1.0
 40
0.7071559489907519
 41
0.0
 42
6.283185307179585
  0
ELLIPSE
  5
64C
330
A
100
AcDbEntity
  8
PV
100
AcDbEllipse
 10
-20.72964972876413
 20
-311.6595720776653
 30
0.0
 11
0.0000000000000004
 21
6.578521532460399
 31
0.0
210
0.0
220
0.0
230
1.0
 40
0.7071013238466362
 41
0.0
 42
6.283185307179585
  0
LINE
  5
665
330
A
100
AcDbEntity
  8
PV
  6
CENTER
 62
     7
100
AcDbLine
 10
64.80239260972507
 20
-384.1534740309482
 30
0.0
 11
64.80239260972507
 21
-409.723877321625
 31
0.0
  0
LINE
  5
666
330
A
100
AcDbEntity
  8
PV
100
AcDbLine
 10
45.05245442045839
 20
-243.6595726219637
 30
0.0
 11
55.05246558126782
 21
-233.6595623040922
 31
0.0
  0
LINE
  5
667
330
A
100
AcDbEntity
  8
PV
100
AcDbLine
 10
-15.44769926164986
 20
-243.659588221213
 30
0.0
 11
-25.44771042245907
 21
-233.6595779033415
 31
0.0
  0
LINE
  5
668
330
A
100
AcDbEntity
  8
PV
  6
CENTER
 62
     7
100
AcDbLine
 10
-35.19760345636836
 20
-384.48553578863
 30
0.0
 11
-35.19760345636836
 21
-408.5615696170067
 31
0.0
  0
LINE
  5
669
330
A
100
AcDbEntity
  8
PV
100
AcDbLine
 10
-15.44768796830158
 20
-321.1596557178806
 30
0.0
 11
-15.44768796830158
 21
-391.6596536168169
 31
0.0
  0
LINE
  5
66A
330
A
100
AcDbEntity
  8
PV
100
AcDbLine
 10
-20.72968549154984
 20
-321.1596557178806
 30
0.0
 11
-11.64767453937566
 21
-321.1596557178806
 31
0.0
  0
LINE
  5
66B
330
A
100
AcDbEntity
  8
PV
100
AcDbLine
 10
-11.64767453937566
 20
-321.1596557178806
 30
0.0
 11
-2.652637251753958
 21
-321.1596557178806
 31
0.0
  0
LINE
  5
66C
330
A
100
AcDbEntity
  8
PV
100
AcDbLine
 10
-20.72968549154984
 20
-302.1596257665474
 30
0.0
 11
-11.64767453937566
 21
-302.1596257665474
 31
0.0
  0
LINE
  5
66D
330
A
100
AcDbEntity
  8
PV
100
AcDbLine
 10
-11.64767453937566
 20
-302.1596257665474
 30
0.0
 11
-2.652637251753958
 21
-302.1596257665474
 31
0.0
  0
LINE
  5
66E
330
A
100
AcDbEntity
  8
PV
100
AcDbLine
 10
17.80238304317981
 20
-233.6596201786121
 30
0.0
 11
17.80238304317981
 21
-391.6596536168169
 31
0.0
  0
LINE
  5
66F
330
A
100
AcDbEntity
  8
PV
100
AcDbLine
 10
11.80240575254879
 20
-233.6596201786121
 30
0.0
 11
11.80240575254879
 21
-391.6596536168169
 31
0.0
  0
LINE
  5
670
330
A
100
AcDbEntity
  8
PV
100
AcDbLine
 10
45.05246863396518
 20
-381.659636767881
 30
0.0
 11
55.05251216355532
 21
-391.6596794545305
 31
0.0
  0
LINE
  5
671
330
A
100
AcDbEntity
  8
PV
100
AcDbLine
 10
-15.44768110637846
 20
-381.6596535374125
 30
0.0
 11
-25.44770845157837
 21
-391.659680039673
 31
0.0
  0
LINE
  5
672
330
A
100
AcDbEntity
  8
PV
100
AcDbLine
 10
-45.19758433707193
 20
-391.659644347154
 30
0.0
 11
-77.69760704715031
 21
-233.6596348216561
 31
0.0
  0
LINE
  5
673
330
A
100
AcDbEntity
  8
PV
100
AcDbLine
 10
74.80232259996137
 20
-391.659626089825
 30
0.0
 11
107.3023406985717
 21
-233.6596389831426
 31
0.0
  0
LINE
  5
674
330
A
100
AcDbEntity
  8
PV
100
AcDbLine
 10
-77.6975745332154
 20
-221.6596434244229
 30
0.0
 11
-77.6975745332154
 21
-233.6596201786121
 31
0.0
  0
LINE
  5
675
330
A
100
AcDbEntity
  8
PV
100
AcDbLine
 10
14.80246681750555
 20
-233.6596201786121
 30
0.0
 11
107.3022921610004
 21
-233.6596201786121
 31
0.0
  0
LINE
  5
676
330
A
100
AcDbEntity
  8
PV
100
AcDbLine
 10
-77.6975745332154
 20
-233.6596201786121
 30
0.0
 11
14.80246681750555
 21
-233.6596201786121
 31
0.0
  0
LINE
  5
677
330
A
100
AcDbEntity
  8
PV
100
AcDbLine
 10
45.05247712165828
 20
-233.6596201786121
 30
0.0
 11
45.05247712165828
 21
-391.6596536168169
 31
0.0
  0
LINE
  5
678
330
A
100
AcDbEntity
  8
PV
100
AcDbLine
 10
-15.44768796830158
 20
-233.6596201786121
 30
0.0
 11
-15.44768796830158
 21
-302.1596257665474
 31
0.0
  0
LINE
  5
679
330
A
100
AcDbEntity
  8
PV
100
AcDbLine
 10
14.80246681750555
 20
-391.6596536168169
 30
0.0
 11
74.80230838836451
 21
-391.6596536168169
 31
0.0
  0
LINE
  5
67A
330
A
100
AcDbEntity
  8
PV
100
AcDbLine
 10
-45.19737332284194
 20
-391.6596536168169
 30
0.0
 11
14.80246681750555
 21
-391.6596536168169
 31
0.0
  0
LINE
  5
67B
330
A
100
AcDbEntity
  8
PV
100
AcDbLine
 10
74.80230838836451
 20
-391.6596536168169
 30
0.0
 11
74.80230838836451
 21
-401.6595465072732
 31
0.0
  0
LINE
  5
67C
330
A
100
AcDbEntity
  8
PV
100
AcDbLine
 10
-45.19737332284194
 20
-391.6596536168169
 30
0.0
 11
-45.19737332284194
 21
-401.6595465072732
 31
0.0
  0
LINE
  5
67D
330
A
100
AcDbEntity
  8
PV
100
AcDbLine
 10
74.8023827749589
 20
-401.6595465072732
 30
0.0
 11
-45.19737332284194
 21
-401.6595465072732
 31
0.0
  0
LINE
  5
67E
330
A
100
AcDbEntity
  8
PV
100
AcDbLine
 10
107.3022921610004
 20
-221.6596434244229
 30
0.0
 11
107.3022921610004
 21
-233.6596201786121
 31
0.0
  0
LINE
  5
67F
330
A
100
AcDbEntity
  8
PV
100
AcDbLine
 10
-45.19737332284194
 20
-401.6595465072732
 30
0.0
 11
74.8023827749589
 21
-401.6595465072732
 31
0.0
  0
DIMENSION
  5
742
330
A
100
AcDbEntity
  8
PV
  6
Continuous
 62
     7
100
AcDbDimension
  2
*D7
 10
282.9628507312208
 20
-311.6595720776654
 30
0.0
 11
282.9628507312209
 21
-359.5121281583589
 31
0.0
 70
   160
 71
     5
 42
89.99997442960808
  3
MXDIMSTYLE$0
100
AcDbAlignedDimension
 13
74.8023827749589
 23
-401.6595465072732
 33
0.0
 14
-20.72964972876413
 24
-311.6595720776653
 34
0.0
 50
90.0
100
AcDbRotatedDimension
1001
ACAD_DSTYLE_DIMINSPECT
1070
   396
1000
100%
1070
   395
1000

1070
   394
1070
    33
1070
   393
1070
     0
1001
ACAD
1000
DSTYLE
1002
{
1070
   343
1005
99
1070
   173
1070
     1
1070
   344
1005
99
1070
    40
1040
6.0
1070
   144
1040
1.0
1070
   271
1070
     0
1070
   278
1070
     0
1070
   371
1070
     0
1070
   372
1070
     0
1002
}
  0
DIMENSION
  5
76A
330
A
100
AcDbEntity
  8
PV
  6
Continuous
 62
     7
100
AcDbDimension
  2
*D8
 10
352.6224597529307
 20
-221.659643424423
 30
0.0
 11
352.6224597529308
 21
-313.0801744102309
 31
0.0
 70
   160
  1
181
 71
     5
 42
179.9999030828505
  3
MXDIMSTYLE$0
100
AcDbAlignedDimension
 13
74.8023827749589
 23
-401.6595465072732
 33
0.0
 14
113.8021770495337
 24
-221.6596434244229
 34
0.0
 50
90.0
100
AcDbRotatedDimension
1001
ACAD_DSTYLE_DIMINSPECT
1070
   396
1000
100%
1070
   395
1000

1070
   394
1070
    33
1070
   393
1070
     0
1001
ACAD
1000
DSTYLE
1002
{
1070
   343
1005
99
1070
   173
1070
     1
1070
   344
1005
99
1070
    40
1040
6.0
1070
   144
1040
1.0
1070
   271
1070
     0
1070
   278
1070
     0
1070
   371
1070
     0
1070
   372
1070
     0
1002
}
  0
DIMENSION
  5
792
330
A
100
AcDbEntity
  8
PV
  6
Continuous
 62
     7
100
AcDbDimension
  2
*D9
 10
392.7295048339384
 20
463.3405841163017
 30
0.0
 11
392.7295048339384
 21
49.93328535424826
 31
0.0
 70
   160
  1
866
 71
     5
 42
865.0001306235751
  3
MXDIMSTYLE$0
100
AcDbAlignedDimension
 13
74.8023827749589
 23
-401.6595465072732
 33
0.0
 14
77.30239176035896
 24
463.3405841163018
 34
0.0
 50
90.0
100
AcDbRotatedDimension
1001
ACAD_DSTYLE_DIMINSPECT
1070
   396
1000
100%
1070
   395
1000

1070
   394
1070
    33
1070
   393
1070
     0
1001
ACAD
1000
DSTYLE
1002
{
1070
   343
1005
99
1070
   173
1070
     1
1070
   344
1005
99
1070
    40
1040
6.0
1070
   144
1040
1.0
1070
   271
1070
     0
1070
   278
1070
     0
1070
   371
1070
     0
1070
   372
1070
     0
1002
}
  0
LEADER
  5
824
330
A
100
AcDbEntity
  8
PV
  6
Continuous
 62
     7
370
     0
100
AcDbLeader
  3
MXDIMSTYLE
 74
     0
 76
     2
 10
14.80250472605848
 20
-401.6595465072732
 30
0.0
 10
-62.48016613397794
 20
-442.358629359067
 30
0.0
1001
ACAD
1000
DSTYLE
1002
{
1070
     6
1000
_OPEN30
1070
     7
1000
_OPEN30
1070
    41
1040
2.77
1070
   173
1070
     1
1070
   341
1005
99
1002
}
  0
MTEXT
  5
825
102
{ACAD_XDICTIONARY
360
D69
102
}
330
A
100
AcDbEntity
  8
PV
  6
Continuous
 62
     7
100
AcDbMText
 10
-319.9790574119917
 20
-723.2475983339829
 30
0.0
 40
16.66799926757812
 41
0.0
 71
     1
 72
     1
  1
\A1;{\W0.706; \H1.5x;※1:VF50 外径\U+2205120，４－\U+220510中心径\U+2205１00\P ※1:VF50 \U+2205120，O.D, ４－\U+220510 P.C.D.\U+2205１00}
 73
     1
 44
0.9359251894303499
1001
ACAD
1000
MTEXTBEGIN
1070
    73
1070
     1
1070
    44
1040
0.9359251894303499
1070
    74
1070
     0
1000
MTEXTEND
  0
MTEXT
  5
826
330
A
100
AcDbEntity
  8
PV
  6
Continuous
 62
     7
100
AcDbMText
 10
-186.7498714179128
 20
-421.7130760006721
 30
0.0
 40
16.668
 41
0.0
 71
     1
 72
     1
  1
\A1;{\W0.819;VF50 ※１\PJIS　B2290}
 73
     1
 44
0.9359251894303499
1001
ACAD
1000
MTEXTBEGIN
1070
    73
1070
     1
1070
    44
1040
0.9359251894303499
1070
    74
1070
     0
1000
MTEXTEND
  0
LINE
  5
827
330
A
100
AcDbEntity
  8
PV
  6
Continuous
 62
     7
370
     0
100
AcDbLine
 10
-197.0017621567922
 20
-442.358629359067
 30
0.0
 11
-62.48016613397794
 21
-442.358629359067
 31
0.0
  0
LINE
  5
828
330
A
100
AcDbEntity
  8
PV
  6
Continuous
 62
     7
100
AcDbLine
 10
-316.4028305595867
 20
-753.7443145692195
 30
0.0
 11
184.3280235455759
 21
-753.7443145692195
 31
0.0
  0
LINE
  5
829
330
A
100
AcDbEntity
  8
PV
  6
CENTER
 62
     7
100
AcDbLine
 10
-45.89130437555968
 20
-451.4196234129243
 30
0.0
 11
76.40530827919838
 21
-451.4196234129243
 31
0.0
  0
CIRCLE
  5
82B
330
A
100
AcDbEntity
  8
PV
100
AcDbCircle
 10
50.15776772082473
 20
-486.774970092612
 30
0.0
 40
5.0
  0
CIRCLE
  5
82C
330
A
100
AcDbEntity
  8
PV
100
AcDbCircle
 10
-20.55290847241256
 20
-486.774970092612
 30
0.0
 40
5.0
  0
ARC
  5
82D
330
A
100
AcDbEntity
  8
PV
  6
CENTER
 62
     7
100
AcDbCircle
 10
14.80242962420608
 20
-451.4196234129243
 30
0.0
 40
50.0
100
AcDbArc
 50
179.999994991043
 51
0.0
  0
LINE
  5
82E
330
A
100
AcDbEntity
  8
PV
  6
CENTER
 62
     7
100
AcDbLine
 10
41.87800381851458
 20
-478.4951987646323
 30
0.0
 11
56.4904791397571
 21
-493.1076740858748
 31
0.0
  0
LINE
  5
82F
330
A
100
AcDbEntity
  8
PV
  6
CENTER
 62
     7
100
AcDbLine
 10
-27.82240033582047
 20
-494.0444481322843
 30
0.0
 11
-12.99815767209701
 21
-479.2202054685609
 31
0.0
  0
ARC
  5
9D2
330
A
100
AcDbEntity
  8
PV
100
AcDbCircle
 10
93.80230251083004
 20
523.0071015031401
 30
0.0
 40
10.99999991059303
100
AcDbArc
 50
0.0
 51
76.52390949844575
  0
ARC
  5
9D3
330
A
100
AcDbEntity
  8
PV
100
AcDbCircle
 10
14.80230724939918
 20
193.3405921629286
 30
0.0
 40
349.999753057964
100
AcDbArc
 50
76.52390949844575
 51
89.99998201390772
  0
ARC
  5
9D4
330
A
100
AcDbEntity
  8
PV
100
AcDbCircle
 10
-64.1976908730545
 20
523.0071015031401
 30
0.0
 40
10.99999991059303
100
AcDbArc
 50
103.4759998878574
 51
179.9999640278219
  0
ARC
  5
9D5
330
A
100
AcDbEntity
  8
PV
100
AcDbCircle
 10
14.80230724939918
 20
193.3405921629286
 30
0.0
 40
349.999753057964
100
AcDbArc
 50
89.99998201390772
 51
103.4759998878574
  0
LINE
  5
9D7
330
A
100
AcDbEntity
  8
PV
100
AcDbLine
 10
71.31730914296236
 20
483.3403714240454
 30
0.0
 11
69.87395821464634
 21
480.8404124706552
 31
0.0
  0
LINE
  5
9D8
330
A
100
AcDbEntity
  8
PV
100
AcDbLine
 10
69.83729353571186
 20
480.8405683359725
 30
0.0
 11
69.83729353571186
 21
463.3405841163018
 31
0.0
  0
LINE
  5
9D9
330
A
100
AcDbEntity
  8
PV
100
AcDbLine
 10
71.31730638528086
 20
498.3405983320091
 30
0.0
 11
71.31730638528086
 21
463.3405841163018
 31
0.0
  0
LINE
  5
9DA
330
A
100
AcDbEntity
  8
PV
100
AcDbLine
 10
67.4522990999543
 20
523.3405823281625
 30
0.0
 11
67.4522990999543
 21
498.3405983320091
 31
0.0
  0
LINE
  5
9DB
330
A
100
AcDbEntity
  8
PV
100
AcDbLine
 10
19.8023066235504
 20
523.3405823281625
 30
0.0
 11
19.8023066235504
 21
498.3405983320091
 31
0.0
  0
LINE
  5
9DC
330
A
100
AcDbEntity
  8
PV
100
AcDbLine
 10
68.45230097750061
 20
523.3405823281625
 30
0.0
 11
68.45230097750061
 21
498.3405983320091
 31
0.0
  0
LINE
  5
9DD
330
A
100
AcDbEntity
  8
PV
  6
Continuous
 62
     3
100
AcDbLine
 10
104.8022316111072
 20
523.3405823281625
 30
0.0
 11
104.8022316111072
 21
523.0071015031401
 31
0.0
  0
LINE
  5
9DF
330
A
100
AcDbEntity
  8
PV
100
AcDbLine
 10
69.87393179450771
 20
480.8405683359725
 30
0.0
 11
-40.23268189793646
 21
480.8405683359725
 31
0.0
  0
LINE
  5
9E0
330
A
100
AcDbEntity
  8
PV
100
AcDbLine
 10
104.8022316111072
 20
523.3405823281625
 30
0.0
 11
14.80230724939918
 21
523.3405823281625
 31
0.0
  0
LINE
  5
9E1
330
A
100
AcDbEntity
  8
PV
100
AcDbLine
 10
71.31730638528086
 20
498.3405983320091
 30
0.0
 11
-41.71268902545954
 21
498.3405983320091
 31
0.0
  0
LINE
  5
9E4
330
A
100
AcDbEntity
  8
PV
100
AcDbLine
 10
-41.71270759242371
 20
483.3404041305977
 30
0.0
 11
-40.26933377593707
 21
480.8404055337041
 31
0.0
  0
LINE
  5
9E5
330
A
100
AcDbEntity
  8
PV
100
AcDbLine
 10
-40.23268189793646
 20
480.8405683359725
 30
0.0
 11
-40.23268189793646
 21
463.3405841163018
 31
0.0
  0
LINE
  5
9E6
330
A
100
AcDbEntity
  8
PV
100
AcDbLine
 10
-41.71268902545954
 20
498.3405983320091
 30
0.0
 11
-41.71268902545954
 21
463.3405841163018
 31
0.0
  0
LINE
  5
9E7
330
A
100
AcDbEntity
  8
PV
100
AcDbLine
 10
-37.84768460115595
 20
523.3405823281625
 30
0.0
 11
-37.84768460115595
 21
498.3405983320091
 31
0.0
  0
LINE
  5
9E8
330
A
100
AcDbEntity
  8
PV
100
AcDbLine
 10
9.80230715999221
 20
523.3405823281625
 30
0.0
 11
9.80230715999221
 21
498.3405983320091
 31
0.0
  0
LINE
  5
9E9
330
A
100
AcDbEntity
  8
PV
100
AcDbLine
 10
-38.84768647870226
 20
523.3405823281625
 30
0.0
 11
-38.84768647870226
 21
498.3405983320091
 31
0.0
  0
LINE
  5
9EA
330
A
100
AcDbEntity
  8
PV
100
AcDbLine
 10
-75.19761425128592
 20
523.3405823281625
 30
0.0
 11
-75.19761425128592
 21
523.0071015031401
 31
0.0
  0
LINE
  5
9EC
330
A
100
AcDbEntity
  8
PV
100
AcDbLine
 10
-75.19761425128592
 20
523.3405823281625
 30
0.0
 11
14.80230724939918
 21
523.3405823281625
 31
0.0
  0
DIMENSION
  5
A39
330
A
100
AcDbEntity
  8
PV
  6
Continuous
100
AcDbDimension
  2
*D10
 10
471.9295061200405
 20
-401.6595465072734
 30
0.0
 11
453.4285066693571
 21
70.84039935680099
 31
0.0
 70
    32
  1
(<>)
 71
     5
 42
944.9998917281488
  3
MXDIMSTYLE$0
100
AcDbAlignedDimension
 13
14.80241712010722
 23
543.3403452208754
 33
0.0
 14
74.8023827749589
 24
-401.6595465072732
 34
0.0
 50
90.00000000000005
100
AcDbRotatedDimension
1001
ACAD_DSTYLE_DIMINSPECT
1070
   396
1000
100%
1070
   395
1000

1070
   394
1070
    33
1070
   393
1070
     0
1001
ACAD
1000
DSTYLE
1002
{
1070
   343
1005
99
1070
   173
1070
     1
1070
   344
1005
99
1070
    40
1040
6.0
1070
   144
1040
1.0
1070
   271
1070
     0
1070
   278
1070
     0
1070
   371
1070
     0
1070
   372
1070
     0
1002
}
  0
LINE
  5
AE9
330
A
100
AcDbEntity
  8
PV
  6
Continuous
 62
     7
370
     0
100
AcDbLine
 10
-199.1492358223886
 20
-469.3381342806078
 30
0.0
 11
-64.62763979957435
 21
-469.3381342806078
 31
0.0
  0
LINE
  5
AFB
330
A
100
AcDbEntity
  8
PV
  6
Continuous
370
     0
100
AcDbLine
 10
166.4203277086744
 20
604.4156102520791
 30
0.0
 11
407.8443061712804
 21
604.4156102520791
 31
0.0
  0
LINE
  5
AFC
330
A
100
AcDbEntity
  8
PV
  6
Continuous
370
     0
100
AcDbLine
 10
165.1963711030694
 20
577.4361053305382
 30
0.0
 11
408.7622736254833
 21
577.4361053305382
 31
0.0
  0
MTEXT
  5
D28
102
{ACAD_XDICTIONARY
360
D73
102
}
330
A
100
AcDbEntity
  8
M2
 62
     4
370
    50
100
AcDbMText
 10
1096.161293088134
 20
-933.9560381657115
 30
0.0
 40
52.5
 41
0.0
 71
     1
 72
     5
  1
\A1;{\W1.0833;\U+5916\U+89B3\U+5BF8\U+6CD5\U+56F3}
  7
Standard
 73
     1
 44
1.0
1001
ACAD
1000
MTEXTBEGIN
1070
    73
1070
     1
1070
    44
1040
1.0
1070
    74
1070
     0
1000
MTEXTEND
1000
ACAD_MTEXT_DEFINED_HEIGHT_BEGIN
1070
    46
1040
52.5
1000
ACAD_MTEXT_DEFINED_HEIGHT_END
  0
MTEXT
  5
D29
330
A
100
AcDbEntity
  8
M2
 62
     4
370
    50
100
AcDbMText
 10
1096.161293088134
 20
-853.96403816571
 30
0.0
 40
52.5
 41
0.0
 71
     1
 72
     5
  1
\A1;{\W0.6638;TM-4(VS2401\fMS PGothic|b0|i0|c128|p50;）}
  7
Standard
 73
     1
 44
1.0
1001
ACAD
1000
MTEXTBEGIN
1070
    73
1070
     1
1070
    44
1040
1.0
1070
    74
1070
     0
1000
MTEXTEND
1000
ACAD_MTEXT_DEFINED_HEIGHT_BEGIN
1070
    46
1040
52.5
1000
ACAD_MTEXT_DEFINED_HEIGHT_END
  0
MTEXT
  5
D2A
330
A
100
AcDbEntity
  8
M2
 62
     4
370
    50
100
AcDbMText
 10
1096.161293088134
 20
-1013.948038165713
 30
0.0
 40
52.5
 41
0.0
 71
     1
 72
     5
  1
\A1;{\W0.7271;KG3104-012A2\fMS PGothic|b0|i0|c128|p50;　　1/2}
  7
Standard
 73
     1
 44
1.0
1001
ACAD
1000
MTEXTBEGIN
1070
    73
1070
     1
1070
    44
1040
1.0
1070
    74
1070
     0
1000
MTEXTEND
1000
ACAD_MTEXT_DEFINED_HEIGHT_BEGIN
1070
    46
1040
52.5
1000
ACAD_MTEXT_DEFINED_HEIGHT_END
  0
INSERT
  5
D2B
330
A
100
AcDbEntity
  8
0
100
AcDbBlockReference
  2
JZB_0006
 10
-1343.594706911867
 20
-1153.934044115815
 30
0.0
 41
1.5
 42
1.5
 43
1.5
  0
ENDSEC
  0
SECTION
  2
OBJECTS
  0
DICTIONARY
  5
19
330
0
100
AcDbDictionary
281
     1
  3
ACAD_COLOR
350
244
  3
ACAD_GROUP
350
1A
  3
ACAD_LAYOUT
350
1E
  3
ACAD_MATERIAL
350
217
  3
ACAD_MLEADERSTYLE
350
259
  3
ACAD_MLINESTYLE
350
1B
  3
ACAD_PLOTSETTINGS
350
22
  3
ACAD_PLOTSTYLENAME
350
1F
  3
ACAD_SCALELIST
350
247
  3
ACAD_TABLESTYLE
350
245
  3
ACAD_VISUALSTYLE
350
230
  3
ACDB_RECOMPOSE_DATA
350
D35
  3
AcDbVariableDictionary
350
334
  3
AcmDictionary
350
2B6
  3
AEC_PROPERTY_SET_DEFS
350
D23
  3
AMG
350
25F
  3
AMGSNAPSETTINGS
350
30D
  3
ASE_INDEX_DICTIONARY
350
2FE
  3
DWGPROPS
350
D36
  0
DICTIONARY
  5
3CD
330
2
100
AcDbDictionary
280
     1
281
     1
  3
ACAD_LAYERSTATES
360
3CE
  0
DICTIONARY
  5
2F6
330
14
100
AcDbDictionary
280
     1
281
     1
  3
ADSK_XREC_LAYER_RECONCILED
360
2F7
  0
DICTIONARY
  5
2F8
330
24
100
AcDbDictionary
280
     1
281
     1
  3
ADSK_XREC_LAYER_RECONCILED
360
2F9
  0
DICTIONARY
  5
2FA
330
25
100
AcDbDictionary
280
     1
281
     1
  3
ADSK_XREC_LAYER_RECONCILED
360
2FB
  0
DICTIONARY
  5
D15
330
D14
100
AcDbDictionary
280
     1
281
     1
  0
DICTIONARY
  5
D17
330
D16
100
AcDbDictionary
280
     1
281
     1
  0
DICTIONARY
  5
D19
330
D18
100
AcDbDictionary
280
     1
281
     1
  0
DICTIONARY
  5
D1B
330
D1A
100
AcDbDictionary
280
     1
281
     1
  0
DICTIONARY
  5
D6B
330
93C
100
AcDbDictionary
280
     1
281
     1
  3
ACAD_MTEXT_RT
360
D6C
  0
DICTIONARY
  5
D6D
330
945
100
AcDbDictionary
280
     1
281
     1
  3
ACAD_MTEXT_RT
360
D6E
  0
DICTIONARY
  5
D69
330
825
100
AcDbDictionary
280
     1
281
     1
  3
ACAD_MTEXT_RT
360
D6A
  0
DICTIONARY
  5
D73
330
D28
100
AcDbDictionary
280
     1
281
     1
  3
ACAD_MTEXT_RT
360
D74
  0
DICTIONARY
  5
244
102
{ACAD_REACTORS
330
19
102
}
330
19
100
AcDbDictionary
281
     1
  0
DICTIONARY
  5
1A
102
{ACAD_REACTORS
330
19
102
}
330
19
100
AcDbDictionary
281
     1
  0
DICTIONARY
  5
1E
102
{ACAD_REACTORS
330
19
102
}
330
19
100
AcDbDictionary
281
     1
  3
Layout1
350
21
  3
Model
350
20
  0
DICTIONARY
  5
217
102
{ACAD_REACTORS
330
19
102
}
330
19
100
AcDbDictionary
281
     1
  3
ByBlock
350
220
  3
ByLayer
350
218
  3
Global
350
228
  0
DICTIONARY
  5
259
102
{ACAD_REACTORS
330
19
102
}
330
19
100
AcDbDictionary
281
     1
  3
Standard
350
25A
  0
DICTIONARY
  5
1B
102
{ACAD_REACTORS
330
19
102
}
330
19
100
AcDbDictionary
281
     1
  3
Standard
350
1C
  0
DICTIONARY
  5
22
102
{ACAD_REACTORS
330
19
102
}
330
19
100
AcDbDictionary
281
     1
  0
ACDBDICTIONARYWDFLT
  5
1F
102
{ACAD_REACTORS
330
19
102
}
330
19
100
AcDbDictionary
281
     1
  3
Normal
350
1D
100
AcDbDictionaryWithDefault
340
1D
  0
DICTIONARY
  5
247
102
{ACAD_REACTORS
330
19
102
}
330
19
100
AcDbDictionary
281
     1
  3
A0
350
248
  3
A1
350
249
  3
A2
350
24A
  3
A3
350
24B
  3
A4
350
24C
  3
A5
350
24D
  3
A6
350
24E
  3
A7
350
24F
  3
A8
350
250
  3
A9
350
251
  3
B0
350
252
  3
B1
350
253
  3
B2
350
254
  3
B3
350
255
  3
B4
350
256
  3
B5
350
257
  3
B6
350
258
  0
DICTIONARY
  5
245
102
{ACAD_REACTORS
330
19
102
}
330
19
100
AcDbDictionary
281
     1
  3
Standard
350
246
  0
DICTIONARY
  5
230
102
{ACAD_REACTORS
330
19
102
}
330
19
100
AcDbDictionary
281
     1
  3
2dWireframe
350
236
  3
3D Hidden
350
238
  3
3dWireframe
350
237
  3
Basic
350
235
  3
Brighten
350
23C
  3
ColorChange
350
240
  3
Conceptual
350
239
  3
Dim
350
23B
  3
EdgeColorOff
350
243
  3
Facepattern
350
23F
  3
Flat
350
231
  3
FlatWithEdges
350
232
  3
Gouraud
350
233
  3
GouraudWithEdges
350
234
  3
JitterOff
350
241
  3
Linepattern
350
23E
  3
OverhangOff
350
242
  3
Realistic
350
23A
  3
Thicken
350
23D
  0
XRECORD
  5
D35
102
{ACAD_REACTORS
330
19
102
}
330
19
100
AcDbXrecord
280
     1
 90
        1
330
246
  0
DICTIONARY
  5
334
102
{ACAD_REACTORS
330
19
102
}
330
19
100
AcDbDictionary
281
     1
  3
CANNOSCALE
350
338
  3
CMLEADERSTYLE
350
336
  3
CTABLESTYLE
350
335
  3
DIMASSOC
350
D2F
  3
INDEXCTL
350
D2E
  3
LAYEREVAL
350
33A
  3
LAYERNOTIFY
350
33B
  3
LIGHTINGUNITS
350
339
  3
LOFTANG1
350
D30
  3
LOFTANG2
350
D31
  3
LONGITUDE
350
D32
  3
MSLTSCALE
350
337
  3
SORTENTS
350
D2D
  3
XCLIPFRAME
350
D33
  0
DICTIONARY
  5
2B6
102
{ACAD_REACTORS
330
19
102
}
330
19
100
AcDbDictionary
281
     1
  3
AcmStdDictionary
350
2C0
  0
DICTIONARY
  5
D23
102
{ACAD_REACTORS
330
19
102
}
330
19
100
AcDbDictionary
281
     1
  0
DICTIONARY
  5
25F
102
{ACAD_REACTORS
330
19
102
}
330
19
100
AcDbDictionary
281
     1
  0
DICTIONARY
  5
30D
102
{ACAD_REACTORS
330
19
102
}
330
19
100
AcDbDictionary
281
     1
  0
DICTIONARY
  5
2FE
102
{ACAD_REACTORS
330
19
102
}
330
19
100
AcDbDictionary
281
     1
  3
ASEBlockHierarchyIndexRecord
350
300
1001
DCO15
1040
1731339786.939
  0
XRECORD
  5
D36
102
{ACAD_REACTORS
330
19
102
}
330
19
100
AcDbXrecord
280
     1
  1
DWGPROPS COOKIE
  2

  3

  4

  6

  7

  8
UJ35116
  9

300
=
301
=
302
=
303
=
304
=
305
=
306
=
307
=
308
=
309
=
 40
0.1393426736111111
 41
2454352.036527778
 42
2457984.638554375
  1

 90
        0
  0
DICTIONARY
  5
3CE
102
{ACAD_REACTORS
330
3CD
102
}
330
3CD
100
AcDbDictionary
281
     1
  0
XRECORD
  5
2F7
102
{ACAD_REACTORS
330
2F6
102
}
330
2F6
100
AcDbXrecord
280
     1
290
     1
  0
XRECORD
  5
2F9
102
{ACAD_REACTORS
330
2F8
102
}
330
2F8
100
AcDbXrecord
280
     1
290
     1
  0
XRECORD
  5
2FB
102
{ACAD_REACTORS
330
2FA
102
}
330
2FA
100
AcDbXrecord
280
     1
290
     1
  0
XRECORD
  5
D6C
102
{ACAD_REACTORS
330
D6B
102
}
330
D6B
100
AcDbXrecord
280
     1
 40
5737.0
  1
\A1;\U+2205402
  0
XRECORD
  5
D6E
102
{ACAD_REACTORS
330
D6D
102
}
330
D6D
100
AcDbXrecord
280
     1
 40
5789.0
  1
\A1;\U+2205442
  0
XRECORD
  5
D6A
102
{ACAD_REACTORS
330
D69
102
}
330
D69
100
AcDbXrecord
280
     1
 40
366567.0
  1
\A1;{\W0.706; \H1.5x;※1:VF50 外径\U+2205120，４－\U+220510中心径\U+2205１00\P ※1:VF50 \U+2205120，O.D, ４－\U+220510 P.C.D.\U+2205１00}
  0
XRECORD
  5
D74
102
{ACAD_REACTORS
330
D73
102
}
330
D73
100
AcDbXrecord
280
     1
 40
84481.0
  1
\A1;{\W1.0833;外観寸法図}
  0
LAYOUT
  5
21
102
{ACAD_XDICTIONARY
360
D38
102
}
102
{ACAD_REACTORS
330
1E
102
}
330
1E
100
AcDbPlotSettings
  1

  2

  4

  6

 40
0.0
 41
0.0
 42
0.0
 43
0.0
 44
0.0
 45
0.0
 46
0.0
 47
0.0
 48
0.0
 49
0.0
140
0.0
141
0.0
142
1.0
143
1.0
 70
     0
 72
     0
 73
     0
 74
     0
  7

 75
     0
147
1.0
148
0.0
149
0.0
100
AcDbLayout
  1
Layout1
 70
     0
 71
     1
 10
0.0
 20
0.0
 11
12.0
 21
9.0
 12
0.0
 22
0.0
 32
0.0
 14
1.000000000000000E+20
 24
1.000000000000000E+20
 34
1.000000000000000E+20
 15
-1.000000000000000E+20
 25
-1.000000000000000E+20
 35
-1.000000000000000E+20
146
0.0
 13
0.0
 23
0.0
 33
0.0
 16
1.0
 26
0.0
 36
0.0
 17
0.0
 27
1.0
 37
0.0
 76
     0
330
B
  0
LAYOUT
  5
20
102
{ACAD_XDICTIONARY
360
430
102
}
102
{ACAD_REACTORS
330
1E
102
}
330
1E
100
AcDbPlotSettings
  1

  2
i-file Color 6.0
  4
A4
  6

 40
3.174999952316283
 41
3.174999952316283
 42
3.175003051757812
 43
3.17498779296875
 44
209.2959899902344
 45
296.6719970703125
 46
0.0
 47
0.0
 48
0.0
 49
0.0
140
0.0
141
0.0
142
1.0
143
1.0
 70
 11264
 72
     1
 73
     1
 74
     0
  7

 75
     0
147
1.0
148
1673.154690956691
149
1679.09323899623
100
AcDbLayout
  1
Model
 70
     0
 71
     0
 10
0.0
 20
0.0
 11
0.0
 21
0.0
 12
0.0
 22
0.0
 32
0.0
 14
0.0
 24
0.0
 34
0.0
 15
0.0
 25
0.0
 35
0.0
146
0.0
 13
0.0
 23
0.0
 33
0.0
 16
0.0
 26
0.0
 36
0.0
 17
0.0
 27
0.0
 37
0.0
 76
     0
330
A
331
15
1001
ACAD_PSEXT
1000
i-file Color 6.0
1000
i-file Color 6.0
1000
NULL
1000

1070
     0
  0
MATERIAL
  5
220
102
{ACAD_XDICTIONARY
360
221
102
}
102
{ACAD_REACTORS
330
217
102
}
330
217
100
AcDbMaterial
  1
ByBlock
 72
     0
 43
0.0208333333333333
 43
0.0
 43
0.0
 43
0.0
 43
0.0
 43
0.0208333333333333
 43
0.0
 43
0.0
 43
0.0
 43
0.0
 43
1.0
 43
0.0
 43
0.0
 43
0.0
 43
0.0
 43
1.0
 77
     0
 47
0.0208333333333333
 47
0.0
 47
0.0
 47
0.0
 47
0.0
 47
0.0208333333333333
 47
0.0
 47
0.0
 47
0.0
 47
0.0
 47
1.0
 47
0.0
 47
0.0
 47
0.0
 47
0.0
 47
1.0
171
     0
 49
0.0208333333333333
 49
0.0
 49
0.0
 49
0.0
 49
0.0
 49
0.0208333333333333
 49
0.0
 49
0.0
 49
0.0
 49
0.0
 49
1.0
 49
0.0
 49
0.0
 49
0.0
 49
0.0
 49
1.0
175
     0
142
0.0208333333333333
142
0.0
142
0.0
142
0.0
142
0.0
142
0.0208333333333333
142
0.0
142
0.0
142
0.0
142
0.0
142
1.0
142
0.0
142
0.0
142
0.0
142
0.0
142
1.0
179
     0
144
0.0208333333333333
144
0.0
144
0.0
144
0.0
144
0.0
144
0.0208333333333333
144
0.0
144
0.0
144
0.0
144
0.0
144
1.0
144
0.0
144
0.0
144
0.0
144
0.0
144
1.0
147
0.0208333333333333
147
0.0
147
0.0
147
0.0
147
0.0
147
0.0208333333333333
147
0.0
147
0.0
147
0.0
147
0.0
147
1.0
147
0.0
147
0.0
147
0.0
147
0.0
147
1.0
  0
MATERIAL
  5
218
102
{ACAD_XDICTIONARY
360
219
102
}
102
{ACAD_REACTORS
330
217
102
}
330
217
100
AcDbMaterial
  1
ByLayer
 72
     0
 43
0.0208333333333333
 43
0.0
 43
0.0
 43
0.0
 43
0.0
 43
0.0208333333333333
 43
0.0
 43
0.0
 43
0.0
 43
0.0
 43
1.0
 43
0.0
 43
0.0
 43
0.0
 43
0.0
 43
1.0
 77
     0
 47
0.0208333333333333
 47
0.0
 47
0.0
 47
0.0
 47
0.0
 47
0.0208333333333333
 47
0.0
 47
0.0
 47
0.0
 47
0.0
 47
1.0
 47
0.0
 47
0.0
 47
0.0
 47
0.0
 47
1.0
171
     0
 49
0.0208333333333333
 49
0.0
 49
0.0
 49
0.0
 49
0.0
 49
0.0208333333333333
 49
0.0
 49
0.0
 49
0.0
 49
0.0
 49
1.0
 49
0.0
 49
0.0
 49
0.0
 49
0.0
 49
1.0
175
     0
142
0.0208333333333333
142
0.0
142
0.0
142
0.0
142
0.0
142
0.0208333333333333
142
0.0
142
0.0
142
0.0
142
0.0
142
1.0
142
0.0
142
0.0
142
0.0
142
0.0
142
1.0
179
     0
144
0.0208333333333333
144
0.0
144
0.0
144
0.0
144
0.0
144
0.0208333333333333
144
0.0
144
0.0
144
0.0
144
0.0
144
1.0
144
0.0
144
0.0
144
0.0
144
0.0
144
1.0
147
0.0208333333333333
147
0.0
147
0.0
147
0.0
147
0.0
147
0.0208333333333333
147
0.0
147
0.0
147
0.0
147
0.0
147
1.0
147
0.0
147
0.0
147
0.0
147
0.0
147
1.0
  0
MATERIAL
  5
228
102
{ACAD_XDICTIONARY
360
229
102
}
102
{ACAD_REACTORS
330
217
102
}
330
217
100
AcDbMaterial
  1
Global
 72
     0
 43
0.0208333333333333
 43
0.0
 43
0.0
 43
0.0
 43
0.0
 43
0.0208333333333333
 43
0.0
 43
0.0
 43
0.0
 43
0.0
 43
1.0
 43
0.0
 43
0.0
 43
0.0
 43
0.0
 43
1.0
 77
     0
 47
0.0208333333333333
 47
0.0
 47
0.0
 47
0.0
 47
0.0
 47
0.0208333333333333
 47
0.0
 47
0.0
 47
0.0
 47
0.0
 47
1.0
 47
0.0
 47
0.0
 47
0.0
 47
0.0
 47
1.0
171
     0
 49
0.0208333333333333
 49
0.0
 49
0.0
 49
0.0
 49
0.0
 49
0.0208333333333333
 49
0.0
 49
0.0
 49
0.0
 49
0.0
 49
1.0
 49
0.0
 49
0.0
 49
0.0
 49
0.0
 49
1.0
175
     0
142
0.0208333333333333
142
0.0
142
0.0
142
0.0
142
0.0
142
0.0208333333333333
142
0.0
142
0.0
142
0.0
142
0.0
142
1.0
142
0.0
142
0.0
142
0.0
142
0.0
142
1.0
179
     0
144
0.0208333333333333
144
0.0
144
0.0
144
0.0
144
0.0
144
0.0208333333333333
144
0.0
144
0.0
144
0.0
144
0.0
144
1.0
144
0.0
144
0.0
144
0.0
144
0.0
144
1.0
147
0.0208333333333333
147
0.0
147
0.0
147
0.0
147
0.0
147
0.0208333333333333
147
0.0
147
0.0
147
0.0
147
0.0
147
1.0
147
0.0
147
0.0
147
0.0
147
0.0
147
1.0
  0
MLEADERSTYLE
  5
25A
102
{ACAD_REACTORS
330
259
102
}
330
259
100
AcDbMLeaderStyle
170
     2
171
     1
172
     0
 90
        2
 40
0.0
 41
0.0
173
     1
 91
-1056964608
340
11
 92
       -2
290
     1
 42
2.0
291
     1
 43
0.36
  3
Standard
 44
4.0
300

342
17
174
     1
178
     6
175
     1
176
     0
 93
-1056964608
 45
4.0
292
     0
297
     0
 46
4.0
 94
-1056964608
 47
1.0
 49
1.0
140
1.0
293
     1
141
0.0
294
     1
177
     0
142
1.0
295
     0
296
     0
143
0.125
1001
ACAD_MLEADERVER
1070
     2
  0
MLINESTYLE
  5
1C
102
{ACAD_REACTORS
330
1B
102
}
330
1B
100
AcDbMlineStyle
  2
STANDARD
 70
     0
  3

 62
     0
 51
90.0
 52
90.0
 71
     2
 49
0.5
 62
   256
  6
BYLAYER
 49
-0.5
 62
   256
  6
BYLAYER
  0
ACDBPLACEHOLDER
  5
1D
102
{ACAD_REACTORS
330
1F
102
}
330
1F
  0
SCALE
  5
248
102
{ACAD_REACTORS
330
247
102
}
330
247
100
AcDbScale
 70
     0
300
1:1
140
1.0
141
1.0
290
     1
  0
SCALE
  5
249
102
{ACAD_REACTORS
330
247
102
}
330
247
100
AcDbScale
 70
     0
300
1:2
140
1.0
141
2.0
290
     0
  0
SCALE
  5
24A
102
{ACAD_REACTORS
330
247
102
}
330
247
100
AcDbScale
 70
     0
300
1:4
140
1.0
141
4.0
290
     0
  0
SCALE
  5
24B
102
{ACAD_REACTORS
330
247
102
}
330
247
100
AcDbScale
 70
     0
300
1:5
140
1.0
141
5.0
290
     0
  0
SCALE
  5
24C
102
{ACAD_REACTORS
330
247
102
}
330
247
100
AcDbScale
 70
     0
300
1:8
140
1.0
141
8.0
290
     0
  0
SCALE
  5
24D
102
{ACAD_REACTORS
330
247
102
}
330
247
100
AcDbScale
 70
     0
300
1:10
140
1.0
141
10.0
290
     0
  0
SCALE
  5
24E
102
{ACAD_REACTORS
330
247
102
}
330
247
100
AcDbScale
 70
     0
300
1:16
140
1.0
141
16.0
290
     0
  0
SCALE
  5
24F
102
{ACAD_REACTORS
330
247
102
}
330
247
100
AcDbScale
 70
     0
300
1:20
140
1.0
141
20.0
290
     0
  0
SCALE
  5
250
102
{ACAD_REACTORS
330
247
102
}
330
247
100
AcDbScale
 70
     0
300
1:30
140
1.0
141
30.0
290
     0
  0
SCALE
  5
251
102
{ACAD_REACTORS
330
247
102
}
330
247
100
AcDbScale
 70
     0
300
1:40
140
1.0
141
40.0
290
     0
  0
SCALE
  5
252
102
{ACAD_REACTORS
330
247
102
}
330
247
100
AcDbScale
 70
     0
300
1:50
140
1.0
141
50.0
290
     0
  0
SCALE
  5
253
102
{ACAD_REACTORS
330
247
102
}
330
247
100
AcDbScale
 70
     0
300
1:100
140
1.0
141
100.0
290
     0
  0
SCALE
  5
254
102
{ACAD_REACTORS
330
247
102
}
330
247
100
AcDbScale
 70
     0
300
2:1
140
2.0
141
1.0
290
     0
  0
SCALE
  5
255
102
{ACAD_REACTORS
330
247
102
}
330
247
100
AcDbScale
 70
     0
300
4:1
140
4.0
141
1.0
290
     0
  0
SCALE
  5
256
102
{ACAD_REACTORS
330
247
102
}
330
247
100
AcDbScale
 70
     0
300
8:1
140
8.0
141
1.0
290
     0
  0
SCALE
  5
257
102
{ACAD_REACTORS
330
247
102
}
330
247
100
AcDbScale
 70
     0
300
10:1
140
10.0
141
1.0
290
     0
  0
SCALE
  5
258
102
{ACAD_REACTORS
330
247
102
}
330
247
100
AcDbScale
 70
     0
300
100:1
140
100.0
141
1.0
290
     0
  0
TABLESTYLE
  5
246
102
{ACAD_XDICTIONARY
360
B47
102
}
102
{ACAD_REACTORS
330
245
102
}
330
245
100
AcDbTableStyle
  3
Standard
 70
     0
 71
     0
 40
1.5
 41
1.5
280
     0
281
     0
  7
MX_NOTE_STANDARD
140
4.5
170
     2
 62
     0
 63
     7
283
     0
274
    -2
284
     1
 64
     0
275
    -2
285
     1
 65
     0
276
    -2
286
     1
 66
     0
277
    -2
287
     1
 67
     0
278
    -2
288
     1
 68
     0
279
    -2
289
     1
 69
     0
  7
MX_NOTE_STANDARD
140
6.0
170
     5
 62
     0
 63
     7
283
     0
274
    -2
284
     1
 64
     0
275
    -2
285
     1
 65
     0
276
    -2
286
     1
 66
     0
277
    -2
287
     1
 67
     0
278
    -2
288
     1
 68
     0
279
    -2
289
     1
 69
     0
  7
MX_NOTE_STANDARD
140
4.5
170
     5
 62
     0
 63
     7
283
     0
274
    -2
284
     1
 64
     0
275
    -2
285
     1
 65
     0
276
    -2
286
     1
 66
     0
277
    -2
287
     1
 67
     0
278
    -2
288
     1
 68
     0
279
    -2
289
     1
 69
     0
  0
VISUALSTYLE
  5
236
102
{ACAD_XDICTIONARY
360
D47
102
}
102
{ACAD_REACTORS
330
230
102
}
330
230
100
AcDbVisualStyle
  2
2dWireframe
 70
     4
 71
     0
 72
     2
 73
     0
 90
        0
 40
-0.6
 41
-30.0
 62
     5
 63
     7
 74
     1
 91
        4
 64
     7
 65
   257
 75
     1
175
     1
 42
1.0
 92
        0
 66
   257
 43
1.0
 76
     1
 77
     6
 78
     2
 67
     7
 79
     5
170
     0
171
     0
290
     0
174
     0
 93
        1
 44
0.0
173
     0
291
     0
 45
0.0
1001
ACAD
1000
AcDbSavedByObjectVersion
1070
     0
  0
VISUALSTYLE
  5
238
102
{ACAD_XDICTIONARY
360
D4B
102
}
102
{ACAD_REACTORS
330
230
102
}
330
230
100
AcDbVisualStyle
  2
3D Hidden
 70
     6
 71
     1
 72
     2
 73
     2
 90
        0
 40
-0.6
 41
-30.0
 62
     5
 63
     7
 74
     2
 91
        2
 64
     7
 65
   257
 75
     2
175
     1
 42
179.0
 92
        0
 66
   257
 43
1.0
 76
     1
 77
     6
 78
     2
 67
     7
 79
     3
170
     0
171
     0
290
     0
174
     0
 93
        1
 44
0.0
173
     0
291
     0
 45
0.0
1001
ACAD
1000
AcDbSavedByObjectVersion
1070
     0
  0
VISUALSTYLE
  5
237
102
{ACAD_XDICTIONARY
360
D49
102
}
102
{ACAD_REACTORS
330
230
102
}
330
230
100
AcDbVisualStyle
  2
3dWireframe
 70
     5
 71
     0
 72
     2
 73
     0
 90
        0
 40
-0.6
 41
-30.0
 62
     5
 63
     7
 74
     1
 91
        4
 64
     7
 65
   257
 75
     1
175
     1
 42
1.0
 92
        0
 66
   257
 43
1.0
 76
     1
 77
     6
 78
     2
 67
     7
 79
     5
170
     0
171
     0
290
     0
174
     0
 93
        1
 44
0.0
173
     0
291
     0
 45
0.0
1001
ACAD
1000
AcDbSavedByObjectVersion
1070
     0
  0
VISUALSTYLE
  5
235
102
{ACAD_XDICTIONARY
360
D45
102
}
102
{ACAD_REACTORS
330
230
102
}
330
230
100
AcDbVisualStyle
  2
Basic
 70
     7
 71
     1
 72
     0
 73
     1
 90
        0
 40
-0.6
 41
-30.0
 62
     5
 63
     7
 74
     0
 91
        4
 64
     7
 65
   257
 75
     1
175
     1
 42
1.0
 92
        8
 66
     7
 43
1.0
 76
     1
 77
     6
 78
     2
 67
     7
 79
     5
170
     0
171
     0
290
     0
174
     0
 93
        1
 44
0.0
173
     0
291
     1
 45
0.0
1001
ACAD
1000
AcDbSavedByObjectVersion
1070
     0
  0
VISUALSTYLE
  5
23C
102
{ACAD_XDICTIONARY
360
D53
102
}
102
{ACAD_REACTORS
330
230
102
}
330
230
100
AcDbVisualStyle
  2
Brighten
 70
    12
 71
     2
 72
     2
 73
     0
 90
        0
 40
-0.6
 41
-30.0
 62
     5
 63
     7
 74
     1
 91
        4
 64
     7
 65
   257
 75
     1
175
     1
 42
1.0
 92
        8
 66
     7
 43
1.0
 76
     1
 77
     6
 78
     2
 67
     7
 79
     5
170
     0
171
     0
290
     0
174
     0
 93
        1
 44
50.0
173
     0
291
     1
 45
0.0
1001
ACAD
1000
AcDbSavedByObjectVersion
1070
     0
  0
VISUALSTYLE
  5
240
102
{ACAD_XDICTIONARY
360
D5B
102
}
102
{ACAD_REACTORS
330
230
102
}
330
230
100
AcDbVisualStyle
  2
ColorChange
 70
    16
 71
     2
 72
     2
 73
     3
 90
        0
 40
-0.6
 41
-30.0
 62
     5
 63
     8
 74
     1
 91
        4
 64
     7
 65
   257
 75
     1
175
     1
 42
1.0
 92
        8
 66
     8
 43
1.0
 76
     1
 77
     6
 78
     2
 67
     7
 79
     5
170
     0
171
     0
290
     0
174
     0
 93
        1
 44
0.0
173
     0
291
     1
 45
0.0
1001
ACAD
1000
AcDbSavedByObjectVersion
1070
     0
  0
VISUALSTYLE
  5
239
102
{ACAD_XDICTIONARY
360
D4D
102
}
102
{ACAD_REACTORS
330
230
102
}
330
230
100
AcDbVisualStyle
  2
Conceptual
 70
     9
 71
     3
 72
     2
 73
     0
 90
        0
 40
-0.6
 41
-30.0
 62
     5
 63
     7
 74
     2
 91
        2
 64
     7
 65
   257
 75
     1
175
     1
 42
179.0
 92
        8
 66
     7
 43
1.0
 76
     1
 77
     6
 78
     2
 67
     7
 79
     3
170
     0
171
     0
290
     0
174
     0
 93
        1
 44
0.0
173
     0
291
     0
 45
0.0
1001
ACAD
1000
AcDbSavedByObjectVersion
1070
     0
  0
VISUALSTYLE
  5
23B
102
{ACAD_XDICTIONARY
360
D51
102
}
102
{ACAD_REACTORS
330
230
102
}
330
230
100
AcDbVisualStyle
  2
Dim
 70
    11
 71
     2
 72
     2
 73
     0
 90
        0
 40
-0.6
 41
-30.0
 62
     5
 63
     7
 74
     1
 91
        4
 64
     7
 65
   257
 75
     1
175
     1
 42
1.0
 92
        8
 66
     7
 43
1.0
 76
     1
 77
     6
 78
     2
 67
     7
 79
     5
170
     0
171
     0
290
     0
174
     0
 93
        1
 44
-50.0
173
     0
291
     1
 45
0.0
1001
ACAD
1000
AcDbSavedByObjectVersion
1070
     0
  0
VISUALSTYLE
  5
243
102
{ACAD_XDICTIONARY
360
D61
102
}
102
{ACAD_REACTORS
330
230
102
}
330
230
100
AcDbVisualStyle
  2
EdgeColorOff
 70
    22
 71
     2
 72
     2
 73
     0
 90
        0
 40
-0.6
 41
-30.0
 62
     5
 63
     7
 74
     1
 91
        4
 64
     7
 65
   257
 75
     1
175
     1
 42
1.0
 92
        8
 66
     7
 43
1.0
 76
     1
 77
     6
 78
     2
 67
     7
 79
     5
170
     0
171
     0
290
     0
174
     0
 93
        1
 44
0.0
173
     0
291
     1
 45
0.0
1001
ACAD
1000
AcDbSavedByObjectVersion
1070
     0
  0
VISUALSTYLE
  5
23F
102
{ACAD_XDICTIONARY
360
D59
102
}
102
{ACAD_REACTORS
330
230
102
}
330
230
100
AcDbVisualStyle
  2
Facepattern
 70
    15
 71
     2
 72
     2
 73
     0
 90
        0
 40
-0.6
 41
-30.0
 62
     5
 63
     7
 74
     1
 91
        4
 64
     7
 65
   257
 75
     1
175
     1
 42
1.0
 92
        8
 66
     7
 43
1.0
 76
     1
 77
     6
 78
     2
 67
     7
 79
     5
170
     0
171
     0
290
     0
174
     0
 93
        1
 44
0.0
173
     0
291
     1
 45
0.0
1001
ACAD
1000
AcDbSavedByObjectVersion
1070
     0
  0
VISUALSTYLE
  5
231
102
{ACAD_XDICTIONARY
360
D3D
102
}
102
{ACAD_REACTORS
330
230
102
}
330
230
100
AcDbVisualStyle
  2
Flat
 70
     0
 71
     2
 72
     1
 73
     1
 90
        2
 40
-0.6
 41
30.0
 62
     5
 63
     7
 74
     0
 91
        4
 64
     7
 65
   257
 75
     1
175
     1
 42
1.0
 92
        8
 66
     7
 43
1.0
 76
     1
 77
     6
 78
     2
 67
     7
 79
     5
170
     0
171
     0
290
     0
174
     0
 93
       13
 44
0.0
173
     0
291
     1
 45
0.0
1001
ACAD
1000
AcDbSavedByObjectVersion
1070
     0
  0
VISUALSTYLE
  5
232
102
{ACAD_XDICTIONARY
360
D3F
102
}
102
{ACAD_REACTORS
330
230
102
}
330
230
100
AcDbVisualStyle
  2
FlatWithEdges
 70
     1
 71
     2
 72
     1
 73
     1
 90
        2
 40
-0.6
 41
30.0
 62
     5
 63
     7
 74
     1
 91
        4
 64
     7
 65
   257
 75
     1
175
     1
 42
1.0
 92
        0
 66
   257
 43
1.0
 76
     1
 77
     6
 78
     2
 67
     7
 79
     5
170
     0
171
     0
290
     0
174
     0
 93
       13
 44
0.0
173
     0
291
     1
 45
0.0
1001
ACAD
1000
AcDbSavedByObjectVersion
1070
     0
  0
VISUALSTYLE
  5
233
102
{ACAD_XDICTIONARY
360
D41
102
}
102
{ACAD_REACTORS
330
230
102
}
330
230
100
AcDbVisualStyle
  2
Gouraud
 70
     2
 71
     2
 72
     2
 73
     1
 90
        2
 40
-0.6
 41
30.0
 62
     5
 63
     7
 74
     0
 91
        4
 64
     7
 65
   257
 75
     1
175
     1
 42
1.0
 92
        0
 66
     7
 43
1.0
 76
     1
 77
     6
 78
     2
 67
     7
 79
     5
170
     0
171
     0
290
     0
174
     0
 93
       13
 44
0.0
173
     0
291
     1
 45
0.0
1001
ACAD
1000
AcDbSavedByObjectVersion
1070
     0
  0
VISUALSTYLE
  5
234
102
{ACAD_XDICTIONARY
360
D43
102
}
102
{ACAD_REACTORS
330
230
102
}
330
230
100
AcDbVisualStyle
  2
GouraudWithEdges
 70
     3
 71
     2
 72
     2
 73
     1
 90
        2
 40
-0.6
 41
30.0
 62
     5
 63
     7
 74
     1
 91
        4
 64
     7
 65
   257
 75
     1
175
     1
 42
1.0
 92
        0
 66
   257
 43
1.0
 76
     1
 77
     6
 78
     2
 67
     7
 79
     5
170
     0
171
     0
290
     0
174
     0
 93
       13
 44
0.0
173
     0
291
     1
 45
0.0
1001
ACAD
1000
AcDbSavedByObjectVersion
1070
     0
  0
VISUALSTYLE
  5
241
102
{ACAD_XDICTIONARY
360
D5D
102
}
102
{ACAD_REACTORS
330
230
102
}
330
230
100
AcDbVisualStyle
  2
JitterOff
 70
    20
 71
     2
 72
     2
 73
     0
 90
        0
 40
-0.6
 41
-30.0
 62
     5
 63
     7
 74
     1
 91
        4
 64
     7
 65
   257
 75
     1
175
     1
 42
1.0
 92
       10
 66
     7
 43
1.0
 76
     1
 77
     6
 78
     2
 67
     7
 79
     5
170
     0
171
     0
290
     0
174
     0
 93
        1
 44
0.0
173
     0
291
     1
 45
0.0
1001
ACAD
1000
AcDbSavedByObjectVersion
1070
     0
  0
VISUALSTYLE
  5
23E
102
{ACAD_XDICTIONARY
360
D57
102
}
102
{ACAD_REACTORS
330
230
102
}
330
230
100
AcDbVisualStyle
  2
Linepattern
 70
    14
 71
     2
 72
     2
 73
     0
 90
        0
 40
-0.6
 41
-30.0
 62
     5
 63
     7
 74
     1
 91
        4
 64
     7
 65
   257
 75
     7
175
     7
 42
1.0
 92
        8
 66
     7
 43
1.0
 76
     1
 77
     6
 78
     2
 67
     7
 79
     5
170
     0
171
     0
290
     0
174
     0
 93
        1
 44
0.0
173
     0
291
     1
 45
0.0
1001
ACAD
1000
AcDbSavedByObjectVersion
1070
     0
  0
VISUALSTYLE
  5
242
102
{ACAD_XDICTIONARY
360
D5F
102
}
102
{ACAD_REACTORS
330
230
102
}
330
230
100
AcDbVisualStyle
  2
OverhangOff
 70
    21
 71
     2
 72
     2
 73
     0
 90
        0
 40
-0.6
 41
-30.0
 62
     5
 63
     7
 74
     1
 91
        4
 64
     7
 65
   257
 75
     1
175
     1
 42
1.0
 92
        9
 66
     7
 43
1.0
 76
     1
 77
     6
 78
     2
 67
     7
 79
     5
170
     0
171
     0
290
     0
174
     0
 93
        1
 44
0.0
173
     0
291
     1
 45
0.0
1001
ACAD
1000
AcDbSavedByObjectVersion
1070
     0
  0
VISUALSTYLE
  5
23A
102
{ACAD_XDICTIONARY
360
D4F
102
}
102
{ACAD_REACTORS
330
230
102
}
330
230
100
AcDbVisualStyle
  2
Realistic
 70
     8
 71
     2
 72
     2
 73
     0
 90
        0
 40
-0.6
 41
-30.0
 62
     5
 63
     7
 74
     1
 91
        0
 64
     7
 65
   257
 75
     1
175
     1
 42
1.0
 92
        8
 66
     8
 43
1.0
 76
     1
 77
     6
 78
     2
 67
     7
 79
     5
170
     0
171
     0
290
     0
174
     0
 93
       13
 44
0.0
173
     0
291
     0
 45
0.0
1001
ACAD
1000
AcDbSavedByObjectVersion
1070
     0
  0
VISUALSTYLE
  5
23D
102
{ACAD_XDICTIONARY
360
D55
102
}
102
{ACAD_REACTORS
330
230
102
}
330
230
100
AcDbVisualStyle
  2
Thicken
 70
    13
 71
     2
 72
     2
 73
     0
 90
        0
 40
-0.6
 41
-30.0
 62
     5
 63
     7
 74
     1
 91
        4
 64
     7
 65
   257
 75
     1
175
     1
 42
1.0
 92
       12
 66
     7
 43
1.0
 76
     1
 77
     6
 78
     2
 67
     7
 79
     5
170
     0
171
     0
290
     0
174
     0
 93
        1
 44
0.0
173
     0
291
     1
 45
0.0
1001
ACAD
1000
AcDbSavedByObjectVersion
1070
     0
  0
DICTIONARYVAR
  5
338
102
{ACAD_REACTORS
330
334
102
}
330
334
100
DictionaryVariables
280
     0
  1
1:1
  0
DICTIONARYVAR
  5
336
102
{ACAD_REACTORS
330
334
102
}
330
334
100
DictionaryVariables
280
     0
  1
STANDARD
  0
DICTIONARYVAR
  5
335
102
{ACAD_REACTORS
330
334
102
}
330
334
100
DictionaryVariables
280
     0
  1
STANDARD
  0
DICTIONARYVAR
  5
D2F
102
{ACAD_REACTORS
330
334
102
}
330
334
100
DictionaryVariables
280
     0
  1
1
  0
DICTIONARYVAR
  5
D2E
102
{ACAD_REACTORS
330
334
102
}
330
334
100
DictionaryVariables
280
     0
  1
0
  0
DICTIONARYVAR
  5
33A
102
{ACAD_REACTORS
330
334
102
}
330
334
100
DictionaryVariables
280
     0
  1
1
  0
DICTIONARYVAR
  5
33B
102
{ACAD_REACTORS
330
334
102
}
330
334
100
DictionaryVariables
280
     0
  1
15
  0
DICTIONARYVAR
  5
339
102
{ACAD_REACTORS
330
334
102
}
330
334
100
DictionaryVariables
280
     0
  1
0
  0
DICTIONARYVAR
  5
D30
102
{ACAD_REACTORS
330
334
102
}
330
334
100
DictionaryVariables
280
     0
  1
1.570796
  0
DICTIONARYVAR
  5
D31
102
{ACAD_REACTORS
330
334
102
}
330
334
100
DictionaryVariables
280
     0
  1
1.570796
  0
DICTIONARYVAR
  5
D32
102
{ACAD_REACTORS
330
334
102
}
330
334
100
DictionaryVariables
280
     0
  1
-122.394000
  0
DICTIONARYVAR
  5
337
102
{ACAD_REACTORS
330
334
102
}
330
334
100
DictionaryVariables
280
     0
  1
0
  0
DICTIONARYVAR
  5
D2D
102
{ACAD_REACTORS
330
334
102
}
330
334
100
DictionaryVariables
280
     0
  1
127
  0
DICTIONARYVAR
  5
D33
102
{ACAD_REACTORS
330
334
102
}
330
334
100
DictionaryVariables
280
     0
  1
2
  0
DICTIONARY
  5
2C0
102
{ACAD_REACTORS
330
2B6
102
}
330
2B6
100
AcDbDictionary
281
     1
  0
XRECORD
  5
300
102
{ACAD_REACTORS
330
2FE
102
}
330
2FE
100
AcDbXrecord
280
     1
330
1DF
330
205
330
0
330
0
330
0
330
0
330
0
330
0
330
0
330
0
330
0
330
0
330
0
330
0
330
0
330
0
  0
DICTIONARY
  5
D38
330
21
100
AcDbDictionary
280
     1
281
     1
  3
ACAD_XREC_ROUNDTRIP
360
D39
  0
DICTIONARY
  5
430
330
20
100
AcDbDictionary
280
     1
281
     1
  3
ACAD_XREC_ROUNDTRIP
360
D37
  3
ADSK_XREC_LAYOUTTHUMBNAIL
360
431
  0
DICTIONARY
  5
221
330
220
100
AcDbDictionary
280
     1
281
     1
  3
ACAD_XREC_ROUNDTRIP
360
D3B
  3
BUMPTILE
360
223
  3
DIFFUSETILE
360
222
  3
OPACITYTILE
360
226
  3
REFLECTIONTILE
360
225
  3
REFRACTIONTILE
360
227
  3
SPECULARTILE
360
224
  0
DICTIONARY
  5
219
330
218
100
AcDbDictionary
280
     1
281
     1
  3
ACAD_XREC_ROUNDTRIP
360
D3A
  3
BUMPTILE
360
21B
  3
DIFFUSETILE
360
21A
  3
OPACITYTILE
360
21E
  3
REFLECTIONTILE
360
21D
  3
REFRACTIONTILE
360
21F
  3
SPECULARTILE
360
21C
  0
DICTIONARY
  5
229
330
228
100
AcDbDictionary
280
     1
281
     1
  3
ACAD_XREC_ROUNDTRIP
360
D3C
  3
BUMPTILE
360
22B
  3
DIFFUSETILE
360
22A
  3
OPACITYTILE
360
22E
  3
REFLECTIONTILE
360
22D
  3
REFRACTIONTILE
360
22F
  3
SPECULARTILE
360
22C
  0
DICTIONARY
  5
B47
330
246
100
AcDbDictionary
280
     1
281
     1
  3
ACAD_ROUNDTRIP_2008_TABLESTYLE_CELLSTYLEMAP
360
D34
  3
ACAD_XREC_ROUNDTRIP
360
D63
  0
DICTIONARY
  5
D47
330
236
100
AcDbDictionary
280
     1
281
     1
  3
ACAD_XREC_ROUNDTRIP
360
D48
  0
DICTIONARY
  5
D4B
330
238
100
AcDbDictionary
280
     1
281
     1
  3
ACAD_XREC_ROUNDTRIP
360
D4C
  0
DICTIONARY
  5
D49
330
237
100
AcDbDictionary
280
     1
281
     1
  3
ACAD_XREC_ROUNDTRIP
360
D4A
  0
DICTIONARY
  5
D45
330
235
100
AcDbDictionary
280
     1
281
     1
  3
ACAD_XREC_ROUNDTRIP
360
D46
  0
DICTIONARY
  5
D53
330
23C
100
AcDbDictionary
280
     1
281
     1
  3
ACAD_XREC_ROUNDTRIP
360
D54
  0
DICTIONARY
  5
D5B
330
240
100
AcDbDictionary
280
     1
281
     1
  3
ACAD_XREC_ROUNDTRIP
360
D5C
  0
DICTIONARY
  5
D4D
330
239
100
AcDbDictionary
280
     1
281
     1
  3
ACAD_XREC_ROUNDTRIP
360
D4E
  0
DICTIONARY
  5
D51
330
23B
100
AcDbDictionary
280
     1
281
     1
  3
ACAD_XREC_ROUNDTRIP
360
D52
  0
DICTIONARY
  5
D61
330
243
100
AcDbDictionary
280
     1
281
     1
  3
ACAD_XREC_ROUNDTRIP
360
D62
  0
DICTIONARY
  5
D59
330
23F
100
AcDbDictionary
280
     1
281
     1
  3
ACAD_XREC_ROUNDTRIP
360
D5A
  0
DICTIONARY
  5
D3D
330
231
100
AcDbDictionary
280
     1
281
     1
  3
ACAD_XREC_ROUNDTRIP
360
D3E
  0
DICTIONARY
  5
D3F
330
232
100
AcDbDictionary
280
     1
281
     1
  3
ACAD_XREC_ROUNDTRIP
360
D40
  0
DICTIONARY
  5
D41
330
233
100
AcDbDictionary
280
     1
281
     1
  3
ACAD_XREC_ROUNDTRIP
360
D42
  0
DICTIONARY
  5
D43
330
234
100
AcDbDictionary
280
     1
281
     1
  3
ACAD_XREC_ROUNDTRIP
360
D44
  0
DICTIONARY
  5
D5D
330
241
100
AcDbDictionary
280
     1
281
     1
  3
ACAD_XREC_ROUNDTRIP
360
D5E
  0
DICTIONARY
  5
D57
330
23E
100
AcDbDictionary
280
     1
281
     1
  3
ACAD_XREC_ROUNDTRIP
360
D58
  0
DICTIONARY
  5
D5F
330
242
100
AcDbDictionary
280
     1
281
     1
  3
ACAD_XREC_ROUNDTRIP
360
D60
  0
DICTIONARY
  5
D4F
330
23A
100
AcDbDictionary
280
     1
281
     1
  3
ACAD_XREC_ROUNDTRIP
360
D50
  0
DICTIONARY
  5
D55
330
23D
100
AcDbDictionary
280
     1
281
     1
  3
ACAD_XREC_ROUNDTRIP
360
D56
  0
XRECORD
  5
D39
102
{ACAD_REACTORS
330
D38
102
}
330
D38
100
AcDbXrecord
280
     1
102
SHADEPLOT
 70
     0
102
SHADEPLOTRESLEVEL
 70
     2
102
SHADEPLOTCUSTOMDPI
 70
   300
  0
XRECORD
  5
D37
102
{ACAD_REACTORS
330
430
102
}
330
430
100
AcDbXrecord
280
     1
102
SHADEPLOT
 70
     0
102
SHADEPLOTRESLEVEL
 70
     2
102
SHADEPLOTCUSTOMDPI
 70
   300
  0
XRECORD
  5
431
102
{ACAD_REACTORS
330
430
102
}
330
430
100
AcDbXrecord
280
     1
310
280000000001000074000000010008000000000000740000000000000000000000010000000000000000000000000000FFFFFF000000000000000000000000000000000000000000000000000000000000000000330000006600000099000000CC000000FF00000000330000333300006633000099330000CC330000FF3300
310
0000660000336600006666000099660000CC660000FF66000000990000339900006699000099990000CC990000FF99000000CC000033CC000066CC000099CC0000CCCC0000FFCC000000FF000033FF000066FF000099FF0000CCFF0000FFFF000000003300330033006600330099003300CC003300FF003300003333003333
310
33006633330099333300CC333300FF33330000663300336633006666330099663300CC663300FF66330000993300339933006699330099993300CC993300FF99330000CC330033CC330066CC330099CC3300CCCC3300FFCC330000FF330033FF330066FF330099FF3300CCFF3300FFFF330000006600330066006600660099
310
006600CC006600FF00660000336600333366006633660099336600CC336600FF33660000666600336666006666660099666600CC666600FF66660000996600339966006699660099996600CC996600FF99660000CC660033CC660066CC660099CC6600CCCC6600FFCC660000FF660033FF660066FF660099FF6600CCFF6600
310
FFFF660000009900330099006600990099009900CC009900FF00990000339900333399006633990099339900CC339900FF33990000669900336699006666990099669900CC669900FF66990000999900339999006699990099999900CC999900FF99990000CC990033CC990066CC990099CC9900CCCC9900FFCC990000FF99
310
0033FF990066FF990099FF9900CCFF9900FFFF99000000CC003300CC006600CC009900CC00CC00CC00FF00CC000033CC003333CC006633CC009933CC00CC33CC00FF33CC000066CC003366CC006666CC009966CC00CC66CC00FF66CC000099CC003399CC006699CC009999CC00CC99CC00FF99CC0000CCCC0033CCCC0066CC
310
CC0099CCCC00CCCCCC00FFCCCC0000FFCC0033FFCC0066FFCC0099FFCC00CCFFCC00FFFFCC000000FF003300FF006600FF009900FF00CC00FF00FF00FF000033FF003333FF006633FF009933FF00CC33FF00FF33FF000066FF003366FF006666FF009966FF00CC66FF00FF66FF000099FF003399FF006699FF009999FF00CC
310
99FF00FF99FF0000CCFF0033CCFF0066CCFF0099CCFF00CCCCFF00FFCCFF0000FFFF0033FFFF0066FFFF0099FFFF00CCFFFF00FFFFFF00000000000D0D0D001A1A1A00282828003535350043434300505050005D5D5D006B6B6B00787878008686860093939300A1A1A100AEAEAE00BBBBBB00C9C9C900D6D6D600E4E4E400
310
F1F1F100FFFFFF0000000000000000000000000000000000000000000000000000000000000000000000000000000000E2E2E2E2E2E2E2E2E2E2E2E2E2E2E2E2E2E2E2E2E2E2E2E2E2E2E2E2E2E2E2E2E2E2E2E2E2E2E2E2E2E2E2E2E2E2E2E2E2E2E2E2E2E2E2E2E2E2E2E2E2E2E2E2E2E2E2E2E2E2E2E2E2E2E2E2E2E2E2
310
E2E2E2E2E2E2E2E2E2E2E2E2E2E2E2E2E2E2E2E2E2E2E2E2E2E2E2E2E2E2E2E2E2E2E2E2E2E2E2E2E2E2E2E2E2E2E2E2E2E2E2E2E2E2E2E2E2E2E2E2E2E2E2E2E2E2E2E2E2E2E2E2E2E2E2E2E2E2E2E2E2E2E2E2E2E2E2E2E2E2E2E2E2E2E2E2E2E2E2E2E2E2E2E2E2E2E2E2E2E2E2E2E2E2E2E2E2E2E2E2E2E2E2E2E2E2E2
310
E2E2E2E2E2E2E2E2E2E2E2E2E2E2E2E2E2E2E2E2E2E2E2E2E2E2E2E2E2E2E2E2E2E2E2E2E2E2E2E2E2E2E2E2E2E2E2E2E2E2E2E2E2E2E2E2E2E2E2E2E2E2E2E2E2E2E2E2E2E2E2E2E2E2E2E2E2E2E2E2E2E2E2E2E2E2E2E2E2E2E2E2E2E2E2E2E2E2E2E2E2E2E2E2E2E2E2E2E2E2E2E2E2E2E2E2E2E2E2E2E2E2E2E2E2E2E2
310
E2E2E2E2E2E2E2E2E2E2E2E2E2E2E2E2E2E2E2E2E2E2E2E2E2E2E2E2E2E2E2E2E2E2E2E2E2E2E2E2E2E2E2E2E2E2E2E2E2E2E2E2E2E2E2E2E2E2E2E2E2E2E2E2E2E2E2E2E2E2E2E2E2E2E2E2E2E2E2E2E2E2E2E2E2E2E2E2E2E2E2E2E2E2E2E2E2E2E2E2E2E2E2E2E2E2E2E2E2E2E2E2E2E2E2E2E2E2E2E2E2E2E2E2E2E2E2
310
E2E2E2E2E2E2E2E2E2E2E2E2E2E2E2E2E2E2E2E2E2E2E2E2E2E2E2E2E2E2E2E2E2E2E2E2E2E2E2E2E2E2E2E2E2E2E2E2E2E2E2E2E2E2E2E2E2E2E2E2E2E2E2E2E2E2E2E2E2E2E2E2E2E2E2E2E2E2E2E2E2E2E2E2E2E2E2E2E2E2E2E2E2E2E2E2E2E2E2E2E2E2E2E2E2E2E2E2E2E2E2E2E2E2E2E2E2E2E2E2E2E2E2E2E2E2E2
310
E2E2E2E2E2E2E2E2E2E2E2E2E2E2E2E2E2E2E2E2E2E2E2E2E2E2E2E2E2E2E2E2E2E2E2E2E2E2E2E2E2E2E2E2E2E2E2E2E2E2E2E2E2E2E2E2E2E2E2E2E2E2E2E2E2E2E2E2E2E2E2E2E2E2E2E2E2E2E2E2E2E2E2E2E2E2E2E2E2E2E2E2E2E2E2E2E2E2E2E2E2E2E2E2E2E2E2E2E2E2E2E2E2E2E2E2E2E2E2E2E2E2E2E2E2E2E2
310
E2E2E2E2E2E2E2E2E2E2E2E2E2E2E2E2E2E2E2E2E2E2E2E2E2E2E2E2E2E2E2E2E2E2E2E2E2E2E2E2E2E2E2E2E2E2E2E2E2E2E2E2E2E2E2E2E2E2E2E2E2E2E2E2E2E2E2E2E2E2E2E2E2E2E2E2E2E2E2E2E2E2E2E2E2E2E2E2E2E2E2E2E2E2E2E2E2E2E2E2E2E2E2E2E2E2E2E2E2E2E2E2E2E2E2E2E2E2E2E2E2E2E2E2E2E2E2
310
E2E2E2E2E2E2E2E2E2E2E2E2E2E2E2E2E2E2E2E2E2E2E2E2E2E2E2E2E2E2E2E2E2E2E2E2E2E2E2E2E2E2E2E2E2E2E2E2E2E2E2E2E2E2E2E2E2E2E2E2E2E2E2E2E2E2E2E2E2E2E2E2E2E2E2E2E2E2E2E2E2E2E2E2E2E2E2E2E2E2E2E2E2E2E2E2E2E2E2E2E2E2E2E2E2E2E2E2E2E2E2E2E2E2E2E2E2E2E2E2E2E2E2E2E2E2E2
310
E2E2E2E2E2E2E2E2E2E2E2E2E2E2E2E2E2E2E2E2E2E2E2E2E2E2E2E2E2E2E2E2E2E2E2E2E2E2E2E2E2E2E2E2E2E2E2E2E2E2E2E2E2E2E2E2E2E2E2E2E2E2E2E2E2E2E2E2E2E2E2E2E2E2E2E2E2E2E2E2E2E2E2E2E2E2E2E2E2E2E2E2E2E2E2E2E2E2E2E2E2E2E2E2E2E2E2E2E2E2E2E2E2E2E2E2E2E2E2E2E2E2E2E2E2E2E2
310
E2E2E2E2E2E2E2E2E2E2E2E2E2E2E2E2E2E2E2E2E2E2E2E2E2E2E2E2E2E2E2E2E2E2E2E2E2E2E2E2E2E2E2E2E2E2E2E2E2E2E2E2E2E2E2E2E2E2E2E2E2E2E2E2E2E2E2E2E2E2E2E2E2E2E2E2E2E2E2E2E2E2E2E2E2E2E2E2E2E2E2E2E2E2E2E2E2E2E2E2E2E2E2E2E2E2E2E2E2E2E2E2E2E2E2E2E2E2E2E2E2E2E2E2E2E2E2
310
E2E2E2E2E2E2E2E2E2E2E2E2E2E2E2E2E2E2E2E2E2E2E2E2E2E2E2E2E2E2E2E2E2E2E2E2E2E2E2E2E2E2E2E2E2E2E2E2E2E2E2E2E2E2E2E2E2E2E2E2E2E2E2E2E2E2E2E2E2E2E2E2E2E2E2E2E2E2E2E2E2E2E2E2E2E2E2E2E2E2E2E2E2E2E2E2E2E2E2E2E2E2E2E2E2E2E2E2E2E2E2E2E2E2E2E2E2E2E2E2E2E2E2E2E2E2E2
310
E2E2E2E2E2E2E2E2E2E2E2E2E2E2E2E2E2E2E2E2E2E2E2E2E2E2E2E2E2E2E2E2E2E2E2E2E2E2E2E2E2E2E2E2E2E2E2E2E2E2E2E2E2E2E2E2E2E2E2E2E2E2E2E2E2E2E2E2E2E2E2E2E2E2E2E2E2E2E2E2E2E2E2E2E2E2E2E2E2E2E2E2E2E2E2E2E2E2E2E2E2E2E2E2E2E2E2E2E2E2E2E2E2E2E2E2E2E2E2E2E2E2E2E2E2E2E2
310
E2E2E2E2E2E2E2E2E2E2E2E2E2E2E2E2E2E2E2E2E2E2E2E2E2E2E2E2E2E2E2E2E2E2E2E2E2E2E2E2E2E2E2E2E2E2E2E2E2E2E2E2E2E2E2E2E2E2E2E2E2E2E2E2E2E2E2E2E2E2E2E2E2E2E2E2E2E2E2E2E2E2E2E2E2E2E2E2E2E2E2E2E2E2E2E2E2E2E2E2E2E2E2E2E2E2E2E2E2E2E2E2E2E2E2E2E2E2E2E2E2E2E2E2E2E2E2
310
E2E2E2E2E2E2E2E2E2E2E2E2E2E2E2E2E2E2E2E2E2E2E2E2E2E2E2E2E2E2E2E2E2E2E2E2E2E2E2E2E2E2E2E2E2E2E2E2E2E2E2E2E2E2E2E2E2E2E2E2E2E2E2E2E2E2E2E2E2E2E2E2E2E2E2E2E2E2E2E2E2E2E2E2E2E2E2E2E2E2E2E2E2E2E2E2E2E2E2E2E2E2E2E2E2E2E2E2E2E2E2E2E2E2E2E2E2E2E2E2E2E2E2E2E2E2E2
310
E2E2E2E2E2E2E2E2E2E2E2E2E2E2E2E2E2E2E2E2E2E2E2E2E2E2E2E2E2E2E2E2E2E2E2E2E2E2E2E2E2E2E2E2E2E2E2E2E2E2E2E2E2E2E2E2E2E2E2E2E2E2E2E2E2E2E2E2E2E2E2E2E2E2E2E2E2E2E2E2E2E2E2E2E2E2E2E2E2E2E2E2E2E2E2E2E2E2E2E2E2E2E2E2E2E2E2E2E2E2E2E2E2E2E2E2E2E2E2E2E2E2E2E2E2E2E2
310
E228282828282828282828282828282828282828282828282828282828282828282828282828282828282828282828282828282828282828282828282828282828282828282828E2E2E2E2E2E2E2E2E2E2E2E2E2E2E2E2E2E2E2E2E2E2E2E2E2E2E2E2E2E2E2E2E2E2E2E2E2E2E2E2E2E2E2E2E2E2E2E2E2E2E2E2E2E2E2E2
310
E2E2E2E2E2E2E2E2E2E2E2E2E2E2E2E2E2E2E2E2E2E2E2E2E2E2E2E2E2E2E2E2E2E2E2E2E2E2E2E2E2E2E2E2E2E2E2E2E2E2E2E2E2E2E2E2E2E2E2E2E2E2E2E2E2E2E2E2E2E2E2E2E2E2E2E2E2E2E2E2E2E2E2E2E2E2E2E2E2E2E2E2E2E2E2E2E2E2E2E2E2E2E2E2E2E2E2E2E2E2E2E2E2E2E2E2E2E2E2E2E2E2E2E2E2E2E2
310
E2E2E2E2E2E2E2E2E2E2E2E2E2E2E2E2E2E2E2E2E2E2E2E2E2E2E2E2E2E2E2E2E2E2E2E2E2E2E2E2E2E2E2E2E2E2E2E2E2E2E2E2E2E2E2E2E2E2E2E2E2E2E2E2E2E2E2E2E2E2E2E228E2E2E2E2E2E2E2E2E2E2E2E2E2E2E2E2E2E2E2E2E2E2E2E2E2E2E2E2E2E2E2E2E2E2E2E2E2E2E2E2E2E2E2E2E2E2E2E2E2E2E2E2E2E2
310
E2E2E2E2E2E2E2E2E2E2E2E2E2E2E2E2E2E2E2E2E2E2E2E2E2E2E2E2E2E2E2E2E2E2E2E2E2E2E2E2E2E2E2E2E2E2E2E2E2E2E2E2E2E2E2E2E2E2E2E2E2E2E2E2E2E2E2E2E2E2E2E2E2E2E2E2E2E2E2E2E2E2E2E2E2E2E2E2E2E2E2E2E2E2E2E2E2E2E2E2E2E2E2E2E2E2E2E2E2E2E2E2E2E2E2E2E2E2E2E2E2E2E2E2E2E2E2
310
E2E2E2E2E2E2E2E2E2E2E2E2E2E2E2E2E2E2E2E2E2E2E2E2E2E2E2E2E2E2E2E2E2E2E2E2E2E2E2E2E2E2E2E2E2E2E2E2E2E2E2E2E2E2E2E2E2E2E2E2E2E2E2E2E2E2E2E2E2E2E2E2E2E228E2E2E2E2E2E2E2E2E2E2E2E2E2E2E2E2E2E2E2E2E2E2E2E2E2E2E2E2E2E2E2E2E2E2E2E2E2E2E2E2E2E2E2E2E2E2E2E2E2E2E2E2
310
E2E2E2E2E2E2E2E2E2E2E2E2E2E2E2E2E2E2E2E2E2E2E2E2E2E2E2E2E2E2E2E2E2E2E2E2E2E2E2E2E2E2E2E2E2E2E2E2E2E2E2E2E2E2E2E2E2E2E2E2E2E2E2E2E2E2E2E2E2E2E2E2E2E2E2E2E2E2E2E2E2E2E2E2E2E2E2E2E2E2E2E2E2E2E2E2E2E2E2E2E2E2E2E2E2E2E2E2E2E2E2E2E2E2E2E2E2E2E2E2E2E2E2E2E2E2E2
310
E2E2E2E2E2E2E2E2E2E2E2E2E2E2E2E2E2E2E2E2E2E2E2E2E2E2E2E2E2E2E2E2E2E2E2E2E2E2E2E2E2E2E2E2E2E2E2E2E2E2E2E2E2E2E2E2E2E2E2E2E2E2E2E2E2E2E2E2E2E2E2E2E2E2E2E228E2E2E2E2E2E2E2E2E2E2E2E2E2E2E2E2E2E2E2E2E2E2E2E2E2E2E2E2E2E2E2E2E2E2E2E2E2E2E2E2E2E2E2E2E2E2E2E2E2E2
310
E2E2E2E2E2E2E2E2E2E2E2E2E2E2E2E2E2E2E2E2E2E2E2E2E2E2E2E2E2E2E2E2E2E2E2E2E2E2E2E2E2E2E2E2E2E2E2E2E2E2E2E2E2E2E2E2E2E2E2E2E2E2E2E2E2E2E2E2E2E2E2E2E2E2E2E2E2E2E2E2E2E2E2E2E2E2E2E2E2E2E2E2E2E2E2E2E2E2E2E2E2E2E2E2E2E2E2E2E2E2E2E2E2E2E2E2E2E2E2E2E2E2E2E2E2E2E2
310
E2E2E2E2E2E2E2E2E2E2E2E2E2E2E2E2E2E2E2E2E2E2E2E2E2E2E2E2E2E2E2E2E2E2E2E2E2E2E2E2E2E2E2E2E2E2E2E2E2E2E2E2E2E2E2E2E2E2E2E2E2E2E2E2E2E2E2E2E2E2E2E2E2E2E2E2E2E228E2E2E2E2E2E2E2E2E2E2E2E2E2E2E2E2E2E2E2E2E2E2E2E2E2E2E2E2E2E2E2E2E2E2E2E2E2E2E2E2E2E2E2E2E2E2E2E2
310
E2E2E2E2E2E2E2E2E2E2E2E2E2E2E2E2E2E2E2E2E2E2E2E2E2E2E2E2E2E2E2E2E2E2E2E2E2E2E2E2E2E2E2E2E2E2E2E2E2E2E2E2E2E2E2E2E2E2E2E2E2E2E2E2E2E2E2E2E2E2E2E2E2E2E2E2E2E2E2E2E2E2E2E2E2E2E2E2E2E2E2E2E2E2E2E2E2E2E2E2E2E2E2E2E2E2E2E2E2E2E2E2E2E2E2E2E2E2E2E2E2E2E2E2E2E2E2
310
E2E2E2E2E2E2E2E2E2E2E2E2E2E2E2E2E2E2E2E2E2E2E2E2E2E2E2E2E2E2E2E2E2E2E2E2E2E2E2E2E2E2E2E2E2E2E2E2E2E2E2E2E2E2E2E2E2E2E2E2E2E2E2E2E2E2E2E2E2E2E2E2E2E2E2E2E2E2E2E228E2E2E2E2E2E2E2E2E2E2E2E2E2E2E2E2E2E2E2E2E2E2E2E2E2E2E2E2E2E2E2E2E2E2E2E2E2E2E2E2E2E2E2E2E2E2
310
E2E2E2E2E2E2E2E2E2E2E2E2E2E2E2E2E2E2E2E2E2E2E2E2E2E2E2E2E2E2E2E2E2E2E2E2E2E2E2E2E2E2E2E2E2E2E2E2E2E2E2E2E2E2E2E2E2E2E2E2E2E2E2E2E2E2E2E2E2E2E2E2E2E2E2E2E2E2E2E2E2E2E2E2E2E2E2E2E2E2E2E2E2E2E2E2E2E2E2E2E2E2E2E2E2E2E2E2E2E2E2E2E2E2E2E2E2E2E2E2E2E2E2E2E2E2E2
310
E2E2E2E2E2E2E2E2E2E2E2E2E2E2E2E2E2E2E2E2E2BEBEBEBEBEBEBEBEBEBEBEBEBEBEBEBEBEBEBEBEBEBEBEBEBEBEBEBEBEBEBEBEBEBEBEBEBEBEBEBEBEBEBEBEBEBEBEBEBEBEBEBEBEBEBEBEBEBEE2E2E228E2E2E2E2E2E2E2E2E2E2E2E2E2E2E2E2E2E2E2E2E2E2E2E2E2E2E2E2E2E2E2E2E2E2E2E2E2E2E2E2E2E2E2E2
310
E2E2E2E2E2E2E2E2E2E2E2E2E2E2E2E2E2E2E2E2E2E2E2E2E2E2E2E2E2E2E2E2E2E2E2E2E2E2E2E2E2E2E2E2E2E2E2E2E2E2E2E2E2E2E2E2E2E2E2E2E2E2E2E2E2E2E2E2E2E2E2E2E2E2E2E2E2E2E2E2E2E2E2E2E2E2E2E2E2E2E2E2E2E2E2E2E2E2E2E2E2E2E2E2E2E2E2E2E2E2E2E2E2E2E2E2E2E2E2E2E2E2E2E2E2E2E2
310
E2E2E2E2E2E2E2E2E2E2E2E2E2E2E2E2E2E2E2E2E2E2E2BEE2E2E2E2E2E2E2E2E2E2E2E2E2E2E2E2E2E2E2E2E2E2E2E2E2E2E2E2E2E2E2E2E2E2E2E2E2E2E2E2E2E2E2E2E2BEF5F5F5F5F5F5F5F5F5F5BEE2E2E228E2E2E2E2E2E2E2E2E2E2E2E2E2E2E2E2E2E2E2E2E2E2E2E2E2E2E2E2E2E2E2E2E2E2E2E2E2E2E2E2E2E2
310
E2E2E2E2E2E2E2E2E2E2E2E2E2E2E2E2E2E2E2E2E2E2E2E2E2E2E2E2E2E2E2E2E2E2E2E2E2E2E2E2E2E2E2E2E2E2E2E2E2E2E2E2E2E2E2E2E2E2E2E2E2E2E2E2E2E2E2E2E2E2E2E2E2E2E2E2E2E2E2E2E2E2E2E2E2E2E2E2E2E2E2E2E2E2E2E2E2E2E2E2E2E2E2E2E2E2E2E2E2E2E2E2E2E2E2E2E2E2E2E2E2E2E2E2E2E2E2
310
E2E2E2E2E2E2E2E2E2E2E2E2E2E2E2E2E2E2E2E2E2E2E2E2E2BEE2E2E2E2E2E2E2E2E2E2F5F5F5F5F5F5F5F5F5F5F5F5F5F5F5F5F5F5F5F5F5F5F5F5F5F5F5F5F5E2E2E2E2E2E2BEBEBEBEBEBEBEBEBEBEBEBEE2E2E228E2E2E2E2E2E2E2E2E2E2E2E2E2E2E2E2E2E2E2E2E2E2E2E2E2E2E2E2E2E2E2E2E2E2E2E2E2E2E2E2
310
E2E2E2E2E2E2E2E2E2E2E2E2E2E2E2E2E2E2E2E2E2E2E2E2E2E2E2E2E2E2E2E2E2E2E2E2E2E2E2E2E2E2E2E2E2E2E2E2E2E2E2E2E2E2E2E2E2E2E2E2E2E2E2E2E2E2E2E2E2E2E2E2E2E2E2E2E2E2E2E2E2E2E2E2E2E2E2E2E2E2E2E2E2E2E2E2E2E2E2E2E2E2E2E2E2E2E2E2E2E2E2E2E2E2E2E2E2E2E2E2E2E2E2E2E2E2E2
310
E2E2E2E2E2E2E2E2E2E2E2E2E2E2E2E2E2E2E2E2E2E2E2E2E2E2E2BEE2E2E2E2E2E2E2E2E2E2E2F5F5F5F5F5F5F5F5F5F5F5F5F5E2F5F5F5F5F5F5F5F5F5F5F5F5E2E2E2E2E2E2E2E2E2E2E2E2E2E2E2E2E2E2E2BEE2E2E228E2E2E2E2E2E2E2E2E2E2E2E2E2E2E2E2E2E2E2E2E2E2E2E2E2E2E2E2E2E2E2E2E2E2E2E2E2E2
310
E2E2E2E2E2E2E2E2E2E2E2E2E2E2E2E2E2E2E2E2E2E2E2E2E2E2E2E2E2E2E2E2E2E2E2E2E2E2E2E2E2E2E2E2E2E2E2E2E2E2E2E2E2E2E2E2E2E2E2E2E2E2E2E2E2E2E2E2E2E2E2E2E2E2E2E2E2E2E2E2E2E2E2E2E2E2E2E2E2E2E2E2E2E2E2E2E2E2E2E2E2E2E2E2E2E2E2E2E2E2E2E2E2E2E2E2E2E2E2E2E2E2E2E2E2E2E2
310
E2E2E2E2E2E2E2E2E2E2E2E2E2E2E2E2E2E2E2E2E2E2E2E2E2E2E2E2E2BEE2E2E2E2E2E2E2E2E2E2E2E2E2E2E2E2E2E2E2E2E2E2E2E2E2E2E2E2E2E2E2E2E2E2E2E2E2E2E2E2E2E2E2E2E2E2E2E2E2E2E2E2E2E2E2E2BEE2E2E228E2E2E2E2E2E2E2E2E2E2E2E2E2E2E2E2E2E2E2E2E2E2E2E2E2E2E2E2E2E2E2E2E2E2E2E2
310
E2E2E2E2E2E2E2E2E2E2E2E2E2E2E2E2E2E2E2E2E2E2E2E2E2E2E2E2E2E2E2E2E2E2E2E2E2E2E2E2E2E2E2E2E2E2E2E2E2E2E2E2E2E2E2E2E2E2E2E2E2E2E2E2E2E2E2E2E2E2E2E2E2E2E2E2E2E2E2E2E2E2E2E2E2E2E2E2E2E2E2E2E2E2E2E2E2E2E2E2E2E2E2E2E2E2E2E2E2E2E2E2E2E2E2E2E2E2E2E2E2E2E2E2E2E2E2
310
E2E2E2E2E2E2E2E2E2E2E2E2E2E2E2E2E2E2E2E2E2E2E2E2E2E2E2E2E2E2E2BEE2E2E2E2E2E2E2E2E2E2E2E2E2E2E2E2E2E2E2E2E2E2E2E2E2E2E2E2E2E2E2E2E2E2E2E2E2E2E2E2E2E2E2E2E2E2E2E2E2E2E2E2E2E2E2E2BEE2E2E228E2E2E2E2E2E2E2E2E2E2E2E2E2E2E2E2E2E2E2E2E2E2E2E2E2E2E2E2E2E2E2E2E2E2
310
E2E2E2E2E2E2E2E2E2E2E2E2E2E2E2E2E2E2E2E2E2E2E2E2E2E2E2E2E2E2E2E2E2E2E2E2E2E2E2E2E2E2E2E2E2E2E2E2E2E2E2E2E2E2E2E2E2E2E2E2E2E2E2E2E2E2E2E2E2E2E2E2E2E2E2E2E2E2E2E2E2E2E2E2E2E2E2E2E2E2E2E2E2E2E2E2E2E2E2E2E2E2E2E2E2E2E2E2E2E2E2E2E2E2E2E2E2E2E2E2E2E2E2E2E2E2E2
310
E2E2E2E2E2E2E2E2E2E2E2E2E2E2E2E2E2E2E2E2E2E2E2E2E2E2E2E2E2E2E2E2E2BEE2E2E2E2E2E2E2E2E2E2E2E2E2E2E2E2E2E2E2E2E2E2E2E2E2E2E2E2E2E2E2E2E2E2E2E2E2E2E2E2E2E2E2E2E2E2E2E2E2E2E2E2E2E2E2E2BEE2E2E228E2E2E2E2E2E2E2E2E2E2E2E2E2E2E2E2E2E2E2E2E2E2E2E2E2E2E2E2E2E2E2E2
310
E2E2E2E2E2E2E2E2E2E2E2E2E2E2E2E2E2E2E2E2E2E2E2E2E2E2E2E2E2E2E2E2E2E2E2E2E2E2E2E2E2E2E2E2E2E2E2E2E2E2E2E2E2E2E2E2E2E2E2E2E2E2E2E2E2E2E2E2E2E2E2E2E2E2E2E2E2E2E2E2E2E2E2E2E2E2E2E2E2E2E2E2E2E2E2E2E2E2E2E2E2E2E2E2E2E2E2E2E2E2E2E2E2E2E2E2E2E2E2E2E2E2E2E2E2E2E2
310
E2E2E2E2E2E2E2E2E2E2E2E2E2E2E2E2E2E2E2E2E2E2E2E2E2E2E2E2E2E2E2E2E2E2E2BEE2E2E2E2E2E2E2E2E2E2E2E2E2E2E2E2E2E2E2E2E2E2E2E2E2E2E2E2E2E2E2E2E2E2E2E2E2E2E2E2E2E2E2E2E2E2E2E2E2E2E2E2E2E2E2E2BEE2E2E228E2E2E2E2E2E2E2E2E2E2E2E2E2E2E2E2E2E2E2E2E2E2E2E2E2E2E2E2E2E2
310
E2E2E2E2E2E2E2E2E2E2E2E2E2E2E2E2E2E2E2E2E2E2E2E2E2E2E2E2E2E2E2E2E2E2E2E2E2E2E2E2E2E2E2E2E2E2E2E2E2E2E2E2E2E2E2E2E2E2E2E2E2E2E2E2E2E2E2E2E2E2E2E2E2E2E2E2E2E2E2E2E2E2E2E2E2E2E2E2E2E2E2E2E2E2E2E2E2E2E2E2E2E2E2E2E2E2E2E2E2E2E2E2E2E2E2E2E2E2E2E2E2E2E2E2E2E2E2
310
E2E2E2E2E2E2E2E2E2E2E2E2E2E2E2E2E2E2E2E2E2E2E2E2E2E2E2E2E2E2E2E2E2E2E2E2E2BEE2E2E2E2E2E2E2E2E2E2E2E2E2E2E2E2E2E2E2E2E2E2E2E2E2E2E2E2E2E2E2E2E2E2E2E2E2E2E2E2E2E2E2E2E2E2E2E2E2E2E2E2E2E2E2E2BEE2E2E228E2E2E2E2E2E2E2E2E2E2E2E2E2E2E2E2E2E2E2E2E2E2E2E2E2E2E2E2
310
E2E2E2E2E2E2E2E2E2E2E2E2E2E2E2E2E2E2E2E2E2E2E2E2E2E2E2E2E2E2E2E2E2E2E2E2E2E2E2E2E2E2E2E2E2E2E2E2E2E2E2E2E2E2E2E2E2E2E2E2E2E2E2E2E2E2E2E2E2E2E2E2E2E2E2E2E2E2E2E2E2E2E2E2E2E2E2E2E2E2E2E2E2E2E2E2E2E2E2E2E2E2E2E2E2E2E2E2E2E2E2E2E2E2E2E2E2E2E2E2E2E2E2E2E2E2E2
310
E2E2E2E2E2E2E2E2E2E2E2E2E2E2E2E2E2E2E2E2E2E2E2E2E2E2E2E2E2E2E2E2E2E2E2E2E2E2E2BEE2E2E2E2E2E2E2E2E2E2E2E2E2E2E2E2E2E2E2E2E2E2E2E2E2E2E2E2E2E2E2E2E2E2E2E2E2E2E2E2E2E2E2E2E2E2E2E2E2E2E2E2E2E2E2E2BEE2E2E228E2E2E2E2E2E2E2E2E2E2E2E2E2E2E2E2E2E2E2E2E2E2E2E2E2E2
310
E2E2E2E2E2E2E2E2E2E2E2E2E2E2E2E2E2E2E2E2E2E2E2E2E2E2E2E2E2E2E2E2E2E2E2E2E2E2E2E2E2E2E2E2E2E2E2E2E2E2E2E2E2E2E2E2E2E2E2E2E2E2E2E2E2E2E2E2E2E2E2E2E2E2E2E2E2E2E2E2E2E2E2E2E2E2E2E2E2E2E2E2E2E2E2E2E2E2E2E2E2E2E2E2E2E2E2E2E2E2E2E2E2E2E2E2E2E2E2E2E2E2E2E2E2E2E2
310
E2E2E2E2E2E2E2E2E2E2E2E2E2E2E2E2E2E2E2E2E2E2E2E2E2E2E2E2E2E2E2E2E2E2E2E2E2E2E2E2E2BEE2E2E2E2E2E2E2E2E2E2E2E2E2E2E2E2E2E2E2E2E2E2E2E2E2E2E2E2E2E2E2E2E2E2E2E2E2E2E2E2E2E2E2E2E2E2E2E2E2E2E2E2E2E2E2E2BEE2E2E228E2E2E2E2E2E2E2E2E2E2E2E2E2E2E2E2E2E2E2E2E2E2E2E2
310
E2E2E2E2E2E2E2E2E2E2E2E2E2E2E2E2E2E2E2E2E2E2E2E2E2E2E2E2E2E2E2E2E2E2E2E2E2E2E2E2E2E2E2E2E2E2E2E2E2E2E2E2E2E2E2E2E2E2E2E2E2E2E2E2E2E2E2E2E2E2E2E2E2E2E2E2E2E2E2E2E2E2E2E2E2E2E2E2E2E2E2E2E2E2E2E2E2E2E2E2E2E2E2E2E2E2E2E2E2E2E2E2E2E2E2E2E2E2E2E2E2E2E2E2E2E2E2
310
E2E2E2E2E2E2E2E2E2E2E2E2E2E2E2E2E2E2E2E2E2E2E2E2E2E2E2E2E2E2E2E2E2E2E2E2E2E2E2E2E2E2E2BEE2E2E2E2E2E2E2E2E2E2E2E2E2E2E2E2E2E2E2E2E2E2E2E2E2E2E2E2E2E2E2E2E2E2E2E2E2E2E2E2E2E2E2E2E2E2E2E2E2E2E2E2E2E2E2E2BEE2E2E228E2E2E2E2E2E2E2E2E2E2E2E2E2E2E2E2E2E2E2E2E2E2
310
E2E2E2E2E2E2E2E2E2E2E2E2E2E2E2E2E2E2E2E2E2E2E2E2E2E2E2E2E2E2E2E2E2E2E2E2E2E2E2E2E2E2E2E2E2E2E2E2E2E2E2E2E2E2E2E2E2E2E2E2E2E2E2E2E2E2E2E2E2E2E2E2E2E2E2E2E2E2E2E2E2E2E2E2E2E2E2E2E2E2E2E2E2E2E2E2E2E2E2E2E2E2E2E2E2E2E2E2E2E2E2E2E2E2E2E2E2E2E2E2E2E2E2E2E2E2E2
310
E2E2E2E2E2E2E2E2E2E2E2E2E2E2E2E2E2E2E2E2E2E2E2E2E2E2E2E2E2E2E2E2E2E2E2E2E2E2E2E2E2E2E2E2E2BEE2E2E2E2E2E2E2E2E2E2E2E2E2E2E2E2E2E2E2E2E2E2E2E2E2E2E2E2E2E2E2E2E2E2E2E2E2E2E2E2E2E2E2E2E2E2E2E2E2E2E2E2E2E2E2E2BEE2E2E228E2E2E2E2E2E2E2E2E2E2E2E2E2E2E2E2E2E2E2E2
310
E2E2E2E2E2E2E2E2E2E2E2E2E2E2E2E2E2E2E2E2E2E2E2E2E2E2E2E2E2E2E2E2E2E2E2E2E2E2E2E2E2E2E2E2E2E2E2E2E2E2E2E2E2E2E2E2E2E2E2E2E2E2E2E2E2E2E2E2E2E2E2E2E2E2E2E2E2E2E2E2E2E2E2E2E2E2E2E2E2E2E2E2E2E2E2E2E2E2E2E2E2E2E2E2E2E2E2E2E2E2E2E2E2E2E2E2E2E2E2E2E2E2E2E2E2E2E2
310
E2E2E2E2E2E2E2E2E2E2E2E2E2E2E2E2E2E2E2E2E2E2E2E2E2E2E2E2E2E2E2E2E2E2E2E2E2E2E2E2E2E2E2E2E2E2E2BEE2E2E2E2E2E2E2E2E2E2E2E2E2E2E2E2E2E2E2E2E2E2E2E2E2E2E2E2E2E2E2E2E2E2E2E2E2E2E2E2E2E2E2E2E2E2E2E2E2E2E2E2E2E2E2E2BEE2E2E228E2E2E2E2E2E2E2E2E2E2E2E2E2E2E2E2E2E2
310
E2E2E2E2E2E2E2E2E2E2E2E2E2E2E2E2E2E2E2E2E2E2E2E2E2E2E2E2E2E2E2E2E2E2E2E2E2E2E2E2E2E2E2E2E2E2E2E2E2E2E2E2E2E2E2E2E2E2E2E2E2E2E2E2E2E2E2E2E2E2E2E2E2E2E2E2E2E2E2E2E2E2E2E2E2E2E2E2E2E2E2E2E2E2E2E2E2E2E2E2E2E2E2E2E2E2E2E2E2E2E2E2E2E2E2E2E2E2E2E2E2E2E2E2E2E2E2
310
E2E2E2E2E2E2E2E2E2E2E2E2E2E2E2E2E2E2E2E2E2E2E2E2E2E2E2E2E2E2E2E2E2E2E2E2E2E2E2E2E2E2E2E2E2E2E2E2E2BEE2E2E2E2E2E2E2E2E2E2E2E2E2E2E2E2E2E2E2E2E2E2E2E2E2E2E2E2F5E2E2E2E2E2E2E2E2E2E2E2E2E2E2E2E2E2E2E2E2E2E2E2E2E2E2E2BEE2E2E228E2E2E2E2E2E2E2E2E2E2E2E2E2E2E2E2
310
E2E2E2E2E2E2E2E2E2E2E2E2E2E2E2E2E2E2E2E2E2E2E2E2E2E2E2E2E2E2E2E2E2E2E2E2E2E2E2E2E2E2E2E2E2E2E2E2E2E2E2E2E2E2E2E2E2E2E2E2E2E2E2E2E2E2E2E2E2E2E2E2E2E2E2E2E2E2E2E2E2E2E2E2E2E2E2E2E2E2E2E2E2E2E2E2E2E2E2E2E2E2E2E2E2E2E2E2E2E2E2E2E2E2E2E2E2E2E2E2E2E2E2E2E2E2E2
310
E2E2E2E2E2E2E2E2E2E2E2E2E2E2E2E2E2E2E2E2E2E2E2E2E2E2E2E2E2E2E2E2E2E2E2E2E2E2E2E2E2E2E2E2E2E2E2E2E2E2E2BEE2E2E2E2E2E2E2E2E2E2E2E2E2E2E2E2E2E2E2E2E2E2E2E2E2E2E2E2F5F5E2E2E2E2E2E2E2E2E2E2E2E2E2E2E2E2E2E2E2E2E2E2E2E2E2E2BEE2E2E228E2E2E2E2E2E2E2E2E2E2E2E2E2E2
310
E2E2E2E2E2E2E2E2E2E2E2E2E2E2E2E2E2E2E2E2E2E2E2E2E2E2E2E2E2E2E2E2E2E2E2E2E2E2E2E2E2E2E2E2E2E2E2E2E2E2E2E2E2E2E2E2E2E2E2E2E2E2E2E2E2E2E2E2E2E2E2E2E2E2E2E2E2E2E2E2E2E2E2E2E2E2E2E2E2E2E2E2E2E2E2E2E2E2E2E2E2E2E2E2E2E2E2E2E2E2E2E2E2E2E2E2E2E2E2E2E2E2E2E2E2E2E2
310
E2E2E2E2E2E2E2E2E2E2E2E2E2E2E2E2E2E2E2E2E2E2E2E2E2E2E2E2E2E2E2E2E2E2E2E2E2E2E2E2E2E2E2E2E2E2E2E2E2E2E2E2E2BEE2E2E2E2E2E2E2E2E2E2E2E2E2E2E2E2E2E2E2E2E2E2E2E2E2E2F5F5F5F5F5F5E2E2E2E2F5F5F5F5F5F5F5F5F5F5F5F5F5F5F5F5F5E2E2E2BEE2E2E228E2E2E2E2E2E2E2E2E2E2E2E2
310
E2E2E2E2E2E2E2E2E2E2E2E2E2E2E2E2E2E2E2E2E2E2E2E2E2E2E2E2E2E2E2E2E2E2E2E2E2E2E2E2E2E2E2E2E2E2E2E2E2E2E2E2E2E2E2E2E2E2E2E2E2E2E2E2E2E2E2E2E2E2E2E2E2E2E2E2E2E2E2E2E2E2E2E2E2E2E2E2E2E2E2E2E2E2E2E2E2E2E2E2E2E2E2E2E2E2E2E2E2E2E2E2E2E2E2E2E2E2E2E2E2E2E2E2E2E2E2
310
E2E2E2E2E2E2E2E2E2E2E2E2E2E2E2E2E2E2E2E2E2E2E2E2E2E2E2E2E2E2E2E2E2E2E2E2E2E2E2E2E2E2E2E2E2E2E2E2E2E2E2E2E2E2E2BEE2E2E2E2E2E2E2E2E2E2E2E2E2E2E2E2E2F5F5F5F5F5F5F5F5E2F5F5F5E2F5F5E2E2E2E2F5F5F5F5F5F5F5F5F5F5F5F5F5F5F5F5F5E2E2E2BEE2E2E228E2E2E2E2E2E2E2E2E2E2
310
E2E2E2E2E2E2E2E2E2E2E2E2E2E2E2E2E2E2E2E2E2E2E2E2E2E2E2E2E2E2E2E2E2E2E2E2E2E2E2E2E2E2E2E2E2E2E2E2E2E2E2E2E2E2E2E2E2E2E2E2E2E2E2E2E2E2E2E2E2E2E2E2E2E2E2E2E2E2E2E2E2E2E2E2E2E2E2E2E2E2E2E2E2E2E2E2E2E2E2E2E2E2E2E2E2E2E2E2E2E2E2E2E2E2E2E2E2E2E2E2E2E2E2E2E2E2E2
310
E2E2E2E2E2E2E2E2E2E2E2E2E2E2E2E2E2E2E2E2E2E2E2E2E2E2E2E2E2E2E2E2E2E2E2E2E2E2E2E2E2E2E2E2E2E2E2E2E2E2E2E2E2E2E2E2E2BEE2E2E2E2E2E2E2E2E2E2E2E2E2E2E2E2E2F5F5F5F5F5F5F5F5F5F5F5F5F5F5F5F5E2E2E2F5F5F5F5F5F5F5F5F5F5F5F5F5F5F5F5F5E2E2E2BEE2E2E228E2E2E2E2E2E2E2E2
310
E2E2E2E2E2E2E2E2E2E2E2E2E2E2E2E2E2E2E2E2E2E2E2E2E2E2E2E2E2E2E2E2E2E2E2E2E2E2E2E2E2E2E2E2E2E2E2E2E2E2E2E2E2E2E2E2E2E2E2E2E2E2E2E2E2E2E2E2E2E2E2E2E2E2E2E2E2E2E2E2E2E2E2E2E2E2E2E2E2E2E2E2E2E2E2E2E2E2E2E2E2E2E2E2E2E2E2E2E2E2E2E2E2E2E2E2E2E2E2E2E2E2E2E2E2E2E2
310
E2E2E2E2E2E2E2E2E2E2E2E2E2E2E2E2E2E2E2E2E2E2E2E2E2E2E2E2E2E2E2E2E2E2E2E2E2E2E2E2E2E2E2E2E2E2E2E2E2E2E2E2E2E2E2E2E2E2E2BEE2E2E2E2E2E2E2E2E2E2E2E2E2E2E2E2E2F5F5F5F5F5F5F5F5F5E2E2F5E2E2E2E2E2E2F5E2F5F5F5F5F5F5F5F5F5F5E2E2E2E2E2E2E2E2E2BEE2E2E228E2E2E2E2E2E2
310
E2E2E2E2E2E2E2E2E2E2E2E2E2E2E2E2E2E2E2E2E2E2E2E2E2E2E2E2E2E2E2E2E2E2E2E2E2E2E2E2E2E2E2E2E2E2E2E2E2E2E2E2E2E2E2E2E2E2E2E2E2E2E2E2E2E2E2E2E2E2E2E2E2E2E2E2E2E2E2E2E2E2E2E2E2E2E2E2E2E2E2E2E2E2E2E2E2E2E2E2E2E2E2E2E2E2E2E2E2E2E2E2E2E2E2E2E2E2E2E2E2E2E2E2E2E2E2
310
E2E2E2E2E2E2E2E2E2E2E2E2E2E2E2E2E2E2E2E2E2E2E2E2E2E2E2E2E2E2E2E2E2E2E2E2E2E2E2E2E2E2E2E2E2E2E2E2E2E2E2E2E2E2E2E2E2E2E2E2E2BEE2E2E2E2E2E2E2E2E2E2E2E2E2E2E2E2E2F5F5F5F5F5F5E2E2E2F5F5F5E2E2F5E2F5F5E2E2F5F5E2E2F5F5F5F5F5F5E2E2E2E2E2E2E2E2E2BEE2E2E228E2E2E2E2
310
E2E2E2E2E2E2E2E2E2E2E2E2E2E2E2E2E2E2E2E2E2E2E2E2E2E2E2E2E2E2E2E2E2E2E2E2E2E2E2E2E2E2E2E2E2E2E2E2E2E2E2E2E2E2E2E2E2E2E2E2E2E2E2E2E2E2E2E2E2E2E2E2E2E2E2E2E2E2E2E2E2E2E2E2E2E2E2E2E2E2E2E2E2E2E2E2E2E2E2E2E2E2E2E2E2E2E2E2E2E2E2E2E2E2E2E2E2E2E2E2E2E2E2E2E2E2E2
310
E2E2E2E2E2E2E2E2E2E2E2E2E2E2E2E2E2E2E2E2E2E2E2E2E2E2E2E2E2E2E2E2E2E2E2E2E2E2E2E2E2E2E2E2E2E2E2E2E2E2E2E2E2E2E2E2E2E2E2E2E2E2E2BEE2E2E2E2E2E2E2E2E2E2E2E2E2E2E2E2E2E2E2E2E2E2E2E2E2F5F5F5F5F5F5F5F5F5F5F5F5F5F5F5F5F5F5F5F5F5F5F5F5F5F5F5F5F5F5E2BEE2E2E228E2E2
310
E2E2E2E2E2E2E2E2E2E2E2E2E2E2E2E2E2E2E2E2E2E2E2E2E2E2E2E2E2E2E2E2E2E2E2E2E2E2E2E2E2E2E2E2E2E2E2E2E2E2E2E2E2E2E2E2E2E2E2E2E2E2E2E2E2E2E2E2E2E2E2E2E2E2E2E2E2E2E2E2E2E2E2E2E2E2E2E2E2E2E2E2E2E2E2E2E2E2E2E2E2E2E2E2E2E2E2E2E2E2E2E2E2E2E2E2E2E2E2E2E2E2E2E2E2E2E2
310
E2E2E2E2E2E2E2E2E2E2E2E2E2E2E2E2E2E2E2E2E2E2E2E2E2E2E2E2E2E2E2E2E2E2E2E2E2E2E2E2E2E2E2E2E2E2E2E2E2E2E2E2E2E2E2E2E2E2E2E2E2E2E2E2E2BEE2E2E2E2E2E2E2E2E2E2E2E2E2E2E2E2E2E2E2E2E2E2E2E2E2F5F5F5F5F5F5F5F5E2E2E2E2E2E2E2E2F5F5F5E2E2E2F5E2F5E2E2E2F5F5E2BEE2E2E228
310
E2E2E2E2E2E2E2E2E2E2E2E2E2E2E2E2E2E2E2E2E2E2E2E2E2E2E2E2E2E2E2E2E2E2E2E2E2E2E2E2E2E2E2E2E2E2E2E2E2E2E2E2E2E2E2E2E2E2E2E2E2E2E2E2E2E2E2E2E2E2E2E2E2E2E2E2E2E2E2E2E2E2E2E2E2E2E2E2E2E2E2E2E2E2E2E2E2E2E2E2E2E2E2E2E2E2E2E2E2E2E2E2E2E2E2E2E2E2E2E2E2E2E2E2E2E2E2
310
E2E2E2E2E2E2E2E2E2E2E2E2E2E2E2E2E2E2E2E2E2E2E2E2E2E2E2E2E2E2E2E2E2E2E2E2E2E2E2E2E2E2E2E2E2E2E2E2E2E2E2E2E2E2E2E2E2E2E2E2E2E2E2E2E2E2E2BEE2E2E2E2E2E2E2E2E2E2E2E2E2E2E2E2E2E2E2E2E2E2E2E2E2F5E2F5F5F5F5E2F5E2E2E2E2E2E2E2E2F5F5F5E2E2E2F5E2F5E2E2E2F5E2E2BEE2E2
310
E228E2E2E2E2E2E2E2E2E2E2E2E2E2E2E2E2E2E2E2E2E2E2E2E2E2E2E2E2E2E2E2E2E2E2E2E2E2E2E2E2E2E2E2E2E2E2E2E2E2E2E2E2E2E2E2E2E2E2E2E2E2E2E2E2E2E2E2E2E2E2E2E2E2E2E2E2E2E2E2E2E2E2E2E2E2E2E2E2E2E2E2E2E2E2E2E2E2E2E2E2E2E2E2E2E2E2E2E2E2E2E2E2E2E2E2E2E2E2E2E2E2E2E2E2E2
310
E2E2E2E2E2E2E2E2E2E2E2E2E2E2E2E2E2E2E2E2E2E2E2E2E2E2E2E2E2E2E2E2E2E2E2E2E2E2E2E2E2E2E2E2E2E2E2E2E2E2E2E2E2E2E2E2E2E2E2E2E2E2E2E2E2E2E2E2E2BEE2E2E2E2E2E2E2E2E2E2E2E2E2E2E2E2E2E2E2E2E2E2E2E2F5E2E2F5F5F5F5E2F5E2E2E2E2E2E2E2E2F5F5F5E2F5F5F5E2F5E2E2E2F5E2E2BE
310
E2E2E228E2E2E2E2E2E2E2E2E2E2E2E2E2E2E2E2E2E2E2E2E2E2E2E2E2E2E2E2E2E2E2E2E2E2E2E2E2E2E2E2E2E2E2E2E2E2E2E2E2E2E2E2E2E2E2E2E2E2E2E2E2E2E2E2E2E2E2E2E2E2E2E2E2E2E2E2E2E2E2E2E2E2E2E2E2E2E2E2E2E2E2E2E2E2E2E2E2E2E2E2E2E2E2E2E2E2E2E2E2E2E2E2E2E2E2E2E2E2E2E2E2E2E2
310
E2E2E2E2E2E2E2E2E2E2E2E2E2E2E2E2E2E2E2E2E2E2E2E2E2E2E2E2E2E2E2E2E2E2E2E2E2E2E2E2E2E2E2E2E2E2E2E2E2E2E2E2E2E2E2E2E2E2E2E2E2E2E2E2E2E2E2E2E2E2E2BEE2E2E2E2E2E2E2E2E2E2E2E2E2E2E2E2E2E2E2E2E2E2E2E2F5E2F5F5F5F5F5E2F5E2E2E2E2E2E2E2E2E2E2F5E2F5F5F5E2F5E2E2E2F5E2
310
E2BEE2E2E228E2E2E2E2E2E2E2E2E2E2E2E2E2E2E2E2E2E2E2E2E2E2E2E2E2E2E2E2E2E2E2E2E2E2E2E2E2E2E2E2E2E2E2E2E2E2E2E2E2E2E2E2E2E2E2E2E2E2E2E2E2E2E2E2E2E2E2E2E2E2E2E2E2E2E2E2E2E2E2E2E2E2E2E2E2E2E2E2E2E2E2E2E2E2E2E2E2E2E2E2E2E2E2E2E2E2E2E2E2E2E2E2E2E2E2E2E2E2E2E2E2
310
E2E2E2E2E2E2E2E2E2E2E2E2E2E2E2E2E2E2E2E2E2E2E2E2E2E2E2E2E2E2E2E2E2E2E2E2E2E2E2E2E2E2E2E2E2E2E2E2E2E2E2E2E2E2E2E2E2E2E2E2E2E2E2E2E2E2E2E2E2E2E2E2E2BEE2E2E2E2E2E2E2E2E2E2E2E2E2E2E2E2E2E2E2E2E2E2E2E2F5E2F5F5F5F5F5F5F5F5F5F5F5F5F5F5F5F5F5F5E2F5F5F5E2F5E2E2E2
310
F5E2E2BEE2E2E228E2E2E2E2E2E2E2E2E2E2E2E2E2E2E2E2E2E2E2E2E2E2E2E2E2E2E2E2E2E2E2E2E2E2E2E2E2E2E2E2E2E2E2E2E2E2E2E2E2E2E2E2E2E2E2E2E2E2E2E2E2E2E2E2E2E2E2E2E2E2E2E2E2E2E2E2E2E2E2E2E2E2E2E2E2E2E2E2E2E2E2E2E2E2E2E2E2E2E2E2E2E2E2E2E2E2E2E2E2E2E2E2E2E2E2E2E2E2E2
310
E2E2E2E2E2E2E2E2E2E2E2E2E2E2E2E2E2E2E2E2E2E2E2E2E2E2E2E2E2E2E2E2E2E2E2E2E2E2E2E2E2E2E2E2E2E2E2E2E2E2E2E2E2E2E2E2E2E2E2E2E2E2E2E2E2E2E2E2E2E2E2E2E2E2E2BEE2E2E2E2E2E2E2E2E2E2E2E2E2E2E2E2E2E2E2E2E2E2E2E2F5E2E2F5F5F5F5E2E2F5E2E2E2E2E2E2E2E2E2E2E2F5F5F5E2F5E2
310
E2E2F5E2E2BEE2E2E228E2E2E2E2E2E2E2E2E2E2E2E2E2E2E2E2E2E2E2E2E2E2E2E2E2E2E2E2E2E2E2E2E2E2E2E2E2E2E2E2E2E2E2E2E2E2E2E2E2E2E2E2E2E2E2E2E2E2E2E2E2E2E2E2E2E2E2E2E2E2E2E2E2E2E2E2E2E2E2E2E2E2E2E2E2E2E2E2E2E2E2E2E2E2E2E2E2E2E2E2E2E2E2E2E2E2E2E2E2E2E2E2E2E2E2E2E2
310
E2E2E2E2E2E2E2E2E2E2E2E2E2E2E2E2E2E2E2E2E2E2E2E2E2E2E2E2E2E2E2E2E2E2E2E2E2E2E2E2E2E2E2E2E2E2E2E2E2E2E2E2E2E2E2E2E2E2E2E2E2E2E2E2E2E2E2E2E2E2E2E2E2E2E2E2E2BEE2E2E2E2E2E2E2E2E2E2E2E2E2E2E2E2E2E2E2E2E2E2E2F5E2E2E2F5F5F5F5E2E2F5E2E2E2E2E2E2E2E2E2E2E2E2E2F5E2
310
F5E2E2E2F5E2E2BEE2E2E228E2E2E2E2E2E2E2E2E2E2E2E2E2E2E2E2E2E2E2E2E2E2E2E2E2E2E2E2E2E2E2E2E2E2E2E2E2E2E2E2E2E2E2E2E2E2E2E2E2E2E2E2E2E2E2E2E2E2E2E2E2E2E2E2E2E2E2E2E2E2E2E2E2E2E2E2E2E2E2E2E2E2E2E2E2E2E2E2E2E2E2E2E2E2E2E2E2E2E2E2E2E2E2E2E2E2E2E2E2E2E2E2E2E2E2
310
E2E2E2E2E2E2E2E2E2E2E2E2E2E2E2E2E2E2E2E2E2E2E2E2E2E2E2E2E2E2E2E2E2E2E2E2E2E2E2E2E2E2E2E2E2E2E2E2E2E2E2E2E2E2E2E2E2E2E2E2E2E2E2E2E2E2E2E2E2E2E2E2E2E2E2E2E2E2E2BEE2E2E2E2E2E2E2E2E2E2E2E2E2E2E2E2E2E2E2E2E2E2E2F5E2E2E2F5F5F5F5E2E2F5E2E2E2E2E2E2E2E2E2E2E2E2E2
310
F5E2F5E2E2E2F5E2E2BEE2E2E228E2E2E2E2E2E2E2E2E2E2E2E2E2E2E2E2E2E2E2E2E2E2E2E2E2E2E2E2E2E2E2E2E2E2E2E2E2E2E2E2E2E2E2E2E2E2E2E2E2E2E2E2E2E2E2E2E2E2E2E2E2E2E2E2E2E2E2E2E2E2E2E2E2E2E2E2E2E2E2E2E2E2E2E2E2E2E2E2E2E2E2E2E2E2E2E2E2E2E2E2E2E2E2E2E2E2E2E2E2E2E2E2E2
310
E2E2E2E2E2E2E2E2E2E2E2E2E2E2E2E2E2E2E2E2E2E2E2E2E2E2E2E2E2E2E2E2E2E2E2E2E2E2E2E2E2E2E2E2E2E2E2E2E2E2E2E2E2E2E2E2E2E2E2E2E2E2E2E2E2E2E2E2E2E2E2E2E2E2E2E2E2E2E2E2E2BEE2E2E2E2E2E2E2E2E2E2E2E2E2E2E2E2E2E2E2E2E2F5F5F5F5F5F5F5F5F5F5F5F5F5E2E2E2E2E2E2E2E2E2E2E2
310
E2E2F5E2F5E2E2E2F5E2E2BEE2E2E228E2E2E2E2E2E2E2E2E2E2E2E2E2E2E2E2E2E2E2E2E2E2E2E2E2E2E2E2E2E2E2E2E2E2E2E2E2E2E2E2E2E2E2E2E2E2E2E2E2E2E2E2E2E2E2E2E2E2E2E2E2E2E2E2E2E2E2E2E2E2E2E2E2E2E2E2E2E2E2E2E2E2E2E2E2E2E2E2E2E2E2E2E2E2E2E2E2E2E2E2E2E2E2E2E2E2E2E2E2E2E2
310
E2E2E2E2E2E2E2E2E2E2E2E2E2E2E2E2E2E2E2E2E2E2E2E2E2E2E2E2E2E2E2E2E2E2E2E2E2E2E2E2E2E2E2E2E2E2E2E2E2E2E2E2E2E2E2E2E2E2E2E2E2E2E2E2E2E2E2E2E2E2E2E2E2E2E2E2E2E2E2E2E2E2E2BEE2E2E2E2E2E2F5F5F5F5F5F5F5F5F5F5F5F5F5F5F5F5F5F5F5F5F5F5F5F5F5F5F5F5F5F5F5F5F5F5F5F5F5
310
F5F5F5F5F5E2F5E2E2E2F5E2E2BEE2E2E228E2E2E2E2E2E2E2E2E2E2E2E2E2E2E2E2E2E2E2E2E2E2E2E2E2E2E2E2E2E2E2E2E2E2E2E2E2E2E2E2E2E2E2E2E2E2E2E2E2E2E2E2E2E2E2E2E2E2E2E2E2E2E2E2E2E2E2E2E2E2E2E2E2E2E2E2E2E2E2E2E2E2E2E2E2E2E2E2E2E2E2E2E2E2E2E2E2E2E2E2E2E2E2E2E2E2E2E2E2
310
E2E2E2E2E2E2E2E2E2E2E2E2E2E2E2E2E2E2E2E2E2E2E2E2E2E2E2E2E2E2E2E2E2E2E2E2E2E2E2E2E2E2E2E2E2E2E2E2E2E2E2E2E2E2E2E2E2E2E2E2E2E2E2E2E2E2E2E2E2E2E2E2E2E2E2E2E2E2E2E2E2E2E2E2E2BEE2E2E2E2E2E2F5F5F5F5F5F5F5F5F5F5F5F5E2E2E2E2F5E2E2E2E2E2F5E2E2E2E2E2E2F5E2E2E2E2E2
310
E2E2E2E2E2E2E2E2F5E2E2E2F5E2E2BEE2E2E228E2E2E2E2E2E2E2E2E2E2E2E2E2E2E2E2E2E2E2E2E2E2E2E2E2E2E2E2E2E2E2E2E2E2E2E2E2E2E2E2E2E2E2E2E2E2E2E2E2E2E2E2E2E2E2E2E2E2E2E2E2E2E2E2E2E2E2E2E2E2E2E2E2E2E2E2E2E2E2E2E2E2E2E2E2E2E2E2E2E2E2E2E2E2E2E2E2E2E2E2E2E2E2E2E2E2E2
310
E2E2E2E2E2E2E2E2E2E2E2E2E2E2E2E2E2E2E2E2E2E2E2E2E2E2E2E2E2E2E2E2E2E2E2E2E2E2E2E2E2E2E2E2E2E2E2E2E2E2E2E2E2E2E2E2E2E2E2E2E2E2E2E2E2E2E2E2E2E2E2E2E2E2E2E2E2E2E2E2E2E2E2E2E2E2E2BEE2E2E2E2E2E2F5F5F5F5F5F5F5F5F5F5E2E2E2E2E2F5E2E2E2E2E2E2F5E2E2E2E2E2E2E2F5E2E2
310
E2E2E2E2E2E2E2E2E2E2F5E2E2E2F5E2E2BEE2E2E228E2E2E2E2E2E2E2E2E2E2E2E2E2E2E2E2E2E2E2E2E2E2E2E2E2E2E2E2E2E2E2E2E2E2E2E2E2E2E2E2E2E2E2E2E2E2E2E2E2E2E2E2E2E2E2E2E2E2E2E2E2E2E2E2E2E2E2E2E2E2E2E2E2E2E2E2E2E2E2E2E2E2E2E2E2E2E2E2E2E2E2E2E2E2E2E2E2E2E2E2E2E2E2E2E2
310
E2E2E2E2E2E2E2E2E2E2E2E2E2E2E2E2E2E2E2E2E2E2E2E2E2E2E2E2E2E2E2E2E2E2E2E2E2E2E2E2E2E2E2E2E2E2E2E2E2E2E2E2E2E2E2E2E2E2E2E2E2E2E2E2E2E2E2E2E2E2E2E2E2E2E2E2E2E2E2E2E2E2E2E2E2E2E2E2E2BEE2E2E2E2E2E2F5F5F5F5F5F5F5F5F5F5E2E2E2E2F5E2E2E2E2E2E2E2F5E2E2E2E2E2E2E2E2
310
F5E2E2E2E2E2E2E2E2E2E2E2F5E2E2E2F5E2E2BEE2E2E228E2E2E2E2E2E2E2E2E2E2E2E2E2E2E2E2E2E2E2E2E2E2E2E2E2E2E2E2E2E2E2E2E2E2E2E2E2E2E2E2E2E2E2E2E2E2E2E2E2E2E2E2E2E2E2E2E2E2E2E2E2E2E2E2E2E2E2E2E2E2E2E2E2E2E2E2E2E2E2E2E2E2E2E2E2E2E2E2E2E2E2E2E2E2E2E2E2E2E2E2E2E2E2
310
E2E2E2E2E2E2E2E2E2E2E2E2E2E2E2E2E2E2E2E2E2E2E2E2E2E2E2E2E2E2E2E2E2E2E2E2E2E2E2E2E2E2E2E2E2E2E2E2E2E2E2E2E2E2E2E2E2E2E2E2E2E2E2E2E2E2E2E2E2E2E2E2E2E2E2E2E2E2E2E2E2E2E2E2E2E2E2E2E2E2E2BEE2E2E2E2E2E2F5F5F5F5F5F5F5F5F5F5E2E2E2E2F5E2E2E2E2E2E2E2F5E2E2E2E2E2E2
310
E2E2F5E2E2E2E2E2E2E2E2E2E2E2F5E2E2E2F5E2E2BEE2E2E228E2E2E2E2E2E2E2E2E2E2E2E2E2E2E2E2E2E2E2E2E2E2E2E2E2E2E2E2E2E2E2E2E2E2E2E2E2E2E2E2E2E2E2E2E2E2E2E2E2E2E2E2E2E2E2E2E2E2E2E2E2E2E2E2E2E2E2E2E2E2E2E2E2E2E2E2E2E2E2E2E2E2E2E2E2E2E2E2E2E2E2E2E2E2E2E2E2E2E2E2E2
310
E2E2E2E2E2E2E2E2E2E2E2E2E2E2E2E2E2E2E2E2E2E2E2E2E2E2E2E2E2E2E2E2E2E2E2E2E2E2E2E2E2E2E2E2E2E2E2E2E2E2E2E2E2E2E2E2E2E2E2E2E2E2E2E2E2E2E2E2E2E2E2E2E2E2E2E2E2E2E2E2E2E2E2E2E2E2E2E2E2E2E2E2E2BEE2E2E2E2E2E2F5F5F5F5F5F5E2E2E2E2E2E2E2E2F5E2E2E2E2E2E2E2F5E2E2E2E2
310
E2E2E2E2F5E2E2E2E2E2E2E2E2E2E2E2F5E2E2E2F5E2E2BEE2E2E228E2E2E2E2E2E2E2E2E2E2E2E2E2E2E2E2E2E2E2E2E2E2E2E2E2E2E2E2E2E2E2E2E2E2E2E2E2E2E2E2E2E2E2E2E2E2E2E2E2E2E2E2E2E2E2E2E2E2E2E2E2E2E2E2E2E2E2E2E2E2E2E2E2E2E2E2E2E2E2E2E2E2E2E2E2E2E2E2E2E2E2E2E2E2E2E2E2E2E2
310
E2E2E2E2E2E2E2E2E2E2E2E2E2E2E2E2E2E2E2E2E2E2E2E2E2E2E2E2E2E2E2E2E2E2E2E2E2E2E2E2E2E2E2E2E2E2E2E2E2E2E2E2E2E2E2E2E2E2E2E2E2E2E2E2E2E2E2E2E2E2E2E2E2E2E2E2E2E2E2E2E2E2E2E2E2E2E2E2E2E2E2E2E2E2E2BEE2E2E2E2E2E2F5F5F5F5F5F5F5F5F5F5E2E2E2E2F5E2E2E2E2E2E2E2F5E2E2
310
E2E2E2E2E2E2F5E2E2E2E2E2E2E2E2E2E2E2F5E2E2E2F5E2E2BEE2E2E228E2E2E2E2E2E2E2E2E2E2E2E2E2E2E2E2E2E2E2E2E2E2E2E2E2E2E2E2E2E2E2E2E2E2E2E2E2E2E2E2E2E2E2E2E2E2E2E2E2E2E2E2E2E2E2E2E2E2E2E2E2E2E2E2E2E2E2E2E2E2E2E2E2E2E2E2E2E2E2E2E2E2E2E2E2E2E2E2E2E2E2E2E2E2E2E2E2
310
E2E2E2E2E2E2E2E2E2E2E2E2E2E2E2E2E2E2E2E2E2E2E2E2E2E2E2E2E2E2E2E2E2E2E2E2E2E2E2E2E2E2E2E2E2E2E2E2E2E2E2E2E2E2E2E2E2E2E2E2E2E2E2E2E2E2E2E2E2E2E2E2E2E2E2E2E2E2E2E2E2E2E2E2E2E2E2E2E2E2E2E2E2E2E2E2E2BEE2E2E2E2E2E2F5F5F5F5F5E2E2E2E2F5E2E2E2E2F5E2E2E2E2E2E2E2F5
310
E2E2E2E2E2E2E2E2F5E2E2E2E2E2E2E2E2E2E2E2F5E2E2E2F5E2E2BEE2E2E228E2E2E2E2E2E2E2E2E2E2E2E2E2E2E2E2E2E2E2E2E2E2E2E2E2E2E2E2E2E2E2E2E2E2E2E2E2E2E2E2E2E2E2E2E2E2E2E2E2E2E2E2E2E2E2E2E2E2E2E2E2E2E2E2E2E2E2E2E2E2E2E2E2E2E2E2E2E2E2E2E2E2E2E2E2E2E2E2E2E2E2E2E2E2E2
310
E2E2E2E2E2E2E2E2E2E2E2E2E2E2E2E2E2E2E2E2E2E2E2E2E2E2E2E2E2E2E2E2E2E2E2E2E2E2E2E2E2E2E2E2E2E2E2E2E2E2E2E2E2E2E2E2E2E2E2E2E2E2E2E2E2E2E2E2E2E2E2E2E2E2E2E2E2E2E2E2E2E2E2E2E2E2E2E2E2E2E2E2E2E2E2E2E2E2E2BEE2E2E2E2E2E2E2E2E2E2E2E2E2E2E2E2F5E2E2E2F5E2E2E2E2E2E2
310
E2F5E2E2E2E2E2E2E2E2F5E2E2E2E2E2E2E2E2E2E2E2F5E2E2E2F5E2E2BEE2E2E228E2E2E2E2E2E2E2E2E2E2E2E2E2E2E2E2E2E2E2E2E2E2E2E2E2E2E2E2E2E2E2E2E2E2E2E2E2E2E2E2E2E2E2E2E2E2E2E2E2E2E2E2E2E2E2E2E2E2E2E2E2E2E2E2E2E2E2E2E2E2E2E2E2E2E2E2E2E2E2E2E2E2E2E2E2E2E2E2E2E2E2E2E2
310
E2E2E2E2E2E2E2E2E2E2E2E2E2E2E2E2E2E2E2E2E2E2E2E2E2E2E2E2E2E2E2E2E2E2E2E2E2E2E2E2E2E2E2E2E2E2E2E2E2E2E2E2E2E2E2E2E2E2E2E2E2E2E2E2E2E2E2E2E2E2E2E2E2E2E2E2E2E2E2E2E2E2E2E2E2E2E2E2E2E2E2E2E2E2E2E2E2E2E2E2E2BEE2E2E2E2E2E2E2E2E2E2E2E2E2E2E2E2F5E2E2E2F5E2E2E2E2
310
E2E2E2F5E2E2E2E2E2E2E2E2F5E2E2E2E2E2E2E2E2E2E2E2F5E2E2E2F5E2E2BEE2E2E228E2E2E2E2E2E2E2E2E2E2E2E2E2E2E2E2E2E2E2E2E2E2E2E2E2E2E2E2E2E2E2E2E2E2E2E2E2E2E2E2E2E2E2E2E2E2E2E2E2E2E2E2E2E2E2E2E2E2E2E2E2E2E2E2E2E2E2E2E2E2E2E2E2E2E2E2E2E2E2E2E2E2E2E2E2E2E2E2E2E2E2
310
E2E2E2E2E2E2E2E2E2E2E2E2E2E2E2E2E2E2E2E2E2E2E2E2E2E2E2E2E2E2E2E2E2E2E2E2E2E2E2E2E2E2E2E2E2E2E2E2E2E2E2E2E2E2E2E2E2E2E2E2E2E2E2E2E2E2E2E2E2E2E2E2E2E2E2E2E2E2E2E2E2E2E2E2E2E2E2E2E2E2E2E2E2E2E2E2E2E2E2E2E2E2E2BEE2E2E2E2E2E2E2E2E2E2E2E2E2E2E2E2F5F5F5E2F5E2E2
310
E2E2E2E2E2F5E2E2E2E2E2E2E2E2F5E2E2E2E2E2E2E2E2E2E2E2F5E2E2E2F5E2E2BEE2E2E228E2E2E2E2E2E2E2E2E2E2E2E2E2E2E2E2E2E2E2E2E2E2E2E2E2E2E2E2E2E2E2E2E2E2E2E2E2E2E2E2E2E2E2E2E2E2E2E2E2E2E2E2E2E2E2E2E2E2E2E2E2E2E2E2E2E2E2E2E2E2E2E2E2E2E2E2E2E2E2E2E2E2E2E2E2E2E2E2E2
310
E2E2E2E2E2E2E2E2E2E2E2E2E2E2E2E2E2E2E2E2E2E2E2E2E2E2E2E2E2E2E2E2E2E2E2E2E2E2E2E2E2E2E2E2E2E2E2E2E2E2E2E2E2E2E2E2E2E2E2E2E2E2E2E2E2E2E2E2E2E2E2E2E2E2E2E2E2E2E2E2E2E2E2E2E2E2E2E2E2E2E2E2E2E2E2E2E2E2E2E2E2E2E2E2E2BEE2E2E2E2E2E2E2E2E2E2E2E2E2E2E2E2E2F5F5F5F5
310
F5F5F5F5F5F5F5F5F5F5F5F5F5F5F5F5F5F5F5E2E2E2E2E2E2E2E2E2F5E2E2E2F5E2E2BEE2E2E228E2E2E2E2E2E2E2E2E2E2E2E2E2E2E2E2E2E2E2E2E2E2E2E2E2E2E2E2E2E2E2E2E2E2E2E2E2E2E2E2E2E2E2E2E2E2E2E2E2E2E2E2E2E2E2E2E2E2E2E2E2E2E2E2E2E2E2E2E2E2E2E2E2E2E2E2E2E2E2E2E2E2E2E2E2E2E2
310
E2E2E2E2E2E2E2E2E2E2E2E2E2E2E2E2E2E2E2E2E2E2E2E2E2E2E2E2E2E2E2E2E2E2E2E2E2E2E2E2E2E2E2E2E2E2E2E2E2E2E2E2E2E2E2E2E2E2E2E2E2E2E2E2E2E2E2E2E2E2E2E2E2E2E2E2E2E2E2E2E2E2E2E2E2E2E2E2E2E2E2E2E2E2E2E2E2E2E2E2E2E2E2E2E2E2E2BEE2E2E2E2E2E2E2E2E2E2E2E2E2E2E2E2E2F5F5
310
E2E2E2E2E2E2E2E2E2F5E2E2E2E2E2E2E2E2E2E2F5E2E2E2E2E2E2E2E2F5F5E2E2E2F5E2E2BEE2E2E228E2E2E2E2E2E2E2E2E2E2E2E2E2E2E2E2E2E2E2E2E2E2E2E2E2E2E2E2E2E2E2E2E2E2E2E2E2E2E2E2E2E2E2E2E2E2E2E2E2E2E2E2E2E2E2E2E2E2E2E2E2E2E2E2E2E2E2E2E2E2E2E2E2E2E2E2E2E2E2E2E2E2E2E2E2
310
E2E2E2E2E2E2E2E2E2E2E2E2E2E2E2E2E2E2E2E2E2E2E2E2E2E2E2E2E2E2E2E2E2E2E2E2E2E2E2E2E2E2E2E2E2E2E2E2E2E2E2E2E2E2E2E2E2E2E2E2E2E2E2E2E2E2E2E2E2E2E2E2E2E2E2E2E2E2E2E2E2E2E2E2E2E2E2E2E2E2E2E2E2E2E2E2E2E2E2E2E2E2E2E2E2E2E2E2E2BEE2E2E2E2E2E2E2E2E2E2E2E2E2E2E2E2E2
310
F5E2E2E2E2E2E2E2E2E2E2F5E2E2E2E2E2E2E2E2E2E2F5E2E2E2E2E2E2E2F5F5F5E2E2F5F5E2E2BEE2E2E228E2E2E2E2E2E2E2E2E2E2E2E2E2E2E2E2E2E2E2E2E2E2E2E2E2E2E2E2E2E2E2E2E2E2E2E2E2E2E2E2E2E2E2E2E2E2E2E2E2E2E2E2E2E2E2E2E2E2E2E2E2E2E2E2E2E2E2E2E2E2E2E2E2E2E2E2E2E2E2E2E2E2E2
310
E2E2E2E2E2E2E2E2E2E2E2E2E2E2E2E2E2E2E2E2E2E2E2E2E2E2E2E2E2E2E2E2E2E2E2E2E2E2E2E2E2E2E2E2E2E2E2E2E2E2E2E2E2E2E2E2E2E2E2E2E2E2E2E2E2E2E2E2E2E2E2E2E2E2E2E2E2E2E2E2E2E2E2E2E2E2E2E2E2E2E2E2E2E2E2E2E2E2E2E2E2E2E2E2E2E2E2E2E2E2E2BEE2E2E2E2E2E2E2E2E2E2E2E2E2E2E2
310
E2E2F5E2E2E2E2E2E2E2E2E2E2F5E2E2E2E2E2E2E2E2E2E2F5E2E2E2E2E2E2E2F5F5F5E2E2F5F5E2E2BEE2E2E228E2E2E2E2E2E2E2E2E2E2E2E2E2E2E2E2E2E2E2E2E2E2E2E2E2E2E2E2E2E2E2E2E2E2E2E2E2E2E2E2E2E2E2E2E2E2E2E2E2E2E2E2E2E2E2E2E2E2E2E2E2E2E2E2E2E2E2E2E2E2E2E2E2E2E2E2E2E2E2E2E2
310
E2E2E2E2E2E2E2E2E2E2E2E2E2E2E2E2E2E2E2E2E2E2E2E2E2E2E2E2E2E2E2E2E2E2E2E2E2E2E2E2E2E2E2E2E2E2E2E2E2E2E2E2E2E2E2E2E2E2E2E2E2E2E2E2E2E2E2E2E2E2E2E2E2E2E2E2E2E2E2E2E2E2E2E2E2E2E2E2E2E2E2E2E2E2E2E2E2E2E2E2E2E2E2E2E2E2E2E2E2E2E2E2E2BEE2E2E2E2E2E2E2E2E2E2E2E2E2
310
E2E2E2E2F5E2E2E2E2E2E2E2E2E2E2F5E2E2E2E2E2E2E2E2E2E2F5E2E2E2E2E2E2E2F5F5F5E2E2F5F5E2E2BEE2E2E228E2E2E2E2E2E2E2E2E2E2E2E2E2E2E2E2E2E2E2E2E2E2E2E2E2E2E2E2E2E2E2E2E2E2E2E2E2E2E2E2E2E2E2E2E2E2E2E2E2E2E2E2E2E2E2E2E2E2E2E2E2E2E2E2E2E2E2E2E2E2E2E2E2E2E2E2E2E2E2
310
E2E2E2E2E2E2E2E2E2E2E2E2E2E2E2E2E2E2E2E2E2E2E2E2E2E2E2E2E2E2E2E2E2E2E2E2E2E2E2E2E2E2E2E2E2E2E2E2E2E2E2E2E2E2E2E2E2E2E2E2E2E2E2E2E2E2E2E2E2E2E2E2E2E2E2E2E2E2E2E2E2E2E2E2E2E2E2E2E2E2E2E2E2E2E2E2E2E2E2E2E2E2E2E2E2E2E2E2E2E2E2E2E2E2E2BEE2E2E2E2E2E2E2E2E2E2E2
310
E2E2E2E2E2E2F5E2E2E2E2E2E2E2E2E2E2F5E2E2E2E2E2E2E2E2E2E2F5E2E2E2E2E2E2E2F5F5F5E2E2F5F5E2E2BEE2E2E228E2E2E2E2E2E2E2E2E2E2E2E2E2E2E2E2E2E2E2E2E2E2E2E2E2E2E2E2E2E2E2E2E2E2E2E2E2E2E2E2E2E2E2E2E2E2E2E2E2E2E2E2E2E2E2E2E2E2E2E2E2E2E2E2E2E2E2E2E2E2E2E2E2E2E2E2E2
310
E2E2E2E2E2E2E2E2E2E2E2E2E2E2E2E2E2E2E2E2E2E2E2E2E2E2E2E2E2E2E2E2E2E2E2E2E2E2E2E2E2E2E2E2E2E2E2E2E2E2E2E2E2E2E2E2E2E2E2E2E2E2E2E2E2E2E2E2E2E2E2E2E2E2E2E2E2E2E2E2E2E2E2E2E2E2E2E2E2E2E2E2E2E2E2E2E2E2E2E2E2E2E2E2E2E2E2E2E2E2E2E2E2E2E2E2E2BEE2E2E2E2E2E2E2E2E2
310
E2E2E2E2E2E2E2E2F5F5F5F5F5F5F5F5F5F5F5F5F5F5F5F5F5F5F5F5F5F5F5E2E2E2E2E2E2E2E2E2F5E2E2F5F5E2E2BEE2E2E228E2E2E2E2E2E2E2E2E2E2E2E2E2E2E2E2E2E2E2E2E2E2E2E2E2E2E2E2E2E2E2E2E2E2E2E2E2E2E2E2E2E2E2E2E2E2E2E2E2E2E2E2E2E2E2E2E2E2E2E2E2E2E2E2E2E2E2E2E2E2E2E2E2E2E2
310
E2E2E2E2E2E2E2E2E2E2E2E2E2E2E2E2E2E2E2E2E2E2E2E2E2E2E2E2E2E2E2E2E2E2E2E2E2E2E2E2E2E2E2E2E2E2E2E2E2E2E2E2E2E2E2E2E2E2E2E2E2E2E2E2E2E2E2E2E2E2E2E2E2E2E2E2E2E2E2E2E2E2E2E2E2E2E2E2E2E2E2E2E2E2E2E2E2E2E2E2E2E2E2E2E2E2E2E2E2E2E2E2E2E2E2E2E2E2E2BEE2E2E2E2E2E2E2
310
E2E2E2E2E2E2E2E2E2E2F5E2E2E2E2E2E2E2E2E2E2F5E2F5F5F5F5F5E2E2E2E2F5E2E2E2E2E2E2E2E2E2F5E2E2F5F5E2E2BEE2E2E228E2E2E2E2E2E2E2E2E2E2E2E2E2E2E2E2E2E2E2E2E2E2E2E2E2E2E2E2E2E2E2E2E2E2E2E2E2E2E2E2E2E2E2E2E2E2E2E2E2E2E2E2E2E2E2E2E2E2E2E2E2E2E2E2E2E2E2E2E2E2E2E2E2
310
E2E2E2E2E2E2E2E2E2E2E2E2E2E2E2E2E2E2E2E2E2E2E2E2E2E2E2E2E2E2E2E2E2E2E2E2E2E2E2E2E2E2E2E2E2E2E2E2E2E2E2E2E2E2E2E2E2E2E2E2E2E2E2E2E2E2E2E2E2E2E2E2E2E2E2E2E2E2E2E2E2E2E2E2E2E2E2E2E2E2E2E2E2E2E2E2E2E2E2E2E2E2E2E2E2E2E2E2E2E2E2E2E2E2E2E2E2E2E2E2E2BEE2E2E2E2E2
310
E2E2E2E2E2E2E2E2E2E2E2E2F5E2E2E2E2E2E2E2E2E2E2F5E2E2E2E2E2E2E2E2E2E2F5E2E2E2E2E2E2E2E2E2F5E2E2E2F5E2E2BEE2E2E228E2E2E2E2E2E2E2E2E2E2E2E2E2E2E2E2E2E2E2E2E2E2E2E2E2E2E2E2E2E2E2E2E2E2E2E2E2E2E2E2E2E2E2E2E2E2E2E2E2E2E2E2E2E2E2E2E2E2E2E2E2E2E2E2E2E2E2E2E2E2E2
310
E2E2E2E2E2E2E2E2E2E2E2E2E2E2E2E2E2E2E2E2E2E2E2E2E2E2E2E2E2E2E2E2E2E2E2E2E2E2E2E2E2E2E2E2E2E2E2E2E2E2E2E2E2E2E2E2E2E2E2E2E2E2E2E2E2E2E2E2E2E2E2E2E2E2E2E2E2E2E2E2E2E2E2E2E2E2E2E2E2E2E2E2E2E2E2E2E2E2E2E2E2E2E2E2E2E2E2E2E2E2E2E2E2E2E2E2E2E2E2E2E2E2E2BEE2E2E2
310
E2E2E2E2E2E2E2E2E2E2E2E2E2E2F5E2E2E2E2E2E2E2E2E2E2F5E2E2E2E2E2E2E2E2E2E2F5E2E2E2E2E2E2E2E2E2F5E2E2E2F5E2E2BEE2E2E228E2E2E2E2E2E2E2E2E2E2E2E2E2E2E2E2E2E2E2E2E2E2E2E2E2E2E2E2E2E2E2E2E2E2E2E2E2E2E2E2E2E2E2E2E2E2E2E2E2E2E2E2E2E2E2E2E2E2E2E2E2E2E2E2E2E2E2E2E2
310
E2E2E2E2E2E2E2E2E2E2E2E2E2E2E2E2E2E2E2E2E2E2E2E2E2E2E2E2E2E2E2E2E2E2E2E2E2E2E2E2E2E2E2E2E2E2E2E2E2E2E2E2E2E2E2E2E2E2E2E2E2E2E2E2E2E2E2E2E2E2E2E2E2E2E2E2E2E2E2E2E2E2E2E2E2E2E2E2E2E2E2E2E2E2E2E2E2E2E2E2E2E2E2E2E2E2E2E2E2E2E2E2E2E2E2E2E2E2E2E2E2E2E2E2E2BEE2
310
E2E2E2E2E2E2E2E2E2E2E2E2E2E2E2E2F5E2E2E2E2E2E2E2E2E2E2F5E2E2E2E2E2E2E2E2E2E2F5E2E2E2E2E2E2E2E2E2F5E2E2E2F5E2E2BEE2E2E228E2E2E2E2E2E2E2E2E2E2E2E2E2E2E2E2E2E2E2E2E2E2E2E2E2E2E2E2E2E2E2E2E2E2E2E2E2E2E2E2E2E2E2E2E2E2E2E2E2E2E2E2E2E2E2E2E2E2E2E2E2E2E2E2E2E2E2
310
E2E2E2E2E2E2E2E2E2E2E2E2E2E2E2E2E2E2E2E2E2E2E2E2E2E2E2E2E2E2E2E2E2E2E2E2E2E2E2E2E2E2E2E2E2E2E2E2E2E2E2E2E2E2E2E2E2E2E2E2E2E2E2E2E2E2E2E2E2E2E2E2E2E2E2E2E2E2E2E2E2E2E2E2E2E2E2E2E2E2E2E2E2E2E2E2E2E2E2E2E2E2E2E2E2E2E2E2E2E2E2E2E2E2E2E2E2E2E2E2E2E2E2E2E2E2E2
310
BEE2E2E2E2E2E2E2E2E2E2E2E2E2E2E2E2E2F5E2E2E2E2E2E2E2E2E2E2E2E2E2E2E2E2E2E2E2E2E2F5E2E2E2E2E2E2E2E2E2F5E2E2E2F5E2E2BEE2E2E228E2E2E2E2E2E2E2E2E2E2E2E2E2E2E2E2E2E2E2E2E2E2E2E2E2E2E2E2E2E2E2E2E2E2E2E2E2E2E2E2E2E2E2E2E2E2E2E2E2E2E2E2E2E2E2E2E2E2E2E2E2E2E2E2E2
310
E2E2E2E2E2E2E2E2E2E2E2E2E2E2E2E2E2E2E2E2E2E2E2E2E2E2E2E2E2E2E2E2E2E2E2E2E2E2E2E2E2E2E2E2E2E2E2E2E2E2E2E2E2E2E2E2E2E2E2E2E2E2E2E2E2E2E2E2E2E2E2E2E2E2E2E2E2E2E2E2E2E2E2E2E2E2E2E2E2E2E2E2E2E2E2E2E2E2E2E2E2E2E2E2E2E2E2E2E2E2E2E2E2E2E2E2E2E2E2E2E2E2E2E2E2E2E2
310
E2E2BEE2E2E2E2E2E2E2E2E2E2E2E2E2E2E2E2F5F5F5F5F5F5F5F5F5F5F5F5F5F5F5F5F5F5F5F5F5F5F5F528F5E2E2E2E2E2E2E2F5E2E2E2F5E2E2BEE2E2E228E2E2E2E2E2E2E2E2E2E2E2E2E2E2E2E2E2E2E2E2E2E2E2E2E2E2E2E2E2E2E2E2E2E2E2E2E2E2E2E2E2E2E2E2E2E2E2E2E2E2E2E2E2E2E2E2E2E2E2E2E2E2E2
310
E2E2E2E2E2E2E2E2E2E2E2E2E2E2E2E2E2E2E2E2E2E2E2E2E2E2E2E2E2E2E2E2E2E2E2E2E2E2E2E2E2E2E2E2E2E2E2E2E2E2E2E2E2E2E2E2E2E2E2E2E2E2E2E2E2E2E2E2E2E2E2E2E2E2E2E2E2E2E2E2E2E2E2E2E2E2E2E2E2E2E2E2E2E2E2E2E2E2E2E2E2E2E2E2E2E2E2E2E2E2E2E2E2E2E2E2E2E2E2E2E2E2E2E2E2E2E2
310
E2E2E2E2BEE2E2E2E2E2E2E2E2E2E2E2E2E2E2E2E2F5F5F5F5F5F5F5F5F5F5F5F5F5F5F5F5F5F5F5F5F5F5F5F5F5F5E2E2E2E2E2E2E2F5E2E2E2F5E2E2BEE2E2E228E2E2E2E2E2E2E2E2E2E2E2E2E2E2E2E2E2E2E2E2E2E2E2E2E2E2E2E2E2E2E2E2E2E2E2E2E2E2E2E2E2E2E2E2E2E2E2E2E2E2E2E2E2E2E2E2E2E2E2E2E2
310
E2E2E2E2E2E2E2E2E2E2E2E2E2E2E2E2E2E2E2E2E2E2E2E2E2E2E2E2E2E2E2E2E2E2E2E2E2E2E2E2E2E2E2E2E2E2E2E2E2E2E2E2E2E2E2E2E2E2E2E2E2E2E2E2E2E2E2E2E2E2E2E2E2E2E2E2E2E2E2E2E2E2E2E2E2E2E2E2E2E2E2E2E2E2E2E2E2E2E2E2E2E2E2E2E2E2E2E2E2E2E2E2E2E2E2E2E2E2E2E2E2E2E2E2E2E2E2
310
E2E2E2E2E2E2BEE2E2E2E2E2E2E2E2E2E2E2E2E2E2E2E2F5F5E2E2E2E2E2E2E2E2E2E2F5E2E2E2E2E2E2E2E2E2E2F5E2F5E2E2E2E2E2E2E2F5E2E2E2F5E2E2BEE2E2E228E2E2E2E2E2E2E2E2E2E2E2E2E2E2E2E2E2E2E2E2E2E2E2E2E2E2E2E2E2E2E2E2E2E2E2E2E2E2E2E2E2E2E2E2E2E2E2E2E2E2E2E2E2E2E2E2E2E2E2
310
E2E2E2E2E2E2E2E2E2E2E2E2E2E2E2E2E2E2E2E2E2E2E2E2E2E2E2E2E2E2E2E2E2E2E2E2E2E2E2E2E2E2E2E2E2E2E2E2E2E2E2E2E2E2E2E2E2E2E2E2E2E2E2E2E2E2E2E2E2E2E2E2E2E2E2E2E2E2E2E2E2E2E2E2E2E2E2E2E2E2E2E2E2E2E2E2E2E2E2E2E2E2E2E2E2E2E2E2E2E2E2E2E2E2E2E2E2E2E2E2E2E2E2E2E2E2E2
310
E2E2E2E2E2E2E2E2BEE2E2E2E2E2E2E2E2E2E2E2E2E2E2E2E2F5F5E2E2E2E2E2E2E2E2E2E2F5E2E2E2E2E2E2E2E2E2E2F5E2F5E2E2E2E2E2E2E2F5E2E2E2F5E2E2BEE2E2E228E2E2E2E2E2E2E2E2E2E2E2E2E2E2E2E2E2E2E2E2E2E2E2E2E2E2E2E2E2E2E2E2E2E2E2E2E2E2E2E2E2E2E2E2E2E2E2E2E2E2E2E2E2E2E2E2E2
310
E2E2E2E2E2E2E2E2E2E2E2E2E2E2E2E2E2E2E2E2E2E2E2E2E2E2E2E2E2E2E2E2E2E2E2E2E2E2E2E2E2E2E2E2E2E2E2E2E2E2E2E2E2E2E2E2E2E2E2E2E2E2E2E2E2E2E2E2E2E2E2E2E2E2E2E2E2E2E2E2E2E2E2E2E2E2E2E2E2E2E2E2E2E2E2E2E2E2E2E2E2E2E2E2E2E2E2E2E2E2E2E2E2E2E2E2E2E2E2E2E2E2E2E2E2E2E2
310
E2E2E2E2E2E2E2E2E2E2BEE2E2E2E2E2E2E2E2E2E2E2E2E2E2E2E2F5F5F5F5F5F5F5F5F5F5F5F5F5F5F5F5F5F5F5F5F5F5F5F5F5F5E2E2E2E2E2E2E2F5E2E2E2F5E2E2BEE2E2E228E2E2E2E2E2E2E2E2E2E2E2E2E2E2E2E2E2E2E2E2E2E2E2E2E2E2E2E2E2E2E2E2E2E2E2E2E2E2E2E2E2E2E2E2E2E2E2E2E2E2E2E2E2E2E2
310
E2E2E2E2E2E2E2E2E2E2E2E2E2E2E2E2E2E2E2E2E2E2E2E2E2E2E2E2E2E2E2E2E2E2E2E2E2E2E2E2E2E2E2E2E2E2E2E2E2E2E2E2E2E2E2E2E2E2E2E2E2E2E2E2E2E2E2E2E2E2E2E2E2E2E2E2E2E2E2E2E2E2E2E2E2E2E2E2E2E2E2E2E2E2E2E2E2E2E2E2E2E2E2E2E2E2E2E2E2E2E2E2E2E2E2E2E2E2E2E2E2E2E2E2E2E2E2
310
E2E2E2E2E2E2E2E2E2E2E2E2BEE2E2E2E2E2E2E2E2E2E2E2E2E2E2E2E2F5F5E2E2E2E2E2E2E2E2E2E2F5E2F5F5F5F5F5E2E2E2E2F5E2F5E2E2E2E2E2E2E2F5E2E2E2F5E2E2BEE2E2E228E2E2E2E2E2E2E2E2E2E2E2E2E2E2E2E2E2E2E2E2E2E2E2E2E2E2E2E2E2E2E2E2E2E2E2E2E2E2E2E2E2E2E2E2E2E2E2E2E2E2E2E2E2
310
E2E2E2E2E2E2E2E2E2E2E2E2E2E2E2E2E2E2E2E2E2E2E2E2E2E2E2E2E2E2E2E2E2E2E2E2E2E2E2E2E2E2E2E2E2E2E2E2E2E2E2E2E2E2E2E2E2E2E2E2E2E2E2E2E2E2E2E2E2E2E2E2E2E2E2E2E2E2E2E2E2E2E2E2E2E2E2E2E2E2E2E2E2E2E2E2E2E2E2E2E2E2E2E2E2E2E2E2E2E2E2E2E2E2E2E2E2E2E2E2E2E2E2E2E2E2E2
310
E2E2E2E2E2E2E2E2E2E2E2E2E2E2BEE2E2E2E2E2E2E2E2E2E2E2E2E2E2E2E2E2F5E2E2E2E2E2E2E2E2E2E2F5E2F5F5F5F5F5E2E2E2E2F5E2E2E2E2E2E2E2E2E2F5E2E2E2F5E2E2BEE2E2E228E2E2E2E2E2E2E2E2E2E2E2E2E2E2E2E2E2E2E2E2E2E2E2E2E2E2E2E2E2E2E2E2E2E2E2E2E2E2E2E2E2E2E2E2E2E2E2E2E2E2E2
310
E2E2E2E2E2E2E2E2E2E2E2E2E2E2E2E2E2E2E2E2E2E2E2E2E2E2E2E2E2E2E2E2E2E2E2E2E2E2E2E2E2E2E2E2E2E2E2E2E2E2E2E2E2E2E2E2E2E2E2E2E2E2E2E2E2E2E2E2E2E2E2E2E2E2E2E2E2E2E2E2E2E2E2E2E2E2E2E2E2E2E2E2E2E2E2E2E2E2E2E2E2E2E2E2E2E2E2E2E2E2E2E2E2E2E2E2E2E2E2E2E2E2E2E2E2E2E2
310
E2E2E2E2E2E2E2E2E2E2E2E2E2E2E2E2BEE2E2E2E2E2E2E2E2E2E2E2E2E2E2E2E2E2F5E2E2E2E2E2E2E2E2E2E2F5E2E2E2E2E2E2E2E2E2E2F5E2E2E2E2E2E2E2E2E2F5E2E2E2F5E2E2BEE2E2E228E2E2E2E2E2E2E2E2E2E2E2E2E2E2E2E2E2E2E2E2E2E2E2E2E2E2E2E2E2E2E2E2E2E2E2E2E2E2E2E2E2E2E2E2E2E2E2E2E2
310
E2E2E2E2E2E2E2E2E2E2E2E2E2E2E2E2E2E2E2E2E2E2E2E2E2E2E2E2E2E2E2E2E2E2E2E2E2E2E2E2E2E2E2E2E2E2E2E2E2E2E2E2E2E2E2E2E2E2E2E2E2E2E2E2E2E2E2E2E2E2E2E2E2E2E2E2E2E2E2E2E2E2E2E2E2E2E2E2E2E2E2E2E2E2E2E2E2E2E2E2E2E2E2E2E2E2E2E2E2E2E2E2E2E2E2E2E2E2E2E2E2E2E2E2E2E2E2
310
E2E2E2E2E2E2E2E2E2E2E2E2E2E2E2E2E2E2BEE2E2E2E2E2E2E2E2E2E2E2E2E2E2E2E2E2F5E2E2E2E2E2E2E2E2E2E2F5E2E2E2E2E2E2E2E2E2E2F5E2E2E2E2E2E2E2E2E2F5E2E2E2F5E2E2BEE2E2E228E2E2E2E2E2E2E2E2E2E2E2E2E2E2E2E2E2E2E2E2E2E2E2E2E2E2E2E2E2E2E2E2E2E2E2E2E2E2E2E2E2E2E2E2E2E2E2
310
E2E2E2E2E2E2E2E2E2E2E2E2E2E2E2E2E2E2E2E2E2E2E2E2E2E2E2E2E2E2E2E2E2E2E2E2E2E2E2E2E2E2E2E2E2E2E2E2E2E2E2E2E2E2E2E2E2E2E2E2E2E2E2E2E2E2E2E2E2E2E2E2E2E2E2E2E2E2E2E2E2E2E2E2E2E2E2E2E2E2E2E2E2E2E2E2E2E2E2E2E2E2E2E2E2E2E2E2E2E2E2E2E2E2E2E2E2E2E2E2E2E2E2E2E2E2E2
310
E2E2E2E2E2E2E2E2E2E2E2E2E2E2E2E2E2E2E2E2BEE2E2E2E2E2E2E2E2E2E2E2E2E2E2E2E2E2E2F5E2E2E2E2E2E2E2E2E2F5E2E2E2E2E2E2E2E2E2E2F5E2E2E2E2E2E2E2E2E2F5E2E2E2F5E2E2BEE2E2E228E2E2E2E2E2E2E2E2E2E2E2E2E2E2E2E2E2E2E2E2E2E2E2E2E2E2E2E2E2E2E2E2E2E2E2E2E2E2E2E2E2E2E2E2E2
310
E2E2E2E2E2E2E2E2E2E2E2E2E2E2E2E2E2E2E2E2E2E2E2E2E2E2E2E2E2E2E2E2E2E2E2E2E2E2E2E2E2E2E2E2E2E2E2E2E2E2E2E2E2E2E2E2E2E2E2E2E2E2E2E2E2E2E2E2E2E2E2E2E2E2E2E2E2E2E2E2E2E2E2E2E2E2E2E2E2E2E2E2E2E2E2E2E2E2E2E2E2E2E2E2E2E2E2E2E2E2E2E2E2E2E2E2E2E2E2E2E2E2E2E2E2E2E2
310
E2E2E2E2E2E2E2E2E2E2E2E2E2E2E2E2E2E2E2E2E2E2BEE2E2E2E2E2E2E2E2E2E2E2E2E2E2E2E2E2E2F5E2E2E2E2E2E2E2E2E2F5E2E2E2E2E2E2E2E2E2E2F5E2E2E2E2E2E2E2E2E2F5E2E2E2F5E2E2BEE2E2E228E2E2E2E2E2E2E2E2E2E2E2E2E2E2E2E2E2E2E2E2E2E2E2E2E2E2E2E2E2E2E2E2E2E2E2E2E2E2E2E2E2E2E2
310
E2E2E2E2E2E2E2E2E2E2E2E2E2E2E2E2E2E2E2E2E2E2E2E2E2E2E2E2E2E2E2E2E2E2E2E2E2E2E2E2E2E2E2E2E2E2E2E2E2E2E2E2E2E2E2E2E2E2E2E2E2E2E2E2E2E2E2E2E2E2E2E2E2E2E2E2E2E2E2E2E2E2E2E2E2E2E2E2E2E2E2E2E2E2E2E2E2E2E2E2E2E2E2E2E2E2E2E2E2E2E2E2E2E2E2E2E2E2E2E2E2E2E2E2E2E2E2
310
E2E2E2E2E2E2E2E2E2E2E2E2E2E2E2E2E2E2E2E2E2E2E2E2BEE2E2E2E2E2E2E2E2E2E2E2E2E2E2E2E2E2E2E2F5F5E2E2E2E2E2E2E2F5E2E2E2E2E2E2E2E2F5F5E2E2E2E2E2E2E2E2E2E2F5E2E2E2F5E2E2BEE2E2E228E2E2E2E2E2E2E2E2E2E2E2E2E2E2E2E2E2E2E2E2E2E2E2E2E2E2E2E2E2E2E2E2E2E2E2E2E2E2E2E2E2
310
E2E2E2E2E2E2E2E2E2E2E2E2E2E2E2E2E2E2E2E2E2E2E2E2E2E2E2E2E2E2E2E2E2E2E2E2E2E2E2E2E2E2E2E2E2E2E2E2E2E2E2E2E2E2E2E2E2E2E2E2E2E2E2E2E2E2E2E2E2E2E2E2E2E2E2E2E2E2E2E2E2E2E2E2E2E2E2E2E2E2E2E2E2E2E2E2E2E2E2E2E2E2E2E2E2E2E2E2E2E2E2E2E2E2E2E2E2E2E2E2E2E2E2E2E2E2E2
310
E2E2E2E2E2E2E2E2E2E2E2E2E2E2E2E2E2E2E2E2E2E2E2E2E2E2BEE2E2E2E2E2E2E2E2E2E2E2E2E2E2E2E2E2E2E2E2E2F5F5F5F5F5E2E2F5E2E2E2F5F5F5F5F5E2E2E2E2E2E2E2E2E2E2E2E2F5E2E2E2F5E2E2BEE2E2E228E2E2E2E2E2E2E2E2E2E2E2E2E2E2E2E2E2E2E2E2E2E2E2E2E2E2E2E2E2E2E2E2E2E2E2E2E2E2E2
310
E2E2E2E2E2E2E2E2E2E2E2E2E2E2E2E2E2E2E2E2E2E2E2E2E2E2E2E2E2E2E2E2E2E2E2E2E2E2E2E2E2E2E2E2E2E2E2E2E2E2E2E2E2E2E2E2E2E2E2E2E2E2E2E2E2E2E2E2E2E2E2E2E2E2E2E2E2E2E2E2E2E2E2E2E2E2E2E2E2E2E2E2E2E2E2E2E2E2E2E2E2E2E2E2E2E2E2E2E2E2E2E2E2E2E2E2E2E2E2E2E2E2E2E2E2E2E2
310
E2E2E2E2E2E2E2E2E2E2E2E2E2E2E2E2E2E2E2E2E2E2E2E2E2E2E2E2BEE2F5F5F5F5F5F5F5F5F5F5F5E2E2E2E2E2E2E2E2E2E2E2E2E2F5F5F5F5F5F5F5F5E2E2E2E2E2E2E2E2E2E2E2E2E2E2E2E2F5E2E2E2F5E2E2BEE2E2E228E2E2E2E2E2E2E2E2E2E2E2E2E2E2E2E2E2E2E2E2E2E2E2E2E2E2E2E2E2E2E2E2E2E2E2E2E2
310
E2E2E2E2E2E2E2E2E2E2E2E2E2E2E2E2E2E2E2E2E2E2E2E2E2E2E2E2E2E2E2E2E2E2E2E2E2E2E2E2E2E2E2E2E2E2E2E2E2E2E2E2E2E2E2E2E2E2E2E2E2E2E2E2E2E2E2E2E2E2E2E2E2E2E2E2E2E2E2E2E2E2E2E2E2E2E2E2E2E2E2E2E2E2E2E2E2E2E2E2E2E2E2E2E2E2E2E2E2E2E2E2E2E2E2E2E2E2E2E2E2E2E2E2E2E2E2
310
E2E2E2E2E2E2E2E2E2E2E2E2E2E2E2E2E2E2E2E2E2E2E2E2E2E2E2E2E2E2BEE2F5F5F5E2F5F5F5F5F5F5F5F5E2E2E2E2E2E2E2E2E2E2E2E2F5F5F5F5F5F5F5F5F5F5F5F5F5F5F5F5F5F5F5F5F5F5F5F5F5E2E2E2F5E2E2BEE2E2E228E2E2E2E2E2E2E2E2E2E2E2E2E2E2E2E2E2E2E2E2E2E2E2E2E2E2E2E2E2E2E2E2E2E2E2
310
E2E2E2E2E2E2E2E2E2E2E2E2E2E2E2E2E2E2E2E2E2E2E2E2E2E2E2E2E2E2E2E2E2E2E2E2E2E2E2E2E2E2E2E2E2E2E2E2E2E2E2E2E2E2E2E2E2E2E2E2E2E2E2E2E2E2E2E2E2E2E2E2E2E2E2E2E2E2E2E2E2E2E2E2E2E2E2E2E2E2E2E2E2E2E2E2E2E2E2E2E2E2E2E2E2E2E2E2E2E2E2E2E2E2E2E2E2E2E2E2E2E2E2E2E2E2E2
310
E2E2E2E2E2E2E2E2E2E2E2E2E2E2E2E2E2E2E2E2E2E2E2E2E2E2E2E2E2E2E2E2BEE2F5F5F5F5F5F5F5F5F5F5F5F5F5F5F5E2E2E2E2E2E2E2E2E2F5F5F5F5F5F5F5F5E2E2E2E2E2E2E2E2E2E2E2E2E2E2E2E2E2E2E2E2F5E2E2BEE2E2E228E2E2E2E2E2E2E2E2E2E2E2E2E2E2E2E2E2E2E2E2E2E2E2E2E2E2E2E2E2E2E2E2E2
310
E2E2E2E2E2E2E2E2E2E2E2E2E2E2E2E2E2E2E2E2E2E2E2E2E2E2E2E2E2E2E2E2E2E2E2E2E2E2E2E2E2E2E2E2E2E2E2E2E2E2E2E2E2E2E2E2E2E2E2E2E2E2E2E2E2E2E2E2E2E2E2E2E2E2E2E2E2E2E2E2E2E2E2E2E2E2E2E2E2E2E2E2E2E2E2E2E2E2E2E2E2E2E2E2E2E2E2E2E2E2E2E2E2E2E2E2E2E2E2E2E2E2E2E2E2E2E2
310
E2E2E2E2E2E2E2E2E2E2E2E2E2E2E2E2E2E2E2E2E2E2E2E2E2E2E2E2E2E2E2E2E2E2BEE2F5F5F5F5F5F5F5F5F5F5F5F5F5F5F5E2E2E2E2E2E2E2E2E2F5F5F5F5F5F5F5F5E2E2E2E2E2E2E2E2E2E2E2E2E2E2E2E2E2E2E2E2F5E2E2BEE2E2E228E2E2E2E2E2E2E2E2E2E2E2E2E2E2E2E2E2E2E2E2E2E2E2E2E2E2E2E2E2E2E2
310
E2E2E2E2E2E2E2E2E2E2E2E2E2E2E2E2E2E2E2E2E2E2E2E2E2E2E2E2E2E2E2E2E2E2E2E2E2E2E2E2E2E2E2E2E2E2E2E2E2E2E2E2E2E2E2E2E2E2E2E2E2E2E2E2E2E2E2E2E2E2E2E2E2E2E2E2E2E2E2E2E2E2E2E2E2E2E2E2E2E2E2E2E2E2E2E2E2E2E2E2E2E2E2E2E2E2E2E2E2E2E2E2E2E2E2E2E2E2E2E2E2E2E2E2E2E2E2
310
E2E2E2E2E2E2E2E2E2E2E2E2E2E2E2E2E2E2E2E2E2E2E2E2E2E2E2E2E2E2E2E2E2E2E2E2BEE2F5F5F5F5F5F5F5F5F5E2E2E2E2E2E2E2E2E2E2E2E2E2E2F5F5F5F5F5F5F5F5F5F5E2E2E2E2E2E2E2E2E2E2E2E2E2E2E2E2E2E2E2F5F5E2BEE2E2E228E2E2E2E2E2E2E2E2E2E2E2E2E2E2E2E2E2E2E2E2E2E2E2E2E2E2E2E2E2
310
E2E2E2E2E2E2E2E2E2E2E2E2E2E2E2E2E2E2E2E2E2E2E2E2E2E2E2E2E2E2E2E2E2E2E2E2E2E2E2E2E2E2E2E2E2E2E2E2E2E2E2E2E2E2E2E2E2E2E2E2E2E2E2E2E2E2E2E2E2E2E2E2E2E2E2E2E2E2E2E2E2E2E2E2E2E2E2E2E2E2E2E2E2E2E2E2E2E2E2E2E2E2E2E2E2E2E2E2E2E2E2E2E2E2E2E2E2E2E2E2E2E2E2E2E2E2E2
310
E2E2E2E2E2E2E2E2E2E2E2E2E2E2E2E2E2E2E2E2E2E2E2E2E2E2E2E2E2E2E2E2E2E2E2E2E2E2BEE2F5F5F5F5F5F5F5F5F5E2E2E2E2E2E2E2E2E2E2E2E2E2E2F5F5F5F5F5F5F5F5F5F5F5F5F5F5F5F5F5F5F5F5F5F5F5F5F5F5F5F5F5F5F5E2BEE2E2E228E2E2E2E2E2E2E2E2E2E2E2E2E2E2E2E2E2E2E2E2E2E2E2E2E2E2E2
310
E2E2E2E2E2E2E2E2E2E2E2E2E2E2E2E2E2E2E2E2E2E2E2E2E2E2E2E2E2E2E2E2E2E2E2E2E2E2E2E2E2E2E2E2E2E2E2E2E2E2E2E2E2E2E2E2E2E2E2E2E2E2E2E2E2E2E2E2E2E2E2E2E2E2E2E2E2E2E2E2E2E2E2E2E2E2E2E2E2E2E2E2E2E2E2E2E2E2E2E2E2E2E2E2E2E2E2E2E2E2E2E2E2E2E2E2E2E2E2E2E2E2E2E2E2E2E2
310
E2E2E2E2E2E2E2E2E2E2E2E2E2E2E2E2E2E2E2E2E2E2E2E2E2E2E2E2E2E2E2E2E2E2E2E2E2E2E2E2BEE2F5F5F5F5F5F5F5F5F5F5F5E2E2E2E2E2E2E2E2E2E2E2E2E2E2E2E2F5E2E2E2E2E2E2F5F5E2E2E2E2E2E2E2E2E2E2E2E2E2E2E2E2E2E2E2BEE2E2E228E2E2E2E2E2E2E2E2E2E2E2E2E2E2E2E2E2E2E2E2E2E2E2E2E2
310
E2E2E2E2E2E2E2E2E2E2E2E2E2E2E2E2E2E2E2E2E2E2E2E2E2E2E2E2E2E2E2E2E2E2E2E2E2E2E2E2E2E2E2E2E2E2E2E2E2E2E2E2E2E2E2E2E2E2E2E2E2E2E2E2E2E2E2E2E2E2E2E2E2E2E2E2E2E2E2E2E2E2E2E2E2E2E2E2E2E2E2E2E2E2E2E2E2E2E2E2E2E2E2E2E2E2E2E2E2E2E2E2E2E2E2E2E2E2E2E2E2E2E2E2E2E2E2
310
E2E2E2E2E2E2E2E2E2E2E2E2E2E2E2E2E2E2E2E2E2E2E2E2E2E2E2E2E2E2E2E2E2E2E2E2E2E2E2E2E2E2BEE2F5F5F5F5F5F5F5F5F5F5F5E2E2E2E2E2E2E2E2E2E2E2E2E2E2E2E2E2E2E2E2E2E2E2E2E2F5F5F5F5F5F5F5F5F5F5F5F5F5F5E2E2E2E2E2BEE2E2E228E2E2E2E2E2E2E2E2E2E2E2E2E2E2E2E2E2E2E2E2E2E2E2
310
E2E2E2E2E2E2E2E2E2E2E2E2E2E2E2E2E2E2E2E2E2E2E2E2E2E2E2E2E2E2E2E2E2E2E2E2E2E2E2E2E2E2E2E2E2E2E2E2E2E2E2E2E2E2E2E2E2E2E2E2E2E2E2E2E2E2E2E2E2E2E2E2E2E2E2E2E2E2E2E2E2E2E2E2E2E2E2E2E2E2E2E2E2E2E2E2E2E2E2E2E2E2E2E2E2E2E2E2E2E2E2E2E2E2E2E2E2E2E2E2E2E2E2E2E2E2E2
310
E2E2E2E2E2E2E2E2E2E2E2E2E2E2E2E2E2E2E2E2E2E2E2E2E2E2E2E2E2E2E2E2E2E2E2E2E2E2E2E2E2E2E2E2BEE2F5F5F5F5F5F5F5F5E2E2E2E2E2E2E2E2E2E2E2E2E2E2E2E2E2E2E2E2E2E2E2E2E2E2E2E2F5F5F5F5F5F5F5F5F5F5F5F5F5F5E2E2E2E2E2BEE2E2E228E2E2E2E2E2E2E2E2E2E2E2E2E2E2E2E2E2E2E2E2E2
310
E2E2E2E2E2E2E2E2E2E2E2E2E2E2E2E2E2E2E2E2E2E2E2E2E2E2E2E2E2E2E2E2E2E2E2E2E2E2E2E2E2E2E2E2E2E2E2E2E2E2E2E2E2E2E2E2E2E2E2E2E2E2E2E2E2E2E2E2E2E2E2E2E2E2E2E2E2E2E2E2E2E2E2E2E2E2E2E2E2E2E2E2E2E2E2E2E2E2E2E2E2E2E2E2E2E2E2E2E2E2E2E2E2E2E2E2E2E2E2E2E2E2E2E2E2E2E2
310
E2E2E2E2E2E2E2E2E2E2E2E2E2E2E2E2E2E2E2E2E2E2E2E2E2E2E2E2E2E2E2E2E2E2E2E2E2E2E2E2E2E2E2E2E2E2BEE2F5F5F5F5F5F5F5E2E2E2E2E2E2E2E2E2E2E2E2E2E2E2E2E2E2E2E2E2E2E2E2E2E2E2E2E2F5F5F5F5F5F5F5F5F5F5F5F5E2E2E2E2E2E2E2BEE2E2E228E2E2E2E2E2E2E2E2E2E2E2E2E2E2E2E2E2E2E2
310
E2E2E2E2E2E2E2E2E2E2E2E2E2E2E2E2E2E2E2E2E2E2E2E2E2E2E2E2E2E2E2E2E2E2E2E2E2E2E2E2E2E2E2E2E2E2E2E2E2E2E2E2E2E2E2E2E2E2E2E2E2E2E2E2E2E2E2E2E2E2E2E2E2E2E2E2E2E2E2E2E2E2E2E2E2E2E2E2E2E2E2E2E2E2E2E2E2E2E2E2E2E2E2E2E2E2E2E2E2E2E2E2E2E2E2E2E2E2E2E2E2E2E2E2E2E2E2
310
E2E2E2E2E2E2E2E2E2E2E2E2E2E2E2E2E2E2E2E2E2E2E2E2E2E2E2E2E2E2E2E2E2E2E2E2E2E2E2E2E2E2E2E2E2E2E2E2BEF5F5F5F5F5F5F5F5F5F5F5E2E2E2E2E2E2E2E2E2E2E2E2E2E2E2E2E2E2E2E2E2E2E2E2E2E2F5F5E2F5F5F5F5F5F5F5F5F5E2E2E2E2E2E2E2BEE2E2E228E2E2E2E2E2E2E2E2E2E2E2E2E2E2E2E2E2
310
E2E2E2E2E2E2E2E2E2E2E2E2E2E2E2E2E2E2E2E2E2E2E2E2E2E2E2E2E2E2E2E2E2E2E2E2E2E2E2E2E2E2E2E2E2E2E2E2E2E2E2E2E2E2E2E2E2E2E2E2E2E2E2E2E2E2E2E2E2E2E2E2E2E2E2E2E2E2E2E2E2E2E2E2E2E2E2E2E2E2E2E2E2E2E2E2E2E2E2E2E2E2E2E2E2E2E2E2E2E2E2E2E2E2E2E2E2E2E2E2E2E2E2E2E2E2E2
310
E2E2E2E2E2E2E2E2E2E2E2E2E2E2E2E2E2E2E2E2E2E2E2E2E2E2E2E2E2E2E2E2E2E2E2E2E2E2E2E2E2E2E2E2E2E2E2E2E2E2BEE2F5F5F5F5F5F5F5F5F5F5E2E2E2E2E2E2E2E2E2E2E2E2E2E2E2E2E2E2E2E2E2E2E2E2E2E2E2E2E2E2E2E2E2E2E2E2E2E2E2E2E2E2E2E2E2BEE2E2E228E2E2E2E2E2E2E2E2E2E2E2E2E2E2E2
310
E2E2E2E2E2E2E2E2E2E2E2E2E2E2E2E2E2E2E2E2E2E2E2E2E2E2E2E2E2E2E2E2E2E2E2E2E2E2E2E2E2E2E2E2E2E2E2E2E2E2E2E2E2E2E2E2E2E2E2E2E2E2E2E2E2E2E2E2E2E2E2E2E2E2E2E2E2E2E2E2E2E2E2E2E2E2E2E2E2E2E2E2E2E2E2E2E2E2E2E2E2E2E2E2E2E2E2E2E2E2E2E2E2E2E2E2E2E2E2E2E2E2E2E2E2E2E2
310
E2E2E2E2E2E2E2E2E2E2E2E2E2E2E2E2E2E2E2E2E2E2E2E2E2E2E2E2E2E2E2E2E2E2E2E2E2E2E2E2E2E2E2E2E2E2E2E2E2E2E2E2BEE2F5F5F5F5F5F5F5F5F5F5E2E2E2E2E2E2E2E2E2E2E2E2E2E2E2E2E2E2E2E2E2E2E2E2E2E2E2E2E2E2E2E2E2E2E2E2E2E2E2E2E2E2E2E2E2BEE2E2E228E2E2E2E2E2E2E2E2E2E2E2E2E2
310
E2E2E2E2E2E2E2E2E2E2E2E2E2E2E2E2E2E2E2E2E2E2E2E2E2E2E2E2E2E2E2E2E2E2E2E2E2E2E2E2E2E2E2E2E2E2E2E2E2E2E2E2E2E2E2E2E2E2E2E2E2E2E2E2E2E2E2E2E2E2E2E2E2E2E2E2E2E2E2E2E2E2E2E2E2E2E2E2E2E2E2E2E2E2E2E2E2E2E2E2E2E2E2E2E2E2E2E2E2E2E2E2E2E2E2E2E2E2E2E2E2E2E2E2E2E2E2
310
E2E2E2E2E2E2E2E2E2E2E2E2E2E2E2E2E2E2E2E2E2E2E2E2E2E2E2E2E2E2E2E2E2E2E2E2E2E2E2E2E2E2E2E2E2E2E2E2E2E2E2E2E2E2BEE2F5F5F5F5F5F5F5F5F5E2E2E2E2E2E2E2E2E2E2E2E2E2E2E2E2E2E2E2E2E2E2E2E2E2E2E2E2E2E2E2E2E2E2E2E2E2E2E2E2E2E2E2E2E2E2BEE2E2E228E2E2E2E2E2E2E2E2E2E2E2
310
E2E2E2E2E2E2E2E2E2E2E2E2E2E2E2E2E2E2E2E2E2E2E2E2E2E2E2E2E2E2E2E2E2E2E2E2E2E2E2E2E2E2E2E2E2E2E2E2E2E2E2E2E2E2E2E2E2E2E2E2E2E2E2E2E2E2E2E2E2E2E2E2E2E2E2E2E2E2E2E2E2E2E2E2E2E2E2E2E2E2E2E2E2E2E2E2E2E2E2E2E2E2E2E2E2E2E2E2E2E2E2E2E2E2E2E2E2E2E2E2E2E2E2E2E2E2E2
310
E2E2E2E2E2E2E2E2E2E2E2E2E2E2E2E2E2E2E2E2E2E2E2E2E2E2E2E2E2E2E2E2E2E2E2E2E2E2E2E2E2E2E2E2E2E2E2E2E2E2E2E2E2E2E2E2BEE2F5F5F5F5F5F5F5F5F5F5F5F5F5E2E2E2E2E2E2E2E2E2E2E2E2E2E2E2E2E2E2E2E2E2E2E2E2E2E2E2E2E2E2E2E2E2E2E2E2E2E2E2E2E2E2BEE2E2E228E2E2E2E2E2E2E2E2E2
310
E2E2E2E2E2E2E2E2E2E2E2E2E2E2E2E2E2E2E2E2E2E2E2E2E2E2E2E2E2E2E2E2E2E2E2E2E2E2E2E2E2E2E2E2E2E2E2E2E2E2E2E2E2E2E2E2E2E2E2E2E2E2E2E2E2E2E2E2E2E2E2E2E2E2E2E2E2E2E2E2E2E2E2E2E2E2E2E2E2E2E2E2E2E2E2E2E2E2E2E2E2E2E2E2E2E2E2E2E2E2E2E2E2E2E2E2E2E2E2E2E2E2E2E2E2E2E2
310
E2E2E2E2E2E2E2E2E2E2E2E2E2E2E2E2E2E2E2E2E2E2E2E2E2E2E2E2E2E2E2E2E2E2E2E2E2E2E2E2E2E2E2E2E2E2E2E2E2E2E2E2E2E2E2E2E2E2BEE2F5F5F5F5F5F5F5F5F5F5F5F5E2E2E2E2E2E2E2E2E2E2E2E2E2E2E2E2E2E2E2E2E2E2E2E2E2E2E2E2E2E2E2E2E2E2E2E2E2E2E2E2E2E2E2BEE2E2E228E2E2E2E2E2E2E2
310
E2E2E2E2E2E2E2E2E2E2E2E2E2E2E2E2E2E2E2E2E2E2E2E2E2E2E2E2E2E2E2E2E2E2E2E2E2E2E2E2E2E2E2E2E2E2E2E2E2E2E2E2E2E2E2E2E2E2E2E2E2E2E2E2E2E2E2E2E2E2E2E2E2E2E2E2E2E2E2E2E2E2E2E2E2E2E2E2E2E2E2E2E2E2E2E2E2E2E2E2E2E2E2E2E2E2E2E2E2E2E2E2E2E2E2E2E2E2E2E2E2E2E2E2E2E2E2
310
E2E2E2E2E2E2E2E2E2E2E2E2E2E2E2E2E2E2E2E2E2E2E2E2E2E2E2E2E2E2E2E2E2E2E2E2E2E2E2E2E2E2E2E2E2E2E2E2E2E2E2E2E2E2E2E2E2E2E2E2BEE2F5F5F5F5F5F5F5F5F5F5F5F5E2E2E2E2E2E2E2E2E2E2E2E2E2E2E2E2E2E2E2E2E2E2E2E2E2E2E2E2E2E2E2E2E2E2E2E2E2E2E2E2E2E2E2BEE2E2E228E2E2E2E2E2
310
E2E2E2E2E2E2E2E2E2E2E2E2E2E2E2E2E2E2E2E2E2E2E2E2E2E2E2E2E2E2E2E2E2E2E2E2E2E2E2E2E2E2E2E2E2E2E2E2E2E2E2E2E2E2E2E2E2E2E2E2E2E2E2E2E2E2E2E2E2E2E2E2E2E2E2E2E2E2E2E2E2E2E2E2E2E2E2E2E2E2E2E2E2E2E2E2E2E2E2E2E2E2E2E2E2E2E2E2E2E2E2E2E2E2E2E2E2E2E2E2E2E2E2E2E2E2E2
310
E2E2E2E2E2E2E2E2E2E2E2E2E2E2E2E2E2E2E2E2E2E2E2E2E2E2E2E2E2E2E2E2E2E2E2E2E2E2E2E2E2E2E2E2E2E2E2E2E2E2E2E2E2E2E2E2E2E2E2E2E2E2BEBEBEBEBEBEBEBEBEBEBEBEBEBEE2E2E2E2E2E2E2E2E2E2E2E2E2E2E2E2E2E2E2E2E2E2E2E2E2E2E2E2E2E2E2E2E2E2E2E2E2E2E2E2E2E2E2BEE2E2E228E2E2E2
310
E2E2E2E2E2E2E2E2E2E2E2E2E2E2E2E2E2E2E2E2E2E2E2E2E2E2E2E2E2E2E2E2E2E2E2E2E2E2E2E2E2E2E2E2E2E2E2E2E2E2E2E2E2E2E2E2E2E2E2E2E2E2E2E2E2E2E2E2E2E2E2E2E2E2E2E2E2E2E2E2E2E2E2E2E2E2E2E2E2E2E2E2E2E2E2E2E2E2E2E2E2E2E2E2E2E2E2E2E2E2E2E2E2E2E2E2E2E2E2E2E2E2E2E2E2E2E2
310
E2E2E2E2E2E2E2E2E2E2E2E2E2E2E2E2E2E2E2E2E2E2E2E2E2E2E2E2E2E2E2E2E2E2E2E2E2E2E2E2E2E2E2E2E2E2E2E2E2E2E2E2E2E2E2E2E2E2E2E2E2E2E2E2BEE2F5F5F5F5F5F5F5F5F5F5E2BEE2E2E2E2E2E2E2E2E2E2E2E2E2E2E2E2E2E2E2E2E2E2E2E2E2E2E2E2E2E2E2E2E2E2E2E2E2E2E2E2E2E2E2BEE2E2E228E2
310
E2E2E2E2E2E2E2E2E2E2E2E2E2E2E2E2E2E2E2E2E2E2E2E2E2E2E2E2E2E2E2E2E2E2E2E2E2E2E2E2E2E2E2E2E2E2E2E2E2E2E2E2E2E2E2E2E2E2E2E2E2E2E2E2E2E2E2E2E2E2E2E2E2E2E2E2E2E2E2E2E2E2E2E2E2E2E2E2E2E2E2E2E2E2E2E2E2E2E2E2E2E2E2E2E2E2E2E2E2E2E2E2E2E2E2E2E2E2E2E2E2E2E2E2E2E2E2
310
E2E2E2E2E2E2E2E2E2E2E2E2E2E2E2E2E2E2E2E2E2E2E2E2E2E2E2E2E2E2E2E2E2E2E2E2E2E2E2E2E2E2E2E2E2E2E2E2E2E2E2E2E2E2E2E2E2E2E2E2E2E2E2E2E2E2BEF5F5F5F5F5F5F5F5F5F5F5F5BEE2E2E2E2E2E2E2E2E2E2E2E2E2E2E2E2E2E2E2E2E2E2E2E2E2E2E2E2E2E2E2E2E2E2E2E2E2E2E2E2E2E2E2BEE2E2E2
310
28E2E2E2E2E2E2E2E2E2E2E2E2E2E2E2E2E2E2E2E2E2E2E2E2E2E2E2E2E2E2E2E2E2E2E2E2E2E2E2E2E2E2E2E2E2E2E2E2E2E2E2E2E2E2E2E2E2E2E2E2E2E2E2E2E2E2E2E2E2E2E2E2E2E2E2E2E2E2E2E2E2E2E2E2E2E2E2E2E2E2E2E2E2E2E2E2E2E2E2E2E2E2E2E2E2E2E2E2E2E2E2E2E2E2E2E2E2E2E2E2E2E2E2E2E2E2
310
E2E2E2E2E2E2E2E2E2E2E2E2E2E2E2E2E2E2E2E2E2E2E2E2E2E2E2E2E2E2E2E2E2E2E2E2E2E2E2E2E2E2E2E2E2E2E2E2E2E2E2E2E2E2E2E2E2E2E2E2E2E2E2E2E2E2E2E2BEF5F5F5F5F5F5F5F5F5F5F5F5BEE2E2E2E2E2E2E2E2E2E2E2E2E2E2E2E2E2E2E2E2E2E2E2E2E2E2E2E2E2E2E2E2E2E2E2E2E2E2E2E2E2E2E2BEE2
310
E2E228E2E2E2E2E2E2E2E2E2E2E2E2E2E2E2E2E2E2E2E2E2E2E2E2E2E2E2E2E2E2E2E2E2E2E2E2E2E2E2E2E2E2E2E2E2E2E2E2E2E2E2E2E2E2E2E2E2E2E2E2E2E2E2E2E2E2E2E2E2E2E2E2E2E2E2E2E2E2E2E2E2E2E2E2E2E2E2E2E2E2E2E2E2E2E2E2E2E2E2E2E2E2E2E2E2E2E2E2E2E2E2E2E2E2E2E2E2E2E2E2E2E2E2E2
310
E2E2E2E2E2E2E2E2E2E2E2E2E2E2E2E2E2E2E2E2E2E2E2E2E2E2E2E2E2E2E2E2E2E2E2E2E2E2E2E2E2E2E2E2E2E2E2E2E2E2E2E2E2E2E2E2E2E2E2E2E2E2E2E2E2E2E2E2E2E2BEBEBEBEBEBEBEBEBEBEBEBEBEBEBEBEBEBEBEBEBEBEBEBEBEBEBEBEBEBEBEBEBEBEBEBEBEBEBEBEBEBEBEBEBEBEBEBEBEBEBEBEBEBEBEBEBE
310
BEE2E2E228E2E2E2E2E2E2E2E2E2E2E2E2E2E2E2E2E2E2E2E2E2E2E2E2E2E2E2E2E2E2E2E2E2E2E2E2E2E2E2E2E2E2E2E2E2E2E2E2E2E2E2E2E2E2E2E2E2E2E2E2E2E2E2E2E2E2E2E2E2E2E2E2E2E2E2E2E2E2E2E2E2E2E2E2E2E2E2E2E2E2E2E2E2E2E2E2E2E2E2E2E2E2E2E2E2E2E2E2E2E2E2E2E2E2E2E2E2E2E2E2E2E2
310
E2E2E2E2E2E2E2E2E2E2E2E2E2E2E2E2E2E2E2E2E2E2E2E2E2E2E2E2E2E2E2E2E2E2E2E2E2E2E2E2E2E2E2E2E2E2E2E2E2E2E2E2E2E2E2E2E2E2E2E2E2E2E2E2E2E2E2E2E2E2E2E2E2E2E2E2E2E2E2E2E2E2E2E2E2E2E2E2E2E2E2E2E2E2E2E2E2E2E2E2E2E2E2E2E2E2E2E2E2E2E2E2E2E2E2E2E2E2E2E2E2E2E2E2E2E2E2
310
E2E2E2E2E2E228E2E2E2E2E2E2E2E2E2E2E2E2E2E2E2E2E2E2E2E2E2E2E2E2E2E2E2E2E2E2E2E2E2E2E2E2E2E2E2E2E2E2E2E2E2E2E2E2E2E2E2E2E2E2E2E2E2E2E2E2E2E2E2E2E2E2E2E2E2E2E2E2E2E2E2E2E2E2E2E2E2E2E2E2E2E2E2E2E2E2E2E2E2E2E2E2E2E2E2E2E2E2E2E2E2E2E2E2E2E2E2E2E2E2E2E2E2E2E2E2
310
E2E2E2E2E2E2E2E2E2E2E2E2E2E2E2E2E2E2E2E2E2E2E2E2E2E2E2E2E2E2E2E2E2E2E2E2E2E2E2E2E2E2E2E2E2E2E2E2E2E2E2E2E2E2E2E2E2E2E2E2E2E2E2E2E2E2E2E2E2E2E2E2E2E2E2E2E2E2E2E2E2E2E2E2E2E2E2E2E2E2E2E2E2E2E2E2E2E2E2E2E2E2E2E2E2E2E2E2E2E2E2E2E2E2E2E2E2E2E2E2E2E2E2E2E2E2E2
310
E2E2E2E2E2E2E2E228E2E2E2E2E2E2E2E2E2E2E2E2E2E2E2E2E2E2E2E2E2E2E2E2E2E2E2E2E2E2E2E2E2E2E2E2E2E2E2E2E2E2E2E2E2E2E2E2E2E2E2E2E2E2E2E2E2E2E2E2E2E2E2E2E2E2E2E2E2E2E2E2E2E2E2E2E2E2E2E2E2E2E2E2E2E2E2E2E2E2E2E2E2E2E2E2E2E2E2E2E2E2E2E2E2E2E2E2E2E2E2E2E2E2E2E2E2E2
310
E2E2E2E2E2E2E2E2E2E2E2E2E2E2E2E2E2E2E2E2E2E2E2E2E2E2E2E2E2E2E2E2E2E2E2E2E2E2E2E2E2E2E2E2E2E2E2E2E2E2E2E2E2E2E2E2E2E2E2E2E2E2E2E2E2E2E2E2E2E2E2E2E2E2E2E2E2E2E2E2E2E2E2E2E2E2E2E2E2E2E2E2E2E2E2E2E2E2E2E2E2E2E2E2E2E2E2E2E2E2E2E2E2E2E2E2E2E2E2E2E2E2E2E2E2E2E2
310
E2E2E2E2E2E2E2E2E2E228E2E2E2E2E2E2E2E2E2E2E2E2E2E2E2E2E2E2E2E2E2E2E2E2E2E2E2E2E2E2E2E2E2E2E2E2E2E2E2E2E2E2E2E2E2E2E2E2E2E2E2E2E2E2E2E2E2E2E2E2E2E2E2E2E2E2E2E2E2E2E2E2E2E2E2E2E2E2E2E2E2E2E2E2E2E2E2E2E2E2E2E2E2E2E2E2E2E2E2E2E2E2E2E2E2E2E2E2E2E2E2E2E2E2E2E2
310
E2E2E2E2E2E2E2E2E2E2E2E2E2E2E2E2E2E2E2E2E2E2E2E2E2E2E2E2E2E2E2E2E2E2E2E2E2E2E2E2E2E2E2E2E2E2E2E2E2E2E2E2E2E2E2E2E2E2E2E2E2E2E2E2E2E2E2E2E2E2E2E2E2E2E2E2E2E2E2E2E2E2E2E2E2E2E2E2E2E2E2E2E2E2E2E2E2E2E2E2E2E2E2E2E2E2E2E2E2E2E2E2E2E2E2E2E2E2E2E2E2E2E2E2E2E2E2
310
E2E2E2E2E2E2E2E2E2E2E2E2E2E2E2E2E2E2E2E2E2E2E2E2E2E2E2E2E2E2E2E2E2E2E2E2E2E2E2E2E2E2E2E2E2E2E2E2E2E2E2E2E2E2E2E2E2E2E2E2E2E2E2E2E2E2E2E2E2E2E2E2E2E2E2E2E2E2E2E2E2E2E2E2E2E2E2E2E2E2E2E2E2E2E2E2E2E2E2E2E2E2E2E2E2E2E2E2E2E2E2E2E2E2E2E2E2E2E2E2E2E2E2E2E2E2E2
310
E2E2E2E2E2E2E2E2E2E2E2E2E2E2E2E2E2E2E2E2E2E2E2E2E2E2E2E2E2E2E2E2E2E2E2E2E2E2E2E2E2E2E2E2E2E2E2E2E2E2E2E2E2E2E2E2E2E2E2E2E2E2E2E2E2E2E2E2E2E2E2E2E2E2E2E2E2E2E2E2E2E2E2E2E2E2E2E2E2E2E2E2E2E2E2E2E2E2E2E2E2E2E2E2E2E2E2E2E2E2E2E2E2E2E2E2E2E2E2E2E2E2E2E2E2E2E2
310
E2E2E2E2E2E2E2E2E2E2E2E2E2E2E2E2E2E2E2E2E2E2E2E2E2E2E2E2E2E2E2E2E2E2E2E2E2E2E2E2E2E2E2E2E2E2E2E2E2E2E2E2E2E2E2E2E2E2E2E2E2E2E2E2E2E2E2E2E2E2E2E2E2E2E2E2E2E2E2E2E2E2E2E2E2E2E2E2E2E2E2E2E2E2E2E2E2E2E2E2E2E2E2E2E2E2E2E2E2E2E2E2E2E2E2E2E2E2E2E2E2E2E2E2E2E2E2
310
E2E2E2E2E2E2E2E2E2E2E2E2E2E2E2E2E2E2E2E2E2E2E2E2E2E2E2E2E2E2E2E2E2E2E2E2E2E2E2E2E2E2E2E2E2E2E2E2E2E2E2E2E2E2E2E2E2E2E2E2E2E2E2E2E2E2E2E2E2E2E2E2E2E2E2E2E2E2E2E2E2E2E2E2E2E2E2E2E2E2E2E2E2E2E2E2E2E2E2E2E2E2E2E2E2E2E2E2E2E2E2E2E2E2E2E2E2E2E2E2E2E2E2E2E2E2E2
310
E2E2E2E2E2E2E2E2E2E2E2E2E2E2E2E2E2E2E2E2E2E2E2E2E2E2E2E2E2E2E2E2E2E2E2E2E2E2E2E2E2E2E2E2E2E2E2E2E2E2E2E2E2E2E2E2E2E2E2E2E2E2E2E2E2E2E2E2E2E2E2E2E2E2E2E2E2E2E2E2E2E2E2E2E2E2E2E2E2E2E2E2E2E2E2E2E2E2E2E2E2E2E2E2E2E2E2E2E2E2E2E2E2E2E2E2E2E2E2E2E2E2E2E2E2E2E2
310
E2E2E2E2E2E2E2E2E2E2E2E2E2E2E2E2E2E2E2E2E2E2E2E2E2E2E2E2E2E2E2E2E2E2E2E2E2E2E2E2E2E2E2E2E2E2E2E2E2E2E2E2E2E2E2E2E2E2E2E2E2E2E2E2E2E2E2E2E2E2E2E2E2E2E2E2E2E2E2E2E2E2E2E2E2E2E2E2E2E2E2E2E2E2E2E2E2E2E2E2E2E2E2E2E2E2E2E2E2E2E2E2E2E2E2E2E2E2E2E2E2E2E2E2E2E2E2
310
E2E2E2E2E2E2E2E2E2E2E2E2E2E2E2E2E2E2E2E2E2E2E2E2E2E2E2E2E2E2E2E2E2E2E2E2E2E2E2E2E2E2E2E2E2E2E2E2E2E2E2E2E2E2E2E2E2E2E2E2E2E2E2E2E2E2E2E2E2E2E2E2E2E2E2E2E2E2E2E2E2E2E2E2E2E2E2E2E2E2E2E2E2E2E2E2E2E2E2E2E2E2E2E2E2E2E2E2E2E2E2E2E2E2E2E2E2E2E2E2E2E2E2E2E2E2E2
310
E2E2E2E2E2E2E2E2E2E2E2E2E2E2E2E2E2E2E2E2E2E2E2E2E2E2E2E2E2E2E2E2E2E2E2E2E2E2E2E2E2E2E2E2E2E2E2E2E2E2E2E2E2E2E2E2E2E2E2E2E2E2E2E2E2E2E2E2E2E2E2E2E2E2E2E2E2E2E2E2E2E2E2E2E2E2E2E2E2E2E2E2E2E2E2E2E2E2E2E2E2E2E2E2E2E2E2E2E2E2E2E2E2E2E2E2E2E2E2E2E2E2E2E2E2E2E2
310
E2E2E2E2E2E2E2E2E2E2E2E2E2E2E2E2E2E2E2E2E2E2E2E2E2E2E2E2E2E2E2E2E2E2E2E2E2E2E2E2E2E2E2E2E2E2E2E2E2E2E2E2E2E2E2E2E2E2E2E2E2E2E2E2E2E2E2E2E2E2E2E2E2E2E2E2E2E2E2E2E2E2E2E2E2E2E2E2E2E2E2E2E2E2E2E2E2E2E2E2E2E2E2E2E2E2E2E2E2E2E2E2E2E2E2E2E2E2E2E2E2E2E2E2E2E2E2
310
E2E2E2E2E2E2E2E2E2E2E2E2E2E2E2E2E2E2E2E2E2E2E2E2E2E2E2E2E2E2E2E2E2E2E2E2E2E2E2E2E2E2E2E2E2E2E2E2E2E2E2E2E2E2E2E2E2E2E2E2E2E2E2E2E2E2E2E2E2E2E2E2E2E2E2E2E2E2E2E2E2E2E2E2E2E2E2E2E2E2E2E2E2E2E2E2E2E2E2E2E2E2E2E2E2E2E2E2E2E2E2E2E2E2E2E2E2E2E2E2E2E2E2E2E2E2E2
310
E2E2E2E2E2E2E2E2E2E2E2E2E2E2E2E2E2E2E2E2E2E2E2E2E2E2E2E2E2E2E2E2E2E2E2E2E2E2E2E2E2E2E2E2E2E2E2E2E2E2E2E2E2E2E2E2E2E2E2E2E2E2E2E2E2E2E2E2E2E2E2E2E2E2E2E2E2E2E2E2E2E2E2E2E2E2E2E2E2E2E2E2E2E2E2E2E2E2E2E2E2E2E2E2E2E2E2E2E2E2E2E2E2E2E2E2E2E2E2E2E2E2E2E2E2E2E2
310
E2E2E2E2E2E2E2E2E2E2E2E2E2E2E2E2E2E2E2E2E2E2E2E2E2E2E2E2E2E2E2E2E2E2E2E2E2E2E2E2E2E2E2E2E2E2E2E2E2E2E2E2E2E2E2E2E2E2E2E2E2E2E2E2E2E2E2E2E2E2E2E2E2E2E2E2E2E2E2E2E2E2E2E2E2E2E2E2E2E2E2E2E2E2E2E2E2E2E2E2E2E2E2E2E2E2E2E2E2E2E2E2E2E2E2E2E2E2E2E2E2E2E2E2E2E2E2
310
E2E2E2E2E2E2E2E2E2E2E2E2E2E2E2E2E2E2E2E2E2E2E2E2E2E2E2E2E2E2E2E2E2E2E2E2E2E2E2E2E2E2E2E2E2E2E2E2E2E2E2E2E2E2E2E2E2E2E2E2E2E2E2E2E2E2E2E2E2E2E2E2E2E2E2E2E2E2E2E2E2E2E2E2E2E2E2E2E2E2E2E2E2E2E2E2E2E2E2E2E2E2E2E2E2E2E2E2E2E2E2E2E2E2E2E2E2E2E2E2E2E2E2E2E2E2E2
310
E2E2E2E2E2E2E2E2E2E2E2E2E2E2E2E2E2E2E2E2E2E2E2E2E2E2E2E2E2E2E2E2E2E2E2E2E2E2E2E2E2E2E2E2E2E2E2E2E2E2E2E2E2E2E2E2E2E2E2E2E2E2E2E2E2E2E2E2E2E2E2E2E2E2E2E2E2E2E2E2E2E2E2E2E2E2E2E2E2E2E2E2E2E2E2E2E2E2E2E2E2E2E2E2E2E2E2E2E2E2E2E2E2E2E2E2E2E2E2E2E2E2E2E2E2E2E2
310
E2E2E2E2E2E2E2E2E2E2E2E2E2E2E2E2E2E2E2E2E2E2E2E2E2E2E2E2E2E2E2E2E2E2E2E2E2E2E2E2E2E2E2E2E2E2E2E2E2E2E2E2E2E2E2E2E2E2E2E2E2E2E2E2E2E2E2E2E2E2E2E2E2E2E2E2E2E2E2E2E2E2E2E2E2E2E2E2E2E2E2E2E2E2E2E2E2E2E2E2E2E2E2E2E2E2E2E2E2E2E2E2E2E2E2E2E2E2E2E2E2E2E2E2E2E2E2
310
E2E2E2E2E2E2E2E2E2E2E2E2E2E2E2E2E2E2E2E2E2E2E2E2E2E2E2E2E2E2E2E2E2E2E2E2E2E2E2E2E2E2E2E2E2E2E2E2E2E2E2E2E2E2E2E2E2E2E2E2E2E2E2E2E2E2E2E2E2E2E2E2E2E2E2E2E2E2E2E2E2E2E2E2E2E2E2E2E2E2E2E2E2E2E2E2E2E2E2E2E2E2E2E2E2E2E2E2E2E2E2E2E2E2E2E2E2E2E2E2E2E2E2E2E2E2E2
310
E2E2E2E2E2E2E2E2E2E2E2E2E2E2E2E2E2E2E2E2E2E2E2E2E2E2E2E2E2E2E2E2E2E2E2E2E2E2E2E2E2E2E2E2E2E2E2E2E2E2E2E2E2E2E2E2E2E2E2E2E2E2E2E2E2E2E2E2E2E2E2E2E2E2E2E2E2E2E2E2E2E2E2E2E2E2E2E2E2E2E2E2E2E2E2E2E2E2E2E2E2E2E2E2E2E2E2E2E2E2E2E2E2E2E2E2E2E2E2E2E2E2E2E2E2E2E2
310
E2E2E2E2E2E2E2E2E2E2E2E2E2E2E2E2E2E2E2E2E2E2E2E2E2E2E2E2E2E2E2E2E2E2E2E2E2E2E2E2E2E2E2E2E2E2E2E2E2E2E2E2E2E2E2E2E2E2E2E2E2E2E2E2E2E2E2E2E2E2E2E2E2E2E2E2E2E2E2E2E2E2E2E2E2E2E2E2E2E2E2E2E2E2E2E2E2E2E2E2E2E2E2E2E2E2E2E2E2E2E2E2E2E2E2E2E2E2E2E2E2E2E2E2E2E2E2
310
E2E2E2E2E2E2E2E2E2E2E2E2E2E2E2E2E2E2E2E2E2E2E2E2E2E2E2E2E2E2E2E2E2E2E2E2E2E2E2E2E2E2E2E2E2E2E2E2E2E2E2E2E2E2E2E2E2E2E2E2E2E2E2E2E2E2E2E2E2E2E2E2E2E2E2E2E2E2E2E2E2E2E2E2E2E2E2E2E2E2E2E2E2E2E2E2E2E2E2E2E2E2E2E2E2E2E2E2E2E2E2E2E2E2E2E2E2E2E2E2E2E2E2E2E2E2E2
310
E2E2E2E2E2E2E2E2E2E2E2E2E2E2E2E2E2E2E2E2E2E2E2E2E2E2E2E2E2E2E2E2E2E2E2E2E2E2E2E2E2E2E2E2E2E2E2E2E2E2E2E2E2E2E2E2E2E2E2E2E2E2E2E2E2E2E2E2E2E2E2E2E2E2E2E2E2E2E2E2E2E2E2E2E2E2E2E2E2E2E2E2E2E2E2E2E2E2E2E2E2E2E2E2E2E2E2E2E2E2E2E2E2E2E2E2E2E2E2E2E2E2E2E2E2E2E2
310
E2E2E2E2E2E2E2E2E2E2E2E2E2E2E2E2E2E2E2E2E2E2E2E2E2E2E2E2E2E2E2E2E2E2E2E2E2E2E2E2E2E2E2E2E2E2E2E2E2E2E2E2E2E2E2E2E2E2E2E2E2E2E2E2E2E2E2E2E2E2E2E2E2E2E2E2E2E2E2E2E2E2E2E2E2E2E2E2E2E2E2E2E2E2E2E2E2E2E2E2E2E2E2E2E2E2E2E2E2E2E2E2E2E2E2E2E2E2E2E2E2E2E2E2E2E2E2
310
E2E2E2E2E2E2E2E2E2E2E2E2E2E2E2E2E2E2E2E2E2E2E2E2E2E2
  0
XRECORD
  5
D3B
102
{ACAD_REACTORS
330
221
102
}
330
221
100
AcDbXrecord
280
     1
102
MATERIAL
148
0.0
149
0.0
149
0.0
 93
        0
 94
      127
282
     0
 72
     0
 77
     0
171
     0
175
     0
179
     0
273
     0
  0
XRECORD
  5
223
102
{ACAD_REACTORS
330
221
102
}
330
221
100
AcDbXrecord
280
     1
270
     1
271
     1
  0
XRECORD
  5
222
102
{ACAD_REACTORS
330
221
102
}
330
221
100
AcDbXrecord
280
     1
270
     1
271
     1
  0
XRECORD
  5
226
102
{ACAD_REACTORS
330
221
102
}
330
221
100
AcDbXrecord
280
     1
270
     1
271
     1
  0
XRECORD
  5
225
102
{ACAD_REACTORS
330
221
102
}
330
221
100
AcDbXrecord
280
     1
270
     1
271
     1
  0
XRECORD
  5
227
102
{ACAD_REACTORS
330
221
102
}
330
221
100
AcDbXrecord
280
     1
270
     1
271
     1
  0
XRECORD
  5
224
102
{ACAD_REACTORS
330
221
102
}
330
221
100
AcDbXrecord
280
     1
270
     1
271
     1
  0
XRECORD
  5
D3A
102
{ACAD_REACTORS
330
219
102
}
330
219
100
AcDbXrecord
280
     1
102
MATERIAL
148
0.0
149
0.0
149
0.0
 93
        0
 94
      127
282
     0
 72
     0
 77
     0
171
     0
175
     0
179
     0
273
     0
  0
XRECORD
  5
21B
102
{ACAD_REACTORS
330
219
102
}
330
219
100
AcDbXrecord
280
     1
270
     1
271
     1
  0
XRECORD
  5
21A
102
{ACAD_REACTORS
330
219
102
}
330
219
100
AcDbXrecord
280
     1
270
     1
271
     1
  0
XRECORD
  5
21E
102
{ACAD_REACTORS
330
219
102
}
330
219
100
AcDbXrecord
280
     1
270
     1
271
     1
  0
XRECORD
  5
21D
102
{ACAD_REACTORS
330
219
102
}
330
219
100
AcDbXrecord
280
     1
270
     1
271
     1
  0
XRECORD
  5
21F
102
{ACAD_REACTORS
330
219
102
}
330
219
100
AcDbXrecord
280
     1
270
     1
271
     1
  0
XRECORD
  5
21C
102
{ACAD_REACTORS
330
219
102
}
330
219
100
AcDbXrecord
280
     1
270
     1
271
     1
  0
XRECORD
  5
D3C
102
{ACAD_REACTORS
330
229
102
}
330
229
100
AcDbXrecord
280
     1
102
MATERIAL
148
0.0
149
0.0
149
0.0
 93
        0
 94
      127
282
     0
 72
     0
 77
     0
171
     0
175
     0
179
     0
273
     0
  0
XRECORD
  5
22B
102
{ACAD_REACTORS
330
229
102
}
330
229
100
AcDbXrecord
280
     1
270
     1
271
     1
  0
XRECORD
  5
22A
102
{ACAD_REACTORS
330
229
102
}
330
229
100
AcDbXrecord
280
     1
270
     1
271
     1
  0
XRECORD
  5
22E
102
{ACAD_REACTORS
330
229
102
}
330
229
100
AcDbXrecord
280
     1
270
     1
271
     1
  0
XRECORD
  5
22D
102
{ACAD_REACTORS
330
229
102
}
330
229
100
AcDbXrecord
280
     1
270
     1
271
     1
  0
XRECORD
  5
22F
102
{ACAD_REACTORS
330
229
102
}
330
229
100
AcDbXrecord
280
     1
270
     1
271
     1
  0
XRECORD
  5
22C
102
{ACAD_REACTORS
330
229
102
}
330
229
100
AcDbXrecord
280
     1
270
     1
271
     1
  0
CELLSTYLEMAP
  5
D34
102
{ACAD_REACTORS
330
B47
102
}
330
B47
100
AcDbCellStyleMap
 90
        3
300
CELLSTYLE
  1
TABLEFORMAT_BEGIN
 90
        5
170
     1
 91
        0
 92
    32768
 62
   257
 93
        1
300
CONTENTFORMAT
  1
CONTENTFORMAT_BEGIN
 90
        0
 91
        0
 92
      512
 93
        0
300

 40
0.0
140
1.0
 94
        5
 62
     0
340
17
144
6.0
309
CONTENTFORMAT_END
171
     1
301
MARGIN
  1
CELLMARGIN_BEGIN
 40
1.5
 40
1.5
 40
1.5
 40
1.5
 40
0.18
 40
0.18
309
CELLMARGIN_END
 94
        6
 95
        1
302
GRIDFORMAT
  1
GRIDFORMAT_BEGIN
 90
        0
 91
        1
 62
     0
 92
       -2
340
0
 93
        0
 40
1.125
309
GRIDFORMAT_END
 95
        2
302
GRIDFORMAT
  1
GRIDFORMAT_BEGIN
 90
        0
 91
        1
 62
     0
 92
       -2
340
0
 93
        0
 40
1.125
309
GRIDFORMAT_END
 95
        4
302
GRIDFORMAT
  1
GRIDFORMAT_BEGIN
 90
        0
 91
        1
 62
     0
 92
       -2
340
0
 93
        0
 40
1.125
309
GRIDFORMAT_END
 95
        8
302
GRIDFORMAT
  1
GRIDFORMAT_BEGIN
 90
        0
 91
        1
 62
     0
 92
       -2
340
0
 93
        0
 40
1.125
309
GRIDFORMAT_END
 95
       16
302
GRIDFORMAT
  1
GRIDFORMAT_BEGIN
 90
        0
 91
        1
 62
     0
 92
       -2
340
0
 93
        0
 40
1.125
309
GRIDFORMAT_END
 95
       32
302
GRIDFORMAT
  1
GRIDFORMAT_BEGIN
 90
        0
 91
        1
 62
     0
 92
       -2
340
0
 93
        0
 40
1.125
309
GRIDFORMAT_END
309
TABLEFORMAT_END
  1
CELLSTYLE_BEGIN
 90
        1
 91
        1
300
_TITLE
309
CELLSTYLE_END
300
CELLSTYLE
  1
TABLEFORMAT_BEGIN
 90
        5
170
     1
 91
        0
 92
        0
 62
   257
 93
        1
300
CONTENTFORMAT
  1
CONTENTFORMAT_BEGIN
 90
        0
 91
        0
 92
      512
 93
        0
300

 40
0.0
140
1.0
 94
        5
 62
     0
340
17
144
4.5
309
CONTENTFORMAT_END
171
     1
301
MARGIN
  1
CELLMARGIN_BEGIN
 40
1.5
 40
1.5
 40
1.5
 40
1.5
 40
0.18
 40
0.18
309
CELLMARGIN_END
 94
        6
 95
        1
302
GRIDFORMAT
  1
GRIDFORMAT_BEGIN
 90
        0
 91
        1
 62
     0
 92
       -2
340
0
 93
        0
 40
1.125
309
GRIDFORMAT_END
 95
        2
302
GRIDFORMAT
  1
GRIDFORMAT_BEGIN
 90
        0
 91
        1
 62
     0
 92
       -2
340
0
 93
        0
 40
1.125
309
GRIDFORMAT_END
 95
        4
302
GRIDFORMAT
  1
GRIDFORMAT_BEGIN
 90
        0
 91
        1
 62
     0
 92
       -2
340
0
 93
        0
 40
1.125
309
GRIDFORMAT_END
 95
        8
302
GRIDFORMAT
  1
GRIDFORMAT_BEGIN
 90
        0
 91
        1
 62
     0
 92
       -2
340
0
 93
        0
 40
1.125
309
GRIDFORMAT_END
 95
       16
302
GRIDFORMAT
  1
GRIDFORMAT_BEGIN
 90
        0
 91
        1
 62
     0
 92
       -2
340
0
 93
        0
 40
1.125
309
GRIDFORMAT_END
 95
       32
302
GRIDFORMAT
  1
GRIDFORMAT_BEGIN
 90
        0
 91
        1
 62
     0
 92
       -2
340
0
 93
        0
 40
1.125
309
GRIDFORMAT_END
309
TABLEFORMAT_END
  1
CELLSTYLE_BEGIN
 90
        2
 91
        1
300
_HEADER
309
CELLSTYLE_END
300
CELLSTYLE
  1
TABLEFORMAT_BEGIN
 90
        5
170
     1
 91
        0
 92
        0
 62
   257
 93
        1
300
CONTENTFORMAT
  1
CONTENTFORMAT_BEGIN
 90
        0
 91
        0
 92
      512
 93
        0
300

 40
0.0
140
1.0
 94
        2
 62
     0
340
17
144
4.5
309
CONTENTFORMAT_END
171
     1
301
MARGIN
  1
CELLMARGIN_BEGIN
 40
1.5
 40
1.5
 40
1.5
 40
1.5
 40
0.18
 40
0.18
309
CELLMARGIN_END
 94
        6
 95
        1
302
GRIDFORMAT
  1
GRIDFORMAT_BEGIN
 90
        0
 91
        1
 62
     0
 92
       -2
340
0
 93
        0
 40
1.125
309
GRIDFORMAT_END
 95
        2
302
GRIDFORMAT
  1
GRIDFORMAT_BEGIN
 90
        0
 91
        1
 62
     0
 92
       -2
340
0
 93
        0
 40
1.125
309
GRIDFORMAT_END
 95
        4
302
GRIDFORMAT
  1
GRIDFORMAT_BEGIN
 90
        0
 91
        1
 62
     0
 92
       -2
340
0
 93
        0
 40
1.125
309
GRIDFORMAT_END
 95
        8
302
GRIDFORMAT
  1
GRIDFORMAT_BEGIN
 90
        0
 91
        1
 62
     0
 92
       -2
340
0
 93
        0
 40
1.125
309
GRIDFORMAT_END
 95
       16
302
GRIDFORMAT
  1
GRIDFORMAT_BEGIN
 90
        0
 91
        1
 62
     0
 92
       -2
340
0
 93
        0
 40
1.125
309
GRIDFORMAT_END
 95
       32
302
GRIDFORMAT
  1
GRIDFORMAT_BEGIN
 90
        0
 91
        1
 62
     0
 92
       -2
340
0
 93
        0
 40
1.125
309
GRIDFORMAT_END
309
TABLEFORMAT_END
  1
CELLSTYLE_BEGIN
 90
        3
 91
        2
300
_DATA
309
CELLSTYLE_END
  0
XRECORD
  5
D63
102
{ACAD_REACTORS
330
B47
102
}
330
B47
100
AcDbXrecord
280
     1
102
ACAD_ROUNDTRIP_PRE2007_TABLESTYLE
 90
      512
 91
        0
  1

 92
      512
 93
        0
  2

 94
      512
 95
        0
  3

  0
XRECORD
  5
D48
102
{ACAD_REACTORS
330
D47
102
}
330
D47
100
AcDbXrecord
280
     1
102
RTVSPropertyOp0
 70
     1
102
RTVSPropertyOp1
 70
     1
102
RTVSPropertyOp2
 70
     1
102
RTVSPropertyOp3
 70
     1
102
RTVSPropertyOp4
 70
     1
102
RTVSPropertyOp5
 70
     1
102
RTVSPropertyOp6
 70
     1
102
RTVSPropertyOp7
 70
     1
102
RTVSPropertyOp8
 70
     1
102
RTVSPropertyOp9
 70
     1
102
RTVSPropertyOp10
 70
     1
102
RTVSPropertyOp11
 70
     1
102
RTVSPropertyOp12
 70
     1
102
RTVSPropertyOp13
 70
     1
102
RTVSPropertyOp14
 70
     1
102
RTVSPropertyOp15
 70
     1
102
RTVSPropertyOp16
 70
     1
102
RTVSPropertyOp17
 70
     1
102
RTVSPropertyOp18
 70
     1
102
RTVSPropertyOp19
 70
     1
102
RTVSPropertyOp20
 70
     1
102
RTVSPropertyOp21
 70
     1
102
RTVSPropertyOp22
 70
     1
102
RTVSPropertyOp23
 70
     1
102
RTVSPropertyOp24
 70
     1
102
RTVSPropertyOp25
 70
     1
102
RTVSPropertyOp26
 70
     1
102
RTVSPropertyOp27
 70
     1
  0
XRECORD
  5
D4C
102
{ACAD_REACTORS
330
D4B
102
}
330
D4B
100
AcDbXrecord
280
     1
102
RTVSPropertyOp0
 70
     1
102
RTVSPropertyOp1
 70
     1
102
RTVSPropertyOp2
 70
     1
102
RTVSPropertyOp3
 70
     1
102
RTVSPropertyOp4
 70
     1
102
RTVSPropertyOp5
 70
     1
102
RTVSPropertyOp6
 70
     1
102
RTVSPropertyOp7
 70
     1
102
RTVSPropertyOp8
 70
     1
102
RTVSPropertyOp9
 70
     1
102
RTVSPropertyOp10
 70
     1
102
RTVSPropertyOp11
 70
     1
102
RTVSPropertyOp12
 70
     1
102
RTVSPropertyOp13
 70
     1
102
RTVSPropertyOp14
 70
     1
102
RTVSPropertyOp15
 70
     1
102
RTVSPropertyOp16
 70
     1
102
RTVSPropertyOp17
 70
     1
102
RTVSPropertyOp18
 70
     1
102
RTVSPropertyOp19
 70
     1
102
RTVSPropertyOp20
 70
     1
102
RTVSPropertyOp21
 70
     1
102
RTVSPropertyOp22
 70
     1
102
RTVSPropertyOp23
 70
     1
102
RTVSPropertyOp24
 70
     1
102
RTVSPropertyOp25
 70
     1
102
RTVSPropertyOp26
 70
     1
102
RTVSPropertyOp27
 70
     1
  0
XRECORD
  5
D4A
102
{ACAD_REACTORS
330
D49
102
}
330
D49
100
AcDbXrecord
280
     1
102
RTVSPropertyOp0
 70
     1
102
RTVSPropertyOp1
 70
     1
102
RTVSPropertyOp2
 70
     1
102
RTVSPropertyOp3
 70
     1
102
RTVSPropertyOp4
 70
     1
102
RTVSPropertyOp5
 70
     1
102
RTVSPropertyOp6
 70
     1
102
RTVSPropertyOp7
 70
     1
102
RTVSPropertyOp8
 70
     1
102
RTVSPropertyOp9
 70
     1
102
RTVSPropertyOp10
 70
     1
102
RTVSPropertyOp11
 70
     1
102
RTVSPropertyOp12
 70
     1
102
RTVSPropertyOp13
 70
     1
102
RTVSPropertyOp14
 70
     1
102
RTVSPropertyOp15
 70
     1
102
RTVSPropertyOp16
 70
     1
102
RTVSPropertyOp17
 70
     1
102
RTVSPropertyOp18
 70
     1
102
RTVSPropertyOp19
 70
     1
102
RTVSPropertyOp20
 70
     1
102
RTVSPropertyOp21
 70
     1
102
RTVSPropertyOp22
 70
     1
102
RTVSPropertyOp23
 70
     1
102
RTVSPropertyOp24
 70
     1
102
RTVSPropertyOp25
 70
     1
102
RTVSPropertyOp26
 70
     1
102
RTVSPropertyOp27
 70
     1
  0
XRECORD
  5
D46
102
{ACAD_REACTORS
330
D45
102
}
330
D45
100
AcDbXrecord
280
     1
102
RTVSPropertyOp0
 70
     1
102
RTVSPropertyOp1
 70
     1
102
RTVSPropertyOp2
 70
     1
102
RTVSPropertyOp3
 70
     1
102
RTVSPropertyOp4
 70
     1
102
RTVSPropertyOp5
 70
     1
102
RTVSPropertyOp6
 70
     1
102
RTVSPropertyOp7
 70
     1
102
RTVSPropertyOp8
 70
     1
102
RTVSPropertyOp9
 70
     1
102
RTVSPropertyOp10
 70
     1
102
RTVSPropertyOp11
 70
     1
102
RTVSPropertyOp12
 70
     1
102
RTVSPropertyOp13
 70
     1
102
RTVSPropertyOp14
 70
     1
102
RTVSPropertyOp15
 70
     1
102
RTVSPropertyOp16
 70
     1
102
RTVSPropertyOp17
 70
     1
102
RTVSPropertyOp18
 70
     1
102
RTVSPropertyOp19
 70
     1
102
RTVSPropertyOp20
 70
     1
102
RTVSPropertyOp21
 70
     1
102
RTVSPropertyOp22
 70
     1
102
RTVSPropertyOp23
 70
     1
102
RTVSPropertyOp24
 70
     1
102
RTVSPropertyOp25
 70
     1
102
RTVSPropertyOp26
 70
     1
102
RTVSPropertyOp27
 70
     1
  0
XRECORD
  5
D54
102
{ACAD_REACTORS
330
D53
102
}
330
D53
100
AcDbXrecord
280
     1
102
RTVSPropertyOp0
 70
     1
102
RTVSPropertyOp1
 70
     1
102
RTVSPropertyOp2
 70
     1
102
RTVSPropertyOp3
 70
     1
102
RTVSPropertyOp4
 70
     1
102
RTVSPropertyOp5
 70
     1
102
RTVSPropertyOp6
 70
     1
102
RTVSPropertyOp7
 70
     1
102
RTVSPropertyOp8
 70
     1
102
RTVSPropertyOp9
 70
     1
102
RTVSPropertyOp10
 70
     1
102
RTVSPropertyOp11
 70
     1
102
RTVSPropertyOp12
 70
     1
102
RTVSPropertyOp13
 70
     1
102
RTVSPropertyOp14
 70
     1
102
RTVSPropertyOp15
 70
     1
102
RTVSPropertyOp16
 70
     1
102
RTVSPropertyOp17
 70
     1
102
RTVSPropertyOp18
 70
     1
102
RTVSPropertyOp19
 70
     1
102
RTVSPropertyOp20
 70
     1
102
RTVSPropertyOp21
 70
     1
102
RTVSPropertyOp22
 70
     1
102
RTVSPropertyOp23
 70
     1
102
RTVSPropertyOp24
 70
     1
102
RTVSPropertyOp25
 70
     1
102
RTVSPropertyOp26
 70
     1
102
RTVSPropertyOp27
 70
     1
  0
XRECORD
  5
D5C
102
{ACAD_REACTORS
330
D5B
102
}
330
D5B
100
AcDbXrecord
280
     1
102
RTVSPropertyOp0
 70
     1
102
RTVSPropertyOp1
 70
     1
102
RTVSPropertyOp2
 70
     1
102
RTVSPropertyOp3
 70
     1
102
RTVSPropertyOp4
 70
     1
102
RTVSPropertyOp5
 70
     1
102
RTVSPropertyOp6
 70
     1
102
RTVSPropertyOp7
 70
     1
102
RTVSPropertyOp8
 70
     1
102
RTVSPropertyOp9
 70
     1
102
RTVSPropertyOp10
 70
     1
102
RTVSPropertyOp11
 70
     1
102
RTVSPropertyOp12
 70
     1
102
RTVSPropertyOp13
 70
     1
102
RTVSPropertyOp14
 70
     1
102
RTVSPropertyOp15
 70
     1
102
RTVSPropertyOp16
 70
     1
102
RTVSPropertyOp17
 70
     1
102
RTVSPropertyOp18
 70
     1
102
RTVSPropertyOp19
 70
     1
102
RTVSPropertyOp20
 70
     1
102
RTVSPropertyOp21
 70
     1
102
RTVSPropertyOp22
 70
     1
102
RTVSPropertyOp23
 70
     1
102
RTVSPropertyOp24
 70
     1
102
RTVSPropertyOp25
 70
     1
102
RTVSPropertyOp26
 70
     1
102
RTVSPropertyOp27
 70
     1
  0
XRECORD
  5
D4E
102
{ACAD_REACTORS
330
D4D
102
}
330
D4D
100
AcDbXrecord
280
     1
102
RTVSPropertyOp0
 70
     1
102
RTVSPropertyOp1
 70
     1
102
RTVSPropertyOp2
 70
     1
102
RTVSPropertyOp3
 70
     1
102
RTVSPropertyOp4
 70
     1
102
RTVSPropertyOp5
 70
     1
102
RTVSPropertyOp6
 70
     1
102
RTVSPropertyOp7
 70
     1
102
RTVSPropertyOp8
 70
     1
102
RTVSPropertyOp9
 70
     1
102
RTVSPropertyOp10
 70
     1
102
RTVSPropertyOp11
 70
     1
102
RTVSPropertyOp12
 70
     1
102
RTVSPropertyOp13
 70
     1
102
RTVSPropertyOp14
 70
     1
102
RTVSPropertyOp15
 70
     1
102
RTVSPropertyOp16
 70
     1
102
RTVSPropertyOp17
 70
     1
102
RTVSPropertyOp18
 70
     1
102
RTVSPropertyOp19
 70
     1
102
RTVSPropertyOp20
 70
     1
102
RTVSPropertyOp21
 70
     1
102
RTVSPropertyOp22
 70
     1
102
RTVSPropertyOp23
 70
     1
102
RTVSPropertyOp24
 70
     1
102
RTVSPropertyOp25
 70
     1
102
RTVSPropertyOp26
 70
     1
102
RTVSPropertyOp27
 70
     1
  0
XRECORD
  5
D52
102
{ACAD_REACTORS
330
D51
102
}
330
D51
100
AcDbXrecord
280
     1
102
RTVSPropertyOp0
 70
     1
102
RTVSPropertyOp1
 70
     1
102
RTVSPropertyOp2
 70
     1
102
RTVSPropertyOp3
 70
     1
102
RTVSPropertyOp4
 70
     1
102
RTVSPropertyOp5
 70
     1
102
RTVSPropertyOp6
 70
     1
102
RTVSPropertyOp7
 70
     1
102
RTVSPropertyOp8
 70
     1
102
RTVSPropertyOp9
 70
     1
102
RTVSPropertyOp10
 70
     1
102
RTVSPropertyOp11
 70
     1
102
RTVSPropertyOp12
 70
     1
102
RTVSPropertyOp13
 70
     1
102
RTVSPropertyOp14
 70
     1
102
RTVSPropertyOp15
 70
     1
102
RTVSPropertyOp16
 70
     1
102
RTVSPropertyOp17
 70
     1
102
RTVSPropertyOp18
 70
     1
102
RTVSPropertyOp19
 70
     1
102
RTVSPropertyOp20
 70
     1
102
RTVSPropertyOp21
 70
     1
102
RTVSPropertyOp22
 70
     1
102
RTVSPropertyOp23
 70
     1
102
RTVSPropertyOp24
 70
     1
102
RTVSPropertyOp25
 70
     1
102
RTVSPropertyOp26
 70
     1
102
RTVSPropertyOp27
 70
     1
  0
XRECORD
  5
D62
102
{ACAD_REACTORS
330
D61
102
}
330
D61
100
AcDbXrecord
280
     1
102
RTVSPropertyOp0
 70
     0
102
RTVSPropertyOp1
 70
     0
102
RTVSPropertyOp2
 70
     0
102
RTVSPropertyOp3
 70
     0
102
RTVSPropertyOp4
 70
     0
102
RTVSPropertyOp5
 70
     0
102
RTVSPropertyOp6
 70
     0
102
RTVSPropertyOp7
 70
     0
102
RTVSPropertyOp8
 70
     0
102
RTVSPropertyOp9
 70
     0
102
RTVSPropertyOp10
 70
     0
102
RTVSPropertyOp11
 70
     0
102
RTVSPropertyOp12
 70
     0
102
RTVSPropertyOp13
 70
     0
102
RTVSPropertyOp14
 70
     2
102
RTVSPropertyOp15
 70
     0
102
RTVSPropertyOp16
 70
     0
102
RTVSPropertyOp17
 70
     0
102
RTVSPropertyOp18
 70
     0
102
RTVSPropertyOp19
 70
     0
102
RTVSPropertyOp20
 70
     0
102
RTVSPropertyOp21
 70
     0
102
RTVSPropertyOp22
 70
     0
102
RTVSPropertyOp23
 70
     0
102
RTVSPropertyOp24
 70
     0
102
RTVSPropertyOp25
 70
     0
102
RTVSPropertyOp26
 70
     0
102
RTVSPropertyOp27
 70
     0
  0
XRECORD
  5
D5A
102
{ACAD_REACTORS
330
D59
102
}
330
D59
100
AcDbXrecord
280
     1
102
RTVSPropertyOp0
 70
     1
102
RTVSPropertyOp1
 70
     1
102
RTVSPropertyOp2
 70
     1
102
RTVSPropertyOp3
 70
     1
102
RTVSPropertyOp4
 70
     1
102
RTVSPropertyOp5
 70
     1
102
RTVSPropertyOp6
 70
     1
102
RTVSPropertyOp7
 70
     1
102
RTVSPropertyOp8
 70
     1
102
RTVSPropertyOp9
 70
     1
102
RTVSPropertyOp10
 70
     1
102
RTVSPropertyOp11
 70
     1
102
RTVSPropertyOp12
 70
     1
102
RTVSPropertyOp13
 70
     1
102
RTVSPropertyOp14
 70
     1
102
RTVSPropertyOp15
 70
     1
102
RTVSPropertyOp16
 70
     1
102
RTVSPropertyOp17
 70
     1
102
RTVSPropertyOp18
 70
     1
102
RTVSPropertyOp19
 70
     1
102
RTVSPropertyOp20
 70
     1
102
RTVSPropertyOp21
 70
     1
102
RTVSPropertyOp22
 70
     1
102
RTVSPropertyOp23
 70
     1
102
RTVSPropertyOp24
 70
     1
102
RTVSPropertyOp25
 70
     1
102
RTVSPropertyOp26
 70
     1
102
RTVSPropertyOp27
 70
     1
  0
XRECORD
  5
D3E
102
{ACAD_REACTORS
330
D3D
102
}
330
D3D
100
AcDbXrecord
280
     1
102
RTVSPropertyOp0
 70
     1
102
RTVSPropertyOp1
 70
     1
102
RTVSPropertyOp2
 70
     1
102
RTVSPropertyOp3
 70
     1
102
RTVSPropertyOp4
 70
     1
102
RTVSPropertyOp5
 70
     1
102
RTVSPropertyOp6
 70
     1
102
RTVSPropertyOp7
 70
     1
102
RTVSPropertyOp8
 70
     1
102
RTVSPropertyOp9
 70
     1
102
RTVSPropertyOp10
 70
     1
102
RTVSPropertyOp11
 70
     1
102
RTVSPropertyOp12
 70
     1
102
RTVSPropertyOp13
 70
     1
102
RTVSPropertyOp14
 70
     1
102
RTVSPropertyOp15
 70
     1
102
RTVSPropertyOp16
 70
     1
102
RTVSPropertyOp17
 70
     1
102
RTVSPropertyOp18
 70
     1
102
RTVSPropertyOp19
 70
     1
102
RTVSPropertyOp20
 70
     1
102
RTVSPropertyOp21
 70
     1
102
RTVSPropertyOp22
 70
     1
102
RTVSPropertyOp23
 70
     1
102
RTVSPropertyOp24
 70
     1
102
RTVSPropertyOp25
 70
     1
102
RTVSPropertyOp26
 70
     1
102
RTVSPropertyOp27
 70
     1
  0
XRECORD
  5
D40
102
{ACAD_REACTORS
330
D3F
102
}
330
D3F
100
AcDbXrecord
280
     1
102
RTVSPropertyOp0
 70
     1
102
RTVSPropertyOp1
 70
     1
102
RTVSPropertyOp2
 70
     1
102
RTVSPropertyOp3
 70
     1
102
RTVSPropertyOp4
 70
     1
102
RTVSPropertyOp5
 70
     1
102
RTVSPropertyOp6
 70
     1
102
RTVSPropertyOp7
 70
     1
102
RTVSPropertyOp8
 70
     1
102
RTVSPropertyOp9
 70
     1
102
RTVSPropertyOp10
 70
     1
102
RTVSPropertyOp11
 70
     1
102
RTVSPropertyOp12
 70
     1
102
RTVSPropertyOp13
 70
     1
102
RTVSPropertyOp14
 70
     1
102
RTVSPropertyOp15
 70
     1
102
RTVSPropertyOp16
 70
     1
102
RTVSPropertyOp17
 70
     1
102
RTVSPropertyOp18
 70
     1
102
RTVSPropertyOp19
 70
     1
102
RTVSPropertyOp20
 70
     1
102
RTVSPropertyOp21
 70
     1
102
RTVSPropertyOp22
 70
     1
102
RTVSPropertyOp23
 70
     1
102
RTVSPropertyOp24
 70
     1
102
RTVSPropertyOp25
 70
     1
102
RTVSPropertyOp26
 70
     1
102
RTVSPropertyOp27
 70
     1
  0
XRECORD
  5
D42
102
{ACAD_REACTORS
330
D41
102
}
330
D41
100
AcDbXrecord
280
     1
102
RTVSPropertyOp0
 70
     1
102
RTVSPropertyOp1
 70
     1
102
RTVSPropertyOp2
 70
     1
102
RTVSPropertyOp3
 70
     1
102
RTVSPropertyOp4
 70
     1
102
RTVSPropertyOp5
 70
     1
102
RTVSPropertyOp6
 70
     1
102
RTVSPropertyOp7
 70
     1
102
RTVSPropertyOp8
 70
     1
102
RTVSPropertyOp9
 70
     1
102
RTVSPropertyOp10
 70
     1
102
RTVSPropertyOp11
 70
     1
102
RTVSPropertyOp12
 70
     1
102
RTVSPropertyOp13
 70
     1
102
RTVSPropertyOp14
 70
     1
102
RTVSPropertyOp15
 70
     1
102
RTVSPropertyOp16
 70
     1
102
RTVSPropertyOp17
 70
     1
102
RTVSPropertyOp18
 70
     1
102
RTVSPropertyOp19
 70
     1
102
RTVSPropertyOp20
 70
     1
102
RTVSPropertyOp21
 70
     1
102
RTVSPropertyOp22
 70
     1
102
RTVSPropertyOp23
 70
     1
102
RTVSPropertyOp24
 70
     1
102
RTVSPropertyOp25
 70
     1
102
RTVSPropertyOp26
 70
     1
102
RTVSPropertyOp27
 70
     1
  0
XRECORD
  5
D44
102
{ACAD_REACTORS
330
D43
102
}
330
D43
100
AcDbXrecord
280
     1
102
RTVSPropertyOp0
 70
     1
102
RTVSPropertyOp1
 70
     1
102
RTVSPropertyOp2
 70
     1
102
RTVSPropertyOp3
 70
     1
102
RTVSPropertyOp4
 70
     1
102
RTVSPropertyOp5
 70
     1
102
RTVSPropertyOp6
 70
     1
102
RTVSPropertyOp7
 70
     1
102
RTVSPropertyOp8
 70
     1
102
RTVSPropertyOp9
 70
     1
102
RTVSPropertyOp10
 70
     1
102
RTVSPropertyOp11
 70
     1
102
RTVSPropertyOp12
 70
     1
102
RTVSPropertyOp13
 70
     1
102
RTVSPropertyOp14
 70
     1
102
RTVSPropertyOp15
 70
     1
102
RTVSPropertyOp16
 70
     1
102
RTVSPropertyOp17
 70
     1
102
RTVSPropertyOp18
 70
     1
102
RTVSPropertyOp19
 70
     1
102
RTVSPropertyOp20
 70
     1
102
RTVSPropertyOp21
 70
     1
102
RTVSPropertyOp22
 70
     1
102
RTVSPropertyOp23
 70
     1
102
RTVSPropertyOp24
 70
     1
102
RTVSPropertyOp25
 70
     1
102
RTVSPropertyOp26
 70
     1
102
RTVSPropertyOp27
 70
     1
  0
XRECORD
  5
D5E
102
{ACAD_REACTORS
330
D5D
102
}
330
D5D
100
AcDbXrecord
280
     1
102
RTVSPropertyOp0
 70
     0
102
RTVSPropertyOp1
 70
     0
102
RTVSPropertyOp2
 70
     0
102
RTVSPropertyOp3
 70
     0
102
RTVSPropertyOp4
 70
     0
102
RTVSPropertyOp5
 70
     0
102
RTVSPropertyOp6
 70
     0
102
RTVSPropertyOp7
 70
     0
102
RTVSPropertyOp8
 70
     0
102
RTVSPropertyOp9
 70
     0
102
RTVSPropertyOp10
 70
     0
102
RTVSPropertyOp11
 70
     0
102
RTVSPropertyOp12
 70
     0
102
RTVSPropertyOp13
 70
     0
102
RTVSPropertyOp14
 70
     2
102
RTVSPropertyOp15
 70
     0
102
RTVSPropertyOp16
 70
     0
102
RTVSPropertyOp17
 70
     0
102
RTVSPropertyOp18
 70
     0
102
RTVSPropertyOp19
 70
     0
102
RTVSPropertyOp20
 70
     0
102
RTVSPropertyOp21
 70
     0
102
RTVSPropertyOp22
 70
     0
102
RTVSPropertyOp23
 70
     0
102
RTVSPropertyOp24
 70
     0
102
RTVSPropertyOp25
 70
     0
102
RTVSPropertyOp26
 70
     0
102
RTVSPropertyOp27
 70
     0
  0
XRECORD
  5
D58
102
{ACAD_REACTORS
330
D57
102
}
330
D57
100
AcDbXrecord
280
     1
102
RTVSPropertyOp0
 70
     1
102
RTVSPropertyOp1
 70
     1
102
RTVSPropertyOp2
 70
     1
102
RTVSPropertyOp3
 70
     1
102
RTVSPropertyOp4
 70
     1
102
RTVSPropertyOp5
 70
     1
102
RTVSPropertyOp6
 70
     1
102
RTVSPropertyOp7
 70
     1
102
RTVSPropertyOp8
 70
     1
102
RTVSPropertyOp9
 70
     1
102
RTVSPropertyOp10
 70
     1
102
RTVSPropertyOp11
 70
     1
102
RTVSPropertyOp12
 70
     1
102
RTVSPropertyOp13
 70
     1
102
RTVSPropertyOp14
 70
     1
102
RTVSPropertyOp15
 70
     1
102
RTVSPropertyOp16
 70
     1
102
RTVSPropertyOp17
 70
     1
102
RTVSPropertyOp18
 70
     1
102
RTVSPropertyOp19
 70
     1
102
RTVSPropertyOp20
 70
     1
102
RTVSPropertyOp21
 70
     1
102
RTVSPropertyOp22
 70
     1
102
RTVSPropertyOp23
 70
     1
102
RTVSPropertyOp24
 70
     1
102
RTVSPropertyOp25
 70
     1
102
RTVSPropertyOp26
 70
     1
102
RTVSPropertyOp27
 70
     1
  0
XRECORD
  5
D60
102
{ACAD_REACTORS
330
D5F
102
}
330
D5F
100
AcDbXrecord
280
     1
102
RTVSPropertyOp0
 70
     0
102
RTVSPropertyOp1
 70
     0
102
RTVSPropertyOp2
 70
     0
102
RTVSPropertyOp3
 70
     0
102
RTVSPropertyOp4
 70
     0
102
RTVSPropertyOp5
 70
     0
102
RTVSPropertyOp6
 70
     0
102
RTVSPropertyOp7
 70
     0
102
RTVSPropertyOp8
 70
     0
102
RTVSPropertyOp9
 70
     0
102
RTVSPropertyOp10
 70
     0
102
RTVSPropertyOp11
 70
     0
102
RTVSPropertyOp12
 70
     0
102
RTVSPropertyOp13
 70
     0
102
RTVSPropertyOp14
 70
     2
102
RTVSPropertyOp15
 70
     0
102
RTVSPropertyOp16
 70
     0
102
RTVSPropertyOp17
 70
     0
102
RTVSPropertyOp18
 70
     0
102
RTVSPropertyOp19
 70
     0
102
RTVSPropertyOp20
 70
     0
102
RTVSPropertyOp21
 70
     0
102
RTVSPropertyOp22
 70
     0
102
RTVSPropertyOp23
 70
     0
102
RTVSPropertyOp24
 70
     0
102
RTVSPropertyOp25
 70
     0
102
RTVSPropertyOp26
 70
     0
102
RTVSPropertyOp27
 70
     0
  0
XRECORD
  5
D50
102
{ACAD_REACTORS
330
D4F
102
}
330
D4F
100
AcDbXrecord
280
     1
102
RTVSPropertyOp0
 70
     1
102
RTVSPropertyOp1
 70
     1
102
RTVSPropertyOp2
 70
     1
102
RTVSPropertyOp3
 70
     1
102
RTVSPropertyOp4
 70
     1
102
RTVSPropertyOp5
 70
     1
102
RTVSPropertyOp6
 70
     1
102
RTVSPropertyOp7
 70
     1
102
RTVSPropertyOp8
 70
     1
102
RTVSPropertyOp9
 70
     1
102
RTVSPropertyOp10
 70
     1
102
RTVSPropertyOp11
 70
     1
102
RTVSPropertyOp12
 70
     1
102
RTVSPropertyOp13
 70
     1
102
RTVSPropertyOp14
 70
     1
102
RTVSPropertyOp15
 70
     1
102
RTVSPropertyOp16
 70
     1
102
RTVSPropertyOp17
 70
     1
102
RTVSPropertyOp18
 70
     1
102
RTVSPropertyOp19
 70
     1
102
RTVSPropertyOp20
 70
     1
102
RTVSPropertyOp21
 70
     1
102
RTVSPropertyOp22
 70
     1
102
RTVSPropertyOp23
 70
     1
102
RTVSPropertyOp24
 70
     1
102
RTVSPropertyOp25
 70
     1
102
RTVSPropertyOp26
 70
     1
102
RTVSPropertyOp27
 70
     1
  0
XRECORD
  5
D56
102
{ACAD_REACTORS
330
D55
102
}
330
D55
100
AcDbXrecord
280
     1
102
RTVSPropertyOp0
 70
     1
102
RTVSPropertyOp1
 70
     1
102
RTVSPropertyOp2
 70
     1
102
RTVSPropertyOp3
 70
     1
102
RTVSPropertyOp4
 70
     1
102
RTVSPropertyOp5
 70
     1
102
RTVSPropertyOp6
 70
     1
102
RTVSPropertyOp7
 70
     1
102
RTVSPropertyOp8
 70
     1
102
RTVSPropertyOp9
 70
     1
102
RTVSPropertyOp10
 70
     1
102
RTVSPropertyOp11
 70
     1
102
RTVSPropertyOp12
 70
     1
102
RTVSPropertyOp13
 70
     1
102
RTVSPropertyOp14
 70
     1
102
RTVSPropertyOp15
 70
     1
102
RTVSPropertyOp16
 70
     1
102
RTVSPropertyOp17
 70
     1
102
RTVSPropertyOp18
 70
     1
102
RTVSPropertyOp19
 70
     1
102
RTVSPropertyOp20
 70
     1
102
RTVSPropertyOp21
 70
     1
102
RTVSPropertyOp22
 70
     1
102
RTVSPropertyOp23
 70
     1
102
RTVSPropertyOp24
 70
     1
102
RTVSPropertyOp25
 70
     1
102
RTVSPropertyOp26
 70
     1
102
RTVSPropertyOp27
 70
     1
  0
ENDSEC
  0
EOF
