  0
SECTION
  2
HEADER
  9
$ACADVER
  1
AC1015
  9
$ACADMAINTVER
 70
    20
  9
$DWGCODEPAGE
  3
ANSI_932
  9
$INSBASE
 10
0.0
 20
0.0
 30
0.0
  9
$EXTMIN
 10
-923.0931599726059
 20
-760.705024809883
 30
0.0
  9
$EXTMAX
 10
1176.906840027395
 20
724.2949751901169
 30
0.0
  9
$LIMMIN
 10
-450.0
 20
-594.0
  9
$LIMMAX
 10
390.0000000000002
 20
594.0
  9
$ORTHOMODE
 70
     1
  9
$REGENMODE
 70
     1
  9
$FILLMODE
 70
     1
  9
$QTEXTMODE
 70
     0
  9
$MIRRTEXT
 70
     1
  9
$LTSCALE
 40
1.0
  9
$ATTMODE
 70
     1
  9
$TEXTSIZE
 40
16.66799926757812
  9
$TRACEWID
 40
0.05
  9
$TEXTSTYLE
  7
MX_NOTE_STANDARD
  9
$CLAYER
  8
DEFPOINTS
  9
$CELTYPE
  6
CONTINUOUS
  9
$CECOLOR
 62
   256
  9
$CELTSCALE
 40
1.0
  9
$DISPSILH
 70
     0
  9
$DIMSCALE
 40
4.0
  9
$DIMASZ
 40
2.5
  9
$DIMEXO
 40
1.269999980926513
  9
$DIMDLI
 40
3.75
  9
$DIMRND
 40
0.0
  9
$DIMDLE
 40
0.0
  9
$DIMEXE
 40
1.200000047683715
  9
$DIMTP
 40
0.0
  9
$DIMTM
 40
0.0
  9
$DIMTXT
 40
4.166999816894531
  9
$DIMCEN
 40
2.5
  9
$DIMTSZ
 40
0.0
  9
$DIMTOL
 70
     0
  9
$DIMLIM
 70
     0
  9
$DIMTIH
 70
     0
  9
$DIMTOH
 70
     0
  9
$DIMSE1
 70
     0
  9
$DIMSE2
 70
     0
  9
$DIMTAD
 70
     1
  9
$DIMZIN
 70
     8
  9
$DIMBLK
  1

  9
$DIMASO
 70
     1
  9
$DIMSHO
 70
     1
  9
$DIMPOST
  1

  9
$DIMAPOST
  1

  9
$DIMALT
 70
     0
  9
$DIMALTD
 70
     4
  9
$DIMALTF
 40
0.03937007874016
  9
$DIMLFAC
 40
1.0
  9
$DIMTOFL
 70
     1
  9
$DIMTVP
 40
0.0
  9
$DIMTIX
 70
     0
  9
$DIMSOXD
 70
     0
  9
$DIMSAH
 70
     0
  9
$DIMBLK1
  1

  9
$DIMBLK2
  1

  9
$DIMSTYLE
  2
MXDIMSTYLE
  9
$DIMCLRD
 70
     0
  9
$DIMCLRE
 70
     0
  9
$DIMCLRT
 70
     0
  9
$DIMTFAC
 40
1.0
  9
$DIMGAP
 40
1.0
  9
$DIMJUST
 70
     0
  9
$DIMSD1
 70
     0
  9
$DIMSD2
 70
     0
  9
$DIMTOLJ
 70
     1
  9
$DIMTZIN
 70
     0
  9
$DIMALTZ
 70
     0
  9
$DIMALTTZ
 70
     0
  9
$DIMUPT
 70
     1
  9
$DIMDEC
 70
     0
  9
$DIMTDEC
 70
     4
  9
$DIMALTU
 70
     2
  9
$DIMALTTD
 70
     4
  9
$DIMTXSTY
  7
MX_NOTE_STANDARD
  9
$DIMAUNIT
 70
     0
  9
$DIMADEC
 70
     0
  9
$DIMALTRND
 40
0.0
  9
$DIMAZIN
 70
     0
  9
$DIMDSEP
 70
     0
  9
$DIMATFIT
 70
     3
  9
$DIMFRAC
 70
     0
  9
$DIMLDRBLK
  1

  9
$DIMLUNIT
 70
     2
  9
$DIMLWD
 70
     0
  9
$DIMLWE
 70
     0
  9
$DIMTMOVE
 70
     0
  9
$LUNITS
 70
     2
  9
$LUPREC
 70
     2
  9
$SKETCHINC
 40
0.1
  9
$FILLETRAD
 40
0.0
  9
$AUNITS
 70
     0
  9
$AUPREC
 70
     0
  9
$MENU
  1
acad
  9
$ELEVATION
 40
0.0
  9
$PELEVATION
 40
0.0
  9
$THICKNESS
 40
0.0
  9
$LIMCHECK
 70
     0
  9
$CHAMFERA
 40
0.0
  9
$CHAMFERB
 40
0.0
  9
$CHAMFERC
 40
0.0
  9
$CHAMFERD
 40
0.0
  9
$SKPOLY
 70
     0
  9
$TDCREATE
 40
2454352.036504630
  9
$TDUCREATE
 40
2454351.661504630
  9
$TDUPDATE
 40
2457984.610752570
  9
$TDUUPDATE
 40
2457984.235752570
  9
$TDINDWG
 40
0.2603467708
  9
$TDUSRTIMER
 40
0.2603467361
  9
$USRTIMER
 70
     1
  9
$ANGBASE
 50
0.0
  9
$ANGDIR
 70
     0
  9
$PDMODE
 70
     0
  9
$PDSIZE
 40
0.0
  9
$PLINEWID
 40
0.0
  9
$SPLFRAME
 70
     0
  9
$SPLINETYPE
 70
     6
  9
$SPLINESEGS
 70
     8
  9
$HANDSEED
  5
E7E
  9
$SURFTAB1
 70
     6
  9
$SURFTAB2
 70
     6
  9
$SURFTYPE
 70
     6
  9
$SURFU
 70
     6
  9
$SURFV
 70
     6
  9
$UCSBASE
  2

  9
$UCSNAME
  2

  9
$UCSORG
 10
0.0
 20
0.0
 30
0.0
  9
$UCSXDIR
 10
1.0
 20
0.0
 30
0.0
  9
$UCSYDIR
 10
0.0
 20
1.0
 30
0.0
  9
$UCSORTHOREF
  2

  9
$UCSORTHOVIEW
 70
     0
  9
$UCSORGTOP
 10
0.0
 20
0.0
 30
0.0
  9
$UCSORGBOTTOM
 10
0.0
 20
0.0
 30
0.0
  9
$UCSORGLEFT
 10
0.0
 20
0.0
 30
0.0
  9
$UCSORGRIGHT
 10
0.0
 20
0.0
 30
0.0
  9
$UCSORGFRONT
 10
0.0
 20
0.0
 30
0.0
  9
$UCSORGBACK
 10
0.0
 20
0.0
 30
0.0
  9
$PUCSBASE
  2

  9
$PUCSNAME
  2

  9
$PUCSORG
 10
0.0
 20
0.0
 30
0.0
  9
$PUCSXDIR
 10
1.0
 20
0.0
 30
0.0
  9
$PUCSYDIR
 10
0.0
 20
1.0
 30
0.0
  9
$PUCSORTHOREF
  2

  9
$PUCSORTHOVIEW
 70
     0
  9
$PUCSORGTOP
 10
0.0
 20
0.0
 30
0.0
  9
$PUCSORGBOTTOM
 10
0.0
 20
0.0
 30
0.0
  9
$PUCSORGLEFT
 10
0.0
 20
0.0
 30
0.0
  9
$PUCSORGRIGHT
 10
0.0
 20
0.0
 30
0.0
  9
$PUCSORGFRONT
 10
0.0
 20
0.0
 30
0.0
  9
$PUCSORGBACK
 10
0.0
 20
0.0
 30
0.0
  9
$USERI1
 70
     0
  9
$USERI2
 70
     0
  9
$USERI3
 70
     0
  9
$USERI4
 70
     0
  9
$USERI5
 70
     0
  9
$USERR1
 40
0.0
  9
$USERR2
 40
0.0
  9
$USERR3
 40
0.0
  9
$USERR4
 40
0.0
  9
$USERR5
 40
0.0
  9
$WORLDVIEW
 70
     1
  9
$SHADEDGE
 70
     3
  9
$SHADEDIF
 70
    70
  9
$TILEMODE
 70
     1
  9
$MAXACTVP
 70
    16
  9
$PINSBASE
 10
0.0
 20
0.0
 30
0.0
  9
$PLIMCHECK
 70
     0
  9
$PEXTMIN
 10
1.000000000000000E+20
 20
1.000000000000000E+20
 30
1.000000000000000E+20
  9
$PEXTMAX
 10
-1.000000000000000E+20
 20
-1.000000000000000E+20
 30
-1.000000000000000E+20
  9
$PLIMMIN
 10
0.0
 20
0.0
  9
$PLIMMAX
 10
12.0
 20
9.0
  9
$UNITMODE
 70
     0
  9
$VISRETAIN
 70
     0
  9
$PLINEGEN
 70
     1
  9
$PSLTSCALE
 70
     0
  9
$TREEDEPTH
 70
  3020
  9
$CMLSTYLE
  2
Standard
  9
$CMLJUST
 70
     0
  9
$CMLSCALE
 40
1.0
  9
$PROXYGRAPHICS
 70
     1
  9
$MEASUREMENT
 70
     1
  9
$CELWEIGHT
370
     0
  9
$ENDCAPS
280
     0
  9
$JOINSTYLE
280
     0
  9
$LWDISPLAY
290
     0
  9
$INSUNITS
 70
     0
  9
$HYPERLINKBASE
  1

  9
$STYLESHEET
  1

  9
$XEDIT
290
     1
  9
$CEPSNTYPE
380
     0
  9
$PSTYLEMODE
290
     1
  9
$FINGERPRINTGUID
  2

  9
$VERSIONGUID
  2
{384F76CF-13BD-4D2C-A065-BFDECFD56E18}
  9
$EXTNAMES
290
     1
  9
$PSVPSCALE
 40
0.0
  9
$OLESTARTUP
290
     0
  0
ENDSEC
  0
SECTION
  2
CLASSES
  0
CLASS
  1
IMAGE
  2
AcDbRasterImage
  3
ISM
 90
    34943
280
     0
281
     1
  0
CLASS
  1
DICTIONARYVAR
  2
AcDbDictionaryVar
  3
ObjectDBX Classes
 90
        0
280
     0
281
     0
  0
CLASS
  1
RASTERVARIABLES
  2
AcDbRasterVariables
  3
ISM
 90
    32768
280
     0
281
     0
  0
CLASS
  1
IMAGEDEF
  2
AcDbRasterImageDef
  3
ISM
 90
    32768
280
     0
281
     0
  0
CLASS
  1
IMAGEDEF_REACTOR
  2
AcDbRasterImageDefReactor
  3
ISM
 90
    32769
280
     0
281
     0
  0
CLASS
  1
IDBUFFER
  2
AcDbIdBuffer
  3
ObjectDBX Classes
 90
    32768
280
     0
281
     0
  0
CLASS
  1
SPATIAL_FILTER
  2
AcDbSpatialFilter
  3
ObjectDBX Classes
 90
    32768
280
     0
281
     0
  0
CLASS
  1
SORTENTSTABLE
  2
AcDbSortentsTable
  3
ObjectDBX Classes
 90
        0
280
     0
281
     0
  0
CLASS
  1
LAYER_INDEX
  2
AcDbLayerIndex
  3
ObjectDBX Classes
 90
    32768
280
     0
281
     0
  0
CLASS
  1
SPATIAL_INDEX
  2
AcDbSpatialIndex
  3
ObjectDBX Classes
 90
    32768
280
     0
281
     0
  0
CLASS
  1
OBJECT_PTR
  2
CAseDLPNTableRecord
  3
ASE-LPNTableRecord
 90
    32769
280
     0
281
     0
  0
CLASS
  1
PLOTSETTINGS
  2
AcDbPlotSettings
  3
ObjectDBX Classes
 90
    32768
280
     0
281
     0
  0
CLASS
  1
ACDBDICTIONARYWDFLT
  2
AcDbDictionaryWithDefault
  3
ObjectDBX Classes
 90
        0
280
     0
281
     0
  0
CLASS
  1
MATERIAL
  2
AcDbMaterial
  3
ObjectDBX Classes
 90
     1153
280
     0
281
     0
  0
CLASS
  1
VISUALSTYLE
  2
AcDbVisualStyle
  3
ObjectDBX Classes
 90
     4095
280
     0
281
     0
  0
CLASS
  1
TABLESTYLE
  2
AcDbTableStyle
  3
ObjectDBX Classes
 90
     4095
280
     0
281
     0
  0
CLASS
  1
ACME_DOCUMENT
  2
AcMeDbDoc
  3
AcMeServices
 90
     1024
280
     0
281
     0
  0
CLASS
  1
AMGSETTINGSOBJ
  2
AmgSettingsObj
  3
"AcadM|Product Description: AutoCAD Mechanical|Company: Autodesk, Inc."
 90
     1024
280
     0
281
     0
  0
CLASS
  1
ACMESCOPE
  2
AcMeScope
  3
AcMeServices
 90
     1024
280
     0
281
     0
  0
CLASS
  1
ACMECOMMANDHISTORY
  2
AcMeCommandHistory
  3
AcMeServices
 90
     1024
280
     0
281
     0
  0
CLASS
  1
ACIMSYSVARMAN
  2
AcImSysVarManager
  3
AcMeServices
 90
     1024
280
     0
281
     0
  0
CLASS
  1
ACIMINTSYSVAR
  2
AcImIntSysVar
  3
AcMeServices
 90
     1024
280
     0
281
     0
  0
CLASS
  1
ACMEDRAWINGMAN
  2
AcMeDrawingMan
  3
AcMeServices
 90
     1024
280
     0
281
     0
  0
CLASS
  1
ACMEVIEW
  2
AcMeView
  3
AcMeServices
 90
     1024
280
     0
281
     0
  0
CLASS
  1
ACDBENTITYCACHE
  2
AcMeEntityCache
  3
AcMeServices
 90
     1024
280
     0
281
     0
  0
CLASS
  1
GSMANAGER
  2
AcMeGSManager
  3
AcMeServices
 90
    32768
280
     0
281
     0
  0
CLASS
  1
AMDTINTERNALREACTOR
  2
AmdtInternalReactor
  3
AcMeServices
 90
     1024
280
     0
281
     0
  0
CLASS
  1
ACMESTATEMGR
  2
AcMeStateMgr
  3
AcMeServices
 90
     1024
280
     0
281
     0
  0
CLASS
  1
ACGREFMASTER
  2
AcGrefMaster
  3
AcAttribServices
 90
     1024
280
     0
281
     0
  0
CLASS
  1
AM_DRAWING_MGR
  2
AcDmDwgMgr
  3
AcMechDwgViewMgmt
 90
     1024
280
     0
281
     0
  0
CLASS
  1
AM_DWG_DOCUMENT
  2
AcDmDwgDocument
  3
AcMechDwgViewMgmt
 90
     1024
280
     0
281
     0
  0
CLASS
  1
AM_DWG_SHEET
  2
AcDmSheet
  3
AcMechDwgViewMgmt
 90
     1024
280
     0
281
     0
  0
CLASS
  1
AM_VIEWDIMPARMAP
  2
AcDmViewDimParMap
  3
AcMechDwgViewMgmt
 90
     1024
280
     0
281
     0
  0
CLASS
  1
ACIMREALSYSVAR
  2
AcImRealSysVar
  3
AcMeServices
 90
     1024
280
     0
281
     0
  0
CLASS
  1
AM_DWGMGR_NAME
  2
AcDmDwgMgrName
  3
AcMechDwgViewMgmt
 90
     1024
280
     0
281
     0
  0
CLASS
  1
ACME_DATABASE
  2
AcMeDbDatabase
  3
AcMeServices
 90
     1024
280
     0
281
     0
  0
CLASS
  1
ACRFINSADJUSTERMGR
  2
AcRfInsAdjusterMgr
  3
AcMeServices
 90
     1024
280
     0
281
     0
  0
CLASS
  1
ACGREFACADMASTER
  2
AcGrefacadMaster
  3
AcGrefServices
 90
     1024
280
     0
281
     0
  0
CLASS
  1
AMDTMENUSTATEMGR
  2
AmdtMenuStateMgr
  3
McadcomServices
 90
     1024
280
     0
281
     0
  0
CLASS
  1
AMDTMCOMMENUSTATE
  2
AmdtMcomMenuState
  3
McadcomServices
 90
     1024
280
     0
281
     0
  0
CLASS
  1
AMIMASTER
  2
AmiMaster
  3
AmiServices
 90
     1024
280
     0
281
     0
  0
CLASS
  1
MAPIAMMOUDLE
  2
MApiAmModule
  3
MApiAmServices
 90
     1024
280
     0
281
     0
  0
CLASS
  1
ACIMSTRSYSVAR
  2
AcImStrSysVar
  3
AcMeServices
 90
     1024
280
     0
281
     0
  0
CLASS
  1
AMDTADMENUSTATE
  2
AmdtAdMenuState
  3
DesignerServices
 90
     1024
280
     0
281
     0
  0
CLASS
  1
ADAPPL
  2
AcAdAppl
  3
DesignerServices
 90
     1024
280
     0
281
     0
  0
CLASS
  1
DEPMGR
  2
AcAdDepMgr
  3
DesignerServices
 90
     1024
280
     0
281
     0
  0
CLASS
  1
PARAMMGR
  2
AcAdParamMgr
  3
DesignerServices
 90
     1024
280
     0
281
     0
  0
CLASS
  1
PARAMSCOPE
  2
AcAdParamScope
  3
DesignerServices
 90
     1024
280
     0
281
     0
  0
CLASS
  1
NAMEDAPPL
  2
AcAdNamedAppl
  3
DesignerServices
 90
     1024
280
     0
281
     0
  0
CLASS
  1
AMDTDMMENUSTATE
  2
AmdtDmMenuState
  3
AcMechDwgViewMgmt
 90
     1024
280
     0
281
     0
  0
CLASS
  1
AMDTAMMENUSTATE
  2
AmdtAmMenuState
  3
DesignerAssemblies
 90
     1024
280
     0
281
     0
  0
CLASS
  1
ACAMPROJECT
  2
AcAmProject
  3
DesignerAssemblies
 90
     1024
280
     0
281
     0
  0
CLASS
  1
ACAMGRCOMPDEF
  2
AcAmGrCompDef
  3
DesignerAssemblies
 90
     1024
280
     0
281
     0
  0
CLASS
  1
ACCMCONTEXT
  2
AcCmContext
  3
DesignerAssemblies
 90
    33792
280
     0
281
     0
  0
CLASS
  1
ACAMCOMPDEF
  2
AcAmCompDef
  3
DesignerAssemblies
 90
     1024
280
     0
281
     0
  0
CLASS
  1
ACAMCOMPDEFMGR
  2
AcAmCompDefMgr
  3
DesignerAssemblies
 90
     1024
280
     0
281
     0
  0
CLASS
  1
AMCONTEXTMGR
  2
AcAmContextMgr
  3
DesignerAssemblies
 90
     1024
280
     0
281
     0
  0
CLASS
  1
ACAMCONTEXTMODELER
  2
AcAmContextModeler
  3
DesignerAssemblies
 90
     1024
280
     0
281
     0
  0
CLASS
  1
ACMDATADICTIONARY
  2
AcmDataDictionary
  3
"AcmSymBB|Product Description: AutoCAD Mechanical|Company: Autodesk, Inc."
 90
     1024
280
     0
281
     0
  0
CLASS
  1
CATALOGSTATE
  2
AcAmCatalogState
  3
DesignerAssemblies
 90
     1024
280
     0
281
     0
  0
CLASS
  1
ACAMGRCOMPDEFSET
  2
AcAmGrCompDefSet
  3
DesignerAssemblies
 90
     1024
280
     0
281
     0
  0
CLASS
  1
AMDTBROWSERDBTAB
  2
AmdtBrowserDbTab
  3
McadcomServices
 90
     1024
280
     0
281
     0
  0
CLASS
  1
CBROWSERAPPOBJECT
  2
CBrowserAppObject
  3
McadcomServices
 90
     1024
280
     0
281
     0
  0
CLASS
  1
DM_PLACEHOLDER
  2
AcDmSelsetPlaceholder
  3
AcMechDwgViewMgmt
 90
     1024
280
     0
281
     0
  0
CLASS
  1
ACMSTANDARDISO
  2
AcmStandardISO
  3
"Amdt_StdImp|Product Description: AutoCAD Mechanical|Company: Autodesk, Inc."
 90
     1024
280
     0
281
     0
  0
CLASS
  1
AMGOBJPROPCFG
  2
AmgObjPropCfg
  3
"AmgLay|Product Description: AutoCAD Mechanical|Company: Autodesk, Inc."
 90
     1025
280
     0
281
     0
  0
CLASS
  1
AMDTEDGESTANDARDISO13715
  2
AmdtEdgeStdISO13715
  3
"Amdt_StdImp|Product Description: AutoCAD Mechanical|Company: Autodesk, Inc."
 90
     1024
280
     0
281
     0
  0
CLASS
  1
ACMSURFSTANDARDISO
  2
AcmSurfTextStdISO
  3
"Amdt_StdImp|Product Description: AutoCAD Mechanical|Company: Autodesk, Inc."
 90
    33792
280
     0
281
     0
  0
CLASS
  1
ACMFCFSTANDARDISO
  2
AcmFCFStdISO
  3
"Amdt_StdImp|Product Description: AutoCAD Mechanical|Company: Autodesk, Inc."
 90
     1024
280
     0
281
     0
  0
CLASS
  1
ACMWELDSTANDARDISO
  2
AcmWeldingStdISO
  3
"Amdt_StdImp|Product Description: AutoCAD Mechanical|Company: Autodesk, Inc."
 90
     1024
280
     0
281
     0
  0
CLASS
  1
ACMIDSTANDARDISO
  2
AcmIdStdISO
  3
"Amdt_StdImp|Product Description: AutoCAD Mechanical|Company: Autodesk, Inc."
 90
     1024
280
     0
281
     0
  0
CLASS
  1
ACMDATUMSTANDARDISO
  2
AcmDatumStdISO
  3
"Amdt_StdImp|Product Description: AutoCAD Mechanical|Company: Autodesk, Inc."
 90
     1024
280
     0
281
     0
  0
CLASS
  1
ACMBOMSTANDARDISO
  2
AcmBOMStdISO
  3
"Amdt_StdImp|Product Description: AutoCAD Mechanical|Company: Autodesk, Inc."
 90
     1024
280
     0
281
     0
  0
CLASS
  1
ACMDETAILSTANDARDISO
  2
AmdtDetailSymStdISO
  3
"Amdt_StdImp|Product Description: AutoCAD Mechanical|Company: Autodesk, Inc."
 90
     1024
280
     0
281
     0
  0
CLASS
  1
ACMSECTIONSTANDARDISO
  2
AmdtSectionSymStdISO
  3
"Amdt_StdImp|Product Description: AutoCAD Mechanical|Company: Autodesk, Inc."
 90
    33792
280
     0
281
     0
  0
CLASS
  1
ACMCENTERLINESTANDARDISO
  2
AmdtCenterLineStdISO
  3
"Amdt_StdImp|Product Description: AutoCAD Mechanical|Company: Autodesk, Inc."
 90
     1024
280
     0
281
     0
  0
CLASS
  1
ACMTHREADLINESTANDARDISO
  2
AmdtThreadLineStdISO
  3
"Amdt_StdImp|Product Description: AutoCAD Mechanical|Company: Autodesk, Inc."
 90
     1024
280
     0
281
     0
  0
CLASS
  1
ACMNOTESTANDARDISO
  2
AmdtNoteStdISO
  3
"Amdt_StdImp|Product Description: AutoCAD Mechanical|Company: Autodesk, Inc."
 90
     1024
280
     0
281
     0
  0
CLASS
  1
ACMTAPERSTANDARDISO
  2
AcmTaperStdISO
  3
"Amdt_StdImp|Product Description: AutoCAD Mechanical|Company: Autodesk, Inc."
 90
     1024
280
     0
281
     0
  0
CLASS
  1
AMDTNOTETEMPLATEDB
  2
AmdtNoteTemplateDB
  3
AcmSymBB|Product Description: AutoCAD Mechanical|Company: Autodesk, Inc.
 90
     1024
280
     0
281
     0
  0
CLASS
  1
ACAMGLAYSTD
  2
AcAmgLayStd
  3
"AmgLay|Product Description: AutoCAD Mechanical|Company: Autodesk, Inc."
 90
     1024
280
     0
281
     0
  0
CLASS
  1
ACAMGDIMSTD
  2
AcAmgDimStd
  3
"AmgDim|Product Description: AutoCAD Mechanical|Company: Autodesk, Inc."
 90
     1024
280
     0
281
     0
  0
CLASS
  1
ACAMGHOLECHARTSTDISO
  2
AcAmgHoleChartStdISO
  3
AmgDim|Product Description: AutoCAD Mechanical|Company: Autodesk, Inc.
 90
     1024
280
     0
281
     0
  0
CLASS
  1
ACAMGTITLESTD
  2
AcAmgTitleStd
  3
"AmgTitle|Product Description: AutoCAD Mechanical|Company: Autodesk, Inc."
 90
     4095
280
     0
281
     0
  0
CLASS
  1
ACAMGFILTERDAT
  2
AcAmgFilterDat
  3
"AcadM|Product Description: AutoCAD Mechanical|Company: Autodesk, Inc."
 90
    33792
280
     0
281
     0
  0
CLASS
  1
CAMSSTRUCTBTNSTATE
  2
StructBtnState
  3
DesignerAssemblies
 90
    33792
280
     0
281
     0
  0
CLASS
  1
SCALE
  2
AcDbScale
  3
ObjectDBX Classes
 90
     1153
280
     0
281
     0
  0
CLASS
  1
MLEADERSTYLE
  2
AcDbMLeaderStyle
  3
ACDB_MLEADERSTYLE_CLASS
 90
     4095
280
     0
281
     0
  0
CLASS
  1
ACMANOOTATIONVIEWSTANDARDISO
  2
AmdtAnViewStdISO
  3
"Amdt_StdImp|Product Description: AutoCAD Mechanical|Company: Autodesk, Inc."
 90
     1024
280
     0
281
     0
  0
CLASS
  1
CELLSTYLEMAP
  2
AcDbCellStyleMap
  3
ObjectDBX Classes
 90
     1152
280
     0
281
     0
  0
CLASS
  1
ACMSURFSTANDARDISO2002
  2
AcmSurfTextStdISO2002
  3
"Amdt_StdImp|Product Description: AutoCAD Mechanical|Company: Autodesk, Inc."
 90
     1024
280
     0
281
     0
  0
CLASS
  1
ACMSECTIONSTANDARDISO2001
  2
AmdtSectionSymStdISO2001
  3
"Amdt_StdImp|Product Description: AutoCAD Mechanical|Company: Autodesk, Inc."
 90
     1024
280
     0
281
     0
  0
CLASS
  1
AEC_REFEDIT_STATUS_TRACKER
  2
AecDbRefEditStatusTracker
  3
AecArchBase60|Product Desc: Autodesk Architectural Desktop 2007 |Company: Autodesk,Inc. |WEB Address: www.autodesk.com
 90
      129
280
     0
281
     0
  0
CLASS
  1
NPOCOLLECTION
  2
AcDbImpNonPersistentObjectsCollection
  3
ObjectDBX Classes
 90
     1153
280
     0
281
     0
  0
CLASS
  1
ACDBPLACEHOLDER
  2
AcDbPlaceHolder
  3
ObjectDBX Classes
 90
        0
280
     0
281
     0
  0
CLASS
  1
LAYOUT
  2
AcDbLayout
  3
ObjectDBX Classes
 90
        0
280
     0
281
     0
  0
ENDSEC
  0
SECTION
  2
TABLES
  0
TABLE
  2
VPORT
  5
7
330
0
100
AcDbSymbolTable
 70
     1
  0
VPORT
  5
15
330
7
100
AcDbSymbolTableRecord
100
AcDbViewportTableRecord
  2
*ACTIVE
 70
     0
 10
0.0
 20
0.0
 11
1.0
 21
1.0
 12
1531.931465675161
 22
114.5908006830077
 13
0.0
 23
0.0
 14
1.0
 24
1.0
 15
0.0
 25
0.0
 16
0.0
 26
0.0
 36
1.0
 17
0.0
 27
0.0
 37
0.0
 40
3197.38020472535
 41
1.550978372811534
 42
50.0
 43
0.0
 44
0.0
 50
0.0
 51
0.0
 71
     0
 72
   100
 73
     1
 74
     1
 75
     0
 76
     0
 77
     0
 78
     0
281
     0
 65
     0
110
0.0
120
0.0
130
0.0
111
1.0
121
0.0
131
0.0
112
0.0
122
1.0
132
0.0
 79
     0
146
0.0
  0
ENDTAB
  0
TABLE
  2
LTYPE
  5
4
330
0
100
AcDbSymbolTable
 70
    16
  0
LTYPE
  5
11
330
4
100
AcDbSymbolTableRecord
100
AcDbLinetypeTableRecord
  2
BYBLOCK
 70
     0
  3

 72
    65
 73
     0
 40
0.0
  0
LTYPE
  5
12
330
4
100
AcDbSymbolTableRecord
100
AcDbLinetypeTableRecord
  2
BYLAYER
 70
     0
  3

 72
    65
 73
     0
 40
0.0
  0
LTYPE
  5
13
330
4
100
AcDbSymbolTableRecord
100
AcDbLinetypeTableRecord
  2
CONTINUOUS
 70
     0
  3
Solid line
 72
    65
 73
     0
 40
0.0
  0
LTYPE
  5
126
330
4
100
AcDbSymbolTableRecord
100
AcDbLinetypeTableRecord
  2
CENTER
 70
     0
  3
Center ____ _ ____ _ ____ _ ____ _ ____ _ ____
 72
    65
 73
     4
 40
50.8
 49
31.75
 74
     0
 49
-6.349999999999998
 74
     0
 49
6.349999999999998
 74
     0
 49
-6.349999999999998
 74
     0
  0
LTYPE
  5
1EB
330
4
100
AcDbSymbolTableRecord
100
AcDbLinetypeTableRecord
  2
NON_PLOTING
 70
     0
  3
Solid line
 72
    65
 73
     0
 40
0.0
  0
LTYPE
  5
23D
330
4
100
AcDbSymbolTableRecord
100
AcDbLinetypeTableRecord
  2
HIDDEN
 70
     0
  3
Hidden __ __ __ __ __ __ __ __ __ __ __ __ __ _
 72
    65
 73
     2
 40
9.524999999999996
 49
6.349999999999998
 74
     0
 49
-3.174999999999998
 74
     0
  0
LTYPE
  5
23E
330
4
100
AcDbSymbolTableRecord
100
AcDbLinetypeTableRecord
  2
PHANTOM2
 70
     0
  3
Phantom (.5x) ___ _ _ ___ _ _ ___ _ _ ___ _ _
 72
    65
 73
     6
 40
31.75
 49
15.875
 74
     0
 49
-3.174999999999998
 74
     0
 49
3.174999999999998
 74
     0
 49
-3.174999999999998
 74
     0
 49
3.174999999999998
 74
     0
 49
-3.174999999999998
 74
     0
  0
LTYPE
  5
273
330
4
100
AcDbSymbolTableRecord
100
AcDbLinetypeTableRecord
  2
AM_ISO02W050
 70
     0
  3
__ __ __ __ __ __ __ __ __ __ __ __ __ __ __
 72
    65
 73
     2
 40
7.5
 49
6.0
 74
     0
 49
-1.5
 74
     0
  0
LTYPE
  5
274
330
4
100
AcDbSymbolTableRecord
100
AcDbLinetypeTableRecord
  2
AM_ISO08W050
 70
     0
  3
____ . ____ . ____ . ____ . ____ . ____ . ____
 72
    65
 73
     4
 40
18.0
 49
12.0
 74
     0
 49
-1.5
 74
     0
 49
3.0
 74
     0
 49
-1.5
 74
     0
  0
LTYPE
  5
275
330
4
100
AcDbSymbolTableRecord
100
AcDbLinetypeTableRecord
  2
AM_ISO09W050
 70
     0
  3
_____ . . _____ . . _____ . . ____ .. ____
 72
    65
 73
     6
 40
22.5
 49
12.0
 74
     0
 49
-1.5
 74
     0
 49
3.0
 74
     0
 49
-1.5
 74
     0
 49
3.0
 74
     0
 49
-1.5
 74
     0
  0
LTYPE
  5
276
330
4
100
AcDbSymbolTableRecord
100
AcDbLinetypeTableRecord
  2
Amconstr
 70
     0
  3
_______________________
 72
    65
 73
     2
 40
9999.0
 49
9999.0
 74
     0
 49
0.0
 74
     0
  0
LTYPE
  5
277
330
4
100
AcDbSymbolTableRecord
100
AcDbLinetypeTableRecord
  2
AM_ISO08W050x2
 70
     0
  3
__ . __ . __ . __ . __ . __
 72
    65
 73
     4
 40
9.0
 49
6.0
 74
     0
 49
-0.75
 74
     0
 49
1.5
 74
     0
 49
-0.75
 74
     0
  0
LTYPE
  5
278
330
4
100
AcDbSymbolTableRecord
100
AcDbLinetypeTableRecord
  2
AM_ISO02W050x2
 70
     0
  3
 _ _ _ _ _ _ _ _ _ _ _ _
 72
    65
 73
     2
 40
3.75
 49
3.0
 74
     0
 49
-0.75
 74
     0
  0
LTYPE
  5
27B
330
4
100
AcDbSymbolTableRecord
100
AcDbLinetypeTableRecord
  2
Amzigzag
 70
     0
  3
/\/-/\/-/\/-/\/-/\/-/\/
 72
    65
 73
     2
 40
11.0001
 49
0.0001
 74
     4
 75
   136
340
27A
 46
0.04
 50
0.0
 44
0.0
 45
0.0
 49
-11.0
 74
     0
  0
LTYPE
  5
28B
330
4
100
AcDbSymbolTableRecord
100
AcDbLinetypeTableRecord
  2
ACISOWELD
 70
     0
  3
_ _ _ _ _
 72
    65
 73
     2
 40
2.0
 49
2.0
 74
     0
 49
-1.0
 74
     0
  0
LTYPE
  5
28C
330
4
100
AcDbSymbolTableRecord
100
AcDbLinetypeTableRecord
  2
ACISOTGB
 70
     0
  3
__ . . __ . .
 72
    65
 73
     6
 40
9.0
 49
4.0
 74
     0
 49
-1.0
 74
     0
 49
1.0
 74
     0
 49
-1.0
 74
     0
 49
1.0
 74
     0
 49
-1.0
 74
     0
  0
LTYPE
  5
28D
330
4
100
AcDbSymbolTableRecord
100
AcDbLinetypeTableRecord
  2
ACISOTGL
 70
     0
  3
_ _ _ _ _
 72
    65
 73
     2
 40
3.0
 49
2.0
 74
     0
 49
-1.0
 74
     0
  0
ENDTAB
  0
TABLE
  2
LAYER
  5
2
102
{ACAD_XDICTIONARY
360
318
102
}
330
0
100
AcDbSymbolTable
 70
     9
  0
LAYER
  5
14
102
{ACAD_XDICTIONARY
360
2E9
102
}
330
2
100
AcDbSymbolTableRecord
100
AcDbLayerTableRecord
  2
0
 70
     0
 62
     7
  6
CONTINUOUS
370
    -3
390
1D
  0
LAYER
  5
23
330
2
100
AcDbSymbolTableRecord
100
AcDbLayerTableRecord
  2
DEFPOINTS
 70
     0
 62
     7
  6
CONTINUOUS
290
     0
370
    -3
390
1D
  0
LAYER
  5
24
102
{ACAD_XDICTIONARY
360
2EB
102
}
330
2
100
AcDbSymbolTableRecord
100
AcDbLayerTableRecord
  2
PV
 70
     0
 62
     7
  6
CONTINUOUS
370
    -3
390
1D
  0
LAYER
  5
25
102
{ACAD_XDICTIONARY
360
2ED
102
}
330
2
100
AcDbSymbolTableRecord
100
AcDbLayerTableRecord
  2
FV
 70
     0
 62
     7
  6
CONTINUOUS
370
    -3
390
1D
  0
LAYER
  5
641
330
2
100
AcDbSymbolTableRecord
100
AcDbLayerTableRecord
  2
AM_5
 70
     0
 62
     3
  6
CONTINUOUS
370
    25
390
1D
1001
AcAecLayerStandard
1000

1000

  0
LAYER
  5
E13
102
{ACAD_XDICTIONARY
360
E14
102
}
330
2
100
AcDbSymbolTableRecord
100
AcDbLayerTableRecord
  2
HIDDEN1
 70
     0
 62
     3
  6
HIDDEN
370
    18
390
1D
  0
LAYER
  5
E15
102
{ACAD_XDICTIONARY
360
E16
102
}
330
2
100
AcDbSymbolTableRecord
100
AcDbLayerTableRecord
  2
HATCH
 70
     0
 62
     7
  6
CONTINUOUS
370
    18
390
1D
  0
LAYER
  5
E17
102
{ACAD_XDICTIONARY
360
E18
102
}
330
2
100
AcDbSymbolTableRecord
100
AcDbLayerTableRecord
  2
M1
 70
     0
 62
     7
  6
CONTINUOUS
370
    -3
390
1D
  0
LAYER
  5
E19
102
{ACAD_XDICTIONARY
360
E1A
102
}
330
2
100
AcDbSymbolTableRecord
100
AcDbLayerTableRecord
  2
M2
 70
     0
 62
     7
  6
CONTINUOUS
370
    -3
390
1D
  0
ENDTAB
  0
TABLE
  2
STYLE
  5
3
330
0
100
AcDbSymbolTable
 70
     9
  0
STYLE
  5
17
330
3
100
AcDbSymbolTableRecord
100
AcDbTextStyleTableRecord
  2
MX_NOTE_STANDARD
 70
     0
 40
0.0
 41
1.0
 50
0.0
 71
     0
 42
16.66799926757812
  3
txt.shx
  4
extfont.shx
  0
STYLE
  5
A1
330
3
100
AcDbSymbolTableRecord
100
AcDbTextStyleTableRecord
  2
MX_DIMTXSTY_2
 70
     0
 40
0.0
 41
0.9
 50
0.0
 71
     0
 42
16.66799926757812
  3
txt.shx
  4
extfont.shx
  0
STYLE
  5
CD
330
3
100
AcDbSymbolTableRecord
100
AcDbTextStyleTableRecord
  2
MX_DIMTXSTY_3
 70
     0
 40
0.0
 41
0.8
 50
0.0
 71
     0
 42
16.66799926757812
  3
txt.shx
  4
extfont.shx
  0
STYLE
  5
DB
330
3
100
AcDbSymbolTableRecord
100
AcDbTextStyleTableRecord
  2
MX_DIMTXSTY_4
 70
     0
 40
0.0
 41
1.199999999999999
 50
0.0
 71
     0
 42
16.66799926757812
  3
txt.shx
  4
extfont.shx
  0
STYLE
  5
F6
330
3
100
AcDbSymbolTableRecord
100
AcDbTextStyleTableRecord
  2
MX_DIMTXSTY_5
 70
     0
 40
0.0
 41
1.1
 50
0.0
 71
     0
 42
16.66799926757812
  3
txt.shx
  4
extfont.shx
  0
STYLE
  5
27A
330
3
100
AcDbSymbolTableRecord
100
AcDbTextStyleTableRecord
  2

 70
     1
 40
0.0
 41
1.0
 50
0.0
 71
     0
 42
16.66799926757812
  3
genltshp.shx
  4

  0
STYLE
  5
27C
330
3
100
AcDbSymbolTableRecord
100
AcDbTextStyleTableRecord
  2
ACISOTS
 70
     0
 40
1.0
 41
1.0
 50
0.0
 71
     0
 42
16.66799926757812
  3
isocp.shx
  4
extfont.shx
  0
STYLE
  5
28A
330
3
100
AcDbSymbolTableRecord
100
AcDbTextStyleTableRecord
  2
ACISOGDT
 70
     0
 40
0.0
 41
1.0
 50
0.0
 71
     0
 42
16.66799926757812
  3
amgdt.shx
  4

  0
STYLE
  5
C4E
330
3
100
AcDbSymbolTableRecord
100
AcDbTextStyleTableRecord
  2
Standard
 70
     0
 40
0.0
 41
1.0
 50
0.0
 71
     0
 42
0.2
  3

  4

  0
ENDTAB
  0
TABLE
  2
VIEW
  5
5
330
0
100
AcDbSymbolTable
 70
     0
  0
ENDTAB
  0
TABLE
  2
UCS
  5
6
330
0
100
AcDbSymbolTable
 70
     0
  0
ENDTAB
  0
TABLE
  2
APPID
  5
8
330
0
100
AcDbSymbolTable
 70
    18
  0
APPID
  5
16
330
8
100
AcDbSymbolTableRecord
100
AcDbRegAppTableRecord
  2
ACAD
 70
     0
  0
APPID
  5
210
330
8
100
AcDbSymbolTableRecord
100
AcDbRegAppTableRecord
  2
MCAD_NO_VIS
 70
     0
  0
APPID
  5
211
330
8
100
AcDbSymbolTableRecord
100
AcDbRegAppTableRecord
  2
ACAD_TEMP_GRAPHIC
 70
     0
  0
APPID
  5
240
330
8
100
AcDbSymbolTableRecord
100
AcDbRegAppTableRecord
  2
AD_DRAW
 70
     0
  0
APPID
  5
243
330
8
100
AcDbSymbolTableRecord
100
AcDbRegAppTableRecord
  2
ACATTRIBSERVICES
 70
     0
  0
APPID
  5
264
330
8
100
AcDbSymbolTableRecord
100
AcDbRegAppTableRecord
  2
DESIGNERASSEMBLIES
 70
     0
  0
APPID
  5
26A
330
8
100
AcDbSymbolTableRecord
100
AcDbRegAppTableRecord
  2
ACADM_DIM_EDIT
 70
     0
  0
APPID
  5
26B
330
8
100
AcDbSymbolTableRecord
100
AcDbRegAppTableRecord
  2
AMDT_DM_ADJ
 70
     0
  0
APPID
  5
2E1
330
8
100
AcDbSymbolTableRecord
100
AcDbRegAppTableRecord
  2
DCO15
 70
     0
  0
APPID
  5
30D
330
8
100
AcDbSymbolTableRecord
100
AcDbRegAppTableRecord
  2
ACAD_EXEMPT_FROM_CAD_STANDARDS
 70
     0
  0
APPID
  5
36F
330
8
100
AcDbSymbolTableRecord
100
AcDbRegAppTableRecord
  2
ACAD_PSEXT
 70
     0
  0
APPID
  5
48F
330
8
100
AcDbSymbolTableRecord
100
AcDbRegAppTableRecord
  2
ACAD_DSTYLE_DIMJAG
 70
     0
  0
APPID
  5
490
330
8
100
AcDbSymbolTableRecord
100
AcDbRegAppTableRecord
  2
ACAD_DSTYLE_DIMBREAK
 70
     0
  0
APPID
  5
642
330
8
100
AcDbSymbolTableRecord
100
AcDbRegAppTableRecord
  2
AcAecLayerStandard
 70
     0
  0
APPID
  5
65B
330
8
100
AcDbSymbolTableRecord
100
AcDbRegAppTableRecord
  2
ACAD_DSTYLE_DIMINSPECT
 70
     0
  0
APPID
  5
849
330
8
100
AcDbSymbolTableRecord
100
AcDbRegAppTableRecord
  2
GENIUS_GENDTOL_13
 70
     0
  0
APPID
  5
E64
330
8
100
AcDbSymbolTableRecord
100
AcDbRegAppTableRecord
  2
ACAD_DSTYLE_DIMARC_LENGTH_SYMBOL
 70
     0
  0
APPID
  5
E6B
330
8
100
AcDbSymbolTableRecord
100
AcDbRegAppTableRecord
  2
ACAD_MLEADERVER
 70
     0
  0
ENDTAB
  0
TABLE
  2
DIMSTYLE
  5
9
330
0
100
AcDbSymbolTable
 70
     9
100
AcDbDimStyleTable
 71
     1
340
18
  0
DIMSTYLE
105
18
102
{ACAD_REACTORS
330
A7
330
D3
102
}
330
9
100
AcDbSymbolTableRecord
100
AcDbDimStyleTableRecord
  2
MXDIMSTYLE
 70
     0
 40
4.0
 41
2.5
 42
1.269999980926513
 43
3.75
 44
1.200000047683715
 73
     0
 74
     0
 77
     1
 78
     8
140
4.166999816894531
141
2.5
143
0.03937007874016
144
0.25
147
1.0
171
     4
172
     1
274
     4
288
     1
340
17
  0
DIMSTYLE
105
298
102
{ACAD_REACTORS
330
CAB
102
}
330
9
100
AcDbSymbolTableRecord
100
AcDbDimStyleTableRecord
  2
AM_ISO
 70
     0
  4
"
 41
2.5
 42
1.0
 43
10.0
 44
1.0
 47
0.1
 48
0.1
 73
     0
 74
     0
 77
     1
 78
     8
 79
     2
140
3.5
141
0.0
143
0.0393701
146
0.71
147
1.5
172
     1
176
   256
177
   256
178
     2
271
     2
272
     3
274
     4
283
     0
284
     8
340
17
371
    -1
372
    -1
1001
ACAD_DSTYLE_DIMARC_LENGTH_SYMBOL
1070
   379
1070
     1
  0
DIMSTYLE
105
299
330
9
100
AcDbSymbolTableRecord
100
AcDbDimStyleTableRecord
  2
AM_ISO$3
 70
     0
  4
"
 41
2.5
 42
1.0
 43
10.0
 44
1.0
 47
0.1
 48
0.1
 73
     0
 77
     1
 78
     8
 79
     2
140
3.5
141
0.0
143
0.0393701
146
0.71
147
1.5
176
   256
177
   256
178
     2
271
     2
272
     3
274
     4
283
     0
284
     8
288
     1
289
     0
340
17
371
    -1
372
    -1
1001
ACAD_DSTYLE_DIMARC_LENGTH_SYMBOL
1070
   379
1070
     1
  0
DIMSTYLE
105
29A
330
9
100
AcDbSymbolTableRecord
100
AcDbDimStyleTableRecord
  2
AM_ISO$4
 70
     0
  4
"
 41
2.5
 42
1.0
 43
10.0
 44
1.0
 47
0.1
 48
0.1
 73
     0
 77
     1
 78
     8
 79
     2
140
3.5
141
0.0
143
0.0393701
146
0.71
147
1.5
176
   256
177
   256
178
     2
271
     2
272
     3
274
     4
283
     0
284
     8
288
     1
289
     0
340
17
371
    -1
372
    -1
1001
ACAD_DSTYLE_DIMARC_LENGTH_SYMBOL
1070
   379
1070
     1
  0
DIMSTYLE
105
29B
330
9
100
AcDbSymbolTableRecord
100
AcDbDimStyleTableRecord
  2
AM_ISO$6
 70
     0
  4
"
 41
2.5
 42
1.0
 43
10.0
 44
1.0
 47
0.1
 48
0.1
 73
     0
 74
     0
 78
     8
 79
     2
140
3.5
141
0.0
143
0.0393701
146
0.71
147
1.5
172
     1
176
   256
177
   256
178
     2
271
     2
272
     3
274
     4
283
     0
284
     8
340
17
371
    -1
372
    -1
1001
ACAD_DSTYLE_DIMARC_LENGTH_SYMBOL
1070
   379
1070
     1
  0
DIMSTYLE
105
29C
330
9
100
AcDbSymbolTableRecord
100
AcDbDimStyleTableRecord
  2
AM_ISO$7
 70
     0
  4
"
 41
2.5
 42
1.0
 43
10.0
 44
1.0
 47
0.1
 48
0.1
 73
     0
 74
     0
 77
     1
 78
     8
 79
     2
140
5.0
141
0.0
143
0.0393701
146
0.71
147
1.5
172
     1
176
   256
177
   256
178
     2
271
     2
272
     3
274
     4
283
     0
284
     8
340
17
371
    -1
372
    -1
1001
ACAD_DSTYLE_DIMARC_LENGTH_SYMBOL
1070
   379
1070
     1
  0
DIMSTYLE
105
29D
330
9
100
AcDbSymbolTableRecord
100
AcDbDimStyleTableRecord
  2
AM_ISO$SF
 70
     0
  4
"
 41
2.5
 42
1.0
 43
10.0
 44
1.0
 47
0.1
 48
0.1
 73
     0
 74
     0
 75
     1
 76
     1
 77
     1
 78
     8
 79
     2
140
3.5
141
0.0
143
0.0393701
146
0.71
147
1.5
172
     1
176
   256
177
   256
178
     2
271
     2
272
     3
274
     4
283
     0
284
     8
340
17
371
    -1
372
    -1
1001
ACAD_DSTYLE_DIMARC_LENGTH_SYMBOL
1070
   379
1070
     1
  0
DIMSTYLE
105
2A2
330
9
100
AcDbSymbolTableRecord
100
AcDbDimStyleTableRecord
  2
AM_ISO$SH
 70
     0
  4
"
 41
2.5
 42
1.0
 43
10.0
 44
1.0
 47
0.1
 48
0.1
 73
     0
 74
     0
 75
     1
 76
     1
 77
     1
 78
     8
 79
     2
140
3.5
141
0.0
143
0.0393701
144
2.0
146
0.71
147
1.5
172
     1
173
     1
176
   256
177
   256
178
     2
271
     2
272
     3
274
     4
283
     0
284
     8
340
17
343
29E
371
    -1
372
    -1
1001
ACAD_DSTYLE_DIMARC_LENGTH_SYMBOL
1070
   379
1070
     1
  0
DIMSTYLE
105
643
102
{ACAD_REACTORS
330
645
330
676
330
7B5
330
ACA
102
}
330
9
100
AcDbSymbolTableRecord
100
AcDbDimStyleTableRecord
  2
MXDIMSTYLE$0
 70
     0
 40
4.0
 41
2.5
 42
1.269999980926513
 43
3.75
 44
1.200000047683715
 73
     0
 74
     0
 77
     1
 78
     8
140
4.166999816894531
141
2.5
143
0.03937007874016
144
0.25
147
1.0
171
     4
172
     1
274
     4
288
     1
340
17
1001
ACAD_DSTYLE_DIMBREAK
1070
   391
1040
3.75
1001
ACAD_DSTYLE_DIMJAG
1070
   388
1040
1.5
  0
ENDTAB
  0
TABLE
  2
BLOCK_RECORD
  5
1
330
0
100
AcDbSymbolTable
 70
    14
  0
BLOCK_RECORD
  5
A
102
{ACAD_XDICTIONARY
360
5D8
102
}
330
1
100
AcDbSymbolTableRecord
100
AcDbBlockTableRecord
  2
*MODEL_SPACE
340
20
  0
BLOCK_RECORD
  5
B
330
1
100
AcDbSymbolTableRecord
100
AcDbBlockTableRecord
  2
*PAPER_SPACE
340
21
  0
BLOCK_RECORD
  5
26
330
1
100
AcDbSymbolTableRecord
100
AcDbBlockTableRecord
  2
MS_1
340
0
  0
BLOCK_RECORD
  5
27
330
1
100
AcDbSymbolTableRecord
100
AcDbBlockTableRecord
  2
MS_2
340
0
  0
BLOCK_RECORD
  5
94
330
1
100
AcDbSymbolTableRecord
100
AcDbBlockTableRecord
  2
*D2
340
0
  0
BLOCK_RECORD
  5
99
330
1
100
AcDbSymbolTableRecord
100
AcDbBlockTableRecord
  2
_OPEN30
340
0
102
{BLKREFS
331
906
331
907
331
90F
331
910
331
921
331
922
331
93C
331
93D
331
B4F
331
B50
331
BAD
331
BAE
102
}
  0
BLOCK_RECORD
  5
C6
330
1
100
AcDbSymbolTableRecord
100
AcDbBlockTableRecord
  2
*D4
340
0
  0
BLOCK_RECORD
  5
1B8
330
1
100
AcDbSymbolTableRecord
100
AcDbBlockTableRecord
  2
*X5
340
0
  0
BLOCK_RECORD
  5
29E
330
1
100
AcDbSymbolTableRecord
100
AcDbBlockTableRecord
  2
GENAXEH
340
0
  0
BLOCK_RECORD
  5
646
330
1
100
AcDbSymbolTableRecord
100
AcDbBlockTableRecord
  2
*D7
340
0
  0
BLOCK_RECORD
  5
677
330
1
100
AcDbSymbolTableRecord
100
AcDbBlockTableRecord
  2
*D8
340
0
  0
BLOCK_RECORD
  5
7B6
330
1
100
AcDbSymbolTableRecord
100
AcDbBlockTableRecord
  2
*D9
340
0
  0
BLOCK_RECORD
  5
ACB
330
1
100
AcDbSymbolTableRecord
100
AcDbBlockTableRecord
  2
*D10
340
0
  0
BLOCK_RECORD
  5
CC6
330
1
100
AcDbSymbolTableRecord
100
AcDbBlockTableRecord
  2
JZB_0006
340
0
102
{BLKREFS
331
E1F
331
E2B
102
}
  0
ENDTAB
  0
ENDSEC
  0
SECTION
  2
BLOCKS
  0
BLOCK
  5
D
330
A
100
AcDbEntity
  8
0
100
AcDbBlockBegin
  2
*MODEL_SPACE
 70
     0
 10
0.0
 20
0.0
 30
0.0
  3
*MODEL_SPACE
  1

  0
ENDBLK
  5
E
330
A
100
AcDbEntity
  8
0
100
AcDbBlockEnd
  0
BLOCK
  5
F
330
B
100
AcDbEntity
 67
     1
  8
0
100
AcDbBlockBegin
  2
*PAPER_SPACE
 70
     0
 10
0.0
 20
0.0
 30
0.0
  3
*PAPER_SPACE
  1

  0
ENDBLK
  5
10
330
B
100
AcDbEntity
 67
     1
  8
0
100
AcDbBlockEnd
  0
BLOCK
  5
28
330
26
100
AcDbEntity
  8
0
370
    -2
100
AcDbBlockBegin
  2
MS_1
 70
     0
 10
0.0
 20
0.0
 30
0.0
  3
MS_1
  1

  0
LINE
  5
29
330
26
100
AcDbEntity
  8
0
  6
Continuous
 62
     3
100
AcDbLine
 10
0.0000000000000001
 20
-0.0000000000000016
 30
0.0
 11
5.000000063117226
 21
20.20725965062695
 31
0.0
  0
LINE
  5
2A
330
26
100
AcDbEntity
  8
0
  6
Continuous
 62
     3
100
AcDbLine
 10
-35.00000073604497
 20
-2.88675135881974
 30
0.0
 11
0.000000000000003
 21
-0.0000000000000036
 31
0.0
  0
LINE
  5
2B
330
26
100
AcDbEntity
  8
0
  6
Continuous
 62
     3
100
AcDbLine
 10
-7.499999999999968
 20
12.99038082361223
 30
0.0
 11
4.99999986100903
 21
20.20725923776627
 31
0.0
  0
LINE
  5
2C
330
26
100
AcDbEntity
  8
0
  6
Continuous
 62
     3
100
AcDbLine
 10
-52.50000098787154
 20
21.65063351392746
 30
0.0
 11
-37.50000049393577
 21
30.31088799238205
 31
0.0
  0
LINE
  5
2D
330
26
100
AcDbEntity
  8
0
  6
Continuous
 62
     3
100
AcDbLine
 10
-34.99999952903863
 20
-2.886751592159271
 30
0.0
 11
-22.50000049393577
 21
4.330126345157623
 31
0.0
  0
LINE
  5
2E
330
26
100
AcDbEntity
  8
0
  6
Continuous
 62
     3
100
AcDbLine
 10
-52.500000366432
 20
21.65063592791558
 30
0.0
 11
-22.49999937856046
 21
4.330126971006392
 31
0.0
  0
LINE
  5
2F
330
26
100
AcDbEntity
  8
0
  6
Continuous
 62
     3
100
AcDbLine
 10
-37.49999929355796
 20
30.31088903546333
 30
0.0
 11
-7.499999957498745
 21
12.99038103222847
 31
0.0
  0
POINT
  5
30
330
26
100
AcDbEntity
  8
0
  6
Continuous
 62
     7
100
AcDbPoint
 10
0.0
 20
0.0
 30
0.0
  0
ENDBLK
  5
31
330
26
100
AcDbEntity
  8
0
370
    -2
100
AcDbBlockEnd
  0
BLOCK
  5
32
330
27
100
AcDbEntity
  8
0
370
    -2
100
AcDbBlockBegin
  2
MS_2
 70
     0
 10
0.0
 20
0.0
 30
0.0
  3
MS_2
  1

  0
ELLIPSE
  5
33
330
27
100
AcDbEntity
  8
0
  6
Continuous
 62
     7
100
AcDbEllipse
 10
13.88765144348144
 20
-0.0160179436206818
 30
0.0
 11
1.688363075256346
 21
-0.0000001192092898
 31
0.0
210
0.0
220
0.0
230
0.9999999999999998
 40
0.9291879639195471
 41
0.2651412738457682
 42
6.006474423724084
  0
ELLIPSE
  5
34
330
27
100
AcDbEntity
  8
0
  6
Continuous
 62
     7
100
AcDbEllipse
 10
13.11491346359253
 20
-0.0160178802907467
 30
0.0
 11
3.015141010284423
 21
-0.0000001825392261
 31
0.0
210
0.0
220
0.0
230
1.0
 40
0.799806870214157
 41
0.7911690653191048
 42
6.104511488825124
  0
ARC
  5
35
330
27
100
AcDbEntity
  8
0
  6
Continuous
 62
     7
100
AcDbCircle
 10
15.41536426544189
 20
1.927800178527831
 30
0.0
 40
0.2915999293327331
100
AcDbArc
 50
231.6715098735924
 51
330.0000128255523
  0
ARC
  5
36
330
27
100
AcDbEntity
  8
0
  6
Continuous
 62
     7
100
AcDbCircle
 10
5.660588264465332
 20
1.256252288818359
 30
0.0
 40
0.1749599575996399
100
AcDbArc
 50
24.9969145885484
 51
155.0011438164944
  0
ARC
  5
37
330
27
100
AcDbEntity
  8
0
  6
Continuous
 62
     7
100
AcDbCircle
 10
6.376239776611327
 20
-0.2784740328788757
 30
0.0
 40
0.1749599575996399
100
AcDbArc
 50
270.000127269116
 51
24.99996426801281
  0
ARC
  5
38
330
27
100
AcDbEntity
  8
0
  6
Continuous
 62
     7
100
AcDbCircle
 10
4.94492721557617
 20
-0.2784740328788757
 30
0.0
 40
0.1749599575996399
100
AcDbArc
 50
154.9993952880669
 51
270.0014213625927
  0
ARC
  5
39
330
27
100
AcDbEntity
  8
0
  6
Continuous
 62
     7
100
AcDbCircle
 10
4.663116455078125
 20
-1.526512145996093
 30
0.0
 40
0.3499199151992798
100
AcDbArc
 50
89.99867061759001
 51
235.001073187346
  0
ARC
  5
3A
330
27
100
AcDbEntity
  8
0
  6
Continuous
 62
     7
100
AcDbCircle
 10
6.725593566894531
 20
-1.588626861572264
 30
0.0
 40
0.412037193775177
100
AcDbArc
 50
314.9998382383154
 51
359.9999826971572
  0
ARC
  5
3B
330
27
100
AcDbEntity
  8
0
  6
Continuous
 62
     7
100
AcDbCircle
 10
6.725593566894531
 20
-1.588626861572264
 30
0.0
 40
0.412037193775177
100
AcDbArc
 50
0.0
 51
89.99998201391065
  0
ARC
  5
3C
330
27
100
AcDbEntity
  8
0
  6
Continuous
 62
     7
100
AcDbCircle
 10
9.706324577331542
 20
-1.348008155822753
 30
0.0
 40
0.2915999293327331
100
AcDbArc
 50
205.0009325610132
 51
236.0005930525732
  0
ARC
  5
3D
330
27
100
AcDbEntity
  8
0
  6
Continuous
 62
     7
100
AcDbCircle
 10
3.028962135314941
 20
-1.434097290039061
 30
0.0
 40
0.2915999293327331
100
AcDbArc
 50
303.9994463347001
 51
334.9993902791106
  0
ARC
  5
3E
330
27
100
AcDbEntity
  8
0
  6
Continuous
 62
     7
100
AcDbCircle
 10
3.32199478149414
 20
1.34463596343994
 30
0.0
 40
0.2915999293327331
100
AcDbArc
 50
123.9996255134803
 51
154.9999417032005
  0
ARC
  5
3F
330
27
100
AcDbEntity
  8
0
  6
Continuous
 62
     7
100
AcDbCircle
 10
2.03849411010742
 20
1.393499374389647
 30
0.0
 40
0.2915999293327331
100
AcDbArc
 50
334.9988882602066
 51
55.99856608025141
  0
ARC
  5
40
330
27
100
AcDbEntity
  8
0
  6
Continuous
 62
     7
100
AcDbCircle
 10
-0.3615722060203552
 20
1.613658905029295
 30
0.0
 40
0.2915999293327331
100
AcDbArc
 50
124.0006090607208
 51
205.0002595600088
  0
ARC
  5
41
330
27
100
AcDbEntity
  8
0
  6
Continuous
 62
     7
100
AcDbCircle
 10
-3.196181297302246
 20
1.34463596343994
 30
0.0
 40
0.2915999293327331
100
AcDbArc
 50
24.99991645668862
 51
55.99987747657205
  0
ARC
  5
42
330
27
100
AcDbEntity
  8
0
  6
Continuous
 62
     7
100
AcDbCircle
 10
0.8897945284843443
 20
-1.345890045166014
 30
0.0
 40
0.1749599575996399
100
AcDbArc
 50
205.0003861458796
 51
335.0002986942702
  0
ARC
  5
43
330
27
100
AcDbEntity
  8
0
  6
Continuous
 62
     7
100
AcDbCircle
 10
-3.499093055725096
 20
-1.188255310058593
 30
0.0
 40
0.2915999293327331
100
AcDbArc
 50
270.0001819106294
 51
315.0003163515573
  0
ARC
  5
44
330
27
100
AcDbEntity
  8
0
  6
Continuous
 62
     7
100
AcDbCircle
 10
-5.769119262695312
 20
1.298173904418945
 30
0.0
 40
0.2915999293327331
100
AcDbArc
 50
133.0006673677765
 51
180.0005650844682
  0
ARC
  5
45
330
27
100
AcDbEntity
  8
0
  6
Continuous
 62
     7
100
AcDbCircle
 10
-8.451834678649902
 20
-1.330237388610839
 30
0.0
 40
0.2915999293327331
100
AcDbArc
 50
312.9995866040259
 51
359.999929587228
  0
ARC
  5
46
330
27
100
AcDbEntity
  8
0
  6
Continuous
 62
     7
100
AcDbCircle
 10
-8.451834678649902
 20
1.298173904418945
 30
0.0
 40
0.2915999293327331
100
AcDbArc
 50
359.9986770302107
 51
46.99901320719422
  0
ARC
  5
47
330
27
100
AcDbEntity
  8
0
  6
Continuous
 62
     7
100
AcDbCircle
 10
-13.72395610809326
 20
-0.3850881457328796
 30
0.0
 40
1.749599456787109
100
AcDbArc
 50
180.0001452552054
 51
235.1504803877167
  0
ARC
  5
48
330
27
100
AcDbEntity
  8
0
  6
Continuous
 62
     7
100
AcDbCircle
 10
-11.81398010253906
 20
-0.3535323739051819
 30
0.0
 40
1.749599456787109
100
AcDbArc
 50
306.7425459280256
 51
359.9999624930069
  0
ARC
  5
49
330
27
100
AcDbEntity
  8
0
  6
Continuous
 62
     7
100
AcDbCircle
 10
-11.60986709594726
 20
-0.8664843440055847
 30
0.0
 40
0.5831999182701111
100
AcDbArc
 50
319.8303563401182
 51
359.9992788485525
  0
ARC
  5
4A
330
27
100
AcDbEntity
  8
0
  6
Continuous
 62
     7
100
AcDbCircle
 10
-12.79084777832031
 20
-0.8664664626121519
 30
0.0
 40
0.5831999182701111
100
AcDbArc
 50
180.0000359721787
 51
220.16766814135
  0
ARC
  5
4B
330
27
100
AcDbEntity
  8
0
  6
Continuous
 62
     7
100
AcDbCircle
 10
-12.20034885406494
 20
-0.3680287599563599
 30
0.0
 40
1.355938911437988
100
AcDbArc
 50
220.16766814135
 51
319.8309061703463
  0
ARC
  5
4C
330
27
100
AcDbEntity
  8
0
  6
Continuous
 62
     7
100
AcDbCircle
 10
-12.79084777832031
 20
0.9550097584724426
 30
0.0
 40
3.382558822631834
100
AcDbArc
 50
235.1504257462033
 51
306.7425698336877
  0
ARC
  5
4D
330
27
100
AcDbEntity
  8
0
  6
Continuous
 62
     7
100
AcDbCircle
 10
-9.772781372070312
 20
1.457438468933104
 30
0.0
 40
0.2915999293327331
100
AcDbArc
 50
124.0007183437475
 51
180.0013847071687
  0
ARC
  5
4E
330
27
100
AcDbEntity
  8
0
  6
Continuous
 62
     7
100
AcDbCircle
 10
-11.31826686859131
 20
1.457429885864256
 30
0.0
 40
0.2915999293327331
100
AcDbArc
 50
359.9996313399246
 51
55.99980917468034
  0
ARC
  5
4F
330
27
100
AcDbEntity
  8
0
  6
Continuous
 62
     7
100
AcDbCircle
 10
-13.082444190979
 20
1.427920341491699
 30
0.0
 40
0.2915999293327331
100
AcDbArc
 50
124.0011554758543
 51
180.0016579147355
  0
ARC
  5
50
330
27
100
AcDbEntity
  8
0
  6
Continuous
 62
     7
100
AcDbCircle
 10
-15.76515865325928
 20
1.427920341491699
 30
0.0
 40
0.2915999293327331
100
AcDbArc
 50
359.9993128519744
 51
55.99964183504567
  0
LINE
  5
51
330
27
100
AcDbEntity
  8
0
  6
Continuous
 62
     7
100
AcDbLine
 10
15.91095404115839
 20
2.203026654192511
 30
0.0
 11
15.66787904030281
 21
1.782000930520665
 31
0.0
  0
LINE
  5
52
330
27
100
AcDbEntity
  8
0
  6
Continuous
 62
     7
100
AcDbLine
 10
15.91095638275146
 20
2.203025817871093
 30
0.0
 11
16.08590698242187
 21
2.203025817871093
 31
0.0
  0
LINE
  5
53
330
27
100
AcDbEntity
  8
0
  6
Continuous
 62
     7
100
AcDbLine
 10
16.08590698242187
 20
2.203025817871093
 30
0.0
 11
16.08590698242187
 21
0.3951122164726257
 31
0.0
  0
LINE
  5
54
330
27
100
AcDbEntity
  8
0
  6
Continuous
 62
     7
100
AcDbLine
 10
15.51238441467285
 20
0.395121157169342
 30
0.0
 11
16.08378601074219
 21
0.395121157169342
 31
0.0
  0
LINE
  5
55
330
27
100
AcDbEntity
  8
0
  6
Continuous
 62
     7
100
AcDbLine
 10
15.5052433013916
 20
-0.4446792602539064
 30
0.0
 11
16.08226013183594
 21
-0.4446792602539064
 31
0.0
  0
LINE
  5
56
330
27
100
AcDbEntity
  8
0
  6
Continuous
 62
     7
100
AcDbLine
 10
4.769335810521056
 20
-2.028068048539295
 30
0.0
 11
4.462407658139112
 21
-1.813154723325624
 31
0.0
  0
LINE
  5
57
330
27
100
AcDbEntity
  8
0
  6
Continuous
 62
     7
100
AcDbLine
 10
4.786353348141773
 20
-0.2045305765140313
 30
0.0
 11
5.50200858730875
 21
1.330197698841999
 31
0.0
  0
LINE
  5
58
330
27
100
AcDbEntity
  8
0
  6
Continuous
 62
     7
100
AcDbLine
 10
6.868855164774799
 20
-2.028064431855739
 30
0.0
 11
7.016942079232476
 21
-1.879978353742841
 31
0.0
  0
LINE
  5
59
330
27
100
AcDbEntity
  8
0
  6
Continuous
 62
     7
100
AcDbLine
 10
10.19308930573379
 20
-2.028065446271624
 30
0.0
 11
9.54327055069382
 21
-1.589757185596566
 31
0.0
  0
LINE
  5
5A
330
27
100
AcDbEntity
  8
0
  6
Continuous
 62
     7
100
AcDbLine
 10
2.669809025537516
 20
-2.02806432169143
 30
0.0
 11
3.192014703603831
 21
-1.675840001068195
 31
0.0
  0
LINE
  5
5B
330
27
100
AcDbEntity
  8
0
  6
Continuous
 62
     7
100
AcDbLine
 10
1.666702460879796
 20
1.996014965814431
 30
0.0
 11
2.201558844887133
 21
1.63524983772488
 31
0.0
  0
LINE
  5
5C
330
27
100
AcDbEntity
  8
0
  6
Continuous
 62
     7
100
AcDbLine
 10
3.76621448669475
 20
1.996016345505218
 30
0.0
 11
3.158927662341781
 21
1.586387965072794
 31
0.0
  0
LINE
  5
5D
330
27
100
AcDbEntity
  8
0
  6
Continuous
 62
     7
100
AcDbLine
 10
-0.3161834185185803
 20
1.996012417202443
 30
0.0
 11
-0.5246363088941735
 21
1.855405294209275
 31
0.0
  0
LINE
  5
5E
330
27
100
AcDbEntity
  8
0
  6
Continuous
 62
     7
100
AcDbLine
 10
-3.640431001544957
 20
1.996018264254935
 30
0.0
 11
-3.033118856895303
 21
1.586381379411256
 31
0.0
  0
LINE
  5
5F
330
27
100
AcDbEntity
  8
0
  6
Continuous
 62
     7
100
AcDbLine
 10
4.94492721557617
 20
-0.4534268975257875
 30
0.0
 11
6.376239776611327
 21
-0.4534268975257875
 31
0.0
  0
LINE
  5
60
330
27
100
AcDbEntity
  8
0
  6
Continuous
 62
     7
100
AcDbLine
 10
4.663116455078125
 20
-1.176588058471679
 30
0.0
 11
6.725593566894531
 21
-1.176588058471679
 31
0.0
  0
LINE
  5
61
330
27
100
AcDbEntity
  8
0
  6
Continuous
 62
     7
100
AcDbLine
 10
6.868857383728027
 20
-2.028063774108886
 30
0.0
 11
6.868857383728027
 21
-2.203017234802246
 31
0.0
  0
LINE
  5
62
330
27
100
AcDbEntity
  8
0
  6
Continuous
 62
     7
100
AcDbLine
 10
10.19308757781982
 20
-2.028063774108886
 30
0.0
 11
10.19308757781982
 21
-2.203017234802246
 31
0.0
  0
LINE
  5
63
330
27
100
AcDbEntity
  8
0
  6
Continuous
 62
     7
100
AcDbLine
 10
6.868857383728027
 20
-2.203017234802246
 30
0.0
 11
10.19308757781982
 21
-2.203017234802246
 31
0.0
  0
LINE
  5
64
330
27
100
AcDbEntity
  8
0
  6
Continuous
 62
     7
100
AcDbLine
 10
4.769333839416503
 20
-2.028063774108886
 30
0.0
 11
4.769333839416503
 21
-2.203017234802246
 31
0.0
  0
LINE
  5
65
330
27
100
AcDbEntity
  8
0
  6
Continuous
 62
     7
100
AcDbLine
 10
2.66981029510498
 20
-2.028063774108886
 30
0.0
 11
2.66981029510498
 21
-2.203017234802246
 31
0.0
  0
LINE
  5
66
330
27
100
AcDbEntity
  8
0
  6
Continuous
 62
     7
100
AcDbLine
 10
5.819153250643012
 20
1.330187368560018
 30
0.0
 11
6.534805316648544
 21
-0.2045328250937928
 31
0.0
  0
LINE
  5
67
330
27
100
AcDbEntity
  8
0
  6
Continuous
 62
     7
100
AcDbLine
 10
7.743648458376809
 20
2.170978610602105
 30
0.0
 11
9.442048205501121
 21
-1.47124994238311
 31
0.0
  0
LINE
  5
68
330
27
100
AcDbEntity
  8
0
  6
Continuous
 62
     7
100
AcDbLine
 10
5.031767869148608
 20
2.170981452431361
 30
0.0
 11
3.293235034794576
 21
-1.557329608484371
 31
0.0
  0
LINE
  5
69
330
27
100
AcDbEntity
  8
0
  6
Continuous
 62
     7
100
AcDbLine
 10
2.66981029510498
 20
-2.203017234802246
 30
0.0
 11
4.769333839416503
 21
-2.203017234802246
 31
0.0
  0
LINE
  5
6A
330
27
100
AcDbEntity
  8
0
  6
Continuous
 62
     7
100
AcDbLine
 10
5.031771659851074
 20
2.17098045349121
 30
0.0
 11
7.743658065795897
 21
2.17098045349121
 31
0.0
  0
LINE
  5
6B
330
27
100
AcDbEntity
  8
0
  6
Continuous
 62
     7
100
AcDbLine
 10
1.666696548461914
 20
2.17098045349121
 30
0.0
 11
3.766211509704588
 21
2.17098045349121
 31
0.0
  0
LINE
  5
6C
330
27
100
AcDbEntity
  8
0
  6
Continuous
 62
     7
100
AcDbLine
 10
1.048352444644362
 20
-1.41982803990438
 30
0.0
 11
2.302766284712959
 21
1.270267224119577
 31
0.0
  0
LINE
  5
6D
330
27
100
AcDbEntity
  8
0
  6
Continuous
 62
     7
100
AcDbLine
 10
1.345939400448173
 20
-2.203016930455531
 30
0.0
 11
3.057706742392752
 21
1.467874662564668
 31
0.0
  0
LINE
  5
6E
330
27
100
AcDbEntity
  8
0
  6
Continuous
 62
     7
100
AcDbLine
 10
0.7312247846646898
 20
-1.419837330947475
 30
0.0
 11
-0.6258497270637946
 21
1.49041859462812
 31
0.0
  0
LINE
  5
6F
330
27
100
AcDbEntity
  8
0
  6
Continuous
 62
     7
100
AcDbLine
 10
-1.220137231701584
 20
-2.203020892613181
 30
0.0
 11
-2.93190119173164
 21
1.467869073125796
 31
0.0
  0
LINE
  5
70
330
27
100
AcDbEntity
  8
0
  6
Continuous
 62
     7
100
AcDbLine
 10
1.666696548461914
 20
2.17098045349121
 30
0.0
 11
1.666696548461914
 21
1.99601936340332
 31
0.0
  0
LINE
  5
71
330
27
100
AcDbEntity
  8
0
  6
Continuous
 62
     7
100
AcDbLine
 10
3.766211509704588
 20
2.17098045349121
 30
0.0
 11
3.766211509704588
 21
1.99601936340332
 31
0.0
  0
LINE
  5
72
330
27
100
AcDbEntity
  8
0
  6
Continuous
 62
     7
100
AcDbLine
 10
-0.3161876797676086
 20
2.17098045349121
 30
0.0
 11
-0.3161876797676086
 21
1.99601936340332
 31
0.0
  0
LINE
  5
73
330
27
100
AcDbEntity
  8
0
  6
Continuous
 62
     7
100
AcDbLine
 10
-3.640434265136718
 20
2.17098045349121
 30
0.0
 11
-3.640434265136718
 21
1.99601936340332
 31
0.0
  0
LINE
  5
74
330
27
100
AcDbEntity
  8
0
  6
Continuous
 62
     7
100
AcDbLine
 10
-1.220130920410156
 20
-2.203017234802246
 30
0.0
 11
1.34594440460205
 21
-2.203017234802246
 31
0.0
  0
LINE
  5
75
330
27
100
AcDbEntity
  8
0
  6
Continuous
 62
     7
100
AcDbLine
 10
-3.640434265136718
 20
2.17098045349121
 30
0.0
 11
-0.3161876797676086
 21
2.17098045349121
 31
0.0
  0
LINE
  5
76
330
27
100
AcDbEntity
  8
0
  6
Continuous
 62
     7
100
AcDbLine
 10
-2.734547852499871
 20
-0.8360918108463691
 30
0.0
 11
-3.292898454584984
 21
-1.394446601770937
 31
0.0
  0
LINE
  5
77
330
27
100
AcDbEntity
  8
0
  6
Continuous
 62
     7
100
AcDbLine
 10
-2.734549522399901
 20
-0.8360894918441772
 30
0.0
 11
-2.559597015380858
 21
-0.8360894918441772
 31
0.0
  0
LINE
  5
78
330
27
100
AcDbEntity
  8
0
  6
Continuous
 62
     7
100
AcDbLine
 10
-2.800630741500015
 20
-2.203016917724653
 30
0.0
 11
-2.559604583520409
 21
-0.8360891374889547
 31
0.0
  0
LINE
  5
79
330
27
100
AcDbEntity
  8
0
  6
Continuous
 62
     7
100
AcDbLine
 10
-6.060719490051268
 20
-1.479854583740234
 30
0.0
 11
-3.499093055725096
 21
-1.479854583740234
 31
0.0
  0
LINE
  5
7A
330
27
100
AcDbEntity
  8
0
  6
Continuous
 62
     7
100
AcDbLine
 10
-8.772604942321777
 20
-2.02807331085205
 30
0.0
 11
-8.772604942321777
 21
-2.203017234802246
 31
0.0
  0
LINE
  5
7B
330
27
100
AcDbEntity
  8
0
  6
Continuous
 62
     7
100
AcDbLine
 10
-8.772597861236079
 20
-2.028063652604543
 30
0.0
 11
-8.25296186146528
 21
-1.543501462522668
 31
0.0
  0
LINE
  5
7C
330
27
100
AcDbEntity
  8
0
  6
Continuous
 62
     7
100
AcDbLine
 10
-5.44835551145411
 20
1.99601119841759
 30
0.0
 11
-5.967990972767211
 21
1.511438653587446
 31
0.0
  0
LINE
  5
7D
330
27
100
AcDbEntity
  8
0
  6
Continuous
 62
     7
100
AcDbLine
 10
-8.772599743276032
 20
1.996015632302372
 30
0.0
 11
-8.252954958117468
 21
1.511437669363771
 31
0.0
  0
LINE
  5
7E
330
27
100
AcDbEntity
  8
0
  6
Continuous
 62
     7
100
AcDbLine
 10
-6.060719490051268
 20
1.298173904418945
 30
0.0
 11
-6.060719490051268
 21
-1.479854583740234
 31
0.0
  0
LINE
  5
7F
330
27
100
AcDbEntity
  8
0
  6
Continuous
 62
     7
100
AcDbLine
 10
-8.160234451293945
 20
1.298173904418945
 30
0.0
 11
-8.160234451293945
 21
-1.330237388610839
 31
0.0
  0
LINE
  5
80
330
27
100
AcDbEntity
  8
0
  6
Continuous
 62
     7
100
AcDbLine
 10
-5.448357582092285
 20
2.17098045349121
 30
0.0
 11
-5.448357582092285
 21
1.996001243591307
 31
0.0
  0
LINE
  5
81
330
27
100
AcDbEntity
  8
0
  6
Continuous
 62
     7
100
AcDbLine
 10
-8.772604942321777
 20
2.17098045349121
 30
0.0
 11
-5.448357582092285
 21
2.17098045349121
 31
0.0
  0
LINE
  5
82
330
27
100
AcDbEntity
  8
0
  6
Continuous
 62
     7
100
AcDbLine
 10
-8.772604942321777
 20
2.17098045349121
 30
0.0
 11
-8.772604942321777
 21
1.996010780334471
 31
0.0
  0
LINE
  5
83
330
27
100
AcDbEntity
  8
0
  6
Continuous
 62
     7
100
AcDbLine
 10
-11.59529113769531
 20
2.17098045349121
 30
0.0
 11
-9.49577522277832
 21
2.17098045349121
 31
0.0
  0
LINE
  5
84
330
27
100
AcDbEntity
  8
0
  6
Continuous
 62
     7
100
AcDbLine
 10
-9.495771263513802
 20
1.996022872827721
 30
0.0
 11
-9.935841707738973
 21
1.699191626442767
 31
0.0
  0
LINE
  5
85
330
27
100
AcDbEntity
  8
0
  6
Continuous
 62
     7
100
AcDbLine
 10
-11.59528471490597
 20
1.996017233212966
 30
0.0
 11
-11.15519997602627
 21
1.699176514207408
 31
0.0
  0
LINE
  5
86
330
27
100
AcDbEntity
  8
0
  6
Continuous
 62
     7
100
AcDbLine
 10
-10.06438159942627
 20
1.457438468933104
 30
0.0
 11
-10.06438159942627
 21
-0.3535324335098267
 31
0.0
  0
LINE
  5
87
330
27
100
AcDbEntity
  8
0
  6
Continuous
 62
     7
100
AcDbLine
 10
-11.02666664123535
 20
1.457429885864256
 30
0.0
 11
-11.02666664123535
 21
-0.8664843440055847
 31
0.0
  0
LINE
  5
88
330
27
100
AcDbEntity
  8
0
  6
Continuous
 62
     7
100
AcDbLine
 10
-12.76167378305553
 20
1.996031481660509
 30
0.0
 11
-13.24550668190545
 21
1.669679097631274
 31
0.0
  0
LINE
  5
89
330
27
100
AcDbEntity
  8
0
  6
Continuous
 62
     7
100
AcDbLine
 10
-16.0859184709999
 20
1.996009578958306
 30
0.0
 11
-15.60208957599764
 21
1.669663189021719
 31
0.0
  0
LINE
  5
8A
330
27
100
AcDbEntity
  8
0
  6
Continuous
 62
     7
100
AcDbLine
 10
-13.37405014038086
 20
1.427920341491699
 30
0.0
 11
-13.37405014038086
 21
-0.8664664626121519
 31
0.0
  0
LINE
  5
8B
330
27
100
AcDbEntity
  8
0
  6
Continuous
 62
     7
100
AcDbLine
 10
-15.4735631942749
 20
1.427920341491699
 30
0.0
 11
-15.4735631942749
 21
-0.3850880265235901
 31
0.0
  0
LINE
  5
8C
330
27
100
AcDbEntity
  8
0
  6
Continuous
 62
     7
100
AcDbLine
 10
-11.59529113769531
 20
2.17098045349121
 30
0.0
 11
-11.59529113769531
 21
1.996010780334471
 31
0.0
  0
LINE
  5
8D
330
27
100
AcDbEntity
  8
0
  6
Continuous
 62
     7
100
AcDbLine
 10
-12.76168155670166
 20
2.17098045349121
 30
0.0
 11
-12.76168155670166
 21
1.99601936340332
 31
0.0
  0
LINE
  5
8E
330
27
100
AcDbEntity
  8
0
  6
Continuous
 62
     7
100
AcDbLine
 10
-9.49577522277832
 20
2.17098045349121
 30
0.0
 11
-9.49577522277832
 21
1.99601936340332
 31
0.0
  0
LINE
  5
8F
330
27
100
AcDbEntity
  8
0
  6
Continuous
 62
     7
100
AcDbLine
 10
-16.08592224121094
 20
2.17098045349121
 30
0.0
 11
-16.08592224121094
 21
1.99601936340332
 31
0.0
  0
LINE
  5
90
330
27
100
AcDbEntity
  8
0
  6
Continuous
 62
     7
100
AcDbLine
 10
-8.772604942321777
 20
-2.203017234802246
 30
0.0
 11
-2.800623893737791
 21
-2.203017234802246
 31
0.0
  0
LINE
  5
91
330
27
100
AcDbEntity
  8
0
  6
Continuous
 62
     7
100
AcDbLine
 10
-16.08592224121094
 20
2.17098045349121
 30
0.0
 11
-12.76168155670166
 21
2.17098045349121
 31
0.0
  0
POINT
  5
92
330
27
100
AcDbEntity
  8
0
  6
Continuous
 62
     7
100
AcDbPoint
 10
0.0
 20
0.0
 30
0.0
  0
ENDBLK
  5
93
330
27
100
AcDbEntity
  8
0
370
    -2
100
AcDbBlockEnd
  0
BLOCK
  5
95
330
94
100
AcDbEntity
  8
0
  6
ByBlock
 62
     0
370
    -2
100
AcDbBlockBegin
  2
*D2
 70
     1
 10
0.0
 20
0.0
 30
0.0
  3
*D2
  1

  0
LINE
  5
903
330
94
100
AcDbEntity
  8
PV
 62
     0
370
    -2
100
AcDbLine
 10
161.3237699653309
 20
73.77290109012665
 30
0.0
 11
161.3237699653309
 21
17.60207023327393
 31
0.0
  0
LINE
  5
904
330
94
100
AcDbEntity
  8
PV
 62
     0
370
    -2
100
AcDbLine
 10
-156.676230034669
 20
73.77290109012665
 30
0.0
 11
-156.676230034669
 21
17.60207023327393
 31
0.0
  0
LINE
  5
905
330
94
100
AcDbEntity
  8
PV
 62
     0
370
    -2
100
AcDbLine
 10
150.2437699653309
 20
22.4020704240088
 30
0.0
 11
-145.596230034669
 21
22.4020704240088
 31
0.0
  0
INSERT
  5
906
330
94
100
AcDbEntity
  8
PV
 62
     0
370
    -2
100
AcDbBlockReference
  2
_OPEN30
 10
161.3237699653309
 20
22.4020704240088
 30
0.0
 41
11.08
 42
11.08
 43
11.08
  0
INSERT
  5
907
330
94
100
AcDbEntity
  8
PV
 62
     0
370
    -2
100
AcDbBlockReference
  2
_OPEN30
 10
-156.676230034669
 20
22.4020704240088
 30
0.0
 41
11.08
 42
11.08
 43
11.08
 50
180.0
  0
MTEXT
  5
908
102
{ACAD_XDICTIONARY
360
E6C
102
}
330
94
100
AcDbEntity
  8
PV
 62
     0
100
AcDbMText
 10
51.94793569585545
 20
34.73607005779786
 30
0.0
 40
16.66799926757812
 41
0.0
 71
     5
 72
     1
  1
\A1;\U+2205318
  7
MX_DIMTXSTY_2
 73
     1
 44
0.9359251894303499
1001
ACAD
1000
MTEXTBEGIN
1070
    73
1070
     1
1070
    44
1040
0.9359251894303499
1070
    74
1070
     0
1000
MTEXTEND
  0
POINT
  5
909
330
94
100
AcDbEntity
  8
DEFPOINTS
 62
     0
370
     0
100
AcDbPoint
 10
161.3237699653309
 20
78.85290101383271
 30
0.0
  0
POINT
  5
90A
330
94
100
AcDbEntity
  8
DEFPOINTS
 62
     0
370
     0
100
AcDbPoint
 10
-156.676230034669
 20
78.85290101383271
 30
0.0
  0
POINT
  5
90B
330
94
100
AcDbEntity
  8
DEFPOINTS
 62
     0
370
     0
100
AcDbPoint
 10
-156.676230034669
 20
22.4020704240088
 30
0.0
  0
ENDBLK
  5
A6
330
94
100
AcDbEntity
  8
0
  6
ByBlock
 62
     0
370
    -2
100
AcDbBlockEnd
  0
BLOCK
  5
9A
330
99
100
AcDbEntity
  8
0
  6
ByBlock
 62
     0
370
    -2
100
AcDbBlockBegin
  2
_OPEN30
 70
     2
 10
0.0
 20
0.0
 30
0.0
  3
_OPEN30
  1

  0
LINE
  5
9B
330
99
100
AcDbEntity
  8
0
  6
ByBlock
 62
     0
370
    -2
100
AcDbLine
 10
-1.0
 20
0.267949
 30
0.0
 11
0.0
 21
0.0
 31
0.0
  0
LINE
  5
9C
330
99
100
AcDbEntity
  8
0
  6
ByBlock
 62
     0
370
    -2
100
AcDbLine
 10
0.0
 20
0.0
 30
0.0
 11
-1.0
 21
-0.267949
 31
0.0
  0
LINE
  5
9D
330
99
100
AcDbEntity
  8
0
  6
ByBlock
 62
     0
370
    -2
100
AcDbLine
 10
0.0
 20
0.0
 30
0.0
 11
-1.0
 21
0.0
 31
0.0
  0
ENDBLK
  5
9E
330
99
100
AcDbEntity
  8
0
  6
ByBlock
 62
     0
370
    -2
100
AcDbBlockEnd
  0
BLOCK
  5
C7
330
C6
100
AcDbEntity
  8
0
  6
ByBlock
 62
     0
370
    -2
100
AcDbBlockBegin
  2
*D4
 70
     1
 10
0.0
 20
0.0
 30
0.0
  3
*D4
  1

  0
LINE
  5
90C
330
C6
100
AcDbEntity
  8
PV
  6
Continuous
 62
     0
370
    -2
100
AcDbLine
 10
-178.8764406059581
 20
87.93283990238251
 30
0.0
 11
-178.8764406059581
 21
159.6673060217113
 31
0.0
  0
LINE
  5
90D
330
C6
100
AcDbEntity
  8
PV
  6
Continuous
 62
     0
370
    -2
100
AcDbLine
 10
183.52398053662
 20
87.93283990238251
 30
0.0
 11
183.52398053662
 21
159.6673060217113
 31
0.0
  0
LINE
  5
90E
330
C6
100
AcDbEntity
  8
PV
  6
Continuous
 62
     0
370
    -2
100
AcDbLine
 10
-167.7964406059581
 20
154.8673058309764
 30
0.0
 11
172.44398053662
 21
154.8673058309764
 31
0.0
  0
INSERT
  5
90F
330
C6
100
AcDbEntity
  8
PV
  6
Continuous
 62
     0
370
    -2
100
AcDbBlockReference
  2
_OPEN30
 10
-178.8764406059581
 20
154.8673058309764
 30
0.0
 41
11.08
 42
11.08
 43
11.08
 50
180.0
  0
INSERT
  5
910
330
C6
100
AcDbEntity
  8
PV
  6
Continuous
 62
     0
370
    -2
100
AcDbBlockReference
  2
_OPEN30
 10
183.52398053662
 20
154.8673058309764
 30
0.0
 41
11.08
 42
11.08
 43
11.08
  0
MTEXT
  5
911
102
{ACAD_XDICTIONARY
360
E6E
102
}
330
C6
100
AcDbEntity
  8
PV
  6
Continuous
 62
     0
100
AcDbMText
 10
51.154267340793
 20
167.2013054647655
 30
0.0
 40
16.66799926757812
 41
0.0
 71
     5
 72
     1
  1
\A1;\U+2205362
  7
MX_DIMTXSTY_3
 73
     1
 44
0.9359251894303499
1001
ACAD
1000
MTEXTBEGIN
1070
    73
1070
     1
1070
    44
1040
0.9359251894303499
1070
    74
1070
     0
1000
MTEXTEND
  0
POINT
  5
912
330
C6
100
AcDbEntity
  8
DEFPOINTS
  6
Continuous
 62
     0
370
     0
100
AcDbPoint
 10
-178.8764406059581
 20
82.85283997867646
 30
0.0
  0
POINT
  5
913
330
C6
100
AcDbEntity
  8
DEFPOINTS
  6
Continuous
 62
     0
370
     0
100
AcDbPoint
 10
183.52398053662
 20
82.85283997867646
 30
0.0
  0
POINT
  5
914
330
C6
100
AcDbEntity
  8
DEFPOINTS
  6
Continuous
 62
     0
370
     0
100
AcDbPoint
 10
183.52398053662
 20
154.8673058309764
 30
0.0
  0
ENDBLK
  5
D2
330
C6
100
AcDbEntity
  8
0
  6
ByBlock
 62
     0
370
    -2
100
AcDbBlockEnd
  0
BLOCK
  5
1B9
330
1B8
100
AcDbEntity
  8
0
  6
ByBlock
 62
     0
370
    -2
100
AcDbBlockBegin
  2
*X5
 70
     1
 10
0.0
 20
0.0
 30
0.0
  3
*X5
  1

  0
LINE
  5
1BA
330
1B8
100
AcDbEntity
  8
0
  6
Continuous
 62
     0
100
AcDbLine
 10
-330.2892572040381
 20
528.0
 30
0.0
 11
-321.7872592933062
 21
528.0
 31
0.0
  0
LINE
  5
1BB
330
1B8
100
AcDbEntity
  8
0
  6
Continuous
 62
     0
100
AcDbLine
 10
-315.8155315392132
 20
528.0
 30
0.0
 11
-311.969393775011
 21
528.0
 31
0.0
  0
LINE
  5
1BC
330
1B8
100
AcDbEntity
  8
0
  6
Continuous
 62
     0
100
AcDbLine
 10
-302.8589828779122
 20
528.0
 30
0.0
 11
-280.7066797499243
 21
528.0
 31
0.0
  0
LINE
  5
1BD
330
1B8
100
AcDbEntity
  8
0
  6
Continuous
 62
     0
100
AcDbLine
 10
-276.1918449213526
 20
528.0
 30
0.0
 11
-266.7721491221139
 21
528.0
 31
0.0
  0
LINE
  5
1BE
330
1B8
100
AcDbEntity
  8
0
  6
Continuous
 62
     0
100
AcDbLine
 10
-266.1094946500114
 20
528.0
 30
0.0
 11
-263.3049517845852
 21
528.0
 31
0.0
  0
LINE
  5
1BF
330
1B8
100
AcDbEntity
  8
0
  6
Continuous
 62
     0
100
AcDbLine
 10
-256.7201273596412
 20
528.0
 30
0.0
 11
-252.7431906025524
 21
528.0
 31
0.0
  0
LINE
  5
1C0
330
1B8
100
AcDbEntity
  8
0
  6
Continuous
 62
     0
100
AcDbLine
 10
-241.4880547164703
 20
528.0
 30
0.0
 11
-232.1701231940819
 21
528.0
 31
0.0
  0
LINE
  5
1C1
330
1B8
100
AcDbEntity
  8
0
  6
Continuous
 62
     0
100
AcDbLine
 10
-227.046951022568
 20
528.0
 30
0.0
 11
-216.640007248258
 21
528.0
 31
0.0
  0
LINE
  5
1C2
330
1B8
100
AcDbEntity
  8
0
  6
Continuous
 62
     0
100
AcDbLine
 10
-212.2587810712619
 20
528.0
 30
0.0
 11
-208.0337408638623
 21
528.0
 31
0.0
  0
LINE
  5
1C3
330
1B8
100
AcDbEntity
  8
0
  6
Continuous
 62
     0
100
AcDbLine
 10
-331.8791113661184
 20
532.0
 30
0.0
 11
-323.4962005615234
 21
532.0
 31
0.0
  0
LINE
  5
1C4
330
1B8
100
AcDbEntity
  8
0
  6
Continuous
 62
     0
100
AcDbLine
 10
-314.1066665649414
 20
532.0
 30
0.0
 11
-310.2820887589666
 21
532.0
 31
0.0
  0
LINE
  5
1C5
330
1B8
100
AcDbEntity
  8
0
  6
Continuous
 62
     0
100
AcDbLine
 10
-302.6409378051758
 20
532.0
 30
0.0
 11
-294.2428779602051
 21
532.0
 31
0.0
  0
LINE
  5
1C6
330
1B8
100
AcDbEntity
  8
0
  6
Continuous
 62
     0
100
AcDbLine
 10
-278.0570753978923
 20
532.0
 30
0.0
 11
-268.7908094844834
 21
532.0
 31
0.0
  0
LINE
  5
1C7
330
1B8
100
AcDbEntity
  8
0
  6
Continuous
 62
     0
100
AcDbLine
 10
-264.0908962990991
 20
532.0
 30
0.0
 11
-261.4397184497743
 21
532.0
 31
0.0
  0
LINE
  5
1C8
330
1B8
100
AcDbEntity
  8
0
  6
Continuous
 62
     0
100
AcDbLine
 10
-254.8549044145073
 20
532.0
 30
0.0
 11
-234.0434130479083
 21
532.0
 31
0.0
  0
LINE
  5
1C9
330
1B8
100
AcDbEntity
  8
0
  6
Continuous
 62
     0
100
AcDbLine
 10
-229.355523152218
 20
532.0
 30
0.0
 11
-220.8734351624357
 21
532.0
 31
0.0
  0
LINE
  5
1CA
330
1B8
100
AcDbEntity
  8
0
  6
Continuous
 62
     0
100
AcDbLine
 10
-208.0253532464575
 20
532.0
 30
0.0
 11
-205.7251690070117
 21
532.0
 31
0.0
  0
LINE
  5
1CB
330
1B8
100
AcDbEntity
  8
0
  6
Continuous
 62
     0
100
AcDbLine
 10
-331.8942527770996
 20
536.0
 30
0.0
 11
-323.4962005615234
 21
536.0
 31
0.0
  0
LINE
  5
1CC
330
1B8
100
AcDbEntity
  8
0
  6
Continuous
 62
     0
100
AcDbLine
 10
-314.1066665649414
 20
536.0
 30
0.0
 11
-310.2575263977052
 21
536.0
 31
0.0
  0
LINE
  5
1CD
330
1B8
100
AcDbEntity
  8
0
  6
Continuous
 62
     0
100
AcDbLine
 10
-302.6409378051758
 20
536.0
 30
0.0
 11
-294.2428779602051
 21
536.0
 31
0.0
  0
LINE
  5
1CE
330
1B8
100
AcDbEntity
  8
0
  6
Continuous
 62
     0
100
AcDbLine
 10
-279.9223058744321
 20
536.0
 30
0.0
 11
-270.6560399610232
 21
536.0
 31
0.0
  0
LINE
  5
1CF
330
1B8
100
AcDbEntity
  8
0
  6
Continuous
 62
     0
100
AcDbLine
 10
-262.2256629642882
 20
536.0
 30
0.0
 11
-259.5744851149634
 21
536.0
 31
0.0
  0
LINE
  5
1D0
330
1B8
100
AcDbEntity
  8
0
  6
Continuous
 62
     0
100
AcDbLine
 10
-252.9896814693735
 20
536.0
 30
0.0
 11
-249.540475161565
 21
536.0
 31
0.0
  0
LINE
  5
1D1
330
1B8
100
AcDbEntity
  8
0
  6
Continuous
 62
     0
100
AcDbLine
 10
-245.1748954666892
 20
536.0
 30
0.0
 11
-235.9086444274518
 21
536.0
 31
0.0
  0
LINE
  5
1D2
330
1B8
100
AcDbEntity
  8
0
  6
Continuous
 62
     0
100
AcDbLine
 10
-229.3215655252004
 20
536.0
 30
0.0
 11
-220.8270604445019
 21
536.0
 31
0.0
  0
LINE
  5
1D3
330
1B8
100
AcDbEntity
  8
0
  6
Continuous
 62
     0
100
AcDbLine
 10
-208.0717280537648
 20
536.0
 30
0.0
 11
-205.6563720703125
 21
536.0
 31
0.0
  0
LINE
  5
1D4
330
1B8
100
AcDbEntity
  8
0
  6
Continuous
 62
     0
100
AcDbLine
 10
-331.9304307969673
 20
540.0
 30
0.0
 11
-323.4599805799859
 21
540.0
 31
0.0
  0
LINE
  5
1D5
330
1B8
100
AcDbEntity
  8
0
  6
Continuous
 62
     0
100
AcDbLine
 10
-314.1191641566175
 20
540.0
 30
0.0
 11
-310.2450338718896
 21
540.0
 31
0.0
  0
LINE
  5
1D6
330
1B8
100
AcDbEntity
  8
0
  6
Continuous
 62
     0
100
AcDbLine
 10
-302.9654670290859
 20
540.0
 30
0.0
 11
-293.918348736295
 21
540.0
 31
0.0
  0
LINE
  5
1D7
330
1B8
100
AcDbEntity
  8
0
  6
Continuous
 62
     0
100
AcDbLine
 10
-281.7976686766982
 20
540.0
 30
0.0
 11
-272.5204372093199
 21
540.0
 31
0.0
  0
LINE
  5
1D8
330
1B8
100
AcDbEntity
  8
0
  6
Continuous
 62
     0
100
AcDbLine
 10
-260.7602012129116
 20
540.0
 30
0.0
 11
-257.6990773865342
 21
540.0
 31
0.0
  0
LINE
  5
1D9
330
1B8
100
AcDbEntity
  8
0
  6
Continuous
 62
     0
100
AcDbLine
 10
-251.1244585242398
 20
540.0
 30
0.0
 11
-237.7738758069952
 21
540.0
 31
0.0
  0
LINE
  5
1DA
330
1B8
100
AcDbEntity
  8
0
  6
Continuous
 62
     0
100
AcDbLine
 10
-226.9196692276153
 20
540.0
 30
0.0
 11
-216.1865636328215
 21
540.0
 31
0.0
  0
LINE
  5
1DB
330
1B8
100
AcDbEntity
  8
0
  6
Continuous
 62
     0
100
AcDbLine
 10
-212.7122249548187
 20
540.0
 30
0.0
 11
-205.6563720703125
 21
540.0
 31
0.0
  0
ENDBLK
  5
1DC
330
1B8
100
AcDbEntity
  8
0
  6
ByBlock
 62
     0
370
    -2
100
AcDbBlockEnd
  0
BLOCK
  5
2A0
330
29E
100
AcDbEntity
  8
0
370
     0
100
AcDbBlockBegin
  2
GENAXEH
 70
     0
 10
0.0
 20
0.0
 30
0.0
  3
GENAXEH
  1

  0
LINE
  5
29F
330
29E
100
AcDbEntity
  8
0
100
AcDbLine
 10
-1.0
 20
0.0
 30
0.0
 11
1.0
 21
0.0
 31
0.0
  0
ENDBLK
  5
2A1
330
29E
100
AcDbEntity
  8
0
370
     0
100
AcDbBlockEnd
  0
BLOCK
  5
647
330
646
100
AcDbEntity
  8
0
370
     0
100
AcDbBlockBegin
  2
*D7
 70
     1
 10
0.0
 20
0.0
 30
0.0
  3
*D7
  1

  0
LINE
  5
91E
330
646
100
AcDbEntity
  8
PV
  6
Continuous
 62
     0
370
     0
100
AcDbLine
 10
132.2037271644276
 20
-99.14715954448638
 30
0.0
 11
225.3929623527892
 21
-99.14715954448643
 31
0.0
  0
LINE
  5
91F
330
646
100
AcDbEntity
  8
PV
  6
Continuous
 62
     0
370
     0
100
AcDbLine
 10
67.40377441898999
 20
-278.1471481003947
 30
0.0
 11
225.3929623527892
 21
-278.1471481003947
 31
0.0
  0
LINE
  5
920
330
646
100
AcDbEntity
  8
PV
  6
Continuous
 62
     0
370
     0
100
AcDbLine
 10
220.5929621620544
 20
-109.1471595444864
 30
0.0
 11
220.5929621620543
 21
-268.1471481003947
 31
0.0
  0
INSERT
  5
921
330
646
100
AcDbEntity
  8
PV
  6
Continuous
 62
     0
370
     0
100
AcDbBlockReference
  2
_OPEN30
 10
220.5929621620544
 20
-99.14715954448642
 30
0.0
 41
10.0
 42
10.0
 43
10.0
 50
90.0
  0
INSERT
  5
922
330
646
100
AcDbEntity
  8
PV
  6
Continuous
 62
     0
370
     0
100
AcDbBlockReference
  2
_OPEN30
 10
220.5929621620543
 20
-278.1471481003947
 30
0.0
 41
10.0
 42
10.0
 43
10.0
 50
270.0
  0
MTEXT
  5
923
330
646
100
AcDbEntity
  8
PV
  6
Continuous
 62
     0
100
AcDbMText
 10
208.2589625282653
 20
-187.8615060244001
 30
0.0
 40
16.66799926757812
 41
0.0
 71
     5
 72
     1
  1
\A1;179
 11
0.0000000000000001
 21
1.0
 31
0.0
 73
     1
 44
1.0
1001
ACAD
1000
MTEXTBEGIN
1070
    73
1070
     1
1070
    44
1040
1.0
1070
    74
1070
     0
1000
MTEXTEND
  0
POINT
  5
924
330
646
100
AcDbEntity
  8
DEFPOINTS
  6
Continuous
 62
     0
370
     0
100
AcDbPoint
 10
127.1237272407215
 20
-99.14715954448638
 30
0.0
  0
POINT
  5
925
330
646
100
AcDbEntity
  8
DEFPOINTS
  6
Continuous
 62
     0
370
     0
100
AcDbPoint
 10
62.32377449528393
 20
-278.1471481003947
 30
0.0
  0
POINT
  5
926
330
646
100
AcDbEntity
  8
DEFPOINTS
  6
Continuous
 62
     0
370
     0
100
AcDbPoint
 10
220.5929621620543
 20
-278.1471481003947
 30
0.0
  0
ENDBLK
  5
648
330
646
100
AcDbEntity
  8
0
370
     0
100
AcDbBlockEnd
  0
BLOCK
  5
678
330
677
100
AcDbEntity
  8
0
370
     0
100
AcDbBlockBegin
  2
*D8
 70
     1
 10
0.0
 20
0.0
 30
0.0
  3
*D8
  1

  0
LINE
  5
B4C
330
677
100
AcDbEntity
  8
PV
  6
Continuous
 62
     0
370
     0
100
AcDbLine
 10
67.40377441898999
 20
-278.1471481003947
 30
0.0
 11
275.4009589741199
 21
-278.1471481003947
 31
0.0
  0
LINE
  5
B4D
330
677
100
AcDbEntity
  8
PV
  6
Continuous
 62
     0
370
     0
100
AcDbLine
 10
58.40375463024792
 20
277.8529162726218
 30
0.0
 11
275.4009589741201
 21
277.8529162726217
 31
0.0
  0
LINE
  5
B4E
330
677
100
AcDbEntity
  8
PV
  6
Continuous
 62
     0
370
     0
100
AcDbLine
 10
270.600958783385
 20
-268.1471481003947
 30
0.0
 11
270.6009587833851
 21
267.8529162726217
 31
0.0
  0
INSERT
  5
B4F
330
677
100
AcDbEntity
  8
PV
  6
Continuous
 62
     0
370
     0
100
AcDbBlockReference
  2
_OPEN30
 10
270.600958783385
 20
-278.1471481003947
 30
0.0
 41
10.0
 42
10.0
 43
10.0
 50
270.0
  0
INSERT
  5
B50
330
677
100
AcDbEntity
  8
PV
  6
Continuous
 62
     0
370
     0
100
AcDbBlockReference
  2
_OPEN30
 10
270.6009587833851
 20
277.8529162726217
 30
0.0
 41
10.0
 42
10.0
 43
10.0
 50
90.0
  0
MTEXT
  5
B51
330
677
100
AcDbEntity
  8
PV
  6
Continuous
 62
     0
100
AcDbMText
 10
258.266959149596
 20
-0.147115913886453
 30
0.0
 40
16.66799926757812
 41
0.0
 71
     5
 72
     1
  1
\A1;556
 11
0.0000000000000001
 21
1.0
 31
0.0
 73
     1
 44
1.0
1001
ACAD
1000
MTEXTBEGIN
1070
    73
1070
     1
1070
    44
1040
1.0
1070
    74
1070
     0
1000
MTEXTEND
  0
POINT
  5
B52
330
677
100
AcDbEntity
  8
DEFPOINTS
  6
Continuous
 62
     0
370
     0
100
AcDbPoint
 10
62.32377449528393
 20
-278.1471481003947
 30
0.0
  0
POINT
  5
B53
330
677
100
AcDbEntity
  8
DEFPOINTS
  6
Continuous
 62
     0
370
     0
100
AcDbPoint
 10
53.32375470654188
 20
277.8529162726218
 30
0.0
  0
POINT
  5
B54
330
677
100
AcDbEntity
  8
DEFPOINTS
  6
Continuous
 62
     0
370
     0
100
AcDbPoint
 10
270.6009587833851
 20
277.8529162726217
 30
0.0
  0
ENDBLK
  5
679
330
677
100
AcDbEntity
  8
0
370
     0
100
AcDbBlockEnd
  0
BLOCK
  5
7B7
330
7B6
100
AcDbEntity
  8
0
370
     0
100
AcDbBlockBegin
  2
*D9
 70
     1
 10
0.0
 20
0.0
 30
0.0
  3
*D9
  1

  0
LINE
  5
939
330
7B6
100
AcDbEntity
  8
PV
  6
Continuous
 62
     0
370
    -2
100
AcDbLine
 10
-21.86322577937426
 20
-188.1471481003946
 30
0.0
 11
175.1368096409315
 21
-188.1471481003947
 31
0.0
  0
LINE
  5
93A
330
7B6
100
AcDbEntity
  8
PV
  6
Continuous
 62
     0
370
    -2
100
AcDbLine
 10
67.40377441898999
 20
-278.1471481003947
 30
0.0
 11
175.1368096409314
 21
-278.1471481003947
 31
0.0
  0
LINE
  5
93B
330
7B6
100
AcDbEntity
  8
PV
  6
Continuous
 62
     0
370
    -2
100
AcDbLine
 10
170.3368094501966
 20
-198.1471481003947
 30
0.0
 11
170.3368094501966
 21
-268.1471481003947
 31
0.0
  0
INSERT
  5
93C
330
7B6
100
AcDbEntity
  8
PV
  6
Continuous
 62
     0
370
    -2
100
AcDbBlockReference
  2
_OPEN30
 10
170.3368094501966
 20
-188.1471481003947
 30
0.0
 41
10.0
 42
10.0
 43
10.0
 50
90.0
  0
INSERT
  5
93D
330
7B6
100
AcDbEntity
  8
PV
  6
Continuous
 62
     0
370
    -2
100
AcDbBlockReference
  2
_OPEN30
 10
170.3368094501966
 20
-278.1471481003947
 30
0.0
 41
10.0
 42
10.0
 43
10.0
 50
270.0
  0
MTEXT
  5
93E
330
7B6
100
AcDbEntity
  8
PV
  6
Continuous
 62
     0
100
AcDbMText
 10
158.0028098164075
 20
-233.1471481003946
 30
0.0
 40
16.66799926757812
 41
0.0
 71
     5
 72
     1
  1
\A1;90
 11
0.0000000000000001
 21
1.0
 31
0.0
 73
     1
 44
1.0
1001
ACAD
1000
MTEXTBEGIN
1070
    73
1070
     1
1070
    44
1040
1.0
1070
    74
1070
     0
1000
MTEXTEND
  0
POINT
  5
93F
330
7B6
100
AcDbEntity
  8
DEFPOINTS
  6
Continuous
 62
     0
370
     0
100
AcDbPoint
 10
-26.94322570308032
 20
-188.1471481003946
 30
0.0
  0
POINT
  5
940
330
7B6
100
AcDbEntity
  8
DEFPOINTS
  6
Continuous
 62
     0
370
     0
100
AcDbPoint
 10
62.32377449528393
 20
-278.1471481003947
 30
0.0
  0
POINT
  5
941
330
7B6
100
AcDbEntity
  8
DEFPOINTS
  6
Continuous
 62
     0
370
     0
100
AcDbPoint
 10
170.3368094501966
 20
-278.1471481003947
 30
0.0
  0
ENDBLK
  5
7B8
330
7B6
100
AcDbEntity
  8
0
370
     0
100
AcDbBlockEnd
  0
BLOCK
  5
ACC
330
ACB
100
AcDbEntity
  8
0
370
     0
100
AcDbBlockBegin
  2
*D10
 70
     1
 10
0.0
 20
0.0
 30
0.0
  3
*D10
  1

  0
LINE
  5
BAA
330
ACB
100
AcDbEntity
  8
PV
  6
Continuous
 62
     0
370
     0
100
AcDbLine
 10
87.40377441898997
 20
323.8529162726218
 30
0.0
 11
328.2009601648551
 21
323.8529162726217
 31
0.0
  0
LINE
  5
BAB
330
ACB
100
AcDbEntity
  8
PV
  6
Continuous
 62
     0
370
     0
100
AcDbLine
 10
67.40377441898999
 20
-278.1471481003947
 30
0.0
 11
328.200960164855
 21
-278.1471481003947
 31
0.0
  0
LINE
  5
BAC
330
ACB
100
AcDbEntity
  8
PV
  6
Continuous
 62
     0
370
     0
100
AcDbLine
 10
323.4009599741201
 20
313.8529162726217
 30
0.0
 11
323.4009599741201
 21
-268.1471481003947
 31
0.0
  0
INSERT
  5
BAD
330
ACB
100
AcDbEntity
  8
PV
  6
Continuous
 62
     0
370
     0
100
AcDbBlockReference
  2
_OPEN30
 10
323.4009599741201
 20
323.8529162726217
 30
0.0
 41
10.0
 42
10.0
 43
10.0
 50
90.0
  0
INSERT
  5
BAE
330
ACB
100
AcDbEntity
  8
PV
  6
Continuous
 62
     0
370
     0
100
AcDbBlockReference
  2
_OPEN30
 10
323.4009599741201
 20
-278.1471481003947
 30
0.0
 41
10.0
 42
10.0
 43
10.0
 50
270.0
  0
MTEXT
  5
BAF
330
ACB
100
AcDbEntity
  8
PV
  6
Continuous
 62
     0
100
AcDbMText
 10
311.0669603403311
 20
22.85288408611354
 30
0.0
 40
16.66799926757812
 41
0.0
 71
     5
 72
     1
  1
\A1;(600)
 11
0.0000000000000001
 21
1.0
 31
0.0
 73
     1
 44
1.0
1001
ACAD
1000
MTEXTBEGIN
1070
    73
1070
     1
1070
    44
1040
1.0
1070
    74
1070
     0
1000
MTEXTEND
  0
POINT
  5
BB0
330
ACB
100
AcDbEntity
  8
DEFPOINTS
  6
Continuous
 62
     0
370
     0
100
AcDbPoint
 10
82.32377449528394
 20
323.8529162726218
 30
0.0
  0
POINT
  5
BB1
330
ACB
100
AcDbEntity
  8
DEFPOINTS
  6
Continuous
 62
     0
370
     0
100
AcDbPoint
 10
62.32377449528393
 20
-278.1471481003947
 30
0.0
  0
POINT
  5
BB2
330
ACB
100
AcDbEntity
  8
DEFPOINTS
  6
Continuous
 62
     0
370
     0
100
AcDbPoint
 10
323.4009599741201
 20
-278.1471481003947
 30
0.0
  0
ENDBLK
  5
ACD
330
ACB
100
AcDbEntity
  8
0
370
     0
100
AcDbBlockEnd
  0
BLOCK
  5
CC7
330
CC6
100
AcDbEntity
  8
0
100
AcDbBlockBegin
  2
JZB_0006
 70
     0
 10
0.0
 20
0.0
 30
0.0
  3
JZB_0006
  1
JZB_0006
  0
LINE
  5
CC8
330
CC6
100
AcDbEntity
  8
HATCH
  6
Continuous
 62
     7
370
    25
100
AcDbLine
 10
441.7385171754004
 20
1363.333333333333
 30
0.0
 11
462.224459573796
 21
1363.333333333333
 31
0.0
  0
LINE
  5
CC9
330
CC6
100
AcDbEntity
  8
HATCH
  6
Continuous
 62
     7
370
    25
100
AcDbLine
 10
433.6030745521102
 20
1366.666666666665
 30
0.0
 11
470.3605719726238
 21
1366.666666666665
 31
0.0
  0
LINE
  5
CCA
330
CC6
100
AcDbEntity
  8
HATCH
  6
Continuous
 62
     7
370
    25
100
AcDbLine
 10
428.8303096916341
 20
1369.999999999999
 30
0.0
 11
475.1328253351513
 21
1369.999999999999
 31
0.0
  0
LINE
  5
CCB
330
CC6
100
AcDbEntity
  8
HATCH
  6
Continuous
 62
     7
370
    25
100
AcDbLine
 10
468.1237614169645
 20
1373.333333333333
 30
0.0
 11
478.4298081764167
 21
1373.333333333333
 31
0.0
  0
LINE
  5
CCC
330
CC6
100
AcDbEntity
  8
HATCH
  6
Continuous
 62
     7
370
    25
100
AcDbLine
 10
425.5334420080485
 20
1373.333333333333
 30
0.0
 11
443.9587104004038
 21
1373.333333333333
 31
0.0
  0
LINE
  5
CCD
330
CC6
100
AcDbEntity
  8
HATCH
  6
Continuous
 62
     7
370
    25
100
AcDbLine
 10
473.4792036257045
 20
1376.666666666667
 30
0.0
 11
480.7607919742089
 21
1376.666666666667
 31
0.0
  0
LINE
  5
CCE
330
CC6
100
AcDbEntity
  8
HATCH
  6
Continuous
 62
     7
370
    25
100
AcDbLine
 10
423.2030554545974
 20
1376.666666666667
 30
0.0
 11
438.6029453881219
 21
1376.666666666667
 31
0.0
  0
LINE
  5
CCF
330
CC6
100
AcDbEntity
  8
HATCH
  6
Continuous
 62
     7
370
    25
100
AcDbLine
 10
421.6155585646914
 20
1379.999999999999
 30
0.0
 11
435.5593503295497
 21
1379.999999999999
 31
0.0
  0
LINE
  5
CD0
330
CC6
100
AcDbEntity
  8
HATCH
  6
Continuous
 62
     7
370
    25
100
AcDbLine
 10
420.654518569689
 20
1383.333333333333
 30
0.0
 11
433.8541916174484
 21
1383.333333333333
 31
0.0
  0
LINE
  5
CD1
330
CC6
100
AcDbEntity
  8
HATCH
  6
Continuous
 62
     7
370
    25
100
AcDbLine
 10
420.2643360480671
 20
1386.666666666667
 30
0.0
 11
433.1862701589648
 21
1386.666666666667
 31
0.0
  0
LINE
  5
CD2
330
CC6
100
AcDbEntity
  8
HATCH
  6
Continuous
 62
     7
370
    25
100
AcDbLine
 10
420.4277679437396
 20
1389.999999999999
 30
0.0
 11
433.4631027298794
 21
1389.999999999999
 31
0.0
  0
LINE
  5
CD3
330
CC6
100
AcDbEntity
  8
HATCH
  6
Continuous
 62
     7
370
    25
100
AcDbLine
 10
421.1494810179038
 20
1393.333333333333
 30
0.0
 11
434.721214113719
 21
1393.333333333333
 31
0.0
  0
LINE
  5
CD4
330
CC6
100
AcDbEntity
  8
HATCH
  6
Continuous
 62
     7
370
    25
100
AcDbLine
 10
474.9268617757466
 20
1396.666666666667
 30
0.0
 11
483.2271264936291
 21
1396.666666666667
 31
0.0
  0
LINE
  5
CD5
330
CC6
100
AcDbEntity
  8
HATCH
  6
Continuous
 62
     7
370
    25
100
AcDbLine
 10
422.4680945211319
 20
1396.666666666667
 30
0.0
 11
437.1563378559418
 21
1396.666666666667
 31
0.0
  0
LINE
  5
CD6
330
CC6
100
AcDbEntity
  8
HATCH
  6
Continuous
 62
     7
370
    25
100
AcDbLine
 10
470.7421037632967
 20
1399.999999999999
 30
0.0
 11
483.2312318159065
 21
1399.999999999999
 31
0.0
  0
LINE
  5
CD7
330
CC6
100
AcDbEntity
  8
HATCH
  6
Continuous
 62
     7
370
    25
100
AcDbLine
 10
424.4772090077558
 20
1399.999999999999
 30
0.0
 11
441.3432870756786
 21
1399.999999999999
 31
0.0
  0
LINE
  5
CD8
330
CC6
100
AcDbEntity
  8
HATCH
  6
Continuous
 62
     7
370
    25
100
AcDbLine
 10
461.7676340489231
 20
1403.333333333333
 30
0.0
 11
483.2353371381855
 21
1403.333333333333
 31
0.0
  0
LINE
  5
CD9
330
CC6
100
AcDbEntity
  8
HATCH
  6
Continuous
 62
     7
370
    25
100
AcDbLine
 10
427.3365626322235
 20
1403.333333333333
 30
0.0
 11
450.3150181814127
 21
1403.333333333333
 31
0.0
  0
LINE
  5
CDA
330
CC6
100
AcDbEntity
  8
HATCH
  6
Continuous
 62
     7
370
    25
100
AcDbLine
 10
480.5383173479298
 20
1406.666666666666
 30
0.0
 11
483.2394424604633
 21
1406.666666666666
 31
0.0
  0
LINE
  5
CDB
330
CC6
100
AcDbEntity
  8
HATCH
  6
Continuous
 62
     7
370
    25
100
AcDbLine
 10
431.4063100745697
 20
1406.666666666666
 30
0.0
 11
472.5582215415474
 21
1406.666666666666
 31
0.0
  0
LINE
  5
CDC
330
CC6
100
AcDbEntity
  8
HATCH
  6
Continuous
 62
     7
370
    25
100
AcDbLine
 10
481.6475483659902
 20
1410.0
 30
0.0
 11
483.2435477827428
 21
1410.0
 31
0.0
  0
LINE
  5
CDD
330
CC6
100
AcDbEntity
  8
HATCH
  6
Continuous
 62
     7
370
    25
100
AcDbLine
 10
437.6740024598175
 20
1410.0
 30
0.0
 11
466.2907419313036
 21
1410.0
 31
0.0
  0
LINE
  5
CDE
330
CC6
100
AcDbEntity
  8
HATCH
  6
Continuous
 62
     7
370
    25
100
AcDbLine
 10
389.2986971619719
 20
1363.333333333333
 30
0.0
 11
420.3615360327892
 21
1363.333333333333
 31
0.0
  0
LINE
  5
CDF
330
CC6
100
AcDbEntity
  8
HATCH
  6
Continuous
 62
     7
370
    25
100
AcDbLine
 10
340.3799309503447
 20
1363.333333333333
 30
0.0
 11
358.1428221640363
 21
1363.333333333333
 31
0.0
  0
LINE
  5
CE0
330
CC6
100
AcDbEntity
  8
HATCH
  6
Continuous
 62
     7
370
    25
100
AcDbLine
 10
392.4824411281004
 20
1366.666666666665
 30
0.0
 11
414.3520327116876
 21
1366.666666666665
 31
0.0
  0
LINE
  5
CE1
330
CC6
100
AcDbEntity
  8
HATCH
  6
Continuous
 62
     7
370
    25
100
AcDbLine
 10
345.6857992726889
 20
1366.666666666665
 30
0.0
 11
354.765853090746
 21
1366.666666666665
 31
0.0
  0
LINE
  5
CE2
330
CC6
100
AcDbEntity
  8
HATCH
  6
Continuous
 62
     7
370
    25
100
AcDbLine
 10
392.6307264253896
 20
1369.999999999999
 30
0.0
 11
411.3570695444619
 21
1369.999999999999
 31
0.0
  0
LINE
  5
CE3
330
CC6
100
AcDbEntity
  8
HATCH
  6
Continuous
 62
     7
370
    25
100
AcDbLine
 10
348.4689568427546
 20
1369.999999999999
 30
0.0
 11
354.5676519553633
 21
1369.999999999999
 31
0.0
  0
LINE
  5
CE4
330
CC6
100
AcDbEntity
  8
HATCH
  6
Continuous
 62
     7
370
    25
100
AcDbLine
 10
390.8267536252931
 20
1373.333333333333
 30
0.0
 11
409.3280840373036
 21
1373.333333333333
 31
0.0
  0
LINE
  5
CE5
330
CC6
100
AcDbEntity
  8
HATCH
  6
Continuous
 62
     7
370
    25
100
AcDbLine
 10
350.4434235382757
 20
1373.333333333333
 30
0.0
 11
356.402296953443
 21
1373.333333333333
 31
0.0
  0
LINE
  5
CE6
330
CC6
100
AcDbEntity
  8
HATCH
  6
Continuous
 62
     7
370
    25
100
AcDbLine
 10
352.4178902337969
 20
1376.666666666667
 30
0.0
 11
407.2990985301443
 21
1376.666666666667
 31
0.0
  0
LINE
  5
CE7
330
CC6
100
AcDbEntity
  8
HATCH
  6
Continuous
 62
     7
370
    25
100
AcDbLine
 10
354.3923569293182
 20
1379.999999999999
 30
0.0
 11
405.2701130229848
 21
1379.999999999999
 31
0.0
  0
LINE
  5
CE8
330
CC6
100
AcDbEntity
  8
HATCH
  6
Continuous
 62
     7
370
    25
100
AcDbLine
 10
385.1317199233091
 20
1383.333333333333
 30
0.0
 11
403.2411275158265
 21
1383.333333333333
 31
0.0
  0
LINE
  5
CE9
330
CC6
100
AcDbEntity
  8
HATCH
  6
Continuous
 62
     7
370
    25
100
AcDbLine
 10
383.233375355981
 20
1386.666666666667
 30
0.0
 11
401.2121420086672
 21
1386.666666666667
 31
0.0
  0
LINE
  5
CEA
330
CC6
100
AcDbEntity
  8
HATCH
  6
Continuous
 62
     7
370
    25
100
AcDbLine
 10
381.3350307886531
 20
1389.999999999999
 30
0.0
 11
399.1831565015088
 21
1389.999999999999
 31
0.0
  0
LINE
  5
CEB
330
CC6
100
AcDbEntity
  8
HATCH
  6
Continuous
 62
     7
370
    25
100
AcDbLine
 10
379.4366862213252
 20
1393.333333333333
 30
0.0
 11
397.1541709943496
 21
1393.333333333333
 31
0.0
  0
LINE
  5
CEC
330
CC6
100
AcDbEntity
  8
HATCH
  6
Continuous
 62
     7
370
    25
100
AcDbLine
 10
377.538341653998
 20
1396.666666666667
 30
0.0
 11
395.1251854871916
 21
1396.666666666667
 31
0.0
  0
LINE
  5
CED
330
CC6
100
AcDbEntity
  8
HATCH
  6
Continuous
 62
     7
370
    25
100
AcDbLine
 10
375.6399970866691
 20
1399.999999999999
 30
0.0
 11
393.0961999800318
 21
1399.999999999999
 31
0.0
  0
LINE
  5
CEE
330
CC6
100
AcDbEntity
  8
HATCH
  6
Continuous
 62
     7
370
    25
100
AcDbLine
 10
356.3668236248395
 20
1383.333333333333
 30
0.0
 11
362.3256970400068
 21
1383.333333333333
 31
0.0
  0
LINE
  5
CEF
330
CC6
100
AcDbEntity
  8
HATCH
  6
Continuous
 62
     7
370
    25
100
AcDbLine
 10
358.3412903203607
 20
1386.666666666667
 30
0.0
 11
364.3001637355283
 21
1386.666666666667
 31
0.0
  0
LINE
  5
CF0
330
CC6
100
AcDbEntity
  8
HATCH
  6
Continuous
 62
     7
370
    25
100
AcDbLine
 10
360.3157570158828
 20
1389.999999999999
 30
0.0
 11
366.2746304310504
 21
1389.999999999999
 31
0.0
  0
LINE
  5
CF1
330
CC6
100
AcDbEntity
  8
HATCH
  6
Continuous
 62
     7
370
    25
100
AcDbLine
 10
362.2902237114041
 20
1393.333333333333
 30
0.0
 11
368.2490971265718
 21
1393.333333333333
 31
0.0
  0
LINE
  5
CF2
330
CC6
100
AcDbEntity
  8
HATCH
  6
Continuous
 62
     7
370
    25
100
AcDbLine
 10
364.2646904069252
 20
1396.666666666667
 30
0.0
 11
370.2235638220927
 21
1396.666666666667
 31
0.0
  0
LINE
  5
CF3
330
CC6
100
AcDbEntity
  8
HATCH
  6
Continuous
 62
     7
370
    25
100
AcDbLine
 10
366.2391571024464
 20
1399.999999999999
 30
0.0
 11
372.1980305176142
 21
1399.999999999999
 31
0.0
  0
LINE
  5
CF4
330
CC6
100
AcDbEntity
  8
HATCH
  6
Continuous
 62
     7
370
    25
100
AcDbLine
 10
368.2136237979676
 20
1403.333333333333
 30
0.0
 11
391.0672144728736
 21
1403.333333333333
 31
0.0
  0
LINE
  5
CF5
330
CC6
100
AcDbEntity
  8
HATCH
  6
Continuous
 62
     7
370
    25
100
AcDbLine
 10
370.1880904934887
 20
1406.666666666666
 30
0.0
 11
389.0382289657143
 21
1406.666666666666
 31
0.0
  0
LINE
  5
CF6
330
CC6
100
AcDbEntity
  8
HATCH
  6
Continuous
 62
     7
370
    25
100
AcDbLine
 10
310.1260134857232
 20
1363.333333333333
 30
0.0
 11
328.6564212177711
 21
1363.333333333333
 31
0.0
  0
LINE
  5
CF7
330
CC6
100
AcDbEntity
  8
HATCH
  6
Continuous
 62
     7
370
    25
100
AcDbLine
 10
308.1488278005183
 20
1366.666666666665
 30
0.0
 11
330.5876795732722
 21
1366.666666666665
 31
0.0
  0
LINE
  5
CF8
330
CC6
100
AcDbEntity
  8
HATCH
  6
Continuous
 62
     7
370
    25
100
AcDbLine
 10
326.3836196585007
 20
1369.999999999999
 30
0.0
 11
332.5189379287743
 21
1369.999999999999
 31
0.0
  0
LINE
  5
CF9
330
CC6
100
AcDbEntity
  8
HATCH
  6
Continuous
 62
     7
370
    25
100
AcDbLine
 10
328.3148780140016
 20
1373.333333333333
 30
0.0
 11
334.4501962842755
 21
1373.333333333333
 31
0.0
  0
LINE
  5
CFA
330
CC6
100
AcDbEntity
  8
HATCH
  6
Continuous
 62
     7
370
    25
100
AcDbLine
 10
330.2461363695034
 20
1376.666666666665
 30
0.0
 11
336.3814546397772
 21
1376.666666666665
 31
0.0
  0
LINE
  5
CFB
330
CC6
100
AcDbEntity
  8
HATCH
  6
Continuous
 62
     7
370
    25
100
AcDbLine
 10
332.1773947250044
 20
1379.999999999999
 30
0.0
 11
338.3127129952783
 21
1379.999999999999
 31
0.0
  0
LINE
  5
CFC
330
CC6
100
AcDbEntity
  8
HATCH
  6
Continuous
 62
     7
370
    25
100
AcDbLine
 10
334.1086530805061
 20
1383.333333333333
 30
0.0
 11
340.2439713507801
 21
1383.333333333333
 31
0.0
  0
LINE
  5
CFD
330
CC6
100
AcDbEntity
  8
HATCH
  6
Continuous
 62
     7
370
    25
100
AcDbLine
 10
336.0399114360071
 20
1386.666666666667
 30
0.0
 11
342.175229706281
 21
1386.666666666667
 31
0.0
  0
LINE
  5
CFE
330
CC6
100
AcDbEntity
  8
HATCH
  6
Continuous
 62
     7
370
    25
100
AcDbLine
 10
337.9711697915091
 20
1389.999999999999
 30
0.0
 11
344.1064880617832
 21
1389.999999999999
 31
0.0
  0
LINE
  5
CFF
330
CC6
100
AcDbEntity
  8
HATCH
  6
Continuous
 62
     7
370
    25
100
AcDbLine
 10
339.9024281470099
 20
1393.333333333333
 30
0.0
 11
346.0377464172841
 21
1393.333333333333
 31
0.0
  0
LINE
  5
D00
330
CC6
100
AcDbEntity
  8
HATCH
  6
Continuous
 62
     7
370
    25
100
AcDbLine
 10
341.8336865025117
 20
1396.666666666667
 30
0.0
 11
347.9690047727859
 21
1396.666666666667
 31
0.0
  0
LINE
  5
D01
330
CC6
100
AcDbEntity
  8
HATCH
  6
Continuous
 62
     7
370
    25
100
AcDbLine
 10
306.1716421153142
 20
1369.999999999999
 30
0.0
 11
323.0112019421337
 21
1369.999999999999
 31
0.0
  0
LINE
  5
D02
330
CC6
100
AcDbEntity
  8
HATCH
  6
Continuous
 62
     7
370
    25
100
AcDbLine
 10
304.1944564301093
 20
1373.333333333333
 30
0.0
 11
321.0340162569289
 21
1373.333333333333
 31
0.0
  0
LINE
  5
D03
330
CC6
100
AcDbEntity
  8
HATCH
  6
Continuous
 62
     7
370
    25
100
AcDbLine
 10
302.2172707449045
 20
1376.666666666665
 30
0.0
 11
319.0568305717243
 21
1376.666666666665
 31
0.0
  0
LINE
  5
D04
330
CC6
100
AcDbEntity
  8
HATCH
  6
Continuous
 62
     7
370
    25
100
AcDbLine
 10
300.2400850596994
 20
1379.999999999999
 30
0.0
 11
317.0796448865189
 21
1379.999999999999
 31
0.0
  0
LINE
  5
D05
330
CC6
100
AcDbEntity
  8
HATCH
  6
Continuous
 62
     7
370
    25
100
AcDbLine
 10
298.2628993744943
 20
1383.333333333333
 30
0.0
 11
315.1024592013138
 21
1383.333333333333
 31
0.0
  0
LINE
  5
D06
330
CC6
100
AcDbEntity
  8
HATCH
  6
Continuous
 62
     7
370
    25
100
AcDbLine
 10
296.2857136892893
 20
1386.666666666667
 30
0.0
 11
313.1252735161092
 21
1386.666666666667
 31
0.0
  0
LINE
  5
D07
330
CC6
100
AcDbEntity
  8
HATCH
  6
Continuous
 62
     7
370
    25
100
AcDbLine
 10
294.3085280040855
 20
1389.999999999999
 30
0.0
 11
311.1480878309053
 21
1389.999999999999
 31
0.0
  0
LINE
  5
D08
330
CC6
100
AcDbEntity
  8
HATCH
  6
Continuous
 62
     7
370
    25
100
AcDbLine
 10
292.3313423188804
 20
1393.333333333333
 30
0.0
 11
309.1709021457002
 21
1393.333333333333
 31
0.0
  0
LINE
  5
D09
330
CC6
100
AcDbEntity
  8
HATCH
  6
Continuous
 62
     7
370
    25
100
AcDbLine
 10
290.3541566336753
 20
1396.666666666667
 30
0.0
 11
307.1937164604951
 21
1396.666666666667
 31
0.0
  0
LINE
  5
D0A
330
CC6
100
AcDbEntity
  8
HATCH
  6
Continuous
 62
     7
370
    25
100
AcDbLine
 10
343.7345600489164
 20
1399.999999999999
 30
0.0
 11
349.9002631282873
 21
1399.999999999999
 31
0.0
  0
LINE
  5
D0B
330
CC6
100
AcDbEntity
  8
HATCH
  6
Continuous
 62
     7
370
    25
100
AcDbLine
 10
288.3769709484704
 20
1399.999999999999
 30
0.0
 11
305.2849355207493
 21
1399.999999999999
 31
0.0
  0
LINE
  5
D0C
330
CC6
100
AcDbEntity
  8
HATCH
  6
Continuous
 62
     7
370
    25
100
AcDbLine
 10
344.0229787197964
 20
1403.333333333333
 30
0.0
 11
352.1072751406302
 21
1403.333333333333
 31
0.0
  0
LINE
  5
D0D
330
CC6
100
AcDbEntity
  8
HATCH
  6
Continuous
 62
     7
370
    25
100
AcDbLine
 10
286.0839293582012
 20
1403.333333333333
 30
0.0
 11
305.2367358555721
 21
1403.333333333333
 31
0.0
  0
LINE
  5
D0E
330
CC6
100
AcDbEntity
  8
HATCH
  6
Continuous
 62
     7
370
    25
100
AcDbLine
 10
341.0485208272044
 20
1406.666666666666
 30
0.0
 11
357.885194306272
 21
1406.666666666666
 31
0.0
  0
LINE
  5
D0F
330
CC6
100
AcDbEntity
  8
HATCH
  6
Continuous
 62
     7
370
    25
100
AcDbLine
 10
279.7293854348595
 20
1406.666666666666
 30
0.0
 11
308.8766840221432
 21
1406.666666666666
 31
0.0
  0
LINE
  5
D10
330
CC6
100
AcDbEntity
  8
HATCH
  6
Continuous
 62
     7
370
    25
100
AcDbLine
 10
235.3691143953854
 20
1363.333333333333
 30
0.0
 11
291.8397707496477
 21
1363.333333333333
 31
0.0
  0
LINE
  5
D11
330
CC6
100
AcDbEntity
  8
HATCH
  6
Continuous
 62
     7
370
    25
100
AcDbLine
 10
239.5334958247149
 20
1366.666666666665
 30
0.0
 11
292.4118881186016
 21
1366.666666666665
 31
0.0
  0
LINE
  5
D12
330
CC6
100
AcDbEntity
  8
HATCH
  6
Continuous
 62
     7
370
    25
100
AcDbLine
 10
289.3819207742918
 20
1369.999999999999
 30
0.0
 11
292.9840054875555
 21
1369.999999999999
 31
0.0
  0
LINE
  5
D13
330
CC6
100
AcDbEntity
  8
HATCH
  6
Continuous
 62
     7
370
    25
100
AcDbLine
 10
241.0411116041032
 20
1369.999999999999
 30
0.0
 11
259.5148170289137
 21
1369.999999999999
 31
0.0
  0
LINE
  5
D14
330
CC6
100
AcDbEntity
  8
HATCH
  6
Continuous
 62
     7
370
    25
100
AcDbLine
 10
291.8988004315386
 20
1373.333333333333
 30
0.0
 11
293.5561228565084
 21
1373.333333333333
 31
0.0
  0
LINE
  5
D15
330
CC6
100
AcDbEntity
  8
HATCH
  6
Continuous
 62
     7
370
    25
100
AcDbLine
 10
241.1403659962807
 20
1373.333333333333
 30
0.0
 11
257.7128264882728
 21
1373.333333333333
 31
0.0
  0
LINE
  5
D16
330
CC6
100
AcDbEntity
  8
HATCH
  6
Continuous
 62
     7
370
    25
100
AcDbLine
 10
241.1403659962807
 20
1376.666666666665
 30
0.0
 11
257.4425436735337
 21
1376.666666666665
 31
0.0
  0
LINE
  5
D17
330
CC6
100
AcDbEntity
  8
HATCH
  6
Continuous
 62
     7
370
    25
100
AcDbLine
 10
241.1403659962807
 20
1379.999999999999
 30
0.0
 11
257.4425436735337
 21
1379.999999999999
 31
0.0
  0
LINE
  5
D18
330
CC6
100
AcDbEntity
  8
HATCH
  6
Continuous
 62
     7
370
    25
100
AcDbLine
 10
241.1403659962807
 20
1383.333333333333
 30
0.0
 11
257.4425436735337
 21
1383.333333333333
 31
0.0
  0
LINE
  5
D19
330
CC6
100
AcDbEntity
  8
HATCH
  6
Continuous
 62
     7
370
    25
100
AcDbLine
 10
241.1403659962807
 20
1386.666666666667
 30
0.0
 11
257.4425436735337
 21
1386.666666666667
 31
0.0
  0
LINE
  5
D1A
330
CC6
100
AcDbEntity
  8
HATCH
  6
Continuous
 62
     7
370
    25
100
AcDbLine
 10
241.1403659962807
 20
1389.999999999999
 30
0.0
 11
257.4425436735337
 21
1389.999999999999
 31
0.0
  0
LINE
  5
D1B
330
CC6
100
AcDbEntity
  8
HATCH
  6
Continuous
 62
     7
370
    25
100
AcDbLine
 10
241.1403659962807
 20
1393.333333333333
 30
0.0
 11
257.4425436735337
 21
1393.333333333333
 31
0.0
  0
LINE
  5
D1C
330
CC6
100
AcDbEntity
  8
HATCH
  6
Continuous
 62
     7
370
    25
100
AcDbLine
 10
241.1403659962807
 20
1396.666666666667
 30
0.0
 11
257.4425436735337
 21
1396.666666666667
 31
0.0
  0
LINE
  5
D1D
330
CC6
100
AcDbEntity
  8
HATCH
  6
Continuous
 62
     7
370
    25
100
AcDbLine
 10
241.1403659962807
 20
1399.999999999999
 30
0.0
 11
257.4425436735337
 21
1399.999999999999
 31
0.0
  0
LINE
  5
D1E
330
CC6
100
AcDbEntity
  8
HATCH
  6
Continuous
 62
     7
370
    25
100
AcDbLine
 10
240.7337118754499
 20
1403.333333333333
 30
0.0
 11
257.845845303241
 21
1403.333333333333
 31
0.0
  0
LINE
  5
D1F
330
CC6
100
AcDbEntity
  8
HATCH
  6
Continuous
 62
     7
370
    25
100
AcDbLine
 10
236.4071586018101
 20
1406.666666666666
 30
0.0
 11
262.1433845570184
 21
1406.666666666666
 31
0.0
  0
LINE
  5
D20
330
CC6
100
AcDbEntity
  8
HATCH
  6
Continuous
 62
     7
370
    25
100
AcDbLine
 10
177.2195170905479
 20
1363.333333333333
 30
0.0
 11
219.6997054554498
 21
1363.333333333333
 31
0.0
  0
LINE
  5
D21
330
CC6
100
AcDbEntity
  8
HATCH
  6
Continuous
 62
     7
370
    25
100
AcDbLine
 10
171.9319987079766
 20
1366.666666666665
 30
0.0
 11
225.0159281254074
 21
1366.666666666665
 31
0.0
  0
LINE
  5
D22
330
CC6
100
AcDbEntity
  8
HATCH
  6
Continuous
 62
     7
370
    25
100
AcDbLine
 10
216.6926433988674
 20
1369.999999999999
 30
0.0
 11
226.4698860830698
 21
1369.999999999999
 31
0.0
  0
LINE
  5
D23
330
CC6
100
AcDbEntity
  8
HATCH
  6
Continuous
 62
     7
370
    25
100
AcDbLine
 10
167.8481892097841
 20
1369.999999999999
 30
0.0
 11
185.013101429252
 21
1369.999999999999
 31
0.0
  0
LINE
  5
D24
330
CC6
100
AcDbEntity
  8
HATCH
  6
Continuous
 62
     7
370
    25
100
AcDbLine
 10
218.6861356992545
 20
1373.333333333333
 30
0.0
 11
226.5617428178665
 21
1373.333333333333
 31
0.0
  0
LINE
  5
D25
330
CC6
100
AcDbEntity
  8
HATCH
  6
Continuous
 62
     7
370
    25
100
AcDbLine
 10
166.680338187788
 20
1373.333333333333
 30
0.0
 11
183.0196091260119
 21
1373.333333333333
 31
0.0
  0
LINE
  5
D26
330
CC6
100
AcDbEntity
  8
HATCH
  6
Continuous
 62
     7
370
    25
100
AcDbLine
 10
218.7369004811537
 20
1376.666666666665
 30
0.0
 11
226.5617428178659
 21
1376.666666666665
 31
0.0
  0
LINE
  5
D27
330
CC6
100
AcDbEntity
  8
HATCH
  6
Continuous
 62
     7
370
    25
100
AcDbLine
 10
218.7369004811537
 20
1379.999999999999
 30
0.0
 11
226.5617428178659
 21
1379.999999999999
 31
0.0
  0
LINE
  5
D28
330
CC6
100
AcDbEntity
  8
HATCH
  6
Continuous
 62
     7
370
    25
100
AcDbLine
 10
218.7369004811537
 20
1383.333333333333
 30
0.0
 11
226.5617428178662
 21
1383.333333333333
 31
0.0
  0
LINE
  5
D29
330
CC6
100
AcDbEntity
  8
HATCH
  6
Continuous
 62
     7
370
    25
100
AcDbLine
 10
218.7369004811537
 20
1386.666666666667
 30
0.0
 11
226.5617428178662
 21
1386.666666666667
 31
0.0
  0
LINE
  5
D2A
330
CC6
100
AcDbEntity
  8
HATCH
  6
Continuous
 62
     7
370
    25
100
AcDbLine
 10
218.7369004811537
 20
1389.999999999999
 30
0.0
 11
226.5617428178662
 21
1389.999999999999
 31
0.0
  0
LINE
  5
D2B
330
CC6
100
AcDbEntity
  8
HATCH
  6
Continuous
 62
     7
370
    25
100
AcDbLine
 10
218.7369004811537
 20
1393.333333333333
 30
0.0
 11
226.5617428178665
 21
1393.333333333333
 31
0.0
  0
LINE
  5
D2C
330
CC6
100
AcDbEntity
  8
HATCH
  6
Continuous
 62
     7
370
    25
100
AcDbLine
 10
218.7369004811537
 20
1396.666666666667
 30
0.0
 11
226.5617428178665
 21
1396.666666666667
 31
0.0
  0
LINE
  5
D2D
330
CC6
100
AcDbEntity
  8
HATCH
  6
Continuous
 62
     7
370
    25
100
AcDbLine
 10
218.7369004811537
 20
1399.999999999999
 30
0.0
 11
226.5617428178668
 21
1399.999999999999
 31
0.0
  0
LINE
  5
D2E
330
CC6
100
AcDbEntity
  8
HATCH
  6
Continuous
 62
     7
370
    25
100
AcDbLine
 10
166.666666666668
 20
1376.666666666665
 30
0.0
 11
182.9688443439193
 21
1376.666666666665
 31
0.0
  0
LINE
  5
D2F
330
CC6
100
AcDbEntity
  8
HATCH
  6
Continuous
 62
     7
370
    25
100
AcDbLine
 10
166.666666666668
 20
1379.999999999999
 30
0.0
 11
182.9688443439199
 21
1379.999999999999
 31
0.0
  0
LINE
  5
D30
330
CC6
100
AcDbEntity
  8
HATCH
  6
Continuous
 62
     7
370
    25
100
AcDbLine
 10
166.666666666668
 20
1383.333333333333
 30
0.0
 11
182.9688443439199
 21
1383.333333333333
 31
0.0
  0
LINE
  5
D31
330
CC6
100
AcDbEntity
  8
HATCH
  6
Continuous
 62
     7
370
    25
100
AcDbLine
 10
166.666666666668
 20
1386.666666666667
 30
0.0
 11
182.9688443439205
 21
1386.666666666667
 31
0.0
  0
LINE
  5
D32
330
CC6
100
AcDbEntity
  8
HATCH
  6
Continuous
 62
     7
370
    25
100
AcDbLine
 10
166.666666666668
 20
1389.999999999999
 30
0.0
 11
182.9688443439205
 21
1389.999999999999
 31
0.0
  0
LINE
  5
D33
330
CC6
100
AcDbEntity
  8
HATCH
  6
Continuous
 62
     7
370
    25
100
AcDbLine
 10
166.6666666666672
 20
1393.333333333333
 30
0.0
 11
182.9688443439201
 21
1393.333333333333
 31
0.0
  0
LINE
  5
D34
330
CC6
100
AcDbEntity
  8
HATCH
  6
Continuous
 62
     7
370
    25
100
AcDbLine
 10
166.6666666666672
 20
1396.666666666667
 30
0.0
 11
182.9688443439201
 21
1396.666666666667
 31
0.0
  0
LINE
  5
D35
330
CC6
100
AcDbEntity
  8
HATCH
  6
Continuous
 62
     7
370
    25
100
AcDbLine
 10
166.6666666666672
 20
1399.999999999999
 30
0.0
 11
182.9688443439208
 21
1399.999999999999
 31
0.0
  0
LINE
  5
D36
330
CC6
100
AcDbEntity
  8
HATCH
  6
Continuous
 62
     7
370
    25
100
AcDbLine
 10
218.0904577844312
 20
1403.333333333333
 30
0.0
 11
226.9274906181554
 21
1403.333333333333
 31
0.0
  0
LINE
  5
D37
330
CC6
100
AcDbEntity
  8
HATCH
  6
Continuous
 62
     7
370
    25
100
AcDbLine
 10
165.9519962607201
 20
1403.333333333333
 30
0.0
 11
183.6832651024563
 21
1403.333333333333
 31
0.0
  0
LINE
  5
D38
330
CC6
100
AcDbEntity
  8
HATCH
  6
Continuous
 62
     7
370
    25
100
AcDbLine
 10
214.1787957156605
 20
1406.666666666666
 30
0.0
 11
231.4283038387229
 21
1406.666666666666
 31
0.0
  0
LINE
  5
D39
330
CC6
100
AcDbEntity
  8
HATCH
  6
Continuous
 62
     7
370
    25
100
AcDbLine
 10
161.7116067185564
 20
1406.666666666666
 30
0.0
 11
187.9224248678931
 21
1406.666666666666
 31
0.0
  0
LINE
  5
D3A
330
CC6
100
AcDbEntity
  8
HIDDEN1
  6
Continuous
 62
     7
370
   100
100
AcDbLine
 10
525.0000000000019
 20
1335.000000000002
 30
0.0
 11
525.0000000000015
 21
1435.000000000003
 31
0.0
  0
LINE
  5
D3B
330
CC6
100
AcDbEntity
  8
HIDDEN1
  6
Continuous
 62
     7
370
   100
100
AcDbLine
 10
125.0000000000011
 20
1335.000000000002
 30
0.0
 11
525.0000000000011
 21
1335.000000000001
 31
0.0
  0
LINE
  5
D3C
330
CC6
100
AcDbEntity
  8
HIDDEN1
  6
Continuous
 62
     7
370
    25
100
AcDbLine
 10
1496.666666666667
 20
210.0000000000011
 30
0.0
 11
2050.0
 21
210.0000000000011
 31
0.0
  0
LINE
  5
D3D
330
CC6
100
AcDbEntity
  8
HIDDEN1
  6
Continuous
 62
     7
370
    25
100
AcDbLine
 10
1616.666666666668
 20
49.99999999999909
 30
0.0
 11
1616.666666666668
 21
210.0
 31
0.0
  0
CIRCLE
  5
D3E
330
CC6
100
AcDbEntity
  8
M2
  6
Continuous
 62
     4
370
    50
100
AcDbCircle
 10
161.5789944481721
 20
1407.532686521243
 30
0.0
 40
0.0000005
  0
LINE
  5
D3F
330
CC6
100
AcDbEntity
  8
M2
  6
Continuous
 62
     4
370
    50
100
AcDbLine
 10
236.0103369809526
 20
1407.532686521243
 30
0.0
 11
262.5368564603185
 21
1407.532686521243
 31
0.0
  0
LINE
  5
D40
330
CC6
100
AcDbEntity
  8
M2
  6
Continuous
 62
     4
370
    50
100
AcDbLine
 10
357.9850350583743
 20
1376.005342790404
 30
0.0
 11
389.3050352342896
 21
1376.005342790404
 31
0.0
  0
LINE
  5
D41
330
CC6
100
AcDbEntity
  8
M2
  6
Continuous
 62
     4
370
    50
100
AcDbLine
 10
360.9745417968693
 20
1381.052286597689
 30
0.0
 11
386.4307837268384
 21
1381.052286597689
 31
0.0
  0
LINE
  5
D42
330
CC6
100
AcDbEntity
  8
M2
  6
Continuous
 62
     4
370
    50
100
AcDbLine
 10
166.666666666668
 20
1373.540138805874
 30
0.0
 11
166.666666666668
 21
1400.89537699617
 31
0.0
  0
LINE
  5
D43
330
CC6
100
AcDbEntity
  8
M2
  6
Continuous
 62
     4
370
    50
100
AcDbLine
 10
182.9688443439215
 20
1373.949392196047
 30
0.0
 11
182.9688443439215
 21
1400.895783134031
 31
0.0
  0
LINE
  5
D44
330
CC6
100
AcDbEntity
  8
M2
  6
Continuous
 62
     4
370
    50
100
AcDbLine
 10
412.2646605777219
 20
1368.50895758815
 30
0.0
 11
388.5110864455596
 21
1407.532686521243
 31
0.0
  0
LINE
  5
D45
330
CC6
100
AcDbEntity
  8
M2
  6
Continuous
 62
     4
370
    50
100
AcDbLine
 10
347.5375990922339
 20
1368.427663610578
 30
0.0
 11
370.7010687016455
 21
1407.532686521243
 31
0.0
  0
LINE
  5
D46
330
CC6
100
AcDbEntity
  8
M2
  6
Continuous
 62
     4
370
    50
100
AcDbLine
 10
392.2865742838171
 20
1370.770011086415
 30
0.0
 11
389.3050352342894
 21
1376.005342790405
 31
0.0
  0
LINE
  5
D47
330
CC6
100
AcDbEntity
  8
M2
  6
Continuous
 62
     4
370
    50
100
AcDbLine
 10
354.9668749144241
 20
1370.910025743029
 30
0.0
 11
357.9850350583738
 21
1376.005342790404
 31
0.0
  0
LINE
  5
D48
330
CC6
100
AcDbEntity
  8
M2
  6
Continuous
 62
     4
370
    50
100
AcDbLine
 10
340.4896489627026
 20
1362.46731347876
 30
0.0
 11
358.0171028684333
 21
1362.46731347876
 31
0.0
  0
LINE
  5
D49
330
CC6
100
AcDbEntity
  8
M2
  6
Continuous
 62
     4
370
    50
100
AcDbLine
 10
389.4287223682636
 20
1362.46731347876
 30
0.0
 11
420.2616085002823
 21
1362.46731347876
 31
0.0
  0
LINE
  5
D4A
330
CC6
100
AcDbEntity
  8
M2
  6
Continuous
 62
     4
370
    50
100
AcDbLine
 10
370.7010687016459
 20
1407.532686521243
 30
0.0
 11
388.5110864455601
 21
1407.532686521243
 31
0.0
  0
LINE
  5
D4B
330
CC6
100
AcDbEntity
  8
M2
  6
Continuous
 62
     4
370
    50
100
AcDbLine
 10
279.4614601332687
 20
1407.532686521243
 30
0.0
 11
309.1291340982922
 21
1407.532686521243
 31
0.0
  0
LINE
  5
D4C
330
CC6
100
AcDbEntity
  8
M2
  6
Continuous
 62
     4
370
    50
100
AcDbLine
 10
340.9175153460051
 20
1407.532686521243
 30
0.0
 11
358.1114342217317
 21
1407.532686521243
 31
0.0
  0
LINE
  5
D4D
330
CC6
100
AcDbEntity
  8
M2
  6
Continuous
 62
     4
370
    50
100
AcDbLine
 10
360.9745417968693
 20
1381.052286597689
 30
0.0
 11
373.952840627492
 21
1402.962504784809
 31
0.0
  0
LINE
  5
D4E
330
CC6
100
AcDbEntity
  8
M2
  6
Continuous
 62
     4
370
    50
100
AcDbLine
 10
386.4307837268386
 20
1381.052286597689
 30
0.0
 11
373.9528406274922
 21
1402.962504784809
 31
0.0
  0
LINE
  5
D4F
330
CC6
100
AcDbEntity
  8
M2
  6
Continuous
 62
     4
370
    50
100
AcDbLine
 10
328.1546687937187
 20
1362.46731347876
 30
0.0
 11
351.1925646826601
 21
1402.230500044512
 31
0.0
  0
LINE
  5
D50
330
CC6
100
AcDbEntity
  8
M2
  6
Continuous
 62
     4
370
    50
100
AcDbLine
 10
324.7172250970991
 20
1367.123819025982
 30
0.0
 11
343.6145691637175
 21
1399.740452999
 31
0.0
  0
LINE
  5
D51
330
CC6
100
AcDbEntity
  8
M2
  6
Continuous
 62
     4
370
    50
100
AcDbLine
 10
324.7172250970991
 20
1367.123819025982
 30
0.0
 11
305.577202926163
 21
1399.391943552948
 31
0.0
  0
LINE
  5
D52
330
CC6
100
AcDbEntity
  8
M2
  6
Continuous
 62
     4
370
    50
100
AcDbLine
 10
310.6396981035928
 20
1362.46731347876
 30
0.0
 11
287.0874647256725
 21
1402.173975923535
 31
0.0
  0
LINE
  5
D53
330
CC6
100
AcDbEntity
  8
M2
  6
Continuous
 62
     4
370
    50
100
AcDbLine
 10
310.6396981035928
 20
1362.46731347876
 30
0.0
 11
328.1546687937187
 21
1362.46731347876
 31
0.0
  0
LINE
  5
D54
330
CC6
100
AcDbEntity
  8
M2
  6
Continuous
 62
     4
370
    50
100
AcDbLine
 10
257.4425436735339
 20
1375.249085796511
 30
0.0
 11
257.4425436735339
 21
1401.912608711376
 31
0.0
  0
LINE
  5
D55
330
CC6
100
AcDbEntity
  8
M2
  6
Continuous
 62
     4
370
    50
100
AcDbLine
 10
241.1403659962807
 20
1371.03335411841
 30
0.0
 11
241.1403659962807
 21
1401.906979114198
 31
0.0
  0
LINE
  5
D56
330
CC6
100
AcDbEntity
  8
M2
  6
Continuous
 62
     4
370
    50
100
AcDbLine
 10
218.7369004811537
 20
1373.949392193726
 30
0.0
 11
218.7369004811537
 21
1401.00945260022
 31
0.0
  0
LINE
  5
D57
330
CC6
100
AcDbEntity
  8
M2
  6
Continuous
 62
     4
370
    50
100
AcDbLine
 10
265.2206531082202
 20
1367.470976361826
 30
0.0
 11
283.1094791659522
 21
1367.470976361826
 31
0.0
  0
LINE
  5
D58
330
CC6
100
AcDbEntity
  8
M2
  6
Continuous
 62
     4
370
    50
100
AcDbLine
 10
291.6911312494492
 20
1362.46731347876
 30
0.0
 11
294.0674841899267
 21
1376.312683149574
 31
0.0
  0
LINE
  5
D59
330
CC6
100
AcDbEntity
  8
M2
  6
Continuous
 62
     4
370
    50
100
AcDbLine
 10
235.3964951424002
 20
1362.46731347876
 30
0.0
 11
291.6911312494501
 21
1362.46731347876
 31
0.0
  0
LINE
  5
D5A
330
CC6
100
AcDbEntity
  8
M2
  6
Continuous
 62
     4
370
    50
100
AcDbLine
 10
161.5789944481721
 20
1407.532686521243
 30
0.0
 11
188.0553269882066
 21
1407.532686521243
 31
0.0
  0
ARC
  5
D5B
330
CC6
100
AcDbEntity
  8
M2
  6
Continuous
 62
     4
370
    50
100
AcDbCircle
 10
197.2270595423261
 20
1453.643098092239
 30
0.0
 40
86.59303079641356
100
AcDbArc
 50
275.6515343203796
 51
277.9658516661099
  0
ARC
  5
D5C
330
CC6
100
AcDbEntity
  8
M2
  6
Continuous
 62
     4
370
    50
100
AcDbCircle
 10
197.2270595423261
 20
1453.643098092239
 30
0.0
 40
93.11390711220958
100
AcDbArc
 50
261.6064190564241
 51
284.4688421435062
  0
LINE
  5
D5D
330
CC6
100
AcDbEntity
  8
M2
  6
Continuous
 62
     4
370
    50
100
AcDbLine
 10
214.1336304187046
 20
1407.529124884826
 30
0.0
 11
231.5362226576989
 21
1407.529124884826
 31
0.0
  0
LINE
  5
D5E
330
CC6
100
AcDbEntity
  8
M2
  6
Continuous
 62
     4
370
    50
100
AcDbLine
 10
262.7198707999544
 20
1407.290478242083
 30
0.0
 11
262.7198707999544
 21
1407.349672181604
 31
0.0
  0
LINE
  5
D5F
330
CC6
100
AcDbEntity
  8
M2
  6
Continuous
 62
     4
370
    50
100
AcDbLine
 10
235.8273226413139
 20
1407.291202562255
 30
0.0
 11
235.8273226413139
 21
1407.349672181604
 31
0.0
  0
ARC
  5
D60
330
CC6
100
AcDbEntity
  8
M2
  6
Continuous
 62
     4
370
    50
100
AcDbCircle
 10
262.2623349508563
 20
1407.290478242083
 30
0.0
 40
0.4575358490992202
100
AcDbArc
 50
289.3958740160404
 51
0.0
  0
ARC
  5
D61
330
CC6
100
AcDbEntity
  8
M2
  6
Continuous
 62
     4
370
    50
100
AcDbCircle
 10
262.5368564603184
 20
1407.349672181604
 30
0.0
 40
0.183014339639688
100
AcDbArc
 50
0.0
 51
90.0
  0
ARC
  5
D62
330
CC6
100
AcDbEntity
  8
M2
  6
Continuous
 62
     4
370
    50
100
AcDbCircle
 10
236.0103369809526
 20
1407.349672181604
 30
0.0
 40
0.183014339639688
100
AcDbArc
 50
90.0
 51
180.0
  0
ARC
  5
D63
330
CC6
100
AcDbEntity
  8
M2
  6
Continuous
 62
     4
370
    50
100
AcDbCircle
 10
236.2848584904148
 20
1407.291202562255
 30
0.0
 40
0.4575358490992202
100
AcDbArc
 50
180.0
 51
250.7248663130126
  0
LINE
  5
D64
330
CC6
100
AcDbEntity
  8
M2
  6
Continuous
 62
     4
370
    50
100
AcDbLine
 10
236.1338237320055
 20
1406.859314202879
 30
0.0
 11
239.9766550551229
 21
1404.150870940524
 31
0.0
  0
LINE
  5
D65
330
CC6
100
AcDbEntity
  8
M2
  6
Continuous
 62
     4
370
    50
100
AcDbLine
 10
262.4142794986076
 20
1406.858909119439
 30
0.0
 11
258.5990043670817
 21
1404.151372961746
 31
0.0
  0
ARC
  5
D66
330
CC6
100
AcDbEntity
  8
M2
  6
Continuous
 62
     4
370
    50
100
AcDbCircle
 10
260.1877587681292
 20
1401.912608711376
 30
0.0
 40
2.745215094595319
100
AcDbArc
 50
125.3616783504514
 51
180.0
  0
ARC
  5
D67
330
CC6
100
AcDbEntity
  8
M2
  6
Continuous
 62
     4
370
    50
100
AcDbCircle
 10
238.3951509016854
 20
1401.906979114199
 30
0.0
 40
2.745215094595319
100
AcDbArc
 50
0.0
 51
54.82366186718007
  0
LINE
  5
D68
330
CC6
100
AcDbEntity
  8
M2
  6
Continuous
 62
     4
370
    50
100
AcDbLine
 10
195.9511758626284
 20
1367.470976352094
 30
0.0
 11
205.7545689859069
 21
1367.470976352094
 31
0.0
  0
LINE
  5
D69
330
CC6
100
AcDbEntity
  8
M2
  6
Continuous
 62
     4
370
    50
100
AcDbLine
 10
238.2270705239173
 20
1365.420794718329
 30
0.0
 11
235.6019201990726
 21
1363.573390272581
 31
0.0
  0
LINE
  5
D6A
330
CC6
100
AcDbEntity
  8
M2
  6
Continuous
 62
     4
370
    50
100
AcDbLine
 10
235.2134808027588
 20
1362.825049019237
 30
0.0
 11
235.2134808027588
 21
1362.650327818399
 31
0.0
  0
ARC
  5
D6B
330
CC6
100
AcDbEntity
  8
M2
  6
Continuous
 62
     4
370
    50
100
AcDbCircle
 10
235.3964951424002
 20
1362.6503278184
 30
0.0
 40
0.183014339639688
100
AcDbArc
 50
180.0
 51
270.0
  0
ARC
  5
D6C
330
CC6
100
AcDbEntity
  8
M2
  6
Continuous
 62
     4
370
    50
100
AcDbCircle
 10
234.2773282597932
 20
1371.03335411841
 30
0.0
 40
6.863037736488299
100
AcDbArc
 50
305.1353088423134
 51
0.0
  0
ARC
  5
D6D
330
CC6
100
AcDbEntity
  8
M2
  6
Continuous
 62
     4
370
    50
100
AcDbCircle
 10
236.1285525009557
 20
1362.825049019237
 30
0.0
 40
0.9150716981984404
100
AcDbArc
 50
125.1353088423179
 51
180.0
  0
ARC
  5
D6E
330
CC6
100
AcDbEntity
  8
M2
  6
Continuous
 62
     4
370
    50
100
AcDbCircle
 10
265.2206531082202
 20
1375.249085796511
 30
0.0
 40
7.77810943468674
100
AcDbArc
 50
180.0
 51
270.0
  0
LINE
  5
D6F
330
CC6
100
AcDbEntity
  8
M2
  6
Continuous
 62
     4
370
    50
100
AcDbLine
 10
226.5617428178682
 20
1370.956335867093
 30
0.0
 11
226.5617428178682
 21
1401.977524306871
 31
0.0
  0
ARC
  5
D70
330
CC6
100
AcDbEntity
  8
M2
  6
Continuous
 62
     4
370
    50
100
AcDbCircle
 10
219.6987050813782
 20
1370.956335867093
 30
0.0
 40
6.863037736488299
100
AcDbArc
 50
305.1353088423134
 51
0.0
  0
LINE
  5
D71
330
CC6
100
AcDbEntity
  8
M2
  6
Continuous
 62
     4
370
    50
100
AcDbLine
 10
223.6484473455066
 20
1365.343776467014
 30
0.0
 11
221.9818856616776
 21
1364.170962310552
 31
0.0
  0
LINE
  5
D72
330
CC6
100
AcDbEntity
  8
M2
  6
Continuous
 62
     4
370
    50
100
AcDbLine
 10
231.7192369998338
 20
1407.105098553136
 30
0.0
 11
231.7192369998338
 21
1407.34611054751
 31
0.0
  0
LINE
  5
D73
330
CC6
100
AcDbEntity
  8
M2
  6
Continuous
 62
     4
370
    50
100
AcDbLine
 10
213.9506160790631
 20
1407.065789701448
 30
0.0
 11
213.9506160790631
 21
1407.346110545188
 31
0.0
  0
ARC
  5
D74
330
CC6
100
AcDbEntity
  8
M2
  6
Continuous
 62
     4
370
    50
100
AcDbCircle
 10
229.3069579124626
 20
1401.977524306872
 30
0.0
 40
2.745215094595319
100
AcDbArc
 50
127.5212181517538
 51
180.0
  0
LINE
  5
D75
330
CC6
100
AcDbEntity
  8
M2
  6
Continuous
 62
     4
370
    50
100
AcDbLine
 10
227.6349704193622
 20
1404.15483083984
 30
0.0
 11
231.514307852268
 21
1406.723616040366
 31
0.0
  0
ARC
  5
D76
330
CC6
100
AcDbEntity
  8
M2
  6
Continuous
 62
     4
370
    50
100
AcDbCircle
 10
231.5362226601951
 20
1407.346110545189
 30
0.0
 40
0.183014339639688
100
AcDbArc
 50
0.0
 51
90.0
  0
ARC
  5
D77
330
CC6
100
AcDbEntity
  8
M2
  6
Continuous
 62
     4
370
    50
100
AcDbCircle
 10
231.2617011507359
 20
1407.105098553136
 30
0.0
 40
0.4575358490992202
100
AcDbArc
 50
303.5113754732186
 51
0.0
  0
LINE
  5
D78
330
CC6
100
AcDbEntity
  8
M2
  6
Continuous
 62
     4
370
    50
100
AcDbLine
 10
214.1379310055015
 20
1406.696574715069
 30
0.0
 11
216.8637512167804
 21
1404.701602464006
 31
0.0
  0
ARC
  5
D79
330
CC6
100
AcDbEntity
  8
M2
  6
Continuous
 62
     4
370
    50
100
AcDbCircle
 10
214.4081519281622
 20
1407.065789701448
 30
0.0
 40
0.4575358490992202
100
AcDbArc
 50
180.0
 51
233.8003635869543
  0
ARC
  5
D7A
330
CC6
100
AcDbEntity
  8
M2
  6
Continuous
 62
     4
370
    50
100
AcDbCircle
 10
214.1336304187046
 20
1407.346110545189
 30
0.0
 40
0.183014339639688
100
AcDbArc
 50
90.0
 51
180.0
  0
ARC
  5
D7B
330
CC6
100
AcDbEntity
  8
M2
  6
Continuous
 62
     4
370
    50
100
AcDbCircle
 10
214.1615419901609
 20
1401.009452600219
 30
0.0
 40
4.575358490992199
100
AcDbArc
 50
0.0
 51
53.80036358695486
  0
LINE
  5
D7C
330
CC6
100
AcDbEntity
  8
M2
  6
Continuous
 62
     4
370
    50
100
AcDbLine
 10
161.3959801085352
 20
1407.025279977978
 30
0.0
 11
161.3959801085352
 21
1407.349672181604
 31
0.0
  0
LINE
  5
D7D
330
CC6
100
AcDbEntity
  8
M2
  6
Continuous
 62
     4
370
    50
100
AcDbLine
 10
188.2383413278451
 20
1407.02551427208
 30
0.0
 11
188.2383413278451
 21
1407.349672181603
 31
0.0
  0
LINE
  5
D7E
330
CC6
100
AcDbEntity
  8
M2
  6
Continuous
 62
     4
370
    50
100
AcDbLine
 10
161.5171884914564
 20
1406.797558340037
 30
0.0
 11
164.6465269512958
 21
1404.690737628549
 31
0.0
  0
LINE
  5
D7F
330
CC6
100
AcDbEntity
  8
M2
  6
Continuous
 62
     4
370
    50
100
AcDbLine
 10
184.9884590140582
 20
1404.690790227997
 30
0.0
 11
188.1171644476376
 21
1406.797813846444
 31
0.0
  0
ARC
  5
D80
330
CC6
100
AcDbEntity
  8
M2
  6
Continuous
 62
     4
370
    50
100
AcDbCircle
 10
187.5442028349125
 20
1400.89578313403
 30
0.0
 40
4.575358490992199
100
AcDbArc
 50
123.9582570957734
 51
180.0
  0
ARC
  5
D81
330
CC6
100
AcDbEntity
  8
M2
  6
Continuous
 62
     4
370
    50
100
AcDbCircle
 10
162.0913081756744
 20
1400.89537699617
 30
0.0
 40
4.575358490992199
100
AcDbArc
 50
0.0
 51
56.04966949673376
  0
ARC
  5
D82
330
CC6
100
AcDbEntity
  8
M2
  6
Continuous
 62
     4
370
    50
100
AcDbCircle
 10
187.9638198183884
 20
1407.02551427208
 30
0.0
 40
0.2745215094595319
100
AcDbArc
 50
303.9582570957783
 51
0.0
  0
ARC
  5
D83
330
CC6
100
AcDbEntity
  8
M2
  6
Continuous
 62
     4
370
    50
100
AcDbCircle
 10
161.6705016179928
 20
1407.025279977978
 30
0.0
 40
0.2745215094595319
100
AcDbArc
 50
180.0
 51
236.0496694967011
  0
ARC
  5
D84
330
CC6
100
AcDbEntity
  8
M2
  6
Continuous
 62
     4
370
    50
100
AcDbCircle
 10
188.0553269882064
 20
1407.349672181604
 30
0.0
 40
0.183014339639688
100
AcDbArc
 50
0.0
 51
90.0
  0
ARC
  5
D85
330
CC6
100
AcDbEntity
  8
M2
  6
Continuous
 62
     4
370
    50
100
AcDbCircle
 10
161.5789944481721
 20
1407.349672181604
 30
0.0
 40
0.183014339639688
100
AcDbArc
 50
90.0
 51
180.0
  0
LINE
  5
D86
330
CC6
100
AcDbEntity
  8
M2
  6
Continuous
 62
     4
370
    50
100
AcDbLine
 10
217.5051266469391
 20
1370.793438130722
 30
0.0
 11
217.7823873839185
 21
1371.152360918316
 31
0.0
  0
LINE
  5
D87
330
CC6
100
AcDbEntity
  8
M2
  6
Continuous
 62
     4
370
    50
100
AcDbLine
 10
209.2273707618135
 20
1367.885617292344
 30
0.0
 11
214.8639921662382
 21
1369.121233246792
 31
0.0
  0
ARC
  5
D88
330
CC6
100
AcDbEntity
  8
M2
  6
Continuous
 62
     4
370
    50
100
AcDbCircle
 10
213.8842812531834
 20
1373.590469406131
 30
0.0
 40
4.575358490992199
100
AcDbArc
 50
282.3643554319389
 51
322.3146252338199
  0
ARC
  5
D89
330
CC6
100
AcDbEntity
  8
M2
  6
Continuous
 62
     4
370
    50
100
AcDbCircle
 10
204.4786852827492
 20
1453.64309809456
 30
0.0
 40
86.59303079641356
100
AcDbArc
 50
262.0341483338901
 51
264.3484656952251
  0
LINE
  5
D8A
330
CC6
100
AcDbEntity
  8
M2
  6
Continuous
 62
     4
370
    50
100
AcDbLine
 10
192.4783740632618
 20
1367.885617294667
 30
0.0
 11
186.8417526588371
 21
1369.121233249114
 31
0.0
  0
ARC
  5
D8B
330
CC6
100
AcDbEntity
  8
M2
  6
Continuous
 62
     4
370
    50
100
AcDbCircle
 10
187.8214635718916
 20
1373.590469408452
 30
0.0
 40
4.575358490992199
100
AcDbArc
 50
217.6853747661801
 51
257.6356445680611
  0
ARC
  5
D8C
330
CC6
100
AcDbEntity
  8
M2
  6
Continuous
 62
     4
370
    50
100
AcDbCircle
 10
187.5442028349125
 20
1373.949392196047
 30
0.0
 40
4.575358490992199
100
AcDbArc
 50
180.0
 51
217.6853747661801
  0
LINE
  5
D8D
330
CC6
100
AcDbEntity
  8
M2
  6
Continuous
 62
     4
370
    50
100
AcDbLine
 10
184.2006181781361
 20
1370.793438133044
 30
0.0
 11
183.9233574411592
 21
1371.152360920638
 31
0.0
  0
LINE
  5
D8E
330
CC6
100
AcDbEntity
  8
M2
  6
Continuous
 62
     4
370
    50
100
AcDbLine
 10
279.2784457936275
 20
1407.061800017433
 30
0.0
 11
279.2784457936275
 21
1407.349672181604
 31
0.0
  0
LINE
  5
D8F
330
CC6
100
AcDbEntity
  8
M2
  6
Continuous
 62
     4
370
    50
100
AcDbLine
 10
309.3121484379335
 20
1407.080944038485
 30
0.0
 11
309.3121484379335
 21
1407.349672181604
 31
0.0
  0
LINE
  5
D90
330
CC6
100
AcDbEntity
  8
M2
  6
Continuous
 62
     4
370
    50
100
AcDbLine
 10
279.4301976130825
 20
1406.816260484217
 30
0.0
 11
285.1984562606538
 21
1403.932132959945
 31
0.0
  0
LINE
  5
D91
330
CC6
100
AcDbEntity
  8
M2
  6
Continuous
 62
     4
370
    50
100
AcDbLine
 10
307.1817728823194
 20
1405.663396530155
 30
0.0
 11
309.1774629290126
 21
1406.844706970882
 31
0.0
  0
ARC
  5
D92
330
CC6
100
AcDbEntity
  8
M2
  6
Continuous
 62
     4
370
    50
100
AcDbCircle
 10
283.1522947605372
 20
1399.839807406359
 30
0.0
 40
4.575358490992199
100
AcDbArc
 50
30.67454069282717
 51
63.434963122481
  0
ARC
  5
D93
330
CC6
100
AcDbEntity
  8
M2
  6
Continuous
 62
     4
370
    50
100
AcDbCircle
 10
309.5123728913037
 20
1401.726112070122
 30
0.0
 40
4.575358490992199
100
AcDbArc
 50
120.6225974401399
 51
210.6745406928272
  0
ARC
  5
D94
330
CC6
100
AcDbEntity
  8
M2
  6
Continuous
 62
     4
370
    50
100
AcDbCircle
 10
279.5529673030896
 20
1407.061800017433
 30
0.0
 40
0.2745215094595319
100
AcDbArc
 50
180.0
 51
243.434963122464
  0
ARC
  5
D95
330
CC6
100
AcDbEntity
  8
M2
  6
Continuous
 62
     4
370
    50
100
AcDbCircle
 10
279.4614601332687
 20
1407.349672181604
 30
0.0
 40
0.183014339639688
100
AcDbArc
 50
90.0
 51
180.0
  0
ARC
  5
D96
330
CC6
100
AcDbEntity
  8
M2
  6
Continuous
 62
     4
370
    50
100
AcDbCircle
 10
309.1291340982921
 20
1407.349672181604
 30
0.0
 40
0.183014339639688
100
AcDbArc
 50
0.0
 51
90.0
  0
ARC
  5
D97
330
CC6
100
AcDbEntity
  8
M2
  6
Continuous
 62
     4
370
    50
100
AcDbCircle
 10
309.0376269284714
 20
1407.080944038485
 30
0.0
 40
0.2745215094595319
100
AcDbArc
 50
300.6225974401536
 51
0.0
  0
LINE
  5
D98
330
CC6
100
AcDbEntity
  8
M2
  6
Continuous
 62
     4
370
    50
100
AcDbLine
 10
358.2944485613707
 20
1407.054321061558
 30
0.0
 11
358.2944485613707
 21
1407.349672181605
 31
0.0
  0
LINE
  5
D99
330
CC6
100
AcDbEntity
  8
M2
  6
Continuous
 62
     4
370
    50
100
AcDbLine
 10
340.7345010063646
 20
1407.032982783734
 30
0.0
 11
340.7345010063646
 21
1407.349672181605
 31
0.0
  0
LINE
  5
D9A
330
CC6
100
AcDbEntity
  8
M2
  6
Continuous
 62
     4
370
    50
100
AcDbLine
 10
352.9436558772245
 20
1403.944234721385
 30
0.0
 11
358.1523953951699
 21
1406.813875231505
 31
0.0
  0
LINE
  5
D9B
330
CC6
100
AcDbEntity
  8
M2
  6
Continuous
 62
     4
370
    50
100
AcDbLine
 10
340.8489105588828
 20
1406.809989016106
 30
0.0
 11
342.3242048638556
 21
1405.750711616795
 31
0.0
  0
ARC
  5
D9C
330
CC6
100
AcDbEntity
  8
M2
  6
Continuous
 62
     4
370
    50
100
AcDbCircle
 10
358.0199270519142
 20
1407.054321061558
 30
0.0
 40
0.2745215094595319
100
AcDbArc
 50
298.8516001624275
 51
0.0
  0
ARC
  5
D9D
330
CC6
100
AcDbEntity
  8
M2
  6
Continuous
 62
     4
370
    50
100
AcDbCircle
 10
341.009022515824
 20
1407.032982783734
 30
0.0
 40
0.2745215094595319
100
AcDbArc
 50
180.0
 51
234.3212406879435
  0
ARC
  5
D9E
330
CC6
100
AcDbEntity
  8
M2
  6
Continuous
 62
     4
370
    50
100
AcDbCircle
 10
358.111434221732
 20
1407.349672181604
 30
0.0
 40
0.183014339639688
100
AcDbArc
 50
0.0
 51
90.0
  0
ARC
  5
D9F
330
CC6
100
AcDbEntity
  8
M2
  6
Continuous
 62
     4
370
    50
100
AcDbCircle
 10
340.9175153460051
 20
1407.349672181604
 30
0.0
 40
0.183014339639688
100
AcDbArc
 50
90.0
 51
180.0
  0
ARC
  5
DA0
330
CC6
100
AcDbEntity
  8
M2
  6
Continuous
 62
     4
370
    50
100
AcDbCircle
 10
355.1514615982123
 20
1399.936804220492
 30
0.0
 40
4.575358490992199
100
AcDbArc
 50
118.8516001624027
 51
149.9129623574221
  0
ARC
  5
DA1
330
CC6
100
AcDbEntity
  8
M2
  6
Continuous
 62
     4
370
    50
100
AcDbCircle
 10
339.6556722481635
 20
1402.034148823018
 30
0.0
 40
4.575358490992199
100
AcDbArc
 50
329.9129623574221
 51
54.32124068794309
  0
LINE
  5
DA2
330
CC6
100
AcDbEntity
  8
M2
  6
Continuous
 62
     4
370
    50
100
AcDbLine
 10
358.20011720807
 20
1362.6503278184
 30
0.0
 11
358.20011720807
 21
1363.167200047822
 31
0.0
  0
LINE
  5
DA3
330
CC6
100
AcDbEntity
  8
M2
  6
Continuous
 62
     4
370
    50
100
AcDbLine
 10
340.3066346230642
 20
1362.6503278184
 30
0.0
 11
340.3066346230642
 21
1363.147991417691
 31
0.0
  0
LINE
  5
DA4
330
CC6
100
AcDbEntity
  8
M2
  6
Continuous
 62
     4
370
    50
100
AcDbLine
 10
340.435515209083
 20
1363.380694620453
 30
0.0
 11
346.028369625886
 21
1366.881069657215
 31
0.0
  0
LINE
  5
DA5
330
CC6
100
AcDbEntity
  8
M2
  6
Continuous
 62
     4
370
    50
100
AcDbLine
 10
356.0641005262743
 20
1364.990478497087
 30
0.0
 11
358.0959568533204
 21
1363.382465317019
 31
0.0
  0
ARC
  5
DA6
330
CC6
100
AcDbEntity
  8
M2
  6
Continuous
 62
     4
370
    50
100
AcDbCircle
 10
358.9034531047571
 20
1368.578232983692
 30
0.0
 40
4.575358490992199
100
AcDbArc
 50
149.3600439739263
 51
231.6418720694284
  0
ARC
  5
DA7
330
CC6
100
AcDbEntity
  8
M2
  6
Continuous
 62
     4
370
    50
100
AcDbCircle
 10
343.6010209019022
 20
1370.759456369917
 30
0.0
 40
4.575358490992199
100
AcDbArc
 50
302.0410322244241
 51
329.3600439739262
  0
ARC
  5
DA8
330
CC6
100
AcDbEntity
  8
M2
  6
Continuous
 62
     4
370
    50
100
AcDbCircle
 10
357.9255956986126
 20
1363.167200047822
 30
0.0
 40
0.2745215094595319
100
AcDbArc
 50
0.0
 51
51.64187206942068
  0
ARC
  5
DA9
330
CC6
100
AcDbEntity
  8
M2
  6
Continuous
 62
     4
370
    50
100
AcDbCircle
 10
340.5811561325208
 20
1363.147991417691
 30
0.0
 40
0.2745215094595319
100
AcDbArc
 50
122.0410322243414
 51
180.0
  0
ARC
  5
DAA
330
CC6
100
AcDbEntity
  8
M2
  6
Continuous
 62
     4
370
    50
100
AcDbCircle
 10
358.0171028684331
 20
1362.6503278184
 30
0.0
 40
0.183014339639688
100
AcDbArc
 50
270.0
 51
0.0
  0
ARC
  5
DAB
330
CC6
100
AcDbEntity
  8
M2
  6
Continuous
 62
     4
370
    50
100
AcDbCircle
 10
214.1615419901609
 20
1373.949392193726
 30
0.0
 40
4.575358490992199
100
AcDbArc
 50
322.3146252338199
 51
0.0
  0
LINE
  5
DAC
330
CC6
100
AcDbEntity
  8
M2
  6
Continuous
 62
     4
370
    50
100
AcDbLine
 10
389.2457080286249
 20
1362.6503278184
 30
0.0
 11
389.2457080286249
 21
1363.172870602416
 31
0.0
  0
LINE
  5
DAD
330
CC6
100
AcDbEntity
  8
M2
  6
Continuous
 62
     4
370
    50
100
AcDbLine
 10
413.9600508534845
 20
1366.883267390248
 30
0.0
 11
420.3028737907843
 21
1363.378360188512
 31
0.0
  0
LINE
  5
DAE
330
CC6
100
AcDbEntity
  8
M2
  6
Continuous
 62
     4
370
    50
100
AcDbLine
 10
389.3427026922081
 20
1363.382265631366
 30
0.0
 11
391.2695383922871
 21
1365.015852952278
 31
0.0
  0
ARC
  5
DAF
330
CC6
100
AcDbEntity
  8
M2
  6
Continuous
 62
     4
370
    50
100
AcDbCircle
 10
389.4287223682636
 20
1362.6503278184
 30
0.0
 40
0.183014339639688
100
AcDbArc
 50
180.0
 51
270.0
  0
LINE
  5
DB0
330
CC6
100
AcDbEntity
  8
M2
  6
Continuous
 62
     4
370
    50
100
AcDbLine
 10
420.4446228399236
 20
1362.6503278184
 30
0.0
 11
420.4446228399236
 21
1363.138082155941
 31
0.0
  0
ARC
  5
DB1
330
CC6
100
AcDbEntity
  8
M2
  6
Continuous
 62
     4
370
    50
100
AcDbCircle
 10
420.2616085002823
 20
1362.6503278184
 30
0.0
 40
0.183014339639688
100
AcDbArc
 50
270.0
 51
0.0
  0
ARC
  5
DB2
330
CC6
100
AcDbEntity
  8
M2
  6
Continuous
 62
     4
370
    50
100
AcDbCircle
 10
420.1701013304613
 20
1363.138082155941
 30
0.0
 40
0.2745215094595319
100
AcDbArc
 50
0.0
 51
61.07590656970693
  0
ARC
  5
DB3
330
CC6
100
AcDbEntity
  8
M2
  6
Continuous
 62
     4
370
    50
100
AcDbCircle
 10
389.5202295380841
 20
1363.172870602416
 30
0.0
 40
0.2745215094595319
100
AcDbArc
 50
130.2915552042657
 51
180.0
  0
ARC
  5
DB4
330
CC6
100
AcDbEntity
  8
M2
  6
Continuous
 62
     4
370
    50
100
AcDbCircle
 10
416.1729251921902
 20
1370.88790126642
 30
0.0
 40
4.575358490992199
100
AcDbArc
 50
211.3286928667046
 51
241.0759065697404
  0
ARC
  5
DB5
330
CC6
100
AcDbEntity
  8
M2
  6
Continuous
 62
     4
370
    50
100
AcDbCircle
 10
388.3107576276899
 20
1368.50577010146
 30
0.0
 40
4.575358490992199
100
AcDbArc
 50
310.2915552042605
 51
29.66165865502361
  0
ARC
  5
DB6
330
CC6
100
AcDbEntity
  8
M2
  6
Continuous
 62
     4
370
    50
100
AcDbCircle
 10
219.3487241522582
 20
1367.912668577272
 30
0.0
 40
4.575358490992199
100
AcDbArc
 50
284.4688421409207
 51
305.1353088423113
  0
LINE
  5
DB7
330
CC6
100
AcDbEntity
  8
M2
  6
Continuous
 62
     4
370
    50
100
AcDbLine
 10
167.4521431885425
 20
1370.743657209394
 30
0.0
 11
167.0208755435799
 21
1371.774975567911
 31
0.0
  0
LINE
  5
DB8
330
CC6
100
AcDbEntity
  8
M2
  6
Continuous
 62
     4
370
    50
100
AcDbLine
 10
176.8350564297737
 20
1363.444172766445
 30
0.0
 11
183.0354455529121
 21
1361.656609861855
 31
0.0
  0
LINE
  5
DB9
330
CC6
100
AcDbEntity
  8
M2
  6
Continuous
 62
     4
370
    50
100
AcDbLine
 10
168.9850014911362
 20
1368.806524518384
 30
0.0
 11
175.4142127510334
 21
1364.138180036675
 31
0.0
  0
ARC
  5
DBA
330
CC6
100
AcDbEntity
  8
M2
  6
Continuous
 62
     4
370
    50
100
AcDbCircle
 10
184.3028931856597
 20
1366.05291306106
 30
0.0
 40
4.575358490992199
100
AcDbArc
 50
253.917807673234
 51
261.6064190568468
  0
ARC
  5
DBB
330
CC6
100
AcDbEntity
  8
M2
  6
Continuous
 62
     4
370
    50
100
AcDbCircle
 10
178.1025040625157
 20
1367.84047596565
 30
0.0
 40
4.575358490992199
100
AcDbArc
 50
234.0160489479939
 51
253.917807673234
  0
ARC
  5
DBC
330
CC6
100
AcDbEntity
  8
M2
  6
Continuous
 62
     4
370
    50
100
AcDbCircle
 10
171.2420251576609
 20
1373.540138805874
 30
0.0
 40
4.575358490992199
100
AcDbArc
 50
180.0
 51
202.6932775652895
  0
ARC
  5
DBD
330
CC6
100
AcDbEntity
  8
M2
  6
Continuous
 62
     4
370
    50
100
AcDbCircle
 10
171.6732928026208
 20
1372.508820447358
 30
0.0
 40
4.575358490992199
100
AcDbArc
 50
202.6932775652895
 51
234.0160489479939
  0
LINE
  5
DBE
330
CC6
100
AcDbEntity
  8
M2
  6
Continuous
 62
     4
370
    50
100
AcDbLine
 10
290.7556680458498
 20
1371.594624924015
 30
0.0
 11
293.9008339035124
 21
1376.378433338398
 31
0.0
  0
ARC
  5
DBF
330
CC6
100
AcDbEntity
  8
M2
  6
Continuous
 62
     4
370
    50
100
AcDbCircle
 10
283.1094791659521
 20
1376.62169334381
 30
0.0
 40
9.1507169819844
100
AcDbArc
 50
270.0
 51
326.6766537949969
  0
ARC
  5
DC0
330
CC6
100
AcDbEntity
  8
M2
  6
Continuous
 62
     4
370
    50
100
AcDbCircle
 10
293.977295792311
 20
1376.328162654198
 30
0.0
 40
0.091507169819844
100
AcDbArc
 50
350.260920291933
 51
146.6766537949511
  0
ELLIPSE
  5
DC1
330
CC6
100
AcDbEntity
  8
M2
  6
Continuous
 62
     4
370
    50
100
AcDbEllipse
 10
451.9819535460952
 20
1387.350946836552
 30
0.0
 11
-31.72930735277049
 21
0.0000019209185211
 31
0.0
210
0.0
220
0.0
230
1.0
 40
0.7998068702141468
 41
3.912065716262853
 42
9.112969794885263
  0
ELLIPSE
  5
DC2
330
CC6
100
AcDbEntity
  8
M2
  6
Continuous
 62
     4
370
    50
100
AcDbEllipse
 10
456.0416570275863
 20
1387.350946170113
 30
0.0
 11
22.87679245496082
 21
-0.0000016152487206
 31
0.0
210
0.0
220
0.0
230
0.9999999999999998
 40
0.721651058197022
 41
0.4426733724476526
 42
5.79210961745615
  0
LINE
  5
DC3
330
CC6
100
AcDbEntity
  8
M2
  6
Continuous
 62
     4
370
    50
100
AcDbLine
 10
483.2466825048284
 20
1412.545250509541
 30
0.0
 11
483.2243628458246
 21
1394.422711448998
 31
0.0
  0
LINE
  5
DC4
330
CC6
100
AcDbEntity
  8
M2
  6
Continuous
 62
     4
370
    50
100
AcDbLine
 10
482.6807157044976
 20
1412.728264849179
 30
0.0
 11
483.063668165187
 21
1412.728264849179
 31
0.0
  0
ARC
  5
DC5
330
CC6
100
AcDbEntity
  8
M2
  6
Continuous
 62
     4
370
    50
100
AcDbCircle
 10
483.063668165187
 20
1412.545250509541
 30
0.0
 40
0.183014339639688
100
AcDbArc
 50
0.0
 51
90.0
  0
ARC
  5
DC6
330
CC6
100
AcDbEntity
  8
M2
  6
Continuous
 62
     4
370
    50
100
AcDbCircle
 10
482.6807157044976
 20
1412.545250509541
 30
0.0
 40
0.183014339639688
100
AcDbArc
 50
90.0
 51
150.0004403131211
  0
LINE
  5
DC7
330
CC6
100
AcDbEntity
  8
M2
  6
Continuous
 62
     4
370
    50
100
AcDbLine
 10
480.5521779833175
 20
1406.697932069528
 30
0.0
 11
482.5222199338928
 21
1412.636756461337
 31
0.0
  0
ARC
  5
DC8
330
CC6
100
AcDbEntity
  8
M2
  6
Continuous
 62
     4
370
    50
100
AcDbCircle
 10
477.0780498654606
 20
1407.850378695714
 30
0.0
 40
3.660286792793761
100
AcDbArc
 50
230.5099444785177
 51
341.6481534343632
  0
LINE
  5
DC9
330
CC6
100
AcDbEntity
  8
M2
  6
Continuous
 62
     4
370
    50
100
AcDbLine
 10
476.7133499326114
 20
1394.422711448998
 30
0.0
 11
483.2243628458241
 21
1394.422711448998
 31
0.0
  0
LINE
  5
DCA
330
CC6
100
AcDbEntity
  8
M2
  6
Continuous
 62
     4
370
    50
100
AcDbLine
 10
476.2150091672381
 20
1379.565688499641
 30
0.0
 11
482.1812864504131
 21
1379.565688499641
 31
0.0
  0
ARC
  5
DCB
330
CC6
100
AcDbEntity
  8
M2
  6
Continuous
 62
     4
370
    50
100
AcDbCircle
 10
340.4896489627026
 20
1362.6503278184
 30
0.0
 40
0.183014339639688
100
AcDbArc
 50
180.0
 51
270.0
  0
LINE
  5
DCC
330
CC6
100
AcDbEntity
  8
HIDDEN1
  6
Continuous
 62
     7
370
    25
100
AcDbLine
 10
1496.666666666667
 20
210.0000000000011
 30
0.0
 11
1496.666666666667
 21
49.99999999999925
 31
0.0
  0
LINE
  5
DCD
330
CC6
100
AcDbEntity
  8
HIDDEN1
  6
Continuous
 62
     7
370
    25
100
AcDbLine
 10
1496.666666666667
 20
103.3333333333337
 30
0.0
 11
2050.0
 21
103.3333333333337
 31
0.0
  0
LINE
  5
DCE
330
CC6
100
AcDbEntity
  8
M1
  6
Continuous
 62
     7
370
    25
100
AcDbLine
 10
2100.000000000001
 20
0.0
 30
0.0
 11
2100.000000000001
 21
1485.0
 31
0.0
  0
LINE
  5
DCF
330
CC6
100
AcDbEntity
  8
M1
  6
Continuous
 62
     7
370
    25
100
AcDbLine
 10
0.0
 20
0.0
 30
0.0
 11
2100.0
 21
0.0
 31
0.0
  0
LINE
  5
DD0
330
CC6
100
AcDbEntity
  8
HIDDEN1
  6
Continuous
 62
     7
370
    25
100
AcDbLine
 10
2049.999999999998
 20
1237.499999999997
 30
0.0
 11
2074.999999999998
 21
1237.499999999997
 31
0.0
  0
LINE
  5
DD1
330
CC6
100
AcDbEntity
  8
HIDDEN1
  6
Continuous
 62
     7
370
    25
100
AcDbLine
 10
2049.999999999998
 20
989.9999999999982
 30
0.0
 11
2074.999999999998
 21
989.9999999999975
 31
0.0
  0
LINE
  5
DD2
330
CC6
100
AcDbEntity
  8
HIDDEN1
  6
Continuous
 62
     7
370
    25
100
AcDbLine
 10
2024.999999999999
 20
742.4999999999982
 30
0.0
 11
2074.999999999999
 21
742.4999999999977
 31
0.0
  0
LINE
  5
DD3
330
CC6
100
AcDbEntity
  8
HIDDEN1
  6
Continuous
 62
     7
370
    25
100
AcDbLine
 10
2049.999999999998
 20
494.9999999999991
 30
0.0
 11
2074.999999999998
 21
494.9999999999991
 31
0.0
  0
LINE
  5
DD4
330
CC6
100
AcDbEntity
  8
HIDDEN1
  6
Continuous
 62
     7
370
    25
100
AcDbLine
 10
2049.999999999998
 20
247.4999999999995
 30
0.0
 11
2074.999999999998
 21
247.4999999999995
 31
0.0
  0
LINE
  5
DD5
330
CC6
100
AcDbEntity
  8
HIDDEN1
  6
Continuous
 62
     7
370
    25
100
AcDbLine
 10
125.0000000000011
 20
1237.499999999997
 30
0.0
 11
100.0000000000011
 21
1237.499999999997
 31
0.0
  0
LINE
  5
DD6
330
CC6
100
AcDbEntity
  8
HIDDEN1
  6
Continuous
 62
     7
370
    25
100
AcDbLine
 10
125.0000000000011
 20
989.9999999999982
 30
0.0
 11
100.0000000000011
 21
989.9999999999982
 31
0.0
  0
LINE
  5
DD7
330
CC6
100
AcDbEntity
  8
HIDDEN1
  6
Continuous
 62
     7
370
    25
100
AcDbLine
 10
150.0000000000014
 20
742.4999999999982
 30
0.0
 11
100.0000000000014
 21
742.4999999999982
 31
0.0
  0
LINE
  5
DD8
330
CC6
100
AcDbEntity
  8
HIDDEN1
  6
Continuous
 62
     7
370
    25
100
AcDbLine
 10
125.000000000002
 20
494.9999999999991
 30
0.0
 11
100.000000000002
 21
494.9999999999991
 31
0.0
  0
LINE
  5
DD9
330
CC6
100
AcDbEntity
  8
HIDDEN1
  6
Continuous
 62
     7
370
    25
100
AcDbLine
 10
125.000000000002
 20
247.4999999999995
 30
0.0
 11
100.000000000002
 21
247.4999999999995
 31
0.0
  0
LINE
  5
DDA
330
CC6
100
AcDbEntity
  8
HIDDEN1
  6
Continuous
 62
     7
370
    25
100
AcDbLine
 10
125.0000000000011
 20
1435.000000000002
 30
0.0
 11
100.0000000000011
 21
1435.000000000002
 31
0.0
  0
LINE
  5
DDB
330
CC6
100
AcDbEntity
  8
HIDDEN1
  6
Continuous
 62
     7
370
    25
100
AcDbLine
 10
125.0000000000011
 20
1435.000000000002
 30
0.0
 11
125.0000000000011
 21
1460.000000000002
 31
0.0
  0
LINE
  5
DDC
330
CC6
100
AcDbEntity
  8
HIDDEN1
  6
Continuous
 62
     7
370
    25
100
AcDbLine
 10
2049.999999999998
 20
1435.0
 30
0.0
 11
2049.999999999998
 21
1460.0
 31
0.0
  0
LINE
  5
DDD
330
CC6
100
AcDbEntity
  8
HIDDEN1
  6
Continuous
 62
     7
370
    25
100
AcDbLine
 10
2049.999999999998
 20
1435.0
 30
0.0
 11
2074.999999999998
 21
1435.0
 31
0.0
  0
LINE
  5
DDE
330
CC6
100
AcDbEntity
  8
HIDDEN1
  6
Continuous
 62
     7
370
    25
100
AcDbLine
 10
2050.0
 20
49.99999999999909
 30
0.0
 11
2075.0
 21
49.99999999999909
 31
0.0
  0
LINE
  5
DDF
330
CC6
100
AcDbEntity
  8
HIDDEN1
  6
Continuous
 62
     7
370
    25
100
AcDbLine
 10
2050.0
 20
49.99999999999909
 30
0.0
 11
2050.0
 21
24.99999999999909
 31
0.0
  0
LINE
  5
DE0
330
CC6
100
AcDbEntity
  8
HIDDEN1
  6
Continuous
 62
     7
370
    25
100
AcDbLine
 10
125.000000000002
 20
49.99999999999545
 30
0.0
 11
125.000000000002
 21
24.99999999999546
 31
0.0
  0
LINE
  5
DE1
330
CC6
100
AcDbEntity
  8
HIDDEN1
  6
Continuous
 62
     7
370
    25
100
AcDbLine
 10
125.000000000002
 20
49.99999999999545
 30
0.0
 11
100.000000000002
 21
49.99999999999545
 31
0.0
  0
LINE
  5
DE2
330
CC6
100
AcDbEntity
  8
HIDDEN1
  6
Continuous
 62
     7
370
    25
100
AcDbLine
 10
1837.500000000001
 20
1435.000000000002
 30
0.0
 11
1837.500000000001
 21
1460.000000000002
 31
0.0
  0
LINE
  5
DE3
330
CC6
100
AcDbEntity
  8
HIDDEN1
  6
Continuous
 62
     7
370
    25
100
AcDbLine
 10
1575.0
 20
1435.000000000002
 30
0.0
 11
1575.0
 21
1460.000000000002
 31
0.0
  0
LINE
  5
DE4
330
CC6
100
AcDbEntity
  8
HIDDEN1
  6
Continuous
 62
     7
370
    25
100
AcDbLine
 10
1312.5
 20
1435.000000000002
 30
0.0
 11
1312.5
 21
1460.000000000002
 31
0.0
  0
LINE
  5
DE5
330
CC6
100
AcDbEntity
  8
HIDDEN1
  6
Continuous
 62
     7
370
    25
100
AcDbLine
 10
787.5000000000003
 20
1435.000000000002
 30
0.0
 11
787.5000000000003
 21
1460.000000000002
 31
0.0
  0
LINE
  5
DE6
330
CC6
100
AcDbEntity
  8
HIDDEN1
  6
Continuous
 62
     7
370
    25
100
AcDbLine
 10
525.0
 20
1435.0
 30
0.0
 11
525.0
 21
1460.0
 31
0.0
  0
LINE
  5
DE7
330
CC6
100
AcDbEntity
  8
HIDDEN1
  6
Continuous
 62
     7
370
    25
100
AcDbLine
 10
262.5000000000009
 20
1435.0
 30
0.0
 11
262.5000000000009
 21
1460.0
 31
0.0
  0
LINE
  5
DE8
330
CC6
100
AcDbEntity
  8
HIDDEN1
  6
Continuous
 62
     7
370
    25
100
AcDbLine
 10
1050.0
 20
1459.999999999997
 30
0.0
 11
1050.0
 21
1409.999999999997
 31
0.0
  0
LINE
  5
DE9
330
CC6
100
AcDbEntity
  8
HIDDEN1
  6
Continuous
 62
     7
370
    25
100
AcDbLine
 10
1837.500000000002
 20
49.99999999999727
 30
0.0
 11
1837.500000000002
 21
24.99999999999728
 31
0.0
  0
LINE
  5
DEA
330
CC6
100
AcDbEntity
  8
HIDDEN1
  6
Continuous
 62
     7
370
    25
100
AcDbLine
 10
1575.000000000001
 20
49.99999999999727
 30
0.0
 11
1575.000000000001
 21
24.99999999999728
 31
0.0
  0
LINE
  5
DEB
330
CC6
100
AcDbEntity
  8
HIDDEN1
  6
Continuous
 62
     7
370
    25
100
AcDbLine
 10
1312.500000000001
 20
49.99999999999727
 30
0.0
 11
1312.500000000001
 21
24.99999999999728
 31
0.0
  0
LINE
  5
DEC
330
CC6
100
AcDbEntity
  8
HIDDEN1
  6
Continuous
 62
     7
370
    25
100
AcDbLine
 10
787.500000000001
 20
49.99999999999727
 30
0.0
 11
787.500000000001
 21
24.99999999999728
 31
0.0
  0
LINE
  5
DED
330
CC6
100
AcDbEntity
  8
HIDDEN1
  6
Continuous
 62
     7
370
    25
100
AcDbLine
 10
525.0000000000019
 20
49.99999999999727
 30
0.0
 11
525.0000000000019
 21
24.99999999999728
 31
0.0
  0
LINE
  5
DEE
330
CC6
100
AcDbEntity
  8
HIDDEN1
  6
Continuous
 62
     7
370
    25
100
AcDbLine
 10
262.5000000000018
 20
49.99999999999727
 30
0.0
 11
262.5000000000018
 21
24.99999999999728
 31
0.0
  0
LINE
  5
DEF
330
CC6
100
AcDbEntity
  8
HIDDEN1
  6
Continuous
 62
     7
370
    25
100
AcDbLine
 10
1050.0
 20
24.99999999999956
 30
0.0
 11
1050.0
 21
74.99999999999954
 31
0.0
  0
LINE
  5
DF0
330
CC6
100
AcDbEntity
  8
HIDDEN1
  6
Continuous
 62
     7
370
   100
100
AcDbLine
 10
125.000000000002
 20
49.99999999999545
 30
0.0
 11
125.0000000000014
 21
1435.000000000001
 31
0.0
  0
LINE
  5
DF1
330
CC6
100
AcDbEntity
  8
HIDDEN1
  6
Continuous
 62
     7
370
   100
100
AcDbLine
 10
2050.0
 20
49.99999999999909
 30
0.0
 11
125.0000000000014
 21
49.99999999999576
 31
0.0
  0
LINE
  5
DF2
330
CC6
100
AcDbEntity
  8
HIDDEN1
  6
Continuous
 62
     7
370
   100
100
AcDbLine
 10
2049.999999999998
 20
1435.0
 30
0.0
 11
2050.0
 21
50.00000000000023
 31
0.0
  0
LINE
  5
DF3
330
CC6
100
AcDbEntity
  8
HIDDEN1
  6
Continuous
 62
     7
370
   100
100
AcDbLine
 10
125.0000000000011
 20
1435.000000000002
 30
0.0
 11
2049.999999999999
 21
1434.999999999999
 31
0.0
  0
MTEXT
  5
DF4
330
CC6
100
AcDbEntity
  8
HIDDEN1
 62
     7
370
    25
100
AcDbMText
 10
2064.999999585442
 20
124.4166655680428
 30
0.0
 40
15.0
 41
0.0
 71
     5
 72
     5
  1
\A1;F
  7
Standard
 73
     1
 44
1.0
1001
ACAD
1000
MTEXTBEGIN
1070
    73
1070
     1
1070
    44
1040
1.0
1070
    74
1070
     0
1000
MTEXTEND
1000
ACAD_MTEXT_DEFINED_HEIGHT_BEGIN
1070
    46
1040
15.0
1000
ACAD_MTEXT_DEFINED_HEIGHT_END
  0
MTEXT
  5
DF5
330
CC6
100
AcDbEntity
  8
HIDDEN1
 62
     7
370
    25
100
AcDbMText
 10
2064.999999585442
 20
371.916665568044
 30
0.0
 40
15.0
 41
0.0
 71
     5
 72
     5
  1
\A1;E
  7
Standard
 73
     1
 44
1.0
1001
ACAD
1000
MTEXTBEGIN
1070
    73
1070
     1
1070
    44
1040
1.0
1070
    74
1070
     0
1000
MTEXTEND
1000
ACAD_MTEXT_DEFINED_HEIGHT_BEGIN
1070
    46
1040
15.0
1000
ACAD_MTEXT_DEFINED_HEIGHT_END
  0
MTEXT
  5
DF6
330
CC6
100
AcDbEntity
  8
HIDDEN1
 62
     7
370
    25
100
AcDbMText
 10
2064.999999585442
 20
619.4166655680438
 30
0.0
 40
15.0
 41
0.0
 71
     5
 72
     5
  1
\A1;D
  7
Standard
 73
     1
 44
1.0
1001
ACAD
1000
MTEXTBEGIN
1070
    73
1070
     1
1070
    44
1040
1.0
1070
    74
1070
     0
1000
MTEXTEND
1000
ACAD_MTEXT_DEFINED_HEIGHT_BEGIN
1070
    46
1040
15.0
1000
ACAD_MTEXT_DEFINED_HEIGHT_END
  0
MTEXT
  5
DF7
330
CC6
100
AcDbEntity
  8
HIDDEN1
 62
     7
370
    25
100
AcDbMText
 10
2064.999999585442
 20
866.9166655680431
 30
0.0
 40
15.0
 41
0.0
 71
     5
 72
     5
  1
\A1;C
  7
Standard
 73
     1
 44
1.0
1001
ACAD
1000
MTEXTBEGIN
1070
    73
1070
     1
1070
    44
1040
1.0
1070
    74
1070
     0
1000
MTEXTEND
1000
ACAD_MTEXT_DEFINED_HEIGHT_BEGIN
1070
    46
1040
15.0
1000
ACAD_MTEXT_DEFINED_HEIGHT_END
  0
MTEXT
  5
DF8
330
CC6
100
AcDbEntity
  8
HIDDEN1
 62
     7
370
    25
100
AcDbMText
 10
2064.999999585442
 20
1114.416665568043
 30
0.0
 40
15.0
 41
0.0
 71
     5
 72
     5
  1
\A1;B
  7
Standard
 73
     1
 44
1.0
1001
ACAD
1000
MTEXTBEGIN
1070
    73
1070
     1
1070
    44
1040
1.0
1070
    74
1070
     0
1000
MTEXTEND
1000
ACAD_MTEXT_DEFINED_HEIGHT_BEGIN
1070
    46
1040
15.0
1000
ACAD_MTEXT_DEFINED_HEIGHT_END
  0
MTEXT
  5
DF9
330
CC6
100
AcDbEntity
  8
HIDDEN1
 62
     7
370
    25
100
AcDbMText
 10
2064.999999585444
 20
1361.916665568042
 30
0.0
 40
15.0
 41
0.0
 71
     5
 72
     5
  1
\A1;A
  7
Standard
 73
     1
 44
1.0
1001
ACAD
1000
MTEXTBEGIN
1070
    73
1070
     1
1070
    44
1040
1.0
1070
    74
1070
     0
1000
MTEXTEND
1000
ACAD_MTEXT_DEFINED_HEIGHT_BEGIN
1070
    46
1040
15.0
1000
ACAD_MTEXT_DEFINED_HEIGHT_END
  0
MTEXT
  5
DFA
330
CC6
100
AcDbEntity
  8
HIDDEN1
 62
     7
370
    25
100
AcDbMText
 10
1968.749999585444
 20
1450.666665568046
 30
0.0
 40
15.0
 41
0.0
 71
     5
 72
     5
  1
\A1;8
  7
Standard
 73
     1
 44
1.0
1001
ACAD
1000
MTEXTBEGIN
1070
    73
1070
     1
1070
    44
1040
1.0
1070
    74
1070
     0
1000
MTEXTEND
1000
ACAD_MTEXT_DEFINED_HEIGHT_BEGIN
1070
    46
1040
15.0
1000
ACAD_MTEXT_DEFINED_HEIGHT_END
  0
MTEXT
  5
DFB
330
CC6
100
AcDbEntity
  8
HIDDEN1
 62
     7
370
    25
100
AcDbMText
 10
1706.249999585444
 20
1450.666665568046
 30
0.0
 40
15.0
 41
0.0
 71
     5
 72
     5
  1
\A1;7
  7
Standard
 73
     1
 44
1.0
1001
ACAD
1000
MTEXTBEGIN
1070
    73
1070
     1
1070
    44
1040
1.0
1070
    74
1070
     0
1000
MTEXTEND
1000
ACAD_MTEXT_DEFINED_HEIGHT_BEGIN
1070
    46
1040
15.0
1000
ACAD_MTEXT_DEFINED_HEIGHT_END
  0
MTEXT
  5
DFC
330
CC6
100
AcDbEntity
  8
HIDDEN1
 62
     7
370
    25
100
AcDbMText
 10
1443.749999585444
 20
1450.666665568046
 30
0.0
 40
15.0
 41
0.0
 71
     5
 72
     5
  1
\A1;6
  7
Standard
 73
     1
 44
1.0
1001
ACAD
1000
MTEXTBEGIN
1070
    73
1070
     1
1070
    44
1040
1.0
1070
    74
1070
     0
1000
MTEXTEND
1000
ACAD_MTEXT_DEFINED_HEIGHT_BEGIN
1070
    46
1040
15.0
1000
ACAD_MTEXT_DEFINED_HEIGHT_END
  0
MTEXT
  5
DFD
330
CC6
100
AcDbEntity
  8
HIDDEN1
 62
     7
370
    25
100
AcDbMText
 10
1181.249999585444
 20
1450.666665568046
 30
0.0
 40
15.0
 41
0.0
 71
     5
 72
     5
  1
\A1;5
  7
Standard
 73
     1
 44
1.0
1001
ACAD
1000
MTEXTBEGIN
1070
    73
1070
     1
1070
    44
1040
1.0
1070
    74
1070
     0
1000
MTEXTEND
1000
ACAD_MTEXT_DEFINED_HEIGHT_BEGIN
1070
    46
1040
15.0
1000
ACAD_MTEXT_DEFINED_HEIGHT_END
  0
MTEXT
  5
DFE
330
CC6
100
AcDbEntity
  8
HIDDEN1
 62
     7
370
    25
100
AcDbMText
 10
918.7499995854439
 20
1450.666665568046
 30
0.0
 40
15.0
 41
0.0
 71
     5
 72
     5
  1
\A1;4
  7
Standard
 73
     1
 44
1.0
1001
ACAD
1000
MTEXTBEGIN
1070
    73
1070
     1
1070
    44
1040
1.0
1070
    74
1070
     0
1000
MTEXTEND
1000
ACAD_MTEXT_DEFINED_HEIGHT_BEGIN
1070
    46
1040
15.0
1000
ACAD_MTEXT_DEFINED_HEIGHT_END
  0
MTEXT
  5
DFF
330
CC6
100
AcDbEntity
  8
HIDDEN1
 62
     7
370
    25
100
AcDbMText
 10
656.249999585445
 20
1450.666665568046
 30
0.0
 40
15.0
 41
0.0
 71
     5
 72
     5
  1
\A1;3
  7
Standard
 73
     1
 44
1.0
1001
ACAD
1000
MTEXTBEGIN
1070
    73
1070
     1
1070
    44
1040
1.0
1070
    74
1070
     0
1000
MTEXTEND
1000
ACAD_MTEXT_DEFINED_HEIGHT_BEGIN
1070
    46
1040
15.0
1000
ACAD_MTEXT_DEFINED_HEIGHT_END
  0
MTEXT
  5
E00
330
CC6
100
AcDbEntity
  8
HIDDEN1
 62
     7
370
    25
100
AcDbMText
 10
393.7499995854448
 20
1450.666665568044
 30
0.0
 40
15.0
 41
0.0
 71
     5
 72
     5
  1
\A1;2
  7
Standard
 73
     1
 44
1.0
1001
ACAD
1000
MTEXTBEGIN
1070
    73
1070
     1
1070
    44
1040
1.0
1070
    74
1070
     0
1000
MTEXTEND
1000
ACAD_MTEXT_DEFINED_HEIGHT_BEGIN
1070
    46
1040
15.0
1000
ACAD_MTEXT_DEFINED_HEIGHT_END
  0
MTEXT
  5
E01
330
CC6
100
AcDbEntity
  8
HIDDEN1
 62
     7
370
    25
100
AcDbMText
 10
193.7499998792059
 20
1450.666665568044
 30
0.0
 40
15.0
 41
0.0
 71
     5
 72
     5
  1
\A1;\W1.5000;1
  7
Standard
 73
     1
 44
1.0
1001
ACAD
1000
MTEXTBEGIN
1070
    73
1070
     1
1070
    44
1040
1.0
1070
    74
1070
     0
1000
MTEXTEND
1000
ACAD_MTEXT_DEFINED_HEIGHT_BEGIN
1070
    46
1040
15.0
1000
ACAD_MTEXT_DEFINED_HEIGHT_END
  0
MTEXT
  5
E02
330
CC6
100
AcDbEntity
  8
HIDDEN1
 62
     7
370
    25
100
AcDbMText
 10
109.9999995854455
 20
1361.916665568044
 30
0.0
 40
15.0
 41
0.0
 71
     5
 72
     5
  1
\A1;A
  7
Standard
 73
     1
 44
1.0
1001
ACAD
1000
MTEXTBEGIN
1070
    73
1070
     1
1070
    44
1040
1.0
1070
    74
1070
     0
1000
MTEXTEND
1000
ACAD_MTEXT_DEFINED_HEIGHT_BEGIN
1070
    46
1040
15.0
1000
ACAD_MTEXT_DEFINED_HEIGHT_END
  0
MTEXT
  5
E03
330
CC6
100
AcDbEntity
  8
HIDDEN1
 62
     7
370
    25
100
AcDbMText
 10
109.9999995854455
 20
1114.416665568045
 30
0.0
 40
15.0
 41
0.0
 71
     5
 72
     5
  1
\A1;B
  7
Standard
 73
     1
 44
1.0
1001
ACAD
1000
MTEXTBEGIN
1070
    73
1070
     1
1070
    44
1040
1.0
1070
    74
1070
     0
1000
MTEXTEND
1000
ACAD_MTEXT_DEFINED_HEIGHT_BEGIN
1070
    46
1040
15.0
1000
ACAD_MTEXT_DEFINED_HEIGHT_END
  0
MTEXT
  5
E04
330
CC6
100
AcDbEntity
  8
HIDDEN1
 62
     7
370
    25
100
AcDbMText
 10
109.9999995854455
 20
866.9166655680431
 30
0.0
 40
15.0
 41
0.0
 71
     5
 72
     5
  1
\A1;C
  7
Standard
 73
     1
 44
1.0
1001
ACAD
1000
MTEXTBEGIN
1070
    73
1070
     1
1070
    44
1040
1.0
1070
    74
1070
     0
1000
MTEXTEND
1000
ACAD_MTEXT_DEFINED_HEIGHT_BEGIN
1070
    46
1040
15.0
1000
ACAD_MTEXT_DEFINED_HEIGHT_END
  0
MTEXT
  5
E05
330
CC6
100
AcDbEntity
  8
HIDDEN1
 62
     7
370
    25
100
AcDbMText
 10
109.9999995854455
 20
619.4166655680438
 30
0.0
 40
15.0
 41
0.0
 71
     5
 72
     5
  1
\A1;D
  7
Standard
 73
     1
 44
1.0
1001
ACAD
1000
MTEXTBEGIN
1070
    73
1070
     1
1070
    44
1040
1.0
1070
    74
1070
     0
1000
MTEXTEND
1000
ACAD_MTEXT_DEFINED_HEIGHT_BEGIN
1070
    46
1040
15.0
1000
ACAD_MTEXT_DEFINED_HEIGHT_END
  0
MTEXT
  5
E06
330
CC6
100
AcDbEntity
  8
HIDDEN1
 62
     7
370
    25
100
AcDbMText
 10
109.9999995854455
 20
371.916665568044
 30
0.0
 40
15.0
 41
0.0
 71
     5
 72
     5
  1
\A1;E
  7
Standard
 73
     1
 44
1.0
1001
ACAD
1000
MTEXTBEGIN
1070
    73
1070
     1
1070
    44
1040
1.0
1070
    74
1070
     0
1000
MTEXTEND
1000
ACAD_MTEXT_DEFINED_HEIGHT_BEGIN
1070
    46
1040
15.0
1000
ACAD_MTEXT_DEFINED_HEIGHT_END
  0
MTEXT
  5
E07
330
CC6
100
AcDbEntity
  8
HIDDEN1
 62
     7
370
    25
100
AcDbMText
 10
109.9999995854455
 20
124.4166655680447
 30
0.0
 40
15.0
 41
0.0
 71
     5
 72
     5
  1
\A1;F
  7
Standard
 73
     1
 44
1.0
1001
ACAD
1000
MTEXTBEGIN
1070
    73
1070
     1
1070
    44
1040
1.0
1070
    74
1070
     0
1000
MTEXTEND
1000
ACAD_MTEXT_DEFINED_HEIGHT_BEGIN
1070
    46
1040
15.0
1000
ACAD_MTEXT_DEFINED_HEIGHT_END
  0
MTEXT
  5
E08
330
CC6
100
AcDbEntity
  8
HIDDEN1
 62
     7
370
    25
100
AcDbMText
 10
193.7499998792068
 20
35.66666556804057
 30
0.0
 40
15.0
 41
0.0
 71
     5
 72
     5
  1
\A1;\W1.5000;1
  7
Standard
 73
     1
 44
1.0
1001
ACAD
1000
MTEXTBEGIN
1070
    73
1070
     1
1070
    44
1040
1.0
1070
    74
1070
     0
1000
MTEXTEND
1000
ACAD_MTEXT_DEFINED_HEIGHT_BEGIN
1070
    46
1040
15.0
1000
ACAD_MTEXT_DEFINED_HEIGHT_END
  0
MTEXT
  5
E09
330
CC6
100
AcDbEntity
  8
HIDDEN1
 62
     7
370
    25
100
AcDbMText
 10
393.7499995854457
 20
35.66666556804057
 30
0.0
 40
15.0
 41
0.0
 71
     5
 72
     5
  1
\A1;2
  7
Standard
 73
     1
 44
1.0
1001
ACAD
1000
MTEXTBEGIN
1070
    73
1070
     1
1070
    44
1040
1.0
1070
    74
1070
     0
1000
MTEXTEND
1000
ACAD_MTEXT_DEFINED_HEIGHT_BEGIN
1070
    46
1040
15.0
1000
ACAD_MTEXT_DEFINED_HEIGHT_END
  0
MTEXT
  5
E0A
330
CC6
100
AcDbEntity
  8
HIDDEN1
 62
     7
370
    25
100
AcDbMText
 10
656.249999585446
 20
35.66666556804057
 30
0.0
 40
15.0
 41
0.0
 71
     5
 72
     5
  1
\A1;3
  7
Standard
 73
     1
 44
1.0
1001
ACAD
1000
MTEXTBEGIN
1070
    73
1070
     1
1070
    44
1040
1.0
1070
    74
1070
     0
1000
MTEXTEND
1000
ACAD_MTEXT_DEFINED_HEIGHT_BEGIN
1070
    46
1040
15.0
1000
ACAD_MTEXT_DEFINED_HEIGHT_END
  0
MTEXT
  5
E0B
330
CC6
100
AcDbEntity
  8
HIDDEN1
 62
     7
370
    25
100
AcDbMText
 10
918.749999585445
 20
35.66666556804057
 30
0.0
 40
15.0
 41
0.0
 71
     5
 72
     5
  1
\A1;4
  7
Standard
 73
     1
 44
1.0
1001
ACAD
1000
MTEXTBEGIN
1070
    73
1070
     1
1070
    44
1040
1.0
1070
    74
1070
     0
1000
MTEXTEND
1000
ACAD_MTEXT_DEFINED_HEIGHT_BEGIN
1070
    46
1040
15.0
1000
ACAD_MTEXT_DEFINED_HEIGHT_END
  0
MTEXT
  5
E0C
330
CC6
100
AcDbEntity
  8
HIDDEN1
 62
     7
370
    25
100
AcDbMText
 10
1181.249999585444
 20
35.66666556804057
 30
0.0
 40
15.0
 41
0.0
 71
     5
 72
     5
  1
\A1;5
  7
Standard
 73
     1
 44
1.0
1001
ACAD
1000
MTEXTBEGIN
1070
    73
1070
     1
1070
    44
1040
1.0
1070
    74
1070
     0
1000
MTEXTEND
1000
ACAD_MTEXT_DEFINED_HEIGHT_BEGIN
1070
    46
1040
15.0
1000
ACAD_MTEXT_DEFINED_HEIGHT_END
  0
MTEXT
  5
E0D
330
CC6
100
AcDbEntity
  8
HIDDEN1
 62
     7
370
    25
100
AcDbMText
 10
1443.749999585446
 20
35.66666556804057
 30
0.0
 40
15.0
 41
0.0
 71
     5
 72
     5
  1
\A1;6
  7
Standard
 73
     1
 44
1.0
1001
ACAD
1000
MTEXTBEGIN
1070
    73
1070
     1
1070
    44
1040
1.0
1070
    74
1070
     0
1000
MTEXTEND
1000
ACAD_MTEXT_DEFINED_HEIGHT_BEGIN
1070
    46
1040
15.0
1000
ACAD_MTEXT_DEFINED_HEIGHT_END
  0
MTEXT
  5
E0E
330
CC6
100
AcDbEntity
  8
HIDDEN1
 62
     7
370
    25
100
AcDbMText
 10
1706.249999585445
 20
35.66666556804057
 30
0.0
 40
15.0
 41
0.0
 71
     5
 72
     5
  1
\A1;7
  7
Standard
 73
     1
 44
1.0
1001
ACAD
1000
MTEXTBEGIN
1070
    73
1070
     1
1070
    44
1040
1.0
1070
    74
1070
     0
1000
MTEXTEND
1000
ACAD_MTEXT_DEFINED_HEIGHT_BEGIN
1070
    46
1040
15.0
1000
ACAD_MTEXT_DEFINED_HEIGHT_END
  0
MTEXT
  5
E0F
330
CC6
100
AcDbEntity
  8
HIDDEN1
 62
     7
370
    25
100
AcDbMText
 10
1968.749999585446
 20
35.66666556804057
 30
0.0
 40
15.0
 41
0.0
 71
     5
 72
     5
  1
\A1;8
  7
Standard
 73
     1
 44
1.0
1001
ACAD
1000
MTEXTBEGIN
1070
    73
1070
     1
1070
    44
1040
1.0
1070
    74
1070
     0
1000
MTEXTEND
1000
ACAD_MTEXT_DEFINED_HEIGHT_BEGIN
1070
    46
1040
15.0
1000
ACAD_MTEXT_DEFINED_HEIGHT_END
  0
MTEXT
  5
E10
330
CC6
100
AcDbEntity
  8
M2
 62
     4
370
    50
100
AcDbMText
 10
1506.666666666667
 20
93.33333531695894
 30
0.0
 40
20.0
 41
0.0
 71
     1
 72
     5
  1
\A1;\W0.7875;DWG No.
  7
Standard
 73
     1
 44
1.0
1001
ACAD
1000
MTEXTBEGIN
1070
    73
1070
     1
1070
    44
1040
1.0
1070
    74
1070
     0
1000
MTEXTEND
1000
ACAD_MTEXT_DEFINED_HEIGHT_BEGIN
1070
    46
1040
20.0
1000
ACAD_MTEXT_DEFINED_HEIGHT_END
  0
MTEXT
  5
E11
330
CC6
100
AcDbEntity
  8
M2
 62
     4
370
    50
100
AcDbMText
 10
1506.666666666667
 20
200.0000019836266
 30
0.0
 40
20.0
 41
0.0
 71
     1
 72
     5
  1
\A1;\W0.8036;TITLE
  7
Standard
 73
     1
 44
1.0
1001
ACAD
1000
MTEXTBEGIN
1070
    73
1070
     1
1070
    44
1040
1.0
1070
    74
1070
     0
1000
MTEXTEND
1000
ACAD_MTEXT_DEFINED_HEIGHT_BEGIN
1070
    46
1040
20.0
1000
ACAD_MTEXT_DEFINED_HEIGHT_END
  0
ENDBLK
  5
E12
330
CC6
100
AcDbEntity
  8
0
100
AcDbBlockEnd
  0
ENDSEC
  0
SECTION
  2
ENTITIES
  0
DIMENSION
  5
A7
330
A
100
AcDbEntity
  8
PV
100
AcDbDimension
  2
*D2
 10
-156.676230034669
 20
22.4020704240088
 30
0.0
 11
51.94793569585545
 21
22.4020704240088
 31
0.0
 70
   160
  1
\U+2205<>
 71
     5
 41
0.9359251894303499
 42
318.0
  3
MXDIMSTYLE
100
AcDbAlignedDimension
 13
161.3237699653309
 23
78.85290101383271
 33
0.0
 14
-156.676230034669
 24
78.85290101383271
 34
0.0
100
AcDbRotatedDimension
1001
ACAD
1000
DSTYLE
1002
{
1070
     6
1000
_OPEN30
1070
     7
1000
_OPEN30
1070
    41
1040
2.77
1070
   144
1040
1.0
1070
   173
1070
     1
1070
   271
1070
     0
1070
   284
1070
     8
1070
   340
1005
A1
1070
   341
1005
99
1002
}
  0
LEADER
  5
A8
330
A
100
AcDbEntity
  8
PV
  6
Continuous
 62
     7
370
     0
100
AcDbLeader
  3
MXDIMSTYLE
 74
     0
 76
     2
 10
2.323771634260991
 20
-278.1471481003947
 30
0.0
 10
-75.12855406131894
 20
-318.9871502769116
 30
0.0
1001
ACAD
1000
DSTYLE
1002
{
1070
     6
1000
_OPEN30
1070
     7
1000
_OPEN30
1070
    41
1040
2.77
1070
   173
1070
     1
1070
   341
1005
99
1002
}
  0
LEADER
  5
A9
330
A
100
AcDbEntity
  8
PV
  6
Continuous
 62
     7
370
     0
100
AcDbLeader
  3
MXDIMSTYLE
 74
     0
 76
     2
 10
-138.4117436409653
 20
-104.8827660886024
 30
0.0
 10
-108.5170056627266
 20
-184.7536847586206
 30
0.0
1001
ACAD
1000
DSTYLE
1002
{
1070
     6
1000
_OPEN30
1070
     7
1000
_OPEN30
1070
    41
1040
2.77
1070
   173
1070
     1
1070
   341
1005
99
1002
}
  0
LEADER
  5
C4
330
A
100
AcDbEntity
  8
PV
  6
Continuous
 62
     7
370
     0
100
AcDbLeader
  3
MXDIMSTYLE
 74
     0
 76
     2
 10
-26.94322617991748
 20
-188.1471481003946
 30
0.0
 10
95.0167898219586
 20
-314.8218514244986
 30
0.0
1001
ACAD
1000
DSTYLE
1002
{
1070
     6
1000
_OPEN30
1070
     7
1000
_OPEN30
1070
    41
1040
2.77
1070
   173
1070
     1
1070
   341
1005
99
1002
}
  0
LEADER
  5
C5
330
A
100
AcDbEntity
  8
PV
  6
Continuous
 62
     7
370
     0
100
AcDbLeader
  3
MXDIMSTYLE
 74
     0
 76
     2
 10
2.323771634260991
 20
277.8529162726218
 30
0.0
 10
94.21186422878056
 20
367.1404797920065
 30
0.0
1001
ACAD
1000
DSTYLE
1002
{
1070
     6
1000
_OPEN30
1070
     7
1000
_OPEN30
1070
    41
1040
2.77
1070
   173
1070
     1
1070
   341
1005
99
1002
}
  0
DIMENSION
  5
D3
330
A
100
AcDbEntity
  8
PV
  6
Continuous
 62
     7
100
AcDbDimension
  2
*D4
 10
183.52398053662
 20
154.8673058309764
 30
0.0
 11
51.154267340793
 21
154.8673058309764
 31
0.0
 70
   160
  1
\U+2205<>
 71
     5
 41
0.9359251894303499
 42
362.4004211425781
  3
MXDIMSTYLE
100
AcDbAlignedDimension
 13
-178.8764406059581
 23
82.85283997867646
 33
0.0
 14
183.52398053662
 24
82.85283997867646
 34
0.0
100
AcDbRotatedDimension
1001
ACAD
1000
DSTYLE
1002
{
1070
     6
1000
_OPEN30
1070
     7
1000
_OPEN30
1070
    41
1040
2.77
1070
   144
1040
1.0
1070
   173
1070
     1
1070
   271
1070
     0
1070
   284
1070
     8
1070
   340
1005
CD
1070
   341
1005
99
1002
}
  0
MTEXT
  5
FF
330
A
100
AcDbEntity
  8
PV
  6
Continuous
 62
     7
100
AcDbMText
 10
102.2614079425202
 20
-299.210956999113
 30
0.0
 40
12.0
 41
0.0
 71
     1
 72
     1
  1
\A1;{\W0.711;圧力モニタ－取付ポ－ト\PＧ１／４  JIS B0202\PPressure Measuring Port}
 73
     1
 44
0.9359251894303499
1001
ACAD
1000
MTEXTBEGIN
1070
    73
1070
     1
1070
    44
1040
0.9359251894303499
1070
    74
1070
     0
1000
MTEXTEND
  0
MTEXT
  5
100
330
A
100
AcDbEntity
  8
PV
  6
Continuous
 62
     7
100
AcDbMText
 10
-267.9853960976798
 20
-167.2819832083286
 30
0.0
 40
14.0
 41
0.0
 71
     1
 72
     1
  1
\A1;{\W0.711;油戻しポ－ト\PG1/4 メネジ\PJIS B0202\POil Return Port\PG1/4 Internal thread}
 73
     1
 44
0.9359251894303499
1001
ACAD
1000
MTEXTBEGIN
1070
    73
1070
     1
1070
    44
1040
0.9359251894303499
1070
    74
1070
     0
1000
MTEXTEND
  0
MTEXT
  5
101
330
A
100
AcDbEntity
  8
PV
  6
Continuous
 62
     7
100
AcDbMText
 10
94.21186422878056
 20
400.2589835806134
 30
0.0
 40
12.0
 41
0.0
 71
     1
 72
     1
  1
\A1;{\W0.859;G3 メネジ JIS B0202\PG3 Internal Thread}
 73
     1
 44
0.9359251894303499
1001
ACAD
1000
MTEXTBEGIN
1070
    73
1070
     1
1070
    44
1040
0.9359251894303499
1070
    74
1070
     0
1000
MTEXTEND
  0
MTEXT
  5
103
102
{ACAD_XDICTIONARY
360
E3B
102
}
330
A
100
AcDbEntity
  8
PV
  6
Continuous
 62
     7
100
AcDbMText
 10
-334.2555170155228
 20
-465.4102177272577
 30
0.0
 40
16.66799926757812
 41
0.0
 71
     1
 72
     1
  1
\A1;{\W0.706; ※1:VF50 外径\U+2205１2０，４－\U+220510中心径\U+2205１00\P ※2:VG80 外径\U+2205１60，４－\U+220512中心径\U+2205１35，ｶﾞｽｹｯﾄ溝\U+03C6100\U+00D7\U+03C6110\U+00D73}
 73
     1
 44
0.9359251894303499
1001
ACAD
1000
MTEXTBEGIN
1070
    73
1070
     1
1070
    44
1040
0.9359251894303499
1070
    74
1070
     0
1000
MTEXTEND
  0
MTEXT
  5
104
330
A
100
AcDbEntity
  8
PV
  6
Continuous
 62
     7
100
AcDbMText
 10
-165.3720114425214
 20
-303.8894322384249
 30
0.0
 40
16.66799926757812
 41
0.0
 71
     1
 72
     1
  1
\A1;{\H0.71994x;\W0.819;VF50 ※１\PJIS　B2290}
 73
     1
 44
0.9359251894303499
1001
ACAD
1000
MTEXTBEGIN
1070
    73
1070
     1
1070
    44
1040
0.9359251894303499
1070
    74
1070
     0
1000
MTEXTEND
  0
SPLINE
  5
108
330
A
100
AcDbEntity
  8
PV
100
AcDbSpline
210
0.0
220
0.0
230
1.0
 70
     8
 71
     3
 72
     9
 73
     5
 74
     3
 42
0.0000000001
 43
0.0000000001
 44
0.000001
 12
0.6000000105800677
 22
-0.7999999920649491
 32
0.0
 13
1.0
 23
-0.0000000000000006
 33
0.0
 40
0.0
 40
0.0
 40
0.0
 40
0.0
 40
0.9559311914111489
 40
1.843936764547346
 40
1.843936764547346
 40
1.843936764547346
 40
1.843936764547346
 10
167.5737394477528
 20
79.85285523746552
 30
0.0
 10
167.7649256894063
 20
79.59794025561767
 30
0.0
 10
168.1818482160743
 20
79.14708416835647
 30
0.0
 10
168.7777528488298
 20
78.85282471988739
 30
0.0
 10
169.0737547065419
 20
78.85282471988739
 30
0.0
 11
167.5737394477528
 21
79.85285523746552
 31
0.0
 11
168.2453093613785
 21
79.17256243739666
 31
0.0
 11
169.0737547065419
 21
78.85282471988739
 31
0.0
  0
SPLINE
  5
109
330
A
100
AcDbEntity
  8
PV
100
AcDbSpline
210
0.0
220
0.0
230
1.0
 70
     8
 71
     3
 72
     9
 73
     5
 74
     3
 42
0.0000000001
 43
0.0000000001
 44
0.000001
 12
-1.0
 22
-0.0000000000000019
 32
0.0
 13
-0.600000010580068
 23
-0.7999999920649491
 33
0.0
 40
0.0
 40
0.0
 40
0.0
 40
0.0
 40
0.8880055731361972
 40
1.843936764547356
 40
1.843936764547356
 40
1.843936764547356
 40
1.843936764547356
 10
169.0737547065419
 20
94.15285828922334
 30
0.0
 10
168.7777528488298
 20
94.15285828922334
 30
0.0
 10
168.1818482160743
 20
93.85859884075427
 30
0.0
 10
167.7649256894063
 20
93.40774275349307
 30
0.0
 10
167.5737394477528
 20
93.15282777164521
 30
0.0
 11
169.0737547065419
 21
94.15285828922334
 31
0.0
 11
168.2453093613785
 21
93.83312057171407
 31
0.0
 11
167.5737394477528
 21
93.15282777164521
 31
0.0
  0
SPLINE
  5
10A
330
A
100
AcDbEntity
  8
PV
100
AcDbSpline
210
0.0
220
0.0
230
1.0
 70
     8
 71
     3
 72
     9
 73
     5
 74
     3
 42
0.0000000001
 43
0.0000000001
 44
0.000001
 12
-0.600000010580068
 22
0.7999999920649491
 32
0.0
 13
-1.0
 23
-0.0000000000000015
 33
0.0
 40
0.0
 40
0.0
 40
0.0
 40
0.0
 40
0.9559259062541901
 40
1.843938497868417
 40
1.843938497868417
 40
1.843938497868417
 40
1.843938497868417
 10
179.0737547065418
 20
93.15282777164521
 30
0.0
 10
178.8825695219197
 20
93.40774134411788
 30
0.0
 10
178.4656524079631
 20
93.85860446099325
 30
0.0
 10
177.8697436449576
 20
94.15285828922334
 30
0.0
 10
177.5737394477528
 20
94.15285828922334
 30
0.0
 11
179.0737547065418
 21
93.15282777164521
 31
0.0
 11
178.4021923159761
 21
93.83312057171407
 31
0.0
 11
177.5737394477528
 21
94.15285828922334
 31
0.0
  0
SPLINE
  5
10B
330
A
100
AcDbEntity
  8
PV
100
AcDbSpline
210
0.0
220
0.0
230
1.0
 70
     8
 71
     3
 72
     9
 73
     5
 74
     3
 42
0.0000000001
 43
0.0000000001
 44
0.000001
 12
-0.600000010580068
 22
-0.7999999920649491
 32
0.0
 13
-1.0
 23
0.0000000000000015
 33
0.0
 40
0.0
 40
0.0
 40
0.0
 40
0.0
 40
0.95592590625418
 40
1.843938497868407
 40
1.843938497868407
 40
1.843938497868407
 40
1.843938497868407
 10
179.0737547065418
 20
79.85285523746552
 30
0.0
 10
178.8825695219197
 20
79.59794166499285
 30
0.0
 10
178.4656524079632
 20
79.14707854811749
 30
0.0
 10
177.8697436449576
 20
78.85282471988739
 30
0.0
 10
177.5737394477528
 20
78.85282471988739
 30
0.0
 11
179.0737547065418
 21
79.85285523746552
 31
0.0
 11
178.4021923159761
 21
79.17256243739666
 31
0.0
 11
177.5737394477528
 21
78.85282471988739
 31
0.0
  0
SPLINE
  5
10C
330
A
100
AcDbEntity
  8
PV
100
AcDbSpline
210
0.0
220
0.0
230
1.0
 70
     8
 71
     3
 72
    11
 73
     7
 74
     5
 42
0.0000000001
 43
0.0000000001
 44
0.000001
 12
-0.768225894634572
 22
-0.6401788615792556
 32
0.0
 13
-0.7682260449526767
 23
0.6401786811948427
 33
0.0
 40
0.0
 40
0.0
 40
0.0
 40
0.0
 40
1.328838947514271
 40
2.637301914648676
 40
3.945787179520337
 40
5.274639238256005
 40
5.274639238256005
 40
5.274639238256005
 40
5.274639238256005
 10
-70.17623003466906
 20
-119.14718243267
 30
0.0
 10
-70.51651286442886
 20
-119.4307473008839
 30
0.0
 10
-71.26066963404928
 20
-119.9159704122156
 30
0.0
 10
-72.57621609007578
 20
-120.2618438618041
 30
0.0
 10
-73.89176701680561
 20
-119.9159713896019
 30
0.0
 10
-74.6359392032291
 20
-119.4307500188248
 30
0.0
 10
-74.97622545703234
 20
-119.14718243267
 30
0.0
 11
-70.17623003466906
 21
-119.14718243267
 31
0.0
 11
-71.3007265175775
 21
-119.8552224091949
 31
0.0
 11
-72.57620867236437
 21
-120.1471481003946
 31
0.0
 11
-73.8517138276893
 21
-119.8552229608026
 31
0.0
 11
-74.97622545703234
 21
-119.14718243267
 31
0.0
  0
SPLINE
  5
10D
330
A
100
AcDbEntity
  8
PV
100
AcDbSpline
210
0.0
220
0.0
230
1.0
 70
     8
 71
     3
 72
    11
 73
     7
 74
     5
 42
0.0000000001
 43
0.0000000001
 44
0.000001
 12
-0.9284786724340923
 22
-0.371385722443695
 32
0.0
 13
-0.9284787030685533
 23
0.3713856458563487
 33
0.0
 40
0.0
 40
0.0
 40
0.0
 40
0.0
 40
2.558560123139824
 40
5.121947523125651
 40
7.685313763361238
 40
10.24386135983561
 40
10.24386135983561
 40
10.24386135983561
 40
10.24386135983561
 10
-60.17618807299914
 20
-119.14718243267
 30
0.0
 10
-60.96804424182437
 20
-119.4639199992526
 30
0.0
 10
-62.61153059204719
 20
-119.9628656687987
 30
0.0
 10
-65.17621911852447
 20
-120.2393760987984
 30
0.0
 10
-67.74090370552949
 20
-119.9628655899596
 30
0.0
 10
-69.38437771663116
 20
-119.4639183831936
 30
0.0
 10
-70.17623003466906
 20
-119.14718243267
 30
0.0
 11
-60.17618807299914
 21
-119.14718243267
 31
0.0
 11
-62.6263941101839
 21
-119.8838779457992
 31
0.0
 11
-65.1762262199718
 21
-120.1471481003946
 31
0.0
 11
-67.7260370467502
 21
-119.8838778414911
 31
0.0
 11
-70.17623003466906
 21
-119.14718243267
 31
0.0
  0
SPLINE
  5
10E
330
A
100
AcDbEntity
  8
PV
100
AcDbSpline
210
0.0
220
0.0
230
1.0
 70
     8
 71
     3
 72
    11
 73
     7
 74
     5
 42
0.0000000001
 43
0.0000000001
 44
0.000001
 12
-0.7682259134251954
 22
-0.6401788390301762
 32
0.0
 13
-0.768226044954383
 23
0.6401786811927951
 33
0.0
 40
0.0
 40
0.0
 40
0.0
 40
0.0
 40
1.328831646411625
 40
2.637265838505094
 40
3.945722446521132
 40
5.274567076234552
 40
5.274567076234552
 40
5.274567076234552
 40
5.274567076234552
 10
-55.37626894458117
 20
-119.14718243267
 30
0.0
 10
-55.71654991303214
 20
-119.4307457328921
 30
0.0
 10
-56.46069311635755
 20
-119.9159652871797
 30
0.0
 10
-57.77621689723198
 20
-120.2618454728943
 30
0.0
 10
-59.09174507709082
 20
-119.915966198524
 30
0.0
 10
-59.8359037215846
 20
-119.4307484335233
 30
0.0
 10
-60.17618807299914
 20
-119.14718243267
 30
0.0
 11
-55.37626894458117
 21
-119.14718243267
 31
0.0
 11
-56.5007567996253
 21
-119.8552224091991
 31
0.0
 11
-57.77620943530383
 21
-120.1471481003946
 31
0.0
 11
-59.05168517573656
 21
-119.8552228862927
 31
0.0
 11
-60.17618807299914
 21
-119.14718243267
 31
0.0
  0
ARC
  5
10F
330
A
100
AcDbEntity
  8
PV
100
AcDbCircle
 10
130.1237730170887
 20
204.9155383429343
 30
0.0
 40
31.20000076293945
100
AcDbArc
 50
0.0
 51
66.3669059384521
  0
ARC
  5
110
330
A
100
AcDbEntity
  8
PV
100
AcDbCircle
 10
166.3236936713856
 20
92.55285218570772
 30
0.0
 40
5.0
100
AcDbArc
 50
180.0000050089561
 51
269.9999733624887
  0
ARC
  5
111
330
A
100
AcDbEntity
  8
PV
100
AcDbCircle
 10
166.3237699653309
 20
78.85290101383271
 30
0.0
 40
5.0
100
AcDbArc
 50
90.00001616485649
 51
180.0000186693345
  0
ARC
  5
112
330
A
100
AcDbEntity
  8
PV
100
AcDbCircle
 10
100.1237730170887
 20
-34.94716688777862
 30
0.0
 40
61.20000076293945
100
AcDbArc
 50
300.300342238721
 51
0.0
  0
ARC
  5
113
330
A
100
AcDbEntity
  8
PV
100
AcDbCircle
 10
133.5238432075184
 20
-92.10375478650986
 30
0.0
 40
5.0
100
AcDbArc
 50
120.3003404174878
 51
180.0000050089561
  0
ARC
  5
114
330
A
100
AcDbEntity
  8
PV
100
AcDbCircle
 10
-128.876295647462
 20
-92.10375478650986
 30
0.0
 40
5.0
100
AcDbArc
 50
0.0
 51
59.69965776127896
  0
ARC
  5
115
330
A
100
AcDbEntity
  8
PV
100
AcDbCircle
 10
-95.47622545703234
 20
-34.94716688777862
 30
0.0
 40
61.20000076293945
100
AcDbArc
 50
179.9999949910439
 51
239.6996595825121
  0
ARC
  5
116
330
A
100
AcDbEntity
  8
PV
100
AcDbCircle
 10
-125.4762254570323
 20
204.9155383429343
 30
0.0
 40
31.20000076293945
100
AcDbArc
 50
113.6330990705043
 51
180.0000050089561
  0
ARC
  5
11A
330
A
100
AcDbEntity
  8
PV
100
AcDbCircle
 10
-161.676230034669
 20
78.85290101383271
 30
0.0
 40
5.0
100
AcDbArc
 50
359.9999813306647
 51
89.99998201391065
  0
ARC
  5
11B
330
A
100
AcDbEntity
  8
PV
100
AcDbCircle
 10
180.3239835883778
 20
84.35285523746552
 30
0.0
 40
3.200000762939453
100
AcDbArc
 50
359.9999813306647
 51
90.00003665542399
  0
ARC
  5
11C
330
A
100
AcDbEntity
  8
PV
100
AcDbCircle
 10
58.32375470654188
 20
263.4081836066061
 30
0.0
 40
5.0
100
AcDbArc
 50
186.4027099416621
 51
260.9238986924363
  0
ARC
  5
11D
330
A
100
AcDbEntity
  8
PV
100
AcDbCircle
 10
2.323771634260991
 20
-87.1471328416055
 30
0.0
 40
350.0
100
AcDbArc
 50
66.3669059384521
 51
80.92391736177098
  0
ARC
  5
11E
330
A
100
AcDbEntity
  8
PV
100
AcDbCircle
 10
52.32376996533093
 20
265.3529162726218
 30
0.0
 40
1.0
100
AcDbArc
 50
93.63009095398901
 51
270.0000006832453
  0
ARC
  5
11F
330
A
100
AcDbEntity
  8
PV
100
AcDbCircle
 10
-161.6761537407237
 20
92.55285218570772
 30
0.0
 40
5.0
100
AcDbArc
 50
270.0000179860893
 51
0.0
  0
ARC
  5
120
330
A
100
AcDbEntity
  8
PV
100
AcDbCircle
 10
-175.6764436577159
 20
84.35285523746552
 30
0.0
 40
3.200000762939453
100
AcDbArc
 50
89.99998201391065
 51
180.0000186693345
  0
ARC
  5
121
330
A
100
AcDbEntity
  8
PV
100
AcDbCircle
 10
-53.67624910815539
 20
263.4081836066061
 30
0.0
 40
5.0
100
AcDbArc
 50
279.076082638229
 51
359.9997810219634
  0
ARC
  5
122
330
A
100
AcDbEntity
  8
PV
100
AcDbCircle
 10
2.323771634260991
 20
-87.1471328416055
 30
0.0
 40
350.0
100
AcDbArc
 50
99.07610130756365
 51
113.6330990705043
  0
ARC
  5
123
330
A
100
AcDbEntity
  8
PV
100
AcDbCircle
 10
-47.67622621997179
 20
265.3529162726218
 30
0.0
 40
1.0
100
AcDbArc
 50
270.0000179860893
 51
89.99998201391065
  0
LINE
  5
128
330
A
100
AcDbEntity
  8
PV
100
AcDbLine
 10
161.3237699653309
 20
204.9155383429343
 30
0.0
 11
161.3237699653309
 21
92.55285218570772
 31
0.0
  0
LINE
  5
129
330
A
100
AcDbEntity
  8
PV
100
AcDbLine
 10
161.3237699653309
 20
78.85290101383271
 30
0.0
 11
161.3237699653309
 21
-34.94716688777862
 31
0.0
  0
LINE
  5
12A
330
A
100
AcDbEntity
  8
PV
100
AcDbLine
 10
-156.676230034669
 20
78.85290101383271
 30
0.0
 11
-156.676230034669
 21
-34.94716688777862
 31
0.0
  0
LINE
  5
12B
330
A
100
AcDbEntity
  8
PV
100
AcDbLine
 10
-156.676230034669
 20
204.9155383429343
 30
0.0
 11
-156.676230034669
 21
92.55285218570772
 31
0.0
  0
LINE
  5
12C
330
A
100
AcDbEntity
  8
PV
  6
Continuous
 62
     7
370
     0
100
AcDbLine
 10
-173.6695599158155
 20
-339.0852981721901
 30
0.0
 11
-74.58292578665714
 21
-339.0852981721901
 31
0.0
  0
LINE
  5
12D
330
A
100
AcDbEntity
  8
PV
  6
Continuous
 62
     7
370
     0
100
AcDbLine
 10
96.04523355208655
 20
-353.6232862923293
 30
0.0
 11
290.4036582161277
 21
-353.6232862923293
 31
0.0
  0
LINE
  5
12E
330
A
100
AcDbEntity
  8
PV
  6
Continuous
 62
     7
370
     0
100
AcDbLine
 10
95.0167898219586
 20
-314.8218514244986
 30
0.0
 11
290.4036582161277
 21
-314.8218514244987
 31
0.0
  0
LINE
  5
12F
330
A
100
AcDbEntity
  8
PV
  6
Continuous
 62
     7
100
AcDbLine
 10
-330.6792901631179
 20
-486.8090401010558
 30
0.0
 11
189.6203456441963
 21
-486.8090401010558
 31
0.0
  0
LINE
  5
131
330
A
100
AcDbEntity
  8
PV
  6
Continuous
 62
     7
370
     0
100
AcDbLine
 10
-271.1345593736642
 20
-184.7536847586206
 30
0.0
 11
-108.5170056627266
 21
-184.7536847586206
 31
0.0
  0
LINE
  5
13F
330
A
100
AcDbEntity
  8
PV
100
AcDbLine
 10
-143.2726975838054
 20
-89.37855654546137
 30
0.0
 11
-130.2823167601932
 21
-96.87855654546137
 31
0.0
  0
LINE
  5
140
330
A
100
AcDbEntity
  8
PV
100
AcDbLine
 10
-125.4326971637415
 20
-88.47861656990017
 30
0.0
 11
-130.2823637592005
 21
-96.87848536224192
 31
0.0
  0
LINE
  5
141
330
A
100
AcDbEntity
  8
PV
100
AcDbLine
 10
-137.5217191139568
 20
-79.41756982123092
 30
0.0
 11
-143.2726785103191
 21
-89.37852350921458
 31
0.0
  0
LINE
  5
142
330
A
100
AcDbEntity
  8
PV
  6
CENTER
 62
     7
370
     0
100
AcDbLine
 10
-130.8607438663353
 20
-82.88042206762794
 30
0.0
 11
-144.8003991702903
 21
-107.0246128607295
 31
0.0
  0
LINE
  5
157
330
A
100
AcDbEntity
  8
PV
100
AcDbLine
 10
176.3237394477528
 20
94.45284608219209
 30
0.0
 11
170.3237547065419
 21
94.45284608219209
 31
0.0
  0
LINE
  5
158
330
A
100
AcDbEntity
  8
PV
100
AcDbLine
 10
167.5737394477528
 20
89.15285828922334
 30
0.0
 11
167.5737394477528
 21
93.15282777164521
 31
0.0
  0
LINE
  5
159
330
A
100
AcDbEntity
  8
PV
100
AcDbLine
 10
179.0737547065418
 20
89.15285828922334
 30
0.0
 11
179.0737547065418
 21
93.15282777164521
 31
0.0
  0
LINE
  5
15A
330
A
100
AcDbEntity
  8
PV
100
AcDbLine
 10
179.0737547065418
 20
89.15285828922334
 30
0.0
 11
167.5737394477528
 21
89.15285828922334
 31
0.0
  0
LINE
  5
15B
330
A
100
AcDbEntity
  8
PV
100
AcDbLine
 10
-122.4763017509776
 20
-96.14716717388091
 30
0.0
 11
128.523751654784
 21
-96.14716717388091
 31
0.0
  0
LINE
  5
15C
330
A
100
AcDbEntity
  8
PV
100
AcDbLine
 10
-122.4763017509776
 20
-96.14716717388091
 30
0.0
 11
-122.4763017509776
 21
-99.14715954448638
 31
0.0
  0
LINE
  5
15D
330
A
100
AcDbEntity
  8
PV
100
AcDbLine
 10
127.1237272407215
 20
-96.14716717388091
 30
0.0
 11
127.1237272407215
 21
-99.14715954448638
 31
0.0
  0
LINE
  5
15F
330
A
100
AcDbEntity
  8
PV
100
AcDbLine
 10
53.32375470654188
 20
264.3529467901999
 30
0.0
 11
53.32375470654188
 21
262.8529162726218
 31
0.0
  0
LINE
  5
160
330
A
100
AcDbEntity
  8
PV
100
AcDbLine
 10
-48.67624910815539
 20
264.3529467901999
 30
0.0
 11
52.32376996533093
 21
264.3529467901999
 31
0.0
  0
LINE
  5
161
330
A
100
AcDbEntity
  8
PV
100
AcDbLine
 10
-48.67624910815539
 20
266.3529162726218
 30
0.0
 11
52.32376996533093
 21
266.3529162726218
 31
0.0
  0
LINE
  5
173
330
A
100
AcDbEntity
  8
PV
  6
CENTER
 62
     7
100
AcDbLine
 10
-168.6762452934581
 20
96.43987611148896
 30
0.0
 11
-168.6762452934581
 21
74.05286744449677
 31
0.0
  0
LINE
  5
174
330
A
100
AcDbEntity
  8
PV
  6
CENTER
 62
     7
100
AcDbLine
 10
173.32378522412
 20
97.49705079410617
 30
0.0
 11
173.32378522412
 21
75.03927186344208
 31
0.0
  0
LINE
  5
175
330
A
100
AcDbEntity
  8
PV
100
AcDbLine
 10
-122.4763017509776
 20
-96.14716717388091
 30
0.0
 11
-123.6762529228526
 21
-96.14716717388091
 31
0.0
  0
LINE
  5
176
330
A
100
AcDbEntity
  8
PV
100
AcDbLine
 10
-123.6762529228526
 20
-94.94715878154691
 30
0.0
 11
-123.6762529228526
 21
-96.14716717388091
 31
0.0
  0
LINE
  5
177
330
A
100
AcDbEntity
  8
PV
100
AcDbLine
 10
-123.876295647462
 20
-92.10375478650986
 30
0.0
 11
-123.876295647462
 21
-94.94715878154691
 31
0.0
  0
LINE
  5
178
330
A
100
AcDbEntity
  8
PV
100
AcDbLine
 10
-123.6762529228526
 20
-94.94715878154691
 30
0.0
 11
-123.876295647462
 21
-94.94715878154691
 31
0.0
  0
LINE
  5
179
330
A
100
AcDbEntity
  8
PV
100
AcDbLine
 10
128.3237547065418
 20
-94.94715878154691
 30
0.0
 11
128.3237547065418
 21
-96.14716717388091
 31
0.0
  0
LINE
  5
17A
330
A
100
AcDbEntity
  8
PV
100
AcDbLine
 10
182.323800482909
 20
83.85290101383271
 30
0.0
 11
-163.8762880180675
 21
83.85290101383271
 31
0.0
  0
LINE
  5
17B
330
A
100
AcDbEntity
  8
PV
100
AcDbLine
 10
128.523751654784
 20
-92.10375478650986
 30
0.0
 11
128.523751654784
 21
-94.94715878154691
 31
0.0
  0
LINE
  5
17C
330
A
100
AcDbEntity
  8
PV
100
AcDbLine
 10
-177.6762605522472
 20
83.85290101383271
 30
0.0
 11
-163.8762880180675
 21
83.85290101383271
 31
0.0
  0
LINE
  5
17D
330
A
100
AcDbEntity
  8
PV
100
AcDbLine
 10
128.3237547065418
 20
-94.94715878154691
 30
0.0
 11
128.523751654784
 21
-94.94715878154691
 31
0.0
  0
LINE
  5
17E
330
A
100
AcDbEntity
  8
PV
100
AcDbLine
 10
-80.17626818164172
 20
-99.14715954448638
 30
0.0
 11
127.1237272407215
 21
-99.14715954448638
 31
0.0
  0
LINE
  5
188
330
A
100
AcDbEntity
  8
PV
100
AcDbLine
 10
170.3237547065419
 20
94.15285828922334
 30
0.0
 11
170.3237547065419
 21
94.45284608219209
 31
0.0
  0
LINE
  5
189
330
A
100
AcDbEntity
  8
PV
100
AcDbLine
 10
176.3237394477528
 20
94.15285828922334
 30
0.0
 11
176.3237394477528
 21
94.45284608219209
 31
0.0
  0
LINE
  5
18A
330
A
100
AcDbEntity
  8
PV
100
AcDbLine
 10
167.5737394477528
 20
87.55285218570771
 30
0.0
 11
167.5737394477528
 21
89.15285828922334
 31
0.0
  0
LINE
  5
18B
330
A
100
AcDbEntity
  8
PV
100
AcDbLine
 10
179.0737547065418
 20
87.55285218570771
 30
0.0
 11
179.0737547065418
 21
89.15285828922334
 31
0.0
  0
LINE
  5
18C
330
A
100
AcDbEntity
  8
PV
100
AcDbLine
 10
179.0737547065418
 20
79.85285523746552
 30
0.0
 11
179.0737547065418
 21
83.85282471988739
 31
0.0
  0
LINE
  5
18D
330
A
100
AcDbEntity
  8
PV
100
AcDbLine
 10
167.5737394477528
 20
79.85285523746552
 30
0.0
 11
167.5737394477528
 21
83.55497315738739
 31
0.0
  0
LINE
  5
18E
330
A
100
AcDbEntity
  8
PV
100
AcDbLine
 10
177.5737394477528
 20
94.15285828922334
 30
0.0
 11
169.0737547065419
 21
94.15285828922334
 31
0.0
  0
LINE
  5
18F
330
A
100
AcDbEntity
  8
PV
100
AcDbLine
 10
177.5737394477528
 20
78.85282471988739
 30
0.0
 11
169.0737547065419
 21
78.85282471988739
 31
0.0
  0
LINE
  5
190
330
A
100
AcDbEntity
  8
PV
100
AcDbLine
 10
180.3239835883778
 20
87.55285218570771
 30
0.0
 11
-163.8762117241222
 21
87.55285218570771
 31
0.0
  0
LINE
  5
191
330
A
100
AcDbEntity
  8
PV
  6
Continuous
 62
     3
100
AcDbLine
 10
183.52398053662
 20
84.73127320621552
 30
0.0
 11
183.52398053662
 21
83.85290101383271
 31
0.0
  0
LINE
  5
192
330
A
100
AcDbEntity
  8
PV
100
AcDbLine
 10
183.52398053662
 20
83.85282471988739
 30
0.0
 11
182.3239530707997
 21
83.85282471988739
 31
0.0
  0
LINE
  5
193
330
A
100
AcDbEntity
  8
PV
  6
Continuous
 62
     3
100
AcDbLine
 10
53.32375470654188
 20
266.352977307778
 30
0.0
 11
52.32376996533093
 21
266.352977307778
 31
0.0
  0
LINE
  5
194
330
A
100
AcDbEntity
  8
PV
100
AcDbLine
 10
53.3218092109364
 20
264.3529467901999
 30
0.0
 11
52.32376996533093
 21
264.3529467901999
 31
0.0
  0
LINE
  5
195
330
A
100
AcDbEntity
  8
PV
100
AcDbLine
 10
53.32375470654188
 20
277.8529162726218
 30
0.0
 11
53.32375470654188
 21
266.3529162726218
 31
0.0
  0
LINE
  5
196
330
A
100
AcDbEntity
  8
PV
100
AcDbLine
 10
-175.6764436577159
 20
87.55285218570771
 30
0.0
 11
-163.8762117241222
 21
87.55285218570771
 31
0.0
  0
LINE
  5
197
330
A
100
AcDbEntity
  8
PV
  6
Continuous
 62
     3
100
AcDbLine
 10
-178.8764406059581
 20
84.73127320621552
 30
0.0
 11
-178.8764406059581
 21
83.85282471988739
 31
0.0
  0
LINE
  5
198
330
A
100
AcDbEntity
  8
PV
100
AcDbLine
 10
-178.8764406059581
 20
83.85282471988739
 30
0.0
 11
-177.6764131401378
 21
83.85282471988739
 31
0.0
  0
LINE
  5
199
330
A
100
AcDbEntity
  8
PV
100
AcDbLine
 10
-122.4763017509776
 20
-99.14715954448638
 30
0.0
 11
-80.17626818164172
 21
-99.14715954448638
 31
0.0
  0
LINE
  5
19A
330
A
100
AcDbEntity
  8
PV
100
AcDbLine
 10
53.32375470654188
 20
277.8529162726218
 30
0.0
 11
46.26576367870984
 21
277.8529162726218
 31
0.0
  0
LINE
  5
19B
330
A
100
AcDbEntity
  8
PV
100
AcDbLine
 10
-48.67624910815539
 20
264.3529467901999
 30
0.0
 11
-48.67624910815539
 21
262.8529162726218
 31
0.0
  0
LINE
  5
19C
330
A
100
AcDbEntity
  8
PV
100
AcDbLine
 10
-48.67624910815539
 20
277.8529162726218
 30
0.0
 11
-48.67624910815539
 21
266.3529162726218
 31
0.0
  0
LINE
  5
19D
330
A
100
AcDbEntity
  8
PV
100
AcDbLine
 10
-48.67624910815539
 20
277.8529162726218
 30
0.0
 11
45.82375470654186
 21
277.8529162726218
 31
0.0
  0
LINE
  5
1A8
330
A
100
AcDbEntity
  8
PV
  6
CENTER
 62
     7
100
AcDbLine
 10
-58.37003746735717
 20
-327.9072250060458
 30
0.0
 11
63.92657518740088
 21
-327.9072250060458
 31
0.0
  0
LINE
  5
1AF
330
A
100
AcDbEntity
  8
PV
100
AcDbLine
 10
-60.17618807299914
 20
-119.14718243267
 30
0.0
 11
-60.17618807299914
 21
-112.1471557297891
 31
0.0
  0
LINE
  5
1B0
330
A
100
AcDbEntity
  8
PV
100
AcDbLine
 10
-70.17623003466906
 20
-119.14718243267
 30
0.0
 11
-70.17623003466906
 21
-112.1471557297891
 31
0.0
  0
LINE
  5
1B1
330
A
100
AcDbEntity
  8
PV
100
AcDbLine
 10
-74.97622545703234
 20
-119.14718243267
 30
0.0
 11
-74.97622545703234
 21
-112.1471557297891
 31
0.0
  0
LINE
  5
1B2
330
A
100
AcDbEntity
  8
PV
100
AcDbLine
 10
-55.37626894458117
 20
-119.14718243267
 30
0.0
 11
-55.37626894458117
 21
-112.1471557297891
 31
0.0
  0
LINE
  5
1B3
330
A
100
AcDbEntity
  8
PV
100
AcDbLine
 10
-57.77620943530383
 20
-120.1471481003946
 30
0.0
 11
-72.57620867236437
 21
-120.1471481003946
 31
0.0
  0
LINE
  5
1B4
330
A
100
AcDbEntity
  8
PV
100
AcDbLine
 10
-75.1761918876964
 20
-110.1471481003946
 30
0.0
 11
-75.1761918876964
 21
-112.1471557297891
 31
0.0
  0
LINE
  5
1B5
330
A
100
AcDbEntity
  8
PV
100
AcDbLine
 10
-55.1762262199718
 20
-110.1471481003946
 30
0.0
 11
-55.1762262199718
 21
-112.1471557297891
 31
0.0
  0
LINE
  5
1B6
330
A
100
AcDbEntity
  8
PV
100
AcDbLine
 10
-75.1761918876964
 20
-112.1471557297891
 30
0.0
 11
-55.1762262199718
 21
-112.1471557297891
 31
0.0
  0
LINE
  5
359
330
A
100
AcDbEntity
  8
PV
  6
Continuous
 62
     7
370
     0
100
AcDbLine
 10
-270.5886193212436
 20
-206.8443029613281
 30
0.0
 11
-107.9710656103061
 21
-206.8443029613281
 31
0.0
  0
LINE
  5
35A
330
A
100
AcDbEntity
  8
PV
  6
Continuous
 62
     7
370
     0
100
AcDbLine
 10
-270.0426792688231
 20
-228.9349211640355
 30
0.0
 11
-107.4251255578856
 21
-228.9349211640355
 31
0.0
  0
LINE
  5
35B
330
A
100
AcDbEntity
  8
PV
  6
Continuous
 62
     7
370
     0
100
AcDbLine
 10
-269.4967392164026
 20
-251.025539366743
 30
0.0
 11
-106.8791855054651
 21
-251.025539366743
 31
0.0
  0
LINE
  5
35C
330
A
100
AcDbEntity
  8
PV
  6
Continuous
 62
     7
370
     0
100
AcDbLine
 10
-270.2114569321875
 20
-273.5634553175645
 30
0.0
 11
-87.06802136241639
 21
-273.5634553175645
 31
0.0
  0
LINE
  5
364
330
A
100
AcDbEntity
  8
PV
  6
Continuous
 62
     7
370
     0
100
AcDbLine
 10
95.69858618747984
 20
-334.0493477348478
 30
0.0
 11
290.4036582161277
 21
-334.0493477348478
 31
0.0
  0
LINE
  5
367
330
A
100
AcDbEntity
  8
PV
  6
Continuous
 62
     7
370
     0
100
AcDbLine
 10
-173.0148042058554
 20
-318.9871502769116
 30
0.0
 11
-75.12855406131894
 21
-318.9871502769116
 31
0.0
  0
LINE
  5
3CC
330
A
100
AcDbEntity
  8
PV
  6
Continuous
 62
     7
370
     0
100
AcDbLine
 10
94.21186422878056
 20
367.1404797920065
 30
0.0
 11
265.3242588437042
 21
367.1404797920065
 31
0.0
  0
LINE
  5
3CE
330
A
100
AcDbEntity
  8
PV
  6
Continuous
 62
     7
370
     0
100
AcDbLine
 10
94.21186422878056
 20
383.9917429005809
 30
0.0
 11
265.3242588437042
 21
383.9917429005809
 31
0.0
  0
ELLIPSE
  5
4EC
330
A
100
AcDbEntity
  8
PV
100
AcDbEllipse
 10
-12.80119772895159
 20
-188.1471481003946
 30
0.0
 11
0.0000000000000006
 21
9.5
 31
0.0
210
0.0
220
0.0
230
1.0
 40
0.7071051472111753
 41
3.141589478858186
 42
6.283185307179585
  0
ELLIPSE
  5
4ED
330
A
100
AcDbEntity
  8
PV
100
AcDbEllipse
 10
-26.94322617991748
 20
-188.1471481003946
 30
0.0
 11
0.0000000000000004
 21
6.578506469726561
 31
0.0
210
0.0
220
0.0
230
1.0
 40
0.7071061532627125
 41
0.0
 42
6.283185307179585
  0
ELLIPSE
  5
4EE
330
A
100
AcDbEntity
  8
PV
100
AcDbEllipse
 10
-26.94322617991748
 20
-188.1471481003946
 30
0.0
 11
0.0000000000000006
 21
9.5
 31
0.0
210
0.0
220
0.0
230
1.0
 40
0.7071050844694439
 41
0.0
 42
6.283185307179585
  0
CIRCLE
  5
4EF
330
A
100
AcDbEntity
  8
PV
100
AcDbCircle
 10
37.67903462902725
 20
-363.2625716857333
 30
0.0
 40
5.0
  0
CIRCLE
  5
4F0
330
A
100
AcDbEntity
  8
PV
100
AcDbCircle
 10
-33.03164156421007
 20
-363.2625716857333
 30
0.0
 40
5.0
  0
ARC
  5
4F1
330
A
100
AcDbEntity
  8
PV
  6
CENTER
 62
     7
100
AcDbCircle
 10
2.323696532408584
 20
-327.9072250060458
 30
0.0
 40
50.0
100
AcDbArc
 50
179.999994991043
 51
0.0
  0
LINE
  5
4F9
330
A
100
AcDbEntity
  8
PV
  6
CENTER
 62
     7
100
AcDbLine
 10
29.39927072671709
 20
-354.9828003577536
 30
0.0
 11
44.01174604795961
 21
-369.5952756789961
 31
0.0
  0
LINE
  5
4FA
330
A
100
AcDbEntity
  8
PV
  6
CENTER
 62
     7
100
AcDbLine
 10
-40.30113342761796
 20
-370.5320497254057
 30
0.0
 11
-25.47689076389451
 21
-355.7078070616821
 31
0.0
  0
LINE
  5
4FB
330
A
100
AcDbEntity
  8
PV
  6
CENTER
 62
     7
100
AcDbLine
 10
-47.67622931941331
 20
-260.9731216111368
 30
0.0
 11
-47.67622931941331
 21
-285.0491561570353
 31
0.0
  0
LINE
  5
4FC
330
A
100
AcDbEntity
  8
PV
  6
CENTER
 62
     7
100
AcDbLine
 10
52.32377068058667
 20
-260.6410445847696
 30
0.0
 11
52.32377068058667
 21
-286.211448637504
 31
0.0
  0
LINE
  5
4FD
330
A
100
AcDbEntity
  8
PV
100
AcDbLine
 10
-26.94319518550219
 20
-197.6471481003946
 30
0.0
 11
-12.80122788890185
 21
-197.6471481003946
 31
0.0
  0
LINE
  5
4FE
330
A
100
AcDbEntity
  8
PV
100
AcDbLine
 10
-26.94319518550219
 20
-178.6471481003946
 30
0.0
 11
-12.80122788890185
 21
-178.6471481003946
 31
0.0
  0
LINE
  5
4FF
330
A
100
AcDbEntity
  8
PV
100
AcDbLine
 10
-27.92622741206469
 20
-197.6471786179727
 30
0.0
 11
-27.92622741206469
 21
-268.1471786179728
 31
0.0
  0
LINE
  5
500
330
A
100
AcDbEntity
  8
PV
100
AcDbLine
 10
5.323771634260991
 20
-110.1471481003946
 30
0.0
 11
5.323771634260991
 21
-268.1471786179728
 31
0.0
  0
LINE
  5
501
330
A
100
AcDbEntity
  8
PV
100
AcDbLine
 10
-0.676227888901849
 20
-110.1471481003946
 30
0.0
 11
-0.676227888901849
 21
-268.1471786179728
 31
0.0
  0
LINE
  5
502
330
A
100
AcDbEntity
  8
PV
100
AcDbLine
 10
32.57388165978318
 20
-258.1471863801244
 30
0.0
 11
42.57388232902211
 21
-268.1471862064264
 31
0.0
  0
LINE
  5
503
330
A
100
AcDbEntity
  8
PV
100
AcDbLine
 10
-27.92631159650773
 20
-258.1471332561951
 30
0.0
 11
-37.92635542412245
 21
-268.1471762408691
 31
0.0
  0
LINE
  5
504
330
A
100
AcDbEntity
  8
PV
100
AcDbLine
 10
32.57383517426343
 20
-120.1471574726578
 30
0.0
 11
42.57384730744592
 21
-110.1471461824133
 31
0.0
  0
LINE
  5
505
330
A
100
AcDbEntity
  8
PV
100
AcDbLine
 10
-27.92631501285996
 20
-120.1471606947194
 30
0.0
 11
-37.9263278203921
 21
-110.1471487301252
 31
0.0
  0
LINE
  5
506
330
A
100
AcDbEntity
  8
PV
100
AcDbLine
 10
62.32364943987068
 20
-268.1471479560117
 30
0.0
 11
82.32380352992846
 21
-110.1471345542978
 31
0.0
  0
LINE
  5
507
330
A
100
AcDbEntity
  8
PV
100
AcDbLine
 10
-57.67606280776135
 20
-268.1471567972375
 30
0.0
 11
-77.6762145025491
 21
-110.1471623180122
 31
0.0
  0
LINE
  5
508
330
A
100
AcDbEntity
  8
PV
100
AcDbLine
 10
-27.92622741206469
 20
-110.1471481003946
 30
0.0
 11
-27.92622741206469
 21
-178.6471481003946
 31
0.0
  0
LINE
  5
509
330
A
100
AcDbEntity
  8
PV
100
AcDbLine
 10
32.57383171574293
 20
-110.1471481003946
 30
0.0
 11
32.57383171574293
 21
-268.1471786179728
 31
0.0
  0
LINE
  5
50A
330
A
100
AcDbEntity
  8
PV
100
AcDbLine
 10
2.323771634260991
 20
-268.1471786179728
 30
0.0
 11
62.32377449528393
 21
-268.1471786179728
 31
0.0
  0
LINE
  5
50B
330
A
100
AcDbEntity
  8
PV
100
AcDbLine
 10
-57.67604621394458
 20
-268.1471786179728
 30
0.0
 11
2.323771634260991
 21
-268.1471786179728
 31
0.0
  0
LINE
  5
50C
330
A
100
AcDbEntity
  8
PV
100
AcDbLine
 10
62.32377449528393
 20
-268.1471786179728
 30
0.0
 11
62.32377449528393
 21
-278.1471481003947
 31
0.0
  0
LINE
  5
50D
330
A
100
AcDbEntity
  8
PV
100
AcDbLine
 10
-57.67604621394458
 20
-268.1471786179728
 30
0.0
 11
-57.67604621394458
 21
-278.1471481003947
 31
0.0
  0
LINE
  5
50E
330
A
100
AcDbEntity
  8
PV
100
AcDbLine
 10
2.323771634260991
 20
-110.1471481003946
 30
0.0
 11
82.32377449528394
 21
-110.1471481003946
 31
0.0
  0
LINE
  5
50F
330
A
100
AcDbEntity
  8
PV
100
AcDbLine
 10
-77.67616446955969
 20
-99.14715954448645
 30
0.0
 11
-77.6761644695598
 21
-110.1471481003946
 31
0.0
  0
LINE
  5
510
330
A
100
AcDbEntity
  8
PV
100
AcDbLine
 10
82.32377449528405
 20
-99.14715954448645
 30
0.0
 11
82.32377449528394
 21
-110.1471481003946
 31
0.0
  0
LINE
  5
511
330
A
100
AcDbEntity
  8
PV
100
AcDbLine
 10
-77.6761644695598
 20
-110.1471481003946
 30
0.0
 11
2.323771634260991
 21
-110.1471481003946
 31
0.0
  0
LINE
  5
512
330
A
100
AcDbEntity
  8
PV
100
AcDbLine
 10
-57.67604621394458
 20
-278.1471481003947
 30
0.0
 11
62.32377449528393
 21
-278.1471481003947
 31
0.0
  0
LINE
  5
51F
330
A
100
AcDbEntity
  8
PV
  6
CENTER
 62
     7
100
AcDbLine
 10
2.323771634260991
 20
505.161980906163
 30
0.0
 11
2.323771634260991
 21
-395.9576385224482
 31
0.0
  0
POINT
  5
520
330
A
100
AcDbEntity
  8
PV
  6
Continuous
 62
     7
100
AcDbPoint
 10
-26.94322570308032
 20
-188.1471481003946
 30
0.0
  0
POINT
  5
521
330
A
100
AcDbEntity
  8
PV
  6
Continuous
 62
     7
100
AcDbPoint
 10
-22.29152377589526
 20
-188.1471481003946
 30
0.0
  0
LINE
  5
633
330
A
100
AcDbEntity
  8
PV
  6
CENTER
 62
     7
100
AcDbLine
 10
-65.17620905383409
 20
-106.5167571228157
 30
0.0
 11
-65.17620905383409
 21
-122.8790493836795
 31
0.0
  0
SPLINE
  5
634
330
A
100
AcDbEntity
  8
PV
100
AcDbSpline
210
0.0
220
0.0
230
1.0
 70
     8
 71
     3
 72
    11
 73
     7
 74
     5
 42
0.0000000001
 43
0.0000000001
 44
0.000001
 12
0.768225894634572
 22
-0.6401788615792556
 32
0.0
 13
0.7682260449526767
 23
0.6401786811948427
 33
0.0
 40
0.0
 40
0.0
 40
0.0
 40
0.0
 40
1.328838947514271
 40
2.637301914648676
 40
3.94578717952035
 40
5.274639238256007
 40
5.274639238256007
 40
5.274639238256007
 40
5.274639238256007
 10
74.82377330319105
 20
-119.14718243267
 30
0.0
 10
75.16405613295084
 20
-119.4307473008839
 30
0.0
 10
75.90821290257125
 20
-119.9159704122156
 30
0.0
 10
77.22375935859782
 20
-120.2618438618041
 30
0.0
 10
78.53931028532755
 20
-119.9159713896019
 30
0.0
 10
79.28348247175108
 20
-119.4307500188248
 30
0.0
 10
79.62376872555433
 20
-119.14718243267
 30
0.0
 11
74.82377330319105
 21
-119.14718243267
 31
0.0
 11
75.94826978609948
 21
-119.8552224091949
 31
0.0
 11
77.22375194088636
 21
-120.1471481003946
 31
0.0
 11
78.49925709621129
 21
-119.8552229608026
 31
0.0
 11
79.62376872555433
 21
-119.14718243267
 31
0.0
  0
SPLINE
  5
635
330
A
100
AcDbEntity
  8
PV
100
AcDbSpline
210
0.0
220
0.0
230
1.0
 70
     8
 71
     3
 72
    11
 73
     7
 74
     5
 42
0.0000000001
 43
0.0000000001
 44
0.000001
 12
0.9284786724340923
 22
-0.371385722443695
 32
0.0
 13
0.9284787030685533
 23
0.3713856458563487
 33
0.0
 40
0.0
 40
0.0
 40
0.0
 40
0.0
 40
2.558560123139831
 40
5.121947523125657
 40
7.685313763361244
 40
10.24386135983561
 40
10.24386135983561
 40
10.24386135983561
 40
10.24386135983561
 10
64.82373134152112
 20
-119.14718243267
 30
0.0
 10
65.61558751034635
 20
-119.4639199992526
 30
0.0
 10
67.25907386056914
 20
-119.9628656687987
 30
0.0
 10
69.82376238704645
 20
-120.2393760987984
 30
0.0
 10
72.38844697405149
 20
-119.9628655899595
 30
0.0
 10
74.03192098515315
 20
-119.4639183831936
 30
0.0
 10
74.82377330319105
 20
-119.14718243267
 30
0.0
 11
64.82373134152112
 21
-119.14718243267
 31
0.0
 11
67.27393737870588
 21
-119.8838779457992
 31
0.0
 11
69.82376948849378
 21
-120.1471481003946
 31
0.0
 11
72.37358031527219
 21
-119.8838778414911
 31
0.0
 11
74.82377330319105
 21
-119.14718243267
 31
0.0
  0
SPLINE
  5
636
330
A
100
AcDbEntity
  8
PV
100
AcDbSpline
210
0.0
220
0.0
230
1.0
 70
     8
 71
     3
 72
    11
 73
     7
 74
     5
 42
0.0000000001
 43
0.0000000001
 44
0.000001
 12
0.7682259134251956
 22
-0.6401788390301762
 32
0.0
 13
0.768226044954383
 23
0.6401786811927951
 33
0.0
 40
0.0
 40
0.0
 40
0.0
 40
0.0
 40
1.328831646411631
 40
2.637265838505107
 40
3.945722446521145
 40
5.274567076234558
 40
5.274567076234558
 40
5.274567076234558
 40
5.274567076234558
 10
60.02381221310315
 20
-119.14718243267
 30
0.0
 10
60.36409318155411
 20
-119.4307457328921
 30
0.0
 10
61.10823638487953
 20
-119.9159652871797
 30
0.0
 10
62.42376016575398
 20
-120.2618454728944
 30
0.0
 10
63.73928834561279
 20
-119.915966198524
 30
0.0
 10
64.48344699010658
 20
-119.4307484335233
 30
0.0
 10
64.82373134152112
 20
-119.14718243267
 30
0.0
 11
60.02381221310315
 21
-119.14718243267
 31
0.0
 11
61.14830006814727
 21
-119.8552224091991
 31
0.0
 11
62.42375270382582
 21
-120.1471481003946
 31
0.0
 11
63.69922844425854
 21
-119.8552228862927
 31
0.0
 11
64.82373134152112
 21
-119.14718243267
 31
0.0
  0
LINE
  5
637
330
A
100
AcDbEntity
  8
PV
100
AcDbLine
 10
64.82373134152112
 20
-119.14718243267
 30
0.0
 11
64.82373134152112
 21
-112.1471557297891
 31
0.0
  0
LINE
  5
638
330
A
100
AcDbEntity
  8
PV
100
AcDbLine
 10
74.82377330319105
 20
-119.14718243267
 30
0.0
 11
74.82377330319105
 21
-112.1471557297891
 31
0.0
  0
LINE
  5
639
330
A
100
AcDbEntity
  8
PV
100
AcDbLine
 10
79.62376872555433
 20
-119.14718243267
 30
0.0
 11
79.62376872555433
 21
-112.1471557297891
 31
0.0
  0
LINE
  5
63A
330
A
100
AcDbEntity
  8
PV
100
AcDbLine
 10
60.02381221310315
 20
-119.14718243267
 30
0.0
 11
60.02381221310315
 21
-112.1471557297891
 31
0.0
  0
LINE
  5
63B
330
A
100
AcDbEntity
  8
PV
100
AcDbLine
 10
62.42375270382582
 20
-120.1471481003946
 30
0.0
 11
77.22375194088636
 21
-120.1471481003946
 31
0.0
  0
LINE
  5
63C
330
A
100
AcDbEntity
  8
PV
100
AcDbLine
 10
79.82373515621839
 20
-110.1471481003946
 30
0.0
 11
79.82373515621839
 21
-112.1471557297891
 31
0.0
  0
LINE
  5
63D
330
A
100
AcDbEntity
  8
PV
100
AcDbLine
 10
59.82376948849378
 20
-110.1471481003946
 30
0.0
 11
59.82376948849378
 21
-112.1471557297891
 31
0.0
  0
LINE
  5
63E
330
A
100
AcDbEntity
  8
PV
100
AcDbLine
 10
79.82373515621839
 20
-112.1471557297891
 30
0.0
 11
59.82376948849378
 21
-112.1471557297891
 31
0.0
  0
LINE
  5
63F
330
A
100
AcDbEntity
  8
PV
  6
CENTER
 62
     7
100
AcDbLine
 10
69.82375232235608
 20
-106.5167571228157
 30
0.0
 11
69.82375232235608
 21
-122.8790493836795
 31
0.0
  0
DIMENSION
  5
645
330
A
100
AcDbEntity
  8
PV
  6
Continuous
 62
     7
100
AcDbDimension
  2
*D7
 10
220.5929621620543
 20
-278.1471481003947
 30
0.0
 11
220.5929621620544
 21
-187.8615060244001
 31
0.0
 70
   160
 71
     5
 42
178.9999885559083
  3
MXDIMSTYLE$0
100
AcDbAlignedDimension
 13
127.1237272407215
 23
-99.14715954448638
 33
0.0
 14
62.32377449528393
 24
-278.1471481003947
 34
0.0
 50
90.00000000000005
100
AcDbRotatedDimension
1001
ACAD_DSTYLE_DIMINSPECT
1070
   396
1000
100%
1070
   395
1000

1070
   394
1070
    33
1070
   393
1070
     0
1001
ACAD
1000
DSTYLE
1002
{
1070
   343
1005
99
1070
   173
1070
     1
1070
   344
1005
99
1070
   144
1040
1.0
1070
   278
1070
     0
1070
   371
1070
     0
1070
   372
1070
     0
1002
}
  0
DIMENSION
  5
676
330
A
100
AcDbEntity
  8
PV
  6
Continuous
 62
     7
100
AcDbDimension
  2
*D8
 10
270.6009587833851
 20
277.8529162726217
 30
0.0
 11
258.266959149596
 21
-0.147115913886453
 31
0.0
 70
    32
 71
     5
 42
556.0000643730162
  3
MXDIMSTYLE$0
100
AcDbAlignedDimension
 13
62.32377449528393
 23
-278.1471481003947
 33
0.0
 14
53.32375470654188
 24
277.8529162726218
 34
0.0
 50
90.00000000000005
100
AcDbRotatedDimension
1001
ACAD_DSTYLE_DIMINSPECT
1070
   396
1000
100%
1070
   395
1000

1070
   394
1070
    33
1070
   393
1070
     0
1001
ACAD
1000
DSTYLE
1002
{
1070
   144
1040
1.0
1070
   173
1070
     1
1070
   271
1070
     0
1070
   278
1070
     0
1070
   343
1005
99
1070
   344
1005
99
1070
   371
1070
     0
1070
   372
1070
     0
1002
}
  0
DIMENSION
  5
7B5
330
A
100
AcDbEntity
  8
PV
  6
Continuous
 62
     7
100
AcDbDimension
  2
*D9
 10
170.3368094501966
 20
-278.1471481003947
 30
0.0
 11
158.0028098164075
 21
-233.1471481003946
 31
0.0
 70
    32
  1
90
 71
     5
 42
22.5
  3
MXDIMSTYLE$0
100
AcDbAlignedDimension
 13
-26.94322570308032
 23
-188.1471481003946
 33
0.0
 14
62.32377449528393
 24
-278.1471481003947
 34
0.0
 50
90.00000000000005
100
AcDbRotatedDimension
1001
ACAD
1000
DSTYLE
1002
{
1070
   343
1005
99
1070
   173
1070
     1
1070
   344
1005
99
1002
}
1001
ACAD_DSTYLE_DIMINSPECT
1070
   396
1000
100%
1070
   395
1000

1070
   394
1070
    33
1070
   393
1070
     0
  0
POINT
  5
A04
330
A
100
AcDbEntity
  8
PV
  6
Continuous
 62
     7
370
     0
100
AcDbPoint
 10
279.9591344186101
 20
494.9522704542836
 30
0.0
  0
LINE
  5
AAF
330
A
100
AcDbEntity
  8
PV
100
AcDbLine
 10
-40.61816638790968
 20
291.8525449594568
 30
0.0
 11
-41.61818352281897
 21
295.584659684097
 31
0.0
  0
LINE
  5
AB0
330
A
100
AcDbEntity
  8
PV
100
AcDbLine
 10
46.26573134602835
 20
295.5846737124547
 30
0.0
 11
45.26571421111906
 21
291.8525589878143
 31
0.0
  0
LINE
  5
AB1
330
A
100
AcDbEntity
  8
PV
100
AcDbLine
 10
-40.61823066218675
 20
291.8529162726218
 30
0.0
 11
-40.61823066218675
 21
277.8529162726218
 31
0.0
  0
LINE
  5
AB2
330
A
100
AcDbEntity
  8
PV
100
AcDbLine
 10
45.2657720233601
 20
291.8529162726218
 30
0.0
 11
45.2657720233601
 21
277.8529162726218
 31
0.0
  0
LINE
  5
AB4
330
A
100
AcDbEntity
  8
PV
100
AcDbLine
 10
82.32377449528394
 20
311.8529162726218
 30
0.0
 11
-77.67622550471606
 21
311.8529162726218
 31
0.0
  0
LINE
  5
AB5
330
A
100
AcDbEntity
  8
PV
100
AcDbLine
 10
82.32377449528394
 20
323.8529162726218
 30
0.0
 11
-77.67622550471606
 21
323.8529162726218
 31
0.0
  0
LINE
  5
AB6
330
A
100
AcDbEntity
  8
PV
100
AcDbLine
 10
46.26577202336011
 20
311.8529162726218
 30
0.0
 11
46.26577202336011
 21
277.8529162726218
 31
0.0
  0
LINE
  5
AB7
330
A
100
AcDbEntity
  8
PV
100
AcDbLine
 10
-41.726201853593
 20
291.8529162726218
 30
0.0
 11
46.26577202336011
 21
291.8529162726218
 31
0.0
  0
LINE
  5
AB8
330
A
100
AcDbEntity
  8
PV
100
AcDbLine
 10
-41.61823066218675
 20
311.8529162726218
 30
0.0
 11
-41.61823066218675
 21
277.8529162726218
 31
0.0
  0
POINT
  5
AB9
330
A
100
AcDbEntity
  8
PV
  6
Continuous
 62
     7
370
     0
100
AcDbPoint
 10
2.323771634260991
 20
323.8529162726218
 30
0.0
  0
POINT
  5
ABA
330
A
100
AcDbEntity
  8
PV
  6
Continuous
 62
     7
370
     0
100
AcDbPoint
 10
2.323771634260991
 20
323.8529162726218
 30
0.0
  0
LINE
  5
AC8
330
A
100
AcDbEntity
  8
PV
100
AcDbLine
 10
-77.67622550471606
 20
323.8529162726218
 30
0.0
 11
-77.67622550471606
 21
311.8529162726218
 31
0.0
  0
LINE
  5
AC9
330
A
100
AcDbEntity
  8
PV
100
AcDbLine
 10
82.32377449528394
 20
323.8529162726218
 30
0.0
 11
82.32377449528394
 21
311.8529162726218
 31
0.0
  0
DIMENSION
  5
ACA
330
A
100
AcDbEntity
  8
PV
  6
Continuous
 62
     7
100
AcDbDimension
  2
*D10
 10
323.4009599741201
 20
-278.1471481003947
 30
0.0
 11
311.0669603403311
 21
22.85288408611354
 31
0.0
 70
    32
  1
(600)
 71
     5
 42
602.0000643730162
  3
MXDIMSTYLE$0
100
AcDbAlignedDimension
 13
82.32377449528394
 23
323.8529162726218
 33
0.0
 14
62.32377449528393
 24
-278.1471481003947
 34
0.0
 50
90.00000000000005
100
AcDbRotatedDimension
1001
ACAD
1000
DSTYLE
1002
{
1070
   343
1005
99
1070
   173
1070
     1
1070
   344
1005
99
1070
   144
1040
1.0
1070
   271
1070
     0
1070
   278
1070
     0
1070
   371
1070
     0
1070
   372
1070
     0
1002
}
1001
ACAD_DSTYLE_DIMINSPECT
1070
   396
1000
100%
1070
   395
1000

1070
   394
1070
    33
1070
   393
1070
     0
  0
LEADER
  5
B5E
330
A
100
AcDbEntity
  8
PV
  6
Continuous
 62
     7
370
     0
100
AcDbLeader
  3
MXDIMSTYLE
 74
     0
 76
     2
 10
2.323771634260991
 20
323.8529162726218
 30
0.0
 10
-48.55847555981793
 20
388.3498739225542
 30
0.0
1001
ACAD
1000
DSTYLE
1002
{
1070
     6
1000
_OPEN30
1070
     7
1000
_OPEN30
1070
    41
1040
2.77
1070
   173
1070
     1
1070
   341
1005
99
1002
}
  0
MTEXT
  5
B5F
330
A
100
AcDbEntity
  8
PV
  6
Continuous
 62
     7
100
AcDbMText
 10
-138.8019329410204
 20
403.4475919610407
 30
0.0
 40
16.66799926757812
 41
0.0
 71
     1
 72
     1
  1
\A1;{\H0.71994x;\W0.819;VG80 ※2\PJIS　B2290}
 73
     1
 44
0.9359251894303499
1001
ACAD
1000
MTEXTBEGIN
1070
    73
1070
     1
1070
    44
1040
0.9359251894303499
1070
    74
1070
     0
1000
MTEXTEND
  0
LINE
  5
B60
330
A
100
AcDbEntity
  8
PV
  6
Continuous
 62
     7
370
     0
100
AcDbLine
 10
-147.0994814143146
 20
368.2517260272756
 30
0.0
 11
-48.01284728515614
 21
368.2517260272756
 31
0.0
  0
LINE
  5
B61
330
A
100
AcDbEntity
  8
PV
  6
Continuous
 62
     7
370
     0
100
AcDbLine
 10
-146.4447257043544
 20
388.3498739225542
 30
0.0
 11
-48.55847555981793
 21
388.3498739225542
 31
0.0
  0
CIRCLE
  5
B80
330
A
100
AcDbEntity
  8
PV
100
AcDbCircle
 10
-45.40600284083665
 20
474.3475998904869
 30
0.0
 40
6.0
  0
CIRCLE
  5
B81
330
A
100
AcDbEntity
  8
PV
100
AcDbCircle
 10
50.05347363011059
 20
474.3475998904869
 30
0.0
 40
6.0
  0
ARC
  5
B82
330
A
100
AcDbEntity
  8
PV
  6
CENTER
 62
     7
370
     0
100
AcDbCircle
 10
2.32375422970472
 20
426.6182908084556
 30
0.0
 40
67.5
100
AcDbArc
 50
359.9999899820927
 51
180.000035972178
  0
LINE
  5
B83
330
A
100
AcDbEntity
  8
PV
  6
CENTER
 62
     7
370
     0
100
AcDbLine
 10
44.7503556399697
 20
469.0445689187073
 30
0.0
 11
55.35695717624367
 21
479.6511704549811
 31
0.0
  0
LINE
  5
B84
330
A
100
AcDbEntity
  8
PV
  6
CENTER
 62
     7
370
     0
100
AcDbLine
 10
-50.70927397835657
 20
479.6510841382368
 30
0.0
 11
-40.10267244208261
 21
469.0444826019628
 31
0.0
  0
LINE
  5
B86
330
A
100
AcDbEntity
  8
PV
  6
CENTER
 62
     7
370
     0
100
AcDbLine
 10
-77.67624743922533
 20
426.6182908084556
 30
0.0
 11
82.32379070774731
 21
426.6182908084556
 31
0.0
  0
LINE
  5
BB3
330
A
100
AcDbEntity
  8
PV
  6
Continuous
 62
     7
100
AcDbLine
 10
-330.6792901631179
 20
-513.6837670696112
 30
0.0
 11
189.6203456441963
 21
-513.6837670696112
 31
0.0
  0
LINE
  5
BE0
330
A
100
AcDbEntity
  8
PV
100
AcDbLine
 10
-138.4117436409653
 20
-104.8827660886024
 30
0.0
 11
-146.2061836720345
 21
-100.3826439577129
 31
0.0
  0
LINE
  5
BE1
330
A
100
AcDbEntity
  8
PV
100
AcDbLine
 10
-132.3333710148544
 20
-99.15452068469136
 30
0.0
 11
-144.2845638198507
 21
-92.25449617774641
 31
0.0
  0
LINE
  5
BE2
330
A
100
AcDbEntity
  8
PV
100
AcDbLine
 10
-138.4117436409653
 20
-104.8827660886024
 30
0.0
 11
-134.4117474018179
 21
-97.95456949666359
 31
0.0
  0
LINE
  5
BE3
330
A
100
AcDbEntity
  8
PV
100
AcDbLine
 10
-146.2059722400521
 20
-100.3827660280271
 30
0.0
 11
-142.2059760009046
 21
-93.45456943608828
 31
0.0
  0
LINE
  5
BE4
330
A
100
AcDbEntity
  8
PV
100
AcDbLine
 10
-132.333159582872
 20
-99.1546427550055
 30
0.0
 11
-130.8331633773776
 21
-96.55657316255933
 31
0.0
  0
LINE
  5
BE5
330
A
100
AcDbEntity
  8
PV
100
AcDbLine
 10
-144.2843523878683
 20
-92.25461824806057
 30
0.0
 11
-142.7843561823738
 21
-89.65654865561441
 31
0.0
  0
MTEXT
  5
E28
102
{ACAD_XDICTIONARY
360
E76
102
}
330
A
100
AcDbEntity
  8
M2
 62
     4
370
    50
100
AcDbMText
 10
703.4108400273944
 20
-614.0530208431473
 30
0.0
 40
35.0
 41
0.0
 71
     1
 72
     5
  1
\A1;{\W1.0833;\U+5916\U+89B3\U+5BF8\U+6CD5\U+56F3}
  7
Standard
 73
     1
 44
1.0
1001
ACAD
1000
MTEXTBEGIN
1070
    73
1070
     1
1070
    44
1040
1.0
1070
    74
1070
     0
1000
MTEXTEND
1000
ACAD_MTEXT_DEFINED_HEIGHT_BEGIN
1070
    46
1040
35.0
1000
ACAD_MTEXT_DEFINED_HEIGHT_END
  0
MTEXT
  5
E29
102
{ACAD_XDICTIONARY
360
E78
102
}
330
A
100
AcDbEntity
  8
M2
 62
     4
370
    50
100
AcDbMText
 10
703.4108400273944
 20
-560.7250208431462
 30
0.0
 40
35.0
 41
0.0
 71
     1
 72
     5
  1
\A1;{\W0.6638;TM-3F(\U+FF36\U+FF331501\fMS PGothic|b0|i0|c128|p50;）}
  7
Standard
 73
     1
 44
1.0
1001
ACAD
1000
MTEXTBEGIN
1070
    73
1070
     1
1070
    44
1040
1.0
1070
    74
1070
     0
1000
MTEXTEND
1000
ACAD_MTEXT_DEFINED_HEIGHT_BEGIN
1070
    46
1040
35.0
1000
ACAD_MTEXT_DEFINED_HEIGHT_END
  0
MTEXT
  5
E2A
102
{ACAD_XDICTIONARY
360
E7A
102
}
330
A
100
AcDbEntity
  8
M2
 62
     4
370
    50
100
AcDbMText
 10
703.4108400273944
 20
-667.3810208431486
 30
0.0
 40
35.0
 41
0.0
 71
     1
 72
     5
  1
\A1;{\W0.7271;KG3115-012A2\U+3000\U+30001/2}
  7
Standard
 73
     1
 44
1.0
1001
ACAD
1000
MTEXTBEGIN
1070
    73
1070
     1
1070
    44
1040
1.0
1070
    74
1070
     0
1000
MTEXTEND
1000
ACAD_MTEXT_DEFINED_HEIGHT_BEGIN
1070
    46
1040
35.0
1000
ACAD_MTEXT_DEFINED_HEIGHT_END
  0
INSERT
  5
E2B
330
A
100
AcDbEntity
  8
0
100
AcDbBlockReference
  2
JZB_0006
 10
-923.0931599726059
 20
-760.705024809883
 30
0.0
  0
MTEXT
  5
E2C
102
{ACAD_XDICTIONARY
360
E7C
102
}
330
A
100
AcDbEntity
  8
PV
  6
Continuous
 62
     7
100
AcDbMText
 10
-338.3886962522677
 20
-580.8151168504659
 30
0.0
 40
16.66799926757812
 41
0.0
 71
     1
 72
     1
  1
\A1;{\W0.706;\L*１:VF50 \U+03C6120　O.D、4-\U+03C610HOLES　P.C.D.\U+03C6100\P※2:VG80 \U+2205１6０　O.D，４－\U+2205１2HOLES　P.C.D.\U+2205１35,GASKET GROOVE \U+2205100\U+00D7\U+2205110\U+00D73}
 73
     1
 44
0.9359251894303499
1001
ACAD
1000
MTEXTBEGIN
1070
    73
1070
     1
1070
    44
1040
0.9359251894303499
1070
    74
1070
     0
1000
MTEXTEND
  0
ENDSEC
  0
SECTION
  2
OBJECTS
  0
DICTIONARY
  5
19
330
0
100
AcDbDictionary
281
     1
  3
ACAD_COLOR
350
204
  3
ACAD_GROUP
350
1A
  3
ACAD_LAYOUT
350
1E
  3
ACAD_MATERIAL
350
1EF
  3
ACAD_MLEADERSTYLE
350
2C5
  3
ACAD_MLINESTYLE
350
1B
  3
ACAD_PLOTSETTINGS
350
22
  3
ACAD_PLOTSTYLENAME
350
1F
  3
ACAD_SCALELIST
350
2B3
  3
ACAD_TABLESTYLE
350
205
  3
ACAD_VISUALSTYLE
350
1F3
  3
ACDB_RECOMPOSE_DATA
350
E36
  3
AcDbVariableDictionary
350
2AD
  3
AcmDictionary
350
265
  3
AEC_PROPERTY_SET_DEFS
350
E23
  3
AMG
350
20B
  3
AMGSNAPSETTINGS
350
2A5
  3
ASE_INDEX_DICTIONARY
350
2E0
  3
DWGPROPS
350
E37
  0
DICTIONARY
  5
318
330
2
100
AcDbDictionary
280
     1
281
     1
  3
ACAD_LAYERSTATES
360
319
  0
DICTIONARY
  5
2E9
330
14
100
AcDbDictionary
280
     1
281
     1
  3
ADSK_XREC_LAYER_RECONCILED
360
2EA
  0
DICTIONARY
  5
2EB
330
24
100
AcDbDictionary
280
     1
281
     1
  3
ADSK_XREC_LAYER_RECONCILED
360
2EC
  0
DICTIONARY
  5
2ED
330
25
100
AcDbDictionary
280
     1
281
     1
  3
ADSK_XREC_LAYER_RECONCILED
360
2EE
  0
DICTIONARY
  5
E14
330
E13
100
AcDbDictionary
280
     1
281
     1
  0
DICTIONARY
  5
E16
330
E15
100
AcDbDictionary
280
     1
281
     1
  0
DICTIONARY
  5
E18
330
E17
100
AcDbDictionary
280
     1
281
     1
  0
DICTIONARY
  5
E1A
330
E19
100
AcDbDictionary
280
     1
281
     1
  0
DICTIONARY
  5
5D8
330
A
100
AcDbDictionary
280
     1
281
     1
  3
ACAD_SORTENTS
360
5D9
  0
DICTIONARY
  5
E6C
330
908
100
AcDbDictionary
280
     1
281
     1
  3
ACAD_MTEXT_RT
360
E6D
  0
DICTIONARY
  5
E6E
330
911
100
AcDbDictionary
280
     1
281
     1
  3
ACAD_MTEXT_RT
360
E6F
  0
DICTIONARY
  5
E3B
330
103
100
AcDbDictionary
280
     1
281
     1
  3
ACAD_MTEXT_RT
360
E3C
  0
DICTIONARY
  5
E76
330
E28
100
AcDbDictionary
280
     1
281
     1
  3
ACAD_MTEXT_RT
360
E77
  0
DICTIONARY
  5
E78
330
E29
100
AcDbDictionary
280
     1
281
     1
  3
ACAD_MTEXT_RT
360
E79
  0
DICTIONARY
  5
E7A
330
E2A
100
AcDbDictionary
280
     1
281
     1
  3
ACAD_MTEXT_RT
360
E7B
  0
DICTIONARY
  5
E7C
330
E2C
100
AcDbDictionary
280
     1
281
     1
  3
ACAD_MTEXT_RT
360
E7D
  0
DICTIONARY
  5
204
102
{ACAD_REACTORS
330
19
102
}
330
19
100
AcDbDictionary
281
     1
  0
DICTIONARY
  5
1A
102
{ACAD_REACTORS
330
19
102
}
330
19
100
AcDbDictionary
281
     1
  0
DICTIONARY
  5
1E
102
{ACAD_REACTORS
330
19
102
}
330
19
100
AcDbDictionary
281
     1
  3
Layout1
350
21
  3
Model
350
20
  0
DICTIONARY
  5
1EF
102
{ACAD_REACTORS
330
19
102
}
330
19
100
AcDbDictionary
281
     1
  3
ByBlock
350
1F1
  3
ByLayer
350
1F0
  3
Global
350
1F2
  0
DICTIONARY
  5
2C5
102
{ACAD_REACTORS
330
19
102
}
330
19
100
AcDbDictionary
281
     1
  3
Standard
350
2C6
  0
DICTIONARY
  5
1B
102
{ACAD_REACTORS
330
19
102
}
330
19
100
AcDbDictionary
281
     1
  3
Standard
350
1C
  0
DICTIONARY
  5
22
102
{ACAD_REACTORS
330
19
102
}
330
19
100
AcDbDictionary
281
     1
  0
ACDBDICTIONARYWDFLT
  5
1F
102
{ACAD_REACTORS
330
19
102
}
330
19
100
AcDbDictionary
281
     1
  3
Normal
350
1D
100
AcDbDictionaryWithDefault
340
1D
  0
DICTIONARY
  5
2B3
102
{ACAD_REACTORS
330
19
102
}
330
19
100
AcDbDictionary
281
     1
  3
A0
350
2B4
  3
A1
350
2B5
  3
A2
350
2B6
  3
A3
350
2B7
  3
A4
350
2B8
  3
A5
350
2B9
  3
A6
350
2BA
  3
A7
350
2BB
  3
A8
350
2BC
  3
A9
350
2BD
  3
B0
350
2BE
  3
B1
350
2BF
  3
B2
350
2C0
  3
B3
350
2C1
  3
B4
350
2C2
  3
B5
350
2C3
  3
B6
350
2C4
  0
DICTIONARY
  5
205
102
{ACAD_REACTORS
330
19
102
}
330
19
100
AcDbDictionary
281
     1
  3
Standard
350
206
  0
DICTIONARY
  5
1F3
102
{ACAD_REACTORS
330
19
102
}
330
19
100
AcDbDictionary
281
     1
  3
2dWireframe
350
1F9
  3
3D Hidden
350
1FB
  3
3dWireframe
350
1FA
  3
Basic
350
1F8
  3
Brighten
350
1FF
  3
ColorChange
350
203
  3
Conceptual
350
1FC
  3
Dim
350
1FE
  3
EdgeColorOff
350
2B2
  3
Facepattern
350
202
  3
Flat
350
1F4
  3
FlatWithEdges
350
1F5
  3
Gouraud
350
1F6
  3
GouraudWithEdges
350
1F7
  3
JitterOff
350
2B0
  3
Linepattern
350
201
  3
OverhangOff
350
2B1
  3
Realistic
350
1FD
  3
Thicken
350
200
  0
XRECORD
  5
E36
102
{ACAD_REACTORS
330
19
102
}
330
19
100
AcDbXrecord
280
     1
 90
        1
330
206
  0
DICTIONARY
  5
2AD
102
{ACAD_REACTORS
330
19
102
}
330
19
100
AcDbDictionary
281
     1
  3
CANNOSCALE
350
2F1
  3
CMLEADERSTYLE
350
2EF
  3
CTABLESTYLE
350
2AE
  3
DIMASSOC
350
E31
  3
INDEXCTL
350
E2F
  3
LAYEREVAL
350
2F3
  3
LAYERNOTIFY
350
2F4
  3
LIGHTINGUNITS
350
2F2
  3
LOFTANG1
350
E32
  3
LOFTANG2
350
E33
  3
LONGITUDE
350
E34
  3
MSLTSCALE
350
2F0
  3
SORTENTS
350
E2E
  3
XCLIPFRAME
350
E30
  0
DICTIONARY
  5
265
102
{ACAD_REACTORS
330
19
102
}
330
19
100
AcDbDictionary
281
     1
  3
AcmStdDictionary
350
270
  3
AMDTSECTSYM_ARROWCOLOR
350
28F
  0
DICTIONARY
  5
E23
102
{ACAD_REACTORS
330
19
102
}
330
19
100
AcDbDictionary
281
     1
  0
DICTIONARY
  5
20B
102
{ACAD_REACTORS
330
19
102
}
330
19
100
AcDbDictionary
281
     1
  0
DICTIONARY
  5
2A5
102
{ACAD_REACTORS
330
19
102
}
330
19
100
AcDbDictionary
281
     1
  0
DICTIONARY
  5
2E0
102
{ACAD_REACTORS
330
19
102
}
330
19
100
AcDbDictionary
281
     1
  3
ASEBlockHierarchyIndexRecord
350
2E2
1001
DCO15
1040
1731339868.441
  0
XRECORD
  5
E37
102
{ACAD_REACTORS
330
19
102
}
330
19
100
AcDbXrecord
280
     1
  1
DWGPROPS COOKIE
  2

  3

  4

  6

  7

  8
UJ35116
  9

300
=
301
=
302
=
303
=
304
=
305
=
306
=
307
=
308
=
309
=
 40
0.2603465740740741
 41
2454352.03650463
 42
2457984.61075257
  1

 90
        0
  0
DICTIONARY
  5
319
102
{ACAD_REACTORS
330
318
102
}
330
318
100
AcDbDictionary
281
     1
  0
XRECORD
  5
2EA
102
{ACAD_REACTORS
330
2E9
102
}
330
2E9
100
AcDbXrecord
280
     1
290
     1
  0
XRECORD
  5
2EC
102
{ACAD_REACTORS
330
2EB
102
}
330
2EB
100
AcDbXrecord
280
     1
290
     1
  0
XRECORD
  5
2EE
102
{ACAD_REACTORS
330
2ED
102
}
330
2ED
100
AcDbXrecord
280
     1
290
     1
  0
SORTENTSTABLE
  5
5D9
102
{ACAD_REACTORS
330
5D8
102
}
330
5D8
100
AcDbSortentsTable
330
A
331
4EC
  5
4EC
331
3CC
  5
3CC
331
15F
  5
15F
331
15B
  5
15B
331
157
  5
157
331
10C
  5
10C
331
108
  5
108
331
51F
  5
520
331
19A
  5
19A
331
13F
  5
13F
331
196
  5
196
331
192
  5
192
331
104
  5
104
331
100
  5
100
331
359
  5
359
331
1B3
  5
1B3
331
50F
  5
50F
331
50B
  5
50B
331
507
  5
507
331
503
  5
503
331
18E
  5
18E
331
18A
  5
18A
331
12F
  5
12F
331
17E
  5
17E
331
12B
  5
12B
331
17A
  5
17A
331
A8
  5
A8
331
4FF
  5
4FF
331
4FB
  5
4FB
331
11F
  5
11F
331
176
  5
176
331
11B
  5
11B
331
113
  5
113
331
C5
  5
C5
331
122
  5
122
331
4EF
  5
4EF
331
15A
  5
15A
331
10F
  5
10F
331
364
  5
364
331
10B
  5
10B
331
512
  5
512
331
19D
  5
19D
331
199
  5
199
331
142
  5
142
331
195
  5
195
331
191
  5
191
331
103
  5
103
331
35C
  5
35C
331
FF
  5
FF
331
D3
  5
D3
331
1B6
  5
1B6
331
1B2
  5
1B2
331
50E
  5
50E
331
50A
  5
50A
331
506
  5
506
331
502
  5
502
331
18D
  5
18D
331
189
  5
189
331
12E
  5
12E
331
17D
  5
17D
331
12A
  5
12A
331
179
  5
179
331
4FE
  5
4FE
331
4FA
  5
4FA
331
11E
  5
11E
331
175
  5
175
331
11A
  5
11A
331
116
  5
116
331
112
  5
112
331
161
  5
161
331
A7
  5
A7
331
C4
  5
C4
331
121
  5
121
331
4EE
  5
4EE
331
3CE
  5
3CE
331
521
  5
5D7
331
15D
  5
15D
331
159
  5
159
331
1A8
  5
1A8
331
10E
  5
10E
331
367
  5
367
331
10A
  5
10A
331
511
  5
511
331
19C
  5
19C
331
141
  5
141
331
198
  5
198
331
194
  5
194
331
190
  5
190
331
35B
  5
35B
331
1B5
  5
1B5
331
1B1
  5
1B1
331
50D
  5
50D
331
509
  5
509
331
505
  5
505
331
501
  5
501
331
18C
  5
18C
331
188
  5
188
331
131
  5
131
331
12D
  5
12D
331
17C
  5
17C
331
129
  5
129
331
178
  5
178
331
4FD
  5
4FD
331
4F9
  5
4F9
331
4F1
  5
4F1
331
11D
  5
11D
331
174
  5
174
331
115
  5
115
331
111
  5
111
331
160
  5
160
331
120
  5
120
331
4ED
  5
4ED
331
520
  5
521
331
15C
  5
15C
331
158
  5
158
331
1AF
  5
1AF
331
10D
  5
10D
331
109
  5
109
331
510
  5
510
331
19B
  5
19B
331
140
  5
140
331
197
  5
197
331
193
  5
193
331
101
  5
101
331
35A
  5
35A
331
1B4
  5
1B4
331
1B0
  5
1B0
331
50C
  5
50C
331
508
  5
508
331
504
  5
504
331
500
  5
500
331
18F
  5
18F
331
18B
  5
18B
331
12C
  5
12C
331
17B
  5
17B
331
128
  5
128
331
A9
  5
A9
331
4FC
  5
4FC
331
4F0
  5
4F0
331
177
  5
177
331
173
  5
173
331
11C
  5
11C
331
114
  5
114
331
110
  5
110
331
123
  5
123
  0
XRECORD
  5
E6D
102
{ACAD_REACTORS
330
E6C
102
}
330
E6C
100
AcDbXrecord
280
     1
 40
5822.0
  1
\A1;\U+2205318
  0
XRECORD
  5
E6F
102
{ACAD_REACTORS
330
E6E
102
}
330
E6E
100
AcDbXrecord
280
     1
 40
5803.0
  1
\A1;\U+2205362
  0
XRECORD
  5
E3C
102
{ACAD_REACTORS
330
E3B
102
}
330
E3B
100
AcDbXrecord
280
     1
 40
158681.0
  1
\A1;{\W0.706; ※1:VF50 外径\U+2205１2０，４－\U+220510中心径\U+2205１00\P ※2:VG80 外径\U+2205１60，４－\U+220512中心径\U+2205１35，ｶﾞｽｹｯﾄ溝\U+03C6100\U+00D7\U+03C6110\U+00D73}
  0
XRECORD
  5
E77
102
{ACAD_REACTORS
330
E76
102
}
330
E76
100
AcDbXrecord
280
     1
 40
84481.0
  1
\A1;{\W1.0833;外観寸法図}
  0
XRECORD
  5
E79
102
{ACAD_REACTORS
330
E78
102
}
330
E78
100
AcDbXrecord
280
     1
 40
176969.0
  1
\A1;{\W0.6638;TM-3F(ＶＳ1501\fMS PGothic|b0|i0|c128|p50;）}
  0
XRECORD
  5
E7B
102
{ACAD_REACTORS
330
E7A
102
}
330
E7A
100
AcDbXrecord
280
     1
 40
58692.0
  1
\A1;{\W0.7271;KG3115-012A2　　1/2}
  0
XRECORD
  5
E7D
102
{ACAD_REACTORS
330
E7C
102
}
330
E7C
100
AcDbXrecord
280
     1
 40
621906.0
  1
\A1;{\W0.706;\L*１:VF50 \U+03C6120　O.D、4-\U+03C610HOLES　P.C.D.\U+03C6100\P※2:VG80 \U+2205１6０　O.D，４－\U+2205１2HOLES　P.C.D.\U+2205１35,GASKET GROOVE \U+2205100\U+00D7\U+2205110\U+00D73}
  0
LAYOUT
  5
21
102
{ACAD_XDICTIONARY
360
E39
102
}
102
{ACAD_REACTORS
330
1E
102
}
330
1E
100
AcDbPlotSettings
  1

  2

  4

  6

 40
0.0
 41
0.0
 42
0.0
 43
0.0
 44
0.0
 45
0.0
 46
0.0
 47
0.0
 48
0.0
 49
0.0
140
0.0
141
0.0
142
1.0
143
1.0
 70
     0
 72
     0
 73
     0
 74
     0
  7

 75
     0
147
1.0
148
0.0
149
0.0
100
AcDbLayout
  1
Layout1
 70
     0
 71
     1
 10
0.0
 20
0.0
 11
12.0
 21
9.0
 12
0.0
 22
0.0
 32
0.0
 14
1.000000000000000E+20
 24
1.000000000000000E+20
 34
1.000000000000000E+20
 15
-1.000000000000000E+20
 25
-1.000000000000000E+20
 35
-1.000000000000000E+20
146
0.0
 13
0.0
 23
0.0
 33
0.0
 16
1.0
 26
0.0
 36
0.0
 17
0.0
 27
1.0
 37
0.0
 76
     0
330
B
  0
LAYOUT
  5
20
102
{ACAD_XDICTIONARY
360
31E
102
}
102
{ACAD_REACTORS
330
1E
102
}
330
1E
100
AcDbPlotSettings
  1

  2
i-file Color 6.0
  4
A4
  6

 40
3.174999952316283
 41
3.174999952316283
 42
3.175003051757812
 43
3.17498779296875
 44
209.2959899902344
 45
296.6719970703125
 46
0.0
 47
0.0
 48
0.0
 49
0.0
140
0.0
141
0.0
142
1.0
143
1.0
 70
 11264
 72
     1
 73
     1
 74
     0
  7

 75
     0
147
1.0
148
876.7317781920347
149
138.1407667632597
100
AcDbLayout
  1
Model
 70
     0
 71
     0
 10
0.0
 20
0.0
 11
0.0
 21
0.0
 12
0.0
 22
0.0
 32
0.0
 14
0.0
 24
0.0
 34
0.0
 15
0.0
 25
0.0
 35
0.0
146
0.0
 13
0.0
 23
0.0
 33
0.0
 16
0.0
 26
0.0
 36
0.0
 17
0.0
 27
0.0
 37
0.0
 76
     0
330
A
331
15
1001
ACAD_PSEXT
1000
i-file Color 6.0
1000
i-file Color 6.0
1000
NULL
1000

1070
     0
  0
MATERIAL
  5
1F1
102
{ACAD_XDICTIONARY
360
E3F
102
}
102
{ACAD_REACTORS
330
1EF
102
}
330
1EF
100
AcDbMaterial
  1
ByBlock
 73
     1
 78
     1
172
     1
176
     1
270
     1
274
     1
  0
MATERIAL
  5
1F0
102
{ACAD_XDICTIONARY
360
E3D
102
}
102
{ACAD_REACTORS
330
1EF
102
}
330
1EF
100
AcDbMaterial
  1
ByLayer
 73
     1
 78
     1
172
     1
176
     1
270
     1
274
     1
  0
MATERIAL
  5
1F2
102
{ACAD_XDICTIONARY
360
E41
102
}
102
{ACAD_REACTORS
330
1EF
102
}
330
1EF
100
AcDbMaterial
  1
Global
 73
     1
 78
     1
172
     1
176
     1
270
     1
274
     1
  0
MLEADERSTYLE
  5
2C6
102
{ACAD_REACTORS
330
2C5
102
}
330
2C5
100
AcDbMLeaderStyle
170
     2
171
     1
172
     0
 90
        2
 40
0.0
 41
0.0
173
     1
 91
-1056964608
340
11
 92
       -2
290
     1
 42
2.0
291
     1
 43
0.36
  3
Standard
 44
4.0
300

342
17
174
     1
178
     6
175
     1
176
     0
 93
-1056964608
 45
4.0
292
     0
297
     0
 46
4.0
 94
-1056964608
 47
1.0
 49
1.0
140
1.0
293
     1
141
0.0
294
     1
177
     0
142
1.0
295
     0
296
     0
143
0.125
1001
ACAD_MLEADERVER
1070
     2
  0
MLINESTYLE
  5
1C
102
{ACAD_REACTORS
330
1B
102
}
330
1B
100
AcDbMlineStyle
  2
STANDARD
 70
     0
  3

 62
     0
 51
90.0
 52
90.0
 71
     2
 49
0.5
 62
   256
  6
BYLAYER
 49
-0.5
 62
   256
  6
BYLAYER
  0
ACDBPLACEHOLDER
  5
1D
102
{ACAD_REACTORS
330
1F
102
}
330
1F
  0
SCALE
  5
2B4
102
{ACAD_REACTORS
330
2B3
102
}
330
2B3
100
AcDbScale
 70
     0
300
1:1
140
1.0
141
1.0
290
     1
  0
SCALE
  5
2B5
102
{ACAD_REACTORS
330
2B3
102
}
330
2B3
100
AcDbScale
 70
     0
300
1:2
140
1.0
141
2.0
290
     0
  0
SCALE
  5
2B6
102
{ACAD_REACTORS
330
2B3
102
}
330
2B3
100
AcDbScale
 70
     0
300
1:4
140
1.0
141
4.0
290
     0
  0
SCALE
  5
2B7
102
{ACAD_REACTORS
330
2B3
102
}
330
2B3
100
AcDbScale
 70
     0
300
1:5
140
1.0
141
5.0
290
     0
  0
SCALE
  5
2B8
102
{ACAD_REACTORS
330
2B3
102
}
330
2B3
100
AcDbScale
 70
     0
300
1:8
140
1.0
141
8.0
290
     0
  0
SCALE
  5
2B9
102
{ACAD_REACTORS
330
2B3
102
}
330
2B3
100
AcDbScale
 70
     0
300
1:10
140
1.0
141
10.0
290
     0
  0
SCALE
  5
2BA
102
{ACAD_REACTORS
330
2B3
102
}
330
2B3
100
AcDbScale
 70
     0
300
1:16
140
1.0
141
16.0
290
     0
  0
SCALE
  5
2BB
102
{ACAD_REACTORS
330
2B3
102
}
330
2B3
100
AcDbScale
 70
     0
300
1:20
140
1.0
141
20.0
290
     0
  0
SCALE
  5
2BC
102
{ACAD_REACTORS
330
2B3
102
}
330
2B3
100
AcDbScale
 70
     0
300
1:30
140
1.0
141
30.0
290
     0
  0
SCALE
  5
2BD
102
{ACAD_REACTORS
330
2B3
102
}
330
2B3
100
AcDbScale
 70
     0
300
1:40
140
1.0
141
40.0
290
     0
  0
SCALE
  5
2BE
102
{ACAD_REACTORS
330
2B3
102
}
330
2B3
100
AcDbScale
 70
     0
300
1:50
140
1.0
141
50.0
290
     0
  0
SCALE
  5
2BF
102
{ACAD_REACTORS
330
2B3
102
}
330
2B3
100
AcDbScale
 70
     0
300
1:100
140
1.0
141
100.0
290
     0
  0
SCALE
  5
2C0
102
{ACAD_REACTORS
330
2B3
102
}
330
2B3
100
AcDbScale
 70
     0
300
2:1
140
2.0
141
1.0
290
     0
  0
SCALE
  5
2C1
102
{ACAD_REACTORS
330
2B3
102
}
330
2B3
100
AcDbScale
 70
     0
300
4:1
140
4.0
141
1.0
290
     0
  0
SCALE
  5
2C2
102
{ACAD_REACTORS
330
2B3
102
}
330
2B3
100
AcDbScale
 70
     0
300
8:1
140
8.0
141
1.0
290
     0
  0
SCALE
  5
2C3
102
{ACAD_REACTORS
330
2B3
102
}
330
2B3
100
AcDbScale
 70
     0
300
10:1
140
10.0
141
1.0
290
     0
  0
SCALE
  5
2C4
102
{ACAD_REACTORS
330
2B3
102
}
330
2B3
100
AcDbScale
 70
     0
300
100:1
140
100.0
141
1.0
290
     0
  0
TABLESTYLE
  5
206
102
{ACAD_XDICTIONARY
360
C49
102
}
102
{ACAD_REACTORS
330
205
102
}
330
205
100
AcDbTableStyle
  3
Standard
 70
     0
 71
     0
 40
1.5
 41
1.5
280
     0
281
     0
  7
MX_NOTE_STANDARD
140
4.5
170
     2
 62
     0
 63
     7
283
     0
274
    -2
284
     1
 64
     0
275
    -2
285
     1
 65
     0
276
    -2
286
     1
 66
     0
277
    -2
287
     1
 67
     0
278
    -2
288
     1
 68
     0
279
    -2
289
     1
 69
     0
  7
MX_NOTE_STANDARD
140
6.0
170
     5
 62
     0
 63
     7
283
     0
274
    -2
284
     1
 64
     0
275
    -2
285
     1
 65
     0
276
    -2
286
     1
 66
     0
277
    -2
287
     1
 67
     0
278
    -2
288
     1
 68
     0
279
    -2
289
     1
 69
     0
  7
MX_NOTE_STANDARD
140
4.5
170
     5
 62
     0
 63
     7
283
     0
274
    -2
284
     1
 64
     0
275
    -2
285
     1
 65
     0
276
    -2
286
     1
 66
     0
277
    -2
287
     1
 67
     0
278
    -2
288
     1
 68
     0
279
    -2
289
     1
 69
     0
  0
VISUALSTYLE
  5
1F9
102
{ACAD_XDICTIONARY
360
E4D
102
}
102
{ACAD_REACTORS
330
1F3
102
}
330
1F3
100
AcDbVisualStyle
  2
2dWireframe
 70
     4
 71
     0
 72
     2
 73
     0
 90
        0
 40
-0.6
 41
-30.0
 62
     5
 63
     7
 74
     1
 91
        4
 64
     7
 65
   257
 75
     1
175
     1
 42
1.0
 92
        0
 66
   257
 43
1.0
 76
     1
 77
     6
 78
     2
 67
     7
 79
     5
170
     0
171
     0
290
     0
174
     0
 93
        1
 44
0.0
173
     0
291
     0
 45
0.0
1001
ACAD
1000
AcDbSavedByObjectVersion
1070
     0
  0
VISUALSTYLE
  5
1FB
102
{ACAD_XDICTIONARY
360
E51
102
}
102
{ACAD_REACTORS
330
1F3
102
}
330
1F3
100
AcDbVisualStyle
  2
3D Hidden
 70
     6
 71
     1
 72
     2
 73
     2
 90
        0
 40
-0.6
 41
-30.0
 62
     5
 63
     7
 74
     2
 91
        2
 64
     7
 65
   257
 75
     2
175
     1
 42
40.0
 92
        0
 66
   257
 43
1.0
 76
     1
 77
     6
 78
     2
 67
     7
 79
     3
170
     0
171
     0
290
     0
174
     0
 93
        1
 44
0.0
173
     0
291
     0
 45
0.0
1001
ACAD
1000
AcDbSavedByObjectVersion
1070
     0
  0
VISUALSTYLE
  5
1FA
102
{ACAD_XDICTIONARY
360
E4F
102
}
102
{ACAD_REACTORS
330
1F3
102
}
330
1F3
100
AcDbVisualStyle
  2
3dWireframe
 70
     5
 71
     0
 72
     2
 73
     0
 90
        0
 40
-0.6
 41
-30.0
 62
     5
 63
     7
 74
     1
 91
        4
 64
     7
 65
   257
 75
     1
175
     1
 42
1.0
 92
        0
 66
   257
 43
1.0
 76
     1
 77
     6
 78
     2
 67
     7
 79
     5
170
     0
171
     0
290
     0
174
     0
 93
        1
 44
0.0
173
     0
291
     0
 45
0.0
1001
ACAD
1000
AcDbSavedByObjectVersion
1070
     0
  0
VISUALSTYLE
  5
1F8
102
{ACAD_XDICTIONARY
360
E4B
102
}
102
{ACAD_REACTORS
330
1F3
102
}
330
1F3
100
AcDbVisualStyle
  2
Basic
 70
     7
 71
     1
 72
     0
 73
     1
 90
        0
 40
-0.6
 41
-30.0
 62
     5
 63
     7
 74
     0
 91
        4
 64
     7
 65
   257
 75
     1
175
     1
 42
1.0
 92
        8
 66
     7
 43
1.0
 76
     1
 77
     6
 78
     2
 67
     7
 79
     5
170
     0
171
     0
290
     0
174
     0
 93
        1
 44
0.0
173
     0
291
     1
 45
0.0
1001
ACAD
1000
AcDbSavedByObjectVersion
1070
     0
  0
VISUALSTYLE
  5
1FF
102
{ACAD_XDICTIONARY
360
E59
102
}
102
{ACAD_REACTORS
330
1F3
102
}
330
1F3
100
AcDbVisualStyle
  2
Brighten
 70
    12
 71
     2
 72
     2
 73
     0
 90
        0
 40
-0.6
 41
-30.0
 62
     5
 63
     7
 74
     1
 91
        4
 64
     7
 65
   257
 75
     1
175
     1
 42
1.0
 92
        8
 66
     7
 43
1.0
 76
     1
 77
     6
 78
     2
 67
     7
 79
     5
170
     0
171
     0
290
     0
174
     0
 93
        1
 44
50.0
173
     0
291
     1
 45
0.0
1001
ACAD
1000
AcDbSavedByObjectVersion
1070
     0
  0
VISUALSTYLE
  5
203
102
{ACAD_XDICTIONARY
360
E61
102
}
102
{ACAD_REACTORS
330
1F3
102
}
330
1F3
100
AcDbVisualStyle
  2
ColorChange
 70
    16
 71
     2
 72
     2
 73
     3
 90
        0
 40
-0.6
 41
-30.0
 62
     5
 63
     8
 74
     1
 91
        4
 64
     7
 65
   257
 75
     1
175
     1
 42
1.0
 92
        8
 66
     8
 43
1.0
 76
     1
 77
     6
 78
     2
 67
     7
 79
     5
170
     0
171
     0
290
     0
174
     0
 93
        1
 44
0.0
173
     0
291
     1
 45
0.0
1001
ACAD
1000
AcDbSavedByObjectVersion
1070
     0
  0
VISUALSTYLE
  5
1FC
102
{ACAD_XDICTIONARY
360
E53
102
}
102
{ACAD_REACTORS
330
1F3
102
}
330
1F3
100
AcDbVisualStyle
  2
Conceptual
 70
     9
 71
     3
 72
     2
 73
     0
 90
        0
 40
-0.6
 41
-30.0
 62
     5
 63
     7
 74
     2
 91
        2
 64
     7
 65
   257
 75
     1
175
     1
 42
40.0
 92
        8
 66
     7
 43
1.0
 76
     1
 77
     6
 78
     2
 67
     7
 79
     3
170
     0
171
     0
290
     0
174
     0
 93
        1
 44
0.0
173
     0
291
     0
 45
0.0
1001
ACAD
1000
AcDbSavedByObjectVersion
1070
     0
  0
VISUALSTYLE
  5
1FE
102
{ACAD_XDICTIONARY
360
E57
102
}
102
{ACAD_REACTORS
330
1F3
102
}
330
1F3
100
AcDbVisualStyle
  2
Dim
 70
    11
 71
     2
 72
     2
 73
     0
 90
        0
 40
-0.6
 41
-30.0
 62
     5
 63
     7
 74
     1
 91
        4
 64
     7
 65
   257
 75
     1
175
     1
 42
1.0
 92
        8
 66
     7
 43
1.0
 76
     1
 77
     6
 78
     2
 67
     7
 79
     5
170
     0
171
     0
290
     0
174
     0
 93
        1
 44
-50.0
173
     0
291
     1
 45
0.0
1001
ACAD
1000
AcDbSavedByObjectVersion
1070
     0
  0
VISUALSTYLE
  5
2B2
102
{ACAD_XDICTIONARY
360
E69
102
}
102
{ACAD_REACTORS
330
1F3
102
}
330
1F3
100
AcDbVisualStyle
  2
EdgeColorOff
 70
    22
 71
     2
 72
     2
 73
     0
 90
        0
 40
-0.6
 41
-30.0
 62
     5
 63
     7
 74
     1
 91
        4
 64
     7
 65
   257
 75
     1
175
     1
 42
1.0
 92
        8
 66
     7
 43
1.0
 76
     1
 77
     6
 78
     2
 67
     7
 79
     5
170
     0
171
     0
290
     0
174
     0
 93
        1
 44
0.0
173
     0
291
     1
 45
0.0
1001
ACAD
1000
AcDbSavedByObjectVersion
1070
     0
  0
VISUALSTYLE
  5
202
102
{ACAD_XDICTIONARY
360
E5F
102
}
102
{ACAD_REACTORS
330
1F3
102
}
330
1F3
100
AcDbVisualStyle
  2
Facepattern
 70
    15
 71
     2
 72
     2
 73
     0
 90
        0
 40
-0.6
 41
-30.0
 62
     5
 63
     7
 74
     1
 91
        4
 64
     7
 65
   257
 75
     1
175
     1
 42
1.0
 92
        8
 66
     7
 43
1.0
 76
     1
 77
     6
 78
     2
 67
     7
 79
     5
170
     0
171
     0
290
     0
174
     0
 93
        1
 44
0.0
173
     0
291
     1
 45
0.0
1001
ACAD
1000
AcDbSavedByObjectVersion
1070
     0
  0
VISUALSTYLE
  5
1F4
102
{ACAD_XDICTIONARY
360
E43
102
}
102
{ACAD_REACTORS
330
1F3
102
}
330
1F3
100
AcDbVisualStyle
  2
Flat
 70
     0
 71
     2
 72
     1
 73
     1
 90
        2
 40
-0.6
 41
30.0
 62
     5
 63
     7
 74
     0
 91
        4
 64
     7
 65
   257
 75
     1
175
     1
 42
1.0
 92
        8
 66
     7
 43
1.0
 76
     1
 77
     6
 78
     2
 67
     7
 79
     5
170
     0
171
     0
290
     0
174
     0
 93
       13
 44
0.0
173
     0
291
     1
 45
0.0
1001
ACAD
1000
AcDbSavedByObjectVersion
1070
     0
  0
VISUALSTYLE
  5
1F5
102
{ACAD_XDICTIONARY
360
E45
102
}
102
{ACAD_REACTORS
330
1F3
102
}
330
1F3
100
AcDbVisualStyle
  2
FlatWithEdges
 70
     1
 71
     2
 72
     1
 73
     1
 90
        2
 40
-0.6
 41
30.0
 62
     5
 63
     7
 74
     1
 91
        4
 64
     7
 65
   257
 75
     1
175
     1
 42
1.0
 92
        0
 66
   257
 43
1.0
 76
     1
 77
     6
 78
     2
 67
     7
 79
     5
170
     0
171
     0
290
     0
174
     0
 93
       13
 44
0.0
173
     0
291
     1
 45
0.0
1001
ACAD
1000
AcDbSavedByObjectVersion
1070
     0
  0
VISUALSTYLE
  5
1F6
102
{ACAD_XDICTIONARY
360
E47
102
}
102
{ACAD_REACTORS
330
1F3
102
}
330
1F3
100
AcDbVisualStyle
  2
Gouraud
 70
     2
 71
     2
 72
     2
 73
     1
 90
        2
 40
-0.6
 41
30.0
 62
     5
 63
     7
 74
     0
 91
        4
 64
     7
 65
   257
 75
     1
175
     1
 42
1.0
 92
        0
 66
     7
 43
1.0
 76
     1
 77
     6
 78
     2
 67
     7
 79
     5
170
     0
171
     0
290
     0
174
     0
 93
       13
 44
0.0
173
     0
291
     1
 45
0.0
1001
ACAD
1000
AcDbSavedByObjectVersion
1070
     0
  0
VISUALSTYLE
  5
1F7
102
{ACAD_XDICTIONARY
360
E49
102
}
102
{ACAD_REACTORS
330
1F3
102
}
330
1F3
100
AcDbVisualStyle
  2
GouraudWithEdges
 70
     3
 71
     2
 72
     2
 73
     1
 90
        2
 40
-0.6
 41
30.0
 62
     5
 63
     7
 74
     1
 91
        4
 64
     7
 65
   257
 75
     1
175
     1
 42
1.0
 92
        0
 66
   257
 43
1.0
 76
     1
 77
     6
 78
     2
 67
     7
 79
     5
170
     0
171
     0
290
     0
174
     0
 93
       13
 44
0.0
173
     0
291
     1
 45
0.0
1001
ACAD
1000
AcDbSavedByObjectVersion
1070
     0
  0
VISUALSTYLE
  5
2B0
102
{ACAD_XDICTIONARY
360
E65
102
}
102
{ACAD_REACTORS
330
1F3
102
}
330
1F3
100
AcDbVisualStyle
  2
JitterOff
 70
    20
 71
     2
 72
     2
 73
     0
 90
        0
 40
-0.6
 41
-30.0
 62
     5
 63
     7
 74
     1
 91
        4
 64
     7
 65
   257
 75
     1
175
     1
 42
1.0
 92
       10
 66
     7
 43
1.0
 76
     1
 77
     6
 78
     2
 67
     7
 79
     5
170
     0
171
     0
290
     0
174
     0
 93
        1
 44
0.0
173
     0
291
     1
 45
0.0
1001
ACAD
1000
AcDbSavedByObjectVersion
1070
     0
  0
VISUALSTYLE
  5
201
102
{ACAD_XDICTIONARY
360
E5D
102
}
102
{ACAD_REACTORS
330
1F3
102
}
330
1F3
100
AcDbVisualStyle
  2
Linepattern
 70
    14
 71
     2
 72
     2
 73
     0
 90
        0
 40
-0.6
 41
-30.0
 62
     5
 63
     7
 74
     1
 91
        4
 64
     7
 65
   257
 75
     7
175
     7
 42
1.0
 92
        8
 66
     7
 43
1.0
 76
     1
 77
     6
 78
     2
 67
     7
 79
     5
170
     0
171
     0
290
     0
174
     0
 93
        1
 44
0.0
173
     0
291
     1
 45
0.0
1001
ACAD
1000
AcDbSavedByObjectVersion
1070
     0
  0
VISUALSTYLE
  5
2B1
102
{ACAD_XDICTIONARY
360
E67
102
}
102
{ACAD_REACTORS
330
1F3
102
}
330
1F3
100
AcDbVisualStyle
  2
OverhangOff
 70
    21
 71
     2
 72
     2
 73
     0
 90
        0
 40
-0.6
 41
-30.0
 62
     5
 63
     7
 74
     1
 91
        4
 64
     7
 65
   257
 75
     1
175
     1
 42
1.0
 92
        9
 66
     7
 43
1.0
 76
     1
 77
     6
 78
     2
 67
     7
 79
     5
170
     0
171
     0
290
     0
174
     0
 93
        1
 44
0.0
173
     0
291
     1
 45
0.0
1001
ACAD
1000
AcDbSavedByObjectVersion
1070
     0
  0
VISUALSTYLE
  5
1FD
102
{ACAD_XDICTIONARY
360
E55
102
}
102
{ACAD_REACTORS
330
1F3
102
}
330
1F3
100
AcDbVisualStyle
  2
Realistic
 70
     8
 71
     2
 72
     2
 73
     0
 90
        0
 40
-0.6
 41
-30.0
 62
     5
 63
     7
 74
     1
 91
        0
 64
     7
 65
   257
 75
     1
175
     1
 42
1.0
 92
        8
 66
     8
 43
1.0
 76
     1
 77
     6
 78
     2
 67
     7
 79
     5
170
     0
171
     0
290
     0
174
     0
 93
       13
 44
0.0
173
     0
291
     0
 45
0.0
1001
ACAD
1000
AcDbSavedByObjectVersion
1070
     0
  0
VISUALSTYLE
  5
200
102
{ACAD_XDICTIONARY
360
E5B
102
}
102
{ACAD_REACTORS
330
1F3
102
}
330
1F3
100
AcDbVisualStyle
  2
Thicken
 70
    13
 71
     2
 72
     2
 73
     0
 90
        0
 40
-0.6
 41
-30.0
 62
     5
 63
     7
 74
     1
 91
        4
 64
     7
 65
   257
 75
     1
175
     1
 42
1.0
 92
       12
 66
     7
 43
1.0
 76
     1
 77
     6
 78
     2
 67
     7
 79
     5
170
     0
171
     0
290
     0
174
     0
 93
        1
 44
0.0
173
     0
291
     1
 45
0.0
1001
ACAD
1000
AcDbSavedByObjectVersion
1070
     0
  0
DICTIONARYVAR
  5
2F1
102
{ACAD_REACTORS
330
2AD
102
}
330
2AD
100
DictionaryVariables
280
     0
  1
1:1
  0
DICTIONARYVAR
  5
2EF
102
{ACAD_REACTORS
330
2AD
102
}
330
2AD
100
DictionaryVariables
280
     0
  1
STANDARD
  0
DICTIONARYVAR
  5
2AE
102
{ACAD_REACTORS
330
2AD
102
}
330
2AD
100
DictionaryVariables
280
     0
  1
STANDARD
  0
DICTIONARYVAR
  5
E31
102
{ACAD_REACTORS
330
2AD
102
}
330
2AD
100
DictionaryVariables
280
     0
  1
1
  0
DICTIONARYVAR
  5
E2F
102
{ACAD_REACTORS
330
2AD
102
}
330
2AD
100
DictionaryVariables
280
     0
  1
0
  0
DICTIONARYVAR
  5
2F3
102
{ACAD_REACTORS
330
2AD
102
}
330
2AD
100
DictionaryVariables
280
     0
  1
1
  0
DICTIONARYVAR
  5
2F4
102
{ACAD_REACTORS
330
2AD
102
}
330
2AD
100
DictionaryVariables
280
     0
  1
15
  0
DICTIONARYVAR
  5
2F2
102
{ACAD_REACTORS
330
2AD
102
}
330
2AD
100
DictionaryVariables
280
     0
  1
0
  0
DICTIONARYVAR
  5
E32
102
{ACAD_REACTORS
330
2AD
102
}
330
2AD
100
DictionaryVariables
280
     0
  1
1.570796
  0
DICTIONARYVAR
  5
E33
102
{ACAD_REACTORS
330
2AD
102
}
330
2AD
100
DictionaryVariables
280
     0
  1
1.570796
  0
DICTIONARYVAR
  5
E34
102
{ACAD_REACTORS
330
2AD
102
}
330
2AD
100
DictionaryVariables
280
     0
  1
-122.394000
  0
DICTIONARYVAR
  5
2F0
102
{ACAD_REACTORS
330
2AD
102
}
330
2AD
100
DictionaryVariables
280
     0
  1
0
  0
DICTIONARYVAR
  5
E2E
102
{ACAD_REACTORS
330
2AD
102
}
330
2AD
100
DictionaryVariables
280
     0
  1
127
  0
DICTIONARYVAR
  5
E30
102
{ACAD_REACTORS
330
2AD
102
}
330
2AD
100
DictionaryVariables
280
     0
  1
0
  0
DICTIONARY
  5
270
102
{ACAD_REACTORS
330
265
102
}
330
265
100
AcDbDictionary
281
     1
  0
XRECORD
  5
28F
102
{ACAD_REACTORS
330
265
102
}
330
265
100
AcDbXrecord
280
     1
 90
-1023410169
  0
XRECORD
  5
2E2
102
{ACAD_REACTORS
330
2E0
102
}
330
2E0
100
AcDbXrecord
280
     1
330
1B7
330
1DD
330
0
330
0
330
0
330
0
330
0
330
0
330
0
330
0
330
0
330
0
330
0
330
0
330
0
330
0
  0
DICTIONARY
  5
E39
330
21
100
AcDbDictionary
280
     1
281
     1
  3
ACAD_XREC_ROUNDTRIP
360
E3A
  0
DICTIONARY
  5
31E
330
20
100
AcDbDictionary
280
     1
281
     1
  3
ACAD_XREC_ROUNDTRIP
360
E38
  3
ADSK_XREC_LAYOUTTHUMBNAIL
360
31F
  0
DICTIONARY
  5
E3F
330
1F1
100
AcDbDictionary
280
     1
281
     1
  3
ACAD_XREC_ROUNDTRIP
360
E40
  0
DICTIONARY
  5
E3D
330
1F0
100
AcDbDictionary
280
     1
281
     1
  3
ACAD_XREC_ROUNDTRIP
360
E3E
  0
DICTIONARY
  5
E41
330
1F2
100
AcDbDictionary
280
     1
281
     1
  3
ACAD_XREC_ROUNDTRIP
360
E42
  0
DICTIONARY
  5
C49
330
206
100
AcDbDictionary
280
     1
281
     1
  3
ACAD_ROUNDTRIP_2008_TABLESTYLE_CELLSTYLEMAP
360
E35
  3
ACAD_XREC_ROUNDTRIP
360
E63
  0
DICTIONARY
  5
E4D
330
1F9
100
AcDbDictionary
280
     1
281
     1
  3
ACAD_XREC_ROUNDTRIP
360
E4E
  0
DICTIONARY
  5
E51
330
1FB
100
AcDbDictionary
280
     1
281
     1
  3
ACAD_XREC_ROUNDTRIP
360
E52
  0
DICTIONARY
  5
E4F
330
1FA
100
AcDbDictionary
280
     1
281
     1
  3
ACAD_XREC_ROUNDTRIP
360
E50
  0
DICTIONARY
  5
E4B
330
1F8
100
AcDbDictionary
280
     1
281
     1
  3
ACAD_XREC_ROUNDTRIP
360
E4C
  0
DICTIONARY
  5
E59
330
1FF
100
AcDbDictionary
280
     1
281
     1
  3
ACAD_XREC_ROUNDTRIP
360
E5A
  0
DICTIONARY
  5
E61
330
203
100
AcDbDictionary
280
     1
281
     1
  3
ACAD_XREC_ROUNDTRIP
360
E62
  0
DICTIONARY
  5
E53
330
1FC
100
AcDbDictionary
280
     1
281
     1
  3
ACAD_XREC_ROUNDTRIP
360
E54
  0
DICTIONARY
  5
E57
330
1FE
100
AcDbDictionary
280
     1
281
     1
  3
ACAD_XREC_ROUNDTRIP
360
E58
  0
DICTIONARY
  5
E69
330
2B2
100
AcDbDictionary
280
     1
281
     1
  3
ACAD_XREC_ROUNDTRIP
360
E6A
  0
DICTIONARY
  5
E5F
330
202
100
AcDbDictionary
280
     1
281
     1
  3
ACAD_XREC_ROUNDTRIP
360
E60
  0
DICTIONARY
  5
E43
330
1F4
100
AcDbDictionary
280
     1
281
     1
  3
ACAD_XREC_ROUNDTRIP
360
E44
  0
DICTIONARY
  5
E45
330
1F5
100
AcDbDictionary
280
     1
281
     1
  3
ACAD_XREC_ROUNDTRIP
360
E46
  0
DICTIONARY
  5
E47
330
1F6
100
AcDbDictionary
280
     1
281
     1
  3
ACAD_XREC_ROUNDTRIP
360
E48
  0
DICTIONARY
  5
E49
330
1F7
100
AcDbDictionary
280
     1
281
     1
  3
ACAD_XREC_ROUNDTRIP
360
E4A
  0
DICTIONARY
  5
E65
330
2B0
100
AcDbDictionary
280
     1
281
     1
  3
ACAD_XREC_ROUNDTRIP
360
E66
  0
DICTIONARY
  5
E5D
330
201
100
AcDbDictionary
280
     1
281
     1
  3
ACAD_XREC_ROUNDTRIP
360
E5E
  0
DICTIONARY
  5
E67
330
2B1
100
AcDbDictionary
280
     1
281
     1
  3
ACAD_XREC_ROUNDTRIP
360
E68
  0
DICTIONARY
  5
E55
330
1FD
100
AcDbDictionary
280
     1
281
     1
  3
ACAD_XREC_ROUNDTRIP
360
E56
  0
DICTIONARY
  5
E5B
330
200
100
AcDbDictionary
280
     1
281
     1
  3
ACAD_XREC_ROUNDTRIP
360
E5C
  0
XRECORD
  5
E3A
102
{ACAD_REACTORS
330
E39
102
}
330
E39
100
AcDbXrecord
280
     1
102
SHADEPLOT
 70
     0
102
SHADEPLOTRESLEVEL
 70
     2
102
SHADEPLOTCUSTOMDPI
 70
   300
  0
XRECORD
  5
E38
102
{ACAD_REACTORS
330
31E
102
}
330
31E
100
AcDbXrecord
280
     1
102
SHADEPLOT
 70
     0
102
SHADEPLOTRESLEVEL
 70
     2
102
SHADEPLOTCUSTOMDPI
 70
   300
  0
XRECORD
  5
31F
102
{ACAD_REACTORS
330
31E
102
}
330
31E
100
AcDbXrecord
280
     1
310
280000000001000074000000010008000000000000740000000000000000000000010000000000000000000000000000FFFFFF000000000000000000000000000000000000000000000000000000000000000000330000006600000099000000CC000000FF00000000330000333300006633000099330000CC330000FF3300
310
0000660000336600006666000099660000CC660000FF66000000990000339900006699000099990000CC990000FF99000000CC000033CC000066CC000099CC0000CCCC0000FFCC000000FF000033FF000066FF000099FF0000CCFF0000FFFF000000003300330033006600330099003300CC003300FF003300003333003333
310
33006633330099333300CC333300FF33330000663300336633006666330099663300CC663300FF66330000993300339933006699330099993300CC993300FF99330000CC330033CC330066CC330099CC3300CCCC3300FFCC330000FF330033FF330066FF330099FF3300CCFF3300FFFF330000006600330066006600660099
310
006600CC006600FF00660000336600333366006633660099336600CC336600FF33660000666600336666006666660099666600CC666600FF66660000996600339966006699660099996600CC996600FF99660000CC660033CC660066CC660099CC6600CCCC6600FFCC660000FF660033FF660066FF660099FF6600CCFF6600
310
FFFF660000009900330099006600990099009900CC009900FF00990000339900333399006633990099339900CC339900FF33990000669900336699006666990099669900CC669900FF66990000999900339999006699990099999900CC999900FF99990000CC990033CC990066CC990099CC9900CCCC9900FFCC990000FF99
310
0033FF990066FF990099FF9900CCFF9900FFFF99000000CC003300CC006600CC009900CC00CC00CC00FF00CC000033CC003333CC006633CC009933CC00CC33CC00FF33CC000066CC003366CC006666CC009966CC00CC66CC00FF66CC000099CC003399CC006699CC009999CC00CC99CC00FF99CC0000CCCC0033CCCC0066CC
310
CC0099CCCC00CCCCCC00FFCCCC0000FFCC0033FFCC0066FFCC0099FFCC00CCFFCC00FFFFCC000000FF003300FF006600FF009900FF00CC00FF00FF00FF000033FF003333FF006633FF009933FF00CC33FF00FF33FF000066FF003366FF006666FF009966FF00CC66FF00FF66FF000099FF003399FF006699FF009999FF00CC
310
99FF00FF99FF0000CCFF0033CCFF0066CCFF0099CCFF00CCCCFF00FFCCFF0000FFFF0033FFFF0066FFFF0099FFFF00CCFFFF00FFFFFF00000000000D0D0D001A1A1A00282828003535350043434300505050005D5D5D006B6B6B00787878008686860093939300A1A1A100AEAEAE00BBBBBB00C9C9C900D6D6D600E4E4E400
310
F1F1F100FFFFFF0000000000000000000000000000000000000000000000000000000000000000000000000000000000E2E2E2E2E2E2E2E2E2E2E2E2E2E2E2E2E2E2E2E2E2E2E2E2E2E2E2E2E2E2E2E2E2E2E2E2E2E2E2E2E2E2E2E2E2E2E2E2E2E2E2E2E2E2E2E2E2E2E2E2E2E2E2E2E2E2E2E2E2E2E2E2E2E2E2E2E2E2E2
310
E2E2E2E2E2E2E2E2E2E2E2E2E2E2E2E2E2E2E2E2E2E2E2E2E2E2E2E2E2E2E2E2E2E2E2E2E2E2E2E2E2E2E2E2E2E2E2E2E2E2E2E2E2E2E2E2E2E2E2E2E2E2E2E2E2E2E2E2E2E2E2E2E2E2E2E2E2E2E2E2E2E2E2E2E2E2E2E2E2E2E2E2E2E2E2E2E2E2E2E2E2E2E2E2E2E2E2E2E2E2E2E2E2E2E2E2E2E2E2E2E2E2E2E2E2E2E2
310
E2E2E2E2E2E2E2E2E2E2E2E2E2E2E2E2E2E2E2E2E2E2E2E2E2E2E2E2E2E2E2E2E2E2E2E2E2E2E2E2E2E2E2E2E2E2E2E2E2E2E2E2E2E2E2E2E2E2E2E2E2E2E2E2E2E2E2E2E2E2E2E2E2E2E2E2E2E2E2E2E2E2E2E2E2E2E2E2E2E2E2E2E2E2E2E2E2E2E2E2E2E2E2E2E2E2E2E2E2E2E2E2E2E2E2E2E2E2E2E2E2E2E2E2E2E2E2
310
E2E2E2E2E2E2E2E2E2E2E2E2E2E2E2E2E2E2E2E2E2E2E2E2E2E2E2E2E2E2E2E2E2E2E2E2E2E2E2E2E2E2E2E2E2E2E2E2E2E2E2E2E2E2E2E2E2E2E2E2E2E2E2E2E2E2E2E2E2E2E2E2E2E2E2E2E2E2E2E2E2E2E2E2E2E2E2E2E2E2E2E2E2E2E2E2E2E2E2E2E2E2E2E2E2E2E2E2E2E2E2E2E2E2E2E2E2E2E2E2E2E2E2E2E2E2E2
310
E2E2E2E2E2E2E2E2E2E2E2E2E2E2E2E2E2E2E2E2E2E2E2E2E2E2E2E2E2E2E2E2E2E2E2E2E2E2E2E2E2E2E2E2E2E2E2E2E2E2E2E2E2E2E2E2E2E2E2E2E2E2E2E2E2E2E2E2E2E2E2E2E2E2E2E2E2E2E2E2E2E2E2E2E2E2E2E2E2E2E2E2E2E2E2E2E2E2E2E2E2E2E2E2E2E2E2E2E2E2E2E2E2E2E2E2E2E2E2E2E2E2E2E2E2E2E2
310
E2E2E2E2E2E2E2E2E2E2E2E2E2E2E2E2E2E2E2E2E2E2E2E2E2E2E2E2E2E2E2E2E2E2E2E2E2E2E2E2E2E2E2E2E2E2E2E2E2E2E2E2E2E2E2E2E2E2E2E2E2E2E2E2E2E2E2E2E2E2E2E2E2E2E2E2E2E2E2E2E2E2E2E2E2E2E2E2E2E2E2E2E2E2E2E2E2E2E2E2E2E2E2E2E2E2E2E2E2E2E2E2E2E2E2E2E2E2E2E2E2E2E2E2E2E2E2
310
E2E2E2E2E2E2E2E2E2E2E2E2E2E2E2E2E2E2E2E2E2E2E2E2E2E2E2E2E2E2E2E2E2E2E2E2E2E2E2E2E2E2E2E2E2E2E2E2E2E2E2E2E2E2E2E2E2E2E2E2E2E2E2E2E2E2E2E2E2E2E2E2E2E2E2E2E2E2E2E2E2E2E2E2E2E2E2E2E2E2E2E2E2E2E2E2E2E2E2E2E2E2E2E2E2E2E2E2E2E2E2E2E2E2E2E2E2E2E2E2E2E2E2E2E2E2E2
310
E2E2E2E2E2E2E2E2E2E2E2E2E2E2E2E2E2E2E2E2E2E2E2E2E2E2E2E2E2E2E2E2E2E2E2E2E2E2E2E2E2E2E2E2E2E2E2E2E2E2E2E2E2E2E2E2E2E2E2E2E2E2E2E2E2E2E2E2E2E2E2E2E2E2E2E2E2E2E2E2E2E2E2E2E2E2E2E2E2E2E2E2E2E2E2E2E2E2E2E2E2E2E2E2E2E2E2E2E2E2E2E2E2E2E2E2E2E2E2E2E2E2E2E2E2E2E2
310
E2E2E2E2E2E2E2E2E2E2E2E2E2E2E2E2E2E2E2E2E2E2E2E2E2E2E2E2E2E2E2E2E2E2E2E2E2E2E2E2E2E2E2E2E2E2E2E2E2E2E2E2E2E2E2E2E2E2E2E2E2E2E2E2E2E2E2E2E2E2E2E2E2E2E2E2E2E2E2E2E2E2E2E2E2E2E2E2E2E2E2E2E2E2E2E2E2E2E2E2E2E2E2E2E2E2E2E2E2E2E2E2E2E2E2E2E2E2E2E2E2E2E2E2E2E2E2
310
E2E2E2E2E2E2E2E2E2E2E2E2E2E2E2E2E2E2E2E2E2E2E2E2E2E2E2E2E2E2E2E2E2E2E2E2E2E2E2E2E2E2E2E2E2E2E2E2E2E2E2E2E2E2E2E2E2E2E2E2E2E2E2E2E2E2E2E2E2E2E2E2E2E2E2E2E2E2E2E2E2E2E2E2E2E2E2E2E2E2E2E2E2E2E2E2E2E2E2E2E2E2E2E2E2E2E2E2E2E2E2E2E2E2E2E2E2E2E2E2E2E2E2E2E2E2E2
310
E2E2E2E2E2E2E2E2E2E2E2E2E2E2E2E2E2E2E2E2E2E2E2E2E2E2E2E2E2E2E2E2E2E2E2E2E2E2E2E2E2E2E2E2E2E2E2E2E2E2E2E2E2E2E2E2E2E2E2E2E2E2E2E2E2E2E2E2E2E2E2E2E2E2E2E2E2E2E2E2E2E2E2E2E2E2E2E2E2E2E2E2E2E2E2E2E2E2E2E2E2E2E2E2E2E2E2E2E2E2E2E2E2E2E2E2E2E2E2E2E2E2E2E2E2E2E2
310
E2E2E2E2E2E2E2E2E2E2E2E2E2E2E2E2E2E2E2E2E2E2E2E2E2E2E2E2E2E2E2E2E2E2E2E2E2E2E2E2E2E2E2E2E2E2E2E2E2E2E2E2E2E2E2E2E2E2E2E2E2E2E2E2E2E2E2E2E2E2E2E2E2E2E2E2E2E2E2E2E2E2E2E2E2E2E2E2E2E2E2E2E2E2E2E2E2E2E2E2E2E2E2E2E2E2E2E2E2E2E2E2E2E2E2E2E2E2E2E2E2E2E2E2E2E2E2
310
E2E2E2E2E2E2E2E2E2E2E2E2E2E2E2E2E2E2E2E2E2E2E2E2E2E2E2E2E2E2E2E2E2E2E2E2E2E2E2E2E2E2E2E2E2E2E2E2E2E2E2E2E2E2E2E2E2E2E2E2E2E2E2E2E2E2E2E2E2E2E2E2E2E2E2E2E2E2E2E2E2E2E2E2E2E2E2E2E2E2E2E2E2E2E2E2E2E2E2E2E2E2E2E2E2E2E2E2E2E2E2E2E2E2E2E2E2E2E2E2E2E2E2E2E2E2E2
310
E2E2E2E2E2E2E2E2E2E2E2E2E2E2E2E2E2E2E2E2E2E2E2E2E2E2E2E2E2E2E2E2E2E2E2E2E2E2E2E2E2E2E2E2E2E2E2E2E2E2E2E2E2E2E2E2E2E2E2E2E2E2E2E2E2E2E2E2E2E2E2E2E2E2E2E2E2E2E2E2E2E2E2E2E2E2E2E2E2E2E2E2E2E2E2E2E2E2E2E2E2E2E2E2E2E2E2E2E2E2E2E2E2E2E2E2E2E2E2E2E2E2E2E2E2E2E2
310
E2E2E2E2E2E2E2E2E2E2E2E2E2E2E2E2E2E2E2E2E2E2E2E2E2E2E2E2E2E2E2E2E2E2E2E2E2E2E2E2E2E2E2E2E2E2E2E2E2E2E2E2E2E2E2E2E2E2E2E2E2E2E2E2E2E2E2E2E2E2E2E2E2E2E2E2E2E2E2E2E2E2E2E2E2E2E2E2E2E2E2E2E2E2E2E2E2E2E2E2E2E2E2E2E2E2E2E2E2E2E2E2E2E2E2E2E2E2E2E2E2E2E2E2E2E2E2
310
E2E2E2E2E2E2E2E2E2E2E2E2E2E2E2E2E2E2E2E2E2E2E2E2E2E2E2E2E2E2E2E2E2E2E2E2E2E2E2E2E2E2E2E2E2E2E2E2E2E2E2E2E2E2E2E2E2E2E2E2E2E2E2E2E2E2E2E2E2E2E2E2E2E2E2E2E2E2E2E2E2E2E2E2E2E2E2E2E2E2E2E2E2E2E2E2E2E2E2E2E2E2E2E2E2E2E2E2E2E2E2E2E2E2E2E2E2E2E2E2E2E2E2E2E2E2E2
310
E2E2E2E2E2E2E2E2E2E2E2E2E2E2E2E2E2E2E2E2E2E2E2E2E2E2E2E2E2E2E2E2E2E2E2E2E2E2E2E2E2E2E2E2E2E2E2E2E2E2E2E2E2E2E2E2E2E2E2E2E2E2E2E2E2E2E2E2E2E2E2E2E2E2E2E2E2E2E2E2E2E2E2E2E2E2E2E2E2E2E2E2E2E2E2E2E2E2E2E2E2E2E2E2E2E2E2E2E2E2E2E2E2E2E2E2E2E2E2E2E2E2E2E2E2E2E2
310
E2E2E2E2E2E2E2E2E2E2E2E2E2E2E2E2E2E2E2E2E2E2E2E2E2E2E2E2E2E2E2E2E2E2E2E2E2E2E2E2E2E2E2E2E2E2E2E2E2E2E2E2E2E2E2E2E2E2E2E2E2E2E2E2E2E2E2E2E2E2E2E2E2E2E2E2E2E2E2E2E2E2E2E2E2E2E2E2E2E2E2E2E2E2E2E2E2E2E2E2E2E2E2E2E2E2E2E2E2E2E2E2E2E2E2E2E2E2E2E2E2E2E2E2E2E2E2
310
E2E2E2E2E2E2E2E2E2E2E2E2E2E2E2E2E2E2E2E2E2E2E2E2E2E2E2E2E2E2E2E2E2E2E2E2E2E2E2E2E2E2E2E2E2E2E2E2E2E2E2E2E2E2E2E2E2E2E2E2E2E2E2E2E2E2E2E2E2E2E2E2E2E2E2E2E2E2E2E2E2E2E2E2E2E2E2E2E2E2E2E2E2E2E2E2E2E2E2E2E2E2E2E2E2E2E2E2E2E2E2E2E2E2E2E2E2E2E2E2E2E2E2E2E2E2E2
310
E2E2E2E2E2E2E2E2E2E2E2E2E2E2E2E2E2E2E2E2E2E2E2E2E2E2E2E2E2E2E2E2E2E2E2E2E2E2E2E2E2E2E2E2E2E2E2E2E2E2E2E2E2E2E2E2E2E2E2E2E2E2E2E2E2E2E2E2E2E2E2E2E2E2E2E2E2E2E2E2E2E2E2E2E2E2E2E2E2E2E2E2E2E2E2E2E2E2E2E2E2E2E2E2E2E2E2E2E2E2E2E2E2E2E2E2E2E2E2E2E2E2E2E2E2E2E2
310
E2E2E2E2E2E2E2E2E2E2E2E2E2E2E2E2E2E2E2E2E2E2E2E2E2E2E2E2E2E2E2E2E2E2E2E2E2E2E2E2E2E2E2E2E2E2E2E2E2E2E2E2E2E2E2E2E2E2E2E2E2E2E2E2E2E2E2E2E2E2E2E2E2E2E2E2E2E2E2E2E2E2E2E2E2E2E2E2E2E2E2E2E2E2E2E2E2E2E2E2E2E2E2E2E2E2E2E2E2E2E2E2E2E2E2E2E2E2E2E2E2E2E2E2E2E2E2
310
E2E2E2E2E2E2E2E2E2E2E2E2E2E2E2E2E2E2E2E2E2E2E2E2E2E2E2E2E2E2E2E2E2E2E2E2E2E2E2E2E2E2E2E2E2E2E2E2E2E2E2E2E2E2E2E2E2E2E2E2E2E2E2E2E2E2E2E2E2E2E2E2E2E2E2E2E2E2E2E2E2E2E2E2E2E2E2E2E2E2E2E2E2E2E2E2E2E2E2E2E2E2E2E2E2E2E2E2E2E2E2E2E2E2E2E2E2E2E2E2E2E2E2E2E2E2E2
310
E2E2E2E2E2E2E2E2E2E2E2E2E2E2E2E2E2E2E2E2E2E2E2E2E2E2E2E2E2E2E2E2E2E2E2E2E2E2E2E2E2E2E2E2E2E2E2E2E2E2E2E2E2E2E2E2E2E2E2E2E2E2E2E2E2E2E2E2E2E2E2E2E2E2E2E2E2E2E2E2E2E2E2E2E2E2E2E2E2E2E2E2E2E2E2E2E2E2E2E2E2E2E2E2E2E2E2E2E2E2E2E2E2E2E2E2E2E2E2E2E2E2E2E2E2E2E2
310
E2E2E2E2E2E2E2E2E2E2E2E2E2E2E2E2E2E2E2E2E2E2E2E2E2E2E2E2E2E2E2E2E2E2E2E2E2E2E2E2E2E2E2E2E2E2E2E2E2E2E2E2E2E2E2E2E2E2E2E2E2E2E2E2E2E2E2E2E2E2E2E2E2E2E2E2E2E2E2E2E2E2E2E2E2E2E2E2E2E2E2E2E2E2E2E2E2E2E2E2E2E2E2E2E2E2E2E2E2E2E2E2E2E2E2E2E2E2E2E2E2E2E2E2E2E2E2
310
E2E2E2E2E2E2E2E2E2E2E2E2E2E2E2E2E2E2E2E2E2E2E2E2E2E2E2E2E2E2E2E2E2E2E2E2E2E2E2E2E2E2E2E2E2E2E2E2E2E2E2E2E2E2E2E2E2E2E2E2E2E2E2E2E2E2E2E2E2E2E2E2E2E2E2E2E2E2E2E2E2E2E2E2E2E2E2E2E2E2E2E2E2E2E2E2E2E2E2E2E2E2E2E2E2E2E2E2E2E2E2E2E2E2E2E2E2E2E2E2E2E2E2E2E2E2E2
310
E2E2E2E2E2E2E2E2E2E2E2E2E2E2E2E2E2E2E2E2E2E2E2E2E2E2E2E2E2E2E2E2E2E2E2E2E2E2E2E2E2E2E2E2E2E2E2E2E2E2E2E2E2E2E2E2E2E2E2E2E2E2E2E2E2E2E2E2E2E2E2E2E2E2E2E2E2E2E2E2E2E2E2E2E2E2E2E2E2E2E2E2E2E2E2E2E2E2E2E2E2E2E2E2E2E2E2E2E2E2E2E2E2E2E2E2E2E2E2E2E2E2E2E2E2E2E2
310
E2E2E2E2E2E2E2E2E2E2E2E2E2E2E2E2E2E2E2E2E2E2E2E2E2E2E2E2E2E2E2E2E2E2E2E2E2E2E2E2E2E2E2E2E2E2E2E2E2E2E2E2E2E2E2E2E2E2E2E2E2E2E2E2E2E2E2E2E2E2E2E2E2E2E2E2E2E2E2E2E2E2E2E2E2E2E2E2E2E2E2E2E2E2E2E2E2E2E2E2E2E2E2E2E2E2E2E2E2E2E2E2E2E2E2E2E2E2E2E2E2E2E2E2E2E2E2
310
E2E2E2E2E2E2E2E2E2E2E2E2E2E2E2E2E2E2E2E2E2E2E2E2E2E2E2E2E2E2E2E2E2E2E2E2E2E2E2E2E2E2E2E2E2E2E2E2E2E2E2E2E2E2E2E2E2E2E2E2E2E2E2E2E2E2E2E2E2E2E2E2E2E2E2E2E2E2E2E2E2E2E2E2E2E2E2E2E2E2E2E2E2E2E2E2E2E2E2E2E2E2E2E2E2E2E2E2E2E2E2E2E2E2E2E2E2E2E2E2E2E2E2E2E2E2E2
310
E2E2E2E2E2E2E2E2E2E2E2E2E2E2E2E2E2E2E2E2E2E2E2E2E2E2E2E2E2E2E2E2E2E2E2E2E2E2E2E2E2E2E2E2E2E2E2E2E2E2E2E2E2E2E2E2E2E2E2E2E2E2E2E2E2E2E2E2E2E2E2E2E2E2E2E2E2E2E2E2E2E2E2E2E2E2E2E2E2E2E2E2E2E2E2E2E2E2E2E2E2E2E2E2E2E2E2E2E2E2E2E2E2E2E2E2E2E2E2E2E2E2E2E2E2E2E2
310
E2E2E2E2E2E2E2E2E2E2E2E2E2E2E2E2E2E2E2E2E2E2E2E2E2E2E2E2E2E2E2E2E2E2E2E2E2E2E2E2E2E2E2E2E2E2E2E2E2E2E2E2E2E2E2E2E2E2E2E2E2E2E2E2E2E2E2E2E2E2E2E2E2E2E2E2E2E2E2E2E2E2E2E2E2E2E2E2E2E2E2E2E2E2E2E2E2E2E2E2E2E2E2E2E2E2E2E2E2E2E2E2E2E2E2E2E2E2E2E2E2E2E2E2E2E2E2
310
E2E2E2E2E2E2E2E2E2E2E2E2E2E2E2E2E2E2E2E2E2E2E2E2E2E2E2E2E2E2E2E2E2E2E2E2E2E2E2E2E2E2E2E2E2E2E2E2E2E2E2E2E2E2E2E2E2E2E2E2E2E2E2E2E2E2E2E2E2E2E2E2E2E2E2E2E2E2E2E2E2E2E2E2E2E2E2E2E2E2E2E2E2E2E2E2E2E2E2E2E2E2E2E2E2E2E2E2E2E2E2E2E2E2E2E2E2E2E2E2E2E2E2E2E2E2E2
310
E2E2E2E2E2E2E2E2E2E2E2E2E2E2E2E2E2E2E2E2E2E2E2E2E2E2E2E2E2E2E2E2E2E2E2E2E2E2E2E2E2E2E2E2E2E2E2E2E2E2E2E2E2E2E2E2E2E2E2E2E2E2E2E2E2E2E2E2E2E2E2E2E2E2E2E2E2E2E2E2E2E2E2E2E2E2E2E2E2E2E2E2E2E2E2E2E2E2E2E2E2E2E2E2E2E2E2E2E2E2E2E2E2E2E2E2E2E2E2E2E2E2E2E2E2E2E2
310
E2E2E2E2E2E2E2E2E2E2E2E2E2E2E2E2E2E2E2E2E2E2E2E2E2E2E2E2E2E2E2E2E2E2E2E2E2E2E2E2E2E2E2E2E2E2E2E2E2E2E2E2E2E2E2E2E2E2E2E2E2E2E2E2E2E2E2E2E2E2E2E2E2E2E2E2E2E2E2E2E2E2E2E2E2E2E2E2E2E2E2E2E2E2E2E2E2E2E2E2E2E2E2E2E2E2E2E2E2E2E2E2E2E2E2E2E2E2E2E2E2E2E2E2E2E2E2
310
E2E2E2E2E2E2E2E2E2E2E2E2E2E2E2E2E2E2E2E2E2E2E2E2E2E2E2E2E2E2E2E2E2E2E2E2E2E2E2E2E2E2E2E2E2E2E2E2E2E2E2E2E2E2E2E2E2E2E2E2E2E2E2E2E2E2E2E2E2E2E2E2E2E2E2E2E2E2E2E2E2E2E2E2E2E2E2E2E2E2E2E2E2E2E2E2E2E2E2E2E2E2E2E2E2E2E2E2E2E2E2E2E2E2E2E2E2E2E2E2E2E2E2E2E2E2E2
310
E2E2E2E2E2E2E2E2E2E2E2E2E2E2E2E2E2E2E2E2E2E2E2E2E2E2E2E2E2E2E2E2E2E2E2E2E2E2E2E2E2E2E2E2E2E2E2E2E2E2E2E2E2E2E2E2E2E2E2E2E2E2E2E2E2E2E2E2E2E2E2E2E2E2E2E2E2E2E2E2E2E2E2E2E2E2E2E2E2E2E2E2E2E2E2E2E2E2E2E2E2E2E2E2E2E2E2E2E2E2E2E2E2E2E2E2E2E2E2E2E2E2E2E2E2E2E2
310
E2E2E2E2E2E2E2E2E2E2E2E2E2E2E2E2E2E2E2E2E2E2E2E2E2E2E2E2E2E2E2E2E2E2E2E2E2E2E2E2E2E2E2E2E2E2E2E2E2E2E2E2E2E2E2E2E2E2E2E2E2E2E2E2E2E2E2E2E2E2E2E2E2E2E2E2E2E2E2E2E2E2E2E2E2E2E2E2E2E2E2E2E2E2E2E2E2E2E2E2E2E2E2E2E2E2E2E2E2E2E2E2E2E2E2E2E2E2E2E2E2E2E2E2E2E2E2
310
E2E2E2E2E2E2E2E2E2E2E2E2E2E2E2E2E2E2E2E2E2E2E2E2E2E2E2E2E2E2E2E2E2E2E2E2E2E2E2E2E2E2E2E2E2E2E2E2E2E2E2E2E2E2E2E2E2E2E2E2E2E2E2E2E2E2E2E2E2E2E2E2E2E2E2E2E2E2E2E2E2E2E2E2E2E2E2E2E2E2E2E2E2E2E2E2E2E2E2E2E2E2E2E2E2E2E2E2E2E2E2E2E2E2E2E2E2E2E2E2E2E2E2E2E2E2E2
310
E2E2E2E2E2E2E2E2E2E2E2E2E2E2E2E2E2E2E2E2E2E2E2E2E2E2E2E2E2E2E2E2E2E2E2E2E2E2E2E2E2E2E2E2E2E2E2E2E2E2E2E2E2E2E2E2E2E2E2E2E2E2E2E2E2E2E2E2E2E2E2E2E2E2E2E2E2E2E2E2E2E2E2E2E2E2E2E2E2E2E2E2E2E2E2E2E2E2E2E2E2E2E2E2E2E2E2E2E2E2E2E2E2E2E2E2E2E2E2E2E2E2E2E2E2E2E2
310
E2E2E2E2E2E2E2E2E2E2E2E2E2E2E2E2E2E2E2E2E2E2E2E2E2E2E2E2E2E2E2E2E2E2E2E2E2E2E2E2E2E2E2E2E2E2E2E2E2E2E2E2E2E2E2E2E2E2E2E2E2E2E2E2E2E2E2E2E2E2E2E2E2E2E2E2E2E2E2E2E2E2E2E2E2E2E2E2E2E2E2E2E2E2E2E2E2E2E2E2E2E2E2E2E2E2E2E2E2E22828282828282828282828282828282828
310
28282828282828282828282828282828282828282828282828282828282828282828282828282828282828282828282828282828E2E2E2E2E2E2E2E2E2E2E2E2E2E2E2E2E2E2E2E2E2E2E2E2E2E2E2E2E2E2E2E2E2E2E2E2E2E2E2E2E2E2E2E2E2E2E2E2E2E2E2E2E2E2E2E2E2E2E2E2E2E2E2E2E2E2E2E2E2E2E2E2E2E2E2
310
E2E2E2E2E2E2E2E2E2E2E2E2E2E2E2E2E2E2E2E2E2E2E2E2E2E2E2E2E2E2E2E2E2E2E2E2E2E2E2E2E2E2E2E2E2E2E2E2E2E2E2E2E2E2E2E2E2E2E2E2E2E2E2E2E2E2E2E2E2E2E2E2E2E2E2E2E2E2E2E2E2E2E2E2E2E2E2E2E2E2E2E2E2E2E2E2E2E2E2E2E2E2E2E2E2E2E2E2E2E2E2E2E2E2E2E2E2E2E2E2E2E2E2E2E2E2E2
310
E2E2E2E2E2E2E2E2E2E2E2E2E2E2E2E2E2E2E2E2E2E2E2E2E2E2E2E2E2E2E2E2E2E2E2E2E2E2E2E2E2E2E2E2E2E2E2E2E2E2E2E2E228E2E2E2E2E2E2E2E2E2E2E2E2E2E2E2E2E2E2E2E2E2E2E2E2E2E2E2E2E2E2E2E2E2E2E2E2E2E2E2E2E2E2E2E2E2E2E2E2E2E2E2E2E2E2E2E2E2E2E2E2E2E2E2E2E2E2E2E2E2E2E2E2E2
310
E2E2E2E2E2E2E2E2E2E2E2E2E2E2E2E2E2E2E2E2E2E2E2E2E2E2E2E2E2E2E2E2E2E2E2E2E2E2E2E2E2E2E2E2E2E2E2E2E2E2E2E2E2E2E2E2E2E2E2E2E2E2E2E2E2E2E2E2E2E2E2E2E2E2E2E2E2E2E2E2E2E2E2E2E2E2E2E2E2E2E2E2E2E2E2E2E2E2E2E2E2E2E2E2E2E2E2E2E2E2E2E2E2E2E2E2E2E2E2E2E2E2E2E2E2E2E2
310
E2E2E2E2E2E2E2E2E2E2E2E2E2E2E2E2E2E2E2E2E2E2E2E2E2E2E2E2E2E2E2E2E2E2E2E2E2E2E2E2E2E2E2E2E2E2E2E2E2E2E2E2E2E2E228E2E2E2E2E2E2E2E2E2E2E2E2E2E2E2E2E2E2E2E2E2E2E2E2E2E2E2E2E2E2E2E2E2E2E2E2E2E2E2E2E2E2E2E2E2E2E2E2E2E2E2E2E2E2E2E2E2E2E2E2E2E2E2E2E2E2E2E2E2E2E2
310
E2E2E2E2E2E2E2E2E2E2E2E2E2E2E2E2E2E2E2E2E2E2E2E2E2E2E2E2E2E2E2E2E2E2E2E2E2E2E2E2E2E2E2E2E2E2E2E2E2E2E2E2E2E2E2E2E2E2E2E2E2E2E2E2E2E2E2E2E2E2E2E2E2E2E2E2E2E2E2E2E2E2E2E2E2E2E2E2E2E2E2E2E2E2E2E2E2E2E2E2E2E2E2E2E2E2E2E2E2E2E2E2E2E2E2E2E2E2E2E2E2E2E2E2E2E2E2
310
E2E2E2E2E2E2E2E2E2E2E2E2E2E2E2E2E2E2E2E2E2E2E2E2E2E2E2E2E2E2E2E2E2E2E2E2E2E2E2E2E2E2E2E2E2E2E2E2E2E2E2E2E2E2E2E2E228E2E2E2E2E2E2E2E2E2E2E2E2E2E2E2E2E2E2E2E2E2E2E2E2E2E2E2E2E2E2E2E2E2E2E2E2E2E2E2E2E2E2E2E2E2E2E2E2E2E2E2E2E2E2E2E2E2E2E2E2E2E2E2E2E2E2E2E2E2
310
E2E2E2E2E2E2E2E2E2E2E2E2E2E2E2E2E2E2E2E2E2E2E2E2E2E2E2E2E2E2E2E2E2E2E2E2E2E2E2E2E2E2E2E2E2E2E2E2E2E2E2E2E2E2E2E2E2E2E2E2E2E2E2E2E2E2E2E2E2E2E2E2E2E2E2E2E2E2E2E2E2E2E2E2E2E2E2E2E2E2E2E2E2E2E2E2E2E2E2E2E2E2E2E2E2E2E2E2E2E2E2E2E2E2E2E2E2E2E2E2E2E2E2E2E2E2E2
310
E2E2E2E2E2E2E2E2E2E2E2E2E2E2E2E2E2E2E2E2E2E2E2E2E2E2E2E2E2E2E2E2E2E2E2E2E2E2E2E2E2E2E2E2E2E2E2E2E2E2E2E2E2E2E2E2E2E2E228E2E2E2E2E2E2E2E2E2E2E2E2E2E2E2E2E2E2E2E2E2E2E2E2E2E2E2E2E2E2E2E2E2E2E2E2E2E2E2E2E2E2E2E2E2E2E2E2E2E2E2E2E2E2E2E2E2E2E2E2E2E2E2E2E2E2E2
310
E2E2E2E2E2E2E2E2E2E2E2E2E2E2E2E2E2E2E2E2E2E2E2E2E2E2E2E2E2E2E2E2E2E2E2E2E2E2E2E2E2E2E2E2E2E2E2E2E2E2E2E2E2E2E2E2E2E2E2E2E2E2E2E2E2E2E2E2E2E2E2E2E2E2E2E2E2E2E2E2E2E2E2E2E2E2E2E2E2E2E2E2E2E2E2E2E2E2E2E2E2E2E2E2E2E2E2E2E2E2E2E2E2E2E2E2E2E2E2E2E2E2E2E2E2E2E2
310
E2E2E2E2E2E2E2E2E2E2E2E2E2E2E2E2E2E2E2E2E2E2E2E2E2E2E2E2E2E2E2E2E2E2E2E2E2E2E2E2E2E2E2E2E2E2E2E2E2E2E2E2E2E2E2E2E2E2E2E2E228E2E2E2E2E2E2E2E2E2E2E2E2E2E2E2E2E2E2E2E2E2E2E2E2E2E2E2E2E2E2E2E2E2E2E2E2E2E2E2E2E2E2E2E2E2E2E2E2E2E2E2E2E2E2E2E2E2E2E2E2E2E2E2E2E2
310
E2E2E2E2E2E2E2E2E2E2E2E2E2E2E2E2E2E2E2E2E2E2E2E2E2E2E2E2E2E2E2E2E2E2E2E2E2E2E2E2E2E2E2E2E2E2E2E2E2E2E2E2E2E2E2E2E2E2E2E2E2E2E2E2E2E2E2E2E2E2E2E2E2E2E2E2E2E2E2E2E2E2E2E2E2E2E2E2E2E2E2E2E2E2E2E2E2E2E2E2E2E2E2E2E2E2E2E2E2E2E2E2E2E2E2E2E2E2E2E2E2E2E2E2E2E2E2
310
E2E2E2BEBEBEBEBEBEBEBEBEBEBEBEBEBEBEBEBEBEBEBEBEBEBEBEBEBEBEBEBEBEBEBEBEBEBEBEBEBEBEBEBEBEBEBEBEBEBEBEBEBEBEBEBEBEBEBEBEBEE2E228E2E2E2E2E2E2E2E2E2E2E2E2E2E2E2E2E2E2E2E2E2E2E2E2E2E2E2E2E2E2E2E2E2E2E2E2E2E2E2E2E2E2E2E2E2E2E2E2E2E2E2E2E2E2E2E2E2E2E2E2E2E2E2
310
E2E2E2E2E2E2E2E2E2E2E2E2E2E2E2E2E2E2E2E2E2E2E2E2E2E2E2E2E2E2E2E2E2E2E2E2E2E2E2E2E2E2E2E2E2E2E2E2E2E2E2E2E2E2E2E2E2E2E2E2E2E2E2E2E2E2E2E2E2E2E2E2E2E2E2E2E2E2E2E2E2E2E2E2E2E2E2E2E2E2E2E2E2E2E2E2E2E2E2E2E2E2E2E2E2E2E2E2E2E2E2E2E2E2E2E2E2E2E2E2E2E2E2E2E2E2E2
310
E2E2E2E2E2BEE2F5F5F5F5F5F5F5F5F5F5F5F5F5F5F5F5F5F5F5F5F5F5F5F5F5F5F5F5F5F5F5F5F5F5F5F5F5F5F5F5F5F5F5E2BEF5F5F5F5F5F5F5F5F5F5BEE2E228E2E2E2E2E2E2E2E2E2E2E2E2E2E2E2E2E2E2E2E2E2E2E2E2E2E2E2E2E2E2E2E2E2E2E2E2E2E2E2E2E2E2E2E2E2E2E2E2E2E2E2E2E2E2E2E2E2E2E2E2E2
310
E2E2E2E2E2E2E2E2E2E2E2E2E2E2E2E2E2E2E2E2E2E2E2E2E2E2E2E2E2E2E2E2E2E2E2E2E2E2E2E2E2E2E2E2E2E2E2E2E2E2E2E2E2E2E2E2E2E2E2E2E2E2E2E2E2E2E2E2E2E2E2E2E2E2E2E2E2E2E2E2E2E2E2E2E2E2E2E2E2E2E2E2E2E2E2E2E2E2E2E2E2E2E2E2E2E2E2E2E2E2E2E2E2E2E2E2E2E2E2E2E2E2E2E2E2E2E2
310
E2E2E2E2E2E2E2BEE2F5F5F5F5F5F5F5F5F5F5F5F5F5F5E2F5F5F5F5F5F5F5F5F5F5F5F5E2F5F5F5F5F5F5F5F5F5F5F5F5F5F5E2E2BEBEBEBEBEBEBEBEBEBEBEBEE2E228E2E2E2E2E2E2E2E2E2E2E2E2E2E2E2E2E2E2E2E2E2E2E2E2E2E2E2E2E2E2E2E2E2E2E2E2E2E2E2E2E2E2E2E2E2E2E2E2E2E2E2E2E2E2E2E2E2E2E2
310
E2E2E2E2E2E2E2E2E2E2E2E2E2E2E2E2E2E2E2E2E2E2E2E2E2E2E2E2E2E2E2E2E2E2E2E2E2E2E2E2E2E2E2E2E2E2E2E2E2E2E2E2E2E2E2E2E2E2E2E2E2E2E2E2E2E2E2E2E2E2E2E2E2E2E2E2E2E2E2E2E2E2E2E2E2E2E2E2E2E2E2E2E2E2E2E2E2E2E2E2E2E2E2E2E2E2E2E2E2E2E2E2E2E2E2E2E2E2E2E2E2E2E2E2E2E2E2
310
E2E2E2E2E2E2E2E2E2BEE2F5F5F5F5F5F5F5F5F5F5F5F5F5F5F5F5F5F5F5F5F5F5F5F5F5F5F5F5F5F5F5F5F5F5F5F5F5F5F5F5F5F5F5E2E2E2E2E2E2E2E2E2E2E2E2BEE2E228E2E2E2E2E2E2E2E2E2E2E2E2E2E2E2E2E2E2E2E2E2E2E2E2E2E2E2E2E2E2E2E2E2E2E2E2E2E2E2E2E2E2E2E2E2E2E2E2E2E2E2E2E2E2E2E2E2
310
E2E2E2E2E2E2E2E2E2E2E2E2E2E2E2E2E2E2E2E2E2E2E2E2E2E2E2E2E2E2E2E2E2E2E2E2E2E2E2E2E2E2E2E2E2E2E2E2E2E2E2E2E2E2E2E2E2E2E2E2E2E2E2E2E2E2E2E2E2E2E2E2E2E2E2E2E2E2E2E2E2E2E2E2E2E2E2E2E2E2E2E2E2E2E2E2E2E2E2E2E2E2E2E2E2E2E2E2E2E2E2E2E2E2E2E2E2E2E2E2E2E2E2E2E2E2E2
310
E2E2E2E2E2E2E2E2E2E2E2BEE2F5F5F5F5F5F5F5F5F5F5F5F5F5F5F5F5F5F5F5F5F5F5F5F5F5F5F5E2E2E2E2E2E2E2E2E2E2E2E2E2E2E2E2E2E2E2E2E2E2E2E2E2E2E2E2BEE2E228E2E2E2E2E2E2E2E2E2E2E2E2E2E2E2E2E2E2E2E2E2E2E2E2E2E2E2E2E2E2E2E2E2E2E2E2E2E2E2E2E2E2E2E2E2E2E2E2E2E2E2E2E2E2E2
310
E2E2E2E2E2E2E2E2E2E2E2E2E2E2E2E2E2E2E2E2E2E2E2E2E2E2E2E2E2E2E2E2E2E2E2E2E2E2E2E2E2E2E2E2E2E2E2E2E2E2E2E2E2E2E2E2E2E2E2E2E2E2E2E2E2E2E2E2E2E2E2E2E2E2E2E2E2E2E2E2E2E2E2E2E2E2E2E2E2E2E2E2E2E2E2E2E2E2E2E2E2E2E2E2E2E2E2E2E2E2E2E2E2E2E2E2E2E2E2E2E2E2E2E2E2E2E2
310
E2E2E2E2E2E2E2E2E2E2E2E2E2BEE2E2E2E2E2E2E2E2E2E2E2E2E2E2E2E2E2E2E2E2E2E2E2E2E2E2E2E2E2E2E2E2E2E2E2E2E2E2E2E2E2E2E2E2E2E2E2E2E2E2E2E2E2E2E2E2BEE2E228E2E2E2E2E2E2E2E2E2E2E2E2E2E2E2E2E2E2E2E2E2E2E2E2E2E2E2E2E2E2E2E2E2E2E2E2E2E2E2E2E2E2E2E2E2E2E2E2E2E2E2E2E2
310
E2E2E2E2E2E2E2E2E2E2E2E2E2E2E2E2E2E2E2E2E2E2E2E2E2E2E2E2E2E2E2E2E2E2E2E2E2E2E2E2E2E2E2E2E2E2E2E2E2E2E2E2E2E2E2E2E2E2E2E2E2E2E2E2E2E2E2E2E2E2E2E2E2E2E2E2E2E2E2E2E2E2E2E2E2E2E2E2E2E2E2E2E2E2E2E2E2E2E2E2E2E2E2E2E2E2E2E2E2E2E2E2E2E2E2E2E2E2E2E2E2E2E2E2E2E2E2
310
E2E2E2E2E2E2E2E2E2E2E2E2E2E2E2BEE2E2E2E2E2E2E2E2E2E2E2E2E2E2E2E2E2E2E2E2E2E2E2E2E2E2E2E2E2E2E2E2E2E2E2E2E2E2E2E2E2E2E2E2E2E2E2E2E2E2E2E2E2E2E2E2BEE2E228E2E2E2E2E2E2E2E2E2E2E2E2E2E2E2E2E2E2E2E2E2E2E2E2E2E2E2E2E2E2E2E2E2E2E2E2E2E2E2E2E2E2E2E2E2E2E2E2E2E2E2
310
E2E2E2E2E2E2E2E2E2E2E2E2E2E2E2E2E2E2E2E2E2E2E2E2E2E2E2E2E2E2E2E2E2E2E2E2E2E2E2E2E2E2E2E2E2E2E2E2E2E2E2E2E2E2E2E2E2E2E2E2E2E2E2E2E2E2E2E2E2E2E2E2E2E2E2E2E2E2E2E2E2E2E2E2E2E2E2E2E2E2E2E2E2E2E2E2E2E2E2E2E2E2E2E2E2E2E2E2E2E2E2E2E2E2E2E2E2E2E2E2E2E2E2E2E2E2E2
310
E2E2E2E2E2E2E2E2E2E2E2E2E2E2E2E2E2BEE2E2E2E2E2E2E2E2E2E2E2E2E2E2E2E2E2E2E2E2E2E2E2E2E2E2E2E2E2E2E2E2E2E2E2E2E2E2E2E2E2E2E2E2E2E2E2E2E2E2E2E2E2E2E2E2BEE2E228E2E2E2E2E2E2E2E2E2E2E2E2E2E2E2E2E2E2E2E2E2E2E2E2E2E2E2E2E2E2E2E2E2E2E2E2E2E2E2E2E2E2E2E2E2E2E2E2E2
310
E2E2E2E2E2E2E2E2E2E2E2E2E2E2E2E2E2E2E2E2E2E2E2E2E2E2E2E2E2E2E2E2E2E2E2E2E2E2E2E2E2E2E2E2E2E2E2E2E2E2E2E2E2E2E2E2E2E2E2E2E2E2E2E2E2E2E2E2E2E2E2E2E2E2E2E2E2E2E2E2E2E2E2E2E2E2E2E2E2E2E2E2E2E2E2E2E2E2E2E2E2E2E2E2E2E2E2E2E2E2E2E2E2E2E2E2E2E2E2E2E2E2E2E2E2E2E2
310
E2E2E2E2E2E2E2E2E2E2E2E2E2E2E2E2E2E2E2BEE2E2E2E2E2E2E2E2E2E2E2E2E2E2E2E2E2E2E2E2E2E2E2E2E2E2E2E2E2E2E2E2E2E2E2E2E2E2E2E2E2E2E2E2E2E2E2E2E2E2E2E2E2E2E2E2BEE2E228E2E2E2E2E2E2E2E2E2E2E2E2E2E2E2E2E2E2E2E2E2E2E2E2E2E2E2E2E2E2E2E2E2E2E2E2E2E2E2E2E2E2E2E2E2E2E2
310
E2E2E2E2E2E2E2E2E2E2E2E2E2E2E2E2E2E2E2E2E2E2E2E2E2E2E2E2E2E2E2E2E2E2E2E2E2E2E2E2E2E2E2E2E2E2E2E2E2E2E2E2E2E2E2E2E2E2E2E2E2E2E2E2E2E2E2E2E2E2E2E2E2E2E2E2E2E2E2E2E2E2E2E2E2E2E2E2E2E2E2E2E2E2E2E2E2E2E2E2E2E2E2E2E2E2E2E2E2E2E2E2E2E2E2E2E2E2E2E2E2E2E2E2E2E2E2
310
E2E2E2E2E2E2E2E2E2E2E2E2E2E2E2E2E2E2E2E2E2BEE2E2E2E2E2E2E2E2E2E2E2E2E2E2E2E2E2E2E2E2E2E2E2E2E2E2E2E2E2E2E2E2E2E2E2E2E2E2E2E2E2E2E2E2E2E2E2E2E2E2E2E2E2E2E2E2BEE2E228E2E2E2E2E2E2E2E2E2E2E2E2E2E2E2E2E2E2E2E2E2E2E2E2E2E2E2E2E2E2E2E2E2E2E2E2E2E2E2E2E2E2E2E2E2
310
E2E2E2E2E2E2E2E2E2E2E2E2E2E2E2E2E2E2E2E2E2E2E2E2E2E2E2E2E2E2E2E2E2E2E2E2E2E2E2E2E2E2E2E2E2E2E2E2E2E2E2E2E2E2E2E2E2E2E2E2E2E2E2E2E2E2E2E2E2E2E2E2E2E2E2E2E2E2E2E2E2E2E2E2E2E2E2E2E2E2E2E2E2E2E2E2E2E2E2E2E2E2E2E2E2E2E2E2E2E2E2E2E2E2E2E2E2E2E2E2E2E2E2E2E2E2E2
310
E2E2E2E2E2E2E2E2E2E2E2E2E2E2E2E2E2E2E2E2E2E2E2BEE2E2E2E2E2E2E2E2E2E2E2E2E2E2E2E2E2E2E2E2E2E2E2E2E2E2E2E2F5E2E2E2E2E2E2E2E2E2E2E2E2E2E2E2E2E2E2E2E2E2E2E2E2E2E2E2BEE2E228E2E2E2E2E2E2E2E2E2E2E2E2E2E2E2E2E2E2E2E2E2E2E2E2E2E2E2E2E2E2E2E2E2E2E2E2E2E2E2E2E2E2E2
310
E2E2E2E2E2E2E2E2E2E2E2E2E2E2E2E2E2E2E2E2E2E2E2E2E2E2E2E2E2E2E2E2E2E2E2E2E2E2E2E2E2E2E2E2E2E2E2E2E2E2E2E2E2E2E2E2E2E2E2E2E2E2E2E2E2E2E2E2E2E2E2E2E2E2E2E2E2E2E2E2E2E2E2E2E2E2E2E2E2E2E2E2E2E2E2E2E2E2E2E2E2E2E2E2E2E2E2E2E2E2E2E2E2E2E2E2E2E2E2E2E2E2E2E2E2E2E2
310
E2E2E2E2E2E2E2E2E2E2E2E2E2E2E2E2E2E2E2E2E2E2E2E2E2BEE2E2E2E2E2E2E2E2E2E2E2E2E2E2E2E2E2E2E2E2E2E2E2E2E2E2E2F5F5E2E2E2E2E2E2E2E2E2E2E2E2E2E2E2E2E2E2E2E2E2E2E2E2E2E2E2BEE2E228E2E2E2E2E2E2E2E2E2E2E2E2E2E2E2E2E2E2E2E2E2E2E2E2E2E2E2E2E2E2E2E2E2E2E2E2E2E2E2E2E2
310
E2E2E2E2E2E2E2E2E2E2E2E2E2E2E2E2E2E2E2E2E2E2E2E2E2E2E2E2E2E2E2E2E2E2E2E2E2E2E2E2E2E2E2E2E2E2E2E2E2E2E2E2E2E2E2E2E2E2E2E2E2E2E2E2E2E2E2E2E2E2E2E2E2E2E2E2E2E2E2E2E2E2E2E2E2E2E2E2E2E2E2E2E2E2E2E2E2E2E2E2E2E2E2E2E2E2E2E2E2E2E2E2E2E2E2E2E2E2E2E2E2E2E2E2E2E2E2
310
E2E2E2E2E2E2E2E2E2E2E2E2E2E2E2E2E2E2E2E2E2E2E2E2E2E2E2BEE2E2E2E2E2E2E2E2E2E2E2E2E2E2E2E2E2E2E2E2E2E2E2E2F5F5F5F5F5F5F5F5E2E2E2E2E2E2E2E2E2E2E2E2E2E2E2E2E2E2E2E2E2E2E2E2BEE2E228E2E2E2E2E2E2E2E2E2E2E2E2E2E2E2E2E2E2E2E2E2E2E2E2E2E2E2E2E2E2E2E2E2E2E2E2E2E2E2
310
E2E2E2E2E2E2E2E2E2E2E2E2E2E2E2E2E2E2E2E2E2E2E2E2E2E2E2E2E2E2E2E2E2E2E2E2E2E2E2E2E2E2E2E2E2E2E2E2E2E2E2E2E2E2E2E2E2E2E2E2E2E2E2E2E2E2E2E2E2E2E2E2E2E2E2E2E2E2E2E2E2E2E2E2E2E2E2E2E2E2E2E2E2E2E2E2E2E2E2E2E2E2E2E2E2E2E2E2E2E2E2E2E2E2E2E2E2E2E2E2E2E2E2E2E2E2E2
310
E2E2E2E2E2E2E2E2E2E2E2E2E2E2E2E2E2E2E2E2E2E2E2E2E2E2E2E2E2BEE2E2E2E2E2E2E2E2E2E2E2E2E2E2E2E2E2E2E2E2E2E2E2E2F5F5E2E2F5E2F5F5E2E2E2F5F5F5F5F5F5F5F5F5F5F5F5F5F5F5F5F5E2E2E2E2BEE2E228E2E2E2E2E2E2E2E2E2E2E2E2E2E2E2E2E2E2E2E2E2E2E2E2E2E2E2E2E2E2E2E2E2E2E2E2E2
310
E2E2E2E2E2E2E2E2E2E2E2E2E2E2E2E2E2E2E2E2E2E2E2E2E2E2E2E2E2E2E2E2E2E2E2E2E2E2E2E2E2E2E2E2E2E2E2E2E2E2E2E2E2E2E2E2E2E2E2E2E2E2E2E2E2E2E2E2E2E2E2E2E2E2E2E2E2E2E2E2E2E2E2E2E2E2E2E2E2E2E2E2E2E2E2E2E2E2E2E2E2E2E2E2E2E2E2E2E2E2E2E2E2E2E2E2E2E2E2E2E2E2E2E2E2E2E2
310
E2E2E2E2E2E2E2E2E2E2E2E2E2E2E2E2E2E2E2E2E2E2E2E2E2E2E2E2E2E2E2BEE2E2E2E2E2E2E2E2E2E2E2E2E2F5F5F5F5F5F5F5F5F5E2E2F5E2E2E2F5E2E2F5E2E2E2E2F5F5F5F5F5F5F5F5F5F5F5F5F5F5F5E2E2E2E2E2BEE2E228E2E2E2E2E2E2E2E2E2E2E2E2E2E2E2E2E2E2E2E2E2E2E2E2E2E2E2E2E2E2E2E2E2E2E2
310
E2E2E2E2E2E2E2E2E2E2E2E2E2E2E2E2E2E2E2E2E2E2E2E2E2E2E2E2E2E2E2E2E2E2E2E2E2E2E2E2E2E2E2E2E2E2E2E2E2E2E2E2E2E2E2E2E2E2E2E2E2E2E2E2E2E2E2E2E2E2E2E2E2E2E2E2E2E2E2E2E2E2E2E2E2E2E2E2E2E2E2E2E2E2E2E2E2E2E2E2E2E2E2E2E2E2E2E2E2E2E2E2E2E2E2E2E2E2E2E2E2E2E2E2E2E2E2
310
E2E2E2E2E2E2E2E2E2E2E2E2E2E2E2E2E2E2E2E2E2E2E2E2E2E2E2E2E2E2E2E2E2BEE2E2E2E2E2E2E2E2E2E2E2E2E2E2F5F5F5F5F5F5F5F5E2F5F5F5F5F5F5F5F5F5F5F5E2F5F5F5F5F5F5F5F5F5F5F5F5F5F5F5F5F5E2E2E2E2BEE2E228E2E2E2E2E2E2E2E2E2E2E2E2E2E2E2E2E2E2E2E2E2E2E2E2E2E2E2E2E2E2E2E2E2
310
E2E2E2E2E2E2E2E2E2E2E2E2E2E2E2E2E2E2E2E2E2E2E2E2E2E2E2E2E2E2E2E2E2E2E2E2E2E2E2E2E2E2E2E2E2E2E2E2E2E2E2E2E2E2E2E2E2E2E2E2E2E2E2E2E2E2E2E2E2E2E2E2E2E2E2E2E2E2E2E2E2E2E2E2E2E2E2E2E2E2E2E2E2E2E2E2E2E2E2E2E2E2E2E2E2E2E2E2E2E2E2E2E2E2E2E2E2E2E2E2E2E2E2E2E2E2E2
310
E2E2E2E2E2E2E2E2E2E2E2E2E2E2E2E2E2E2E2E2E2E2E2E2E2E2E2E2E2E2E2E2E2E2E2BEE2E2E2E2E2E2E2E2E2E2E2E2E2E2F5F5F5F5F5F5F5F5E2E2E2E2E2E2F5E2E2E2E2E2E2F5F5F5F5F5F5F5F5F5F5F5F5F5F5F5F5F5E2E2E2E2BEE2E228E2E2E2E2E2E2E2E2E2E2E2E2E2E2E2E2E2E2E2E2E2E2E2E2E2E2E2E2E2E2E2
310
E2E2E2E2E2E2E2E2E2E2E2E2E2E2E2E2E2E2E2E2E2E2E2E2E2E2E2E2E2E2E2E2E2E2E2E2E2E2E2E2E2E2E2E2E2E2E2E2E2E2E2E2E2E2E2E2E2E2E2E2E2E2E2E2E2E2E2E2E2E2E2E2E2E2E2E2E2E2E2E2E2E2E2E2E2E2E2E2E2E2E2E2E2E2E2E2E2E2E2E2E2E2E2E2E2E2E2E2E2E2E2E2E2E2E2E2E2E2E2E2E2E2E2E2E2E2E2
310
E2E2E2E2E2E2E2E2E2E2E2E2E2E2E2E2E2E2E2E2E2E2E2E2E2E2E2E2E2E2E2E2E2E2E2E2E2BEE2E2E2E2E2E2E2E2E2E2E2E2E2E2F5F5F5F5F5F5E2E2F5F5E2E2E2E2F5E2E2E2E2E2F5E2F5F5F5F5F5F5F5F5F5E2E2E2E2E2E2E2E2E2E2E2BEE2E228E2E2E2E2E2E2E2E2E2E2E2E2E2E2E2E2E2E2E2E2E2E2E2E2E2E2E2E2E2
310
E2E2E2E2E2E2E2E2E2E2E2E2E2E2E2E2E2E2E2E2E2E2E2E2E2E2E2E2E2E2E2E2E2E2E2E2E2E2E2E2E2E2E2E2E2E2E2E2E2E2E2E2E2E2E2E2E2E2E2E2E2E2E2E2E2E2E2E2E2E2E2E2E2E2E2E2E2E2E2E2E2E2E2E2E2E2E2E2E2E2E2E2E2E2E2E2E2E2E2E2E2E2E2E2E2E2E2E2E2E2E2E2E2E2E2E2E2E2E2E2E2E2E2E2E2E2E2
310
E2E2E2E2E2E2E2E2E2E2E2E2E2E2E2E2E2E2E2E2E2E2E2E2E2E2E2E2E2E2E2E2E2E2E2E2E2E2E2BEE2E2E2E2E2E2E2E2E2E2E2E2E2E2E2E2E2E2E2E2E2E2E2E2F5F5E2E2F5E2E2E2E2F5E2E2F5F5E2F5E2F5F5F5F5E2E2E2E2E2E2E2E2E2E2E2BEE2E228E2E2E2E2E2E2E2E2E2E2E2E2E2E2E2E2E2E2E2E2E2E2E2E2E2E2E2
310
E2E2E2E2E2E2E2E2E2E2E2E2E2E2E2E2E2E2E2E2E2E2E2E2E2E2E2E2E2E2E2E2E2E2E2E2E2E2E2E2E2E2E2E2E2E2E2E2E2E2E2E2E2E2E2E2E2E2E2E2E2E2E2E2E2E2E2E2E2E2E2E2E2E2E2E2E2E2E2E2E2E2E2E2E2E2E2E2E2E2E2E2E2E2E2E2E2E2E2E2E2E2E2E2E2E2E2E2E2E2E2E2E2E2E2E2E2E2E2E2E2E2E2E2E2E2E2
310
E2E2E2E2E2E2E2E2E2E2E2E2E2E2E2E2E2E2E2E2E2E2E2E2E2E2E2E2E2E2E2E2E2E2E2E2E2E2E2E2E2BEE2E2E2E2E2E2E2E2E2E2E2E2E2E2E2E2E2E2E2E2E2E2E2F5F5F5F5F5F5F5F5F5F5F5F5F5F5F5F5F5F5F5F5F5F5F5F5F5F5F5F5F5F5F5F5E2BEE2E228E2E2E2E2E2E2E2E2E2E2E2E2E2E2E2E2E2E2E2E2E2E2E2E2E2
310
E2E2E2E2E2E2E2E2E2E2E2E2E2E2E2E2E2E2E2E2E2E2E2E2E2E2E2E2E2E2E2E2E2E2E2E2E2E2E2E2E2E2E2E2E2E2E2E2E2E2E2E2E2E2E2E2E2E2E2E2E2E2E2E2E2E2E2E2E2E2E2E2E2E2E2E2E2E2E2E2E2E2E2E2E2E2E2E2E2E2E2E2E2E2E2E2E2E2E2E2E2E2E2E2E2E2E2E2E2E2E2E2E2E2E2E2E2E2E2E2E2E2E2E2E2E2E2
310
E2E2E2E2E2E2E2E2E2E2E2E2E2E2E2E2E2E2E2E2E2E2E2E2E2E2E2E2E2E2E2E2E2E2E2E2E2E2E2E2E2E2E2BEE2E2E2E2E2E2F5F5F5F5F5F5F5F5F5F5F5F5F5F5F5E2E2F5F5F5F5F5F5F5F5F5F5E2E2E2E2E2E2E2E2F5E2E2E2F5E2E2E2F5E2E2E2F5F5E2BEE2E228E2E2E2E2E2E2E2E2E2E2E2E2E2E2E2E2E2E2E2E2E2E2E2
310
E2E2E2E2E2E2E2E2E2E2E2E2E2E2E2E2E2E2E2E2E2E2E2E2E2E2E2E2E2E2E2E2E2E2E2E2E2E2E2E2E2E2E2E2E2E2E2E2E2E2E2E2E2E2E2E2E2E2E2E2E2E2E2E2E2E2E2E2E2E2E2E2E2E2E2E2E2E2E2E2E2E2E2E2E2E2E2E2E2E2E2E2E2E2E2E2E2E2E2E2E2E2E2E2E2E2E2E2E2E2E2E2E2E2E2E2E2E2E2E2E2E2E2E2E2E2E2
310
E2E2E2E2E2E2E2E2E2E2E2E2E2E2E2E2E2E2E2E2E2E2E2E2E2E2E2E2E2E2E2E2E2E2E2E2E2E2E2E2E2E2E2E2E2BEE2E2E2E2E2E2F5F5F5F5F5F5F5F5F5F5F5F5F5F5F5E2E2F5F5F5E2F5F5E2F5E2F5E2E2E2E2E2E2E2E2F5E2E2E2F5E2E2E2F5E2E2E2F5E2E2BEE2E228E2E2E2E2E2E2E2E2E2E2E2E2E2E2E2E2E2E2E2E2E2
310
E2E2E2E2E2E2E2E2E2E2E2E2E2E2E2E2E2E2E2E2E2E2E2E2E2E2E2E2E2E2E2E2E2E2E2E2E2E2E2E2E2E2E2E2E2E2E2E2E2E2E2E2E2E2E2E2E2E2E2E2E2E2E2E2E2E2E2E2E2E2E2E2E2E2E2E2E2E2E2E2E2E2E2E2E2E2E2E2E2E2E2E2E2E2E2E2E2E2E2E2E2E2E2E2E2E2E2E2E2E2E2E2E2E2E2E2E2E2E2E2E2E2E2E2E2E2E2
310
E2E2E2E2E2E2E2E2E2E2E2E2E2E2E2E2E2E2E2E2E2E2E2E2E2E2E2E2E2E2E2E2E2E2E2E2E2E2E2E2E2E2E2E2E2E2E2BEE2E2E2E2E2E2F5F5F5F5F5F5F5F5F5F5F5F5F5F5E2E2E2F5E2F5E2F5F5E2F5E2F5E2E2E2E2E2E2F5F5F5E2E2E2F5E2E2E2F5E2E2E2F5E2E2BEE2E228E2E2E2E2E2E2E2E2E2E2E2E2E2E2E2E2E2E2E2
310
E2E2E2E2E2E2E2E2E2E2E2E2E2E2E2E2E2E2E2E2E2E2E2E2E2E2E2E2E2E2E2E2E2E2E2E2E2E2E2E2E2E2E2E2E2E2E2E2E2E2E2E2E2E2E2E2E2E2E2E2E2E2E2E2E2E2E2E2E2E2E2E2E2E2E2E2E2E2E2E2E2E2E2E2E2E2E2E2E2E2E2E2E2E2E2E2E2E2E2E2E2E2E2E2E2E2E2E2E2E2E2E2E2E2E2E2E2E2E2E2E2E2E2E2E2E2E2
310
E2E2E2E2E2E2E2E2E2E2E2E2E2E2E2E2E2E2E2E2E2E2E2E2E2E2E2E2E2E2E2E2E2E2E2E2E2E2E2E2E2E2E2E2E2E2E2E2E2BEE2E2E2E2E2E2F5F5F5F5F5F5F5F5F5F5F5F5F5F5E2E2E2F5E2F5E2F5F5F5F5E2F5E2E2E2E2E2E2F5F5F5E2E2E2F5E2E2E2F5E2E2E2F5E2E2BEE2E228E2E2E2E2E2E2E2E2E2E2E2E2E2E2E2E2E2
310
E2E2E2E2E2E2E2E2E2E2E2E2E2E2E2E2E2E2E2E2E2E2E2E2E2E2E2E2E2E2E2E2E2E2E2E2E2E2E2E2E2E2E2E2E2E2E2E2E2E2E2E2E2E2E2E2E2E2E2E2E2E2E2E2E2E2E2E2E2E2E2E2E2E2E2E2E2E2E2E2E2E2E2E2E2E2E2E2E2E2E2E2E2E2E2E2E2E2E2E2E2E2E2E2E2E2E2E2E2E2E2E2E2E2E2E2E2E2E2E2E2E2E2E2E2E2E2
310
E2E2E2E2E2E2E2E2E2E2E2E2E2E2E2E2E2E2E2E2E2E2E2E2E2E2E2E2E2E2E2E2E2E2E2E2E2E2E2E2E2E2E2E2E2E2E2E2E2E2E2BEE2E2E2E2E2E2F5F5F5F5F5F5F5E2E2E2E2E2E2E2E2E2F5E2E2F5E2F5F5E2F5E2E2F5E2E2E2E2E2F5F5F5E2E2E2F5E2E2E2F5E2E2E2F5E2E2BEE2E228E2E2E2E2E2E2E2E2E2E2E2E2E2E2E2
310
E2E2E2E2E2E2E2E2E2E2E2E2E2E2E2E2E2E2E2E2E2E2E2E2E2E2E2E2E2E2E2E2E2E2E2E2E2E2E2E2E2E2E2E2E2E2E2E2E2E2E2E2E2E2E2E2E2E2E2E2E2E2E2E2E2E2E2E2E2E2E2E2E2E2E2E2E2E2E2E2E2E2E2E2E2E2E2E2E2E2E2E2E2E2E2E2E2E2E2E2E2E2E2E2E2E2E2E2E2E2E2E2E2E2E2E2E2E2E2E2E2E2E2E2E2E2E2
310
E2E2E2E2E2E2E2E2E2E2E2E2E2E2E2E2E2E2E2E2E2E2E2E2E2E2E2E2E2E2E2E2E2E2E2E2E2E2E2E2E2E2E2E2E2E2E2E2E2E2E2E2E2BEE2E2E2E2E2E2F5F5F5F5F5F5F5F5F5F5F5F5F5F5E2E2F5E2E2F5E2F5F5E2F5E2E2F5E2E2E2E2E2E2E2F5E2E2F5F5E2E2E2F5E2E2E2F5E2E2BEE2E228E2E2E2E2E2E2E2E2E2E2E2E2E2
310
E2E2E2E2E2E2E2E2E2E2E2E2E2E2E2E2E2E2E2E2E2E2E2E2E2E2E2E2E2E2E2E2E2E2E2E2E2E2E2E2E2E2E2E2E2E2E2E2E2E2E2E2E2E2E2E2E2E2E2E2E2E2E2E2E2E2E2E2E2E2E2E2E2E2E2E2E2E2E2E2E2E2E2E2E2E2E2E2E2E2E2E2E2E2E2E2E2E2E2E2E2E2E2E2E2E2E2E2E2E2E2E2E2E2E2E2E2E2E2E2E2E2E2E2E2E2E2
310
E2E2E2E2E2E2E2E2E2E2E2E2E2E2E2E2E2E2E2E2E2E2E2E2E2E2E2E2E2E2E2E2E2E2E2E2E2E2E2E2E2E2E2E2E2E2E2E2E2E2E2E2E2E2E2BEE2E2E2E2E2E2F5F5F5F5F5F5F5E2E2E2E2E2E2E2E2E2F5E2E2F5F5F5F5E2F5E2E2F5E2E2E2E2E2E2E2F5E2E2F5F5E2E2E2F5E2E2E2F5E2E2BEE2E228E2E2E2E2E2E2E2E2E2E2E2
310
E2E2E2E2E2E2E2E2E2E2E2E2E2E2E2E2E2E2E2E2E2E2E2E2E2E2E2E2E2E2E2E2E2E2E2E2E2E2E2E2E2E2E2E2E2E2E2E2E2E2E2E2E2E2E2E2E2E2E2E2E2E2E2E2E2E2E2E2E2E2E2E2E2E2E2E2E2E2E2E2E2E2E2E2E2E2E2E2E2E2E2E2E2E2E2E2E2E2E2E2E2E2E2E2E2E2E2E2E2E2E2E2E2E2E2E2E2E2E2E2E2E2E2E2E2E2E2
310
E2E2E2E2E2E2E2E2E2E2E2E2E2E2E2E2E2E2E2E2E2E2E2E2E2E2E2E2E2E2E2E2E2E2E2E2E2E2E2E2E2E2E2E2E2E2E2E2E2E2E2E2E2E2E2E2E2BEE2E2E2E2E2E2F5F5F5F5F5F5F5F5F5F5F5F5F5F5E2E2F5E2E2F5F5F5F5F5F5F5F5F5F5F5F5F5F5F5F5F5F5E2F5F5E2E2E2F5E2E2E2F5E2E2BEE2E228E2E2E2E2E2E2E2E2E2
310
E2E2E2E2E2E2E2E2E2E2E2E2E2E2E2E2E2E2E2E2E2E2E2E2E2E2E2E2E2E2E2E2E2E2E2E2E2E2E2E2E2E2E2E2E2E2E2E2E2E2E2E2E2E2E2E2E2E2E2E2E2E2E2E2E2E2E2E2E2E2E2E2E2E2E2E2E2E2E2E2E2E2E2E2E2E2E2E2E2E2E2E2E2E2E2E2E2E2E2E2E2E2E2E2E2E2E2E2E2E2E2E2E2E2E2E2E2E2E2E2E2E2E2E2E2E2E2
310
E2E2E2E2E2E2E2E2E2E2E2E2E2E2E2E2E2E2E2E2E2E2E2E2E2E2E2E2E2E2E2E2E2E2E2E2E2E2E2E2E2E2E2E2E2E2E2E2E2E2E2E2E2E2E2E2E2E2E2BEE2E2E2E2E2E2F5F5F5F5F5F5E2E2E2E2E2E2E2F5E2E2F5E2E2F5E2F5F5E2F5E2E2F5E2E2E2E2E2E2E2E2E2E2F5F5E2E2E2F5E2E2E2F5E2E2BEE2E228E2E2E2E2E2E2E2
310
E2E2E2E2E2E2E2E2E2E2E2E2E2E2E2E2E2E2E2E2E2E2E2E2E2E2E2E2E2E2E2E2E2E2E2E2E2E2E2E2E2E2E2E2E2E2E2E2E2E2E2E2E2E2E2E2E2E2E2E2E2E2E2E2E2E2E2E2E2E2E2E2E2E2E2E2E2E2E2E2E2E2E2E2E2E2E2E2E2E2E2E2E2E2E2E2E2E2E2E2E2E2E2E2E2E2E2E2E2E2E2E2E2E2E2E2E2E2E2E2E2E2E2E2E2E2E2
310
E2E2E2E2E2E2E2E2E2E2E2E2E2E2E2E2E2E2E2E2E2E2E2E2E2E2E2E2E2E2E2E2E2E2E2E2E2E2E2E2E2E2E2E2E2E2E2E2E2E2E2E2E2E2E2E2E2E2E2E2E2BEE2E2E2E2E2E2E2E2E2E2E2E2E2E2E2E2E2E2F5E2E2E2F5E2E2F5E2F5F5E2F5E2E2F5E2E2E2E2E2E2E2E2E2E2E2F5E2E2E2F5E2E2E2F5E2E2BEE2E228E2E2E2E2E2
310
E2E2E2E2E2E2E2E2E2E2E2E2E2E2E2E2E2E2E2E2E2E2E2E2E2E2E2E2E2E2E2E2E2E2E2E2E2E2E2E2E2E2E2E2E2E2E2E2E2E2E2E2E2E2E2E2E2E2E2E2E2E2E2E2E2E2E2E2E2E2E2E2E2E2E2E2E2E2E2E2E2E2E2E2E2E2E2E2E2E2E2E2E2E2E2E2E2E2E2E2E2E2E2E2E2E2E2E2E2E2E2E2E2E2E2E2E2E2E2E2E2E2E2E2E2E2E2
310
E2E2E2E2E2E2E2E2E2E2E2E2E2E2E2E2E2E2E2E2E2E2E2E2E2E2E2E2E2E2E2E2E2E2E2E2E2E2E2E2E2E2E2E2E2E2E2E2E2E2E2E2E2E2E2E2E2E2E2E2E2E2E2BEE2E2E2E2E2E2E2E2E2E2E2E2E2E2E2E2E2E2F5E2E2F5E2E2E2F5E2F5F5E2F5E2E2E2F5E2E2E2E2E2E2E2E2E2E2F5E2E2E2F5E2E2E2F5E2E2BEE2E228E2E2E2
310
E2E2E2E2E2E2E2E2E2E2E2E2E2E2E2E2E2E2E2E2E2E2E2E2E2E2E2E2E2E2E2E2E2E2E2E2E2E2E2E2E2E2E2E2E2E2E2E2E2E2E2E2E2E2E2E2E2E2E2E2E2E2E2E2E2E2E2E2E2E2E2E2E2E2E2E2E2E2E2E2E2E2E2E2E2E2E2E2E2E2E2E2E2E2E2E2E2E2E2E2E2E2E2E2E2E2E2E2E2E2E2E2E2E2E2E2E2E2E2E2E2E2E2E2E2E2E2
310
E2E2E2E2E2E2E2E2E2E2E2E2E2E2E2E2E2E2E2E2E2E2E2E2E2E2E2E2E2E2E2E2E2E2E2E2E2E2E2E2E2E2E2E2E2E2E2E2E2E2E2E2E2E2E2E2E2E2E2E2E2E2E2E2E2BEE2E2E2E2E2E2E2E2E2E2E2E2E2E2E2E2E2F5E2E2E2F5E2E2E2F5E2F5F5E2F5E2E2E2F5E2E2E2E2E2E2E2E2E2E2F5E2E2E2F5E2E2E2F5E2E2BEE2E228E2
310
E2E2E2E2E2E2E2E2E2E2E2E2E2E2E2E2E2E2E2E2E2E2E2E2E2E2E2E2E2E2E2E2E2E2E2E2E2E2E2E2E2E2E2E2E2E2E2E2E2E2E2E2E2E2E2E2E2E2E2E2E2E2E2E2E2E2E2E2E2E2E2E2E2E2E2E2E2E2E2E2E2E2E2E2E2E2E2E2E2E2E2E2E2E2E2E2E2E2E2E2E2E2E2E2E2E2E2E2E2E2E2E2E2E2E2E2E2E2E2E2E2E2E2E2E2E2E2
310
E2E2E2E2E2E2E2E2E2E2E2E2E2E2E2E2E2E2E2E2E2E2E2E2E2E2E2E2E2E2E2E2E2E2E2E2E2E2E2E2E2E2E2E2E2E2E2E2E2E2E2E2E2E2E2E2E2E2E2E2E2E2E2E2E2E2E2BEE2E2E2E2E2E2E2E2E2E2E2E2E2E2E2E2F5F5E2E2E2F5F5F5E2F5E2F5F5E2F5E2F5F5F5E2E2E2E2E2E2E2E2E2E2F5E2E2E2F5E2E2E2F5E2E2BEE2E2
310
28E2E2E2E2E2E2E2E2E2E2E2E2E2E2E2E2E2E2E2E2E2E2E2E2E2E2E2E2E2E2E2E2E2E2E2E2E2E2E2E2E2E2E2E2E2E2E2E2E2E2E2E2E2E2E2E2E2E2E2E2E2E2E2E2E2E2E2E2E2E2E2E2E2E2E2E2E2E2E2E2E2E2E2E2E2E2E2E2E2E2E2E2E2E2E2E2E2E2E2E2E2E2E2E2E2E2E2E2E2E2E2E2E2E2E2E2E2E2E2E2E2E2E2E2E2E2
310
E2E2E2E2E2E2E2E2E2E2E2E2E2E2E2E2E2E2E2E2E2E2E2E2E2E2E2E2E2E2E2E2E2E2E2E2E2E2E2E2E2E2E2E2E2E2E2E2E2E2E2E2E2E2E2E2E2E2E2E2E2E2E2E2E2E2E2E2E2BEE2E2E2E2E2E2E2E2E2E2E2E2E2E2E2E2F5E2E2E2E2F5F5F5F5F5F5F5F5F5F5F5F5F5F5E2E2E2E2E2E2E2E2E2E2F5E2E2E2F5E2E2E2F5E2E2BE
310
E2E228E2E2E2E2E2E2E2E2E2E2E2E2E2E2E2E2E2E2E2E2E2E2E2E2E2E2E2E2E2E2E2E2E2E2E2E2E2E2E2E2E2E2E2E2E2E2E2E2E2E2E2E2E2E2E2E2E2E2E2E2E2E2E2E2E2E2E2E2E2E2E2E2E2E2E2E2E2E2E2E2E2E2E2E2E2E2E2E2E2E2E2E2E2E2E2E2E2E2E2E2E2E2E2E2E2E2E2E2E2E2E2E2E2E2E2E2E2E2E2E2E2E2E2E2
310
E2E2E2E2E2E2E2E2E2E2E2E2E2E2E2E2E2E2E2E2E2E2E2E2E2E2E2E2E2E2E2E2E2E2E2E2E2E2E2E2E2E2E2E2E2E2E2E2E2E2E2E2E2E2E2E2E2E2E2E2E2E2E2E2E2E2E2E2E2E2E2BEE2E2E2E2E2E2E2E2E2E2E2E2E2E2E2E2F5F5F5F5F5F5F5F5F5F5F5F5F5F5F5F5F5F5F5F5F5F5F5F5F5F5F5F5F5F5F5E2E2F5E2E2E2F5E2
310
E2BEE2E228E2E2E2E2E2E2E2E2E2E2E2E2E2E2E2E2E2E2E2E2E2E2E2E2E2E2E2E2E2E2E2E2E2E2E2E2E2E2E2E2E2E2E2E2E2E2E2E2E2E2E2E2E2E2E2E2E2E2E2E2E2E2E2E2E2E2E2E2E2E2E2E2E2E2E2E2E2E2E2E2E2E2E2E2E2E2E2E2E2E2E2E2E2E2E2E2E2E2E2E2E2E2E2E2E2E2E2E2E2E2E2E2E2E2E2E2E2E2E2E2E2E2
310
E2E2E2E2E2E2E2E2E2E2E2E2E2E2E2E2E2E2E2E2E2E2E2E2E2E2E2E2E2E2E2E2E2E2E2E2E2E2E2E2E2E2E2E2E2E2E2E2E2E2E2E2E2E2E2E2E2E2E2E2E2E2E2E2E2E2E2E2E2E2E2E2E2BEE2E2E2E2E2E2E2E2E2E2E2E2E2E2E2E2F5F5E2E2E2E2E2E2E2E2E2E2F5E2E2E2E2E2E2E2E2E2F5E2E2E2E2E2E2E2E2E2E2F5E2E2E2
310
F5E2E2BEE2E228E2E2E2E2E2E2E2E2E2E2E2E2E2E2E2E2E2E2E2E2E2E2E2E2E2E2E2E2E2E2E2E2E2E2E2E2E2E2E2E2E2E2E2E2E2E2E2E2E2E2E2E2E2E2E2E2E2E2E2E2E2E2E2E2E2E2E2E2E2E2E2E2E2E2E2E2E2E2E2E2E2E2E2E2E2E2E2E2E2E2E2E2E2E2E2E2E2E2E2E2E2E2E2E2E2E2E2E2E2E2E2E2E2E2E2E2E2E2E2E2
310
E2E2E2E2E2E2E2E2E2E2E2E2E2E2E2E2E2E2E2E2E2E2E2E2E2E2E2E2E2E2E2E2E2E2E2E2E2E2E2E2E2E2E2E2E2E2E2E2E2E2E2E2E2E2E2E2E2E2E2E2E2E2E2E2E2E2E2E2E2E2E2E2E2E2E2BEE2E2E2E2E2E2E2E2E2E2E2E2E2E2E2E2F5E2E2E2E2E2E2E2E2E2E2E2F5E2E2E2E2E2E2E2E2E2E2F5E2E2E2E2E2E2E2E2E2F5E2
310
E2E2F5E2E2BEE2E228E2E2E2E2E2E2E2E2E2E2E2E2E2E2E2E2E2E2E2E2E2E2E2E2E2E2E2E2E2E2E2E2E2E2E2E2E2E2E2E2E2E2E2E2E2E2E2E2E2E2E2E2E2E2E2E2E2E2E2E2E2E2E2E2E2E2E2E2E2E2E2E2E2E2E2E2E2E2E2E2E2E2E2E2E2E2E2E2E2E2E2E2E2E2E2E2E2E2E2E2E2E2E2E2E2E2E2E2E2E2E2E2E2E2E2E2E2E2
310
E2E2E2E2E2E2E2E2E2E2E2E2E2E2E2E2E2E2E2E2E2E2E2E2E2E2E2E2E2E2E2E2E2E2E2E2E2E2E2E2E2E2E2E2E2E2E2E2E2E2E2E2E2E2E2E2E2E2E2E2E2E2E2E2E2E2E2E2E2E2E2E2E2E2E2E2E2BEE2E2E2E2E2E2E2E2E2E2E2E2E2E2E2F5E2E2E2E2E2E2E2E2E2E2E2E2F5E2E2E2E2E2E2E2E2E2E2E2F5E2E2E2E2E2E2E2E2
310
F5E2E2E2F5E2E2BEE2E228E2E2E2E2E2E2E2E2E2E2E2E2E2E2E2E2E2E2E2E2E2E2E2E2E2E2E2E2E2E2E2E2E2E2E2E2E2E2E2E2E2E2E2E2E2E2E2E2E2E2E2E2E2E2E2E2E2E2E2E2E2E2E2E2E2E2E2E2E2E2E2E2E2E2E2E2E2E2E2E2E2E2E2E2E2E2E2E2E2E2E2E2E2E2E2E2E2E2E2E2E2E2E2E2E2E2E2E2E2E2E2E2E2E2E2E2
310
E2E2E2E2E2E2E2E2E2E2E2E2E2E2E2E2E2E2E2E2E2E2E2E2E2E2E2E2E2E2E2E2E2E2E2E2E2E2E2E2E2E2E2E2E2E2E2E2E2E2E2E2E2E2E2E2E2E2E2E2E2E2E2E2E2E2E2E2E2E2E2E2E2E2E2E2E2E2E2BEE2E2E2E2E2E2E2E2E2E2E2E2E2E2E2F5E2E2E2E2E2E2E2E2E2E2E2E2F5E2E2E2E2E2E2E2E2E2E2E2F5E2E2E2E2E2E2
310
E2E2F5E2E2E2F5E2E2BEE2E228E2E2E2E2E2E2E2E2E2E2E2E2E2E2E2E2E2E2E2E2E2E2E2E2E2E2E2E2E2E2E2E2E2E2E2E2E2E2E2E2E2E2E2E2E2E2E2E2E2E2E2E2E2E2E2E2E2E2E2E2E2E2E2E2E2E2E2E2E2E2E2E2E2E2E2E2E2E2E2E2E2E2E2E2E2E2E2E2E2E2E2E2E2E2E2E2E2E2E2E2E2E2E2E2E2E2E2E2E2E2E2E2E2E2
310
E2E2E2E2E2E2E2E2E2E2E2E2E2E2E2E2E2E2E2E2E2E2E2E2E2E2E2E2E2E2E2E2E2E2E2E2E2E2E2E2E2E2E2E2E2E2E2E2E2E2E2E2E2E2E2E2E2E2E2E2E2E2E2E2E2E2E2E2E2E2E2E2E2E2E2E2E2E2E2E2E2BEE2E2E2E2E2E2E2E2E2E2E2E2E2E2E2F5E2E2E2E2E2E2E2E2E2E2E2E2F5E2E2E2E2E2E2E2E2E2E2E2F5E2E2E2E2
310
E2E2E2E2F5E2E2E2F5E2E2BEE2E228E2E2E2E2E2E2E2E2E2E2E2E2E2E2E2E2E2E2E2E2E2E2E2E2E2E2E2E2E2E2E2E2E2E2E2E2E2E2E2E2E2E2E2E2E2E2E2E2E2E2E2E2E2E2E2E2E2E2E2E2E2E2E2E2E2E2E2E2E2E2E2E2E2E2E2E2E2E2E2E2E2E2E2E2E2E2E2E2E2E2E2E2E2E2E2E2E2E2E2E2E2E2E2E2E2E2E2E2E2E2E2E2
310
E2E2E2E2E2E2E2E2E2E2E2E2E2E2E2E2E2E2E2E2E2E2E2E2E2E2E2E2E2E2E2E2E2E2E2E2E2E2E2E2E2E2E2E2E2E2E2E2E2E2E2E2E2E2E2E2E2E2E2E2E2E2E2E2E2E2E2E2E2E2E2E2E2E2E2E2E2E2E2E2E2E2E2BEE2E2E2E2E2E2E2E2E2E2E2E2E2E2E2F5E2E2E2E2E2E2E2E2E2E2E2E2F5E2E2E2E2E2E2E2E2E2E2E2F5E2E2
310
E2E2E2E2E2F5F5E2E2E2F5E2E2BEE2E228E2E2E2E2E2E2E2E2E2E2E2E2E2E2E2E2E2E2E2E2E2E2E2E2E2E2E2E2E2E2E2E2E2E2E2E2E2E2E2E2E2E2E2E2E2E2E2E2E2E2E2E2E2E2E2E2E2E2E2E2E2E2E2E2E2E2E2E2E2E2E2E2E2E2E2E2E2E2E2E2E2E2E2E2E2E2E2E2E2E2E2E2E2E2E2E2E2E2E2E2E2E2E2E2E2E2E2E2E2E2
310
E2E2E2E2E2E2E2E2E2E2E2E2E2E2E2E2E2E2E2E2E2E2E2E2E2E2E2E2E2E2E2E2E2E2E2E2E2E2E2E2E2E2E2E2E2E2E2E2E2E2E2E2E2E2E2E2E2E2E2E2E2E2E2E2E2E2E2E2E2E2E2E2E2E2E2E2E2E2E2E2E2E2E2E2E2BEE2E2E2E2E2E2E2E2E2E2E2E2E2E2E2F5E2E2E2E2E2E2E2E2E2E2E2E2F5E2E2E2E2E2E2E2E2E2E2E2F5
310
E2E2E2E2E2E2E2F5F5E2E2F5F5E2E2BEE2E228E2E2E2E2E2E2E2E2E2E2E2E2E2E2E2E2E2E2E2E2E2E2E2E2E2E2E2E2E2E2E2E2E2E2E2E2E2E2E2E2E2E2E2E2E2E2E2E2E2E2E2E2E2E2E2E2E2E2E2E2E2E2E2E2E2E2E2E2E2E2E2E2E2E2E2E2E2E2E2E2E2E2E2E2E2E2E2E2E2E2E2E2E2E2E2E2E2E2E2E2E2E2E2E2E2E2E2E2
310
E2E2E2E2E2E2E2E2E2E2E2E2E2E2E2E2E2E2E2E2E2E2E2E2E2E2E2E2E2E2E2E2E2E2E2E2E2E2E2E2E2E2E2E2E2E2E2E2E2E2E2E2E2E2E2E2E2E2E2E2E2E2E2E2E2E2E2E2E2E2E2E2E2E2E2E2E2E2E2E2E2E2E2E2E2E2E2BEE2E2E2E2E2E2E2E2E2E2E2E2E2E2E2F5E2E2E2E2E2E2E2E2E2E2E2E2F5E2E2E2E2E2E2E2E2E2E2
310
E2F5E2E2E2E2E2E2E2F5F5E2E2F5F5E2E2BEE2E228E2E2E2E2E2E2E2E2E2E2E2E2E2E2E2E2E2E2E2E2E2E2E2E2E2E2E2E2E2E2E2E2E2E2E2E2E2E2E2E2E2E2E2E2E2E2E2E2E2E2E2E2E2E2E2E2E2E2E2E2E2E2E2E2E2E2E2E2E2E2E2E2E2E2E2E2E2E2E2E2E2E2E2E2E2E2E2E2E2E2E2E2E2E2E2E2E2E2E2E2E2E2E2E2E2E2
310
E2E2E2E2E2E2E2E2E2E2E2E2E2E2E2E2E2E2E2E2E2E2E2E2E2E2E2E2E2E2E2E2E2E2E2E2E2E2E2E2E2E2E2E2E2E2E2E2E2E2E2E2E2E2E2E2E2E2E2E2E2E2E2E2E2E2E2E2E2E2E2E2E2E2E2E2E2E2E2E2E2E2E2E2E2E2E2E2E2BEE2E2E2E2E2E2E2E2E2E2E2E2E2E2E2F5F5F5F5F5F5F5F5F5F5F5F5F5F5F5F5F5F5F5F5F5F5
310
F5F5F5F5E2E2E2E2E2E2E2F5F5E2E2F5F5E2E2BEE2E228E2E2E2E2E2E2E2E2E2E2E2E2E2E2E2E2E2E2E2E2E2E2E2E2E2E2E2E2E2E2E2E2E2E2E2E2E2E2E2E2E2E2E2E2E2E2E2E2E2E2E2E2E2E2E2E2E2E2E2E2E2E2E2E2E2E2E2E2E2E2E2E2E2E2E2E2E2E2E2E2E2E2E2E2E2E2E2E2E2E2E2E2E2E2E2E2E2E2E2E2E2E2E2E2
310
E2E2E2E2E2E2E2E2E2E2E2E2E2E2E2E2E2E2E2E2E2E2E2E2E2E2E2E2E2E2E2E2E2E2E2E2E2E2E2E2E2E2E2E2E2E2E2E2E2E2E2E2E2E2E2E2E2E2E2E2E2E2E2E2E2E2E2E2E2E2E2E2E2E2E2E2E2E2E2E2E2E2E2E2E2E2E2E2E2E2E2BEE2E2E2E2E2E2E2E2E2E2E2E2E2E2E2F5F5E2E2E2E2E2E2E2E2E2E2E2F5E2F5F5F5F5F5
310
E2E2E2E2E2F5E2E2E2E2E2E2E2E2F5E2E2F5F5E2E2BEE2E228E2E2E2E2E2E2E2E2E2E2E2E2E2E2E2E2E2E2E2E2E2E2E2E2E2E2E2E2E2E2E2E2E2E2E2E2E2E2E2E2E2E2E2E2E2E2E2E2E2E2E2E2E2E2E2E2E2E2E2E2E2E2E2E2E2E2E2E2E2E2E2E2E2E2E2E2E2E2E2E2E2E2E2E2E2E2E2E2E2E2E2E2E2E2E2E2E2E2E2E2E2E2
310
E2E2E2E2E2E2E2E2E2E2E2E2E2E2E2E2E2E2E2E2E2E2E2E2E2E2E2E2E2E2E2E2E2E2E2E2E2E2E2E2E2E2E2E2E2E2E2E2E2E2E2E2E2E2E2E2E2E2E2E2E2E2E2E2E2E2E2E2E2E2E2E2E2E2E2E2E2E2E2E2E2E2E2E2E2E2E2E2E2E2E2E2E2BEE2E2E2E2E2E2E2E2E2E2E2E2E2E2E2F5E2E2E2E2E2E2E2E2E2E2E2E2F5E2F5F5F5
310
F5F5E2E2E2E2E2F5E2E2E2E2E2E2E2E2F5E2E2F5F5E2E2BEE2E228E2E2E2E2E2E2E2E2E2E2E2E2E2E2E2E2E2E2E2E2E2E2E2E2E2E2E2E2E2E2E2E2E2E2E2E2E2E2E2E2E2E2E2E2E2E2E2E2E2E2E2E2E2E2E2E2E2E2E2E2E2E2E2E2E2E2E2E2E2E2E2E2E2E2E2E2E2E2E2E2E2E2E2E2E2E2E2E2E2E2E2E2E2E2E2E2E2E2E2E2
310
E2E2E2E2E2E2E2E2E2E2E2E2E2E2E2E2E2E2E2E2E2E2E2E2E2E2E2E2E2E2E2E2E2E2E2E2E2E2E2E2E2E2E2E2E2E2E2E2E2E2E2E2E2E2E2E2E2E2E2E2E2E2E2E2E2E2E2E2E2E2E2E2E2E2E2E2E2E2E2E2E2E2E2E2E2E2E2E2E2E2E2E2E2E2E2BEE2E2E2E2E2E2E2E2E2E2E2E2E2E2E2F5E2E2E2E2E2E2E2E2E2E2E2E2F5E2E2
310
E2E2E2E2E2E2E2E2E2F5E2E2E2E2E2E2E2E2F5E2E2F5F5E2E2BEE2E228E2E2E2E2E2E2E2E2E2E2E2E2E2E2E2E2E2E2E2E2E2E2E2E2E2E2E2E2E2E2E2E2E2E2E2E2E2E2E2E2E2E2E2E2E2E2E2E2E2E2E2E2E2E2E2E2E2E2E2E2E2E2E2E2E2E2E2E2E2E2E2E2E2E2E2E2E2E2E2E2E2E2E2E2E2E2E2E2E2E2E2E2E2E2E2E2E2E2
310
E2E2E2E2E2E2E2E2E2E2E2E2E2E2E2E2E2E2E2E2E2E2E2E2E2E2E2E2E2E2E2E2E2E2E2E2E2E2E2E2E2E2E2E2E2E2E2E2E2E2E2E2E2E2E2E2E2E2E2E2E2E2E2E2E2E2E2E2E2E2E2E2E2E2E2E2E2E2E2E2E2E2E2E2E2E2E2E2E2E2E2E2E2E2E2E2E2BEE2E2E2E2E2E2E2E2E2E2E2E2E2E2F5F5E2E2E2E2E2E2E2E2E2E2E2E2F5
310
E2E2E2E2E2E2E2E2E2E2E2F5E2E2E2E2E2E2E2E2F5E2E2E2F5E2E2BEE2E228E2E2E2E2E2E2E2E2E2E2E2E2E2E2E2E2E2E2E2E2E2E2E2E2E2E2E2E2E2E2E2E2E2E2E2E2E2E2E2E2E2E2E2E2E2E2E2E2E2E2E2E2E2E2E2E2E2E2E2E2E2E2E2E2E2E2E2E2E2E2E2E2E2E2E2E2E2E2E2E2E2E2E2E2E2E2E2E2E2E2E2E2E2E2E2E2
310
E2E2E2E2E2E2E2E2E2E2E2E2E2E2E2E2E2E2E2E2E2E2E2E2E2E2E2E2E2E2E2E2E2E2E2E2E2E2E2E2E2E2E2E2E2E2E2E2E2E2E2E2E2E2E2E2E2E2E2E2E2E2E2E2E2E2E2E2E2E2E2E2E2E2E2E2E2E2E2E2E2E2E2E2E2E2E2E2E2E2E2E2E2E2E2E2E2E2E2BEE2E2E2E2E2E2E2E2E2E2E2E2E2F5F5F5F5F5F5F5F5F5F5F5F5F5F5
310
F5F5F5F5F5F5F5F5F5F5F5F5F5F5F5F5E2E2E2E2E2E2F5E2E2E2F5E2E2BEE2E228E2E2E2E2E2E2E2E2E2E2E2E2E2E2E2E2E2E2E2E2E2E2E2E2E2E2E2E2E2E2E2E2E2E2E2E2E2E2E2E2E2E2E2E2E2E2E2E2E2E2E2E2E2E2E2E2E2E2E2E2E2E2E2E2E2E2E2E2E2E2E2E2E2E2E2E2E2E2E2E2E2E2E2E2E2E2E2E2E2E2E2E2E2E2
310
E2E2E2E2E2E2E2E2E2E2E2E2E2E2E2E2E2E2E2E2E2E2E2E2E2E2E2E2E2E2E2E2E2E2E2E2E2E2E2E2E2E2E2E2E2E2E2E2E2E2E2E2E2E2E2E2E2E2E2E2E2E2E2E2E2E2E2E2E2E2E2E2E2E2E2E2E2E2E2E2E2E2E2E2E2E2E2E2E2E2E2E2E2E2E2E2E2E2E2E2E2BEE2E2E2E2E2E2E2E2E2E2E2E2E2F5F5F5F5F5F5F5F5F5F5F5F5
310
F5F5F5F5F5F5F5F5F5F5F5F5F5F5F5F5F5F5E2E2E2E2E2E2F5E2E2E2F5E2E2BEE2E228E2E2E2E2E2E2E2E2E2E2E2E2E2E2E2E2E2E2E2E2E2E2E2E2E2E2E2E2E2E2E2E2E2E2E2E2E2E2E2E2E2E2E2E2E2E2E2E2E2E2E2E2E2E2E2E2E2E2E2E2E2E2E2E2E2E2E2E2E2E2E2E2E2E2E2E2E2E2E2E2E2E2E2E2E2E2E2E2E2E2E2E2
310
E2E2E2E2E2E2E2E2E2E2E2E2E2E2E2E2E2E2E2E2E2E2E2E2E2E2E2E2E2E2E2E2E2E2E2E2E2E2E2E2E2E2E2E2E2E2E2E2E2E2E2E2E2E2E2E2E2E2E2E2E2E2E2E2E2E2E2E2E2E2E2E2E2E2E2E2E2E2E2E2E2E2E2E2E2E2E2E2E2E2E2E2E2E2E2E2E2E2E2E2E2E2E2BEE2E2E2E2E2E2E2E2E2E2E2E2E2F5E2F5E2E2E2E2E2E2E2
310
E2E2E2E2E2F5E2E2E2E2E2E2E2E2E2E2E2F5E2F5E2E2E2E2E2E2F5E2E2E2F5E2E2BEE2E228E2E2E2E2E2E2E2E2E2E2E2E2E2E2E2E2E2E2E2E2E2E2E2E2E2E2E2E2E2E2E2E2E2E2E2E2E2E2E2E2E2E2E2E2E2E2E2E2E2E2E2E2E2E2E2E2E2E2E2E2E2E2E2E2E2E2E2E2E2E2E2E2E2E2E2E2E2E2E2E2E2E2E2E2E2E2E2E2E2E2
310
E2E2E2E2E2E2E2E2E2E2E2E2E2E2E2E2E2E2E2E2E2E2E2E2E2E2E2E2E2E2E2E2E2E2E2E2E2E2E2E2E2E2E2E2E2E2E2E2E2E2E2E2E2E2E2E2E2E2E2E2E2E2E2E2E2E2E2E2E2E2E2E2E2E2E2E2E2E2E2E2E2E2E2E2E2E2E2E2E2E2E2E2E2E2E2E2E2E2E2E2E2E2E2E2E2BEE2E2E2E2E2E2E2E2E2E2E2E2E2F5E2F5E2E2E2E2E2
310
E2E2E2E2E2E2E2F5E2E2E2E2E2E2E2E2E2E2E2F5E2F5E2E2E2E2E2E2F5E2E2E2F5E2E2BEE2E228E2E2E2E2E2E2E2E2E2E2E2E2E2E2E2E2E2E2E2E2E2E2E2E2E2E2E2E2E2E2E2E2E2E2E2E2E2E2E2E2E2E2E2E2E2E2E2E2E2E2E2E2E2E2E2E2E2E2E2E2E2E2E2E2E2E2E2E2E2E2E2E2E2E2E2E2E2E2E2E2E2E2E2E2E2E2E2E2
310
E2E2E2E2E2E2E2E2E2E2E2E2E2E2E2E2E2E2E2E2E2E2E2E2E2E2E2E2E2E2E2E2E2E2E2E2E2E2E2E2E2E2E2E2E2E2E2E2E2E2E2E2E2E2E2E2E2E2E2E2E2E2E2E2E2E2E2E2E2E2E2E2E2E2E2E2E2E2E2E2E2E2E2E2E2E2E2E2E2E2E2E2E2E2E2E2E2E2E2E2E2E2E2E2E2E2E2BEE2E2E2E2E2E2E2E2E2E2E2E2E2F5E2F5E2E2E2
310
E2E2E2E2E2E2E2E2E2F5E2E2E2E2E2E2E2E2E2E2E2F5E2F5E2E2E2E2E2E2F5E2E2E2F5E2E2BEE2E228E2E2E2E2E2E2E2E2E2E2E2E2E2E2E2E2E2E2E2E2E2E2E2E2E2E2E2E2E2E2E2E2E2E2E2E2E2E2E2E2E2E2E2E2E2E2E2E2E2E2E2E2E2E2E2E2E2E2E2E2E2E2E2E2E2E2E2E2E2E2E2E2E2E2E2E2E2E2E2E2E2E2E2E2E2E2
310
E2E2E2E2E2E2E2E2E2E2E2E2E2E2E2E2E2E2E2E2E2E2E2E2E2E2E2E2E2E2E2E2E2E2E2E2E2E2E2E2E2E2E2E2E2E2E2E2E2E2E2E2E2E2E2E2E2E2E2E2E2E2E2E2E2E2E2E2E2E2E2E2E2E2E2E2E2E2E2E2E2E2E2E2E2E2E2E2E2E2E2E2E2E2E2E2E2E2E2E2E2E2E2E2E2E2E2E2E2BEE2E2E2E2E2E2E2E2E2E2E2E2E2F5E2F5E2
310
E2E2E2E2E2E2E2E2E2E2E2F5E2E2E2E2E2E2E2E2E2E2E2F5E2F5E2E2E2E2E2E2F5E2E2E2F5E2E2BEE2E228E2E2E2E2E2E2E2E2E2E2E2E2E2E2E2E2E2E2E2E2E2E2E2E2E2E2E2E2E2E2E2E2E2E2E2E2E2E2E2E2E2E2E2E2E2E2E2E2E2E2E2E2E2E2E2E2E2E2E2E2E2E2E2E2E2E2E2E2E2E2E2E2E2E2E2E2E2E2E2E2E2E2E2E2
310
E2E2E2E2E2E2E2E2E2E2E2E2E2E2E2E2E2E2E2E2E2E2E2E2E2E2E2E2E2E2E2E2E2E2E2E2E2E2E2E2E2E2E2E2E2E2E2E2E2E2E2E2E2E2E2E2E2E2E2E2E2E2E2E2E2E2E2E2E2E2E2E2E2E2E2E2E2E2E2E2E2E2E2E2E2E2E2E2E2E2E2E2E2E2E2E2E2E2E2E2E2E2E2E2E2E2E2E2E2E2E2BEE2E2E2E2E2E2E2E2E2E2E2E2E2F5F5
310
F5F5F5F5F5F5F5F5F5F5F5F5F5F5F5F5F5F5F5F5F5F5F5F5F5F5F5F5E2E2E2E2E2E2F5E2E2E2F5E2E2BEE2E228E2E2E2E2E2E2E2E2E2E2E2E2E2E2E2E2E2E2E2E2E2E2E2E2E2E2E2E2E2E2E2E2E2E2E2E2E2E2E2E2E2E2E2E2E2E2E2E2E2E2E2E2E2E2E2E2E2E2E2E2E2E2E2E2E2E2E2E2E2E2E2E2E2E2E2E2E2E2E2E2E2E2
310
E2E2E2E2E2E2E2E2E2E2E2E2E2E2E2E2E2E2E2E2E2E2E2E2E2E2E2E2E2E2E2E2E2E2E2E2E2E2E2E2E2E2E2E2E2E2E2E2E2E2E2E2E2E2E2E2E2E2E2E2E2E2E2E2E2E2E2E2E2E2E2E2E2E2E2E2E2E2E2E2E2E2E2E2E2E2E2E2E2E2E2E2E2E2E2E2E2E2E2E2E2E2E2E2E2E2E2E2E2E2E2E2E2BEE2E2E2E2E2E2E2E2E2E2E2E2E2
310
E2E2F5E2E2E2E2E2E2E2E2E2E2E2E2F5E2F5F5F5F5F5E2E2E2E2E2F5E2E2E2E2E2E2E2E2F5E2E2E2F5E2E2BEE2E228E2E2E2E2E2E2E2E2E2E2E2E2E2E2E2E2E2E2E2E2E2E2E2E2E2E2E2E2E2E2E2E2E2E2E2E2E2E2E2E2E2E2E2E2E2E2E2E2E2E2E2E2E2E2E2E2E2E2E2E2E2E2E2E2E2E2E2E2E2E2E2E2E2E2E2E2E2E2E2E2
310
E2E2E2E2E2E2E2E2E2E2E2E2E2E2E2E2E2E2E2E2E2E2E2E2E2E2E2E2E2E2E2E2E2E2E2E2E2E2E2E2E2E2E2E2E2E2E2E2E2E2E2E2E2E2E2E2E2E2E2E2E2E2E2E2E2E2E2E2E2E2E2E2E2E2E2E2E2E2E2E2E2E2E2E2E2E2E2E2E2E2E2E2E2E2E2E2E2E2E2E2E2E2E2E2E2E2E2E2E2E2E2E2E2E2E2BEE2E2E2E2E2E2E2E2E2E2E2
310
E2E2E2E2F5E2E2E2E2E2E2E2E2E2E2E2E2F5E2F5F5F5F5E2E2E2E2E2E2F5E2E2E2E2E2E2E2E2F5E2E2E2F5E2E2BEE2E228E2E2E2E2E2E2E2E2E2E2E2E2E2E2E2E2E2E2E2E2E2E2E2E2E2E2E2E2E2E2E2E2E2E2E2E2E2E2E2E2E2E2E2E2E2E2E2E2E2E2E2E2E2E2E2E2E2E2E2E2E2E2E2E2E2E2E2E2E2E2E2E2E2E2E2E2E2E2
310
E2E2E2E2E2E2E2E2E2E2E2E2E2E2E2E2E2E2E2E2E2E2E2E2E2E2E2E2E2E2E2E2E2E2E2E2E2E2E2E2E2E2E2E2E2E2E2E2E2E2E2E2E2E2E2E2E2E2E2E2E2E2E2E2E2E2E2E2E2E2E2E2E2E2E2E2E2E2E2E2E2E2E2E2E2E2E2E2E2E2E2E2E2E2E2E2E2E2E2E2E2E2E2E2E2E2E2E2E2E2E2E2E2E2E2E2E2BEE2E2E2E2E2E2E2E2E2
310
E2E2E2E2E2E2F5E2E2E2E2E2E2E2E2E2E2E2E2F5E2E2E2E2E2E2E2E2E2E2E2F5E2E2E2E2E2E2E2E2F5E2E2E2F5E2E2BEE2E228E2E2E2E2E2E2E2E2E2E2E2E2E2E2E2E2E2E2E2E2E2E2E2E2E2E2E2E2E2E2E2E2E2E2E2E2E2E2E2E2E2E2E2E2E2E2E2E2E2E2E2E2E2E2E2E2E2E2E2E2E2E2E2E2E2E2E2E2E2E2E2E2E2E2E2E2
310
E2E2E2E2E2E2E2E2E2E2E2E2E2E2E2E2E2E2E2E2E2E2E2E2E2E2E2E2E2E2E2E2E2E2E2E2E2E2E2E2E2E2E2E2E2E2E2E2E2E2E2E2E2E2E2E2E2E2E2E2E2E2E2E2E2E2E2E2E2E2E2E2E2E2E2E2E2E2E2E2E2E2E2E2E2E2E2E2E2E2E2E2E2E2E2E2E2E2E2E2E2E2E2E2E2E2E2E2E2E2E2E2E2E2E2E2E2E2E2BEE2E2E2E2E2E2E2
310
E2E2E2E2E2E2E2E2F5E2E2E2E2E2E2E2E2E2E2E2E2F5E2E2E2E2E2E2E2E2E2E2E2F5E2E2E2E2E2E2E2E2F5E2E2E2F5E2E2BEE2E228E2E2E2E2E2E2E2E2E2E2E2E2E2E2E2E2E2E2E2E2E2E2E2E2E2E2E2E2E2E2E2E2E2E2E2E2E2E2E2E2E2E2E2E2E2E2E2E2E2E2E2E2E2E2E2E2E2E2E2E2E2E2E2E2E2E2E2E2E2E2E2E2E2E2
310
E2E2E2E2E2E2E2E2E2E2E2E2E2E2E2E2E2E2E2E2E2E2E2E2E2E2E2E2E2E2E2E2E2E2E2E2E2E2E2E2E2E2E2E2E2E2E2E2E2E2E2E2E2E2E2E2E2E2E2E2E2E2E2E2E2E2E2E2E2E2E2E2E2E2E2E2E2E2E2E2E2E2E2E2E2E2E2E2E2E2E2E2E2E2E2E2E2E2E2E2E2E2E2E2E2E2E2E2E2E2E2E2E2E2E2E2E2E2E2E2E2BEE2E2E2E2E2
310
E2E2E2E2E2E2E2E2E2E2F5E2E2E2E2E2E2E2E2E2E2E2E2F5E2E2E2E2E2E2E2E2E2E2E2F5E2E2E2E2E2E2E2E2F5E2E2E2F5E2E2BEE2E228E2E2E2E2E2E2E2E2E2E2E2E2E2E2E2E2E2E2E2E2E2E2E2E2E2E2E2E2E2E2E2E2E2E2E2E2E2E2E2E2E2E2E2E2E2E2E2E2E2E2E2E2E2E2E2E2E2E2E2E2E2E2E2E2E2E2E2E2E2E2E2E2
310
E2E2E2E2E2E2E2E2E2E2E2E2E2E2E2E2E2E2E2E2E2E2E2E2E2E2E2E2E2E2E2E2E2E2E2E2E2E2E2E2E2E2E2E2E2E2E2E2E2E2E2E2E2E2E2E2E2E2E2E2E2E2E2E2E2E2E2E2E2E2E2E2E2E2E2E2E2E2E2E2E2E2E2E2E2E2E2E2E2E2E2E2E2E2E2E2E2E2E2E2E2E2E2E2E2E2E2E2E2E2E2E2E2E2E2E2E2E2E2E2E2E2E2BEE2E2E2
310
E2E2E2E2E2E2E2E2E2E2E2E2E2F5F5E2E2E2E2E2E2E2E2E2E2F5E2E2E2E2E2E2E2E2E2F5F5E2E2E2E2E2E2E2E2E2F5E2E2E2F5E2E2BEE2E228E2E2E2E2E2E2E2E2E2E2E2E2E2E2E2E2E2E2E2E2E2E2E2E2E2E2E2E2E2E2E2E2E2E2E2E2E2E2E2E2E2E2E2E2E2E2E2E2E2E2E2E2E2E2E2E2E2E2E2E2E2E2E2E2E2E2E2E2E2E2
310
E2E2E2E2E2E2E2E2E2E2E2E2E2E2E2E2E2E2E2E2E2E2E2E2E2E2E2E2E2E2E2E2E2E2E2E2E2E2E2E2E2E2E2E2E2E2E2E2E2E2E2E2E2E2E2E2E2E2E2E2E2E2E2E2E2E2E2E2E2E2E2E2E2E2E2E2E2E2E2E2E2E2E2E2E2E2E2E2E2E2E2E2E2E2E2E2E2E2E2E2E2E2E2E2E2E2E2E2E2E2E2E2E2E2E2E2E2E2E2E2E2E2E2E2E2BEE2
310
E2E2E2E2E2E2E2E2E2E2E2E2E2E2E2E2E2F5F5F5F5E2E2E2E2E2E2F5E2E2E2E2E2E2F5F5F5E2E2E2E2E2E2E2E2E2E2E2F5E2E2E2F5E2E2BEE2E228E2E2E2E2E2E2E2E2E2E2E2E2E2E2E2E2E2E2E2E2E2E2E2E2E2E2E2E2E2E2E2E2E2E2E2E2E2E2E2E2E2E2E2E2E2E2E2E2E2E2E2E2E2E2E2E2E2E2E2E2E2E2E2E2E2E2E2E2
310
E2E2E2E2E2E2E2E2E2E2E2E2E2E2E2E2E2E2E2E2E2E2E2E2E2E2E2E2E2E2E2E2E2E2E2E2E2E2E2E2E2E2E2E2E2E2E2E2E2E2E2E2E2E2E2E2E2E2E2E2E2E2E2E2E2E2E2E2E2E2E2E2E2E2E2E2E2E2E2E2E2E2E2E2E2E2E2E2E2E2E2E2E2E2E2E2E2E2E2E2E2E2E2E2E2E2E2E2E2E2E2E2E2E2E2E2E2E2E2E2E2E2E2E2E2E2E2
310
BEE2E2E2E2E2E2E2E2E2E2E2E2E2E2E2E2E2E2E2E2E2E2F5F5E2E2E2E2F5E2E2E2F5F5F5E2E2E2E2E2E2E2E2E2E2E2E2E2E2F5E2E2E2F5E2E2BEE2E228E2E2E2E2E2E2E2E2E2E2E2E2E2E2E2E2E2E2E2E2E2E2E2E2E2E2E2E2E2E2E2E2E2E2E2E2E2E2E2E2E2E2E2E2E2E2E2E2E2E2E2E2E2E2E2E2E2E2E2E2E2E2E2E2E2E2
310
E2E2E2E2E2E2E2E2E2E2E2E2E2E2E2E2E2E2E2E2E2E2E2E2E2E2E2E2E2E2E2E2E2E2E2E2E2E2E2E2E2E2E2E2E2E2E2E2E2E2E2E2E2E2E2E2E2E2E2E2E2E2E2E2E2E2E2E2E2E2E2E2E2E2E2E2E2E2E2E2E2E2E2E2E2E2E2E2E2E2E2E2E2E2E2E2E2E2E2E2E2E2E2E2E2E2E2E2E2E2E2E2E2E2E2E2E2E2E2E2E2E2E2E2E2E2E2
310
E2E2BEE2E2E2E2E2E2E2E2E2E2E2E2E2E2E2E2E2E2E2E2E2E2E2E2F5F5F5F5F5F5F5F5F5E2E2E2E2E2E2E2E2E2E2E2E2E2E2E2E2F5E2E2E2F5E2E2BEE2E228E2E2E2E2E2E2E2E2E2E2E2E2E2E2E2E2E2E2E2E2E2E2E2E2E2E2E2E2E2E2E2E2E2E2E2E2E2E2E2E2E2E2E2E2E2E2E2E2E2E2E2E2E2E2E2E2E2E2E2E2E2E2E2E2
310
E2E2E2E2E2E2E2E2E2E2E2E2E2E2E2E2E2E2E2E2E2E2E2E2E2E2E2E2E2E2E2E2E2E2E2E2E2E2E2E2E2E2E2E2E2E2E2E2E2E2E2E2E2E2E2E2E2E2E2E2E2E2E2E2E2E2E2E2E2E2E2E2E2E2E2E2E2E2E2E2E2E2E2E2E2E2E2E2E2E2E2E2E2E2E2E2E2E2E2E2E2E2E2E2E2E2E2E2E2E2E2E2E2E2E2E2E2E2E2E2E2E2E2E2E2E2E2
310
E2E2E2E2BEE2E2E2E2E2E2E2E2E2E2E2E2E2E2E2E2E2E2E2E2E2E2E2E2F5F5F5F5F5F5F5F5F5F5F5F5F5F5F5F5F5F5F5F5F5F5F5F5F5F5F5E2E2F5E2E2BEE2E228E2E2E2E2E2E2E2E2E2E2E2E2E2E2E2E2E2E2E2E2E2E2E2E2E2E2E2E2E2E2E2E2E2E2E2E2E2E2E2E2E2E2E2E2E2E2E2E2E2E2E2E2E2E2E2E2E2E2E2E2E2E2
310
E2E2E2E2E2E2E2E2E2E2E2E2E2E2E2E2E2E2E2E2E2E2E2E2E2E2E2E2E2E2E2E2E2E2E2E2E2E2E2E2E2E2E2E2E2E2E2E2E2E2E2E2E2E2E2E2E2E2E2E2E2E2E2E2E2E2E2E2E2E2E2E2E2E2E2E2E2E2E2E2E2E2E2E2E2E2E2E2E2E2E2E2E2E2E2E2E2E2E2E2E2E2E2E2E2E2E2E2E2E2E2E2E2E2E2E2E2E2E2E2E2E2E2E2E2E2E2
310
E2E2E2E2E2E2BEE2F5F5F5F5F5F5F5F5F5F5F5E2E2E2E2E2E2E2E2E2E2E2E2F5F5F5F5F5F5F5F5E2E2E2E2E2E2E2E2E2E2E2E2E2E2E2E2E2E2E2E2E2F5E2E2BEE2E228E2E2E2E2E2E2E2E2E2E2E2E2E2E2E2E2E2E2E2E2E2E2E2E2E2E2E2E2E2E2E2E2E2E2E2E2E2E2E2E2E2E2E2E2E2E2E2E2E2E2E2E2E2E2E2E2E2E2E2E2
310
E2E2E2E2E2E2E2E2E2E2E2E2E2E2E2E2E2E2E2E2E2E2E2E2E2E2E2E2E2E2E2E2E2E2E2E2E2E2E2E2E2E2E2E2E2E2E2E2E2E2E2E2E2E2E2E2E2E2E2E2E2E2E2E2E2E2E2E2E2E2E2E2E2E2E2E2E2E2E2E2E2E2E2E2E2E2E2E2E2E2E2E2E2E2E2E2E2E2E2E2E2E2E2E2E2E2E2E2E2E2E2E2E2E2E2E2E2E2E2E2E2E2E2E2E2E2E2
310
E2E2E2E2E2E2E2E2BEE2F5F5F5F5E2F5F5F5F5F5E2E2E2E2E2E2E2E2E2E2F5F5F5F5F5F5F5F5F5F5F5F5F5F5E2E2E2E2E2E2E2E2E2E2E2E2E2E2E2E2E2E2F5E2E2BEE2E228E2E2E2E2E2E2E2E2E2E2E2E2E2E2E2E2E2E2E2E2E2E2E2E2E2E2E2E2E2E2E2E2E2E2E2E2E2E2E2E2E2E2E2E2E2E2E2E2E2E2E2E2E2E2E2E2E2E2
310
E2E2E2E2E2E2E2E2E2E2E2E2E2E2E2E2E2E2E2E2E2E2E2E2E2E2E2E2E2E2E2E2E2E2E2E2E2E2E2E2E2E2E2E2E2E2E2E2E2E2E2E2E2E2E2E2E2E2E2E2E2E2E2E2E2E2E2E2E2E2E2E2E2E2E2E2E2E2E2E2E2E2E2E2E2E2E2E2E2E2E2E2E2E2E2E2E2E2E2E2E2E2E2E2E2E2E2E2E2E2E2E2E2E2E2E2E2E2E2E2E2E2E2E2E2E2E2
310
E2E2E2E2E2E2E2E2E2E2BEE2F5F5F5F5F5F5F5F5F5F5F5F5F5F5F5E2E2E2E2E2F5F5F5F5F5F5F5F5F5F5F5F5F5F5F5F5F5F5F5F5F5F5F5F5F5F5F5F5F5F5F5F5F5F5E2BEE2E228E2E2E2E2E2E2E2E2E2E2E2E2E2E2E2E2E2E2E2E2E2E2E2E2E2E2E2E2E2E2E2E2E2E2E2E2E2E2E2E2E2E2E2E2E2E2E2E2E2E2E2E2E2E2E2E2
310
E2E2E2E2E2E2E2E2E2E2E2E2E2E2E2E2E2E2E2E2E2E2E2E2E2E2E2E2E2E2E2E2E2E2E2E2E2E2E2E2E2E2E2E2E2E2E2E2E2E2E2E2E2E2E2E2E2E2E2E2E2E2E2E2E2E2E2E2E2E2E2E2E2E2E2E2E2E2E2E2E2E2E2E2E2E2E2E2E2E2E2E2E2E2E2E2E2E2E2E2E2E2E2E2E2E2E2E2E2E2E2E2E2E2E2E2E2E2E2E2E2E2E2E2E2E2E2
310
E2E2E2E2E2E2E2E2E2E2E2E2BEE2F5F5F5F5F5F5F5F5F5F5F5F5F5F5F5E2E2E2E2E2E2E2E2E2E2E2F5F5E2E2E2F5E2E2E2E2E2E2E2E2E2E2E2E2E2E2E2E2E2E2E2E2E2E2E2BEE2E228E2E2E2E2E2E2E2E2E2E2E2E2E2E2E2E2E2E2E2E2E2E2E2E2E2E2E2E2E2E2E2E2E2E2E2E2E2E2E2E2E2E2E2E2E2E2E2E2E2E2E2E2E2E2
310
E2E2E2E2E2E2E2E2E2E2E2E2E2E2E2E2E2E2E2E2E2E2E2E2E2E2E2E2E2E2E2E2E2E2E2E2E2E2E2E2E2E2E2E2E2E2E2E2E2E2E2E2E2E2E2E2E2E2E2E2E2E2E2E2E2E2E2E2E2E2E2E2E2E2E2E2E2E2E2E2E2E2E2E2E2E2E2E2E2E2E2E2E2E2E2E2E2E2E2E2E2E2E2E2E2E2E2E2E2E2E2E2E2E2E2E2E2E2E2E2E2E2E2E2E2E2E2
310
E2E2E2E2E2E2E2E2E2E2E2E2E2E2BEE2F5F5F5F5F5F5F5F5F5F5F5E2E2F5E2E2E2E2E2E2E2E2E2E2E2F5E2F5E2E2E2E2F5E2E2E2E2E2E2E2E2E2E2E2E2E2E2E2E2E2E2E2E2E2E2BEE2E228E2E2E2E2E2E2E2E2E2E2E2E2E2E2E2E2E2E2E2E2E2E2E2E2E2E2E2E2E2E2E2E2E2E2E2E2E2E2E2E2E2E2E2E2E2E2E2E2E2E2E2E2
310
E2E2E2E2E2E2E2E2E2E2E2E2E2E2E2E2E2E2E2E2E2E2E2E2E2E2E2E2E2E2E2E2E2E2E2E2E2E2E2E2E2E2E2E2E2E2E2E2E2E2E2E2E2E2E2E2E2E2E2E2E2E2E2E2E2E2E2E2E2E2E2E2E2E2E2E2E2E2E2E2E2E2E2E2E2E2E2E2E2E2E2E2E2E2E2E2E2E2E2E2E2E2E2E2E2E2E2E2E2E2E2E2E2E2E2E2E2E2E2E2E2E2E2E2E2E2E2
310
E2E2E2E2E2E2E2E2E2E2E2E2E2E2E2E2BEE2E2F5F5F5F5F5F5F5F5F5E2E2E2E2E2E2E2E2E2E2E2E2E2E2E2F5E2F5E2E2E2E2E2F5E2E2E2E2E2E2E2E2E2E2E2E2E2E2E2E2E2E2E2E2E2BEE2E228E2E2E2E2E2E2E2E2E2E2E2E2E2E2E2E2E2E2E2E2E2E2E2E2E2E2E2E2E2E2E2E2E2E2E2E2E2E2E2E2E2E2E2E2E2E2E2E2E2E2
310
E2E2E2E2E2E2E2E2E2E2E2E2E2E2E2E2E2E2E2E2E2E2E2E2E2E2E2E2E2E2E2E2E2E2E2E2E2E2E2E2E2E2E2E2E2E2E2E2E2E2E2E2E2E2E2E2E2E2E2E2E2E2E2E2E2E2E2E2E2E2E2E2E2E2E2E2E2E2E2E2E2E2E2E2E2E2E2E2E2E2E2E2E2E2E2E2E2E2E2E2E2E2E2E2E2E2E2E2E2E2E2E2E2E2E2E2E2E2E2E2E2E2E2E2E2E2E2
310
E2E2E2E2E2E2E2E2E2E2E2E2E2E2E2E2E2E2BEE2F5F5F5F5F5F5F5F5F5F5F5E2E2E2E2F5F5F5F5F5F5F5F5F5F5E2E2F5E2E2E2E2E2E2F5F5F5F5F5F5F5F5F5F5F5F5F5F5F5E2E2E2E2E2E2BEE2E228E2E2E2E2E2E2E2E2E2E2E2E2E2E2E2E2E2E2E2E2E2E2E2E2E2E2E2E2E2E2E2E2E2E2E2E2E2E2E2E2E2E2E2E2E2E2E2E2
310
E2E2E2E2E2E2E2E2E2E2E2E2E2E2E2E2E2E2E2E2E2E2E2E2E2E2E2E2E2E2E2E2E2E2E2E2E2E2E2E2E2E2E2E2E2E2E2E2E2E2E2E2E2E2E2E2E2E2E2E2E2E2E2E2E2E2E2E2E2E2E2E2E2E2E2E2E2E2E2E2E2E2E2E2E2E2E2E2E2E2E2E2E2E2E2E2E2E2E2E2E2E2E2E2E2E2E2E2E2E2E2E2E2E2E2E2E2E2E2E2E2E2E2E2E2E2E2
310
E2E2E2E2E2E2E2E2E2E2E2E2E2E2E2E2E2E2E2E2BEE2F5F5F5F5F5F5E2F5F5F5F5E2E2E2E2E2F5F5F5F5F5F5F5E2F5E2E2F5E2E2E2E2E2E2F5F5F5F5F5F5F5F5F5F5F5F5F5F5F5E2E2E2E2E2E2BEE2E228E2E2E2E2E2E2E2E2E2E2E2E2E2E2E2E2E2E2E2E2E2E2E2E2E2E2E2E2E2E2E2E2E2E2E2E2E2E2E2E2E2E2E2E2E2E2
310
E2E2E2E2E2E2E2E2E2E2E2E2E2E2E2E2E2E2E2E2E2E2E2E2E2E2E2E2E2E2E2E2E2E2E2E2E2E2E2E2E2E2E2E2E2E2E2E2E2E2E2E2E2E2E2E2E2E2E2E2E2E2E2E2E2E2E2E2E2E2E2E2E2E2E2E2E2E2E2E2E2E2E2E2E2E2E2E2E2E2E2E2E2E2E2E2E2E2E2E2E2E2E2E2E2E2E2E2E2E2E2E2E2E2E2E2E2E2E2E2E2E2E2E2E2E2E2
310
E2E2E2E2E2E2E2E2E2E2E2E2E2E2E2E2E2E2E2E2E2E2BEE2F5F5F5F5F5F5F5F5E2E2E2E2E2E2E2F5F5F5F5F5F5F5F5F5E2E2E2F5E2E2E2E2E2E2F5F5F5F5F5F5F5F5F5F5F5F5F5E2E2E2E2E2E2E2E2BEE2E228E2E2E2E2E2E2E2E2E2E2E2E2E2E2E2E2E2E2E2E2E2E2E2E2E2E2E2E2E2E2E2E2E2E2E2E2E2E2E2E2E2E2E2E2
310
E2E2E2E2E2E2E2E2E2E2E2E2E2E2E2E2E2E2E2E2E2E2E2E2E2E2E2E2E2E2E2E2E2E2E2E2E2E2E2E2E2E2E2E2E2E2E2E2E2E2E2E2E2E2E2E2E2E2E2E2E2E2E2E2E2E2E2E2E2E2E2E2E2E2E2E2E2E2E2E2E2E2E2E2E2E2E2E2E2E2E2E2E2E2E2E2E2E2E2E2E2E2E2E2E2E2E2E2E2E2E2E2E2E2E2E2E2E2E2E2E2E2E2E2E2E2E2
310
E2E2E2E2E2E2E2E2E2E2E2E2E2E2E2E2E2E2E2E2E2E2E2E2BEE2E2F5F5F5F5F5F5E2E2E2E2E2E2E2E2F5F5F5F5F5F5F5E2E2E2E2E2F5E2E2E2E2E2E2F5F5E2E2E2F5F5F5F5F5F5F5F5E2E2E2E2E2E2E2E2BEE2E228E2E2E2E2E2E2E2E2E2E2E2E2E2E2E2E2E2E2E2E2E2E2E2E2E2E2E2E2E2E2E2E2E2E2E2E2E2E2E2E2E2E2
310
E2E2E2E2E2E2E2E2E2E2E2E2E2E2E2E2E2E2E2E2E2E2E2E2E2E2E2E2E2E2E2E2E2E2E2E2E2E2E2E2E2E2E2E2E2E2E2E2E2E2E2E2E2E2E2E2E2E2E2E2E2E2E2E2E2E2E2E2E2E2E2E2E2E2E2E2E2E2E2E2E2E2E2E2E2E2E2E2E2E2E2E2E2E2E2E2E2E2E2E2E2E2E2E2E2E2E2E2E2E2E2E2E2E2E2E2E2E2E2E2E2E2E2E2E2E2E2
310
E2E2E2E2E2E2E2E2E2E2E2E2E2E2E2E2E2E2E2E2E2E2E2E2E2E2BEE2F5F5F5F5F5F5F5F5F5F5F5E2E2E2E2E2E2E2E2E2E2E2E2E2E2E2E2F5E2E2E2E2E2E2E2E2E2E2E2E2E2E2E2E2E2E2E2E2E2E2E2E2E2E2E2BEE2E228E2E2E2E2E2E2E2E2E2E2E2E2E2E2E2E2E2E2E2E2E2E2E2E2E2E2E2E2E2E2E2E2E2E2E2E2E2E2E2E2
310
E2E2E2E2E2E2E2E2E2E2E2E2E2E2E2E2E2E2E2E2E2E2E2E2E2E2E2E2E2E2E2E2E2E2E2E2E2E2E2E2E2E2E2E2E2E2E2E2E2E2E2E2E2E2E2E2E2E2E2E2E2E2E2E2E2E2E2E2E2E2E2E2E2E2E2E2E2E2E2E2E2E2E2E2E2E2E2E2E2E2E2E2E2E2E2E2E2E2E2E2E2E2E2E2E2E2E2E2E2E2E2E2E2E2E2E2E2E2E2E2E2E2E2E2E2E2E2
310
E2E2E2E2E2E2E2E2E2E2E2E2E2E2E2E2E2E2E2E2E2E2E2E2E2E2E2E2BEE2E2F5F5F5F5F5F5F5F5F5F5E2E2E2E2E2E2E2E2E2F5F5F5F5F5F5F5F5F5F5F5F5F5F5E2E2E2E2E2E2E2E2E2E2E2E2E2E2E2E2E2E2E2E2E2BEE2E228E2E2E2E2E2E2E2E2E2E2E2E2E2E2E2E2E2E2E2E2E2E2E2E2E2E2E2E2E2E2E2E2E2E2E2E2E2E2
310
E2E2E2E2E2E2E2E2E2E2E2E2E2E2E2E2E2E2E2E2E2E2E2E2E2E2E2E2E2E2E2E2E2E2E2E2E2E2E2E2E2E2E2E2E2E2E2E2E2E2E2E2E2E2E2E2E2E2E2E2E2E2E2E2E2E2E2E2E2E2E2E2E2E2E2E2E2E2E2E2E2E2E2E2E2E2E2E2E2E2E2E2E2E2E2E2E2E2E2E2E2E2E2E2E2E2E2E2E2E2E2E2E2E2E2E2E2E2E2E2E2E2E2E2E2E2E2
310
E2E2E2E2E2E2E2E2E2E2E2E2E2E2E2E2E2E2E2E2E2E2E2E2E2E2E2E2E2E2BEE2E2F5F5E2F5F5F5F5F5F5F5E2E2E2E2E2E2E2E2E2E2F5E2E2E2E2E2F5E2E2E2E2F5E2E2E2E2E2E2E2E2E2E2E2E2E2E2E2E2E2E2E2E2E2E2BEE2E228E2E2E2E2E2E2E2E2E2E2E2E2E2E2E2E2E2E2E2E2E2E2E2E2E2E2E2E2E2E2E2E2E2E2E2E2
310
E2E2E2E2E2E2E2E2E2E2E2E2E2E2E2E2E2E2E2E2E2E2E2E2E2E2E2E2E2E2E2E2E2E2E2E2E2E2E2E2E2E2E2E2E2E2E2E2E2E2E2E2E2E2E2E2E2E2E2E2E2E2E2E2E2E2E2E2E2E2E2E2E2E2E2E2E2E2E2E2E2E2E2E2E2E2E2E2E2E2E2E2E2E2E2E2E2E2E2E2E2E2E2E2E2E2E2E2E2E2E2E2E2E2E2E2E2E2E2E2E2E2E2E2E2E2E2
310
E2E2E2E2E2E2E2E2E2E2E2E2E2E2E2E2E2E2E2E2E2E2E2E2E2E2E2E2E2E2E2E2BEE2F5F5F5F5F5F5F5F5F5F5E2E2E2E2E2E2E2E2E2E2E2E2F5E2E2E2E2F5E2E2E2F5F5E2E2E2E2E2E2E2E2E2E2E2E2E2E2E2E2E2E2E2E2E2E2BEE2E228E2E2E2E2E2E2E2E2E2E2E2E2E2E2E2E2E2E2E2E2E2E2E2E2E2E2E2E2E2E2E2E2E2E2
310
E2E2E2E2E2E2E2E2E2E2E2E2E2E2E2E2E2E2E2E2E2E2E2E2E2E2E2E2E2E2E2E2E2E2E2E2E2E2E2E2E2E2E2E2E2E2E2E2E2E2E2E2E2E2E2E2E2E2E2E2E2E2E2E2E2E2E2E2E2E2E2E2E2E2E2E2E2E2E2E2E2E2E2E2E2E2E2E2E2E2E2E2E2E2E2E2E2E2E2E2E2E2E2E2E2E2E2E2E2E2E2E2E2E2E2E2E2E2E2E2E2E2E2E2E2E2E2
310
E2E2E2E2E2E2E2E2E2E2E2E2E2E2E2E2E2E2E2E2E2E2E2E2E2E2E2E2E2E2E2E2E2E2BEE2F5F5F5F5F5F5F5F5F5F5E2E2E2E2E2E2E2E2E2E2E2E2F5F5E2E2E2F5E2E2F5F5E2E2E2E2E2E2E2E2E2E2E2E2E2E2E2E2E2E2E2E2E2E2E2BEE2E228E2E2E2E2E2E2E2E2E2E2E2E2E2E2E2E2E2E2E2E2E2E2E2E2E2E2E2E2E2E2E2E2
310
E2E2E2E2E2E2E2E2E2E2E2E2E2E2E2E2E2E2E2E2E2E2E2E2E2E2E2E2E2E2E2E2E2E2E2E2E2E2E2E2E2E2E2E2E2E2E2E2E2E2E2E2E2E2E2E2E2E2E2E2E2E2E2E2E2E2E2E2E2E2E2E2E2E2E2E2E2E2E2E2E2E2E2E2E2E2E2E2E2E2E2E2E2E2E2E2E2E2E2E2E2E2E2E2E2E2E2E2E2E2E2E2E2E2E2E2E2E2E2E2E2E2E2E2E2E2E2
310
E2E2E2E2E2E2E2E2E2E2E2E2E2E2E2E2E2E2E2E2E2E2E2E2E2E2E2E2E2E2E2E2E2E2E2E2BEE2F5F5F5F5F5F5F5F5F5F5F5F5F5E2E2E2E2E2E2E2E2E2F5F5F5E2E2F5E2F5F5F5E2E2E2E2E2E2E2E2E2E2E2E2E2E2E2E2E2E2E2E2E2E2E2BEE2E228E2E2E2E2E2E2E2E2E2E2E2E2E2E2E2E2E2E2E2E2E2E2E2E2E2E2E2E2E2E2
310
E2E2E2E2E2E2E2E2E2E2E2E2E2E2E2E2E2E2E2E2E2E2E2E2E2E2E2E2E2E2E2E2E2E2E2E2E2E2E2E2E2E2E2E2E2E2E2E2E2E2E2E2E2E2E2E2E2E2E2E2E2E2E2E2E2E2E2E2E2E2E2E2E2E2E2E2E2E2E2E2E2E2E2E2E2E2E2E2E2E2E2E2E2E2E2E2E2E2E2E2E2E2E2E2E2E2E2E2E2E2E2E2E2E2E2E2E2E2E2E2E2E2E2E2E2E2E2
310
E2E2E2E2E2E2E2E2E2E2E2E2E2E2E2E2E2E2E2E2E2E2E2E2E2E2E2E2E2E2E2E2E2E2E2E2E2E2BEE2F5F5F5F5F5F5F5F5F5F5F5F5E2E2E2E2E2E2E2E2E2E2E2E2E2F5F5F5F5E2E2E2E2E2E2E2E2E2E2E2E2E2E2E2E2E2E2E2E2F5E2E2E2E2E2BEE2E228E2E2E2E2E2E2E2E2E2E2E2E2E2E2E2E2E2E2E2E2E2E2E2E2E2E2E2E2
310
E2E2E2E2E2E2E2E2E2E2E2E2E2E2E2E2E2E2E2E2E2E2E2E2E2E2E2E2E2E2E2E2E2E2E2E2E2E2E2E2E2E2E2E2E2E2E2E2E2E2E2E2E2E2E2E2E2E2E2E2E2E2E2E2E2E2E2E2E2E2E2E2E2E2E2E2E2E2E2E2E2E2E2E2E2E2E2E2E2E2E2E2E2E2E2E2E2E2E2E2E2E2E2E2E2E2E2E2E2E2E2E2E2E2E2E2E2E2E2E2E2E2E2E2E2E2E2
310
E2E2E2E2E2E2E2E2E2E2E2E2E2E2E2E2E2E2E2E2E2E2E2E2E2E2E2E2E2E2E2E2E2E2E2E2E2E2E2E2BEE2E2E2E2E2E2E2E2E2E2E2E2E2E2E2E2E2E2E2E2E2E2E2E2E2E2E2E2F5E2E2E2E2E2E2E2E2E2E2E2E2E2E2E2E2E2E2E2E2E2E2E2E2E2E2E2BEE2E228E2E2E2E2E2E2E2E2E2E2E2E2E2E2E2E2E2E2E2E2E2E2E2E2E2E2
310
E2E2E2E2E2E2E2E2E2E2E2E2E2E2E2E2E2E2E2E2E2E2E2E2E2E2E2E2E2E2E2E2E2E2E2E2E2E2E2E2E2E2E2E2E2E2E2E2E2E2E2E2E2E2E2E2E2E2E2E2E2E2E2E2E2E2E2E2E2E2E2E2E2E2E2E2E2E2E2E2E2E2E2E2E2E2E2E2E2E2E2E2E2E2E2E2E2E2E2E2E2E2E2E2E2E2E2E2E2E2E2E2E2E2E2E2E2E2E2E2E2E2E2E2E2E2E2
310
E2E2E2E2E2E2E2E2E2E2E2E2E2E2E2E2E2E2E2E2E2E2E2E2E2E2E2E2E2E2E2E2E2E2E2E2E2E2E2E2E2E2BEBEBEBEBEBEBEBEBEBEBEBEBEBEE2E2E2E2E2E2E2E2E2E2E2E2E2E2E2E2E2E2E2E2E2E2E2E2E2E2E2E2E2E2E2E2E2E2E2E2E2E2E2E2E2E2E2BEE2E228E2E2E2E2E2E2E2E2E2E2E2E2E2E2E2E2E2E2E2E2E2E2E2E2
310
E2E2E2E2E2E2E2E2E2E2E2E2E2E2E2E2E2E2E2E2E2E2E2E2E2E2E2E2E2E2E2E2E2E2E2E2E2E2E2E2E2E2E2E2E2E2E2E2E2E2E2E2E2E2E2E2E2E2E2E2E2E2E2E2E2E2E2E2E2E2E2E2E2E2E2E2E2E2E2E2E2E2E2E2E2E2E2E2E2E2E2E2E2E2E2E2E2E2E2E2E2E2E2E2E2E2E2E2E2E2E2E2E2E2E2E2E2E2E2E2E2E2E2E2E2E2E2
310
E2E2E2E2E2E2E2E2E2E2E2E2E2E2E2E2E2E2E2E2E2E2E2E2E2E2E2E2E2E2E2E2E2E2E2E2E2E2E2E2E2E2E2E2BEE2F5F5F5F5F5F5F5F5F5F5F5BEE2E2E2E2E2E2E2E2E2E2E2E2E2E2E2E2E2E2E2E2E2E2E2E2E2E2E2E2E2E2E2E2E2E2E2E2E2E2E2E2E2E2E2BEE2E228E2E2E2E2E2E2E2E2E2E2E2E2E2E2E2E2E2E2E2E2E2E2
310
E2E2E2E2E2E2E2E2E2E2E2E2E2E2E2E2E2E2E2E2E2E2E2E2E2E2E2E2E2E2E2E2E2E2E2E2E2E2E2E2E2E2E2E2E2E2E2E2E2E2E2E2E2E2E2E2E2E2E2E2E2E2E2E2E2E2E2E2E2E2E2E2E2E2E2E2E2E2E2E2E2E2E2E2E2E2E2E2E2E2E2E2E2E2E2E2E2E2E2E2E2E2E2E2E2E2E2E2E2E2E2E2E2E2E2E2E2E2E2E2E2E2E2E2E2E2E2
310
E2E2E2E2E2E2E2E2E2E2E2E2E2E2E2E2E2E2E2E2E2E2E2E2E2E2E2E2E2E2E2E2E2E2E2E2E2E2E2E2E2E2E2E2E2E2BEE2F5F5F5F5F5F5F5F5F5F5F5BEE2E2E2E2E2E2E2E2E2E2E2E2E2E2E2E2E2E2E2E2E2E2E2E2E2E2E2E2E2E2E2E2E2E2E2E2E2E2E2E2E2E2E2BEE2E228E2E2E2E2E2E2E2E2E2E2E2E2E2E2E2E2E2E2E2E2
310
E2E2E2E2E2E2E2E2E2E2E2E2E2E2E2E2E2E2E2E2E2E2E2E2E2E2E2E2E2E2E2E2E2E2E2E2E2E2E2E2E2E2E2E2E2E2E2E2E2E2E2E2E2E2E2E2E2E2E2E2E2E2E2E2E2E2E2E2E2E2E2E2E2E2E2E2E2E2E2E2E2E2E2E2E2E2E2E2E2E2E2E2E2E2E2E2E2E2E2E2E2E2E2E2E2E2E2E2E2E2E2E2E2E2E2E2E2E2E2E2E2E2E2E2E2E2E2
310
E2E2E2E2E2E2E2E2E2E2E2E2E2E2E2E2E2E2E2E2E2E2E2E2E2E2E2E2E2E2E2E2E2E2E2E2E2E2E2E2E2E2E2E2E2E2E2E2BEBEBEBEBEBEBEBEBEBEBEBEBEBEBEBEBEBEBEBEBEBEBEBEBEBEBEBEBEBEBEBEBEBEBEBEBEBEBEBEBEBEBEBEBEBEBEBEBEBEBEBEBEBEBEBEBEBEE2E228E2E2E2E2E2E2E2E2E2E2E2E2E2E2E2E2E2E2
310
E2E2E2E2E2E2E2E2E2E2E2E2E2E2E2E2E2E2E2E2E2E2E2E2E2E2E2E2E2E2E2E2E2E2E2E2E2E2E2E2E2E2E2E2E2E2E2E2E2E2E2E2E2E2E2E2E2E2E2E2E2E2E2E2E2E2E2E2E2E2E2E2E2E2E2E2E2E2E2E2E2E2E2E2E2E2E2E2E2E2E2E2E2E2E2E2E2E2E2E2E2E2E2E2E2E2E2E2E2E2E2E2E2E2E2E2E2E2E2E2E2E2E2E2E2E2E2
310
E2E2E2E2E2E2E2E2E2E2E2E2E2E2E2E2E2E2E2E2E2E2E2E2E2E2E2E2E2E2E2E2E2E2E2E2E2E2E2E2E2E2E2E2E2E2E2E2E2E2E2E2E2E2E2E2E2E2E2E2E2E2E2E2E2E2E2E2E2E2E2E2E2E2E2E2E2E2E2E2E2E2E2E2E2E2E2E2E2E2E2E2E2E2E2E2E2E2E2E2E2E2E2E2E2E2E2E2E2E228E2E2E2E2E2E2E2E2E2E2E2E2E2E2E2E2
310
E2E2E2E2E2E2E2E2E2E2E2E2E2E2E2E2E2E2E2E2E2E2E2E2E2E2E2E2E2E2E2E2E2E2E2E2E2E2E2E2E2E2E2E2E2E2E2E2E2E2E2E2E2E2E2E2E2E2E2E2E2E2E2E2E2E2E2E2E2E2E2E2E2E2E2E2E2E2E2E2E2E2E2E2E2E2E2E2E2E2E2E2E2E2E2E2E2E2E2E2E2E2E2E2E2E2E2E2E2E2E2E2E2E2E2E2E2E2E2E2E2E2E2E2E2E2E2
310
E2E2E2E2E2E2E2E2E2E2E2E2E2E2E2E2E2E2E2E2E2E2E2E2E2E2E2E2E2E2E2E2E2E2E2E2E2E2E2E2E2E2E2E2E2E2E2E2E2E2E2E2E2E2E2E2E2E2E2E2E2E2E2E2E2E2E2E2E2E2E2E2E2E2E2E2E2E2E2E2E2E2E2E2E2E2E2E2E2E2E2E2E2E2E2E2E2E2E2E2E2E2E2E2E2E2E2E2E2E2E2E228E2E2E2E2E2E2E2E2E2E2E2E2E2E2
310
E2E2E2E2E2E2E2E2E2E2E2E2E2E2E2E2E2E2E2E2E2E2E2E2E2E2E2E2E2E2E2E2E2E2E2E2E2E2E2E2E2E2E2E2E2E2E2E2E2E2E2E2E2E2E2E2E2E2E2E2E2E2E2E2E2E2E2E2E2E2E2E2E2E2E2E2E2E2E2E2E2E2E2E2E2E2E2E2E2E2E2E2E2E2E2E2E2E2E2E2E2E2E2E2E2E2E2E2E2E2E2E2E2E2E2E2E2E2E2E2E2E2E2E2E2E2E2
310
E2E2E2E2E2E2E2E2E2E2E2E2E2E2E2E2E2E2E2E2E2E2E2E2E2E2E2E2E2E2E2E2E2E2E2E2E2E2E2E2E2E2E2E2E2E2E2E2E2E2E2E2E2E2E2E2E2E2E2E2E2E2E2E2E2E2E2E2E2E2E2E2E2E2E2E2E2E2E2E2E2E2E2E2E2E2E2E2E2E2E2E2E2E2E2E2E2E2E2E2E2E2E2E2E2E2E2E2E2E2E2E2E2E228E2E2E2E2E2E2E2E2E2E2E2E2
310
E2E2E2E2E2E2E2E2E2E2E2E2E2E2E2E2E2E2E2E2E2E2E2E2E2E2E2E2E2E2E2E2E2E2E2E2E2E2E2E2E2E2E2E2E2E2E2E2E2E2E2E2E2E2E2E2E2E2E2E2E2E2E2E2E2E2E2E2E2E2E2E2E2E2E2E2E2E2E2E2E2E2E2E2E2E2E2E2E2E2E2E2E2E2E2E2E2E2E2E2E2E2E2E2E2E2E2E2E2E2E2E2E2E2E2E2E2E2E2E2E2E2E2E2E2E2E2
310
E2E2E2E2E2E2E2E2E2E2E2E2E2E2E2E2E2E2E2E2E2E2E2E2E2E2E2E2E2E2E2E2E2E2E2E2E2E2E2E2E2E2E2E2E2E2E2E2E2E2E2E2E2E2E2E2E2E2E2E2E2E2E2E2E2E2E2E2E2E2E2E2E2E2E2E2E2E2E2E2E2E2E2E2E2E2E2E2E2E2E2E2E2E2E2E2E2E2E2E2E2E2E2E2E2E2E2E2E2E2E2E2E2E2E2E2E2E2E2E2E2E2E2E2E2E2E2
310
E2E2E2E2E2E2E2E2E2E2E2E2E2E2E2E2E2E2E2E2E2E2E2E2E2E2E2E2E2E2E2E2E2E2E2E2E2E2E2E2E2E2E2E2E2E2E2E2E2E2E2E2E2E2E2E2E2E2E2E2E2E2E2E2E2E2E2E2E2E2E2E2E2E2E2E2E2E2E2E2E2E2E2E2E2E2E2E2E2E2E2E2E2E2E2E2E2E2E2E2E2E2E2E2E2E2E2E2E2E2E2E2E2E2E2E2E2E2E2E2E2E2E2E2E2E2E2
310
E2E2E2E2E2E2E2E2E2E2E2E2E2E2E2E2E2E2E2E2E2E2E2E2E2E2
  0
XRECORD
  5
E40
102
{ACAD_REACTORS
330
E3F
102
}
330
E3F
100
AcDbXrecord
280
     1
102
MATERIAL
148
0.0
149
0.0
149
0.0
 93
        0
 94
       63
282
     0
 72
     1
 77
     1
171
     1
175
     1
179
     1
273
     0
  0
XRECORD
  5
E3E
102
{ACAD_REACTORS
330
E3D
102
}
330
E3D
100
AcDbXrecord
280
     1
102
MATERIAL
148
0.0
149
0.0
149
0.0
 93
        0
 94
       63
282
     0
 72
     1
 77
     1
171
     1
175
     1
179
     1
273
     0
  0
XRECORD
  5
E42
102
{ACAD_REACTORS
330
E41
102
}
330
E41
100
AcDbXrecord
280
     1
102
MATERIAL
148
0.0
149
0.0
149
0.0
 93
        0
 94
       63
282
     0
 72
     1
 77
     1
171
     1
175
     1
179
     1
273
     0
  0
CELLSTYLEMAP
  5
E35
102
{ACAD_REACTORS
330
C49
102
}
330
C49
100
AcDbCellStyleMap
 90
        3
300
CELLSTYLE
  1
TABLEFORMAT_BEGIN
 90
        5
170
     1
 91
        0
 92
    32768
 62
   257
 93
        1
300
CONTENTFORMAT
  1
CONTENTFORMAT_BEGIN
 90
        0
 91
        0
 92
      512
 93
        0
300

 40
0.0
140
1.0
 94
        5
 62
     0
340
17
144
6.0
309
CONTENTFORMAT_END
171
     1
301
MARGIN
  1
CELLMARGIN_BEGIN
 40
1.5
 40
1.5
 40
1.5
 40
1.5
 40
0.18
 40
0.18
309
CELLMARGIN_END
 94
        6
 95
        1
302
GRIDFORMAT
  1
GRIDFORMAT_BEGIN
 90
        0
 91
        1
 62
     0
 92
       -2
340
0
 93
        0
 40
0.045
309
GRIDFORMAT_END
 95
        2
302
GRIDFORMAT
  1
GRIDFORMAT_BEGIN
 90
        0
 91
        1
 62
     0
 92
       -2
340
0
 93
        0
 40
0.045
309
GRIDFORMAT_END
 95
        4
302
GRIDFORMAT
  1
GRIDFORMAT_BEGIN
 90
        0
 91
        1
 62
     0
 92
       -2
340
0
 93
        0
 40
0.045
309
GRIDFORMAT_END
 95
        8
302
GRIDFORMAT
  1
GRIDFORMAT_BEGIN
 90
        0
 91
        1
 62
     0
 92
       -2
340
0
 93
        0
 40
0.045
309
GRIDFORMAT_END
 95
       16
302
GRIDFORMAT
  1
GRIDFORMAT_BEGIN
 90
        0
 91
        1
 62
     0
 92
       -2
340
0
 93
        0
 40
0.045
309
GRIDFORMAT_END
 95
       32
302
GRIDFORMAT
  1
GRIDFORMAT_BEGIN
 90
        0
 91
        1
 62
     0
 92
       -2
340
0
 93
        0
 40
0.045
309
GRIDFORMAT_END
309
TABLEFORMAT_END
  1
CELLSTYLE_BEGIN
 90
        1
 91
        1
300
_TITLE
309
CELLSTYLE_END
300
CELLSTYLE
  1
TABLEFORMAT_BEGIN
 90
        5
170
     1
 91
        0
 92
        0
 62
   257
 93
        1
300
CONTENTFORMAT
  1
CONTENTFORMAT_BEGIN
 90
        0
 91
        0
 92
      512
 93
        0
300

 40
0.0
140
1.0
 94
        5
 62
     0
340
17
144
4.5
309
CONTENTFORMAT_END
171
     1
301
MARGIN
  1
CELLMARGIN_BEGIN
 40
1.5
 40
1.5
 40
1.5
 40
1.5
 40
0.18
 40
0.18
309
CELLMARGIN_END
 94
        6
 95
        1
302
GRIDFORMAT
  1
GRIDFORMAT_BEGIN
 90
        0
 91
        1
 62
     0
 92
       -2
340
0
 93
        0
 40
0.045
309
GRIDFORMAT_END
 95
        2
302
GRIDFORMAT
  1
GRIDFORMAT_BEGIN
 90
        0
 91
        1
 62
     0
 92
       -2
340
0
 93
        0
 40
0.045
309
GRIDFORMAT_END
 95
        4
302
GRIDFORMAT
  1
GRIDFORMAT_BEGIN
 90
        0
 91
        1
 62
     0
 92
       -2
340
0
 93
        0
 40
0.045
309
GRIDFORMAT_END
 95
        8
302
GRIDFORMAT
  1
GRIDFORMAT_BEGIN
 90
        0
 91
        1
 62
     0
 92
       -2
340
0
 93
        0
 40
0.045
309
GRIDFORMAT_END
 95
       16
302
GRIDFORMAT
  1
GRIDFORMAT_BEGIN
 90
        0
 91
        1
 62
     0
 92
       -2
340
0
 93
        0
 40
0.045
309
GRIDFORMAT_END
 95
       32
302
GRIDFORMAT
  1
GRIDFORMAT_BEGIN
 90
        0
 91
        1
 62
     0
 92
       -2
340
0
 93
        0
 40
0.045
309
GRIDFORMAT_END
309
TABLEFORMAT_END
  1
CELLSTYLE_BEGIN
 90
        2
 91
        1
300
_HEADER
309
CELLSTYLE_END
300
CELLSTYLE
  1
TABLEFORMAT_BEGIN
 90
        5
170
     1
 91
        0
 92
        0
 62
   257
 93
        1
300
CONTENTFORMAT
  1
CONTENTFORMAT_BEGIN
 90
        0
 91
        0
 92
      512
 93
        0
300

 40
0.0
140
1.0
 94
        2
 62
     0
340
17
144
4.5
309
CONTENTFORMAT_END
171
     1
301
MARGIN
  1
CELLMARGIN_BEGIN
 40
1.5
 40
1.5
 40
1.5
 40
1.5
 40
0.18
 40
0.18
309
CELLMARGIN_END
 94
        6
 95
        1
302
GRIDFORMAT
  1
GRIDFORMAT_BEGIN
 90
        0
 91
        1
 62
     0
 92
       -2
340
0
 93
        0
 40
0.045
309
GRIDFORMAT_END
 95
        2
302
GRIDFORMAT
  1
GRIDFORMAT_BEGIN
 90
        0
 91
        1
 62
     0
 92
       -2
340
0
 93
        0
 40
0.045
309
GRIDFORMAT_END
 95
        4
302
GRIDFORMAT
  1
GRIDFORMAT_BEGIN
 90
        0
 91
        1
 62
     0
 92
       -2
340
0
 93
        0
 40
0.045
309
GRIDFORMAT_END
 95
        8
302
GRIDFORMAT
  1
GRIDFORMAT_BEGIN
 90
        0
 91
        1
 62
     0
 92
       -2
340
0
 93
        0
 40
0.045
309
GRIDFORMAT_END
 95
       16
302
GRIDFORMAT
  1
GRIDFORMAT_BEGIN
 90
        0
 91
        1
 62
     0
 92
       -2
340
0
 93
        0
 40
0.045
309
GRIDFORMAT_END
 95
       32
302
GRIDFORMAT
  1
GRIDFORMAT_BEGIN
 90
        0
 91
        1
 62
     0
 92
       -2
340
0
 93
        0
 40
0.045
309
GRIDFORMAT_END
309
TABLEFORMAT_END
  1
CELLSTYLE_BEGIN
 90
        3
 91
        2
300
_DATA
309
CELLSTYLE_END
  0
XRECORD
  5
E63
102
{ACAD_REACTORS
330
C49
102
}
330
C49
100
AcDbXrecord
280
     1
102
ACAD_ROUNDTRIP_PRE2007_TABLESTYLE
 90
      512
 91
        0
  1

 92
      512
 93
        0
  2

 94
      512
 95
        0
  3

  0
XRECORD
  5
E4E
102
{ACAD_REACTORS
330
E4D
102
}
330
E4D
100
AcDbXrecord
280
     1
102
RTVSPropertyOp0
 70
     1
102
RTVSPropertyOp1
 70
     1
102
RTVSPropertyOp2
 70
     1
102
RTVSPropertyOp3
 70
     1
102
RTVSPropertyOp4
 70
     1
102
RTVSPropertyOp5
 70
     1
102
RTVSPropertyOp6
 70
     1
102
RTVSPropertyOp7
 70
     1
102
RTVSPropertyOp8
 70
     1
102
RTVSPropertyOp9
 70
     1
102
RTVSPropertyOp10
 70
     1
102
RTVSPropertyOp11
 70
     1
102
RTVSPropertyOp12
 70
     1
102
RTVSPropertyOp13
 70
     1
102
RTVSPropertyOp14
 70
     1
102
RTVSPropertyOp15
 70
     1
102
RTVSPropertyOp16
 70
     1
102
RTVSPropertyOp17
 70
     1
102
RTVSPropertyOp18
 70
     1
102
RTVSPropertyOp19
 70
     1
102
RTVSPropertyOp20
 70
     1
102
RTVSPropertyOp21
 70
     1
102
RTVSPropertyOp22
 70
     1
102
RTVSPropertyOp23
 70
     1
102
RTVSPropertyOp24
 70
     1
102
RTVSPropertyOp25
 70
     1
102
RTVSPropertyOp26
 70
     1
102
RTVSPropertyOp27
 70
     1
  0
XRECORD
  5
E52
102
{ACAD_REACTORS
330
E51
102
}
330
E51
100
AcDbXrecord
280
     1
102
RTVSPropertyOp0
 70
     1
102
RTVSPropertyOp1
 70
     1
102
RTVSPropertyOp2
 70
     1
102
RTVSPropertyOp3
 70
     1
102
RTVSPropertyOp4
 70
     1
102
RTVSPropertyOp5
 70
     1
102
RTVSPropertyOp6
 70
     1
102
RTVSPropertyOp7
 70
     1
102
RTVSPropertyOp8
 70
     1
102
RTVSPropertyOp9
 70
     1
102
RTVSPropertyOp10
 70
     1
102
RTVSPropertyOp11
 70
     1
102
RTVSPropertyOp12
 70
     1
102
RTVSPropertyOp13
 70
     1
102
RTVSPropertyOp14
 70
     1
102
RTVSPropertyOp15
 70
     1
102
RTVSPropertyOp16
 70
     1
102
RTVSPropertyOp17
 70
     1
102
RTVSPropertyOp18
 70
     1
102
RTVSPropertyOp19
 70
     1
102
RTVSPropertyOp20
 70
     1
102
RTVSPropertyOp21
 70
     1
102
RTVSPropertyOp22
 70
     1
102
RTVSPropertyOp23
 70
     1
102
RTVSPropertyOp24
 70
     1
102
RTVSPropertyOp25
 70
     1
102
RTVSPropertyOp26
 70
     1
102
RTVSPropertyOp27
 70
     1
  0
XRECORD
  5
E50
102
{ACAD_REACTORS
330
E4F
102
}
330
E4F
100
AcDbXrecord
280
     1
102
RTVSPropertyOp0
 70
     1
102
RTVSPropertyOp1
 70
     1
102
RTVSPropertyOp2
 70
     1
102
RTVSPropertyOp3
 70
     1
102
RTVSPropertyOp4
 70
     1
102
RTVSPropertyOp5
 70
     1
102
RTVSPropertyOp6
 70
     1
102
RTVSPropertyOp7
 70
     1
102
RTVSPropertyOp8
 70
     1
102
RTVSPropertyOp9
 70
     1
102
RTVSPropertyOp10
 70
     1
102
RTVSPropertyOp11
 70
     1
102
RTVSPropertyOp12
 70
     1
102
RTVSPropertyOp13
 70
     1
102
RTVSPropertyOp14
 70
     1
102
RTVSPropertyOp15
 70
     1
102
RTVSPropertyOp16
 70
     1
102
RTVSPropertyOp17
 70
     1
102
RTVSPropertyOp18
 70
     1
102
RTVSPropertyOp19
 70
     1
102
RTVSPropertyOp20
 70
     1
102
RTVSPropertyOp21
 70
     1
102
RTVSPropertyOp22
 70
     1
102
RTVSPropertyOp23
 70
     1
102
RTVSPropertyOp24
 70
     1
102
RTVSPropertyOp25
 70
     1
102
RTVSPropertyOp26
 70
     1
102
RTVSPropertyOp27
 70
     1
  0
XRECORD
  5
E4C
102
{ACAD_REACTORS
330
E4B
102
}
330
E4B
100
AcDbXrecord
280
     1
102
RTVSPropertyOp0
 70
     1
102
RTVSPropertyOp1
 70
     1
102
RTVSPropertyOp2
 70
     1
102
RTVSPropertyOp3
 70
     1
102
RTVSPropertyOp4
 70
     1
102
RTVSPropertyOp5
 70
     1
102
RTVSPropertyOp6
 70
     1
102
RTVSPropertyOp7
 70
     1
102
RTVSPropertyOp8
 70
     1
102
RTVSPropertyOp9
 70
     1
102
RTVSPropertyOp10
 70
     1
102
RTVSPropertyOp11
 70
     1
102
RTVSPropertyOp12
 70
     1
102
RTVSPropertyOp13
 70
     1
102
RTVSPropertyOp14
 70
     1
102
RTVSPropertyOp15
 70
     1
102
RTVSPropertyOp16
 70
     1
102
RTVSPropertyOp17
 70
     1
102
RTVSPropertyOp18
 70
     1
102
RTVSPropertyOp19
 70
     1
102
RTVSPropertyOp20
 70
     1
102
RTVSPropertyOp21
 70
     1
102
RTVSPropertyOp22
 70
     1
102
RTVSPropertyOp23
 70
     1
102
RTVSPropertyOp24
 70
     1
102
RTVSPropertyOp25
 70
     1
102
RTVSPropertyOp26
 70
     1
102
RTVSPropertyOp27
 70
     1
  0
XRECORD
  5
E5A
102
{ACAD_REACTORS
330
E59
102
}
330
E59
100
AcDbXrecord
280
     1
102
RTVSPropertyOp0
 70
     1
102
RTVSPropertyOp1
 70
     1
102
RTVSPropertyOp2
 70
     1
102
RTVSPropertyOp3
 70
     1
102
RTVSPropertyOp4
 70
     1
102
RTVSPropertyOp5
 70
     1
102
RTVSPropertyOp6
 70
     1
102
RTVSPropertyOp7
 70
     1
102
RTVSPropertyOp8
 70
     1
102
RTVSPropertyOp9
 70
     1
102
RTVSPropertyOp10
 70
     1
102
RTVSPropertyOp11
 70
     1
102
RTVSPropertyOp12
 70
     1
102
RTVSPropertyOp13
 70
     1
102
RTVSPropertyOp14
 70
     1
102
RTVSPropertyOp15
 70
     1
102
RTVSPropertyOp16
 70
     1
102
RTVSPropertyOp17
 70
     1
102
RTVSPropertyOp18
 70
     1
102
RTVSPropertyOp19
 70
     1
102
RTVSPropertyOp20
 70
     1
102
RTVSPropertyOp21
 70
     1
102
RTVSPropertyOp22
 70
     1
102
RTVSPropertyOp23
 70
     1
102
RTVSPropertyOp24
 70
     1
102
RTVSPropertyOp25
 70
     1
102
RTVSPropertyOp26
 70
     1
102
RTVSPropertyOp27
 70
     1
  0
XRECORD
  5
E62
102
{ACAD_REACTORS
330
E61
102
}
330
E61
100
AcDbXrecord
280
     1
102
RTVSPropertyOp0
 70
     1
102
RTVSPropertyOp1
 70
     1
102
RTVSPropertyOp2
 70
     1
102
RTVSPropertyOp3
 70
     1
102
RTVSPropertyOp4
 70
     1
102
RTVSPropertyOp5
 70
     1
102
RTVSPropertyOp6
 70
     1
102
RTVSPropertyOp7
 70
     1
102
RTVSPropertyOp8
 70
     1
102
RTVSPropertyOp9
 70
     1
102
RTVSPropertyOp10
 70
     1
102
RTVSPropertyOp11
 70
     1
102
RTVSPropertyOp12
 70
     1
102
RTVSPropertyOp13
 70
     1
102
RTVSPropertyOp14
 70
     1
102
RTVSPropertyOp15
 70
     1
102
RTVSPropertyOp16
 70
     1
102
RTVSPropertyOp17
 70
     1
102
RTVSPropertyOp18
 70
     1
102
RTVSPropertyOp19
 70
     1
102
RTVSPropertyOp20
 70
     1
102
RTVSPropertyOp21
 70
     1
102
RTVSPropertyOp22
 70
     1
102
RTVSPropertyOp23
 70
     1
102
RTVSPropertyOp24
 70
     1
102
RTVSPropertyOp25
 70
     1
102
RTVSPropertyOp26
 70
     1
102
RTVSPropertyOp27
 70
     1
  0
XRECORD
  5
E54
102
{ACAD_REACTORS
330
E53
102
}
330
E53
100
AcDbXrecord
280
     1
102
RTVSPropertyOp0
 70
     1
102
RTVSPropertyOp1
 70
     1
102
RTVSPropertyOp2
 70
     1
102
RTVSPropertyOp3
 70
     1
102
RTVSPropertyOp4
 70
     1
102
RTVSPropertyOp5
 70
     1
102
RTVSPropertyOp6
 70
     1
102
RTVSPropertyOp7
 70
     1
102
RTVSPropertyOp8
 70
     1
102
RTVSPropertyOp9
 70
     1
102
RTVSPropertyOp10
 70
     1
102
RTVSPropertyOp11
 70
     1
102
RTVSPropertyOp12
 70
     1
102
RTVSPropertyOp13
 70
     1
102
RTVSPropertyOp14
 70
     1
102
RTVSPropertyOp15
 70
     1
102
RTVSPropertyOp16
 70
     1
102
RTVSPropertyOp17
 70
     1
102
RTVSPropertyOp18
 70
     1
102
RTVSPropertyOp19
 70
     1
102
RTVSPropertyOp20
 70
     1
102
RTVSPropertyOp21
 70
     1
102
RTVSPropertyOp22
 70
     1
102
RTVSPropertyOp23
 70
     1
102
RTVSPropertyOp24
 70
     1
102
RTVSPropertyOp25
 70
     1
102
RTVSPropertyOp26
 70
     1
102
RTVSPropertyOp27
 70
     1
  0
XRECORD
  5
E58
102
{ACAD_REACTORS
330
E57
102
}
330
E57
100
AcDbXrecord
280
     1
102
RTVSPropertyOp0
 70
     1
102
RTVSPropertyOp1
 70
     1
102
RTVSPropertyOp2
 70
     1
102
RTVSPropertyOp3
 70
     1
102
RTVSPropertyOp4
 70
     1
102
RTVSPropertyOp5
 70
     1
102
RTVSPropertyOp6
 70
     1
102
RTVSPropertyOp7
 70
     1
102
RTVSPropertyOp8
 70
     1
102
RTVSPropertyOp9
 70
     1
102
RTVSPropertyOp10
 70
     1
102
RTVSPropertyOp11
 70
     1
102
RTVSPropertyOp12
 70
     1
102
RTVSPropertyOp13
 70
     1
102
RTVSPropertyOp14
 70
     1
102
RTVSPropertyOp15
 70
     1
102
RTVSPropertyOp16
 70
     1
102
RTVSPropertyOp17
 70
     1
102
RTVSPropertyOp18
 70
     1
102
RTVSPropertyOp19
 70
     1
102
RTVSPropertyOp20
 70
     1
102
RTVSPropertyOp21
 70
     1
102
RTVSPropertyOp22
 70
     1
102
RTVSPropertyOp23
 70
     1
102
RTVSPropertyOp24
 70
     1
102
RTVSPropertyOp25
 70
     1
102
RTVSPropertyOp26
 70
     1
102
RTVSPropertyOp27
 70
     1
  0
XRECORD
  5
E6A
102
{ACAD_REACTORS
330
E69
102
}
330
E69
100
AcDbXrecord
280
     1
102
RTVSPropertyOp0
 70
     0
102
RTVSPropertyOp1
 70
     0
102
RTVSPropertyOp2
 70
     0
102
RTVSPropertyOp3
 70
     0
102
RTVSPropertyOp4
 70
     0
102
RTVSPropertyOp5
 70
     0
102
RTVSPropertyOp6
 70
     0
102
RTVSPropertyOp7
 70
     0
102
RTVSPropertyOp8
 70
     0
102
RTVSPropertyOp9
 70
     0
102
RTVSPropertyOp10
 70
     0
102
RTVSPropertyOp11
 70
     0
102
RTVSPropertyOp12
 70
     0
102
RTVSPropertyOp13
 70
     0
102
RTVSPropertyOp14
 70
     2
102
RTVSPropertyOp15
 70
     0
102
RTVSPropertyOp16
 70
     0
102
RTVSPropertyOp17
 70
     0
102
RTVSPropertyOp18
 70
     0
102
RTVSPropertyOp19
 70
     0
102
RTVSPropertyOp20
 70
     0
102
RTVSPropertyOp21
 70
     0
102
RTVSPropertyOp22
 70
     0
102
RTVSPropertyOp23
 70
     0
102
RTVSPropertyOp24
 70
     0
102
RTVSPropertyOp25
 70
     0
102
RTVSPropertyOp26
 70
     0
102
RTVSPropertyOp27
 70
     0
  0
XRECORD
  5
E60
102
{ACAD_REACTORS
330
E5F
102
}
330
E5F
100
AcDbXrecord
280
     1
102
RTVSPropertyOp0
 70
     1
102
RTVSPropertyOp1
 70
     1
102
RTVSPropertyOp2
 70
     1
102
RTVSPropertyOp3
 70
     1
102
RTVSPropertyOp4
 70
     1
102
RTVSPropertyOp5
 70
     1
102
RTVSPropertyOp6
 70
     1
102
RTVSPropertyOp7
 70
     1
102
RTVSPropertyOp8
 70
     1
102
RTVSPropertyOp9
 70
     1
102
RTVSPropertyOp10
 70
     1
102
RTVSPropertyOp11
 70
     1
102
RTVSPropertyOp12
 70
     1
102
RTVSPropertyOp13
 70
     1
102
RTVSPropertyOp14
 70
     1
102
RTVSPropertyOp15
 70
     1
102
RTVSPropertyOp16
 70
     1
102
RTVSPropertyOp17
 70
     1
102
RTVSPropertyOp18
 70
     1
102
RTVSPropertyOp19
 70
     1
102
RTVSPropertyOp20
 70
     1
102
RTVSPropertyOp21
 70
     1
102
RTVSPropertyOp22
 70
     1
102
RTVSPropertyOp23
 70
     1
102
RTVSPropertyOp24
 70
     1
102
RTVSPropertyOp25
 70
     1
102
RTVSPropertyOp26
 70
     1
102
RTVSPropertyOp27
 70
     1
  0
XRECORD
  5
E44
102
{ACAD_REACTORS
330
E43
102
}
330
E43
100
AcDbXrecord
280
     1
102
RTVSPropertyOp0
 70
     1
102
RTVSPropertyOp1
 70
     1
102
RTVSPropertyOp2
 70
     1
102
RTVSPropertyOp3
 70
     1
102
RTVSPropertyOp4
 70
     1
102
RTVSPropertyOp5
 70
     1
102
RTVSPropertyOp6
 70
     1
102
RTVSPropertyOp7
 70
     1
102
RTVSPropertyOp8
 70
     1
102
RTVSPropertyOp9
 70
     1
102
RTVSPropertyOp10
 70
     1
102
RTVSPropertyOp11
 70
     1
102
RTVSPropertyOp12
 70
     1
102
RTVSPropertyOp13
 70
     1
102
RTVSPropertyOp14
 70
     1
102
RTVSPropertyOp15
 70
     1
102
RTVSPropertyOp16
 70
     1
102
RTVSPropertyOp17
 70
     1
102
RTVSPropertyOp18
 70
     1
102
RTVSPropertyOp19
 70
     1
102
RTVSPropertyOp20
 70
     1
102
RTVSPropertyOp21
 70
     1
102
RTVSPropertyOp22
 70
     1
102
RTVSPropertyOp23
 70
     1
102
RTVSPropertyOp24
 70
     1
102
RTVSPropertyOp25
 70
     1
102
RTVSPropertyOp26
 70
     1
102
RTVSPropertyOp27
 70
     1
  0
XRECORD
  5
E46
102
{ACAD_REACTORS
330
E45
102
}
330
E45
100
AcDbXrecord
280
     1
102
RTVSPropertyOp0
 70
     1
102
RTVSPropertyOp1
 70
     1
102
RTVSPropertyOp2
 70
     1
102
RTVSPropertyOp3
 70
     1
102
RTVSPropertyOp4
 70
     1
102
RTVSPropertyOp5
 70
     1
102
RTVSPropertyOp6
 70
     1
102
RTVSPropertyOp7
 70
     1
102
RTVSPropertyOp8
 70
     1
102
RTVSPropertyOp9
 70
     1
102
RTVSPropertyOp10
 70
     1
102
RTVSPropertyOp11
 70
     1
102
RTVSPropertyOp12
 70
     1
102
RTVSPropertyOp13
 70
     1
102
RTVSPropertyOp14
 70
     1
102
RTVSPropertyOp15
 70
     1
102
RTVSPropertyOp16
 70
     1
102
RTVSPropertyOp17
 70
     1
102
RTVSPropertyOp18
 70
     1
102
RTVSPropertyOp19
 70
     1
102
RTVSPropertyOp20
 70
     1
102
RTVSPropertyOp21
 70
     1
102
RTVSPropertyOp22
 70
     1
102
RTVSPropertyOp23
 70
     1
102
RTVSPropertyOp24
 70
     1
102
RTVSPropertyOp25
 70
     1
102
RTVSPropertyOp26
 70
     1
102
RTVSPropertyOp27
 70
     1
  0
XRECORD
  5
E48
102
{ACAD_REACTORS
330
E47
102
}
330
E47
100
AcDbXrecord
280
     1
102
RTVSPropertyOp0
 70
     1
102
RTVSPropertyOp1
 70
     1
102
RTVSPropertyOp2
 70
     1
102
RTVSPropertyOp3
 70
     1
102
RTVSPropertyOp4
 70
     1
102
RTVSPropertyOp5
 70
     1
102
RTVSPropertyOp6
 70
     1
102
RTVSPropertyOp7
 70
     1
102
RTVSPropertyOp8
 70
     1
102
RTVSPropertyOp9
 70
     1
102
RTVSPropertyOp10
 70
     1
102
RTVSPropertyOp11
 70
     1
102
RTVSPropertyOp12
 70
     1
102
RTVSPropertyOp13
 70
     1
102
RTVSPropertyOp14
 70
     1
102
RTVSPropertyOp15
 70
     1
102
RTVSPropertyOp16
 70
     1
102
RTVSPropertyOp17
 70
     1
102
RTVSPropertyOp18
 70
     1
102
RTVSPropertyOp19
 70
     1
102
RTVSPropertyOp20
 70
     1
102
RTVSPropertyOp21
 70
     1
102
RTVSPropertyOp22
 70
     1
102
RTVSPropertyOp23
 70
     1
102
RTVSPropertyOp24
 70
     1
102
RTVSPropertyOp25
 70
     1
102
RTVSPropertyOp26
 70
     1
102
RTVSPropertyOp27
 70
     1
  0
XRECORD
  5
E4A
102
{ACAD_REACTORS
330
E49
102
}
330
E49
100
AcDbXrecord
280
     1
102
RTVSPropertyOp0
 70
     1
102
RTVSPropertyOp1
 70
     1
102
RTVSPropertyOp2
 70
     1
102
RTVSPropertyOp3
 70
     1
102
RTVSPropertyOp4
 70
     1
102
RTVSPropertyOp5
 70
     1
102
RTVSPropertyOp6
 70
     1
102
RTVSPropertyOp7
 70
     1
102
RTVSPropertyOp8
 70
     1
102
RTVSPropertyOp9
 70
     1
102
RTVSPropertyOp10
 70
     1
102
RTVSPropertyOp11
 70
     1
102
RTVSPropertyOp12
 70
     1
102
RTVSPropertyOp13
 70
     1
102
RTVSPropertyOp14
 70
     1
102
RTVSPropertyOp15
 70
     1
102
RTVSPropertyOp16
 70
     1
102
RTVSPropertyOp17
 70
     1
102
RTVSPropertyOp18
 70
     1
102
RTVSPropertyOp19
 70
     1
102
RTVSPropertyOp20
 70
     1
102
RTVSPropertyOp21
 70
     1
102
RTVSPropertyOp22
 70
     1
102
RTVSPropertyOp23
 70
     1
102
RTVSPropertyOp24
 70
     1
102
RTVSPropertyOp25
 70
     1
102
RTVSPropertyOp26
 70
     1
102
RTVSPropertyOp27
 70
     1
  0
XRECORD
  5
E66
102
{ACAD_REACTORS
330
E65
102
}
330
E65
100
AcDbXrecord
280
     1
102
RTVSPropertyOp0
 70
     0
102
RTVSPropertyOp1
 70
     0
102
RTVSPropertyOp2
 70
     0
102
RTVSPropertyOp3
 70
     0
102
RTVSPropertyOp4
 70
     0
102
RTVSPropertyOp5
 70
     0
102
RTVSPropertyOp6
 70
     0
102
RTVSPropertyOp7
 70
     0
102
RTVSPropertyOp8
 70
     0
102
RTVSPropertyOp9
 70
     0
102
RTVSPropertyOp10
 70
     0
102
RTVSPropertyOp11
 70
     0
102
RTVSPropertyOp12
 70
     0
102
RTVSPropertyOp13
 70
     0
102
RTVSPropertyOp14
 70
     2
102
RTVSPropertyOp15
 70
     0
102
RTVSPropertyOp16
 70
     0
102
RTVSPropertyOp17
 70
     0
102
RTVSPropertyOp18
 70
     0
102
RTVSPropertyOp19
 70
     0
102
RTVSPropertyOp20
 70
     0
102
RTVSPropertyOp21
 70
     0
102
RTVSPropertyOp22
 70
     0
102
RTVSPropertyOp23
 70
     0
102
RTVSPropertyOp24
 70
     0
102
RTVSPropertyOp25
 70
     0
102
RTVSPropertyOp26
 70
     0
102
RTVSPropertyOp27
 70
     0
  0
XRECORD
  5
E5E
102
{ACAD_REACTORS
330
E5D
102
}
330
E5D
100
AcDbXrecord
280
     1
102
RTVSPropertyOp0
 70
     1
102
RTVSPropertyOp1
 70
     1
102
RTVSPropertyOp2
 70
     1
102
RTVSPropertyOp3
 70
     1
102
RTVSPropertyOp4
 70
     1
102
RTVSPropertyOp5
 70
     1
102
RTVSPropertyOp6
 70
     1
102
RTVSPropertyOp7
 70
     1
102
RTVSPropertyOp8
 70
     1
102
RTVSPropertyOp9
 70
     1
102
RTVSPropertyOp10
 70
     1
102
RTVSPropertyOp11
 70
     1
102
RTVSPropertyOp12
 70
     1
102
RTVSPropertyOp13
 70
     1
102
RTVSPropertyOp14
 70
     1
102
RTVSPropertyOp15
 70
     1
102
RTVSPropertyOp16
 70
     1
102
RTVSPropertyOp17
 70
     1
102
RTVSPropertyOp18
 70
     1
102
RTVSPropertyOp19
 70
     1
102
RTVSPropertyOp20
 70
     1
102
RTVSPropertyOp21
 70
     1
102
RTVSPropertyOp22
 70
     1
102
RTVSPropertyOp23
 70
     1
102
RTVSPropertyOp24
 70
     1
102
RTVSPropertyOp25
 70
     1
102
RTVSPropertyOp26
 70
     1
102
RTVSPropertyOp27
 70
     1
  0
XRECORD
  5
E68
102
{ACAD_REACTORS
330
E67
102
}
330
E67
100
AcDbXrecord
280
     1
102
RTVSPropertyOp0
 70
     0
102
RTVSPropertyOp1
 70
     0
102
RTVSPropertyOp2
 70
     0
102
RTVSPropertyOp3
 70
     0
102
RTVSPropertyOp4
 70
     0
102
RTVSPropertyOp5
 70
     0
102
RTVSPropertyOp6
 70
     0
102
RTVSPropertyOp7
 70
     0
102
RTVSPropertyOp8
 70
     0
102
RTVSPropertyOp9
 70
     0
102
RTVSPropertyOp10
 70
     0
102
RTVSPropertyOp11
 70
     0
102
RTVSPropertyOp12
 70
     0
102
RTVSPropertyOp13
 70
     0
102
RTVSPropertyOp14
 70
     2
102
RTVSPropertyOp15
 70
     0
102
RTVSPropertyOp16
 70
     0
102
RTVSPropertyOp17
 70
     0
102
RTVSPropertyOp18
 70
     0
102
RTVSPropertyOp19
 70
     0
102
RTVSPropertyOp20
 70
     0
102
RTVSPropertyOp21
 70
     0
102
RTVSPropertyOp22
 70
     0
102
RTVSPropertyOp23
 70
     0
102
RTVSPropertyOp24
 70
     0
102
RTVSPropertyOp25
 70
     0
102
RTVSPropertyOp26
 70
     0
102
RTVSPropertyOp27
 70
     0
  0
XRECORD
  5
E56
102
{ACAD_REACTORS
330
E55
102
}
330
E55
100
AcDbXrecord
280
     1
102
RTVSPropertyOp0
 70
     1
102
RTVSPropertyOp1
 70
     1
102
RTVSPropertyOp2
 70
     1
102
RTVSPropertyOp3
 70
     1
102
RTVSPropertyOp4
 70
     1
102
RTVSPropertyOp5
 70
     1
102
RTVSPropertyOp6
 70
     1
102
RTVSPropertyOp7
 70
     1
102
RTVSPropertyOp8
 70
     1
102
RTVSPropertyOp9
 70
     1
102
RTVSPropertyOp10
 70
     1
102
RTVSPropertyOp11
 70
     1
102
RTVSPropertyOp12
 70
     1
102
RTVSPropertyOp13
 70
     1
102
RTVSPropertyOp14
 70
     1
102
RTVSPropertyOp15
 70
     1
102
RTVSPropertyOp16
 70
     1
102
RTVSPropertyOp17
 70
     1
102
RTVSPropertyOp18
 70
     1
102
RTVSPropertyOp19
 70
     1
102
RTVSPropertyOp20
 70
     1
102
RTVSPropertyOp21
 70
     1
102
RTVSPropertyOp22
 70
     1
102
RTVSPropertyOp23
 70
     1
102
RTVSPropertyOp24
 70
     1
102
RTVSPropertyOp25
 70
     1
102
RTVSPropertyOp26
 70
     1
102
RTVSPropertyOp27
 70
     1
  0
XRECORD
  5
E5C
102
{ACAD_REACTORS
330
E5B
102
}
330
E5B
100
AcDbXrecord
280
     1
102
RTVSPropertyOp0
 70
     1
102
RTVSPropertyOp1
 70
     1
102
RTVSPropertyOp2
 70
     1
102
RTVSPropertyOp3
 70
     1
102
RTVSPropertyOp4
 70
     1
102
RTVSPropertyOp5
 70
     1
102
RTVSPropertyOp6
 70
     1
102
RTVSPropertyOp7
 70
     1
102
RTVSPropertyOp8
 70
     1
102
RTVSPropertyOp9
 70
     1
102
RTVSPropertyOp10
 70
     1
102
RTVSPropertyOp11
 70
     1
102
RTVSPropertyOp12
 70
     1
102
RTVSPropertyOp13
 70
     1
102
RTVSPropertyOp14
 70
     1
102
RTVSPropertyOp15
 70
     1
102
RTVSPropertyOp16
 70
     1
102
RTVSPropertyOp17
 70
     1
102
RTVSPropertyOp18
 70
     1
102
RTVSPropertyOp19
 70
     1
102
RTVSPropertyOp20
 70
     1
102
RTVSPropertyOp21
 70
     1
102
RTVSPropertyOp22
 70
     1
102
RTVSPropertyOp23
 70
     1
102
RTVSPropertyOp24
 70
     1
102
RTVSPropertyOp25
 70
     1
102
RTVSPropertyOp26
 70
     1
102
RTVSPropertyOp27
 70
     1
  0
ENDSEC
  0
EOF
