  0
SECTION
  2
HEADER
  9
$ACADVER
  1
AC1015
  9
$ACADMAINTVER
 70
    20
  9
$DWGCODEPAGE
  3
ANSI_932
  9
$INSBASE
 10
0.0
 20
0.0
 30
0.0
  9
$EXTMIN
 10
-822.4662029080896
 20
-789.3229548950557
 30
0.0
  9
$EXTMAX
 10
1277.533797091911
 20
695.6770451049442
 30
0.0
  9
$LIMMIN
 10
-450.0
 20
-594.0
  9
$LIMMAX
 10
390.0000000000002
 20
594.0
  9
$ORTHOMODE
 70
     0
  9
$REGENMODE
 70
     1
  9
$FILLMODE
 70
     1
  9
$QTEXTMODE
 70
     0
  9
$MIRRTEXT
 70
     1
  9
$LTSCALE
 40
1.0
  9
$ATTMODE
 70
     1
  9
$TEXTSIZE
 40
16.66799926757812
  9
$TRACEWID
 40
0.05
  9
$TEXTSTYLE
  7
MX_NOTE_STANDARD
  9
$CLAYER
  8
DEFPOINTS
  9
$CELTYPE
  6
CONTINUOUS
  9
$CECOLOR
 62
   256
  9
$CELTSCALE
 40
1.0
  9
$DISPSILH
 70
     0
  9
$DIMSCALE
 40
4.0
  9
$DIMASZ
 40
2.5
  9
$DIMEXO
 40
1.269999980926513
  9
$DIMDLI
 40
3.75
  9
$DIMRND
 40
0.0
  9
$DIMDLE
 40
0.0
  9
$DIMEXE
 40
1.200000047683715
  9
$DIMTP
 40
0.0
  9
$DIMTM
 40
0.0
  9
$DIMTXT
 40
4.166999816894531
  9
$DIMCEN
 40
2.5
  9
$DIMTSZ
 40
0.0
  9
$DIMTOL
 70
     0
  9
$DIMLIM
 70
     0
  9
$DIMTIH
 70
     0
  9
$DIMTOH
 70
     0
  9
$DIMSE1
 70
     0
  9
$DIMSE2
 70
     0
  9
$DIMTAD
 70
     1
  9
$DIMZIN
 70
     8
  9
$DIMBLK
  1

  9
$DIMASO
 70
     1
  9
$DIMSHO
 70
     1
  9
$DIMPOST
  1

  9
$DIMAPOST
  1

  9
$DIMALT
 70
     0
  9
$DIMALTD
 70
     4
  9
$DIMALTF
 40
0.03937007874016
  9
$DIMLFAC
 40
1.0
  9
$DIMTOFL
 70
     1
  9
$DIMTVP
 40
0.0
  9
$DIMTIX
 70
     0
  9
$DIMSOXD
 70
     0
  9
$DIMSAH
 70
     0
  9
$DIMBLK1
  1

  9
$DIMBLK2
  1

  9
$DIMSTYLE
  2
MXDIMSTYLE
  9
$DIMCLRD
 70
     0
  9
$DIMCLRE
 70
     0
  9
$DIMCLRT
 70
     0
  9
$DIMTFAC
 40
1.0
  9
$DIMGAP
 40
1.0
  9
$DIMJUST
 70
     0
  9
$DIMSD1
 70
     0
  9
$DIMSD2
 70
     0
  9
$DIMTOLJ
 70
     1
  9
$DIMTZIN
 70
     0
  9
$DIMALTZ
 70
     0
  9
$DIMALTTZ
 70
     0
  9
$DIMUPT
 70
     1
  9
$DIMDEC
 70
     0
  9
$DIMTDEC
 70
     4
  9
$DIMALTU
 70
     2
  9
$DIMALTTD
 70
     4
  9
$DIMTXSTY
  7
MX_NOTE_STANDARD
  9
$DIMAUNIT
 70
     0
  9
$DIMADEC
 70
     0
  9
$DIMALTRND
 40
0.0
  9
$DIMAZIN
 70
     0
  9
$DIMDSEP
 70
     0
  9
$DIMATFIT
 70
     3
  9
$DIMFRAC
 70
     0
  9
$DIMLDRBLK
  1

  9
$DIMLUNIT
 70
     2
  9
$DIMLWD
 70
     0
  9
$DIMLWE
 70
     0
  9
$DIMTMOVE
 70
     0
  9
$LUNITS
 70
     2
  9
$LUPREC
 70
     2
  9
$SKETCHINC
 40
0.1
  9
$FILLETRAD
 40
0.0
  9
$AUNITS
 70
     0
  9
$AUPREC
 70
     0
  9
$MENU
  1
acad
  9
$ELEVATION
 40
0.0
  9
$PELEVATION
 40
0.0
  9
$THICKNESS
 40
0.0
  9
$LIMCHECK
 70
     0
  9
$CHAMFERA
 40
0.0
  9
$CHAMFERB
 40
0.0
  9
$CHAMFERC
 40
0.0
  9
$CHAMFERD
 40
0.0
  9
$SKPOLY
 70
     0
  9
$TDCREATE
 40
2454352.036504630
  9
$TDUCREATE
 40
2454351.661504630
  9
$TDUPDATE
 40
2457984.604891481
  9
$TDUUPDATE
 40
2457984.229891482
  9
$TDINDWG
 40
0.1817351273
  9
$TDUSRTIMER
 40
0.1817350926
  9
$USRTIMER
 70
     1
  9
$ANGBASE
 50
0.0
  9
$ANGDIR
 70
     0
  9
$PDMODE
 70
     0
  9
$PDSIZE
 40
0.0
  9
$PLINEWID
 40
0.0
  9
$SPLFRAME
 70
     0
  9
$SPLINETYPE
 70
     6
  9
$SPLINESEGS
 70
     8
  9
$HANDSEED
  5
8D1
  9
$SURFTAB1
 70
     6
  9
$SURFTAB2
 70
     6
  9
$SURFTYPE
 70
     6
  9
$SURFU
 70
     6
  9
$SURFV
 70
     6
  9
$UCSBASE
  2

  9
$UCSNAME
  2

  9
$UCSORG
 10
0.0
 20
0.0
 30
0.0
  9
$UCSXDIR
 10
1.0
 20
0.0
 30
0.0
  9
$UCSYDIR
 10
0.0
 20
1.0
 30
0.0
  9
$UCSORTHOREF
  2

  9
$UCSORTHOVIEW
 70
     0
  9
$UCSORGTOP
 10
0.0
 20
0.0
 30
0.0
  9
$UCSORGBOTTOM
 10
0.0
 20
0.0
 30
0.0
  9
$UCSORGLEFT
 10
0.0
 20
0.0
 30
0.0
  9
$UCSORGRIGHT
 10
0.0
 20
0.0
 30
0.0
  9
$UCSORGFRONT
 10
0.0
 20
0.0
 30
0.0
  9
$UCSORGBACK
 10
0.0
 20
0.0
 30
0.0
  9
$PUCSBASE
  2

  9
$PUCSNAME
  2

  9
$PUCSORG
 10
0.0
 20
0.0
 30
0.0
  9
$PUCSXDIR
 10
1.0
 20
0.0
 30
0.0
  9
$PUCSYDIR
 10
0.0
 20
1.0
 30
0.0
  9
$PUCSORTHOREF
  2

  9
$PUCSORTHOVIEW
 70
     0
  9
$PUCSORGTOP
 10
0.0
 20
0.0
 30
0.0
  9
$PUCSORGBOTTOM
 10
0.0
 20
0.0
 30
0.0
  9
$PUCSORGLEFT
 10
0.0
 20
0.0
 30
0.0
  9
$PUCSORGRIGHT
 10
0.0
 20
0.0
 30
0.0
  9
$PUCSORGFRONT
 10
0.0
 20
0.0
 30
0.0
  9
$PUCSORGBACK
 10
0.0
 20
0.0
 30
0.0
  9
$USERI1
 70
     0
  9
$USERI2
 70
     0
  9
$USERI3
 70
     0
  9
$USERI4
 70
     0
  9
$USERI5
 70
     0
  9
$USERR1
 40
0.0
  9
$USERR2
 40
0.0
  9
$USERR3
 40
0.0
  9
$USERR4
 40
0.0
  9
$USERR5
 40
0.0
  9
$WORLDVIEW
 70
     1
  9
$SHADEDGE
 70
     3
  9
$SHADEDIF
 70
    70
  9
$TILEMODE
 70
     1
  9
$MAXACTVP
 70
    16
  9
$PINSBASE
 10
0.0
 20
0.0
 30
0.0
  9
$PLIMCHECK
 70
     0
  9
$PEXTMIN
 10
1.000000000000000E+20
 20
1.000000000000000E+20
 30
1.000000000000000E+20
  9
$PEXTMAX
 10
-1.000000000000000E+20
 20
-1.000000000000000E+20
 30
-1.000000000000000E+20
  9
$PLIMMIN
 10
0.0
 20
0.0
  9
$PLIMMAX
 10
12.0
 20
9.0
  9
$UNITMODE
 70
     0
  9
$VISRETAIN
 70
     0
  9
$PLINEGEN
 70
     1
  9
$PSLTSCALE
 70
     0
  9
$TREEDEPTH
 70
  3020
  9
$CMLSTYLE
  2
Standard
  9
$CMLJUST
 70
     0
  9
$CMLSCALE
 40
1.0
  9
$PROXYGRAPHICS
 70
     1
  9
$MEASUREMENT
 70
     1
  9
$CELWEIGHT
370
     0
  9
$ENDCAPS
280
     0
  9
$JOINSTYLE
280
     0
  9
$LWDISPLAY
290
     0
  9
$INSUNITS
 70
     0
  9
$HYPERLINKBASE
  1

  9
$STYLESHEET
  1

  9
$XEDIT
290
     1
  9
$CEPSNTYPE
380
     0
  9
$PSTYLEMODE
290
     1
  9
$FINGERPRINTGUID
  2

  9
$VERSIONGUID
  2
{CD9CE859-7520-4F43-B288-40AC3F1F87D8}
  9
$EXTNAMES
290
     1
  9
$PSVPSCALE
 40
0.0
  9
$OLESTARTUP
290
     0
  0
ENDSEC
  0
SECTION
  2
CLASSES
  0
CLASS
  1
IMAGE
  2
AcDbRasterImage
  3
ISM
 90
    34943
280
     0
281
     1
  0
CLASS
  1
DICTIONARYVAR
  2
AcDbDictionaryVar
  3
ObjectDBX Classes
 90
        0
280
     0
281
     0
  0
CLASS
  1
RASTERVARIABLES
  2
AcDbRasterVariables
  3
ISM
 90
    32768
280
     0
281
     0
  0
CLASS
  1
IMAGEDEF
  2
AcDbRasterImageDef
  3
ISM
 90
    32768
280
     0
281
     0
  0
CLASS
  1
IMAGEDEF_REACTOR
  2
AcDbRasterImageDefReactor
  3
ISM
 90
    32769
280
     0
281
     0
  0
CLASS
  1
IDBUFFER
  2
AcDbIdBuffer
  3
ObjectDBX Classes
 90
    32768
280
     0
281
     0
  0
CLASS
  1
SPATIAL_FILTER
  2
AcDbSpatialFilter
  3
ObjectDBX Classes
 90
    32768
280
     0
281
     0
  0
CLASS
  1
SORTENTSTABLE
  2
AcDbSortentsTable
  3
ObjectDBX Classes
 90
        0
280
     0
281
     0
  0
CLASS
  1
LAYER_INDEX
  2
AcDbLayerIndex
  3
ObjectDBX Classes
 90
    32768
280
     0
281
     0
  0
CLASS
  1
SPATIAL_INDEX
  2
AcDbSpatialIndex
  3
ObjectDBX Classes
 90
    32768
280
     0
281
     0
  0
CLASS
  1
OBJECT_PTR
  2
CAseDLPNTableRecord
  3
ASE-LPNTableRecord
 90
    32769
280
     0
281
     0
  0
CLASS
  1
PLOTSETTINGS
  2
AcDbPlotSettings
  3
ObjectDBX Classes
 90
    32768
280
     0
281
     0
  0
CLASS
  1
ACDBDICTIONARYWDFLT
  2
AcDbDictionaryWithDefault
  3
ObjectDBX Classes
 90
        0
280
     0
281
     0
  0
CLASS
  1
MATERIAL
  2
AcDbMaterial
  3
ObjectDBX Classes
 90
     1153
280
     0
281
     0
  0
CLASS
  1
VISUALSTYLE
  2
AcDbVisualStyle
  3
ObjectDBX Classes
 90
     4095
280
     0
281
     0
  0
CLASS
  1
TABLESTYLE
  2
AcDbTableStyle
  3
ObjectDBX Classes
 90
     4095
280
     0
281
     0
  0
CLASS
  1
ACME_DOCUMENT
  2
AcMeDbDoc
  3
AcMeServices
 90
     1024
280
     0
281
     0
  0
CLASS
  1
AMGSETTINGSOBJ
  2
AmgSettingsObj
  3
"AcadM|Product Description: AutoCAD Mechanical|Company: Autodesk, Inc."
 90
     1024
280
     0
281
     0
  0
CLASS
  1
ACMESCOPE
  2
AcMeScope
  3
AcMeServices
 90
     1024
280
     0
281
     0
  0
CLASS
  1
ACMECOMMANDHISTORY
  2
AcMeCommandHistory
  3
AcMeServices
 90
     1024
280
     0
281
     0
  0
CLASS
  1
ACIMSYSVARMAN
  2
AcImSysVarManager
  3
AcMeServices
 90
     1024
280
     0
281
     0
  0
CLASS
  1
ACIMINTSYSVAR
  2
AcImIntSysVar
  3
AcMeServices
 90
     1024
280
     0
281
     0
  0
CLASS
  1
ACMEDRAWINGMAN
  2
AcMeDrawingMan
  3
AcMeServices
 90
     1024
280
     0
281
     0
  0
CLASS
  1
ACMEVIEW
  2
AcMeView
  3
AcMeServices
 90
     1024
280
     0
281
     0
  0
CLASS
  1
ACDBENTITYCACHE
  2
AcMeEntityCache
  3
AcMeServices
 90
     1024
280
     0
281
     0
  0
CLASS
  1
GSMANAGER
  2
AcMeGSManager
  3
AcMeServices
 90
    32768
280
     0
281
     0
  0
CLASS
  1
AMDTINTERNALREACTOR
  2
AmdtInternalReactor
  3
AcMeServices
 90
     1024
280
     0
281
     0
  0
CLASS
  1
ACMESTATEMGR
  2
AcMeStateMgr
  3
AcMeServices
 90
     1024
280
     0
281
     0
  0
CLASS
  1
ACGREFMASTER
  2
AcGrefMaster
  3
AcAttribServices
 90
     1024
280
     0
281
     0
  0
CLASS
  1
AM_DRAWING_MGR
  2
AcDmDwgMgr
  3
AcMechDwgViewMgmt
 90
     1024
280
     0
281
     0
  0
CLASS
  1
AM_DWG_DOCUMENT
  2
AcDmDwgDocument
  3
AcMechDwgViewMgmt
 90
     1024
280
     0
281
     0
  0
CLASS
  1
AM_DWG_SHEET
  2
AcDmSheet
  3
AcMechDwgViewMgmt
 90
     1024
280
     0
281
     0
  0
CLASS
  1
AM_VIEWDIMPARMAP
  2
AcDmViewDimParMap
  3
AcMechDwgViewMgmt
 90
     1024
280
     0
281
     0
  0
CLASS
  1
ACIMREALSYSVAR
  2
AcImRealSysVar
  3
AcMeServices
 90
     1024
280
     0
281
     0
  0
CLASS
  1
AM_DWGMGR_NAME
  2
AcDmDwgMgrName
  3
AcMechDwgViewMgmt
 90
     1024
280
     0
281
     0
  0
CLASS
  1
ACME_DATABASE
  2
AcMeDbDatabase
  3
AcMeServices
 90
     1024
280
     0
281
     0
  0
CLASS
  1
ACRFINSADJUSTERMGR
  2
AcRfInsAdjusterMgr
  3
AcMeServices
 90
     1024
280
     0
281
     0
  0
CLASS
  1
ACGREFACADMASTER
  2
AcGrefacadMaster
  3
AcGrefServices
 90
     1024
280
     0
281
     0
  0
CLASS
  1
AMDTMENUSTATEMGR
  2
AmdtMenuStateMgr
  3
McadcomServices
 90
     1024
280
     0
281
     0
  0
CLASS
  1
AMDTMCOMMENUSTATE
  2
AmdtMcomMenuState
  3
McadcomServices
 90
     1024
280
     0
281
     0
  0
CLASS
  1
AMIMASTER
  2
AmiMaster
  3
AmiServices
 90
     1024
280
     0
281
     0
  0
CLASS
  1
MAPIAMMOUDLE
  2
MApiAmModule
  3
MApiAmServices
 90
     1024
280
     0
281
     0
  0
CLASS
  1
ACIMSTRSYSVAR
  2
AcImStrSysVar
  3
AcMeServices
 90
     1024
280
     0
281
     0
  0
CLASS
  1
AMDTADMENUSTATE
  2
AmdtAdMenuState
  3
DesignerServices
 90
     1024
280
     0
281
     0
  0
CLASS
  1
ADAPPL
  2
AcAdAppl
  3
DesignerServices
 90
     1024
280
     0
281
     0
  0
CLASS
  1
DEPMGR
  2
AcAdDepMgr
  3
DesignerServices
 90
     1024
280
     0
281
     0
  0
CLASS
  1
PARAMMGR
  2
AcAdParamMgr
  3
DesignerServices
 90
     1024
280
     0
281
     0
  0
CLASS
  1
PARAMSCOPE
  2
AcAdParamScope
  3
DesignerServices
 90
     1024
280
     0
281
     0
  0
CLASS
  1
NAMEDAPPL
  2
AcAdNamedAppl
  3
DesignerServices
 90
     1024
280
     0
281
     0
  0
CLASS
  1
AMDTDMMENUSTATE
  2
AmdtDmMenuState
  3
AcMechDwgViewMgmt
 90
     1024
280
     0
281
     0
  0
CLASS
  1
AMDTAMMENUSTATE
  2
AmdtAmMenuState
  3
DesignerAssemblies
 90
     1024
280
     0
281
     0
  0
CLASS
  1
ACAMPROJECT
  2
AcAmProject
  3
DesignerAssemblies
 90
     1024
280
     0
281
     0
  0
CLASS
  1
ACAMGRCOMPDEF
  2
AcAmGrCompDef
  3
DesignerAssemblies
 90
     1024
280
     0
281
     0
  0
CLASS
  1
ACCMCONTEXT
  2
AcCmContext
  3
DesignerAssemblies
 90
    33792
280
     0
281
     0
  0
CLASS
  1
ACAMCOMPDEF
  2
AcAmCompDef
  3
DesignerAssemblies
 90
     1024
280
     0
281
     0
  0
CLASS
  1
ACAMCOMPDEFMGR
  2
AcAmCompDefMgr
  3
DesignerAssemblies
 90
     1024
280
     0
281
     0
  0
CLASS
  1
AMCONTEXTMGR
  2
AcAmContextMgr
  3
DesignerAssemblies
 90
     1024
280
     0
281
     0
  0
CLASS
  1
ACAMCONTEXTMODELER
  2
AcAmContextModeler
  3
DesignerAssemblies
 90
     1024
280
     0
281
     0
  0
CLASS
  1
ACMDATADICTIONARY
  2
AcmDataDictionary
  3
"AcmSymBB|Product Description: AutoCAD Mechanical|Company: Autodesk, Inc."
 90
     1024
280
     0
281
     0
  0
CLASS
  1
CATALOGSTATE
  2
AcAmCatalogState
  3
DesignerAssemblies
 90
     1024
280
     0
281
     0
  0
CLASS
  1
ACAMGRCOMPDEFSET
  2
AcAmGrCompDefSet
  3
DesignerAssemblies
 90
     1024
280
     0
281
     0
  0
CLASS
  1
AMDTBROWSERDBTAB
  2
AmdtBrowserDbTab
  3
McadcomServices
 90
     1024
280
     0
281
     0
  0
CLASS
  1
CBROWSERAPPOBJECT
  2
CBrowserAppObject
  3
McadcomServices
 90
     1024
280
     0
281
     0
  0
CLASS
  1
DM_PLACEHOLDER
  2
AcDmSelsetPlaceholder
  3
AcMechDwgViewMgmt
 90
     1024
280
     0
281
     0
  0
CLASS
  1
ACMSTANDARDISO
  2
AcmStandardISO
  3
"Amdt_StdImp|Product Description: AutoCAD Mechanical|Company: Autodesk, Inc."
 90
     1024
280
     0
281
     0
  0
CLASS
  1
AMGOBJPROPCFG
  2
AmgObjPropCfg
  3
"AmgLay|Product Description: AutoCAD Mechanical|Company: Autodesk, Inc."
 90
     1025
280
     0
281
     0
  0
CLASS
  1
AMDTEDGESTANDARDISO13715
  2
AmdtEdgeStdISO13715
  3
"Amdt_StdImp|Product Description: AutoCAD Mechanical|Company: Autodesk, Inc."
 90
     1024
280
     0
281
     0
  0
CLASS
  1
ACMSURFSTANDARDISO
  2
AcmSurfTextStdISO
  3
"Amdt_StdImp|Product Description: AutoCAD Mechanical|Company: Autodesk, Inc."
 90
    33792
280
     0
281
     0
  0
CLASS
  1
ACMFCFSTANDARDISO
  2
AcmFCFStdISO
  3
"Amdt_StdImp|Product Description: AutoCAD Mechanical|Company: Autodesk, Inc."
 90
     1024
280
     0
281
     0
  0
CLASS
  1
ACMWELDSTANDARDISO
  2
AcmWeldingStdISO
  3
"Amdt_StdImp|Product Description: AutoCAD Mechanical|Company: Autodesk, Inc."
 90
     1024
280
     0
281
     0
  0
CLASS
  1
ACMIDSTANDARDISO
  2
AcmIdStdISO
  3
"Amdt_StdImp|Product Description: AutoCAD Mechanical|Company: Autodesk, Inc."
 90
     1024
280
     0
281
     0
  0
CLASS
  1
ACMDATUMSTANDARDISO
  2
AcmDatumStdISO
  3
"Amdt_StdImp|Product Description: AutoCAD Mechanical|Company: Autodesk, Inc."
 90
     1024
280
     0
281
     0
  0
CLASS
  1
ACMBOMSTANDARDISO
  2
AcmBOMStdISO
  3
"Amdt_StdImp|Product Description: AutoCAD Mechanical|Company: Autodesk, Inc."
 90
     1024
280
     0
281
     0
  0
CLASS
  1
ACMDETAILSTANDARDISO
  2
AmdtDetailSymStdISO
  3
"Amdt_StdImp|Product Description: AutoCAD Mechanical|Company: Autodesk, Inc."
 90
     1024
280
     0
281
     0
  0
CLASS
  1
ACMSECTIONSTANDARDISO
  2
AmdtSectionSymStdISO
  3
"Amdt_StdImp|Product Description: AutoCAD Mechanical|Company: Autodesk, Inc."
 90
    33792
280
     0
281
     0
  0
CLASS
  1
ACMCENTERLINESTANDARDISO
  2
AmdtCenterLineStdISO
  3
"Amdt_StdImp|Product Description: AutoCAD Mechanical|Company: Autodesk, Inc."
 90
     1024
280
     0
281
     0
  0
CLASS
  1
ACMTHREADLINESTANDARDISO
  2
AmdtThreadLineStdISO
  3
"Amdt_StdImp|Product Description: AutoCAD Mechanical|Company: Autodesk, Inc."
 90
     1024
280
     0
281
     0
  0
CLASS
  1
ACMNOTESTANDARDISO
  2
AmdtNoteStdISO
  3
"Amdt_StdImp|Product Description: AutoCAD Mechanical|Company: Autodesk, Inc."
 90
     1024
280
     0
281
     0
  0
CLASS
  1
ACMTAPERSTANDARDISO
  2
AcmTaperStdISO
  3
"Amdt_StdImp|Product Description: AutoCAD Mechanical|Company: Autodesk, Inc."
 90
     1024
280
     0
281
     0
  0
CLASS
  1
AMDTNOTETEMPLATEDB
  2
AmdtNoteTemplateDB
  3
AcmSymBB|Product Description: AutoCAD Mechanical|Company: Autodesk, Inc.
 90
     1024
280
     0
281
     0
  0
CLASS
  1
ACAMGLAYSTD
  2
AcAmgLayStd
  3
"AmgLay|Product Description: AutoCAD Mechanical|Company: Autodesk, Inc."
 90
     1024
280
     0
281
     0
  0
CLASS
  1
ACAMGDIMSTD
  2
AcAmgDimStd
  3
"AmgDim|Product Description: AutoCAD Mechanical|Company: Autodesk, Inc."
 90
     1024
280
     0
281
     0
  0
CLASS
  1
ACAMGHOLECHARTSTDISO
  2
AcAmgHoleChartStdISO
  3
AmgDim|Product Description: AutoCAD Mechanical|Company: Autodesk, Inc.
 90
     1024
280
     0
281
     0
  0
CLASS
  1
ACAMGTITLESTD
  2
AcAmgTitleStd
  3
"AmgTitle|Product Description: AutoCAD Mechanical|Company: Autodesk, Inc."
 90
     4095
280
     0
281
     0
  0
CLASS
  1
ACAMGFILTERDAT
  2
AcAmgFilterDat
  3
"AcadM|Product Description: AutoCAD Mechanical|Company: Autodesk, Inc."
 90
    33792
280
     0
281
     0
  0
CLASS
  1
CAMSSTRUCTBTNSTATE
  2
StructBtnState
  3
DesignerAssemblies
 90
    33792
280
     0
281
     0
  0
CLASS
  1
SCALE
  2
AcDbScale
  3
ObjectDBX Classes
 90
     1153
280
     0
281
     0
  0
CLASS
  1
MLEADERSTYLE
  2
AcDbMLeaderStyle
  3
ACDB_MLEADERSTYLE_CLASS
 90
     4095
280
     0
281
     0
  0
CLASS
  1
ACMANOOTATIONVIEWSTANDARDISO
  2
AmdtAnViewStdISO
  3
"Amdt_StdImp|Product Description: AutoCAD Mechanical|Company: Autodesk, Inc."
 90
     1024
280
     0
281
     0
  0
CLASS
  1
CELLSTYLEMAP
  2
AcDbCellStyleMap
  3
ObjectDBX Classes
 90
     1152
280
     0
281
     0
  0
CLASS
  1
ACMSURFSTANDARDISO2002
  2
AcmSurfTextStdISO2002
  3
"Amdt_StdImp|Product Description: AutoCAD Mechanical|Company: Autodesk, Inc."
 90
     1024
280
     0
281
     0
  0
CLASS
  1
ACMSECTIONSTANDARDISO2001
  2
AmdtSectionSymStdISO2001
  3
"Amdt_StdImp|Product Description: AutoCAD Mechanical|Company: Autodesk, Inc."
 90
     1024
280
     0
281
     0
  0
CLASS
  1
AEC_REFEDIT_STATUS_TRACKER
  2
AecDbRefEditStatusTracker
  3
AecArchBase60|Product Desc: Autodesk Architectural Desktop 2007 |Company: Autodesk,Inc. |WEB Address: www.autodesk.com
 90
      129
280
     0
281
     0
  0
CLASS
  1
NPOCOLLECTION
  2
AcDbImpNonPersistentObjectsCollection
  3
ObjectDBX Classes
 90
     1153
280
     0
281
     0
  0
CLASS
  1
ACDBPLACEHOLDER
  2
AcDbPlaceHolder
  3
ObjectDBX Classes
 90
        0
280
     0
281
     0
  0
CLASS
  1
LAYOUT
  2
AcDbLayout
  3
ObjectDBX Classes
 90
        0
280
     0
281
     0
  0
ENDSEC
  0
SECTION
  2
TABLES
  0
TABLE
  2
VPORT
  5
7
330
0
100
AcDbSymbolTable
 70
     1
  0
VPORT
  5
15
330
7
100
AcDbSymbolTableRecord
100
AcDbViewportTableRecord
  2
*ACTIVE
 70
     0
 10
0.0
 20
0.0
 11
1.0
 21
1.0
 12
372.3301047780058
 22
-16.75315171357624
 13
0.0
 23
0.0
 14
1.0
 24
1.0
 15
0.0
 25
0.0
 16
0.0
 26
0.0
 36
1.0
 17
0.0
 27
0.0
 37
0.0
 40
2191.666842359326
 41
1.550978372811534
 42
50.0
 43
0.0
 44
0.0
 50
0.0
 51
0.0
 71
     0
 72
   100
 73
     1
 74
     1
 75
     0
 76
     0
 77
     0
 78
     0
281
     0
 65
     0
110
0.0
120
0.0
130
0.0
111
1.0
121
0.0
131
0.0
112
0.0
122
1.0
132
0.0
 79
     0
146
0.0
  0
ENDTAB
  0
TABLE
  2
LTYPE
  5
4
330
0
100
AcDbSymbolTable
 70
    16
  0
LTYPE
  5
11
330
4
100
AcDbSymbolTableRecord
100
AcDbLinetypeTableRecord
  2
BYBLOCK
 70
     0
  3

 72
    65
 73
     0
 40
0.0
  0
LTYPE
  5
12
330
4
100
AcDbSymbolTableRecord
100
AcDbLinetypeTableRecord
  2
BYLAYER
 70
     0
  3

 72
    65
 73
     0
 40
0.0
  0
LTYPE
  5
13
330
4
100
AcDbSymbolTableRecord
100
AcDbLinetypeTableRecord
  2
CONTINUOUS
 70
     0
  3
Solid line
 72
    65
 73
     0
 40
0.0
  0
LTYPE
  5
126
330
4
100
AcDbSymbolTableRecord
100
AcDbLinetypeTableRecord
  2
CENTER
 70
     0
  3
Center ____ _ ____ _ ____ _ ____ _ ____ _ ____
 72
    65
 73
     4
 40
50.8
 49
31.75
 74
     0
 49
-6.349999999999998
 74
     0
 49
6.349999999999998
 74
     0
 49
-6.349999999999998
 74
     0
  0
LTYPE
  5
1EB
330
4
100
AcDbSymbolTableRecord
100
AcDbLinetypeTableRecord
  2
NON_PLOTING
 70
     0
  3
Solid line
 72
    65
 73
     0
 40
0.0
  0
LTYPE
  5
23D
330
4
100
AcDbSymbolTableRecord
100
AcDbLinetypeTableRecord
  2
HIDDEN
 70
     0
  3
Hidden __ __ __ __ __ __ __ __ __ __ __ __ __ _
 72
    65
 73
     2
 40
9.524999999999996
 49
6.349999999999998
 74
     0
 49
-3.174999999999998
 74
     0
  0
LTYPE
  5
23E
330
4
100
AcDbSymbolTableRecord
100
AcDbLinetypeTableRecord
  2
PHANTOM2
 70
     0
  3
Phantom (.5x) ___ _ _ ___ _ _ ___ _ _ ___ _ _
 72
    65
 73
     6
 40
31.75
 49
15.875
 74
     0
 49
-3.174999999999998
 74
     0
 49
3.174999999999998
 74
     0
 49
-3.174999999999998
 74
     0
 49
3.174999999999998
 74
     0
 49
-3.174999999999998
 74
     0
  0
LTYPE
  5
273
330
4
100
AcDbSymbolTableRecord
100
AcDbLinetypeTableRecord
  2
AM_ISO02W050
 70
     0
  3
__ __ __ __ __ __ __ __ __ __ __ __ __ __ __
 72
    65
 73
     2
 40
7.5
 49
6.0
 74
     0
 49
-1.5
 74
     0
  0
LTYPE
  5
274
330
4
100
AcDbSymbolTableRecord
100
AcDbLinetypeTableRecord
  2
AM_ISO08W050
 70
     0
  3
____ . ____ . ____ . ____ . ____ . ____ . ____
 72
    65
 73
     4
 40
18.0
 49
12.0
 74
     0
 49
-1.5
 74
     0
 49
3.0
 74
     0
 49
-1.5
 74
     0
  0
LTYPE
  5
275
330
4
100
AcDbSymbolTableRecord
100
AcDbLinetypeTableRecord
  2
AM_ISO09W050
 70
     0
  3
_____ . . _____ . . _____ . . ____ .. ____
 72
    65
 73
     6
 40
22.5
 49
12.0
 74
     0
 49
-1.5
 74
     0
 49
3.0
 74
     0
 49
-1.5
 74
     0
 49
3.0
 74
     0
 49
-1.5
 74
     0
  0
LTYPE
  5
276
330
4
100
AcDbSymbolTableRecord
100
AcDbLinetypeTableRecord
  2
Amconstr
 70
     0
  3
_______________________
 72
    65
 73
     2
 40
9999.0
 49
9999.0
 74
     0
 49
0.0
 74
     0
  0
LTYPE
  5
277
330
4
100
AcDbSymbolTableRecord
100
AcDbLinetypeTableRecord
  2
AM_ISO08W050x2
 70
     0
  3
__ . __ . __ . __ . __ . __
 72
    65
 73
     4
 40
9.0
 49
6.0
 74
     0
 49
-0.75
 74
     0
 49
1.5
 74
     0
 49
-0.75
 74
     0
  0
LTYPE
  5
278
330
4
100
AcDbSymbolTableRecord
100
AcDbLinetypeTableRecord
  2
AM_ISO02W050x2
 70
     0
  3
 _ _ _ _ _ _ _ _ _ _ _ _
 72
    65
 73
     2
 40
3.75
 49
3.0
 74
     0
 49
-0.75
 74
     0
  0
LTYPE
  5
27B
330
4
100
AcDbSymbolTableRecord
100
AcDbLinetypeTableRecord
  2
Amzigzag
 70
     0
  3
/\/-/\/-/\/-/\/-/\/-/\/
 72
    65
 73
     2
 40
11.0001
 49
0.0001
 74
     4
 75
   136
340
27A
 46
0.04
 50
0.0
 44
0.0
 45
0.0
 49
-11.0
 74
     0
  0
LTYPE
  5
28B
330
4
100
AcDbSymbolTableRecord
100
AcDbLinetypeTableRecord
  2
ACISOWELD
 70
     0
  3
_ _ _ _ _
 72
    65
 73
     2
 40
2.0
 49
2.0
 74
     0
 49
-1.0
 74
     0
  0
LTYPE
  5
28C
330
4
100
AcDbSymbolTableRecord
100
AcDbLinetypeTableRecord
  2
ACISOTGB
 70
     0
  3
__ . . __ . .
 72
    65
 73
     6
 40
9.0
 49
4.0
 74
     0
 49
-1.0
 74
     0
 49
1.0
 74
     0
 49
-1.0
 74
     0
 49
1.0
 74
     0
 49
-1.0
 74
     0
  0
LTYPE
  5
28D
330
4
100
AcDbSymbolTableRecord
100
AcDbLinetypeTableRecord
  2
ACISOTGL
 70
     0
  3
_ _ _ _ _
 72
    65
 73
     2
 40
3.0
 49
2.0
 74
     0
 49
-1.0
 74
     0
  0
ENDTAB
  0
TABLE
  2
LAYER
  5
2
102
{ACAD_XDICTIONARY
360
318
102
}
330
0
100
AcDbSymbolTable
 70
     9
  0
LAYER
  5
14
102
{ACAD_XDICTIONARY
360
2E9
102
}
330
2
100
AcDbSymbolTableRecord
100
AcDbLayerTableRecord
  2
0
 70
     0
 62
     7
  6
CONTINUOUS
370
    -3
390
1D
  0
LAYER
  5
23
330
2
100
AcDbSymbolTableRecord
100
AcDbLayerTableRecord
  2
DEFPOINTS
 70
     0
 62
     7
  6
CONTINUOUS
290
     0
370
    -3
390
1D
  0
LAYER
  5
24
102
{ACAD_XDICTIONARY
360
2EB
102
}
330
2
100
AcDbSymbolTableRecord
100
AcDbLayerTableRecord
  2
PV
 70
     0
 62
     7
  6
CONTINUOUS
370
    -3
390
1D
  0
LAYER
  5
25
102
{ACAD_XDICTIONARY
360
2ED
102
}
330
2
100
AcDbSymbolTableRecord
100
AcDbLayerTableRecord
  2
FV
 70
     0
 62
     7
  6
CONTINUOUS
370
    -3
390
1D
  0
LAYER
  5
50D
330
2
100
AcDbSymbolTableRecord
100
AcDbLayerTableRecord
  2
AM_5
 70
     0
 62
     3
  6
CONTINUOUS
370
    25
390
1D
1001
AcAecLayerStandard
1000

1000

  0
LAYER
  5
860
102
{ACAD_XDICTIONARY
360
861
102
}
330
2
100
AcDbSymbolTableRecord
100
AcDbLayerTableRecord
  2
HIDDEN1
 70
     0
 62
     3
  6
HIDDEN
370
    18
390
1D
  0
LAYER
  5
862
102
{ACAD_XDICTIONARY
360
863
102
}
330
2
100
AcDbSymbolTableRecord
100
AcDbLayerTableRecord
  2
HATCH
 70
     0
 62
     7
  6
CONTINUOUS
370
    18
390
1D
  0
LAYER
  5
864
102
{ACAD_XDICTIONARY
360
865
102
}
330
2
100
AcDbSymbolTableRecord
100
AcDbLayerTableRecord
  2
M1
 70
     0
 62
     7
  6
CONTINUOUS
370
    -3
390
1D
  0
LAYER
  5
866
102
{ACAD_XDICTIONARY
360
867
102
}
330
2
100
AcDbSymbolTableRecord
100
AcDbLayerTableRecord
  2
M2
 70
     0
 62
     7
  6
CONTINUOUS
370
    -3
390
1D
  0
ENDTAB
  0
TABLE
  2
STYLE
  5
3
330
0
100
AcDbSymbolTable
 70
     9
  0
STYLE
  5
17
330
3
100
AcDbSymbolTableRecord
100
AcDbTextStyleTableRecord
  2
MX_NOTE_STANDARD
 70
     0
 40
0.0
 41
1.0
 50
0.0
 71
     0
 42
16.66799926757812
  3
txt.shx
  4
extfont.shx
  0
STYLE
  5
A1
330
3
100
AcDbSymbolTableRecord
100
AcDbTextStyleTableRecord
  2
MX_DIMTXSTY_2
 70
     0
 40
0.0
 41
0.9
 50
0.0
 71
     0
 42
16.66799926757812
  3
txt.shx
  4
extfont.shx
  0
STYLE
  5
CD
330
3
100
AcDbSymbolTableRecord
100
AcDbTextStyleTableRecord
  2
MX_DIMTXSTY_3
 70
     0
 40
0.0
 41
0.8
 50
0.0
 71
     0
 42
16.66799926757812
  3
txt.shx
  4
extfont.shx
  0
STYLE
  5
DB
330
3
100
AcDbSymbolTableRecord
100
AcDbTextStyleTableRecord
  2
MX_DIMTXSTY_4
 70
     0
 40
0.0
 41
1.199999999999999
 50
0.0
 71
     0
 42
16.66799926757812
  3
txt.shx
  4
extfont.shx
  0
STYLE
  5
F6
330
3
100
AcDbSymbolTableRecord
100
AcDbTextStyleTableRecord
  2
MX_DIMTXSTY_5
 70
     0
 40
0.0
 41
1.1
 50
0.0
 71
     0
 42
16.66799926757812
  3
txt.shx
  4
extfont.shx
  0
STYLE
  5
27A
330
3
100
AcDbSymbolTableRecord
100
AcDbTextStyleTableRecord
  2

 70
     1
 40
0.0
 41
1.0
 50
0.0
 71
     0
 42
16.66799926757812
  3
genltshp.shx
  4

  0
STYLE
  5
27C
330
3
100
AcDbSymbolTableRecord
100
AcDbTextStyleTableRecord
  2
ACISOTS
 70
     0
 40
1.0
 41
1.0
 50
0.0
 71
     0
 42
16.66799926757812
  3
isocp.shx
  4
extfont.shx
  0
STYLE
  5
28A
330
3
100
AcDbSymbolTableRecord
100
AcDbTextStyleTableRecord
  2
ACISOGDT
 70
     0
 40
0.0
 41
1.0
 50
0.0
 71
     0
 42
16.66799926757812
  3
amgdt.shx
  4

  0
STYLE
  5
69B
330
3
100
AcDbSymbolTableRecord
100
AcDbTextStyleTableRecord
  2
Standard
 70
     0
 40
0.0
 41
1.0
 50
0.0
 71
     0
 42
0.2
  3

  4

  0
ENDTAB
  0
TABLE
  2
VIEW
  5
5
330
0
100
AcDbSymbolTable
 70
     0
  0
ENDTAB
  0
TABLE
  2
UCS
  5
6
330
0
100
AcDbSymbolTable
 70
     0
  0
ENDTAB
  0
TABLE
  2
APPID
  5
8
330
0
100
AcDbSymbolTable
 70
    18
  0
APPID
  5
16
330
8
100
AcDbSymbolTableRecord
100
AcDbRegAppTableRecord
  2
ACAD
 70
     0
  0
APPID
  5
210
330
8
100
AcDbSymbolTableRecord
100
AcDbRegAppTableRecord
  2
MCAD_NO_VIS
 70
     0
  0
APPID
  5
211
330
8
100
AcDbSymbolTableRecord
100
AcDbRegAppTableRecord
  2
ACAD_TEMP_GRAPHIC
 70
     0
  0
APPID
  5
240
330
8
100
AcDbSymbolTableRecord
100
AcDbRegAppTableRecord
  2
AD_DRAW
 70
     0
  0
APPID
  5
243
330
8
100
AcDbSymbolTableRecord
100
AcDbRegAppTableRecord
  2
ACATTRIBSERVICES
 70
     0
  0
APPID
  5
264
330
8
100
AcDbSymbolTableRecord
100
AcDbRegAppTableRecord
  2
DESIGNERASSEMBLIES
 70
     0
  0
APPID
  5
26A
330
8
100
AcDbSymbolTableRecord
100
AcDbRegAppTableRecord
  2
ACADM_DIM_EDIT
 70
     0
  0
APPID
  5
26B
330
8
100
AcDbSymbolTableRecord
100
AcDbRegAppTableRecord
  2
AMDT_DM_ADJ
 70
     0
  0
APPID
  5
2E1
330
8
100
AcDbSymbolTableRecord
100
AcDbRegAppTableRecord
  2
DCO15
 70
     0
  0
APPID
  5
30D
330
8
100
AcDbSymbolTableRecord
100
AcDbRegAppTableRecord
  2
ACAD_EXEMPT_FROM_CAD_STANDARDS
 70
     0
  0
APPID
  5
36F
330
8
100
AcDbSymbolTableRecord
100
AcDbRegAppTableRecord
  2
ACAD_PSEXT
 70
     0
  0
APPID
  5
50E
330
8
100
AcDbSymbolTableRecord
100
AcDbRegAppTableRecord
  2
AcAecLayerStandard
 70
     0
  0
APPID
  5
50F
330
8
100
AcDbSymbolTableRecord
100
AcDbRegAppTableRecord
  2
ACAD_DSTYLE_DIMBREAK
 70
     0
  0
APPID
  5
510
330
8
100
AcDbSymbolTableRecord
100
AcDbRegAppTableRecord
  2
ACAD_DSTYLE_DIMJAG
 70
     0
  0
APPID
  5
529
330
8
100
AcDbSymbolTableRecord
100
AcDbRegAppTableRecord
  2
ACAD_DSTYLE_DIMINSPECT
 70
     0
  0
APPID
  5
5C9
330
8
100
AcDbSymbolTableRecord
100
AcDbRegAppTableRecord
  2
GENIUS_GENDTOL_13
 70
     0
  0
APPID
  5
8B5
330
8
100
AcDbSymbolTableRecord
100
AcDbRegAppTableRecord
  2
ACAD_DSTYLE_DIMARC_LENGTH_SYMBOL
 70
     0
  0
APPID
  5
8BC
330
8
100
AcDbSymbolTableRecord
100
AcDbRegAppTableRecord
  2
ACAD_MLEADERVER
 70
     0
  0
ENDTAB
  0
TABLE
  2
DIMSTYLE
  5
9
330
0
100
AcDbSymbolTable
 70
     9
100
AcDbDimStyleTable
 71
     1
340
18
  0
DIMSTYLE
105
18
102
{ACAD_REACTORS
330
A7
330
C3
330
D3
330
E1
330
EE
102
}
330
9
100
AcDbSymbolTableRecord
100
AcDbDimStyleTableRecord
  2
MXDIMSTYLE
 70
     0
 40
4.0
 41
2.5
 42
1.269999980926513
 43
3.75
 44
1.200000047683715
 73
     0
 74
     0
 77
     1
 78
     8
140
4.166999816894531
141
2.5
143
0.03937007874016
144
0.25
147
1.0
171
     4
172
     1
274
     4
288
     1
340
17
  0
DIMSTYLE
105
298
102
{ACAD_REACTORS
330
6F8
102
}
330
9
100
AcDbSymbolTableRecord
100
AcDbDimStyleTableRecord
  2
AM_ISO
 70
     0
  4
"
 41
2.5
 42
1.0
 43
10.0
 44
1.0
 47
0.1
 48
0.1
 73
     0
 74
     0
 77
     1
 78
     8
 79
     2
140
3.5
141
0.0
143
0.0393701
146
0.71
147
1.5
172
     1
176
   256
177
   256
178
     2
271
     2
272
     3
274
     4
283
     0
284
     8
340
17
371
    -1
372
    -1
1001
ACAD_DSTYLE_DIMARC_LENGTH_SYMBOL
1070
   379
1070
     1
  0
DIMSTYLE
105
299
330
9
100
AcDbSymbolTableRecord
100
AcDbDimStyleTableRecord
  2
AM_ISO$3
 70
     0
  4
"
 41
2.5
 42
1.0
 43
10.0
 44
1.0
 47
0.1
 48
0.1
 73
     0
 77
     1
 78
     8
 79
     2
140
3.5
141
0.0
143
0.0393701
146
0.71
147
1.5
176
   256
177
   256
178
     2
271
     2
272
     3
274
     4
283
     0
284
     8
288
     1
289
     0
340
17
371
    -1
372
    -1
1001
ACAD_DSTYLE_DIMARC_LENGTH_SYMBOL
1070
   379
1070
     1
  0
DIMSTYLE
105
29A
330
9
100
AcDbSymbolTableRecord
100
AcDbDimStyleTableRecord
  2
AM_ISO$4
 70
     0
  4
"
 41
2.5
 42
1.0
 43
10.0
 44
1.0
 47
0.1
 48
0.1
 73
     0
 77
     1
 78
     8
 79
     2
140
3.5
141
0.0
143
0.0393701
146
0.71
147
1.5
176
   256
177
   256
178
     2
271
     2
272
     3
274
     4
283
     0
284
     8
288
     1
289
     0
340
17
371
    -1
372
    -1
1001
ACAD_DSTYLE_DIMARC_LENGTH_SYMBOL
1070
   379
1070
     1
  0
DIMSTYLE
105
29B
330
9
100
AcDbSymbolTableRecord
100
AcDbDimStyleTableRecord
  2
AM_ISO$6
 70
     0
  4
"
 41
2.5
 42
1.0
 43
10.0
 44
1.0
 47
0.1
 48
0.1
 73
     0
 74
     0
 78
     8
 79
     2
140
3.5
141
0.0
143
0.0393701
146
0.71
147
1.5
172
     1
176
   256
177
   256
178
     2
271
     2
272
     3
274
     4
283
     0
284
     8
340
17
371
    -1
372
    -1
1001
ACAD_DSTYLE_DIMARC_LENGTH_SYMBOL
1070
   379
1070
     1
  0
DIMSTYLE
105
29C
330
9
100
AcDbSymbolTableRecord
100
AcDbDimStyleTableRecord
  2
AM_ISO$7
 70
     0
  4
"
 41
2.5
 42
1.0
 43
10.0
 44
1.0
 47
0.1
 48
0.1
 73
     0
 74
     0
 77
     1
 78
     8
 79
     2
140
5.0
141
0.0
143
0.0393701
146
0.71
147
1.5
172
     1
176
   256
177
   256
178
     2
271
     2
272
     3
274
     4
283
     0
284
     8
340
17
371
    -1
372
    -1
1001
ACAD_DSTYLE_DIMARC_LENGTH_SYMBOL
1070
   379
1070
     1
  0
DIMSTYLE
105
29D
330
9
100
AcDbSymbolTableRecord
100
AcDbDimStyleTableRecord
  2
AM_ISO$SF
 70
     0
  4
"
 41
2.5
 42
1.0
 43
10.0
 44
1.0
 47
0.1
 48
0.1
 73
     0
 74
     0
 75
     1
 76
     1
 77
     1
 78
     8
 79
     2
140
3.5
141
0.0
143
0.0393701
146
0.71
147
1.5
172
     1
176
   256
177
   256
178
     2
271
     2
272
     3
274
     4
283
     0
284
     8
340
17
371
    -1
372
    -1
1001
ACAD_DSTYLE_DIMARC_LENGTH_SYMBOL
1070
   379
1070
     1
  0
DIMSTYLE
105
2A2
330
9
100
AcDbSymbolTableRecord
100
AcDbDimStyleTableRecord
  2
AM_ISO$SH
 70
     0
  4
"
 41
2.5
 42
1.0
 43
10.0
 44
1.0
 47
0.1
 48
0.1
 73
     0
 74
     0
 75
     1
 76
     1
 77
     1
 78
     8
 79
     2
140
3.5
141
0.0
143
0.0393701
144
2.0
146
0.71
147
1.5
172
     1
173
     1
176
   256
177
   256
178
     2
271
     2
272
     3
274
     4
283
     0
284
     8
340
17
343
29E
371
    -1
372
    -1
1001
ACAD_DSTYLE_DIMARC_LENGTH_SYMBOL
1070
   379
1070
     1
  0
DIMSTYLE
105
511
102
{ACAD_REACTORS
330
513
102
}
330
9
100
AcDbSymbolTableRecord
100
AcDbDimStyleTableRecord
  2
MXDIMSTYLE$0
 70
     0
 40
4.0
 41
2.5
 42
1.269999980926513
 43
3.75
 44
1.200000047683715
 73
     0
 74
     0
 77
     1
 78
     8
140
4.166999816894531
141
2.5
143
0.03937007874016
144
0.25
147
1.0
171
     4
172
     1
274
     4
288
     1
340
17
1001
ACAD_DSTYLE_DIMBREAK
1070
   391
1040
3.75
1001
ACAD_DSTYLE_DIMJAG
1070
   388
1040
1.5
  0
ENDTAB
  0
TABLE
  2
BLOCK_RECORD
  5
1
330
0
100
AcDbSymbolTable
 70
    14
  0
BLOCK_RECORD
  5
A
330
1
100
AcDbSymbolTableRecord
100
AcDbBlockTableRecord
  2
*MODEL_SPACE
340
20
  0
BLOCK_RECORD
  5
B
330
1
100
AcDbSymbolTableRecord
100
AcDbBlockTableRecord
  2
*PAPER_SPACE
340
21
  0
BLOCK_RECORD
  5
26
330
1
100
AcDbSymbolTableRecord
100
AcDbBlockTableRecord
  2
MS_1
340
0
  0
BLOCK_RECORD
  5
27
330
1
100
AcDbSymbolTableRecord
100
AcDbBlockTableRecord
  2
MS_2
340
0
  0
BLOCK_RECORD
  5
94
330
1
100
AcDbSymbolTableRecord
100
AcDbBlockTableRecord
  2
*D2
340
0
  0
BLOCK_RECORD
  5
99
330
1
100
AcDbSymbolTableRecord
100
AcDbBlockTableRecord
  2
_OPEN30
340
0
102
{BLKREFS
331
D9
331
DA
331
3AE
331
3AF
331
3B7
331
3B8
331
57E
331
5DF
331
5E0
331
5F1
331
5F2
102
}
  0
BLOCK_RECORD
  5
B7
330
1
100
AcDbSymbolTableRecord
100
AcDbBlockTableRecord
  2
*D4
340
0
  0
BLOCK_RECORD
  5
C6
330
1
100
AcDbSymbolTableRecord
100
AcDbBlockTableRecord
  2
*D5
340
0
  0
BLOCK_RECORD
  5
D4
330
1
100
AcDbSymbolTableRecord
100
AcDbBlockTableRecord
  2
*D6
340
0
  0
BLOCK_RECORD
  5
E2
330
1
100
AcDbSymbolTableRecord
100
AcDbBlockTableRecord
  2
*D7
340
0
  0
BLOCK_RECORD
  5
1B8
330
1
100
AcDbSymbolTableRecord
100
AcDbBlockTableRecord
  2
*X8
340
0
  0
BLOCK_RECORD
  5
29E
330
1
100
AcDbSymbolTableRecord
100
AcDbBlockTableRecord
  2
GENAXEH
340
0
  0
BLOCK_RECORD
  5
514
330
1
100
AcDbSymbolTableRecord
100
AcDbBlockTableRecord
  2
*D10
340
0
  0
BLOCK_RECORD
  5
713
330
1
100
AcDbSymbolTableRecord
100
AcDbBlockTableRecord
  2
JZB_0006
340
0
102
{BLKREFS
331
86E
331
87E
102
}
  0
ENDTAB
  0
ENDSEC
  0
SECTION
  2
BLOCKS
  0
BLOCK
  5
D
330
A
100
AcDbEntity
  8
0
100
AcDbBlockBegin
  2
*MODEL_SPACE
 70
     0
 10
0.0
 20
0.0
 30
0.0
  3
*MODEL_SPACE
  1

  0
ENDBLK
  5
E
330
A
100
AcDbEntity
  8
0
100
AcDbBlockEnd
  0
BLOCK
  5
F
330
B
100
AcDbEntity
 67
     1
  8
0
100
AcDbBlockBegin
  2
*PAPER_SPACE
 70
     0
 10
0.0
 20
0.0
 30
0.0
  3
*PAPER_SPACE
  1

  0
ENDBLK
  5
10
330
B
100
AcDbEntity
 67
     1
  8
0
100
AcDbBlockEnd
  0
BLOCK
  5
28
330
26
100
AcDbEntity
  8
0
370
    -2
100
AcDbBlockBegin
  2
MS_1
 70
     0
 10
0.0
 20
0.0
 30
0.0
  3
MS_1
  1

  0
LINE
  5
29
330
26
100
AcDbEntity
  8
0
  6
Continuous
 62
     3
100
AcDbLine
 10
0.0000000000000001
 20
-0.0000000000000016
 30
0.0
 11
5.000000063117226
 21
20.20725965062695
 31
0.0
  0
LINE
  5
2A
330
26
100
AcDbEntity
  8
0
  6
Continuous
 62
     3
100
AcDbLine
 10
-35.00000073604497
 20
-2.88675135881974
 30
0.0
 11
0.000000000000003
 21
-0.0000000000000036
 31
0.0
  0
LINE
  5
2B
330
26
100
AcDbEntity
  8
0
  6
Continuous
 62
     3
100
AcDbLine
 10
-7.499999999999968
 20
12.99038082361223
 30
0.0
 11
4.99999986100903
 21
20.20725923776627
 31
0.0
  0
LINE
  5
2C
330
26
100
AcDbEntity
  8
0
  6
Continuous
 62
     3
100
AcDbLine
 10
-52.50000098787154
 20
21.65063351392746
 30
0.0
 11
-37.50000049393577
 21
30.31088799238205
 31
0.0
  0
LINE
  5
2D
330
26
100
AcDbEntity
  8
0
  6
Continuous
 62
     3
100
AcDbLine
 10
-34.99999952903863
 20
-2.886751592159271
 30
0.0
 11
-22.50000049393577
 21
4.330126345157623
 31
0.0
  0
LINE
  5
2E
330
26
100
AcDbEntity
  8
0
  6
Continuous
 62
     3
100
AcDbLine
 10
-52.500000366432
 20
21.65063592791558
 30
0.0
 11
-22.49999937856046
 21
4.330126971006392
 31
0.0
  0
LINE
  5
2F
330
26
100
AcDbEntity
  8
0
  6
Continuous
 62
     3
100
AcDbLine
 10
-37.49999929355796
 20
30.31088903546333
 30
0.0
 11
-7.499999957498745
 21
12.99038103222847
 31
0.0
  0
POINT
  5
30
330
26
100
AcDbEntity
  8
0
  6
Continuous
 62
     7
100
AcDbPoint
 10
0.0
 20
0.0
 30
0.0
  0
ENDBLK
  5
31
330
26
100
AcDbEntity
  8
0
370
    -2
100
AcDbBlockEnd
  0
BLOCK
  5
32
330
27
100
AcDbEntity
  8
0
370
    -2
100
AcDbBlockBegin
  2
MS_2
 70
     0
 10
0.0
 20
0.0
 30
0.0
  3
MS_2
  1

  0
ELLIPSE
  5
33
330
27
100
AcDbEntity
  8
0
  6
Continuous
 62
     7
100
AcDbEllipse
 10
13.88765144348144
 20
-0.0160179436206818
 30
0.0
 11
1.688363075256346
 21
-0.0000001192092898
 31
0.0
210
0.0
220
0.0
230
0.9999999999999998
 40
0.9291879639195471
 41
0.2651412738457682
 42
6.006474423724084
  0
ELLIPSE
  5
34
330
27
100
AcDbEntity
  8
0
  6
Continuous
 62
     7
100
AcDbEllipse
 10
13.11491346359253
 20
-0.0160178802907467
 30
0.0
 11
3.015141010284423
 21
-0.0000001825392261
 31
0.0
210
0.0
220
0.0
230
1.0
 40
0.799806870214157
 41
0.7911690653191048
 42
6.104511488825124
  0
ARC
  5
35
330
27
100
AcDbEntity
  8
0
  6
Continuous
 62
     7
100
AcDbCircle
 10
15.41536426544189
 20
1.927800178527831
 30
0.0
 40
0.2915999293327331
100
AcDbArc
 50
231.6715098735924
 51
330.0000128255523
  0
ARC
  5
36
330
27
100
AcDbEntity
  8
0
  6
Continuous
 62
     7
100
AcDbCircle
 10
5.660588264465332
 20
1.256252288818359
 30
0.0
 40
0.1749599575996399
100
AcDbArc
 50
24.9969145885484
 51
155.0011438164944
  0
ARC
  5
37
330
27
100
AcDbEntity
  8
0
  6
Continuous
 62
     7
100
AcDbCircle
 10
6.376239776611327
 20
-0.2784740328788757
 30
0.0
 40
0.1749599575996399
100
AcDbArc
 50
270.000127269116
 51
24.99996426801281
  0
ARC
  5
38
330
27
100
AcDbEntity
  8
0
  6
Continuous
 62
     7
100
AcDbCircle
 10
4.94492721557617
 20
-0.2784740328788757
 30
0.0
 40
0.1749599575996399
100
AcDbArc
 50
154.9993952880669
 51
270.0014213625927
  0
ARC
  5
39
330
27
100
AcDbEntity
  8
0
  6
Continuous
 62
     7
100
AcDbCircle
 10
4.663116455078125
 20
-1.526512145996093
 30
0.0
 40
0.3499199151992798
100
AcDbArc
 50
89.99867061759001
 51
235.001073187346
  0
ARC
  5
3A
330
27
100
AcDbEntity
  8
0
  6
Continuous
 62
     7
100
AcDbCircle
 10
6.725593566894531
 20
-1.588626861572264
 30
0.0
 40
0.412037193775177
100
AcDbArc
 50
314.9998382383154
 51
359.9999826971572
  0
ARC
  5
3B
330
27
100
AcDbEntity
  8
0
  6
Continuous
 62
     7
100
AcDbCircle
 10
6.725593566894531
 20
-1.588626861572264
 30
0.0
 40
0.412037193775177
100
AcDbArc
 50
0.0
 51
89.99998201391065
  0
ARC
  5
3C
330
27
100
AcDbEntity
  8
0
  6
Continuous
 62
     7
100
AcDbCircle
 10
9.706324577331542
 20
-1.348008155822753
 30
0.0
 40
0.2915999293327331
100
AcDbArc
 50
205.0009325610132
 51
236.0005930525732
  0
ARC
  5
3D
330
27
100
AcDbEntity
  8
0
  6
Continuous
 62
     7
100
AcDbCircle
 10
3.028962135314941
 20
-1.434097290039061
 30
0.0
 40
0.2915999293327331
100
AcDbArc
 50
303.9994463347001
 51
334.9993902791106
  0
ARC
  5
3E
330
27
100
AcDbEntity
  8
0
  6
Continuous
 62
     7
100
AcDbCircle
 10
3.32199478149414
 20
1.34463596343994
 30
0.0
 40
0.2915999293327331
100
AcDbArc
 50
123.9996255134803
 51
154.9999417032005
  0
ARC
  5
3F
330
27
100
AcDbEntity
  8
0
  6
Continuous
 62
     7
100
AcDbCircle
 10
2.03849411010742
 20
1.393499374389647
 30
0.0
 40
0.2915999293327331
100
AcDbArc
 50
334.9988882602066
 51
55.99856608025141
  0
ARC
  5
40
330
27
100
AcDbEntity
  8
0
  6
Continuous
 62
     7
100
AcDbCircle
 10
-0.3615722060203552
 20
1.613658905029295
 30
0.0
 40
0.2915999293327331
100
AcDbArc
 50
124.0006090607208
 51
205.0002595600088
  0
ARC
  5
41
330
27
100
AcDbEntity
  8
0
  6
Continuous
 62
     7
100
AcDbCircle
 10
-3.196181297302246
 20
1.34463596343994
 30
0.0
 40
0.2915999293327331
100
AcDbArc
 50
24.99991645668862
 51
55.99987747657205
  0
ARC
  5
42
330
27
100
AcDbEntity
  8
0
  6
Continuous
 62
     7
100
AcDbCircle
 10
0.8897945284843443
 20
-1.345890045166014
 30
0.0
 40
0.1749599575996399
100
AcDbArc
 50
205.0003861458796
 51
335.0002986942702
  0
ARC
  5
43
330
27
100
AcDbEntity
  8
0
  6
Continuous
 62
     7
100
AcDbCircle
 10
-3.499093055725096
 20
-1.188255310058593
 30
0.0
 40
0.2915999293327331
100
AcDbArc
 50
270.0001819106294
 51
315.0003163515573
  0
ARC
  5
44
330
27
100
AcDbEntity
  8
0
  6
Continuous
 62
     7
100
AcDbCircle
 10
-5.769119262695312
 20
1.298173904418945
 30
0.0
 40
0.2915999293327331
100
AcDbArc
 50
133.0006673677765
 51
180.0005650844682
  0
ARC
  5
45
330
27
100
AcDbEntity
  8
0
  6
Continuous
 62
     7
100
AcDbCircle
 10
-8.451834678649902
 20
-1.330237388610839
 30
0.0
 40
0.2915999293327331
100
AcDbArc
 50
312.9995866040259
 51
359.999929587228
  0
ARC
  5
46
330
27
100
AcDbEntity
  8
0
  6
Continuous
 62
     7
100
AcDbCircle
 10
-8.451834678649902
 20
1.298173904418945
 30
0.0
 40
0.2915999293327331
100
AcDbArc
 50
359.9986770302107
 51
46.99901320719422
  0
ARC
  5
47
330
27
100
AcDbEntity
  8
0
  6
Continuous
 62
     7
100
AcDbCircle
 10
-13.72395610809326
 20
-0.3850881457328796
 30
0.0
 40
1.749599456787109
100
AcDbArc
 50
180.0001452552054
 51
235.1504803877167
  0
ARC
  5
48
330
27
100
AcDbEntity
  8
0
  6
Continuous
 62
     7
100
AcDbCircle
 10
-11.81398010253906
 20
-0.3535323739051819
 30
0.0
 40
1.749599456787109
100
AcDbArc
 50
306.7425459280256
 51
359.9999624930069
  0
ARC
  5
49
330
27
100
AcDbEntity
  8
0
  6
Continuous
 62
     7
100
AcDbCircle
 10
-11.60986709594726
 20
-0.8664843440055847
 30
0.0
 40
0.5831999182701111
100
AcDbArc
 50
319.8303563401182
 51
359.9992788485525
  0
ARC
  5
4A
330
27
100
AcDbEntity
  8
0
  6
Continuous
 62
     7
100
AcDbCircle
 10
-12.79084777832031
 20
-0.8664664626121519
 30
0.0
 40
0.5831999182701111
100
AcDbArc
 50
180.0000359721787
 51
220.16766814135
  0
ARC
  5
4B
330
27
100
AcDbEntity
  8
0
  6
Continuous
 62
     7
100
AcDbCircle
 10
-12.20034885406494
 20
-0.3680287599563599
 30
0.0
 40
1.355938911437988
100
AcDbArc
 50
220.16766814135
 51
319.8309061703463
  0
ARC
  5
4C
330
27
100
AcDbEntity
  8
0
  6
Continuous
 62
     7
100
AcDbCircle
 10
-12.79084777832031
 20
0.9550097584724426
 30
0.0
 40
3.382558822631834
100
AcDbArc
 50
235.1504257462033
 51
306.7425698336877
  0
ARC
  5
4D
330
27
100
AcDbEntity
  8
0
  6
Continuous
 62
     7
100
AcDbCircle
 10
-9.772781372070312
 20
1.457438468933104
 30
0.0
 40
0.2915999293327331
100
AcDbArc
 50
124.0007183437475
 51
180.0013847071687
  0
ARC
  5
4E
330
27
100
AcDbEntity
  8
0
  6
Continuous
 62
     7
100
AcDbCircle
 10
-11.31826686859131
 20
1.457429885864256
 30
0.0
 40
0.2915999293327331
100
AcDbArc
 50
359.9996313399246
 51
55.99980917468034
  0
ARC
  5
4F
330
27
100
AcDbEntity
  8
0
  6
Continuous
 62
     7
100
AcDbCircle
 10
-13.082444190979
 20
1.427920341491699
 30
0.0
 40
0.2915999293327331
100
AcDbArc
 50
124.0011554758543
 51
180.0016579147355
  0
ARC
  5
50
330
27
100
AcDbEntity
  8
0
  6
Continuous
 62
     7
100
AcDbCircle
 10
-15.76515865325928
 20
1.427920341491699
 30
0.0
 40
0.2915999293327331
100
AcDbArc
 50
359.9993128519744
 51
55.99964183504567
  0
LINE
  5
51
330
27
100
AcDbEntity
  8
0
  6
Continuous
 62
     7
100
AcDbLine
 10
15.91095404115839
 20
2.203026654192511
 30
0.0
 11
15.66787904030281
 21
1.782000930520665
 31
0.0
  0
LINE
  5
52
330
27
100
AcDbEntity
  8
0
  6
Continuous
 62
     7
100
AcDbLine
 10
15.91095638275146
 20
2.203025817871093
 30
0.0
 11
16.08590698242187
 21
2.203025817871093
 31
0.0
  0
LINE
  5
53
330
27
100
AcDbEntity
  8
0
  6
Continuous
 62
     7
100
AcDbLine
 10
16.08590698242187
 20
2.203025817871093
 30
0.0
 11
16.08590698242187
 21
0.3951122164726257
 31
0.0
  0
LINE
  5
54
330
27
100
AcDbEntity
  8
0
  6
Continuous
 62
     7
100
AcDbLine
 10
15.51238441467285
 20
0.395121157169342
 30
0.0
 11
16.08378601074219
 21
0.395121157169342
 31
0.0
  0
LINE
  5
55
330
27
100
AcDbEntity
  8
0
  6
Continuous
 62
     7
100
AcDbLine
 10
15.5052433013916
 20
-0.4446792602539064
 30
0.0
 11
16.08226013183594
 21
-0.4446792602539064
 31
0.0
  0
LINE
  5
56
330
27
100
AcDbEntity
  8
0
  6
Continuous
 62
     7
100
AcDbLine
 10
4.769335810521056
 20
-2.028068048539295
 30
0.0
 11
4.462407658139112
 21
-1.813154723325624
 31
0.0
  0
LINE
  5
57
330
27
100
AcDbEntity
  8
0
  6
Continuous
 62
     7
100
AcDbLine
 10
4.786353348141773
 20
-0.2045305765140313
 30
0.0
 11
5.50200858730875
 21
1.330197698841999
 31
0.0
  0
LINE
  5
58
330
27
100
AcDbEntity
  8
0
  6
Continuous
 62
     7
100
AcDbLine
 10
6.868855164774799
 20
-2.028064431855739
 30
0.0
 11
7.016942079232476
 21
-1.879978353742841
 31
0.0
  0
LINE
  5
59
330
27
100
AcDbEntity
  8
0
  6
Continuous
 62
     7
100
AcDbLine
 10
10.19308930573379
 20
-2.028065446271624
 30
0.0
 11
9.54327055069382
 21
-1.589757185596566
 31
0.0
  0
LINE
  5
5A
330
27
100
AcDbEntity
  8
0
  6
Continuous
 62
     7
100
AcDbLine
 10
2.669809025537516
 20
-2.02806432169143
 30
0.0
 11
3.192014703603831
 21
-1.675840001068195
 31
0.0
  0
LINE
  5
5B
330
27
100
AcDbEntity
  8
0
  6
Continuous
 62
     7
100
AcDbLine
 10
1.666702460879796
 20
1.996014965814431
 30
0.0
 11
2.201558844887133
 21
1.63524983772488
 31
0.0
  0
LINE
  5
5C
330
27
100
AcDbEntity
  8
0
  6
Continuous
 62
     7
100
AcDbLine
 10
3.76621448669475
 20
1.996016345505218
 30
0.0
 11
3.158927662341781
 21
1.586387965072794
 31
0.0
  0
LINE
  5
5D
330
27
100
AcDbEntity
  8
0
  6
Continuous
 62
     7
100
AcDbLine
 10
-0.3161834185185803
 20
1.996012417202443
 30
0.0
 11
-0.5246363088941735
 21
1.855405294209275
 31
0.0
  0
LINE
  5
5E
330
27
100
AcDbEntity
  8
0
  6
Continuous
 62
     7
100
AcDbLine
 10
-3.640431001544957
 20
1.996018264254935
 30
0.0
 11
-3.033118856895303
 21
1.586381379411256
 31
0.0
  0
LINE
  5
5F
330
27
100
AcDbEntity
  8
0
  6
Continuous
 62
     7
100
AcDbLine
 10
4.94492721557617
 20
-0.4534268975257875
 30
0.0
 11
6.376239776611327
 21
-0.4534268975257875
 31
0.0
  0
LINE
  5
60
330
27
100
AcDbEntity
  8
0
  6
Continuous
 62
     7
100
AcDbLine
 10
4.663116455078125
 20
-1.176588058471679
 30
0.0
 11
6.725593566894531
 21
-1.176588058471679
 31
0.0
  0
LINE
  5
61
330
27
100
AcDbEntity
  8
0
  6
Continuous
 62
     7
100
AcDbLine
 10
6.868857383728027
 20
-2.028063774108886
 30
0.0
 11
6.868857383728027
 21
-2.203017234802246
 31
0.0
  0
LINE
  5
62
330
27
100
AcDbEntity
  8
0
  6
Continuous
 62
     7
100
AcDbLine
 10
10.19308757781982
 20
-2.028063774108886
 30
0.0
 11
10.19308757781982
 21
-2.203017234802246
 31
0.0
  0
LINE
  5
63
330
27
100
AcDbEntity
  8
0
  6
Continuous
 62
     7
100
AcDbLine
 10
6.868857383728027
 20
-2.203017234802246
 30
0.0
 11
10.19308757781982
 21
-2.203017234802246
 31
0.0
  0
LINE
  5
64
330
27
100
AcDbEntity
  8
0
  6
Continuous
 62
     7
100
AcDbLine
 10
4.769333839416503
 20
-2.028063774108886
 30
0.0
 11
4.769333839416503
 21
-2.203017234802246
 31
0.0
  0
LINE
  5
65
330
27
100
AcDbEntity
  8
0
  6
Continuous
 62
     7
100
AcDbLine
 10
2.66981029510498
 20
-2.028063774108886
 30
0.0
 11
2.66981029510498
 21
-2.203017234802246
 31
0.0
  0
LINE
  5
66
330
27
100
AcDbEntity
  8
0
  6
Continuous
 62
     7
100
AcDbLine
 10
5.819153250643012
 20
1.330187368560018
 30
0.0
 11
6.534805316648544
 21
-0.2045328250937928
 31
0.0
  0
LINE
  5
67
330
27
100
AcDbEntity
  8
0
  6
Continuous
 62
     7
100
AcDbLine
 10
7.743648458376809
 20
2.170978610602105
 30
0.0
 11
9.442048205501121
 21
-1.47124994238311
 31
0.0
  0
LINE
  5
68
330
27
100
AcDbEntity
  8
0
  6
Continuous
 62
     7
100
AcDbLine
 10
5.031767869148608
 20
2.170981452431361
 30
0.0
 11
3.293235034794576
 21
-1.557329608484371
 31
0.0
  0
LINE
  5
69
330
27
100
AcDbEntity
  8
0
  6
Continuous
 62
     7
100
AcDbLine
 10
2.66981029510498
 20
-2.203017234802246
 30
0.0
 11
4.769333839416503
 21
-2.203017234802246
 31
0.0
  0
LINE
  5
6A
330
27
100
AcDbEntity
  8
0
  6
Continuous
 62
     7
100
AcDbLine
 10
5.031771659851074
 20
2.17098045349121
 30
0.0
 11
7.743658065795897
 21
2.17098045349121
 31
0.0
  0
LINE
  5
6B
330
27
100
AcDbEntity
  8
0
  6
Continuous
 62
     7
100
AcDbLine
 10
1.666696548461914
 20
2.17098045349121
 30
0.0
 11
3.766211509704588
 21
2.17098045349121
 31
0.0
  0
LINE
  5
6C
330
27
100
AcDbEntity
  8
0
  6
Continuous
 62
     7
100
AcDbLine
 10
1.048352444644362
 20
-1.41982803990438
 30
0.0
 11
2.302766284712959
 21
1.270267224119577
 31
0.0
  0
LINE
  5
6D
330
27
100
AcDbEntity
  8
0
  6
Continuous
 62
     7
100
AcDbLine
 10
1.345939400448173
 20
-2.203016930455531
 30
0.0
 11
3.057706742392752
 21
1.467874662564668
 31
0.0
  0
LINE
  5
6E
330
27
100
AcDbEntity
  8
0
  6
Continuous
 62
     7
100
AcDbLine
 10
0.7312247846646898
 20
-1.419837330947475
 30
0.0
 11
-0.6258497270637946
 21
1.49041859462812
 31
0.0
  0
LINE
  5
6F
330
27
100
AcDbEntity
  8
0
  6
Continuous
 62
     7
100
AcDbLine
 10
-1.220137231701584
 20
-2.203020892613181
 30
0.0
 11
-2.93190119173164
 21
1.467869073125796
 31
0.0
  0
LINE
  5
70
330
27
100
AcDbEntity
  8
0
  6
Continuous
 62
     7
100
AcDbLine
 10
1.666696548461914
 20
2.17098045349121
 30
0.0
 11
1.666696548461914
 21
1.99601936340332
 31
0.0
  0
LINE
  5
71
330
27
100
AcDbEntity
  8
0
  6
Continuous
 62
     7
100
AcDbLine
 10
3.766211509704588
 20
2.17098045349121
 30
0.0
 11
3.766211509704588
 21
1.99601936340332
 31
0.0
  0
LINE
  5
72
330
27
100
AcDbEntity
  8
0
  6
Continuous
 62
     7
100
AcDbLine
 10
-0.3161876797676086
 20
2.17098045349121
 30
0.0
 11
-0.3161876797676086
 21
1.99601936340332
 31
0.0
  0
LINE
  5
73
330
27
100
AcDbEntity
  8
0
  6
Continuous
 62
     7
100
AcDbLine
 10
-3.640434265136718
 20
2.17098045349121
 30
0.0
 11
-3.640434265136718
 21
1.99601936340332
 31
0.0
  0
LINE
  5
74
330
27
100
AcDbEntity
  8
0
  6
Continuous
 62
     7
100
AcDbLine
 10
-1.220130920410156
 20
-2.203017234802246
 30
0.0
 11
1.34594440460205
 21
-2.203017234802246
 31
0.0
  0
LINE
  5
75
330
27
100
AcDbEntity
  8
0
  6
Continuous
 62
     7
100
AcDbLine
 10
-3.640434265136718
 20
2.17098045349121
 30
0.0
 11
-0.3161876797676086
 21
2.17098045349121
 31
0.0
  0
LINE
  5
76
330
27
100
AcDbEntity
  8
0
  6
Continuous
 62
     7
100
AcDbLine
 10
-2.734547852499871
 20
-0.8360918108463691
 30
0.0
 11
-3.292898454584984
 21
-1.394446601770937
 31
0.0
  0
LINE
  5
77
330
27
100
AcDbEntity
  8
0
  6
Continuous
 62
     7
100
AcDbLine
 10
-2.734549522399901
 20
-0.8360894918441772
 30
0.0
 11
-2.559597015380858
 21
-0.8360894918441772
 31
0.0
  0
LINE
  5
78
330
27
100
AcDbEntity
  8
0
  6
Continuous
 62
     7
100
AcDbLine
 10
-2.800630741500015
 20
-2.203016917724653
 30
0.0
 11
-2.559604583520409
 21
-0.8360891374889547
 31
0.0
  0
LINE
  5
79
330
27
100
AcDbEntity
  8
0
  6
Continuous
 62
     7
100
AcDbLine
 10
-6.060719490051268
 20
-1.479854583740234
 30
0.0
 11
-3.499093055725096
 21
-1.479854583740234
 31
0.0
  0
LINE
  5
7A
330
27
100
AcDbEntity
  8
0
  6
Continuous
 62
     7
100
AcDbLine
 10
-8.772604942321777
 20
-2.02807331085205
 30
0.0
 11
-8.772604942321777
 21
-2.203017234802246
 31
0.0
  0
LINE
  5
7B
330
27
100
AcDbEntity
  8
0
  6
Continuous
 62
     7
100
AcDbLine
 10
-8.772597861236079
 20
-2.028063652604543
 30
0.0
 11
-8.25296186146528
 21
-1.543501462522668
 31
0.0
  0
LINE
  5
7C
330
27
100
AcDbEntity
  8
0
  6
Continuous
 62
     7
100
AcDbLine
 10
-5.44835551145411
 20
1.99601119841759
 30
0.0
 11
-5.967990972767211
 21
1.511438653587446
 31
0.0
  0
LINE
  5
7D
330
27
100
AcDbEntity
  8
0
  6
Continuous
 62
     7
100
AcDbLine
 10
-8.772599743276032
 20
1.996015632302372
 30
0.0
 11
-8.252954958117468
 21
1.511437669363771
 31
0.0
  0
LINE
  5
7E
330
27
100
AcDbEntity
  8
0
  6
Continuous
 62
     7
100
AcDbLine
 10
-6.060719490051268
 20
1.298173904418945
 30
0.0
 11
-6.060719490051268
 21
-1.479854583740234
 31
0.0
  0
LINE
  5
7F
330
27
100
AcDbEntity
  8
0
  6
Continuous
 62
     7
100
AcDbLine
 10
-8.160234451293945
 20
1.298173904418945
 30
0.0
 11
-8.160234451293945
 21
-1.330237388610839
 31
0.0
  0
LINE
  5
80
330
27
100
AcDbEntity
  8
0
  6
Continuous
 62
     7
100
AcDbLine
 10
-5.448357582092285
 20
2.17098045349121
 30
0.0
 11
-5.448357582092285
 21
1.996001243591307
 31
0.0
  0
LINE
  5
81
330
27
100
AcDbEntity
  8
0
  6
Continuous
 62
     7
100
AcDbLine
 10
-8.772604942321777
 20
2.17098045349121
 30
0.0
 11
-5.448357582092285
 21
2.17098045349121
 31
0.0
  0
LINE
  5
82
330
27
100
AcDbEntity
  8
0
  6
Continuous
 62
     7
100
AcDbLine
 10
-8.772604942321777
 20
2.17098045349121
 30
0.0
 11
-8.772604942321777
 21
1.996010780334471
 31
0.0
  0
LINE
  5
83
330
27
100
AcDbEntity
  8
0
  6
Continuous
 62
     7
100
AcDbLine
 10
-11.59529113769531
 20
2.17098045349121
 30
0.0
 11
-9.49577522277832
 21
2.17098045349121
 31
0.0
  0
LINE
  5
84
330
27
100
AcDbEntity
  8
0
  6
Continuous
 62
     7
100
AcDbLine
 10
-9.495771263513802
 20
1.996022872827721
 30
0.0
 11
-9.935841707738973
 21
1.699191626442767
 31
0.0
  0
LINE
  5
85
330
27
100
AcDbEntity
  8
0
  6
Continuous
 62
     7
100
AcDbLine
 10
-11.59528471490597
 20
1.996017233212966
 30
0.0
 11
-11.15519997602627
 21
1.699176514207408
 31
0.0
  0
LINE
  5
86
330
27
100
AcDbEntity
  8
0
  6
Continuous
 62
     7
100
AcDbLine
 10
-10.06438159942627
 20
1.457438468933104
 30
0.0
 11
-10.06438159942627
 21
-0.3535324335098267
 31
0.0
  0
LINE
  5
87
330
27
100
AcDbEntity
  8
0
  6
Continuous
 62
     7
100
AcDbLine
 10
-11.02666664123535
 20
1.457429885864256
 30
0.0
 11
-11.02666664123535
 21
-0.8664843440055847
 31
0.0
  0
LINE
  5
88
330
27
100
AcDbEntity
  8
0
  6
Continuous
 62
     7
100
AcDbLine
 10
-12.76167378305553
 20
1.996031481660509
 30
0.0
 11
-13.24550668190545
 21
1.669679097631274
 31
0.0
  0
LINE
  5
89
330
27
100
AcDbEntity
  8
0
  6
Continuous
 62
     7
100
AcDbLine
 10
-16.0859184709999
 20
1.996009578958306
 30
0.0
 11
-15.60208957599764
 21
1.669663189021719
 31
0.0
  0
LINE
  5
8A
330
27
100
AcDbEntity
  8
0
  6
Continuous
 62
     7
100
AcDbLine
 10
-13.37405014038086
 20
1.427920341491699
 30
0.0
 11
-13.37405014038086
 21
-0.8664664626121519
 31
0.0
  0
LINE
  5
8B
330
27
100
AcDbEntity
  8
0
  6
Continuous
 62
     7
100
AcDbLine
 10
-15.4735631942749
 20
1.427920341491699
 30
0.0
 11
-15.4735631942749
 21
-0.3850880265235901
 31
0.0
  0
LINE
  5
8C
330
27
100
AcDbEntity
  8
0
  6
Continuous
 62
     7
100
AcDbLine
 10
-11.59529113769531
 20
2.17098045349121
 30
0.0
 11
-11.59529113769531
 21
1.996010780334471
 31
0.0
  0
LINE
  5
8D
330
27
100
AcDbEntity
  8
0
  6
Continuous
 62
     7
100
AcDbLine
 10
-12.76168155670166
 20
2.17098045349121
 30
0.0
 11
-12.76168155670166
 21
1.99601936340332
 31
0.0
  0
LINE
  5
8E
330
27
100
AcDbEntity
  8
0
  6
Continuous
 62
     7
100
AcDbLine
 10
-9.49577522277832
 20
2.17098045349121
 30
0.0
 11
-9.49577522277832
 21
1.99601936340332
 31
0.0
  0
LINE
  5
8F
330
27
100
AcDbEntity
  8
0
  6
Continuous
 62
     7
100
AcDbLine
 10
-16.08592224121094
 20
2.17098045349121
 30
0.0
 11
-16.08592224121094
 21
1.99601936340332
 31
0.0
  0
LINE
  5
90
330
27
100
AcDbEntity
  8
0
  6
Continuous
 62
     7
100
AcDbLine
 10
-8.772604942321777
 20
-2.203017234802246
 30
0.0
 11
-2.800623893737791
 21
-2.203017234802246
 31
0.0
  0
LINE
  5
91
330
27
100
AcDbEntity
  8
0
  6
Continuous
 62
     7
100
AcDbLine
 10
-16.08592224121094
 20
2.17098045349121
 30
0.0
 11
-12.76168155670166
 21
2.17098045349121
 31
0.0
  0
POINT
  5
92
330
27
100
AcDbEntity
  8
0
  6
Continuous
 62
     7
100
AcDbPoint
 10
0.0
 20
0.0
 30
0.0
  0
ENDBLK
  5
93
330
27
100
AcDbEntity
  8
0
370
    -2
100
AcDbBlockEnd
  0
BLOCK
  5
95
330
94
100
AcDbEntity
  8
0
  6
ByBlock
 62
     0
370
    -2
100
AcDbBlockBegin
  2
*D2
 70
     1
 10
0.0
 20
0.0
 30
0.0
  3
*D2
  1

  0
LINE
  5
3B4
330
94
100
AcDbEntity
  8
PV
 62
     0
370
    -2
100
AcDbLine
 10
162.6497497558593
 20
166.537446975708
 30
0.0
 11
162.6497497558593
 21
110.3666161188553
 31
0.0
  0
LINE
  5
3B5
330
94
100
AcDbEntity
  8
PV
 62
     0
370
    -2
100
AcDbLine
 10
-155.3502502441406
 20
166.537446975708
 30
0.0
 11
-155.3502502441406
 21
110.3666161188553
 31
0.0
  0
LINE
  5
3B6
330
94
100
AcDbEntity
  8
PV
 62
     0
370
    -2
100
AcDbLine
 10
151.5697497558593
 20
115.1666163095901
 30
0.0
 11
-144.2702502441406
 21
115.1666163095901
 31
0.0
  0
INSERT
  5
3B7
330
94
100
AcDbEntity
  8
PV
 62
     0
370
    -2
100
AcDbBlockReference
  2
_OPEN30
 10
162.6497497558593
 20
115.1666163095901
 30
0.0
 41
11.08
 42
11.08
 43
11.08
  0
INSERT
  5
3B8
330
94
100
AcDbEntity
  8
PV
 62
     0
370
    -2
100
AcDbBlockReference
  2
_OPEN30
 10
-155.3502502441406
 20
115.1666163095901
 30
0.0
 41
11.08
 42
11.08
 43
11.08
 50
180.0
  0
MTEXT
  5
3B9
102
{ACAD_XDICTIONARY
360
8BF
102
}
330
94
100
AcDbEntity
  8
PV
 62
     0
100
AcDbMText
 10
53.27391548638388
 20
127.5006159433792
 30
0.0
 40
16.66799926757812
 41
0.0
 71
     5
 72
     1
  1
\A1;\U+2205318
  7
MX_DIMTXSTY_2
 73
     1
 44
0.9359251894303499
1001
ACAD
1000
MTEXTBEGIN
1070
    73
1070
     1
1070
    44
1040
0.9359251894303499
1070
    74
1070
     0
1000
MTEXTEND
  0
POINT
  5
3BA
330
94
100
AcDbEntity
  8
DEFPOINTS
 62
     0
370
     0
100
AcDbPoint
 10
162.6497497558593
 20
171.617446899414
 30
0.0
  0
POINT
  5
3BB
330
94
100
AcDbEntity
  8
DEFPOINTS
 62
     0
370
     0
100
AcDbPoint
 10
-155.3502502441406
 20
171.617446899414
 30
0.0
  0
POINT
  5
3BC
330
94
100
AcDbEntity
  8
DEFPOINTS
 62
     0
370
     0
100
AcDbPoint
 10
-155.3502502441406
 20
115.1666163095901
 30
0.0
  0
ENDBLK
  5
A6
330
94
100
AcDbEntity
  8
0
  6
ByBlock
 62
     0
370
    -2
100
AcDbBlockEnd
  0
BLOCK
  5
9A
330
99
100
AcDbEntity
  8
0
  6
ByBlock
 62
     0
370
    -2
100
AcDbBlockBegin
  2
_OPEN30
 70
     2
 10
0.0
 20
0.0
 30
0.0
  3
_OPEN30
  1

  0
LINE
  5
9B
330
99
100
AcDbEntity
  8
0
  6
ByBlock
 62
     0
370
    -2
100
AcDbLine
 10
-1.0
 20
0.267949
 30
0.0
 11
0.0
 21
0.0
 31
0.0
  0
LINE
  5
9C
330
99
100
AcDbEntity
  8
0
  6
ByBlock
 62
     0
370
    -2
100
AcDbLine
 10
0.0
 20
0.0
 30
0.0
 11
-1.0
 21
-0.267949
 31
0.0
  0
LINE
  5
9D
330
99
100
AcDbEntity
  8
0
  6
ByBlock
 62
     0
370
    -2
100
AcDbLine
 10
0.0
 20
0.0
 30
0.0
 11
-1.0
 21
0.0
 31
0.0
  0
ENDBLK
  5
9E
330
99
100
AcDbEntity
  8
0
  6
ByBlock
 62
     0
370
    -2
100
AcDbBlockEnd
  0
BLOCK
  5
B8
330
B7
100
AcDbEntity
  8
0
  6
ByBlock
 62
     0
370
    -2
100
AcDbBlockBegin
  2
*D4
 70
     1
 10
0.0
 20
0.0
 30
0.0
  3
*D4
  1

  0
LINE
  5
5EE
330
B7
100
AcDbEntity
  8
PV
  6
Continuous
 62
     0
370
    -2
100
AcDbLine
 10
59.72978019714354
 20
370.6174621582031
 30
0.0
 11
280.3294191360474
 21
370.6174621582031
 31
0.0
  0
LINE
  5
5EF
330
B7
100
AcDbEntity
  8
PV
  6
Continuous
 62
     0
370
    -2
100
AcDbLine
 10
88.72978019714356
 20
-284.3825988769531
 30
0.0
 11
280.3294191360473
 21
-284.3825988769532
 31
0.0
  0
LINE
  5
5F0
330
B7
100
AcDbEntity
  8
PV
  6
Continuous
 62
     0
370
    -2
100
AcDbLine
 10
275.5294189453126
 20
359.5374621582032
 30
0.0
 11
275.5294189453124
 21
-273.3025988769532
 31
0.0
  0
INSERT
  5
5F1
330
B7
100
AcDbEntity
  8
PV
  6
Continuous
 62
     0
370
    -2
100
AcDbBlockReference
  2
_OPEN30
 10
275.5294189453126
 20
370.6174621582031
 30
0.0
 41
11.08
 42
11.08
 43
11.08
 50
90.0
  0
INSERT
  5
5F2
330
B7
100
AcDbEntity
  8
PV
  6
Continuous
 62
     0
370
    -2
100
AcDbBlockReference
  2
_OPEN30
 10
275.5294189453124
 20
-284.3825988769532
 30
0.0
 41
11.08
 42
11.08
 43
11.08
 50
270.0
  0
MTEXT
  5
5F3
330
B7
100
AcDbEntity
  8
PV
  6
Continuous
 62
     0
100
AcDbMText
 10
263.1954193115234
 20
78.42352294921875
 30
0.0
 40
16.66799926757812
 41
0.0
 71
     5
 72
     1
  1
\A1;656
  7
MX_DIMTXSTY_2
 11
0.0000000000000001
 21
1.0
 31
0.0
 73
     1
 44
0.9359251894303499
1001
ACAD
1000
MTEXTBEGIN
1070
    73
1070
     1
1070
    44
1040
0.9359251894303499
1070
    74
1070
     0
1000
MTEXTEND
  0
POINT
  5
5F4
330
B7
100
AcDbEntity
  8
DEFPOINTS
  6
Continuous
 62
     0
370
     0
100
AcDbPoint
 10
54.6497802734375
 20
370.6174621582031
 30
0.0
  0
POINT
  5
5F5
330
B7
100
AcDbEntity
  8
DEFPOINTS
  6
Continuous
 62
     0
370
     0
100
AcDbPoint
 10
83.64978027343751
 20
-284.3825988769531
 30
0.0
  0
POINT
  5
5F6
330
B7
100
AcDbEntity
  8
DEFPOINTS
  6
Continuous
 62
     0
370
     0
100
AcDbPoint
 10
275.5294189453124
 20
-284.3825988769532
 30
0.0
  0
ENDBLK
  5
C2
330
B7
100
AcDbEntity
  8
0
  6
ByBlock
 62
     0
370
    -2
100
AcDbBlockEnd
  0
BLOCK
  5
C7
330
C6
100
AcDbEntity
  8
0
  6
ByBlock
 62
     0
370
    -2
100
AcDbBlockBegin
  2
*D5
 70
     1
 10
0.0
 20
0.0
 30
0.0
  3
*D5
  1

  0
LINE
  5
3AB
330
C6
100
AcDbEntity
  8
PV
  6
Continuous
 62
     0
370
    -2
100
AcDbLine
 10
-177.5504608154297
 20
180.6973857879638
 30
0.0
 11
-177.5504608154297
 21
252.4318519072926
 31
0.0
  0
LINE
  5
3AC
330
C6
100
AcDbEntity
  8
PV
  6
Continuous
 62
     0
370
    -2
100
AcDbLine
 10
184.8499603271484
 20
180.6973857879638
 30
0.0
 11
184.8499603271484
 21
252.4318519072926
 31
0.0
  0
LINE
  5
3AD
330
C6
100
AcDbEntity
  8
PV
  6
Continuous
 62
     0
370
    -2
100
AcDbLine
 10
-166.4704608154297
 20
247.6318517165578
 30
0.0
 11
173.7699603271484
 21
247.6318517165578
 31
0.0
  0
INSERT
  5
3AE
330
C6
100
AcDbEntity
  8
PV
  6
Continuous
 62
     0
370
    -2
100
AcDbBlockReference
  2
_OPEN30
 10
-177.5504608154297
 20
247.6318517165578
 30
0.0
 41
11.08
 42
11.08
 43
11.08
 50
180.0
  0
INSERT
  5
3AF
330
C6
100
AcDbEntity
  8
PV
  6
Continuous
 62
     0
370
    -2
100
AcDbBlockReference
  2
_OPEN30
 10
184.8499603271484
 20
247.6318517165578
 30
0.0
 41
11.08
 42
11.08
 43
11.08
  0
MTEXT
  5
3B0
102
{ACAD_XDICTIONARY
360
8BD
102
}
330
C6
100
AcDbEntity
  8
PV
  6
Continuous
 62
     0
100
AcDbMText
 10
52.48024713132145
 20
259.9658513503468
 30
0.0
 40
16.66799926757812
 41
0.0
 71
     5
 72
     1
  1
\A1;\U+2205362
  7
MX_DIMTXSTY_3
 73
     1
 44
0.9359251894303499
1001
ACAD
1000
MTEXTBEGIN
1070
    73
1070
     1
1070
    44
1040
0.9359251894303499
1070
    74
1070
     0
1000
MTEXTEND
  0
POINT
  5
3B1
330
C6
100
AcDbEntity
  8
DEFPOINTS
  6
Continuous
 62
     0
370
     0
100
AcDbPoint
 10
-177.5504608154297
 20
175.6173858642578
 30
0.0
  0
POINT
  5
3B2
330
C6
100
AcDbEntity
  8
DEFPOINTS
  6
Continuous
 62
     0
370
     0
100
AcDbPoint
 10
184.8499603271484
 20
175.6173858642578
 30
0.0
  0
POINT
  5
3B3
330
C6
100
AcDbEntity
  8
DEFPOINTS
  6
Continuous
 62
     0
370
     0
100
AcDbPoint
 10
184.8499603271484
 20
247.6318517165578
 30
0.0
  0
ENDBLK
  5
D2
330
C6
100
AcDbEntity
  8
0
  6
ByBlock
 62
     0
370
    -2
100
AcDbBlockEnd
  0
BLOCK
  5
D5
330
D4
100
AcDbEntity
  8
0
  6
ByBlock
 62
     0
370
    -2
100
AcDbBlockBegin
  2
*D6
 70
     1
 10
0.0
 20
0.0
 30
0.0
  3
*D6
  1

  0
LINE
  5
D6
330
D4
100
AcDbEntity
  8
0
  6
Continuous
 62
     7
100
AcDbLine
 10
195.5294189453125
 20
-144.3825378417969
 30
0.0
 11
195.5294189453125
 21
-284.3826599121094
 31
0.0
  0
LINE
  5
D7
330
D4
100
AcDbEntity
  8
0
  6
Continuous
 62
     7
100
AcDbLine
 10
88.62972831726073
 20
-144.3825378417969
 30
0.0
 11
200.3294143676758
 21
-144.3825378417969
 31
0.0
  0
LINE
  5
D8
330
D4
100
AcDbEntity
  8
0
  6
Continuous
 62
     7
100
AcDbLine
 10
88.72974967956542
 20
-284.3826599121094
 30
0.0
 11
200.3294143676758
 21
-284.3826599121094
 31
0.0
  0
INSERT
  5
D9
330
D4
100
AcDbEntity
  8
0
  6
Continuous
 62
     7
100
AcDbBlockReference
  2
_OPEN30
 10
195.5294189453125
 20
-144.3825378417969
 30
0.0
 41
11.08
 42
11.08
 43
11.08
 50
90.0
  0
INSERT
  5
DA
330
D4
100
AcDbEntity
  8
0
  6
Continuous
 62
     7
100
AcDbBlockReference
  2
_OPEN30
 10
195.5294189453125
 20
-284.3826599121094
 30
0.0
 41
11.08
 42
11.08
 43
11.08
 50
270.0
  0
MTEXT
  5
DC
330
D4
100
AcDbEntity
  8
0
  6
Continuous
 62
     7
100
AcDbMText
 10
183.19504737854
 20
-220.8479309082031
 30
0.0
 40
16.66874313354492
 41
0.0
 71
     5
 72
     1
  1
\A1;140
  7
MX_DIMTXSTY_4
 11
-0.0000000000000001
 21
1.0
 31
0.0
 73
     1
 44
0.9000000901136713
1001
ACAD
1000
MTEXTBEGIN
1070
    73
1070
     1
1070
    44
1040
0.9000000901136713
1070
    74
1070
     0
1000
MTEXTEND
  0
POINT
  5
DD
330
D4
100
AcDbEntity
  8
DEFPOINTS
  6
Continuous
 62
     0
100
AcDbPoint
 10
83.54972839355468
 20
-144.3825378417969
 30
0.0
  0
POINT
  5
DE
330
D4
100
AcDbEntity
  8
DEFPOINTS
  6
Continuous
 62
     0
100
AcDbPoint
 10
83.64974975585937
 20
-284.3826599121094
 30
0.0
  0
POINT
  5
DF
330
D4
100
AcDbEntity
  8
DEFPOINTS
  6
Continuous
 62
     0
100
AcDbPoint
 10
195.5294189453125
 20
-284.3826599121094
 30
0.0
  0
ENDBLK
  5
E0
330
D4
100
AcDbEntity
  8
0
  6
ByBlock
 62
     0
370
    -2
100
AcDbBlockEnd
  0
BLOCK
  5
E3
330
E2
100
AcDbEntity
  8
0
  6
ByBlock
 62
     0
370
    -2
100
AcDbBlockBegin
  2
*D7
 70
     1
 10
0.0
 20
0.0
 30
0.0
  3
*D7
  1

  0
LINE
  5
5DC
330
E2
100
AcDbEntity
  8
PV
 62
     0
370
    -2
100
AcDbLine
 10
133.5298595428467
 20
-6.382613658905087
 30
0.0
 11
250.3106465982309
 21
-6.382613658905119
 31
0.0
  0
LINE
  5
5DD
330
E2
100
AcDbEntity
  8
PV
 62
     0
370
    -2
100
AcDbLine
 10
88.72974967956542
 20
-284.3826599121094
 30
0.0
 11
250.3106465982309
 21
-284.3826599121094
 31
0.0
  0
LINE
  5
5DE
330
E2
100
AcDbEntity
  8
PV
 62
     0
370
    -2
100
AcDbLine
 10
245.5106464074961
 20
-17.46261365890511
 30
0.0
 11
245.510646407496
 21
-273.3026599121095
 31
0.0
  0
INSERT
  5
5DF
330
E2
100
AcDbEntity
  8
PV
 62
     0
370
    -2
100
AcDbBlockReference
  2
_OPEN30
 10
245.5106464074961
 20
-6.382613658905119
 30
0.0
 41
11.08
 42
11.08
 43
11.08
 50
90.0
  0
INSERT
  5
5E0
330
E2
100
AcDbEntity
  8
PV
 62
     0
370
    -2
100
AcDbBlockReference
  2
_OPEN30
 10
245.510646407496
 20
-284.3826599121094
 30
0.0
 41
11.08
 42
11.08
 43
11.08
 50
270.0
  0
MTEXT
  5
5E1
330
E2
100
AcDbEntity
  8
PV
 62
     0
100
AcDbMText
 10
233.1762748407236
 20
-150.2022823079014
 30
0.0
 40
16.66874313354492
 41
0.0
 71
     5
 72
     1
  1
\A1;279
 11
0.0000000000000001
 21
1.0
 31
0.0
 73
     1
 44
0.9000000901136713
1001
ACAD
1000
MTEXTBEGIN
1070
    73
1070
     1
1070
    44
1040
0.9000000901136713
1070
    74
1070
     0
1000
MTEXTEND
  0
POINT
  5
5E2
330
E2
100
AcDbEntity
  8
DEFPOINTS
 62
     0
370
     0
100
AcDbPoint
 10
128.4498596191406
 20
-6.382613658905086
 30
0.0
  0
POINT
  5
5E3
330
E2
100
AcDbEntity
  8
DEFPOINTS
 62
     0
370
     0
100
AcDbPoint
 10
83.64974975585937
 20
-284.3826599121094
 30
0.0
  0
POINT
  5
5E4
330
E2
100
AcDbEntity
  8
DEFPOINTS
 62
     0
370
     0
100
AcDbPoint
 10
245.510646407496
 20
-284.3826599121094
 30
0.0
  0
ENDBLK
  5
ED
330
E2
100
AcDbEntity
  8
0
  6
ByBlock
 62
     0
370
    -2
100
AcDbBlockEnd
  0
BLOCK
  5
1B9
330
1B8
100
AcDbEntity
  8
0
  6
ByBlock
 62
     0
370
    -2
100
AcDbBlockBegin
  2
*X8
 70
     1
 10
0.0
 20
0.0
 30
0.0
  3
*X8
  1

  0
LINE
  5
1BA
330
1B8
100
AcDbEntity
  8
0
  6
Continuous
 62
     0
100
AcDbLine
 10
-330.2892572040381
 20
528.0
 30
0.0
 11
-321.7872592933062
 21
528.0
 31
0.0
  0
LINE
  5
1BB
330
1B8
100
AcDbEntity
  8
0
  6
Continuous
 62
     0
100
AcDbLine
 10
-315.8155315392132
 20
528.0
 30
0.0
 11
-311.969393775011
 21
528.0
 31
0.0
  0
LINE
  5
1BC
330
1B8
100
AcDbEntity
  8
0
  6
Continuous
 62
     0
100
AcDbLine
 10
-302.8589828779122
 20
528.0
 30
0.0
 11
-280.7066797499243
 21
528.0
 31
0.0
  0
LINE
  5
1BD
330
1B8
100
AcDbEntity
  8
0
  6
Continuous
 62
     0
100
AcDbLine
 10
-276.1918449213526
 20
528.0
 30
0.0
 11
-266.7721491221139
 21
528.0
 31
0.0
  0
LINE
  5
1BE
330
1B8
100
AcDbEntity
  8
0
  6
Continuous
 62
     0
100
AcDbLine
 10
-266.1094946500114
 20
528.0
 30
0.0
 11
-263.3049517845852
 21
528.0
 31
0.0
  0
LINE
  5
1BF
330
1B8
100
AcDbEntity
  8
0
  6
Continuous
 62
     0
100
AcDbLine
 10
-256.7201273596412
 20
528.0
 30
0.0
 11
-252.7431906025524
 21
528.0
 31
0.0
  0
LINE
  5
1C0
330
1B8
100
AcDbEntity
  8
0
  6
Continuous
 62
     0
100
AcDbLine
 10
-241.4880547164703
 20
528.0
 30
0.0
 11
-232.1701231940819
 21
528.0
 31
0.0
  0
LINE
  5
1C1
330
1B8
100
AcDbEntity
  8
0
  6
Continuous
 62
     0
100
AcDbLine
 10
-227.046951022568
 20
528.0
 30
0.0
 11
-216.640007248258
 21
528.0
 31
0.0
  0
LINE
  5
1C2
330
1B8
100
AcDbEntity
  8
0
  6
Continuous
 62
     0
100
AcDbLine
 10
-212.2587810712619
 20
528.0
 30
0.0
 11
-208.0337408638623
 21
528.0
 31
0.0
  0
LINE
  5
1C3
330
1B8
100
AcDbEntity
  8
0
  6
Continuous
 62
     0
100
AcDbLine
 10
-331.8791113661184
 20
532.0
 30
0.0
 11
-323.4962005615234
 21
532.0
 31
0.0
  0
LINE
  5
1C4
330
1B8
100
AcDbEntity
  8
0
  6
Continuous
 62
     0
100
AcDbLine
 10
-314.1066665649414
 20
532.0
 30
0.0
 11
-310.2820887589666
 21
532.0
 31
0.0
  0
LINE
  5
1C5
330
1B8
100
AcDbEntity
  8
0
  6
Continuous
 62
     0
100
AcDbLine
 10
-302.6409378051758
 20
532.0
 30
0.0
 11
-294.2428779602051
 21
532.0
 31
0.0
  0
LINE
  5
1C6
330
1B8
100
AcDbEntity
  8
0
  6
Continuous
 62
     0
100
AcDbLine
 10
-278.0570753978923
 20
532.0
 30
0.0
 11
-268.7908094844834
 21
532.0
 31
0.0
  0
LINE
  5
1C7
330
1B8
100
AcDbEntity
  8
0
  6
Continuous
 62
     0
100
AcDbLine
 10
-264.0908962990991
 20
532.0
 30
0.0
 11
-261.4397184497743
 21
532.0
 31
0.0
  0
LINE
  5
1C8
330
1B8
100
AcDbEntity
  8
0
  6
Continuous
 62
     0
100
AcDbLine
 10
-254.8549044145073
 20
532.0
 30
0.0
 11
-234.0434130479083
 21
532.0
 31
0.0
  0
LINE
  5
1C9
330
1B8
100
AcDbEntity
  8
0
  6
Continuous
 62
     0
100
AcDbLine
 10
-229.355523152218
 20
532.0
 30
0.0
 11
-220.8734351624357
 21
532.0
 31
0.0
  0
LINE
  5
1CA
330
1B8
100
AcDbEntity
  8
0
  6
Continuous
 62
     0
100
AcDbLine
 10
-208.0253532464575
 20
532.0
 30
0.0
 11
-205.7251690070117
 21
532.0
 31
0.0
  0
LINE
  5
1CB
330
1B8
100
AcDbEntity
  8
0
  6
Continuous
 62
     0
100
AcDbLine
 10
-331.8942527770996
 20
536.0
 30
0.0
 11
-323.4962005615234
 21
536.0
 31
0.0
  0
LINE
  5
1CC
330
1B8
100
AcDbEntity
  8
0
  6
Continuous
 62
     0
100
AcDbLine
 10
-314.1066665649414
 20
536.0
 30
0.0
 11
-310.2575263977052
 21
536.0
 31
0.0
  0
LINE
  5
1CD
330
1B8
100
AcDbEntity
  8
0
  6
Continuous
 62
     0
100
AcDbLine
 10
-302.6409378051758
 20
536.0
 30
0.0
 11
-294.2428779602051
 21
536.0
 31
0.0
  0
LINE
  5
1CE
330
1B8
100
AcDbEntity
  8
0
  6
Continuous
 62
     0
100
AcDbLine
 10
-279.9223058744321
 20
536.0
 30
0.0
 11
-270.6560399610232
 21
536.0
 31
0.0
  0
LINE
  5
1CF
330
1B8
100
AcDbEntity
  8
0
  6
Continuous
 62
     0
100
AcDbLine
 10
-262.2256629642882
 20
536.0
 30
0.0
 11
-259.5744851149634
 21
536.0
 31
0.0
  0
LINE
  5
1D0
330
1B8
100
AcDbEntity
  8
0
  6
Continuous
 62
     0
100
AcDbLine
 10
-252.9896814693735
 20
536.0
 30
0.0
 11
-249.540475161565
 21
536.0
 31
0.0
  0
LINE
  5
1D1
330
1B8
100
AcDbEntity
  8
0
  6
Continuous
 62
     0
100
AcDbLine
 10
-245.1748954666892
 20
536.0
 30
0.0
 11
-235.9086444274518
 21
536.0
 31
0.0
  0
LINE
  5
1D2
330
1B8
100
AcDbEntity
  8
0
  6
Continuous
 62
     0
100
AcDbLine
 10
-229.3215655252004
 20
536.0
 30
0.0
 11
-220.8270604445019
 21
536.0
 31
0.0
  0
LINE
  5
1D3
330
1B8
100
AcDbEntity
  8
0
  6
Continuous
 62
     0
100
AcDbLine
 10
-208.0717280537648
 20
536.0
 30
0.0
 11
-205.6563720703125
 21
536.0
 31
0.0
  0
LINE
  5
1D4
330
1B8
100
AcDbEntity
  8
0
  6
Continuous
 62
     0
100
AcDbLine
 10
-331.9304307969673
 20
540.0
 30
0.0
 11
-323.4599805799859
 21
540.0
 31
0.0
  0
LINE
  5
1D5
330
1B8
100
AcDbEntity
  8
0
  6
Continuous
 62
     0
100
AcDbLine
 10
-314.1191641566175
 20
540.0
 30
0.0
 11
-310.2450338718896
 21
540.0
 31
0.0
  0
LINE
  5
1D6
330
1B8
100
AcDbEntity
  8
0
  6
Continuous
 62
     0
100
AcDbLine
 10
-302.9654670290859
 20
540.0
 30
0.0
 11
-293.918348736295
 21
540.0
 31
0.0
  0
LINE
  5
1D7
330
1B8
100
AcDbEntity
  8
0
  6
Continuous
 62
     0
100
AcDbLine
 10
-281.7976686766982
 20
540.0
 30
0.0
 11
-272.5204372093199
 21
540.0
 31
0.0
  0
LINE
  5
1D8
330
1B8
100
AcDbEntity
  8
0
  6
Continuous
 62
     0
100
AcDbLine
 10
-260.7602012129116
 20
540.0
 30
0.0
 11
-257.6990773865342
 21
540.0
 31
0.0
  0
LINE
  5
1D9
330
1B8
100
AcDbEntity
  8
0
  6
Continuous
 62
     0
100
AcDbLine
 10
-251.1244585242398
 20
540.0
 30
0.0
 11
-237.7738758069952
 21
540.0
 31
0.0
  0
LINE
  5
1DA
330
1B8
100
AcDbEntity
  8
0
  6
Continuous
 62
     0
100
AcDbLine
 10
-226.9196692276153
 20
540.0
 30
0.0
 11
-216.1865636328215
 21
540.0
 31
0.0
  0
LINE
  5
1DB
330
1B8
100
AcDbEntity
  8
0
  6
Continuous
 62
     0
100
AcDbLine
 10
-212.7122249548187
 20
540.0
 30
0.0
 11
-205.6563720703125
 21
540.0
 31
0.0
  0
ENDBLK
  5
1DC
330
1B8
100
AcDbEntity
  8
0
  6
ByBlock
 62
     0
370
    -2
100
AcDbBlockEnd
  0
BLOCK
  5
2A0
330
29E
100
AcDbEntity
  8
0
370
     0
100
AcDbBlockBegin
  2
GENAXEH
 70
     0
 10
0.0
 20
0.0
 30
0.0
  3
GENAXEH
  1

  0
LINE
  5
29F
330
29E
100
AcDbEntity
  8
0
100
AcDbLine
 10
-1.0
 20
0.0
 30
0.0
 11
1.0
 21
0.0
 31
0.0
  0
ENDBLK
  5
2A1
330
29E
100
AcDbEntity
  8
0
370
     0
100
AcDbBlockEnd
  0
BLOCK
  5
515
330
514
100
AcDbEntity
  8
0
370
     0
100
AcDbBlockBegin
  2
*D10
 70
     1
 10
0.0
 20
0.0
 30
0.0
  3
*D10
  1

  0
LINE
  5
57B
330
514
100
AcDbEntity
  8
PV
 62
     0
370
     0
100
AcDbLine
 10
88.72975730895996
 20
415.6173095703125
 30
0.0
 11
322.5732850832038
 21
415.6173095703123
 31
0.0
  0
LINE
  5
57C
330
514
100
AcDbEntity
  8
PV
 62
     0
370
     0
100
AcDbLine
 10
88.72978782653808
 20
-284.3825988769531
 30
0.0
 11
322.5732850832037
 21
-284.3825988769532
 31
0.0
  0
LINE
  5
57D
330
514
100
AcDbEntity
  8
PV
 62
     0
370
     0
100
AcDbLine
 10
317.7732848924689
 20
405.6173095703123
 30
0.0
 11
317.7732848924688
 21
-274.3825988769532
 31
0.0
  0
INSERT
  5
57E
330
514
100
AcDbEntity
  8
PV
 62
     0
370
     0
100
AcDbBlockReference
  2
_OPEN30
 10
317.7732848924689
 20
415.6173095703123
 30
0.0
 41
10.0
 42
10.0
 43
10.0
 50
90.0
  0
SOLID
  5
57F
330
514
100
AcDbEntity
  8
PV
 62
     0
370
     0
100
AcDbTrace
 10
316.1066182258021
 20
-274.3825988769532
 30
0.0
 11
319.4399515591355
 21
-274.3825988769532
 31
0.0
 12
317.7732848924688
 22
-284.3825988769532
 32
0.0
 13
317.7732848924688
 23
-284.3825988769532
 33
0.0
  0
MTEXT
  5
580
330
514
100
AcDbEntity
  8
PV
 62
     0
100
AcDbMText
 10
305.4392852586798
 20
82.79378744568111
 30
0.0
 40
16.66799926757812
 41
0.0
 71
     5
 72
     1
  1
\A1;（700）
 11
0.0000000000000001
 21
1.0
 31
0.0
 73
     1
 44
1.0
1001
ACAD
1000
MTEXTBEGIN
1070
    73
1070
     1
1070
    44
1040
1.0
1070
    74
1070
     0
1000
MTEXTEND
  0
POINT
  5
581
330
514
100
AcDbEntity
  8
DEFPOINTS
 62
     0
370
     0
100
AcDbPoint
 10
83.64975738525391
 20
415.6173095703125
 30
0.0
  0
POINT
  5
582
330
514
100
AcDbEntity
  8
DEFPOINTS
 62
     0
370
     0
100
AcDbPoint
 10
83.64978790283203
 20
-284.3825988769531
 30
0.0
  0
POINT
  5
583
330
514
100
AcDbEntity
  8
DEFPOINTS
 62
     0
370
     0
100
AcDbPoint
 10
317.7732848924688
 20
-284.3825988769532
 30
0.0
  0
ENDBLK
  5
516
330
514
100
AcDbEntity
  8
0
370
     0
100
AcDbBlockEnd
  0
BLOCK
  5
714
330
713
100
AcDbEntity
  8
0
100
AcDbBlockBegin
  2
JZB_0006
 70
     0
 10
0.0
 20
0.0
 30
0.0
  3
JZB_0006
  1
JZB_0006
  0
LINE
  5
715
330
713
100
AcDbEntity
  8
HATCH
  6
Continuous
 62
     7
370
    25
100
AcDbLine
 10
441.7385171754004
 20
1363.333333333333
 30
0.0
 11
462.224459573796
 21
1363.333333333333
 31
0.0
  0
LINE
  5
716
330
713
100
AcDbEntity
  8
HATCH
  6
Continuous
 62
     7
370
    25
100
AcDbLine
 10
433.6030745521102
 20
1366.666666666665
 30
0.0
 11
470.3605719726238
 21
1366.666666666665
 31
0.0
  0
LINE
  5
717
330
713
100
AcDbEntity
  8
HATCH
  6
Continuous
 62
     7
370
    25
100
AcDbLine
 10
428.8303096916341
 20
1369.999999999999
 30
0.0
 11
475.1328253351513
 21
1369.999999999999
 31
0.0
  0
LINE
  5
718
330
713
100
AcDbEntity
  8
HATCH
  6
Continuous
 62
     7
370
    25
100
AcDbLine
 10
468.1237614169645
 20
1373.333333333333
 30
0.0
 11
478.4298081764167
 21
1373.333333333333
 31
0.0
  0
LINE
  5
719
330
713
100
AcDbEntity
  8
HATCH
  6
Continuous
 62
     7
370
    25
100
AcDbLine
 10
425.5334420080485
 20
1373.333333333333
 30
0.0
 11
443.9587104004038
 21
1373.333333333333
 31
0.0
  0
LINE
  5
71A
330
713
100
AcDbEntity
  8
HATCH
  6
Continuous
 62
     7
370
    25
100
AcDbLine
 10
473.4792036257045
 20
1376.666666666667
 30
0.0
 11
480.7607919742089
 21
1376.666666666667
 31
0.0
  0
LINE
  5
71B
330
713
100
AcDbEntity
  8
HATCH
  6
Continuous
 62
     7
370
    25
100
AcDbLine
 10
423.2030554545974
 20
1376.666666666667
 30
0.0
 11
438.6029453881219
 21
1376.666666666667
 31
0.0
  0
LINE
  5
71C
330
713
100
AcDbEntity
  8
HATCH
  6
Continuous
 62
     7
370
    25
100
AcDbLine
 10
421.6155585646914
 20
1379.999999999999
 30
0.0
 11
435.5593503295497
 21
1379.999999999999
 31
0.0
  0
LINE
  5
71D
330
713
100
AcDbEntity
  8
HATCH
  6
Continuous
 62
     7
370
    25
100
AcDbLine
 10
420.654518569689
 20
1383.333333333333
 30
0.0
 11
433.8541916174484
 21
1383.333333333333
 31
0.0
  0
LINE
  5
71E
330
713
100
AcDbEntity
  8
HATCH
  6
Continuous
 62
     7
370
    25
100
AcDbLine
 10
420.2643360480671
 20
1386.666666666667
 30
0.0
 11
433.1862701589648
 21
1386.666666666667
 31
0.0
  0
LINE
  5
71F
330
713
100
AcDbEntity
  8
HATCH
  6
Continuous
 62
     7
370
    25
100
AcDbLine
 10
420.4277679437396
 20
1389.999999999999
 30
0.0
 11
433.4631027298794
 21
1389.999999999999
 31
0.0
  0
LINE
  5
720
330
713
100
AcDbEntity
  8
HATCH
  6
Continuous
 62
     7
370
    25
100
AcDbLine
 10
421.1494810179038
 20
1393.333333333333
 30
0.0
 11
434.721214113719
 21
1393.333333333333
 31
0.0
  0
LINE
  5
721
330
713
100
AcDbEntity
  8
HATCH
  6
Continuous
 62
     7
370
    25
100
AcDbLine
 10
474.9268617757466
 20
1396.666666666667
 30
0.0
 11
483.2271264936291
 21
1396.666666666667
 31
0.0
  0
LINE
  5
722
330
713
100
AcDbEntity
  8
HATCH
  6
Continuous
 62
     7
370
    25
100
AcDbLine
 10
422.4680945211319
 20
1396.666666666667
 30
0.0
 11
437.1563378559418
 21
1396.666666666667
 31
0.0
  0
LINE
  5
723
330
713
100
AcDbEntity
  8
HATCH
  6
Continuous
 62
     7
370
    25
100
AcDbLine
 10
470.7421037632967
 20
1399.999999999999
 30
0.0
 11
483.2312318159065
 21
1399.999999999999
 31
0.0
  0
LINE
  5
724
330
713
100
AcDbEntity
  8
HATCH
  6
Continuous
 62
     7
370
    25
100
AcDbLine
 10
424.4772090077558
 20
1399.999999999999
 30
0.0
 11
441.3432870756786
 21
1399.999999999999
 31
0.0
  0
LINE
  5
725
330
713
100
AcDbEntity
  8
HATCH
  6
Continuous
 62
     7
370
    25
100
AcDbLine
 10
461.7676340489231
 20
1403.333333333333
 30
0.0
 11
483.2353371381855
 21
1403.333333333333
 31
0.0
  0
LINE
  5
726
330
713
100
AcDbEntity
  8
HATCH
  6
Continuous
 62
     7
370
    25
100
AcDbLine
 10
427.3365626322235
 20
1403.333333333333
 30
0.0
 11
450.3150181814127
 21
1403.333333333333
 31
0.0
  0
LINE
  5
727
330
713
100
AcDbEntity
  8
HATCH
  6
Continuous
 62
     7
370
    25
100
AcDbLine
 10
480.5383173479298
 20
1406.666666666666
 30
0.0
 11
483.2394424604633
 21
1406.666666666666
 31
0.0
  0
LINE
  5
728
330
713
100
AcDbEntity
  8
HATCH
  6
Continuous
 62
     7
370
    25
100
AcDbLine
 10
431.4063100745697
 20
1406.666666666666
 30
0.0
 11
472.5582215415474
 21
1406.666666666666
 31
0.0
  0
LINE
  5
729
330
713
100
AcDbEntity
  8
HATCH
  6
Continuous
 62
     7
370
    25
100
AcDbLine
 10
481.6475483659902
 20
1410.0
 30
0.0
 11
483.2435477827428
 21
1410.0
 31
0.0
  0
LINE
  5
72A
330
713
100
AcDbEntity
  8
HATCH
  6
Continuous
 62
     7
370
    25
100
AcDbLine
 10
437.6740024598175
 20
1410.0
 30
0.0
 11
466.2907419313036
 21
1410.0
 31
0.0
  0
LINE
  5
72B
330
713
100
AcDbEntity
  8
HATCH
  6
Continuous
 62
     7
370
    25
100
AcDbLine
 10
389.2986971619719
 20
1363.333333333333
 30
0.0
 11
420.3615360327892
 21
1363.333333333333
 31
0.0
  0
LINE
  5
72C
330
713
100
AcDbEntity
  8
HATCH
  6
Continuous
 62
     7
370
    25
100
AcDbLine
 10
340.3799309503447
 20
1363.333333333333
 30
0.0
 11
358.1428221640363
 21
1363.333333333333
 31
0.0
  0
LINE
  5
72D
330
713
100
AcDbEntity
  8
HATCH
  6
Continuous
 62
     7
370
    25
100
AcDbLine
 10
392.4824411281004
 20
1366.666666666665
 30
0.0
 11
414.3520327116876
 21
1366.666666666665
 31
0.0
  0
LINE
  5
72E
330
713
100
AcDbEntity
  8
HATCH
  6
Continuous
 62
     7
370
    25
100
AcDbLine
 10
345.6857992726889
 20
1366.666666666665
 30
0.0
 11
354.765853090746
 21
1366.666666666665
 31
0.0
  0
LINE
  5
72F
330
713
100
AcDbEntity
  8
HATCH
  6
Continuous
 62
     7
370
    25
100
AcDbLine
 10
392.6307264253896
 20
1369.999999999999
 30
0.0
 11
411.3570695444619
 21
1369.999999999999
 31
0.0
  0
LINE
  5
730
330
713
100
AcDbEntity
  8
HATCH
  6
Continuous
 62
     7
370
    25
100
AcDbLine
 10
348.4689568427546
 20
1369.999999999999
 30
0.0
 11
354.5676519553633
 21
1369.999999999999
 31
0.0
  0
LINE
  5
731
330
713
100
AcDbEntity
  8
HATCH
  6
Continuous
 62
     7
370
    25
100
AcDbLine
 10
390.8267536252931
 20
1373.333333333333
 30
0.0
 11
409.3280840373036
 21
1373.333333333333
 31
0.0
  0
LINE
  5
732
330
713
100
AcDbEntity
  8
HATCH
  6
Continuous
 62
     7
370
    25
100
AcDbLine
 10
350.4434235382757
 20
1373.333333333333
 30
0.0
 11
356.402296953443
 21
1373.333333333333
 31
0.0
  0
LINE
  5
733
330
713
100
AcDbEntity
  8
HATCH
  6
Continuous
 62
     7
370
    25
100
AcDbLine
 10
352.4178902337969
 20
1376.666666666667
 30
0.0
 11
407.2990985301443
 21
1376.666666666667
 31
0.0
  0
LINE
  5
734
330
713
100
AcDbEntity
  8
HATCH
  6
Continuous
 62
     7
370
    25
100
AcDbLine
 10
354.3923569293182
 20
1379.999999999999
 30
0.0
 11
405.2701130229848
 21
1379.999999999999
 31
0.0
  0
LINE
  5
735
330
713
100
AcDbEntity
  8
HATCH
  6
Continuous
 62
     7
370
    25
100
AcDbLine
 10
385.1317199233091
 20
1383.333333333333
 30
0.0
 11
403.2411275158265
 21
1383.333333333333
 31
0.0
  0
LINE
  5
736
330
713
100
AcDbEntity
  8
HATCH
  6
Continuous
 62
     7
370
    25
100
AcDbLine
 10
383.233375355981
 20
1386.666666666667
 30
0.0
 11
401.2121420086672
 21
1386.666666666667
 31
0.0
  0
LINE
  5
737
330
713
100
AcDbEntity
  8
HATCH
  6
Continuous
 62
     7
370
    25
100
AcDbLine
 10
381.3350307886531
 20
1389.999999999999
 30
0.0
 11
399.1831565015088
 21
1389.999999999999
 31
0.0
  0
LINE
  5
738
330
713
100
AcDbEntity
  8
HATCH
  6
Continuous
 62
     7
370
    25
100
AcDbLine
 10
379.4366862213252
 20
1393.333333333333
 30
0.0
 11
397.1541709943496
 21
1393.333333333333
 31
0.0
  0
LINE
  5
739
330
713
100
AcDbEntity
  8
HATCH
  6
Continuous
 62
     7
370
    25
100
AcDbLine
 10
377.538341653998
 20
1396.666666666667
 30
0.0
 11
395.1251854871916
 21
1396.666666666667
 31
0.0
  0
LINE
  5
73A
330
713
100
AcDbEntity
  8
HATCH
  6
Continuous
 62
     7
370
    25
100
AcDbLine
 10
375.6399970866691
 20
1399.999999999999
 30
0.0
 11
393.0961999800318
 21
1399.999999999999
 31
0.0
  0
LINE
  5
73B
330
713
100
AcDbEntity
  8
HATCH
  6
Continuous
 62
     7
370
    25
100
AcDbLine
 10
356.3668236248395
 20
1383.333333333333
 30
0.0
 11
362.3256970400068
 21
1383.333333333333
 31
0.0
  0
LINE
  5
73C
330
713
100
AcDbEntity
  8
HATCH
  6
Continuous
 62
     7
370
    25
100
AcDbLine
 10
358.3412903203607
 20
1386.666666666667
 30
0.0
 11
364.3001637355283
 21
1386.666666666667
 31
0.0
  0
LINE
  5
73D
330
713
100
AcDbEntity
  8
HATCH
  6
Continuous
 62
     7
370
    25
100
AcDbLine
 10
360.3157570158828
 20
1389.999999999999
 30
0.0
 11
366.2746304310504
 21
1389.999999999999
 31
0.0
  0
LINE
  5
73E
330
713
100
AcDbEntity
  8
HATCH
  6
Continuous
 62
     7
370
    25
100
AcDbLine
 10
362.2902237114041
 20
1393.333333333333
 30
0.0
 11
368.2490971265718
 21
1393.333333333333
 31
0.0
  0
LINE
  5
73F
330
713
100
AcDbEntity
  8
HATCH
  6
Continuous
 62
     7
370
    25
100
AcDbLine
 10
364.2646904069252
 20
1396.666666666667
 30
0.0
 11
370.2235638220927
 21
1396.666666666667
 31
0.0
  0
LINE
  5
740
330
713
100
AcDbEntity
  8
HATCH
  6
Continuous
 62
     7
370
    25
100
AcDbLine
 10
366.2391571024464
 20
1399.999999999999
 30
0.0
 11
372.1980305176142
 21
1399.999999999999
 31
0.0
  0
LINE
  5
741
330
713
100
AcDbEntity
  8
HATCH
  6
Continuous
 62
     7
370
    25
100
AcDbLine
 10
368.2136237979676
 20
1403.333333333333
 30
0.0
 11
391.0672144728736
 21
1403.333333333333
 31
0.0
  0
LINE
  5
742
330
713
100
AcDbEntity
  8
HATCH
  6
Continuous
 62
     7
370
    25
100
AcDbLine
 10
370.1880904934887
 20
1406.666666666666
 30
0.0
 11
389.0382289657143
 21
1406.666666666666
 31
0.0
  0
LINE
  5
743
330
713
100
AcDbEntity
  8
HATCH
  6
Continuous
 62
     7
370
    25
100
AcDbLine
 10
310.1260134857232
 20
1363.333333333333
 30
0.0
 11
328.6564212177711
 21
1363.333333333333
 31
0.0
  0
LINE
  5
744
330
713
100
AcDbEntity
  8
HATCH
  6
Continuous
 62
     7
370
    25
100
AcDbLine
 10
308.1488278005183
 20
1366.666666666665
 30
0.0
 11
330.5876795732722
 21
1366.666666666665
 31
0.0
  0
LINE
  5
745
330
713
100
AcDbEntity
  8
HATCH
  6
Continuous
 62
     7
370
    25
100
AcDbLine
 10
326.3836196585007
 20
1369.999999999999
 30
0.0
 11
332.5189379287743
 21
1369.999999999999
 31
0.0
  0
LINE
  5
746
330
713
100
AcDbEntity
  8
HATCH
  6
Continuous
 62
     7
370
    25
100
AcDbLine
 10
328.3148780140016
 20
1373.333333333333
 30
0.0
 11
334.4501962842755
 21
1373.333333333333
 31
0.0
  0
LINE
  5
747
330
713
100
AcDbEntity
  8
HATCH
  6
Continuous
 62
     7
370
    25
100
AcDbLine
 10
330.2461363695034
 20
1376.666666666665
 30
0.0
 11
336.3814546397772
 21
1376.666666666665
 31
0.0
  0
LINE
  5
748
330
713
100
AcDbEntity
  8
HATCH
  6
Continuous
 62
     7
370
    25
100
AcDbLine
 10
332.1773947250044
 20
1379.999999999999
 30
0.0
 11
338.3127129952783
 21
1379.999999999999
 31
0.0
  0
LINE
  5
749
330
713
100
AcDbEntity
  8
HATCH
  6
Continuous
 62
     7
370
    25
100
AcDbLine
 10
334.1086530805061
 20
1383.333333333333
 30
0.0
 11
340.2439713507801
 21
1383.333333333333
 31
0.0
  0
LINE
  5
74A
330
713
100
AcDbEntity
  8
HATCH
  6
Continuous
 62
     7
370
    25
100
AcDbLine
 10
336.0399114360071
 20
1386.666666666667
 30
0.0
 11
342.175229706281
 21
1386.666666666667
 31
0.0
  0
LINE
  5
74B
330
713
100
AcDbEntity
  8
HATCH
  6
Continuous
 62
     7
370
    25
100
AcDbLine
 10
337.9711697915091
 20
1389.999999999999
 30
0.0
 11
344.1064880617832
 21
1389.999999999999
 31
0.0
  0
LINE
  5
74C
330
713
100
AcDbEntity
  8
HATCH
  6
Continuous
 62
     7
370
    25
100
AcDbLine
 10
339.9024281470099
 20
1393.333333333333
 30
0.0
 11
346.0377464172841
 21
1393.333333333333
 31
0.0
  0
LINE
  5
74D
330
713
100
AcDbEntity
  8
HATCH
  6
Continuous
 62
     7
370
    25
100
AcDbLine
 10
341.8336865025117
 20
1396.666666666667
 30
0.0
 11
347.9690047727859
 21
1396.666666666667
 31
0.0
  0
LINE
  5
74E
330
713
100
AcDbEntity
  8
HATCH
  6
Continuous
 62
     7
370
    25
100
AcDbLine
 10
306.1716421153142
 20
1369.999999999999
 30
0.0
 11
323.0112019421337
 21
1369.999999999999
 31
0.0
  0
LINE
  5
74F
330
713
100
AcDbEntity
  8
HATCH
  6
Continuous
 62
     7
370
    25
100
AcDbLine
 10
304.1944564301093
 20
1373.333333333333
 30
0.0
 11
321.0340162569289
 21
1373.333333333333
 31
0.0
  0
LINE
  5
750
330
713
100
AcDbEntity
  8
HATCH
  6
Continuous
 62
     7
370
    25
100
AcDbLine
 10
302.2172707449045
 20
1376.666666666665
 30
0.0
 11
319.0568305717243
 21
1376.666666666665
 31
0.0
  0
LINE
  5
751
330
713
100
AcDbEntity
  8
HATCH
  6
Continuous
 62
     7
370
    25
100
AcDbLine
 10
300.2400850596994
 20
1379.999999999999
 30
0.0
 11
317.0796448865189
 21
1379.999999999999
 31
0.0
  0
LINE
  5
752
330
713
100
AcDbEntity
  8
HATCH
  6
Continuous
 62
     7
370
    25
100
AcDbLine
 10
298.2628993744943
 20
1383.333333333333
 30
0.0
 11
315.1024592013138
 21
1383.333333333333
 31
0.0
  0
LINE
  5
753
330
713
100
AcDbEntity
  8
HATCH
  6
Continuous
 62
     7
370
    25
100
AcDbLine
 10
296.2857136892893
 20
1386.666666666667
 30
0.0
 11
313.1252735161092
 21
1386.666666666667
 31
0.0
  0
LINE
  5
754
330
713
100
AcDbEntity
  8
HATCH
  6
Continuous
 62
     7
370
    25
100
AcDbLine
 10
294.3085280040855
 20
1389.999999999999
 30
0.0
 11
311.1480878309053
 21
1389.999999999999
 31
0.0
  0
LINE
  5
755
330
713
100
AcDbEntity
  8
HATCH
  6
Continuous
 62
     7
370
    25
100
AcDbLine
 10
292.3313423188804
 20
1393.333333333333
 30
0.0
 11
309.1709021457002
 21
1393.333333333333
 31
0.0
  0
LINE
  5
756
330
713
100
AcDbEntity
  8
HATCH
  6
Continuous
 62
     7
370
    25
100
AcDbLine
 10
290.3541566336753
 20
1396.666666666667
 30
0.0
 11
307.1937164604951
 21
1396.666666666667
 31
0.0
  0
LINE
  5
757
330
713
100
AcDbEntity
  8
HATCH
  6
Continuous
 62
     7
370
    25
100
AcDbLine
 10
343.7345600489164
 20
1399.999999999999
 30
0.0
 11
349.9002631282873
 21
1399.999999999999
 31
0.0
  0
LINE
  5
758
330
713
100
AcDbEntity
  8
HATCH
  6
Continuous
 62
     7
370
    25
100
AcDbLine
 10
288.3769709484704
 20
1399.999999999999
 30
0.0
 11
305.2849355207493
 21
1399.999999999999
 31
0.0
  0
LINE
  5
759
330
713
100
AcDbEntity
  8
HATCH
  6
Continuous
 62
     7
370
    25
100
AcDbLine
 10
344.0229787197964
 20
1403.333333333333
 30
0.0
 11
352.1072751406302
 21
1403.333333333333
 31
0.0
  0
LINE
  5
75A
330
713
100
AcDbEntity
  8
HATCH
  6
Continuous
 62
     7
370
    25
100
AcDbLine
 10
286.0839293582012
 20
1403.333333333333
 30
0.0
 11
305.2367358555721
 21
1403.333333333333
 31
0.0
  0
LINE
  5
75B
330
713
100
AcDbEntity
  8
HATCH
  6
Continuous
 62
     7
370
    25
100
AcDbLine
 10
341.0485208272044
 20
1406.666666666666
 30
0.0
 11
357.885194306272
 21
1406.666666666666
 31
0.0
  0
LINE
  5
75C
330
713
100
AcDbEntity
  8
HATCH
  6
Continuous
 62
     7
370
    25
100
AcDbLine
 10
279.7293854348595
 20
1406.666666666666
 30
0.0
 11
308.8766840221432
 21
1406.666666666666
 31
0.0
  0
LINE
  5
75D
330
713
100
AcDbEntity
  8
HATCH
  6
Continuous
 62
     7
370
    25
100
AcDbLine
 10
235.3691143953854
 20
1363.333333333333
 30
0.0
 11
291.8397707496477
 21
1363.333333333333
 31
0.0
  0
LINE
  5
75E
330
713
100
AcDbEntity
  8
HATCH
  6
Continuous
 62
     7
370
    25
100
AcDbLine
 10
239.5334958247149
 20
1366.666666666665
 30
0.0
 11
292.4118881186016
 21
1366.666666666665
 31
0.0
  0
LINE
  5
75F
330
713
100
AcDbEntity
  8
HATCH
  6
Continuous
 62
     7
370
    25
100
AcDbLine
 10
289.3819207742918
 20
1369.999999999999
 30
0.0
 11
292.9840054875555
 21
1369.999999999999
 31
0.0
  0
LINE
  5
760
330
713
100
AcDbEntity
  8
HATCH
  6
Continuous
 62
     7
370
    25
100
AcDbLine
 10
241.0411116041032
 20
1369.999999999999
 30
0.0
 11
259.5148170289137
 21
1369.999999999999
 31
0.0
  0
LINE
  5
761
330
713
100
AcDbEntity
  8
HATCH
  6
Continuous
 62
     7
370
    25
100
AcDbLine
 10
291.8988004315386
 20
1373.333333333333
 30
0.0
 11
293.5561228565084
 21
1373.333333333333
 31
0.0
  0
LINE
  5
762
330
713
100
AcDbEntity
  8
HATCH
  6
Continuous
 62
     7
370
    25
100
AcDbLine
 10
241.1403659962807
 20
1373.333333333333
 30
0.0
 11
257.7128264882728
 21
1373.333333333333
 31
0.0
  0
LINE
  5
763
330
713
100
AcDbEntity
  8
HATCH
  6
Continuous
 62
     7
370
    25
100
AcDbLine
 10
241.1403659962807
 20
1376.666666666665
 30
0.0
 11
257.4425436735337
 21
1376.666666666665
 31
0.0
  0
LINE
  5
764
330
713
100
AcDbEntity
  8
HATCH
  6
Continuous
 62
     7
370
    25
100
AcDbLine
 10
241.1403659962807
 20
1379.999999999999
 30
0.0
 11
257.4425436735337
 21
1379.999999999999
 31
0.0
  0
LINE
  5
765
330
713
100
AcDbEntity
  8
HATCH
  6
Continuous
 62
     7
370
    25
100
AcDbLine
 10
241.1403659962807
 20
1383.333333333333
 30
0.0
 11
257.4425436735337
 21
1383.333333333333
 31
0.0
  0
LINE
  5
766
330
713
100
AcDbEntity
  8
HATCH
  6
Continuous
 62
     7
370
    25
100
AcDbLine
 10
241.1403659962807
 20
1386.666666666667
 30
0.0
 11
257.4425436735337
 21
1386.666666666667
 31
0.0
  0
LINE
  5
767
330
713
100
AcDbEntity
  8
HATCH
  6
Continuous
 62
     7
370
    25
100
AcDbLine
 10
241.1403659962807
 20
1389.999999999999
 30
0.0
 11
257.4425436735337
 21
1389.999999999999
 31
0.0
  0
LINE
  5
768
330
713
100
AcDbEntity
  8
HATCH
  6
Continuous
 62
     7
370
    25
100
AcDbLine
 10
241.1403659962807
 20
1393.333333333333
 30
0.0
 11
257.4425436735337
 21
1393.333333333333
 31
0.0
  0
LINE
  5
769
330
713
100
AcDbEntity
  8
HATCH
  6
Continuous
 62
     7
370
    25
100
AcDbLine
 10
241.1403659962807
 20
1396.666666666667
 30
0.0
 11
257.4425436735337
 21
1396.666666666667
 31
0.0
  0
LINE
  5
76A
330
713
100
AcDbEntity
  8
HATCH
  6
Continuous
 62
     7
370
    25
100
AcDbLine
 10
241.1403659962807
 20
1399.999999999999
 30
0.0
 11
257.4425436735337
 21
1399.999999999999
 31
0.0
  0
LINE
  5
76B
330
713
100
AcDbEntity
  8
HATCH
  6
Continuous
 62
     7
370
    25
100
AcDbLine
 10
240.7337118754499
 20
1403.333333333333
 30
0.0
 11
257.845845303241
 21
1403.333333333333
 31
0.0
  0
LINE
  5
76C
330
713
100
AcDbEntity
  8
HATCH
  6
Continuous
 62
     7
370
    25
100
AcDbLine
 10
236.4071586018101
 20
1406.666666666666
 30
0.0
 11
262.1433845570184
 21
1406.666666666666
 31
0.0
  0
LINE
  5
76D
330
713
100
AcDbEntity
  8
HATCH
  6
Continuous
 62
     7
370
    25
100
AcDbLine
 10
177.2195170905479
 20
1363.333333333333
 30
0.0
 11
219.6997054554498
 21
1363.333333333333
 31
0.0
  0
LINE
  5
76E
330
713
100
AcDbEntity
  8
HATCH
  6
Continuous
 62
     7
370
    25
100
AcDbLine
 10
171.9319987079766
 20
1366.666666666665
 30
0.0
 11
225.0159281254074
 21
1366.666666666665
 31
0.0
  0
LINE
  5
76F
330
713
100
AcDbEntity
  8
HATCH
  6
Continuous
 62
     7
370
    25
100
AcDbLine
 10
216.6926433988674
 20
1369.999999999999
 30
0.0
 11
226.4698860830698
 21
1369.999999999999
 31
0.0
  0
LINE
  5
770
330
713
100
AcDbEntity
  8
HATCH
  6
Continuous
 62
     7
370
    25
100
AcDbLine
 10
167.8481892097841
 20
1369.999999999999
 30
0.0
 11
185.013101429252
 21
1369.999999999999
 31
0.0
  0
LINE
  5
771
330
713
100
AcDbEntity
  8
HATCH
  6
Continuous
 62
     7
370
    25
100
AcDbLine
 10
218.6861356992545
 20
1373.333333333333
 30
0.0
 11
226.5617428178665
 21
1373.333333333333
 31
0.0
  0
LINE
  5
772
330
713
100
AcDbEntity
  8
HATCH
  6
Continuous
 62
     7
370
    25
100
AcDbLine
 10
166.680338187788
 20
1373.333333333333
 30
0.0
 11
183.0196091260119
 21
1373.333333333333
 31
0.0
  0
LINE
  5
773
330
713
100
AcDbEntity
  8
HATCH
  6
Continuous
 62
     7
370
    25
100
AcDbLine
 10
218.7369004811537
 20
1376.666666666665
 30
0.0
 11
226.5617428178659
 21
1376.666666666665
 31
0.0
  0
LINE
  5
774
330
713
100
AcDbEntity
  8
HATCH
  6
Continuous
 62
     7
370
    25
100
AcDbLine
 10
218.7369004811537
 20
1379.999999999999
 30
0.0
 11
226.5617428178659
 21
1379.999999999999
 31
0.0
  0
LINE
  5
775
330
713
100
AcDbEntity
  8
HATCH
  6
Continuous
 62
     7
370
    25
100
AcDbLine
 10
218.7369004811537
 20
1383.333333333333
 30
0.0
 11
226.5617428178662
 21
1383.333333333333
 31
0.0
  0
LINE
  5
776
330
713
100
AcDbEntity
  8
HATCH
  6
Continuous
 62
     7
370
    25
100
AcDbLine
 10
218.7369004811537
 20
1386.666666666667
 30
0.0
 11
226.5617428178662
 21
1386.666666666667
 31
0.0
  0
LINE
  5
777
330
713
100
AcDbEntity
  8
HATCH
  6
Continuous
 62
     7
370
    25
100
AcDbLine
 10
218.7369004811537
 20
1389.999999999999
 30
0.0
 11
226.5617428178662
 21
1389.999999999999
 31
0.0
  0
LINE
  5
778
330
713
100
AcDbEntity
  8
HATCH
  6
Continuous
 62
     7
370
    25
100
AcDbLine
 10
218.7369004811537
 20
1393.333333333333
 30
0.0
 11
226.5617428178665
 21
1393.333333333333
 31
0.0
  0
LINE
  5
779
330
713
100
AcDbEntity
  8
HATCH
  6
Continuous
 62
     7
370
    25
100
AcDbLine
 10
218.7369004811537
 20
1396.666666666667
 30
0.0
 11
226.5617428178665
 21
1396.666666666667
 31
0.0
  0
LINE
  5
77A
330
713
100
AcDbEntity
  8
HATCH
  6
Continuous
 62
     7
370
    25
100
AcDbLine
 10
218.7369004811537
 20
1399.999999999999
 30
0.0
 11
226.5617428178668
 21
1399.999999999999
 31
0.0
  0
LINE
  5
77B
330
713
100
AcDbEntity
  8
HATCH
  6
Continuous
 62
     7
370
    25
100
AcDbLine
 10
166.666666666668
 20
1376.666666666665
 30
0.0
 11
182.9688443439193
 21
1376.666666666665
 31
0.0
  0
LINE
  5
77C
330
713
100
AcDbEntity
  8
HATCH
  6
Continuous
 62
     7
370
    25
100
AcDbLine
 10
166.666666666668
 20
1379.999999999999
 30
0.0
 11
182.9688443439199
 21
1379.999999999999
 31
0.0
  0
LINE
  5
77D
330
713
100
AcDbEntity
  8
HATCH
  6
Continuous
 62
     7
370
    25
100
AcDbLine
 10
166.666666666668
 20
1383.333333333333
 30
0.0
 11
182.9688443439199
 21
1383.333333333333
 31
0.0
  0
LINE
  5
77E
330
713
100
AcDbEntity
  8
HATCH
  6
Continuous
 62
     7
370
    25
100
AcDbLine
 10
166.666666666668
 20
1386.666666666667
 30
0.0
 11
182.9688443439205
 21
1386.666666666667
 31
0.0
  0
LINE
  5
77F
330
713
100
AcDbEntity
  8
HATCH
  6
Continuous
 62
     7
370
    25
100
AcDbLine
 10
166.666666666668
 20
1389.999999999999
 30
0.0
 11
182.9688443439205
 21
1389.999999999999
 31
0.0
  0
LINE
  5
780
330
713
100
AcDbEntity
  8
HATCH
  6
Continuous
 62
     7
370
    25
100
AcDbLine
 10
166.6666666666672
 20
1393.333333333333
 30
0.0
 11
182.9688443439201
 21
1393.333333333333
 31
0.0
  0
LINE
  5
781
330
713
100
AcDbEntity
  8
HATCH
  6
Continuous
 62
     7
370
    25
100
AcDbLine
 10
166.6666666666672
 20
1396.666666666667
 30
0.0
 11
182.9688443439201
 21
1396.666666666667
 31
0.0
  0
LINE
  5
782
330
713
100
AcDbEntity
  8
HATCH
  6
Continuous
 62
     7
370
    25
100
AcDbLine
 10
166.6666666666672
 20
1399.999999999999
 30
0.0
 11
182.9688443439208
 21
1399.999999999999
 31
0.0
  0
LINE
  5
783
330
713
100
AcDbEntity
  8
HATCH
  6
Continuous
 62
     7
370
    25
100
AcDbLine
 10
218.0904577844312
 20
1403.333333333333
 30
0.0
 11
226.9274906181554
 21
1403.333333333333
 31
0.0
  0
LINE
  5
784
330
713
100
AcDbEntity
  8
HATCH
  6
Continuous
 62
     7
370
    25
100
AcDbLine
 10
165.9519962607201
 20
1403.333333333333
 30
0.0
 11
183.6832651024563
 21
1403.333333333333
 31
0.0
  0
LINE
  5
785
330
713
100
AcDbEntity
  8
HATCH
  6
Continuous
 62
     7
370
    25
100
AcDbLine
 10
214.1787957156605
 20
1406.666666666666
 30
0.0
 11
231.4283038387229
 21
1406.666666666666
 31
0.0
  0
LINE
  5
786
330
713
100
AcDbEntity
  8
HATCH
  6
Continuous
 62
     7
370
    25
100
AcDbLine
 10
161.7116067185564
 20
1406.666666666666
 30
0.0
 11
187.9224248678931
 21
1406.666666666666
 31
0.0
  0
LINE
  5
787
330
713
100
AcDbEntity
  8
HIDDEN1
  6
Continuous
 62
     7
370
   100
100
AcDbLine
 10
525.0000000000019
 20
1335.000000000002
 30
0.0
 11
525.0000000000015
 21
1435.000000000003
 31
0.0
  0
LINE
  5
788
330
713
100
AcDbEntity
  8
HIDDEN1
  6
Continuous
 62
     7
370
   100
100
AcDbLine
 10
125.0000000000011
 20
1335.000000000002
 30
0.0
 11
525.0000000000011
 21
1335.000000000001
 31
0.0
  0
LINE
  5
789
330
713
100
AcDbEntity
  8
HIDDEN1
  6
Continuous
 62
     7
370
    25
100
AcDbLine
 10
1496.666666666667
 20
210.0000000000011
 30
0.0
 11
2050.0
 21
210.0000000000011
 31
0.0
  0
LINE
  5
78A
330
713
100
AcDbEntity
  8
HIDDEN1
  6
Continuous
 62
     7
370
    25
100
AcDbLine
 10
1616.666666666668
 20
49.99999999999909
 30
0.0
 11
1616.666666666668
 21
210.0
 31
0.0
  0
CIRCLE
  5
78B
330
713
100
AcDbEntity
  8
M2
  6
Continuous
 62
     4
370
    50
100
AcDbCircle
 10
161.5789944481721
 20
1407.532686521243
 30
0.0
 40
0.0000005
  0
LINE
  5
78C
330
713
100
AcDbEntity
  8
M2
  6
Continuous
 62
     4
370
    50
100
AcDbLine
 10
236.0103369809526
 20
1407.532686521243
 30
0.0
 11
262.5368564603185
 21
1407.532686521243
 31
0.0
  0
LINE
  5
78D
330
713
100
AcDbEntity
  8
M2
  6
Continuous
 62
     4
370
    50
100
AcDbLine
 10
357.9850350583743
 20
1376.005342790404
 30
0.0
 11
389.3050352342896
 21
1376.005342790404
 31
0.0
  0
LINE
  5
78E
330
713
100
AcDbEntity
  8
M2
  6
Continuous
 62
     4
370
    50
100
AcDbLine
 10
360.9745417968693
 20
1381.052286597689
 30
0.0
 11
386.4307837268384
 21
1381.052286597689
 31
0.0
  0
LINE
  5
78F
330
713
100
AcDbEntity
  8
M2
  6
Continuous
 62
     4
370
    50
100
AcDbLine
 10
166.666666666668
 20
1373.540138805874
 30
0.0
 11
166.666666666668
 21
1400.89537699617
 31
0.0
  0
LINE
  5
790
330
713
100
AcDbEntity
  8
M2
  6
Continuous
 62
     4
370
    50
100
AcDbLine
 10
182.9688443439215
 20
1373.949392196047
 30
0.0
 11
182.9688443439215
 21
1400.895783134031
 31
0.0
  0
LINE
  5
791
330
713
100
AcDbEntity
  8
M2
  6
Continuous
 62
     4
370
    50
100
AcDbLine
 10
412.2646605777219
 20
1368.50895758815
 30
0.0
 11
388.5110864455596
 21
1407.532686521243
 31
0.0
  0
LINE
  5
792
330
713
100
AcDbEntity
  8
M2
  6
Continuous
 62
     4
370
    50
100
AcDbLine
 10
347.5375990922339
 20
1368.427663610578
 30
0.0
 11
370.7010687016455
 21
1407.532686521243
 31
0.0
  0
LINE
  5
793
330
713
100
AcDbEntity
  8
M2
  6
Continuous
 62
     4
370
    50
100
AcDbLine
 10
392.2865742838171
 20
1370.770011086415
 30
0.0
 11
389.3050352342894
 21
1376.005342790405
 31
0.0
  0
LINE
  5
794
330
713
100
AcDbEntity
  8
M2
  6
Continuous
 62
     4
370
    50
100
AcDbLine
 10
354.9668749144241
 20
1370.910025743029
 30
0.0
 11
357.9850350583738
 21
1376.005342790404
 31
0.0
  0
LINE
  5
795
330
713
100
AcDbEntity
  8
M2
  6
Continuous
 62
     4
370
    50
100
AcDbLine
 10
340.4896489627026
 20
1362.46731347876
 30
0.0
 11
358.0171028684333
 21
1362.46731347876
 31
0.0
  0
LINE
  5
796
330
713
100
AcDbEntity
  8
M2
  6
Continuous
 62
     4
370
    50
100
AcDbLine
 10
389.4287223682636
 20
1362.46731347876
 30
0.0
 11
420.2616085002823
 21
1362.46731347876
 31
0.0
  0
LINE
  5
797
330
713
100
AcDbEntity
  8
M2
  6
Continuous
 62
     4
370
    50
100
AcDbLine
 10
370.7010687016459
 20
1407.532686521243
 30
0.0
 11
388.5110864455601
 21
1407.532686521243
 31
0.0
  0
LINE
  5
798
330
713
100
AcDbEntity
  8
M2
  6
Continuous
 62
     4
370
    50
100
AcDbLine
 10
279.4614601332687
 20
1407.532686521243
 30
0.0
 11
309.1291340982922
 21
1407.532686521243
 31
0.0
  0
LINE
  5
799
330
713
100
AcDbEntity
  8
M2
  6
Continuous
 62
     4
370
    50
100
AcDbLine
 10
340.9175153460051
 20
1407.532686521243
 30
0.0
 11
358.1114342217317
 21
1407.532686521243
 31
0.0
  0
LINE
  5
79A
330
713
100
AcDbEntity
  8
M2
  6
Continuous
 62
     4
370
    50
100
AcDbLine
 10
360.9745417968693
 20
1381.052286597689
 30
0.0
 11
373.952840627492
 21
1402.962504784809
 31
0.0
  0
LINE
  5
79B
330
713
100
AcDbEntity
  8
M2
  6
Continuous
 62
     4
370
    50
100
AcDbLine
 10
386.4307837268386
 20
1381.052286597689
 30
0.0
 11
373.9528406274922
 21
1402.962504784809
 31
0.0
  0
LINE
  5
79C
330
713
100
AcDbEntity
  8
M2
  6
Continuous
 62
     4
370
    50
100
AcDbLine
 10
328.1546687937187
 20
1362.46731347876
 30
0.0
 11
351.1925646826601
 21
1402.230500044512
 31
0.0
  0
LINE
  5
79D
330
713
100
AcDbEntity
  8
M2
  6
Continuous
 62
     4
370
    50
100
AcDbLine
 10
324.7172250970991
 20
1367.123819025982
 30
0.0
 11
343.6145691637175
 21
1399.740452999
 31
0.0
  0
LINE
  5
79E
330
713
100
AcDbEntity
  8
M2
  6
Continuous
 62
     4
370
    50
100
AcDbLine
 10
324.7172250970991
 20
1367.123819025982
 30
0.0
 11
305.577202926163
 21
1399.391943552948
 31
0.0
  0
LINE
  5
79F
330
713
100
AcDbEntity
  8
M2
  6
Continuous
 62
     4
370
    50
100
AcDbLine
 10
310.6396981035928
 20
1362.46731347876
 30
0.0
 11
287.0874647256725
 21
1402.173975923535
 31
0.0
  0
LINE
  5
7A0
330
713
100
AcDbEntity
  8
M2
  6
Continuous
 62
     4
370
    50
100
AcDbLine
 10
310.6396981035928
 20
1362.46731347876
 30
0.0
 11
328.1546687937187
 21
1362.46731347876
 31
0.0
  0
LINE
  5
7A1
330
713
100
AcDbEntity
  8
M2
  6
Continuous
 62
     4
370
    50
100
AcDbLine
 10
257.4425436735339
 20
1375.249085796511
 30
0.0
 11
257.4425436735339
 21
1401.912608711376
 31
0.0
  0
LINE
  5
7A2
330
713
100
AcDbEntity
  8
M2
  6
Continuous
 62
     4
370
    50
100
AcDbLine
 10
241.1403659962807
 20
1371.03335411841
 30
0.0
 11
241.1403659962807
 21
1401.906979114198
 31
0.0
  0
LINE
  5
7A3
330
713
100
AcDbEntity
  8
M2
  6
Continuous
 62
     4
370
    50
100
AcDbLine
 10
218.7369004811537
 20
1373.949392193726
 30
0.0
 11
218.7369004811537
 21
1401.00945260022
 31
0.0
  0
LINE
  5
7A4
330
713
100
AcDbEntity
  8
M2
  6
Continuous
 62
     4
370
    50
100
AcDbLine
 10
265.2206531082202
 20
1367.470976361826
 30
0.0
 11
283.1094791659522
 21
1367.470976361826
 31
0.0
  0
LINE
  5
7A5
330
713
100
AcDbEntity
  8
M2
  6
Continuous
 62
     4
370
    50
100
AcDbLine
 10
291.6911312494492
 20
1362.46731347876
 30
0.0
 11
294.0674841899267
 21
1376.312683149574
 31
0.0
  0
LINE
  5
7A6
330
713
100
AcDbEntity
  8
M2
  6
Continuous
 62
     4
370
    50
100
AcDbLine
 10
235.3964951424002
 20
1362.46731347876
 30
0.0
 11
291.6911312494501
 21
1362.46731347876
 31
0.0
  0
LINE
  5
7A7
330
713
100
AcDbEntity
  8
M2
  6
Continuous
 62
     4
370
    50
100
AcDbLine
 10
161.5789944481721
 20
1407.532686521243
 30
0.0
 11
188.0553269882066
 21
1407.532686521243
 31
0.0
  0
ARC
  5
7A8
330
713
100
AcDbEntity
  8
M2
  6
Continuous
 62
     4
370
    50
100
AcDbCircle
 10
197.2270595423261
 20
1453.643098092239
 30
0.0
 40
86.59303079641356
100
AcDbArc
 50
275.6515343203796
 51
277.9658516661099
  0
ARC
  5
7A9
330
713
100
AcDbEntity
  8
M2
  6
Continuous
 62
     4
370
    50
100
AcDbCircle
 10
197.2270595423261
 20
1453.643098092239
 30
0.0
 40
93.11390711220958
100
AcDbArc
 50
261.6064190564241
 51
284.4688421435062
  0
LINE
  5
7AA
330
713
100
AcDbEntity
  8
M2
  6
Continuous
 62
     4
370
    50
100
AcDbLine
 10
214.1336304187046
 20
1407.529124884826
 30
0.0
 11
231.5362226576989
 21
1407.529124884826
 31
0.0
  0
LINE
  5
7AB
330
713
100
AcDbEntity
  8
M2
  6
Continuous
 62
     4
370
    50
100
AcDbLine
 10
262.7198707999544
 20
1407.290478242083
 30
0.0
 11
262.7198707999544
 21
1407.349672181604
 31
0.0
  0
LINE
  5
7AC
330
713
100
AcDbEntity
  8
M2
  6
Continuous
 62
     4
370
    50
100
AcDbLine
 10
235.8273226413139
 20
1407.291202562255
 30
0.0
 11
235.8273226413139
 21
1407.349672181604
 31
0.0
  0
ARC
  5
7AD
330
713
100
AcDbEntity
  8
M2
  6
Continuous
 62
     4
370
    50
100
AcDbCircle
 10
262.2623349508563
 20
1407.290478242083
 30
0.0
 40
0.4575358490992202
100
AcDbArc
 50
289.3958740160404
 51
0.0
  0
ARC
  5
7AE
330
713
100
AcDbEntity
  8
M2
  6
Continuous
 62
     4
370
    50
100
AcDbCircle
 10
262.5368564603184
 20
1407.349672181604
 30
0.0
 40
0.183014339639688
100
AcDbArc
 50
0.0
 51
90.0
  0
ARC
  5
7AF
330
713
100
AcDbEntity
  8
M2
  6
Continuous
 62
     4
370
    50
100
AcDbCircle
 10
236.0103369809526
 20
1407.349672181604
 30
0.0
 40
0.183014339639688
100
AcDbArc
 50
90.0
 51
180.0
  0
ARC
  5
7B0
330
713
100
AcDbEntity
  8
M2
  6
Continuous
 62
     4
370
    50
100
AcDbCircle
 10
236.2848584904148
 20
1407.291202562255
 30
0.0
 40
0.4575358490992202
100
AcDbArc
 50
180.0
 51
250.7248663130126
  0
LINE
  5
7B1
330
713
100
AcDbEntity
  8
M2
  6
Continuous
 62
     4
370
    50
100
AcDbLine
 10
236.1338237320055
 20
1406.859314202879
 30
0.0
 11
239.9766550551229
 21
1404.150870940524
 31
0.0
  0
LINE
  5
7B2
330
713
100
AcDbEntity
  8
M2
  6
Continuous
 62
     4
370
    50
100
AcDbLine
 10
262.4142794986076
 20
1406.858909119439
 30
0.0
 11
258.5990043670817
 21
1404.151372961746
 31
0.0
  0
ARC
  5
7B3
330
713
100
AcDbEntity
  8
M2
  6
Continuous
 62
     4
370
    50
100
AcDbCircle
 10
260.1877587681292
 20
1401.912608711376
 30
0.0
 40
2.745215094595319
100
AcDbArc
 50
125.3616783504514
 51
180.0
  0
ARC
  5
7B4
330
713
100
AcDbEntity
  8
M2
  6
Continuous
 62
     4
370
    50
100
AcDbCircle
 10
238.3951509016854
 20
1401.906979114199
 30
0.0
 40
2.745215094595319
100
AcDbArc
 50
0.0
 51
54.82366186718007
  0
LINE
  5
7B5
330
713
100
AcDbEntity
  8
M2
  6
Continuous
 62
     4
370
    50
100
AcDbLine
 10
195.9511758626284
 20
1367.470976352094
 30
0.0
 11
205.7545689859069
 21
1367.470976352094
 31
0.0
  0
LINE
  5
7B6
330
713
100
AcDbEntity
  8
M2
  6
Continuous
 62
     4
370
    50
100
AcDbLine
 10
238.2270705239173
 20
1365.420794718329
 30
0.0
 11
235.6019201990726
 21
1363.573390272581
 31
0.0
  0
LINE
  5
7B7
330
713
100
AcDbEntity
  8
M2
  6
Continuous
 62
     4
370
    50
100
AcDbLine
 10
235.2134808027588
 20
1362.825049019237
 30
0.0
 11
235.2134808027588
 21
1362.650327818399
 31
0.0
  0
ARC
  5
7B8
330
713
100
AcDbEntity
  8
M2
  6
Continuous
 62
     4
370
    50
100
AcDbCircle
 10
235.3964951424002
 20
1362.6503278184
 30
0.0
 40
0.183014339639688
100
AcDbArc
 50
180.0
 51
270.0
  0
ARC
  5
7B9
330
713
100
AcDbEntity
  8
M2
  6
Continuous
 62
     4
370
    50
100
AcDbCircle
 10
234.2773282597932
 20
1371.03335411841
 30
0.0
 40
6.863037736488299
100
AcDbArc
 50
305.1353088423134
 51
0.0
  0
ARC
  5
7BA
330
713
100
AcDbEntity
  8
M2
  6
Continuous
 62
     4
370
    50
100
AcDbCircle
 10
236.1285525009557
 20
1362.825049019237
 30
0.0
 40
0.9150716981984404
100
AcDbArc
 50
125.1353088423179
 51
180.0
  0
ARC
  5
7BB
330
713
100
AcDbEntity
  8
M2
  6
Continuous
 62
     4
370
    50
100
AcDbCircle
 10
265.2206531082202
 20
1375.249085796511
 30
0.0
 40
7.77810943468674
100
AcDbArc
 50
180.0
 51
270.0
  0
LINE
  5
7BC
330
713
100
AcDbEntity
  8
M2
  6
Continuous
 62
     4
370
    50
100
AcDbLine
 10
226.5617428178682
 20
1370.956335867093
 30
0.0
 11
226.5617428178682
 21
1401.977524306871
 31
0.0
  0
ARC
  5
7BD
330
713
100
AcDbEntity
  8
M2
  6
Continuous
 62
     4
370
    50
100
AcDbCircle
 10
219.6987050813782
 20
1370.956335867093
 30
0.0
 40
6.863037736488299
100
AcDbArc
 50
305.1353088423134
 51
0.0
  0
LINE
  5
7BE
330
713
100
AcDbEntity
  8
M2
  6
Continuous
 62
     4
370
    50
100
AcDbLine
 10
223.6484473455066
 20
1365.343776467014
 30
0.0
 11
221.9818856616776
 21
1364.170962310552
 31
0.0
  0
LINE
  5
7BF
330
713
100
AcDbEntity
  8
M2
  6
Continuous
 62
     4
370
    50
100
AcDbLine
 10
231.7192369998338
 20
1407.105098553136
 30
0.0
 11
231.7192369998338
 21
1407.34611054751
 31
0.0
  0
LINE
  5
7C0
330
713
100
AcDbEntity
  8
M2
  6
Continuous
 62
     4
370
    50
100
AcDbLine
 10
213.9506160790631
 20
1407.065789701448
 30
0.0
 11
213.9506160790631
 21
1407.346110545188
 31
0.0
  0
ARC
  5
7C1
330
713
100
AcDbEntity
  8
M2
  6
Continuous
 62
     4
370
    50
100
AcDbCircle
 10
229.3069579124626
 20
1401.977524306872
 30
0.0
 40
2.745215094595319
100
AcDbArc
 50
127.5212181517538
 51
180.0
  0
LINE
  5
7C2
330
713
100
AcDbEntity
  8
M2
  6
Continuous
 62
     4
370
    50
100
AcDbLine
 10
227.6349704193622
 20
1404.15483083984
 30
0.0
 11
231.514307852268
 21
1406.723616040366
 31
0.0
  0
ARC
  5
7C3
330
713
100
AcDbEntity
  8
M2
  6
Continuous
 62
     4
370
    50
100
AcDbCircle
 10
231.5362226601951
 20
1407.346110545189
 30
0.0
 40
0.183014339639688
100
AcDbArc
 50
0.0
 51
90.0
  0
ARC
  5
7C4
330
713
100
AcDbEntity
  8
M2
  6
Continuous
 62
     4
370
    50
100
AcDbCircle
 10
231.2617011507359
 20
1407.105098553136
 30
0.0
 40
0.4575358490992202
100
AcDbArc
 50
303.5113754732186
 51
0.0
  0
LINE
  5
7C5
330
713
100
AcDbEntity
  8
M2
  6
Continuous
 62
     4
370
    50
100
AcDbLine
 10
214.1379310055015
 20
1406.696574715069
 30
0.0
 11
216.8637512167804
 21
1404.701602464006
 31
0.0
  0
ARC
  5
7C6
330
713
100
AcDbEntity
  8
M2
  6
Continuous
 62
     4
370
    50
100
AcDbCircle
 10
214.4081519281622
 20
1407.065789701448
 30
0.0
 40
0.4575358490992202
100
AcDbArc
 50
180.0
 51
233.8003635869543
  0
ARC
  5
7C7
330
713
100
AcDbEntity
  8
M2
  6
Continuous
 62
     4
370
    50
100
AcDbCircle
 10
214.1336304187046
 20
1407.346110545189
 30
0.0
 40
0.183014339639688
100
AcDbArc
 50
90.0
 51
180.0
  0
ARC
  5
7C8
330
713
100
AcDbEntity
  8
M2
  6
Continuous
 62
     4
370
    50
100
AcDbCircle
 10
214.1615419901609
 20
1401.009452600219
 30
0.0
 40
4.575358490992199
100
AcDbArc
 50
0.0
 51
53.80036358695486
  0
LINE
  5
7C9
330
713
100
AcDbEntity
  8
M2
  6
Continuous
 62
     4
370
    50
100
AcDbLine
 10
161.3959801085352
 20
1407.025279977978
 30
0.0
 11
161.3959801085352
 21
1407.349672181604
 31
0.0
  0
LINE
  5
7CA
330
713
100
AcDbEntity
  8
M2
  6
Continuous
 62
     4
370
    50
100
AcDbLine
 10
188.2383413278451
 20
1407.02551427208
 30
0.0
 11
188.2383413278451
 21
1407.349672181603
 31
0.0
  0
LINE
  5
7CB
330
713
100
AcDbEntity
  8
M2
  6
Continuous
 62
     4
370
    50
100
AcDbLine
 10
161.5171884914564
 20
1406.797558340037
 30
0.0
 11
164.6465269512958
 21
1404.690737628549
 31
0.0
  0
LINE
  5
7CC
330
713
100
AcDbEntity
  8
M2
  6
Continuous
 62
     4
370
    50
100
AcDbLine
 10
184.9884590140582
 20
1404.690790227997
 30
0.0
 11
188.1171644476376
 21
1406.797813846444
 31
0.0
  0
ARC
  5
7CD
330
713
100
AcDbEntity
  8
M2
  6
Continuous
 62
     4
370
    50
100
AcDbCircle
 10
187.5442028349125
 20
1400.89578313403
 30
0.0
 40
4.575358490992199
100
AcDbArc
 50
123.9582570957734
 51
180.0
  0
ARC
  5
7CE
330
713
100
AcDbEntity
  8
M2
  6
Continuous
 62
     4
370
    50
100
AcDbCircle
 10
162.0913081756744
 20
1400.89537699617
 30
0.0
 40
4.575358490992199
100
AcDbArc
 50
0.0
 51
56.04966949673376
  0
ARC
  5
7CF
330
713
100
AcDbEntity
  8
M2
  6
Continuous
 62
     4
370
    50
100
AcDbCircle
 10
187.9638198183884
 20
1407.02551427208
 30
0.0
 40
0.2745215094595319
100
AcDbArc
 50
303.9582570957783
 51
0.0
  0
ARC
  5
7D0
330
713
100
AcDbEntity
  8
M2
  6
Continuous
 62
     4
370
    50
100
AcDbCircle
 10
161.6705016179928
 20
1407.025279977978
 30
0.0
 40
0.2745215094595319
100
AcDbArc
 50
180.0
 51
236.0496694967011
  0
ARC
  5
7D1
330
713
100
AcDbEntity
  8
M2
  6
Continuous
 62
     4
370
    50
100
AcDbCircle
 10
188.0553269882064
 20
1407.349672181604
 30
0.0
 40
0.183014339639688
100
AcDbArc
 50
0.0
 51
90.0
  0
ARC
  5
7D2
330
713
100
AcDbEntity
  8
M2
  6
Continuous
 62
     4
370
    50
100
AcDbCircle
 10
161.5789944481721
 20
1407.349672181604
 30
0.0
 40
0.183014339639688
100
AcDbArc
 50
90.0
 51
180.0
  0
LINE
  5
7D3
330
713
100
AcDbEntity
  8
M2
  6
Continuous
 62
     4
370
    50
100
AcDbLine
 10
217.5051266469391
 20
1370.793438130722
 30
0.0
 11
217.7823873839185
 21
1371.152360918316
 31
0.0
  0
LINE
  5
7D4
330
713
100
AcDbEntity
  8
M2
  6
Continuous
 62
     4
370
    50
100
AcDbLine
 10
209.2273707618135
 20
1367.885617292344
 30
0.0
 11
214.8639921662382
 21
1369.121233246792
 31
0.0
  0
ARC
  5
7D5
330
713
100
AcDbEntity
  8
M2
  6
Continuous
 62
     4
370
    50
100
AcDbCircle
 10
213.8842812531834
 20
1373.590469406131
 30
0.0
 40
4.575358490992199
100
AcDbArc
 50
282.3643554319389
 51
322.3146252338199
  0
ARC
  5
7D6
330
713
100
AcDbEntity
  8
M2
  6
Continuous
 62
     4
370
    50
100
AcDbCircle
 10
204.4786852827492
 20
1453.64309809456
 30
0.0
 40
86.59303079641356
100
AcDbArc
 50
262.0341483338901
 51
264.3484656952251
  0
LINE
  5
7D7
330
713
100
AcDbEntity
  8
M2
  6
Continuous
 62
     4
370
    50
100
AcDbLine
 10
192.4783740632618
 20
1367.885617294667
 30
0.0
 11
186.8417526588371
 21
1369.121233249114
 31
0.0
  0
ARC
  5
7D8
330
713
100
AcDbEntity
  8
M2
  6
Continuous
 62
     4
370
    50
100
AcDbCircle
 10
187.8214635718916
 20
1373.590469408452
 30
0.0
 40
4.575358490992199
100
AcDbArc
 50
217.6853747661801
 51
257.6356445680611
  0
ARC
  5
7D9
330
713
100
AcDbEntity
  8
M2
  6
Continuous
 62
     4
370
    50
100
AcDbCircle
 10
187.5442028349125
 20
1373.949392196047
 30
0.0
 40
4.575358490992199
100
AcDbArc
 50
180.0
 51
217.6853747661801
  0
LINE
  5
7DA
330
713
100
AcDbEntity
  8
M2
  6
Continuous
 62
     4
370
    50
100
AcDbLine
 10
184.2006181781361
 20
1370.793438133044
 30
0.0
 11
183.9233574411592
 21
1371.152360920638
 31
0.0
  0
LINE
  5
7DB
330
713
100
AcDbEntity
  8
M2
  6
Continuous
 62
     4
370
    50
100
AcDbLine
 10
279.2784457936275
 20
1407.061800017433
 30
0.0
 11
279.2784457936275
 21
1407.349672181604
 31
0.0
  0
LINE
  5
7DC
330
713
100
AcDbEntity
  8
M2
  6
Continuous
 62
     4
370
    50
100
AcDbLine
 10
309.3121484379335
 20
1407.080944038485
 30
0.0
 11
309.3121484379335
 21
1407.349672181604
 31
0.0
  0
LINE
  5
7DD
330
713
100
AcDbEntity
  8
M2
  6
Continuous
 62
     4
370
    50
100
AcDbLine
 10
279.4301976130825
 20
1406.816260484217
 30
0.0
 11
285.1984562606538
 21
1403.932132959945
 31
0.0
  0
LINE
  5
7DE
330
713
100
AcDbEntity
  8
M2
  6
Continuous
 62
     4
370
    50
100
AcDbLine
 10
307.1817728823194
 20
1405.663396530155
 30
0.0
 11
309.1774629290126
 21
1406.844706970882
 31
0.0
  0
ARC
  5
7DF
330
713
100
AcDbEntity
  8
M2
  6
Continuous
 62
     4
370
    50
100
AcDbCircle
 10
283.1522947605372
 20
1399.839807406359
 30
0.0
 40
4.575358490992199
100
AcDbArc
 50
30.67454069282717
 51
63.434963122481
  0
ARC
  5
7E0
330
713
100
AcDbEntity
  8
M2
  6
Continuous
 62
     4
370
    50
100
AcDbCircle
 10
309.5123728913037
 20
1401.726112070122
 30
0.0
 40
4.575358490992199
100
AcDbArc
 50
120.6225974401399
 51
210.6745406928272
  0
ARC
  5
7E1
330
713
100
AcDbEntity
  8
M2
  6
Continuous
 62
     4
370
    50
100
AcDbCircle
 10
279.5529673030896
 20
1407.061800017433
 30
0.0
 40
0.2745215094595319
100
AcDbArc
 50
180.0
 51
243.434963122464
  0
ARC
  5
7E2
330
713
100
AcDbEntity
  8
M2
  6
Continuous
 62
     4
370
    50
100
AcDbCircle
 10
279.4614601332687
 20
1407.349672181604
 30
0.0
 40
0.183014339639688
100
AcDbArc
 50
90.0
 51
180.0
  0
ARC
  5
7E3
330
713
100
AcDbEntity
  8
M2
  6
Continuous
 62
     4
370
    50
100
AcDbCircle
 10
309.1291340982921
 20
1407.349672181604
 30
0.0
 40
0.183014339639688
100
AcDbArc
 50
0.0
 51
90.0
  0
ARC
  5
7E4
330
713
100
AcDbEntity
  8
M2
  6
Continuous
 62
     4
370
    50
100
AcDbCircle
 10
309.0376269284714
 20
1407.080944038485
 30
0.0
 40
0.2745215094595319
100
AcDbArc
 50
300.6225974401536
 51
0.0
  0
LINE
  5
7E5
330
713
100
AcDbEntity
  8
M2
  6
Continuous
 62
     4
370
    50
100
AcDbLine
 10
358.2944485613707
 20
1407.054321061558
 30
0.0
 11
358.2944485613707
 21
1407.349672181605
 31
0.0
  0
LINE
  5
7E6
330
713
100
AcDbEntity
  8
M2
  6
Continuous
 62
     4
370
    50
100
AcDbLine
 10
340.7345010063646
 20
1407.032982783734
 30
0.0
 11
340.7345010063646
 21
1407.349672181605
 31
0.0
  0
LINE
  5
7E7
330
713
100
AcDbEntity
  8
M2
  6
Continuous
 62
     4
370
    50
100
AcDbLine
 10
352.9436558772245
 20
1403.944234721385
 30
0.0
 11
358.1523953951699
 21
1406.813875231505
 31
0.0
  0
LINE
  5
7E8
330
713
100
AcDbEntity
  8
M2
  6
Continuous
 62
     4
370
    50
100
AcDbLine
 10
340.8489105588828
 20
1406.809989016106
 30
0.0
 11
342.3242048638556
 21
1405.750711616795
 31
0.0
  0
ARC
  5
7E9
330
713
100
AcDbEntity
  8
M2
  6
Continuous
 62
     4
370
    50
100
AcDbCircle
 10
358.0199270519142
 20
1407.054321061558
 30
0.0
 40
0.2745215094595319
100
AcDbArc
 50
298.8516001624275
 51
0.0
  0
ARC
  5
7EA
330
713
100
AcDbEntity
  8
M2
  6
Continuous
 62
     4
370
    50
100
AcDbCircle
 10
341.009022515824
 20
1407.032982783734
 30
0.0
 40
0.2745215094595319
100
AcDbArc
 50
180.0
 51
234.3212406879435
  0
ARC
  5
7EB
330
713
100
AcDbEntity
  8
M2
  6
Continuous
 62
     4
370
    50
100
AcDbCircle
 10
358.111434221732
 20
1407.349672181604
 30
0.0
 40
0.183014339639688
100
AcDbArc
 50
0.0
 51
90.0
  0
ARC
  5
7EC
330
713
100
AcDbEntity
  8
M2
  6
Continuous
 62
     4
370
    50
100
AcDbCircle
 10
340.9175153460051
 20
1407.349672181604
 30
0.0
 40
0.183014339639688
100
AcDbArc
 50
90.0
 51
180.0
  0
ARC
  5
7ED
330
713
100
AcDbEntity
  8
M2
  6
Continuous
 62
     4
370
    50
100
AcDbCircle
 10
355.1514615982123
 20
1399.936804220492
 30
0.0
 40
4.575358490992199
100
AcDbArc
 50
118.8516001624027
 51
149.9129623574221
  0
ARC
  5
7EE
330
713
100
AcDbEntity
  8
M2
  6
Continuous
 62
     4
370
    50
100
AcDbCircle
 10
339.6556722481635
 20
1402.034148823018
 30
0.0
 40
4.575358490992199
100
AcDbArc
 50
329.9129623574221
 51
54.32124068794309
  0
LINE
  5
7EF
330
713
100
AcDbEntity
  8
M2
  6
Continuous
 62
     4
370
    50
100
AcDbLine
 10
358.20011720807
 20
1362.6503278184
 30
0.0
 11
358.20011720807
 21
1363.167200047822
 31
0.0
  0
LINE
  5
7F0
330
713
100
AcDbEntity
  8
M2
  6
Continuous
 62
     4
370
    50
100
AcDbLine
 10
340.3066346230642
 20
1362.6503278184
 30
0.0
 11
340.3066346230642
 21
1363.147991417691
 31
0.0
  0
LINE
  5
7F1
330
713
100
AcDbEntity
  8
M2
  6
Continuous
 62
     4
370
    50
100
AcDbLine
 10
340.435515209083
 20
1363.380694620453
 30
0.0
 11
346.028369625886
 21
1366.881069657215
 31
0.0
  0
LINE
  5
7F2
330
713
100
AcDbEntity
  8
M2
  6
Continuous
 62
     4
370
    50
100
AcDbLine
 10
356.0641005262743
 20
1364.990478497087
 30
0.0
 11
358.0959568533204
 21
1363.382465317019
 31
0.0
  0
ARC
  5
7F3
330
713
100
AcDbEntity
  8
M2
  6
Continuous
 62
     4
370
    50
100
AcDbCircle
 10
358.9034531047571
 20
1368.578232983692
 30
0.0
 40
4.575358490992199
100
AcDbArc
 50
149.3600439739263
 51
231.6418720694284
  0
ARC
  5
7F4
330
713
100
AcDbEntity
  8
M2
  6
Continuous
 62
     4
370
    50
100
AcDbCircle
 10
343.6010209019022
 20
1370.759456369917
 30
0.0
 40
4.575358490992199
100
AcDbArc
 50
302.0410322244241
 51
329.3600439739262
  0
ARC
  5
7F5
330
713
100
AcDbEntity
  8
M2
  6
Continuous
 62
     4
370
    50
100
AcDbCircle
 10
357.9255956986126
 20
1363.167200047822
 30
0.0
 40
0.2745215094595319
100
AcDbArc
 50
0.0
 51
51.64187206942068
  0
ARC
  5
7F6
330
713
100
AcDbEntity
  8
M2
  6
Continuous
 62
     4
370
    50
100
AcDbCircle
 10
340.5811561325208
 20
1363.147991417691
 30
0.0
 40
0.2745215094595319
100
AcDbArc
 50
122.0410322243414
 51
180.0
  0
ARC
  5
7F7
330
713
100
AcDbEntity
  8
M2
  6
Continuous
 62
     4
370
    50
100
AcDbCircle
 10
358.0171028684331
 20
1362.6503278184
 30
0.0
 40
0.183014339639688
100
AcDbArc
 50
270.0
 51
0.0
  0
ARC
  5
7F8
330
713
100
AcDbEntity
  8
M2
  6
Continuous
 62
     4
370
    50
100
AcDbCircle
 10
214.1615419901609
 20
1373.949392193726
 30
0.0
 40
4.575358490992199
100
AcDbArc
 50
322.3146252338199
 51
0.0
  0
LINE
  5
7F9
330
713
100
AcDbEntity
  8
M2
  6
Continuous
 62
     4
370
    50
100
AcDbLine
 10
389.2457080286249
 20
1362.6503278184
 30
0.0
 11
389.2457080286249
 21
1363.172870602416
 31
0.0
  0
LINE
  5
7FA
330
713
100
AcDbEntity
  8
M2
  6
Continuous
 62
     4
370
    50
100
AcDbLine
 10
413.9600508534845
 20
1366.883267390248
 30
0.0
 11
420.3028737907843
 21
1363.378360188512
 31
0.0
  0
LINE
  5
7FB
330
713
100
AcDbEntity
  8
M2
  6
Continuous
 62
     4
370
    50
100
AcDbLine
 10
389.3427026922081
 20
1363.382265631366
 30
0.0
 11
391.2695383922871
 21
1365.015852952278
 31
0.0
  0
ARC
  5
7FC
330
713
100
AcDbEntity
  8
M2
  6
Continuous
 62
     4
370
    50
100
AcDbCircle
 10
389.4287223682636
 20
1362.6503278184
 30
0.0
 40
0.183014339639688
100
AcDbArc
 50
180.0
 51
270.0
  0
LINE
  5
7FD
330
713
100
AcDbEntity
  8
M2
  6
Continuous
 62
     4
370
    50
100
AcDbLine
 10
420.4446228399236
 20
1362.6503278184
 30
0.0
 11
420.4446228399236
 21
1363.138082155941
 31
0.0
  0
ARC
  5
7FE
330
713
100
AcDbEntity
  8
M2
  6
Continuous
 62
     4
370
    50
100
AcDbCircle
 10
420.2616085002823
 20
1362.6503278184
 30
0.0
 40
0.183014339639688
100
AcDbArc
 50
270.0
 51
0.0
  0
ARC
  5
7FF
330
713
100
AcDbEntity
  8
M2
  6
Continuous
 62
     4
370
    50
100
AcDbCircle
 10
420.1701013304613
 20
1363.138082155941
 30
0.0
 40
0.2745215094595319
100
AcDbArc
 50
0.0
 51
61.07590656970693
  0
ARC
  5
800
330
713
100
AcDbEntity
  8
M2
  6
Continuous
 62
     4
370
    50
100
AcDbCircle
 10
389.5202295380841
 20
1363.172870602416
 30
0.0
 40
0.2745215094595319
100
AcDbArc
 50
130.2915552042657
 51
180.0
  0
ARC
  5
801
330
713
100
AcDbEntity
  8
M2
  6
Continuous
 62
     4
370
    50
100
AcDbCircle
 10
416.1729251921902
 20
1370.88790126642
 30
0.0
 40
4.575358490992199
100
AcDbArc
 50
211.3286928667046
 51
241.0759065697404
  0
ARC
  5
802
330
713
100
AcDbEntity
  8
M2
  6
Continuous
 62
     4
370
    50
100
AcDbCircle
 10
388.3107576276899
 20
1368.50577010146
 30
0.0
 40
4.575358490992199
100
AcDbArc
 50
310.2915552042605
 51
29.66165865502361
  0
ARC
  5
803
330
713
100
AcDbEntity
  8
M2
  6
Continuous
 62
     4
370
    50
100
AcDbCircle
 10
219.3487241522582
 20
1367.912668577272
 30
0.0
 40
4.575358490992199
100
AcDbArc
 50
284.4688421409207
 51
305.1353088423113
  0
LINE
  5
804
330
713
100
AcDbEntity
  8
M2
  6
Continuous
 62
     4
370
    50
100
AcDbLine
 10
167.4521431885425
 20
1370.743657209394
 30
0.0
 11
167.0208755435799
 21
1371.774975567911
 31
0.0
  0
LINE
  5
805
330
713
100
AcDbEntity
  8
M2
  6
Continuous
 62
     4
370
    50
100
AcDbLine
 10
176.8350564297737
 20
1363.444172766445
 30
0.0
 11
183.0354455529121
 21
1361.656609861855
 31
0.0
  0
LINE
  5
806
330
713
100
AcDbEntity
  8
M2
  6
Continuous
 62
     4
370
    50
100
AcDbLine
 10
168.9850014911362
 20
1368.806524518384
 30
0.0
 11
175.4142127510334
 21
1364.138180036675
 31
0.0
  0
ARC
  5
807
330
713
100
AcDbEntity
  8
M2
  6
Continuous
 62
     4
370
    50
100
AcDbCircle
 10
184.3028931856597
 20
1366.05291306106
 30
0.0
 40
4.575358490992199
100
AcDbArc
 50
253.917807673234
 51
261.6064190568468
  0
ARC
  5
808
330
713
100
AcDbEntity
  8
M2
  6
Continuous
 62
     4
370
    50
100
AcDbCircle
 10
178.1025040625157
 20
1367.84047596565
 30
0.0
 40
4.575358490992199
100
AcDbArc
 50
234.0160489479939
 51
253.917807673234
  0
ARC
  5
809
330
713
100
AcDbEntity
  8
M2
  6
Continuous
 62
     4
370
    50
100
AcDbCircle
 10
171.2420251576609
 20
1373.540138805874
 30
0.0
 40
4.575358490992199
100
AcDbArc
 50
180.0
 51
202.6932775652895
  0
ARC
  5
80A
330
713
100
AcDbEntity
  8
M2
  6
Continuous
 62
     4
370
    50
100
AcDbCircle
 10
171.6732928026208
 20
1372.508820447358
 30
0.0
 40
4.575358490992199
100
AcDbArc
 50
202.6932775652895
 51
234.0160489479939
  0
LINE
  5
80B
330
713
100
AcDbEntity
  8
M2
  6
Continuous
 62
     4
370
    50
100
AcDbLine
 10
290.7556680458498
 20
1371.594624924015
 30
0.0
 11
293.9008339035124
 21
1376.378433338398
 31
0.0
  0
ARC
  5
80C
330
713
100
AcDbEntity
  8
M2
  6
Continuous
 62
     4
370
    50
100
AcDbCircle
 10
283.1094791659521
 20
1376.62169334381
 30
0.0
 40
9.1507169819844
100
AcDbArc
 50
270.0
 51
326.6766537949969
  0
ARC
  5
80D
330
713
100
AcDbEntity
  8
M2
  6
Continuous
 62
     4
370
    50
100
AcDbCircle
 10
293.977295792311
 20
1376.328162654198
 30
0.0
 40
0.091507169819844
100
AcDbArc
 50
350.260920291933
 51
146.6766537949511
  0
ELLIPSE
  5
80E
330
713
100
AcDbEntity
  8
M2
  6
Continuous
 62
     4
370
    50
100
AcDbEllipse
 10
451.9819535460952
 20
1387.350946836552
 30
0.0
 11
-31.72930735277049
 21
0.0000019209185211
 31
0.0
210
0.0
220
0.0
230
1.0
 40
0.7998068702141468
 41
3.912065716262853
 42
9.112969794885263
  0
ELLIPSE
  5
80F
330
713
100
AcDbEntity
  8
M2
  6
Continuous
 62
     4
370
    50
100
AcDbEllipse
 10
456.0416570275863
 20
1387.350946170113
 30
0.0
 11
22.87679245496082
 21
-0.0000016152487206
 31
0.0
210
0.0
220
0.0
230
0.9999999999999998
 40
0.721651058197022
 41
0.4426733724476526
 42
5.79210961745615
  0
LINE
  5
810
330
713
100
AcDbEntity
  8
M2
  6
Continuous
 62
     4
370
    50
100
AcDbLine
 10
483.2466825048284
 20
1412.545250509541
 30
0.0
 11
483.2243628458246
 21
1394.422711448998
 31
0.0
  0
LINE
  5
811
330
713
100
AcDbEntity
  8
M2
  6
Continuous
 62
     4
370
    50
100
AcDbLine
 10
482.6807157044976
 20
1412.728264849179
 30
0.0
 11
483.063668165187
 21
1412.728264849179
 31
0.0
  0
ARC
  5
812
330
713
100
AcDbEntity
  8
M2
  6
Continuous
 62
     4
370
    50
100
AcDbCircle
 10
483.063668165187
 20
1412.545250509541
 30
0.0
 40
0.183014339639688
100
AcDbArc
 50
0.0
 51
90.0
  0
ARC
  5
813
330
713
100
AcDbEntity
  8
M2
  6
Continuous
 62
     4
370
    50
100
AcDbCircle
 10
482.6807157044976
 20
1412.545250509541
 30
0.0
 40
0.183014339639688
100
AcDbArc
 50
90.0
 51
150.0004403131211
  0
LINE
  5
814
330
713
100
AcDbEntity
  8
M2
  6
Continuous
 62
     4
370
    50
100
AcDbLine
 10
480.5521779833175
 20
1406.697932069528
 30
0.0
 11
482.5222199338928
 21
1412.636756461337
 31
0.0
  0
ARC
  5
815
330
713
100
AcDbEntity
  8
M2
  6
Continuous
 62
     4
370
    50
100
AcDbCircle
 10
477.0780498654606
 20
1407.850378695714
 30
0.0
 40
3.660286792793761
100
AcDbArc
 50
230.5099444785177
 51
341.6481534343632
  0
LINE
  5
816
330
713
100
AcDbEntity
  8
M2
  6
Continuous
 62
     4
370
    50
100
AcDbLine
 10
476.7133499326114
 20
1394.422711448998
 30
0.0
 11
483.2243628458241
 21
1394.422711448998
 31
0.0
  0
LINE
  5
817
330
713
100
AcDbEntity
  8
M2
  6
Continuous
 62
     4
370
    50
100
AcDbLine
 10
476.2150091672381
 20
1379.565688499641
 30
0.0
 11
482.1812864504131
 21
1379.565688499641
 31
0.0
  0
ARC
  5
818
330
713
100
AcDbEntity
  8
M2
  6
Continuous
 62
     4
370
    50
100
AcDbCircle
 10
340.4896489627026
 20
1362.6503278184
 30
0.0
 40
0.183014339639688
100
AcDbArc
 50
180.0
 51
270.0
  0
LINE
  5
819
330
713
100
AcDbEntity
  8
HIDDEN1
  6
Continuous
 62
     7
370
    25
100
AcDbLine
 10
1496.666666666667
 20
210.0000000000011
 30
0.0
 11
1496.666666666667
 21
49.99999999999925
 31
0.0
  0
LINE
  5
81A
330
713
100
AcDbEntity
  8
HIDDEN1
  6
Continuous
 62
     7
370
    25
100
AcDbLine
 10
1496.666666666667
 20
103.3333333333337
 30
0.0
 11
2050.0
 21
103.3333333333337
 31
0.0
  0
LINE
  5
81B
330
713
100
AcDbEntity
  8
M1
  6
Continuous
 62
     7
370
    25
100
AcDbLine
 10
2100.000000000001
 20
0.0
 30
0.0
 11
2100.000000000001
 21
1485.0
 31
0.0
  0
LINE
  5
81C
330
713
100
AcDbEntity
  8
M1
  6
Continuous
 62
     7
370
    25
100
AcDbLine
 10
0.0
 20
0.0
 30
0.0
 11
2100.0
 21
0.0
 31
0.0
  0
LINE
  5
81D
330
713
100
AcDbEntity
  8
HIDDEN1
  6
Continuous
 62
     7
370
    25
100
AcDbLine
 10
2049.999999999998
 20
1237.499999999997
 30
0.0
 11
2074.999999999998
 21
1237.499999999997
 31
0.0
  0
LINE
  5
81E
330
713
100
AcDbEntity
  8
HIDDEN1
  6
Continuous
 62
     7
370
    25
100
AcDbLine
 10
2049.999999999998
 20
989.9999999999982
 30
0.0
 11
2074.999999999998
 21
989.9999999999975
 31
0.0
  0
LINE
  5
81F
330
713
100
AcDbEntity
  8
HIDDEN1
  6
Continuous
 62
     7
370
    25
100
AcDbLine
 10
2024.999999999999
 20
742.4999999999982
 30
0.0
 11
2074.999999999999
 21
742.4999999999977
 31
0.0
  0
LINE
  5
820
330
713
100
AcDbEntity
  8
HIDDEN1
  6
Continuous
 62
     7
370
    25
100
AcDbLine
 10
2049.999999999998
 20
494.9999999999991
 30
0.0
 11
2074.999999999998
 21
494.9999999999991
 31
0.0
  0
LINE
  5
821
330
713
100
AcDbEntity
  8
HIDDEN1
  6
Continuous
 62
     7
370
    25
100
AcDbLine
 10
2049.999999999998
 20
247.4999999999995
 30
0.0
 11
2074.999999999998
 21
247.4999999999995
 31
0.0
  0
LINE
  5
822
330
713
100
AcDbEntity
  8
HIDDEN1
  6
Continuous
 62
     7
370
    25
100
AcDbLine
 10
125.0000000000011
 20
1237.499999999997
 30
0.0
 11
100.0000000000011
 21
1237.499999999997
 31
0.0
  0
LINE
  5
823
330
713
100
AcDbEntity
  8
HIDDEN1
  6
Continuous
 62
     7
370
    25
100
AcDbLine
 10
125.0000000000011
 20
989.9999999999982
 30
0.0
 11
100.0000000000011
 21
989.9999999999982
 31
0.0
  0
LINE
  5
824
330
713
100
AcDbEntity
  8
HIDDEN1
  6
Continuous
 62
     7
370
    25
100
AcDbLine
 10
150.0000000000014
 20
742.4999999999982
 30
0.0
 11
100.0000000000014
 21
742.4999999999982
 31
0.0
  0
LINE
  5
825
330
713
100
AcDbEntity
  8
HIDDEN1
  6
Continuous
 62
     7
370
    25
100
AcDbLine
 10
125.000000000002
 20
494.9999999999991
 30
0.0
 11
100.000000000002
 21
494.9999999999991
 31
0.0
  0
LINE
  5
826
330
713
100
AcDbEntity
  8
HIDDEN1
  6
Continuous
 62
     7
370
    25
100
AcDbLine
 10
125.000000000002
 20
247.4999999999995
 30
0.0
 11
100.000000000002
 21
247.4999999999995
 31
0.0
  0
LINE
  5
827
330
713
100
AcDbEntity
  8
HIDDEN1
  6
Continuous
 62
     7
370
    25
100
AcDbLine
 10
125.0000000000011
 20
1435.000000000002
 30
0.0
 11
100.0000000000011
 21
1435.000000000002
 31
0.0
  0
LINE
  5
828
330
713
100
AcDbEntity
  8
HIDDEN1
  6
Continuous
 62
     7
370
    25
100
AcDbLine
 10
125.0000000000011
 20
1435.000000000002
 30
0.0
 11
125.0000000000011
 21
1460.000000000002
 31
0.0
  0
LINE
  5
829
330
713
100
AcDbEntity
  8
HIDDEN1
  6
Continuous
 62
     7
370
    25
100
AcDbLine
 10
2049.999999999998
 20
1435.0
 30
0.0
 11
2049.999999999998
 21
1460.0
 31
0.0
  0
LINE
  5
82A
330
713
100
AcDbEntity
  8
HIDDEN1
  6
Continuous
 62
     7
370
    25
100
AcDbLine
 10
2049.999999999998
 20
1435.0
 30
0.0
 11
2074.999999999998
 21
1435.0
 31
0.0
  0
LINE
  5
82B
330
713
100
AcDbEntity
  8
HIDDEN1
  6
Continuous
 62
     7
370
    25
100
AcDbLine
 10
2050.0
 20
49.99999999999909
 30
0.0
 11
2075.0
 21
49.99999999999909
 31
0.0
  0
LINE
  5
82C
330
713
100
AcDbEntity
  8
HIDDEN1
  6
Continuous
 62
     7
370
    25
100
AcDbLine
 10
2050.0
 20
49.99999999999909
 30
0.0
 11
2050.0
 21
24.99999999999909
 31
0.0
  0
LINE
  5
82D
330
713
100
AcDbEntity
  8
HIDDEN1
  6
Continuous
 62
     7
370
    25
100
AcDbLine
 10
125.000000000002
 20
49.99999999999545
 30
0.0
 11
125.000000000002
 21
24.99999999999546
 31
0.0
  0
LINE
  5
82E
330
713
100
AcDbEntity
  8
HIDDEN1
  6
Continuous
 62
     7
370
    25
100
AcDbLine
 10
125.000000000002
 20
49.99999999999545
 30
0.0
 11
100.000000000002
 21
49.99999999999545
 31
0.0
  0
LINE
  5
82F
330
713
100
AcDbEntity
  8
HIDDEN1
  6
Continuous
 62
     7
370
    25
100
AcDbLine
 10
1837.500000000001
 20
1435.000000000002
 30
0.0
 11
1837.500000000001
 21
1460.000000000002
 31
0.0
  0
LINE
  5
830
330
713
100
AcDbEntity
  8
HIDDEN1
  6
Continuous
 62
     7
370
    25
100
AcDbLine
 10
1575.0
 20
1435.000000000002
 30
0.0
 11
1575.0
 21
1460.000000000002
 31
0.0
  0
LINE
  5
831
330
713
100
AcDbEntity
  8
HIDDEN1
  6
Continuous
 62
     7
370
    25
100
AcDbLine
 10
1312.5
 20
1435.000000000002
 30
0.0
 11
1312.5
 21
1460.000000000002
 31
0.0
  0
LINE
  5
832
330
713
100
AcDbEntity
  8
HIDDEN1
  6
Continuous
 62
     7
370
    25
100
AcDbLine
 10
787.5000000000003
 20
1435.000000000002
 30
0.0
 11
787.5000000000003
 21
1460.000000000002
 31
0.0
  0
LINE
  5
833
330
713
100
AcDbEntity
  8
HIDDEN1
  6
Continuous
 62
     7
370
    25
100
AcDbLine
 10
525.0
 20
1435.0
 30
0.0
 11
525.0
 21
1460.0
 31
0.0
  0
LINE
  5
834
330
713
100
AcDbEntity
  8
HIDDEN1
  6
Continuous
 62
     7
370
    25
100
AcDbLine
 10
262.5000000000009
 20
1435.0
 30
0.0
 11
262.5000000000009
 21
1460.0
 31
0.0
  0
LINE
  5
835
330
713
100
AcDbEntity
  8
HIDDEN1
  6
Continuous
 62
     7
370
    25
100
AcDbLine
 10
1050.0
 20
1459.999999999997
 30
0.0
 11
1050.0
 21
1409.999999999997
 31
0.0
  0
LINE
  5
836
330
713
100
AcDbEntity
  8
HIDDEN1
  6
Continuous
 62
     7
370
    25
100
AcDbLine
 10
1837.500000000002
 20
49.99999999999727
 30
0.0
 11
1837.500000000002
 21
24.99999999999728
 31
0.0
  0
LINE
  5
837
330
713
100
AcDbEntity
  8
HIDDEN1
  6
Continuous
 62
     7
370
    25
100
AcDbLine
 10
1575.000000000001
 20
49.99999999999727
 30
0.0
 11
1575.000000000001
 21
24.99999999999728
 31
0.0
  0
LINE
  5
838
330
713
100
AcDbEntity
  8
HIDDEN1
  6
Continuous
 62
     7
370
    25
100
AcDbLine
 10
1312.500000000001
 20
49.99999999999727
 30
0.0
 11
1312.500000000001
 21
24.99999999999728
 31
0.0
  0
LINE
  5
839
330
713
100
AcDbEntity
  8
HIDDEN1
  6
Continuous
 62
     7
370
    25
100
AcDbLine
 10
787.500000000001
 20
49.99999999999727
 30
0.0
 11
787.500000000001
 21
24.99999999999728
 31
0.0
  0
LINE
  5
83A
330
713
100
AcDbEntity
  8
HIDDEN1
  6
Continuous
 62
     7
370
    25
100
AcDbLine
 10
525.0000000000019
 20
49.99999999999727
 30
0.0
 11
525.0000000000019
 21
24.99999999999728
 31
0.0
  0
LINE
  5
83B
330
713
100
AcDbEntity
  8
HIDDEN1
  6
Continuous
 62
     7
370
    25
100
AcDbLine
 10
262.5000000000018
 20
49.99999999999727
 30
0.0
 11
262.5000000000018
 21
24.99999999999728
 31
0.0
  0
LINE
  5
83C
330
713
100
AcDbEntity
  8
HIDDEN1
  6
Continuous
 62
     7
370
    25
100
AcDbLine
 10
1050.0
 20
24.99999999999956
 30
0.0
 11
1050.0
 21
74.99999999999954
 31
0.0
  0
LINE
  5
83D
330
713
100
AcDbEntity
  8
HIDDEN1
  6
Continuous
 62
     7
370
   100
100
AcDbLine
 10
125.000000000002
 20
49.99999999999545
 30
0.0
 11
125.0000000000014
 21
1435.000000000001
 31
0.0
  0
LINE
  5
83E
330
713
100
AcDbEntity
  8
HIDDEN1
  6
Continuous
 62
     7
370
   100
100
AcDbLine
 10
2050.0
 20
49.99999999999909
 30
0.0
 11
125.0000000000014
 21
49.99999999999576
 31
0.0
  0
LINE
  5
83F
330
713
100
AcDbEntity
  8
HIDDEN1
  6
Continuous
 62
     7
370
   100
100
AcDbLine
 10
2049.999999999998
 20
1435.0
 30
0.0
 11
2050.0
 21
50.00000000000023
 31
0.0
  0
LINE
  5
840
330
713
100
AcDbEntity
  8
HIDDEN1
  6
Continuous
 62
     7
370
   100
100
AcDbLine
 10
125.0000000000011
 20
1435.000000000002
 30
0.0
 11
2049.999999999999
 21
1434.999999999999
 31
0.0
  0
MTEXT
  5
841
330
713
100
AcDbEntity
  8
HIDDEN1
 62
     7
370
    25
100
AcDbMText
 10
2064.999999585442
 20
124.4166655680428
 30
0.0
 40
15.0
 41
0.0
 71
     5
 72
     5
  1
\A1;F
  7
Standard
 73
     1
 44
1.0
1001
ACAD
1000
MTEXTBEGIN
1070
    73
1070
     1
1070
    44
1040
1.0
1070
    74
1070
     0
1000
MTEXTEND
1000
ACAD_MTEXT_DEFINED_HEIGHT_BEGIN
1070
    46
1040
15.0
1000
ACAD_MTEXT_DEFINED_HEIGHT_END
  0
MTEXT
  5
842
330
713
100
AcDbEntity
  8
HIDDEN1
 62
     7
370
    25
100
AcDbMText
 10
2064.999999585442
 20
371.916665568044
 30
0.0
 40
15.0
 41
0.0
 71
     5
 72
     5
  1
\A1;E
  7
Standard
 73
     1
 44
1.0
1001
ACAD
1000
MTEXTBEGIN
1070
    73
1070
     1
1070
    44
1040
1.0
1070
    74
1070
     0
1000
MTEXTEND
1000
ACAD_MTEXT_DEFINED_HEIGHT_BEGIN
1070
    46
1040
15.0
1000
ACAD_MTEXT_DEFINED_HEIGHT_END
  0
MTEXT
  5
843
330
713
100
AcDbEntity
  8
HIDDEN1
 62
     7
370
    25
100
AcDbMText
 10
2064.999999585442
 20
619.4166655680438
 30
0.0
 40
15.0
 41
0.0
 71
     5
 72
     5
  1
\A1;D
  7
Standard
 73
     1
 44
1.0
1001
ACAD
1000
MTEXTBEGIN
1070
    73
1070
     1
1070
    44
1040
1.0
1070
    74
1070
     0
1000
MTEXTEND
1000
ACAD_MTEXT_DEFINED_HEIGHT_BEGIN
1070
    46
1040
15.0
1000
ACAD_MTEXT_DEFINED_HEIGHT_END
  0
MTEXT
  5
844
330
713
100
AcDbEntity
  8
HIDDEN1
 62
     7
370
    25
100
AcDbMText
 10
2064.999999585442
 20
866.9166655680431
 30
0.0
 40
15.0
 41
0.0
 71
     5
 72
     5
  1
\A1;C
  7
Standard
 73
     1
 44
1.0
1001
ACAD
1000
MTEXTBEGIN
1070
    73
1070
     1
1070
    44
1040
1.0
1070
    74
1070
     0
1000
MTEXTEND
1000
ACAD_MTEXT_DEFINED_HEIGHT_BEGIN
1070
    46
1040
15.0
1000
ACAD_MTEXT_DEFINED_HEIGHT_END
  0
MTEXT
  5
845
330
713
100
AcDbEntity
  8
HIDDEN1
 62
     7
370
    25
100
AcDbMText
 10
2064.999999585442
 20
1114.416665568043
 30
0.0
 40
15.0
 41
0.0
 71
     5
 72
     5
  1
\A1;B
  7
Standard
 73
     1
 44
1.0
1001
ACAD
1000
MTEXTBEGIN
1070
    73
1070
     1
1070
    44
1040
1.0
1070
    74
1070
     0
1000
MTEXTEND
1000
ACAD_MTEXT_DEFINED_HEIGHT_BEGIN
1070
    46
1040
15.0
1000
ACAD_MTEXT_DEFINED_HEIGHT_END
  0
MTEXT
  5
846
330
713
100
AcDbEntity
  8
HIDDEN1
 62
     7
370
    25
100
AcDbMText
 10
2064.999999585444
 20
1361.916665568042
 30
0.0
 40
15.0
 41
0.0
 71
     5
 72
     5
  1
\A1;A
  7
Standard
 73
     1
 44
1.0
1001
ACAD
1000
MTEXTBEGIN
1070
    73
1070
     1
1070
    44
1040
1.0
1070
    74
1070
     0
1000
MTEXTEND
1000
ACAD_MTEXT_DEFINED_HEIGHT_BEGIN
1070
    46
1040
15.0
1000
ACAD_MTEXT_DEFINED_HEIGHT_END
  0
MTEXT
  5
847
330
713
100
AcDbEntity
  8
HIDDEN1
 62
     7
370
    25
100
AcDbMText
 10
1968.749999585444
 20
1450.666665568046
 30
0.0
 40
15.0
 41
0.0
 71
     5
 72
     5
  1
\A1;8
  7
Standard
 73
     1
 44
1.0
1001
ACAD
1000
MTEXTBEGIN
1070
    73
1070
     1
1070
    44
1040
1.0
1070
    74
1070
     0
1000
MTEXTEND
1000
ACAD_MTEXT_DEFINED_HEIGHT_BEGIN
1070
    46
1040
15.0
1000
ACAD_MTEXT_DEFINED_HEIGHT_END
  0
MTEXT
  5
848
330
713
100
AcDbEntity
  8
HIDDEN1
 62
     7
370
    25
100
AcDbMText
 10
1706.249999585444
 20
1450.666665568046
 30
0.0
 40
15.0
 41
0.0
 71
     5
 72
     5
  1
\A1;7
  7
Standard
 73
     1
 44
1.0
1001
ACAD
1000
MTEXTBEGIN
1070
    73
1070
     1
1070
    44
1040
1.0
1070
    74
1070
     0
1000
MTEXTEND
1000
ACAD_MTEXT_DEFINED_HEIGHT_BEGIN
1070
    46
1040
15.0
1000
ACAD_MTEXT_DEFINED_HEIGHT_END
  0
MTEXT
  5
849
330
713
100
AcDbEntity
  8
HIDDEN1
 62
     7
370
    25
100
AcDbMText
 10
1443.749999585444
 20
1450.666665568046
 30
0.0
 40
15.0
 41
0.0
 71
     5
 72
     5
  1
\A1;6
  7
Standard
 73
     1
 44
1.0
1001
ACAD
1000
MTEXTBEGIN
1070
    73
1070
     1
1070
    44
1040
1.0
1070
    74
1070
     0
1000
MTEXTEND
1000
ACAD_MTEXT_DEFINED_HEIGHT_BEGIN
1070
    46
1040
15.0
1000
ACAD_MTEXT_DEFINED_HEIGHT_END
  0
MTEXT
  5
84A
330
713
100
AcDbEntity
  8
HIDDEN1
 62
     7
370
    25
100
AcDbMText
 10
1181.249999585444
 20
1450.666665568046
 30
0.0
 40
15.0
 41
0.0
 71
     5
 72
     5
  1
\A1;5
  7
Standard
 73
     1
 44
1.0
1001
ACAD
1000
MTEXTBEGIN
1070
    73
1070
     1
1070
    44
1040
1.0
1070
    74
1070
     0
1000
MTEXTEND
1000
ACAD_MTEXT_DEFINED_HEIGHT_BEGIN
1070
    46
1040
15.0
1000
ACAD_MTEXT_DEFINED_HEIGHT_END
  0
MTEXT
  5
84B
330
713
100
AcDbEntity
  8
HIDDEN1
 62
     7
370
    25
100
AcDbMText
 10
918.7499995854439
 20
1450.666665568046
 30
0.0
 40
15.0
 41
0.0
 71
     5
 72
     5
  1
\A1;4
  7
Standard
 73
     1
 44
1.0
1001
ACAD
1000
MTEXTBEGIN
1070
    73
1070
     1
1070
    44
1040
1.0
1070
    74
1070
     0
1000
MTEXTEND
1000
ACAD_MTEXT_DEFINED_HEIGHT_BEGIN
1070
    46
1040
15.0
1000
ACAD_MTEXT_DEFINED_HEIGHT_END
  0
MTEXT
  5
84C
330
713
100
AcDbEntity
  8
HIDDEN1
 62
     7
370
    25
100
AcDbMText
 10
656.249999585445
 20
1450.666665568046
 30
0.0
 40
15.0
 41
0.0
 71
     5
 72
     5
  1
\A1;3
  7
Standard
 73
     1
 44
1.0
1001
ACAD
1000
MTEXTBEGIN
1070
    73
1070
     1
1070
    44
1040
1.0
1070
    74
1070
     0
1000
MTEXTEND
1000
ACAD_MTEXT_DEFINED_HEIGHT_BEGIN
1070
    46
1040
15.0
1000
ACAD_MTEXT_DEFINED_HEIGHT_END
  0
MTEXT
  5
84D
330
713
100
AcDbEntity
  8
HIDDEN1
 62
     7
370
    25
100
AcDbMText
 10
393.7499995854448
 20
1450.666665568044
 30
0.0
 40
15.0
 41
0.0
 71
     5
 72
     5
  1
\A1;2
  7
Standard
 73
     1
 44
1.0
1001
ACAD
1000
MTEXTBEGIN
1070
    73
1070
     1
1070
    44
1040
1.0
1070
    74
1070
     0
1000
MTEXTEND
1000
ACAD_MTEXT_DEFINED_HEIGHT_BEGIN
1070
    46
1040
15.0
1000
ACAD_MTEXT_DEFINED_HEIGHT_END
  0
MTEXT
  5
84E
330
713
100
AcDbEntity
  8
HIDDEN1
 62
     7
370
    25
100
AcDbMText
 10
193.7499998792059
 20
1450.666665568044
 30
0.0
 40
15.0
 41
0.0
 71
     5
 72
     5
  1
\A1;\W1.5000;1
  7
Standard
 73
     1
 44
1.0
1001
ACAD
1000
MTEXTBEGIN
1070
    73
1070
     1
1070
    44
1040
1.0
1070
    74
1070
     0
1000
MTEXTEND
1000
ACAD_MTEXT_DEFINED_HEIGHT_BEGIN
1070
    46
1040
15.0
1000
ACAD_MTEXT_DEFINED_HEIGHT_END
  0
MTEXT
  5
84F
330
713
100
AcDbEntity
  8
HIDDEN1
 62
     7
370
    25
100
AcDbMText
 10
109.9999995854455
 20
1361.916665568044
 30
0.0
 40
15.0
 41
0.0
 71
     5
 72
     5
  1
\A1;A
  7
Standard
 73
     1
 44
1.0
1001
ACAD
1000
MTEXTBEGIN
1070
    73
1070
     1
1070
    44
1040
1.0
1070
    74
1070
     0
1000
MTEXTEND
1000
ACAD_MTEXT_DEFINED_HEIGHT_BEGIN
1070
    46
1040
15.0
1000
ACAD_MTEXT_DEFINED_HEIGHT_END
  0
MTEXT
  5
850
330
713
100
AcDbEntity
  8
HIDDEN1
 62
     7
370
    25
100
AcDbMText
 10
109.9999995854455
 20
1114.416665568045
 30
0.0
 40
15.0
 41
0.0
 71
     5
 72
     5
  1
\A1;B
  7
Standard
 73
     1
 44
1.0
1001
ACAD
1000
MTEXTBEGIN
1070
    73
1070
     1
1070
    44
1040
1.0
1070
    74
1070
     0
1000
MTEXTEND
1000
ACAD_MTEXT_DEFINED_HEIGHT_BEGIN
1070
    46
1040
15.0
1000
ACAD_MTEXT_DEFINED_HEIGHT_END
  0
MTEXT
  5
851
330
713
100
AcDbEntity
  8
HIDDEN1
 62
     7
370
    25
100
AcDbMText
 10
109.9999995854455
 20
866.9166655680431
 30
0.0
 40
15.0
 41
0.0
 71
     5
 72
     5
  1
\A1;C
  7
Standard
 73
     1
 44
1.0
1001
ACAD
1000
MTEXTBEGIN
1070
    73
1070
     1
1070
    44
1040
1.0
1070
    74
1070
     0
1000
MTEXTEND
1000
ACAD_MTEXT_DEFINED_HEIGHT_BEGIN
1070
    46
1040
15.0
1000
ACAD_MTEXT_DEFINED_HEIGHT_END
  0
MTEXT
  5
852
330
713
100
AcDbEntity
  8
HIDDEN1
 62
     7
370
    25
100
AcDbMText
 10
109.9999995854455
 20
619.4166655680438
 30
0.0
 40
15.0
 41
0.0
 71
     5
 72
     5
  1
\A1;D
  7
Standard
 73
     1
 44
1.0
1001
ACAD
1000
MTEXTBEGIN
1070
    73
1070
     1
1070
    44
1040
1.0
1070
    74
1070
     0
1000
MTEXTEND
1000
ACAD_MTEXT_DEFINED_HEIGHT_BEGIN
1070
    46
1040
15.0
1000
ACAD_MTEXT_DEFINED_HEIGHT_END
  0
MTEXT
  5
853
330
713
100
AcDbEntity
  8
HIDDEN1
 62
     7
370
    25
100
AcDbMText
 10
109.9999995854455
 20
371.916665568044
 30
0.0
 40
15.0
 41
0.0
 71
     5
 72
     5
  1
\A1;E
  7
Standard
 73
     1
 44
1.0
1001
ACAD
1000
MTEXTBEGIN
1070
    73
1070
     1
1070
    44
1040
1.0
1070
    74
1070
     0
1000
MTEXTEND
1000
ACAD_MTEXT_DEFINED_HEIGHT_BEGIN
1070
    46
1040
15.0
1000
ACAD_MTEXT_DEFINED_HEIGHT_END
  0
MTEXT
  5
854
330
713
100
AcDbEntity
  8
HIDDEN1
 62
     7
370
    25
100
AcDbMText
 10
109.9999995854455
 20
124.4166655680447
 30
0.0
 40
15.0
 41
0.0
 71
     5
 72
     5
  1
\A1;F
  7
Standard
 73
     1
 44
1.0
1001
ACAD
1000
MTEXTBEGIN
1070
    73
1070
     1
1070
    44
1040
1.0
1070
    74
1070
     0
1000
MTEXTEND
1000
ACAD_MTEXT_DEFINED_HEIGHT_BEGIN
1070
    46
1040
15.0
1000
ACAD_MTEXT_DEFINED_HEIGHT_END
  0
MTEXT
  5
855
330
713
100
AcDbEntity
  8
HIDDEN1
 62
     7
370
    25
100
AcDbMText
 10
193.7499998792068
 20
35.66666556804057
 30
0.0
 40
15.0
 41
0.0
 71
     5
 72
     5
  1
\A1;\W1.5000;1
  7
Standard
 73
     1
 44
1.0
1001
ACAD
1000
MTEXTBEGIN
1070
    73
1070
     1
1070
    44
1040
1.0
1070
    74
1070
     0
1000
MTEXTEND
1000
ACAD_MTEXT_DEFINED_HEIGHT_BEGIN
1070
    46
1040
15.0
1000
ACAD_MTEXT_DEFINED_HEIGHT_END
  0
MTEXT
  5
856
330
713
100
AcDbEntity
  8
HIDDEN1
 62
     7
370
    25
100
AcDbMText
 10
393.7499995854457
 20
35.66666556804057
 30
0.0
 40
15.0
 41
0.0
 71
     5
 72
     5
  1
\A1;2
  7
Standard
 73
     1
 44
1.0
1001
ACAD
1000
MTEXTBEGIN
1070
    73
1070
     1
1070
    44
1040
1.0
1070
    74
1070
     0
1000
MTEXTEND
1000
ACAD_MTEXT_DEFINED_HEIGHT_BEGIN
1070
    46
1040
15.0
1000
ACAD_MTEXT_DEFINED_HEIGHT_END
  0
MTEXT
  5
857
330
713
100
AcDbEntity
  8
HIDDEN1
 62
     7
370
    25
100
AcDbMText
 10
656.249999585446
 20
35.66666556804057
 30
0.0
 40
15.0
 41
0.0
 71
     5
 72
     5
  1
\A1;3
  7
Standard
 73
     1
 44
1.0
1001
ACAD
1000
MTEXTBEGIN
1070
    73
1070
     1
1070
    44
1040
1.0
1070
    74
1070
     0
1000
MTEXTEND
1000
ACAD_MTEXT_DEFINED_HEIGHT_BEGIN
1070
    46
1040
15.0
1000
ACAD_MTEXT_DEFINED_HEIGHT_END
  0
MTEXT
  5
858
330
713
100
AcDbEntity
  8
HIDDEN1
 62
     7
370
    25
100
AcDbMText
 10
918.749999585445
 20
35.66666556804057
 30
0.0
 40
15.0
 41
0.0
 71
     5
 72
     5
  1
\A1;4
  7
Standard
 73
     1
 44
1.0
1001
ACAD
1000
MTEXTBEGIN
1070
    73
1070
     1
1070
    44
1040
1.0
1070
    74
1070
     0
1000
MTEXTEND
1000
ACAD_MTEXT_DEFINED_HEIGHT_BEGIN
1070
    46
1040
15.0
1000
ACAD_MTEXT_DEFINED_HEIGHT_END
  0
MTEXT
  5
859
330
713
100
AcDbEntity
  8
HIDDEN1
 62
     7
370
    25
100
AcDbMText
 10
1181.249999585444
 20
35.66666556804057
 30
0.0
 40
15.0
 41
0.0
 71
     5
 72
     5
  1
\A1;5
  7
Standard
 73
     1
 44
1.0
1001
ACAD
1000
MTEXTBEGIN
1070
    73
1070
     1
1070
    44
1040
1.0
1070
    74
1070
     0
1000
MTEXTEND
1000
ACAD_MTEXT_DEFINED_HEIGHT_BEGIN
1070
    46
1040
15.0
1000
ACAD_MTEXT_DEFINED_HEIGHT_END
  0
MTEXT
  5
85A
330
713
100
AcDbEntity
  8
HIDDEN1
 62
     7
370
    25
100
AcDbMText
 10
1443.749999585446
 20
35.66666556804057
 30
0.0
 40
15.0
 41
0.0
 71
     5
 72
     5
  1
\A1;6
  7
Standard
 73
     1
 44
1.0
1001
ACAD
1000
MTEXTBEGIN
1070
    73
1070
     1
1070
    44
1040
1.0
1070
    74
1070
     0
1000
MTEXTEND
1000
ACAD_MTEXT_DEFINED_HEIGHT_BEGIN
1070
    46
1040
15.0
1000
ACAD_MTEXT_DEFINED_HEIGHT_END
  0
MTEXT
  5
85B
330
713
100
AcDbEntity
  8
HIDDEN1
 62
     7
370
    25
100
AcDbMText
 10
1706.249999585445
 20
35.66666556804057
 30
0.0
 40
15.0
 41
0.0
 71
     5
 72
     5
  1
\A1;7
  7
Standard
 73
     1
 44
1.0
1001
ACAD
1000
MTEXTBEGIN
1070
    73
1070
     1
1070
    44
1040
1.0
1070
    74
1070
     0
1000
MTEXTEND
1000
ACAD_MTEXT_DEFINED_HEIGHT_BEGIN
1070
    46
1040
15.0
1000
ACAD_MTEXT_DEFINED_HEIGHT_END
  0
MTEXT
  5
85C
330
713
100
AcDbEntity
  8
HIDDEN1
 62
     7
370
    25
100
AcDbMText
 10
1968.749999585446
 20
35.66666556804057
 30
0.0
 40
15.0
 41
0.0
 71
     5
 72
     5
  1
\A1;8
  7
Standard
 73
     1
 44
1.0
1001
ACAD
1000
MTEXTBEGIN
1070
    73
1070
     1
1070
    44
1040
1.0
1070
    74
1070
     0
1000
MTEXTEND
1000
ACAD_MTEXT_DEFINED_HEIGHT_BEGIN
1070
    46
1040
15.0
1000
ACAD_MTEXT_DEFINED_HEIGHT_END
  0
MTEXT
  5
85D
330
713
100
AcDbEntity
  8
M2
 62
     4
370
    50
100
AcDbMText
 10
1506.666666666667
 20
93.33333531695894
 30
0.0
 40
20.0
 41
0.0
 71
     1
 72
     5
  1
\A1;\W0.7875;DWG No.
  7
Standard
 73
     1
 44
1.0
1001
ACAD
1000
MTEXTBEGIN
1070
    73
1070
     1
1070
    44
1040
1.0
1070
    74
1070
     0
1000
MTEXTEND
1000
ACAD_MTEXT_DEFINED_HEIGHT_BEGIN
1070
    46
1040
20.0
1000
ACAD_MTEXT_DEFINED_HEIGHT_END
  0
MTEXT
  5
85E
330
713
100
AcDbEntity
  8
M2
 62
     4
370
    50
100
AcDbMText
 10
1506.666666666667
 20
200.0000019836266
 30
0.0
 40
20.0
 41
0.0
 71
     1
 72
     5
  1
\A1;\W0.8036;TITLE
  7
Standard
 73
     1
 44
1.0
1001
ACAD
1000
MTEXTBEGIN
1070
    73
1070
     1
1070
    44
1040
1.0
1070
    74
1070
     0
1000
MTEXTEND
1000
ACAD_MTEXT_DEFINED_HEIGHT_BEGIN
1070
    46
1040
20.0
1000
ACAD_MTEXT_DEFINED_HEIGHT_END
  0
ENDBLK
  5
85F
330
713
100
AcDbEntity
  8
0
100
AcDbBlockEnd
  0
ENDSEC
  0
SECTION
  2
ENTITIES
  0
DIMENSION
  5
A7
330
A
100
AcDbEntity
  8
PV
100
AcDbDimension
  2
*D2
 10
-155.3502502441406
 20
115.1666163095901
 30
0.0
 11
53.27391548638388
 21
115.1666163095901
 31
0.0
 70
   160
  1
\U+2205<>
 71
     5
 41
0.9359251894303499
 42
318.0
  3
MXDIMSTYLE
100
AcDbAlignedDimension
 13
162.6497497558593
 23
171.617446899414
 33
0.0
 14
-155.3502502441406
 24
171.617446899414
 34
0.0
100
AcDbRotatedDimension
1001
ACAD
1000
DSTYLE
1002
{
1070
     6
1000
_OPEN30
1070
     7
1000
_OPEN30
1070
    41
1040
2.77
1070
   144
1040
1.0
1070
   173
1070
     1
1070
   271
1070
     0
1070
   284
1070
     8
1070
   340
1005
A1
1070
   341
1005
99
1002
}
  0
LEADER
  5
A8
330
A
100
AcDbEntity
  8
PV
  6
Continuous
 62
     7
370
     0
100
AcDbLeader
  3
MXDIMSTYLE
 74
     0
 76
     2
 10
3.64975084542766
 20
-284.3826593934054
 30
0.0
 10
-54.92245101637036
 20
-341.0193481445312
 30
0.0
1001
ACAD
1000
DSTYLE
1002
{
1070
     6
1000
_OPEN30
1070
     7
1000
_OPEN30
1070
    41
1040
2.77
1070
   173
1070
     1
1070
   341
1005
99
1002
}
  0
LEADER
  5
A9
330
A
100
AcDbEntity
  8
PV
  6
Continuous
 62
     7
370
     0
100
AcDbLeader
  3
MXDIMSTYLE
 74
     0
 76
     2
 10
-137.0544055265693
 20
-12.14027687455261
 30
0.0
 10
-82.49375875557598
 20
-99.73714132287113
 30
0.0
1001
ACAD
1000
DSTYLE
1002
{
1070
     6
1000
_OPEN30
1070
     7
1000
_OPEN30
1070
    41
1040
2.77
1070
   173
1070
     1
1070
   341
1005
99
1002
}
  0
DIMENSION
  5
C3
330
A
100
AcDbEntity
  8
PV
  6
Continuous
 62
     7
100
AcDbDimension
  2
*D4
 10
275.5294189453124
 20
-284.3825988769532
 30
0.0
 11
275.5294189453125
 21
78.42352294921875
 31
0.0
 70
   160
  1
656
 71
     5
 41
0.9359251894303499
 42
655.0000610351562
  3
MXDIMSTYLE
100
AcDbAlignedDimension
 13
54.6497802734375
 23
370.6174621582031
 33
0.0
 14
83.64978027343751
 24
-284.3825988769531
 34
0.0
 50
90.0
100
AcDbRotatedDimension
1001
ACAD
1000
DSTYLE
1002
{
1070
    41
1040
2.77
1070
   144
1040
1.0
1070
   173
1070
     1
1070
   271
1070
     0
1070
   340
1005
A1
1070
   341
1005
99
1070
   343
1005
99
1070
   344
1005
99
1002
}
1001
ACAD_DSTYLE_DIMINSPECT
1070
   396
1000
100%
1070
   395
1000

1070
   394
1070
    33
1070
   393
1070
     0
  0
LEADER
  5
C4
330
A
100
AcDbEntity
  8
PV
  6
Continuous
 62
     7
370
     0
100
AcDbLeader
  3
MXDIMSTYLE
 74
     0
 76
     2
 10
74.19975280761718
 20
-148.8828430175781
 30
0.0
 10
127.8576000844841
 20
-331.5846035318309
 30
0.0
1001
ACAD
1000
DSTYLE
1002
{
1070
     6
1000
_OPEN30
1070
     7
1000
_OPEN30
1070
    41
1040
2.77
1070
   173
1070
     1
1070
   341
1005
99
1002
}
  0
LEADER
  5
C5
330
A
100
AcDbEntity
  8
PV
  6
Continuous
 62
     7
370
     0
100
AcDbLeader
  3
MXDIMSTYLE
 74
     0
 76
     2
 10
3.649784023469691
 20
371.6174175927063
 30
0.0
 10
134.6219262605482
 20
477.3038370276355
 30
0.0
1001
ACAD
1000
DSTYLE
1002
{
1070
     6
1000
_OPEN30
1070
     7
1000
_OPEN30
1070
    41
1040
2.77
1070
   173
1070
     1
1070
   341
1005
99
1002
}
  0
DIMENSION
  5
D3
330
A
100
AcDbEntity
  8
PV
  6
Continuous
 62
     7
100
AcDbDimension
  2
*D5
 10
184.8499603271484
 20
247.6318517165578
 30
0.0
 11
52.48024713132145
 21
247.6318517165578
 31
0.0
 70
   160
  1
\U+2205<>
 71
     5
 41
0.9359251894303499
 42
362.4004211425781
  3
MXDIMSTYLE
100
AcDbAlignedDimension
 13
-177.5504608154297
 23
175.6173858642578
 33
0.0
 14
184.8499603271484
 24
175.6173858642578
 34
0.0
100
AcDbRotatedDimension
1001
ACAD
1000
DSTYLE
1002
{
1070
     6
1000
_OPEN30
1070
     7
1000
_OPEN30
1070
    41
1040
2.77
1070
   144
1040
1.0
1070
   173
1070
     1
1070
   271
1070
     0
1070
   284
1070
     8
1070
   340
1005
CD
1070
   341
1005
99
1002
}
  0
DIMENSION
  5
E1
330
A
100
AcDbEntity
  8
PV
  6
Continuous
 62
     7
100
AcDbDimension
  2
*D6
 10
195.5294189453125
 20
-284.3826599121094
 30
0.0
 11
195.5294189453125
 21
-220.8479309082031
 31
0.0
 70
   160
  1
<>
 71
     5
 41
0.9000000901136713
 42
140.0000305175781
  3
MXDIMSTYLE
100
AcDbAlignedDimension
 13
83.54972839355468
 23
-144.3825378417969
 33
0.0
 14
83.64974975585937
 24
-284.3826599121094
 34
0.0
 50
90.0
100
AcDbRotatedDimension
1001
ACAD
1000
DSTYLE
1002
{
1070
     6
1000
_OPEN30
1070
     7
1000
_OPEN30
1070
    41
1040
2.77
1070
   140
1040
4.167185783386229
1070
   144
1040
0.9999993460524674
1070
   173
1070
     1
1070
   271
1070
     0
1070
   284
1070
     8
1070
   340
1005
DB
1070
   341
1005
99
1002
}
  0
DIMENSION
  5
EE
330
A
100
AcDbEntity
  8
PV
100
AcDbDimension
  2
*D7
 10
245.510646407496
 20
-284.3826599121094
 30
0.0
 11
245.5106464074961
 21
-150.2022823079014
 31
0.0
 70
   160
  1
279
 71
     5
 41
0.9000000901136713
 42
278.0000000000001
  3
MXDIMSTYLE
100
AcDbAlignedDimension
 13
128.4498596191406
 23
-6.382613658905086
 33
0.0
 14
83.64974975585937
 24
-284.3826599121094
 34
0.0
 50
90.0
100
AcDbRotatedDimension
1001
ACAD
1000
DSTYLE
1002
{
1070
    41
1040
2.77
1070
   140
1040
4.167185783386229
1070
   144
1040
0.9999998336215949
1070
   173
1070
     1
1070
   271
1070
     0
1070
   341
1005
99
1070
   343
1005
99
1070
   344
1005
99
1002
}
1001
ACAD_DSTYLE_DIMINSPECT
1070
   396
1000
100%
1070
   395
1000

1070
   394
1070
    33
1070
   393
1070
     0
  0
MTEXT
  5
FF
330
A
100
AcDbEntity
  8
PV
  6
Continuous
 62
     7
100
AcDbMText
 10
135.1022182050457
 20
-315.9737091064453
 30
0.0
 40
12.0
 41
0.0
 71
     1
 72
     1
  1
\A1;{\W0.711;圧力モニタ－取付ポ－ト\PＧ１／４  JIS B0202\PPressure Measuring Port}
 73
     1
 44
0.9359251894303499
1001
ACAD
1000
MTEXTBEGIN
1070
    73
1070
     1
1070
    44
1040
0.9359251894303499
1070
    74
1070
     0
1000
MTEXTEND
  0
MTEXT
  5
100
330
A
100
AcDbEntity
  8
PV
  6
Continuous
 62
     7
100
AcDbMText
 10
-241.9621491905291
 20
-82.26543977257916
 30
0.0
 40
14.0
 41
0.0
 71
     1
 72
     1
  1
\A1;{\W0.711;油戻しポ－ト\PG1/4 メネジ\PJIS B0202\POil Return Port\PG1/4 Internal thread}
 73
     1
 44
0.9359251894303499
1001
ACAD
1000
MTEXTBEGIN
1070
    73
1070
     1
1070
    44
1040
0.9359251894303499
1070
    74
1070
     0
1000
MTEXTEND
  0
MTEXT
  5
101
330
A
100
AcDbEntity
  8
PV
  6
Continuous
 62
     7
100
AcDbMText
 10
134.6219262605482
 20
510.4223408162424
 30
0.0
 40
12.0
 41
0.0
 71
     1
 72
     1
  1
\A1;{\W0.859;G3 メネジ JIS B0202\PG3 Internal Thread}
 73
     1
 44
0.9359251894303499
1001
ACAD
1000
MTEXTBEGIN
1070
    73
1070
     1
1070
    44
1040
0.9359251894303499
1070
    74
1070
     0
1000
MTEXTEND
  0
MTEXT
  5
104
330
A
100
AcDbEntity
  8
PV
  6
Continuous
 62
     7
100
AcDbMText
 10
-145.6883266514878
 20
-325.2226615699224
 30
0.0
 40
16.66799926757812
 41
0.0
 71
     1
 72
     1
  1
\A1;{\H0.71994x;\W0.819;VG80 ※１\P\H1x;JIS　B2290}
 73
     1
 44
0.9359251894303499
1001
ACAD
1000
MTEXTBEGIN
1070
    73
1070
     1
1070
    44
1040
0.9359251894303499
1070
    74
1070
     0
1000
MTEXTEND
  0
SPLINE
  5
105
330
A
100
AcDbEntity
  8
PV
100
AcDbSpline
210
0.0
220
0.0
230
1.0
 70
     8
 71
     3
 72
    11
 73
     7
 74
     5
 42
0.0000000001
 43
0.0000000001
 44
0.000001
 12
0.7682258946345723
 22
-0.6401788615792552
 32
0.0
 13
0.7682260449526768
 23
0.6401786811948429
 33
0.0
 40
0.0
 40
0.0
 40
0.0
 40
0.0
 40
1.32882653375214
 40
2.637266615296781
 40
3.945751880168451
 40
5.274603938904134
 40
5.274603938904134
 40
5.274603938904134
 40
5.274603938904134
 10
76.14974975585937
 20
-25.38264846801758
 30
0.0
 10
76.49002940676133
 20
-25.66621068722216
 30
0.0
 10
77.23417046753699
 20
-26.15143547098452
 30
0.0
 10
78.54970533187236
 20
-26.49731006033171
 30
0.0
 10
79.86524858015885
 20
-26.15143679481646
 30
0.0
 10
80.60942077744675
 20
-25.6662160541724
 30
0.0
 10
80.94970703125
 20
-25.38264846801758
 30
0.0
 11
76.14974975585937
 21
-25.38264846801758
 31
0.0
 11
77.27423156916001
 21
-26.09068844454422
 31
0.0
 11
78.54969024658203
 21
-26.38261413574219
 31
0.0
 11
79.82519540190697
 21
-26.09068899615021
 31
0.0
 11
80.94970703125
 21
-25.38264846801758
 31
0.0
  0
SPLINE
  5
106
330
A
100
AcDbEntity
  8
PV
100
AcDbSpline
210
0.0
220
0.0
230
1.0
 70
     8
 71
     3
 72
    11
 73
     7
 74
     5
 42
0.0000000001
 43
0.0000000001
 44
0.000001
 12
0.9284786724340923
 22
-0.3713857224436951
 32
0.0
 13
0.9284787030685535
 23
0.3713856458563479
 33
0.0
 40
0.0
 40
0.0
 40
0.0
 40
0.0
 40
2.558545914096865
 40
5.121910127778278
 40
7.685274470751545
 40
10.24382024065365
 40
10.24382024065365
 40
10.24382024065365
 40
10.24382024065365
 10
66.14974975585936
 20
-25.38264846801758
 30
0.0
 10
66.9416015270868
 20
-25.69938427558832
 30
0.0
 10
68.5850741449934
 20
-26.19833161734494
 30
0.0
 10
71.14974980140316
 20
-26.47484210511802
 30
0.0
 10
73.71442539531776
 20
-26.19833150425642
 30
0.0
 10
75.35789800313263
 20
-25.69938419242029
 30
0.0
 10
76.14974975585937
 20
-25.38264846801758
 30
0.0
 11
66.14974975585936
 21
-25.38264846801758
 31
0.0
 11
68.59994095563888
 21
-26.11934398114681
 31
0.0
 11
71.14974975585937
 21
-26.38261413574219
 31
0.0
 11
73.69955867528915
 21
-26.1193438768387
 31
0.0
 11
76.14974975585937
 21
-25.38264846801758
 31
0.0
  0
SPLINE
  5
107
330
A
100
AcDbEntity
  8
PV
100
AcDbSpline
210
0.0
220
0.0
230
1.0
 70
     8
 71
     3
 72
    11
 73
     7
 74
     5
 42
0.0000000001
 43
0.0000000001
 44
0.000001
 12
0.7682259134251954
 22
-0.6401788390301762
 32
0.0
 13
0.7682260449543832
 23
0.6401786811927949
 33
0.0
 40
0.0
 40
0.0
 40
0.0
 40
0.0
 40
1.328856474149096
 40
2.63733643728328
 40
3.945793045299324
 40
5.274637675012733
 40
5.274637675012733
 40
5.274637675012733
 40
5.274637675012733
 10
61.34975433349609
 20
-25.38264846801758
 30
0.0
 10
61.69004165971749
 20
-25.66621706630375
 30
0.0
 10
62.43421628072439
 20
-26.15143327554136
 30
0.0
 10
63.74976324499963
 20
-26.49731118205604
 30
0.0
 10
65.06530678167807
 20
-26.1514334941196
 30
0.0
 10
65.80946540444482
 20
-25.66621446887093
 30
0.0
 10
66.14974975585936
 20
-25.38264846801758
 30
0.0
 11
61.34975433349609
 21
-25.38264846801758
 31
0.0
 11
62.47427152790869
 21
-26.09068844454319
 31
0.0
 11
63.74977111816406
 21
-26.38261413574219
 31
0.0
 11
65.02524685859679
 21
-26.09068892164029
 31
0.0
 11
66.14974975585936
 21
-25.38264846801758
 31
0.0
  0
SPLINE
  5
108
330
A
100
AcDbEntity
  8
PV
100
AcDbSpline
210
0.0
220
0.0
230
1.0
 70
     8
 71
     3
 72
     9
 73
     5
 74
     3
 42
0.0000000001
 43
0.0000000001
 44
0.000001
 12
0.6000000105800677
 22
-0.7999999920649491
 32
0.0
 13
1.0
 23
-0.0000000000000006
 33
0.0
 40
0.0
 40
0.0
 40
0.0
 40
0.0
 40
0.955931191411269
 40
1.843936764547397
 40
1.843936764547397
 40
1.843936764547397
 40
1.843936764547397
 10
168.8997192382812
 20
172.6174011230469
 30
0.0
 10
169.0909054799347
 20
172.362486141199
 30
0.0
 10
169.5078280066027
 20
171.9116300539378
 30
0.0
 10
170.1037326393582
 20
171.6173706054687
 30
0.0
 10
170.3997344970703
 20
171.6173706054687
 30
0.0
 11
168.8997192382812
 21
172.6174011230469
 31
0.0
 11
169.571289151907
 21
171.937108322978
 31
0.0
 11
170.3997344970703
 21
171.6173706054687
 31
0.0
  0
SPLINE
  5
109
330
A
100
AcDbEntity
  8
PV
100
AcDbSpline
210
0.0
220
0.0
230
1.0
 70
     8
 71
     3
 72
     9
 73
     5
 74
     3
 42
0.0000000001
 43
0.0000000001
 44
0.000001
 12
-1.0
 22
-0.0000000000000019
 32
0.0
 13
-0.600000010580068
 23
-0.7999999920649491
 33
0.0
 40
0.0
 40
0.0
 40
0.0
 40
0.0
 40
0.8880055731361176
 40
1.843936764547406
 40
1.843936764547406
 40
1.843936764547406
 40
1.843936764547406
 10
170.3997344970703
 20
186.9174041748047
 30
0.0
 10
170.1037326393582
 20
186.9174041748047
 30
0.0
 10
169.5078280066028
 20
186.6231447263355
 30
0.0
 10
169.0909054799347
 20
186.1722886390744
 30
0.0
 10
168.8997192382812
 20
185.9173736572264
 30
0.0
 11
170.3997344970703
 21
186.9174041748047
 31
0.0
 11
169.571289151907
 21
186.5976664572954
 31
0.0
 11
168.8997192382812
 21
185.9173736572264
 31
0.0
  0
SPLINE
  5
10A
330
A
100
AcDbEntity
  8
PV
100
AcDbSpline
210
0.0
220
0.0
230
1.0
 70
     8
 71
     3
 72
     9
 73
     5
 74
     3
 42
0.0000000001
 43
0.0000000001
 44
0.000001
 12
-0.600000010580068
 22
0.7999999920649491
 32
0.0
 13
-1.0
 23
-0.0000000000000015
 33
0.0
 40
0.0
 40
0.0
 40
0.0
 40
0.0
 40
0.9559259062542807
 40
1.843938497868588
 40
1.843938497868588
 40
1.843938497868588
 40
1.843938497868588
 10
180.3997344970703
 20
185.9173736572264
 30
0.0
 10
180.2085493124482
 20
186.1722872296992
 30
0.0
 10
179.7916321984916
 20
186.6231503465746
 30
0.0
 10
179.1957234354859
 20
186.9174041748047
 30
0.0
 10
178.8997192382811
 20
186.9174041748047
 30
0.0
 11
180.3997344970703
 21
185.9173736572264
 31
0.0
 11
179.7281721065045
 21
186.5976664572954
 31
0.0
 11
178.8997192382811
 21
186.9174041748047
 31
0.0
  0
SPLINE
  5
10B
330
A
100
AcDbEntity
  8
PV
100
AcDbSpline
210
0.0
220
0.0
230
1.0
 70
     8
 71
     3
 72
     9
 73
     5
 74
     3
 42
0.0000000001
 43
0.0000000001
 44
0.000001
 12
-0.600000010580068
 22
-0.7999999920649491
 32
0.0
 13
-1.0
 23
0.0000000000000015
 33
0.0
 40
0.0
 40
0.0
 40
0.0
 40
0.0
 40
0.9559259062542603
 40
1.843938497868577
 40
1.843938497868577
 40
1.843938497868577
 40
1.843938497868577
 10
180.3997344970703
 20
172.6174011230469
 30
0.0
 10
180.2085493124482
 20
172.3624875505742
 30
0.0
 10
179.7916321984916
 20
171.9116244336987
 30
0.0
 10
179.1957234354859
 20
171.6173706054687
 30
0.0
 10
178.8997192382811
 20
171.6173706054687
 30
0.0
 11
180.3997344970703
 21
172.6174011230469
 31
0.0
 11
179.7281721065045
 21
171.937108322978
 31
0.0
 11
178.8997192382811
 21
171.6173706054687
 31
0.0
  0
SPLINE
  5
10C
330
A
100
AcDbEntity
  8
PV
100
AcDbSpline
210
0.0
220
0.0
230
1.0
 70
     8
 71
     3
 72
    11
 73
     7
 74
     5
 42
0.0000000001
 43
0.0000000001
 44
0.000001
 12
-0.768225894634572
 22
-0.6401788615792556
 32
0.0
 13
-0.7682260449526767
 23
0.6401786811948427
 33
0.0
 40
0.0
 40
0.0
 40
0.0
 40
0.0
 40
1.328838947514312
 40
2.637301914648703
 40
3.945787179520373
 40
5.274639238256057
 40
5.274639238256057
 40
5.274639238256057
 40
5.274639238256057
 10
-68.85025024414061
 20
-25.38264846801758
 30
0.0
 10
-69.19053307390043
 20
-25.66621333623154
 30
0.0
 10
-69.93468984352086
 20
-26.15143644756327
 30
0.0
 10
-71.25023629954736
 20
-26.49730989715167
 30
0.0
 10
-72.56578722627719
 20
-26.1514374249496
 30
0.0
 10
-73.30995941270066
 20
-25.6662160541724
 30
0.0
 10
-73.6502456665039
 20
-25.38264846801758
 30
0.0
 11
-68.85025024414061
 21
-25.38264846801758
 31
0.0
 11
-69.97474672704908
 21
-26.09068844454251
 31
0.0
 11
-71.25022888183593
 21
-26.38261413574219
 31
0.0
 11
-72.52573403716088
 21
-26.09068899615021
 31
0.0
 11
-73.6502456665039
 21
-25.38264846801758
 31
0.0
  0
SPLINE
  5
10D
330
A
100
AcDbEntity
  8
PV
100
AcDbSpline
210
0.0
220
0.0
230
1.0
 70
     8
 71
     3
 72
    11
 73
     7
 74
     5
 42
0.0000000001
 43
0.0000000001
 44
0.000001
 12
-0.9284786724340923
 22
-0.371385722443695
 32
0.0
 13
-0.9284787030685533
 23
0.3713856458563487
 33
0.0
 40
0.0
 40
0.0
 40
0.0
 40
0.0
 40
2.558560123139842
 40
5.121947523125667
 40
7.685313763361254
 40
10.24386135983562
 40
10.24386135983562
 40
10.24386135983562
 40
10.24386135983562
 10
-58.8502082824707
 20
-25.38264846801758
 30
0.0
 10
-59.64206445129593
 20
-25.69938603460022
 30
0.0
 10
-61.28555080151875
 20
-26.1983317041464
 30
0.0
 10
-63.85023932799605
 20
-26.47484213414599
 30
0.0
 10
-66.41492391500105
 20
-26.19833162530722
 30
0.0
 10
-68.05839792610271
 20
-25.6993844185412
 30
0.0
 10
-68.85025024414061
 20
-25.38264846801758
 30
0.0
 11
-58.8502082824707
 21
-25.38264846801758
 31
0.0
 11
-61.30041431965546
 21
-26.11934398114681
 31
0.0
 11
-63.85024642944336
 21
-26.38261413574219
 31
0.0
 11
-66.40005725622177
 21
-26.1193438768387
 31
0.0
 11
-68.85025024414061
 21
-25.38264846801758
 31
0.0
  0
SPLINE
  5
10E
330
A
100
AcDbEntity
  8
PV
100
AcDbSpline
210
0.0
220
0.0
230
1.0
 70
     8
 71
     3
 72
    11
 73
     7
 74
     5
 42
0.0000000001
 43
0.0000000001
 44
0.000001
 12
-0.7682259134251954
 22
-0.6401788390301762
 32
0.0
 13
-0.768226044954383
 23
0.6401786811927951
 33
0.0
 40
0.0
 40
0.0
 40
0.0
 40
0.0
 40
1.328831646411622
 40
2.637265838505097
 40
3.945722446521156
 40
5.274567076234565
 40
5.274567076234565
 40
5.274567076234565
 40
5.274567076234565
 10
-54.05028915405273
 20
-25.38264846801758
 30
0.0
 10
-54.39057012250368
 20
-25.6662117682397
 30
0.0
 10
-55.1347133258291
 20
-26.15143132252722
 30
0.0
 10
-56.45023710670357
 20
-26.49731150824202
 30
0.0
 10
-57.76576528656236
 20
-26.15143223387157
 30
0.0
 10
-58.50992393105617
 20
-25.66621446887093
 30
0.0
 10
-58.8502082824707
 20
-25.38264846801758
 30
0.0
 11
-54.05028915405273
 21
-25.38264846801758
 31
0.0
 11
-55.17477700909687
 21
-26.09068844454663
 31
0.0
 11
-56.45022964477539
 21
-26.38261413574219
 31
0.0
 11
-57.72570538520813
 21
-26.09068892164029
 31
0.0
 11
-58.8502082824707
 21
-25.38264846801758
 31
0.0
  0
ARC
  5
10F
330
A
100
AcDbEntity
  8
PV
100
AcDbCircle
 10
131.4497528076172
 20
297.6800842285156
 30
0.0
 40
31.20000076293945
100
AcDbArc
 50
0.0
 51
66.36690593845206
  0
ARC
  5
110
330
A
100
AcDbEntity
  8
PV
100
AcDbCircle
 10
167.649673461914
 20
185.317398071289
 30
0.0
 40
5.0
100
AcDbArc
 50
180.0000050089563
 51
269.9999733624887
  0
ARC
  5
111
330
A
100
AcDbEntity
  8
PV
100
AcDbCircle
 10
167.6497497558593
 20
171.617446899414
 30
0.0
 40
5.0
100
AcDbArc
 50
90.00001616485651
 51
180.0000186693347
  0
ARC
  5
112
330
A
100
AcDbEntity
  8
PV
100
AcDbCircle
 10
101.4497528076172
 20
57.81737899780273
 30
0.0
 40
61.20000076293945
100
AcDbArc
 50
300.3003422387209
 51
0.0
  0
ARC
  5
113
330
A
100
AcDbEntity
  8
PV
100
AcDbCircle
 10
134.8498229980469
 20
0.6607910990715027
 30
0.0
 40
5.0
100
AcDbArc
 50
120.300340417488
 51
180.0000050089563
  0
ARC
  5
114
330
A
100
AcDbEntity
  8
PV
100
AcDbCircle
 10
-127.5503158569336
 20
0.6607910990715027
 30
0.0
 40
5.0
100
AcDbArc
 50
0.0
 51
59.69965776127914
  0
ARC
  5
115
330
A
100
AcDbEntity
  8
PV
100
AcDbCircle
 10
-94.15024566650393
 20
57.81737899780273
 30
0.0
 40
61.20000076293945
100
AcDbArc
 50
179.9999949910437
 51
239.699659582512
  0
ARC
  5
116
330
A
100
AcDbEntity
  8
PV
100
AcDbCircle
 10
-124.1502456665039
 20
297.6800842285156
 30
0.0
 40
31.20000076293945
100
AcDbArc
 50
113.6330990705042
 51
180.0000050089563
  0
ARC
  5
11A
330
A
100
AcDbEntity
  8
PV
100
AcDbCircle
 10
-160.3502502441406
 20
171.617446899414
 30
0.0
 40
5.0
100
AcDbArc
 50
359.9999813306647
 51
89.99998201391065
  0
ARC
  5
11B
330
A
100
AcDbEntity
  8
PV
100
AcDbCircle
 10
181.6499633789062
 20
177.1174011230469
 30
0.0
 40
3.200000762939453
100
AcDbArc
 50
359.9999813306647
 51
90.00003665542402
  0
ARC
  5
11C
330
A
100
AcDbEntity
  8
PV
100
AcDbCircle
 10
59.64973449707031
 20
356.1727294921875
 30
0.0
 40
5.0
100
AcDbArc
 50
186.402709941662
 51
260.9238986924363
  0
ARC
  5
11D
330
A
100
AcDbEntity
  8
PV
100
AcDbCircle
 10
3.649751424789428
 20
5.61741304397583
 30
0.0
 40
350.0
100
AcDbArc
 50
66.36690593845206
 51
80.92391736177098
  0
ARC
  5
11E
330
A
100
AcDbEntity
  8
PV
100
AcDbCircle
 10
53.64974975585937
 20
358.1174621582031
 30
0.0
 40
1.0
100
AcDbArc
 50
93.63009095398906
 51
270.0000006832453
  0
ARC
  5
11F
330
A
100
AcDbEntity
  8
PV
100
AcDbCircle
 10
-160.3501739501953
 20
185.317398071289
 30
0.0
 40
5.0
100
AcDbArc
 50
270.0000179860893
 51
0.0
  0
ARC
  5
120
330
A
100
AcDbEntity
  8
PV
100
AcDbCircle
 10
-174.3504638671875
 20
177.1174011230469
 30
0.0
 40
3.200000762939453
100
AcDbArc
 50
89.99998201391065
 51
180.0000186693347
  0
ARC
  5
121
330
A
100
AcDbEntity
  8
PV
100
AcDbCircle
 10
-52.35026931762695
 20
356.1727294921875
 30
0.0
 40
5.0
100
AcDbArc
 50
279.076082638229
 51
359.9997810219634
  0
ARC
  5
122
330
A
100
AcDbEntity
  8
PV
100
AcDbCircle
 10
3.649751424789428
 20
5.61741304397583
 30
0.0
 40
350.0
100
AcDbArc
 50
99.07610130756369
 51
113.6330990705042
  0
ARC
  5
123
330
A
100
AcDbEntity
  8
PV
100
AcDbCircle
 10
-46.35024642944336
 20
358.1174621582031
 30
0.0
 40
1.0
100
AcDbArc
 50
270.0000179860893
 51
89.99998201391065
  0
CIRCLE
  5
124
330
A
100
AcDbEntity
  8
PV
100
AcDbCircle
 10
-44.08000564575195
 20
-432.1119689941406
 30
0.0
 40
6.0
  0
CIRCLE
  5
125
330
A
100
AcDbEntity
  8
PV
100
AcDbCircle
 10
51.37947082519531
 20
-432.1119689941406
 30
0.0
 40
6.0
  0
ARC
  5
127
330
A
100
AcDbEntity
  8
PV
  6
CENTER
 62
     7
100
AcDbCircle
 10
3.649751424789428
 20
-384.3826599121094
 30
0.0
 40
67.5
100
AcDbArc
 50
179.9999640278213
 51
0.0000100179126691
  0
LINE
  5
128
330
A
100
AcDbEntity
  8
PV
100
AcDbLine
 10
162.6497497558593
 20
297.6800842285156
 30
0.0
 11
162.6497497558593
 21
185.317398071289
 31
0.0
  0
LINE
  5
129
330
A
100
AcDbEntity
  8
PV
100
AcDbLine
 10
162.6497497558593
 20
171.617446899414
 30
0.0
 11
162.6497497558593
 21
57.81737899780273
 31
0.0
  0
LINE
  5
12A
330
A
100
AcDbEntity
  8
PV
100
AcDbLine
 10
-155.3502502441406
 20
171.617446899414
 30
0.0
 11
-155.3502502441406
 21
57.81737899780273
 31
0.0
  0
LINE
  5
12B
330
A
100
AcDbEntity
  8
PV
100
AcDbLine
 10
-155.3502502441406
 20
297.6800842285156
 30
0.0
 11
-155.3502502441406
 21
185.317398071289
 31
0.0
  0
LINE
  5
12C
330
A
100
AcDbEntity
  8
PV
  6
Continuous
 62
     7
370
     0
100
AcDbLine
 10
-148.0612487792968
 20
-361.2750075443419
 30
0.0
 11
-54.92245101637036
 21
-361.2750075443419
 31
0.0
  0
LINE
  5
12D
330
A
100
AcDbEntity
  8
PV
  6
Continuous
 62
     7
370
     0
100
AcDbLine
 10
128.8860438146121
 20
-370.3860383996616
 30
0.0
 11
323.2444684786533
 21
-370.3860383996616
 31
0.0
  0
LINE
  5
12E
330
A
100
AcDbEntity
  8
PV
  6
Continuous
 62
     7
370
     0
100
AcDbLine
 10
127.8576000844841
 20
-331.5846035318309
 30
0.0
 11
323.2444684786533
 21
-331.584603531831
 31
0.0
  0
LINE
  5
131
330
A
100
AcDbEntity
  8
PV
  6
Continuous
 62
     7
370
     0
100
AcDbLine
 10
-245.1113124665135
 20
-99.73714132287113
 30
0.0
 11
-82.49375875557598
 21
-99.73714132287113
 31
0.0
  0
LINE
  5
134
330
A
100
AcDbEntity
  8
PV
100
AcDbLine
 10
-40.90026473999023
 20
-134.8825988769531
 30
0.0
 11
-40.90026473999023
 21
-272.3825988769531
 31
0.0
  0
LINE
  5
135
330
A
100
AcDbEntity
  8
PV
100
AcDbLine
 10
63.19976806640625
 20
-153.8825988769531
 30
0.0
 11
48.19976806640625
 21
-153.8825988769531
 31
0.0
  0
LINE
  5
136
330
A
100
AcDbEntity
  8
PV
100
AcDbLine
 10
63.19976806640625
 20
-134.8825988769531
 30
0.0
 11
48.19976806640625
 21
-134.8825988769531
 31
0.0
  0
LINE
  5
137
330
A
100
AcDbEntity
  8
PV
100
AcDbLine
 10
74.19975280761718
 20
-139.8825988769531
 30
0.0
 11
74.19975280761718
 21
-148.8828430175781
 31
0.0
  0
LINE
  5
138
330
A
100
AcDbEntity
  8
PV
100
AcDbLine
 10
66.1997604370117
 20
-137.4826965332031
 30
0.0
 11
66.1997604370117
 21
-151.2827453613281
 31
0.0
  0
LINE
  5
139
330
A
100
AcDbEntity
  8
PV
100
AcDbLine
 10
63.19976806640625
 20
-134.8825988769531
 30
0.0
 11
63.19976806640625
 21
-153.8825988769531
 31
0.0
  0
LINE
  5
13A
330
A
100
AcDbEntity
  8
PV
100
AcDbLine
 10
74.19975280761718
 20
-139.8825988769531
 30
0.0
 11
66.1997604370117
 21
-139.8825988769531
 31
0.0
  0
LINE
  5
13B
330
A
100
AcDbEntity
  8
PV
100
AcDbLine
 10
74.19975280761718
 20
-148.8825988769531
 30
0.0
 11
66.1997604370117
 21
-148.8825988769531
 31
0.0
  0
LINE
  5
13C
330
A
100
AcDbEntity
  8
PV
100
AcDbLine
 10
66.1997604370117
 20
-137.4824523925781
 30
0.0
 11
63.19976806640625
 21
-137.4824523925781
 31
0.0
  0
LINE
  5
13D
330
A
100
AcDbEntity
  8
PV
100
AcDbLine
 10
66.1997604370117
 20
-151.2825012207031
 30
0.0
 11
63.19976806640625
 21
-151.2825012207031
 31
0.0
  0
LINE
  5
13E
330
A
100
AcDbEntity
  8
PV
  6
CENTER
 62
     7
100
AcDbLine
 10
83.54972839355468
 20
-144.3825988769531
 30
0.0
 11
40.7806396484375
 21
-144.3825988769531
 31
0.0
  0
LINE
  5
13F
330
A
100
AcDbEntity
  8
PV
100
AcDbLine
 10
-141.946717793277
 20
3.385989340119975
 30
0.0
 11
-128.9563369696648
 21
-4.114010659880023
 31
0.0
  0
LINE
  5
140
330
A
100
AcDbEntity
  8
PV
100
AcDbLine
 10
-124.1067173732131
 20
4.285929315681187
 30
0.0
 11
-128.9563839686721
 21
-4.113939476660561
 31
0.0
  0
LINE
  5
141
330
A
100
AcDbEntity
  8
PV
100
AcDbLine
 10
-136.1957393234282
 20
13.34697606435043
 30
0.0
 11
-141.9466987197907
 21
3.38602237636678
 31
0.0
  0
LINE
  5
142
330
A
100
AcDbEntity
  8
PV
  6
CENTER
 62
     7
100
AcDbLine
 10
-129.5347640758067
 20
9.884123817953421
 30
0.0
 11
-142.8116757357174
 21
-13.11216133187273
 31
0.0
  0
LINE
  5
157
330
A
100
AcDbEntity
  8
PV
100
AcDbLine
 10
177.6497192382811
 20
187.2173919677734
 30
0.0
 11
171.6497344970703
 21
187.2173919677734
 31
0.0
  0
LINE
  5
158
330
A
100
AcDbEntity
  8
PV
100
AcDbLine
 10
168.8997192382812
 20
181.9174041748047
 30
0.0
 11
168.8997192382812
 21
185.9173736572264
 31
0.0
  0
LINE
  5
159
330
A
100
AcDbEntity
  8
PV
100
AcDbLine
 10
180.3997344970703
 20
181.9174041748047
 30
0.0
 11
180.3997344970703
 21
185.9173736572264
 31
0.0
  0
LINE
  5
15A
330
A
100
AcDbEntity
  8
PV
100
AcDbLine
 10
180.3997344970703
 20
181.9174041748047
 30
0.0
 11
168.8997192382812
 21
181.9174041748047
 31
0.0
  0
LINE
  5
15B
330
A
100
AcDbEntity
  8
PV
100
AcDbLine
 10
-121.1503219604492
 20
-3.38262128829956
 30
0.0
 11
129.8497314453125
 21
-3.38262128829956
 31
0.0
  0
LINE
  5
15C
330
A
100
AcDbEntity
  8
PV
100
AcDbLine
 10
-121.1503219604492
 20
-3.38262128829956
 30
0.0
 11
-121.1503219604492
 21
-6.382613658905028
 31
0.0
  0
LINE
  5
15D
330
A
100
AcDbEntity
  8
PV
100
AcDbLine
 10
128.44970703125
 20
-3.38262128829956
 30
0.0
 11
128.44970703125
 21
-6.382613658905028
 31
0.0
  0
LINE
  5
15E
330
A
100
AcDbEntity
  8
PV
100
AcDbLine
 10
48.19976806640625
 20
-153.8825988769531
 30
0.0
 11
48.19976806640625
 21
-272.3825988769531
 31
0.0
  0
LINE
  5
15F
330
A
100
AcDbEntity
  8
PV
100
AcDbLine
 10
54.64973449707031
 20
357.1174926757813
 30
0.0
 11
54.64973449707031
 21
355.6174621582031
 31
0.0
  0
LINE
  5
160
330
A
100
AcDbEntity
  8
PV
100
AcDbLine
 10
-47.35026931762695
 20
357.1174926757813
 30
0.0
 11
53.64974975585937
 21
357.1174926757813
 31
0.0
  0
LINE
  5
161
330
A
100
AcDbEntity
  8
PV
100
AcDbLine
 10
-47.35026931762695
 20
359.1174621582031
 30
0.0
 11
53.64974975585937
 21
359.1174621582031
 31
0.0
  0
LINE
  5
172
330
A
100
AcDbEntity
  8
PV
  6
CENTER
 62
     7
100
AcDbLine
 10
3.649751424789428
 20
547.5269915932126
 30
0.0
 11
3.649751424789428
 21
-307.3104553222656
 31
0.0
  0
LINE
  5
173
330
A
100
AcDbEntity
  8
PV
  6
CENTER
 62
     7
100
AcDbLine
 10
-167.3502655029297
 20
189.2044219970703
 30
0.0
 11
-167.3502655029297
 21
166.8174133300781
 31
0.0
  0
LINE
  5
174
330
A
100
AcDbEntity
  8
PV
  6
CENTER
 62
     7
100
AcDbLine
 10
174.6497650146484
 20
190.2615966796875
 30
0.0
 11
174.6497650146484
 21
167.8038177490234
 31
0.0
  0
LINE
  5
175
330
A
100
AcDbEntity
  8
PV
100
AcDbLine
 10
-121.1503219604492
 20
-3.38262128829956
 30
0.0
 11
-122.3502731323242
 21
-3.38262128829956
 31
0.0
  0
LINE
  5
176
330
A
100
AcDbEntity
  8
PV
100
AcDbLine
 10
-122.3502731323242
 20
-2.182612895965575
 30
0.0
 11
-122.3502731323242
 21
-3.38262128829956
 31
0.0
  0
LINE
  5
177
330
A
100
AcDbEntity
  8
PV
100
AcDbLine
 10
-122.5503158569336
 20
0.6607910990715027
 30
0.0
 11
-122.5503158569336
 21
-2.182612895965575
 31
0.0
  0
LINE
  5
178
330
A
100
AcDbEntity
  8
PV
100
AcDbLine
 10
-122.3502731323242
 20
-2.182612895965575
 30
0.0
 11
-122.5503158569336
 21
-2.182612895965575
 31
0.0
  0
LINE
  5
179
330
A
100
AcDbEntity
  8
PV
100
AcDbLine
 10
129.6497344970703
 20
-2.182612895965575
 30
0.0
 11
129.6497344970703
 21
-3.38262128829956
 31
0.0
  0
LINE
  5
17A
330
A
100
AcDbEntity
  8
PV
100
AcDbLine
 10
183.6497802734375
 20
176.617446899414
 30
0.0
 11
-162.550308227539
 21
176.617446899414
 31
0.0
  0
LINE
  5
17B
330
A
100
AcDbEntity
  8
PV
100
AcDbLine
 10
129.8497314453125
 20
0.6607910990715027
 30
0.0
 11
129.8497314453125
 21
-2.182612895965575
 31
0.0
  0
LINE
  5
17C
330
A
100
AcDbEntity
  8
PV
100
AcDbLine
 10
-176.3502807617186
 20
176.617446899414
 30
0.0
 11
-162.550308227539
 21
176.617446899414
 31
0.0
  0
LINE
  5
17D
330
A
100
AcDbEntity
  8
PV
100
AcDbLine
 10
129.6497344970703
 20
-2.182612895965575
 30
0.0
 11
129.8497314453125
 21
-2.182612895965575
 31
0.0
  0
LINE
  5
17E
330
A
100
AcDbEntity
  8
PV
100
AcDbLine
 10
-78.85028839111328
 20
-6.382613658905028
 30
0.0
 11
128.44970703125
 21
-6.382613658905028
 31
0.0
  0
LINE
  5
17F
330
A
100
AcDbEntity
  8
PV
100
AcDbLine
 10
66.14974975585936
 20
-25.38264846801758
 30
0.0
 11
66.14974975585936
 21
-18.38262176513672
 31
0.0
  0
LINE
  5
180
330
A
100
AcDbEntity
  8
PV
100
AcDbLine
 10
76.14974975585937
 20
-25.38264846801758
 30
0.0
 11
76.14974975585937
 21
-18.38262176513672
 31
0.0
  0
LINE
  5
181
330
A
100
AcDbEntity
  8
PV
100
AcDbLine
 10
80.94970703125
 20
-25.38264846801758
 30
0.0
 11
80.94970703125
 21
-18.38262176513672
 31
0.0
  0
LINE
  5
182
330
A
100
AcDbEntity
  8
PV
100
AcDbLine
 10
61.34975433349609
 20
-25.38264846801758
 30
0.0
 11
61.34975433349609
 21
-18.38262176513672
 31
0.0
  0
LINE
  5
183
330
A
100
AcDbEntity
  8
PV
100
AcDbLine
 10
63.74977111816406
 20
-26.38261413574219
 30
0.0
 11
78.54969024658203
 21
-26.38261413574219
 31
0.0
  0
LINE
  5
184
330
A
100
AcDbEntity
  8
PV
100
AcDbLine
 10
81.14974975585937
 20
-16.38261413574219
 30
0.0
 11
81.14974975585937
 21
-18.38262176513672
 31
0.0
  0
LINE
  5
185
330
A
100
AcDbEntity
  8
PV
100
AcDbLine
 10
61.14974975585937
 20
-16.38261413574219
 30
0.0
 11
61.14974975585937
 21
-18.38262176513672
 31
0.0
  0
LINE
  5
186
330
A
100
AcDbEntity
  8
PV
100
AcDbLine
 10
80.94970703125
 20
-18.38262176513672
 30
0.0
 11
61.34975433349609
 21
-18.38262176513672
 31
0.0
  0
LINE
  5
187
330
A
100
AcDbEntity
  8
PV
100
AcDbLine
 10
81.14974975585937
 20
-18.38262176513672
 30
0.0
 11
61.14974975585937
 21
-18.38262176513672
 31
0.0
  0
LINE
  5
188
330
A
100
AcDbEntity
  8
PV
100
AcDbLine
 10
171.6497344970703
 20
186.9174041748047
 30
0.0
 11
171.6497344970703
 21
187.2173919677734
 31
0.0
  0
LINE
  5
189
330
A
100
AcDbEntity
  8
PV
100
AcDbLine
 10
177.6497192382811
 20
186.9174041748047
 30
0.0
 11
177.6497192382811
 21
187.2173919677734
 31
0.0
  0
LINE
  5
18A
330
A
100
AcDbEntity
  8
PV
100
AcDbLine
 10
168.8997192382812
 20
180.3173980712889
 30
0.0
 11
168.8997192382812
 21
181.9174041748047
 31
0.0
  0
LINE
  5
18B
330
A
100
AcDbEntity
  8
PV
100
AcDbLine
 10
180.3997344970703
 20
180.3173980712889
 30
0.0
 11
180.3997344970703
 21
181.9174041748047
 31
0.0
  0
LINE
  5
18C
330
A
100
AcDbEntity
  8
PV
100
AcDbLine
 10
180.3997344970703
 20
172.6174011230469
 30
0.0
 11
180.3997344970703
 21
176.6173706054686
 31
0.0
  0
LINE
  5
18D
330
A
100
AcDbEntity
  8
PV
100
AcDbLine
 10
168.8997192382812
 20
172.6174011230469
 30
0.0
 11
168.8997192382812
 21
176.3195190429686
 31
0.0
  0
LINE
  5
18E
330
A
100
AcDbEntity
  8
PV
100
AcDbLine
 10
178.8997192382811
 20
186.9174041748047
 30
0.0
 11
170.3997344970703
 21
186.9174041748047
 31
0.0
  0
LINE
  5
18F
330
A
100
AcDbEntity
  8
PV
100
AcDbLine
 10
178.8997192382811
 20
171.6173706054687
 30
0.0
 11
170.3997344970703
 21
171.6173706054687
 31
0.0
  0
LINE
  5
190
330
A
100
AcDbEntity
  8
PV
100
AcDbLine
 10
181.6499633789062
 20
180.3173980712889
 30
0.0
 11
-162.5502319335937
 21
180.3173980712889
 31
0.0
  0
LINE
  5
191
330
A
100
AcDbEntity
  8
PV
  6
Continuous
 62
     3
100
AcDbLine
 10
184.8499603271484
 20
177.4958190917969
 30
0.0
 11
184.8499603271484
 21
176.617446899414
 31
0.0
  0
LINE
  5
192
330
A
100
AcDbEntity
  8
PV
100
AcDbLine
 10
184.8499603271484
 20
176.6173706054686
 30
0.0
 11
183.6499328613281
 21
176.6173706054686
 31
0.0
  0
LINE
  5
193
330
A
100
AcDbEntity
  8
PV
  6
Continuous
 62
     3
100
AcDbLine
 10
54.64973449707031
 20
359.1175231933594
 30
0.0
 11
53.64974975585937
 21
359.1175231933594
 31
0.0
  0
LINE
  5
194
330
A
100
AcDbEntity
  8
PV
100
AcDbLine
 10
54.64778900146484
 20
357.1174926757813
 30
0.0
 11
53.64974975585937
 21
357.1174926757813
 31
0.0
  0
LINE
  5
195
330
A
100
AcDbEntity
  8
PV
100
AcDbLine
 10
54.64973449707031
 20
370.6174621582031
 30
0.0
 11
54.64973449707031
 21
359.1174621582031
 31
0.0
  0
LINE
  5
196
330
A
100
AcDbEntity
  8
PV
100
AcDbLine
 10
-174.3504638671875
 20
180.3173980712889
 30
0.0
 11
-162.5502319335937
 21
180.3173980712889
 31
0.0
  0
LINE
  5
197
330
A
100
AcDbEntity
  8
PV
  6
Continuous
 62
     3
100
AcDbLine
 10
-177.5504608154297
 20
177.4958190917969
 30
0.0
 11
-177.5504608154297
 21
176.6173706054686
 31
0.0
  0
LINE
  5
198
330
A
100
AcDbEntity
  8
PV
100
AcDbLine
 10
-177.5504608154297
 20
176.6173706054686
 30
0.0
 11
-176.3504333496094
 21
176.6173706054686
 31
0.0
  0
LINE
  5
199
330
A
100
AcDbEntity
  8
PV
100
AcDbLine
 10
-121.1503219604492
 20
-6.382613658905028
 30
0.0
 11
-78.85028839111328
 21
-6.382613658905028
 31
0.0
  0
LINE
  5
19A
330
A
100
AcDbEntity
  8
PV
100
AcDbLine
 10
54.64973449707031
 20
370.6174621582031
 30
0.0
 11
47.59174346923828
 21
370.6174621582031
 31
0.0
  0
LINE
  5
19B
330
A
100
AcDbEntity
  8
PV
100
AcDbLine
 10
-47.35026931762695
 20
357.1174926757813
 30
0.0
 11
-47.35026931762695
 21
355.6174621582031
 31
0.0
  0
LINE
  5
19C
330
A
100
AcDbEntity
  8
PV
100
AcDbLine
 10
-47.35026931762695
 20
370.6174621582031
 30
0.0
 11
-47.35026931762695
 21
359.1174621582031
 31
0.0
  0
LINE
  5
19D
330
A
100
AcDbEntity
  8
PV
100
AcDbLine
 10
-47.35026931762695
 20
370.6174621582031
 30
0.0
 11
47.14973449707031
 21
370.6174621582031
 31
0.0
  0
LINE
  5
19E
330
A
100
AcDbEntity
  8
PV
100
AcDbLine
 10
-40.90026473999023
 20
-16.38261413574219
 30
0.0
 11
83.64978790283203
 21
-16.38261413574219
 31
0.0
  0
LINE
  5
19F
330
A
100
AcDbEntity
  8
PV
100
AcDbLine
 10
-76.35025024414062
 20
-6.382613658905028
 30
0.0
 11
-76.35025024414062
 21
-16.38261413574219
 31
0.0
  0
LINE
  5
1A0
330
A
100
AcDbEntity
  8
PV
100
AcDbLine
 10
83.64978790283203
 20
-6.382613658905028
 30
0.0
 11
83.64978790283203
 21
-16.38261413574219
 31
0.0
  0
LINE
  5
1A1
330
A
100
AcDbEntity
  8
PV
100
AcDbLine
 10
-76.35025024414062
 20
-16.38261413574219
 30
0.0
 11
-40.90026473999023
 21
-16.38261413574219
 31
0.0
  0
LINE
  5
1A2
330
A
100
AcDbEntity
  8
PV
100
AcDbLine
 10
-40.90026473999023
 20
-272.3826599121094
 30
0.0
 11
83.64978790283203
 21
-272.3826599121094
 31
0.0
  0
LINE
  5
1A3
330
A
100
AcDbEntity
  8
PV
100
AcDbLine
 10
48.19976806640625
 20
-16.38261413574219
 30
0.0
 11
48.19976806640625
 21
-154.7995300292968
 31
0.0
  0
LINE
  5
1A4
330
A
100
AcDbEntity
  8
PV
100
AcDbLine
 10
-40.90026473999023
 20
-16.38261413574219
 30
0.0
 11
-40.90026473999023
 21
-134.8825988769531
 31
0.0
  0
LINE
  5
1A5
330
A
100
AcDbEntity
  8
PV
  6
CENTER
 62
     7
100
AcDbLine
 10
46.07635283505443
 20
-426.8089380223608
 30
0.0
 11
56.68295437132838
 21
-437.4155395586348
 31
0.0
  0
LINE
  5
1A6
330
A
100
AcDbEntity
  8
PV
  6
CENTER
 62
     7
100
AcDbLine
 10
-49.38327678327187
 20
-437.4154532418906
 30
0.0
 11
-38.7766752469979
 21
-426.8088517056167
 31
0.0
  0
LINE
  5
1A7
330
A
100
AcDbEntity
  8
PV
  6
CENTER
 62
     7
100
AcDbLine
 10
3.649751424789428
 20
-458.1573791503906
 30
0.0
 11
3.649751424789428
 21
-369.8501281738281
 31
0.0
  0
LINE
  5
1A8
330
A
100
AcDbEntity
  8
PV
  6
CENTER
 62
     7
100
AcDbLine
 10
-76.35025024414062
 20
-384.3826599121094
 30
0.0
 11
83.64978790283203
 21
-384.3826599121094
 31
0.0
  0
LINE
  5
1A9
330
A
100
AcDbEntity
  8
PV
  6
CENTER
 62
     7
100
AcDbLine
 10
71.14974975585937
 20
-285.8825988769531
 30
0.0
 11
71.14974975585937
 21
-270.8825988769531
 31
0.0
  0
LINE
  5
1AA
330
A
100
AcDbEntity
  8
PV
  6
CENTER
 62
     7
100
AcDbLine
 10
-63.85024642944336
 20
-285.8825988769531
 30
0.0
 11
-63.85024642944336
 21
-270.8825988769531
 31
0.0
  0
LINE
  5
1AB
330
A
100
AcDbEntity
  8
PV
100
AcDbLine
 10
-76.35025024414062
 20
-284.3825988769531
 30
0.0
 11
-76.35025024414062
 21
-272.3825988769531
 31
0.0
  0
LINE
  5
1AC
330
A
100
AcDbEntity
  8
PV
100
AcDbLine
 10
83.64978790283203
 20
-284.3825988769531
 30
0.0
 11
83.64978790283203
 21
-272.3825988769531
 31
0.0
  0
LINE
  5
1AD
330
A
100
AcDbEntity
  8
PV
100
AcDbLine
 10
-76.35025024414062
 20
-284.3826599121094
 30
0.0
 11
83.64978790283203
 21
-284.3826599121094
 31
0.0
  0
LINE
  5
1AE
330
A
100
AcDbEntity
  8
PV
100
AcDbLine
 10
-76.35025024414062
 20
-272.3826599121094
 30
0.0
 11
-40.90026473999023
 21
-272.3826599121094
 31
0.0
  0
LINE
  5
1AF
330
A
100
AcDbEntity
  8
PV
100
AcDbLine
 10
-58.8502082824707
 20
-25.38264846801758
 30
0.0
 11
-58.8502082824707
 21
-18.38262176513672
 31
0.0
  0
LINE
  5
1B0
330
A
100
AcDbEntity
  8
PV
100
AcDbLine
 10
-68.85025024414061
 20
-25.38264846801758
 30
0.0
 11
-68.85025024414061
 21
-18.38262176513672
 31
0.0
  0
LINE
  5
1B1
330
A
100
AcDbEntity
  8
PV
100
AcDbLine
 10
-73.6502456665039
 20
-25.38264846801758
 30
0.0
 11
-73.6502456665039
 21
-18.38262176513672
 31
0.0
  0
LINE
  5
1B2
330
A
100
AcDbEntity
  8
PV
100
AcDbLine
 10
-54.05028915405273
 20
-25.38264846801758
 30
0.0
 11
-54.05028915405273
 21
-18.38262176513672
 31
0.0
  0
LINE
  5
1B3
330
A
100
AcDbEntity
  8
PV
100
AcDbLine
 10
-56.45022964477539
 20
-26.38261413574219
 30
0.0
 11
-71.25022888183593
 21
-26.38261413574219
 31
0.0
  0
LINE
  5
1B4
330
A
100
AcDbEntity
  8
PV
100
AcDbLine
 10
-73.85021209716795
 20
-16.38261413574219
 30
0.0
 11
-73.85021209716795
 21
-18.38262176513672
 31
0.0
  0
LINE
  5
1B5
330
A
100
AcDbEntity
  8
PV
100
AcDbLine
 10
-53.85024642944336
 20
-16.38261413574219
 30
0.0
 11
-53.85024642944336
 21
-18.38262176513672
 31
0.0
  0
LINE
  5
1B6
330
A
100
AcDbEntity
  8
PV
100
AcDbLine
 10
-73.85021209716795
 20
-18.38262176513672
 30
0.0
 11
-53.85024642944336
 21
-18.38262176513672
 31
0.0
  0
LINE
  5
359
330
A
100
AcDbEntity
  8
PV
  6
Continuous
 62
     7
370
     0
100
AcDbLine
 10
-244.5653724140929
 20
-121.8277595255786
 30
0.0
 11
-81.94781870315544
 21
-121.8277595255786
 31
0.0
  0
LINE
  5
35A
330
A
100
AcDbEntity
  8
PV
  6
Continuous
 62
     7
370
     0
100
AcDbLine
 10
-244.0194323616724
 20
-143.918377728286
 30
0.0
 11
-81.40187865073494
 21
-143.918377728286
 31
0.0
  0
LINE
  5
35B
330
A
100
AcDbEntity
  8
PV
  6
Continuous
 62
     7
370
     0
100
AcDbLine
 10
-243.4734923092519
 20
-166.0089959309934
 30
0.0
 11
-80.85593859831442
 21
-166.0089959309934
 31
0.0
  0
LINE
  5
35C
330
A
100
AcDbEntity
  8
PV
  6
Continuous
 62
     7
370
     0
100
AcDbLine
 10
-244.1882100250368
 20
-188.546911881815
 30
0.0
 11
-61.04477445526573
 21
-188.546911881815
 31
0.0
  0
LINE
  5
364
330
A
100
AcDbEntity
  8
PV
  6
Continuous
 62
     7
370
     0
100
AcDbLine
 10
128.5393964500054
 20
-350.8120998421799
 30
0.0
 11
323.2444684786533
 21
-350.8120998421799
 31
0.0
  0
LINE
  5
367
330
A
100
AcDbEntity
  8
PV
  6
Continuous
 62
     7
370
     0
100
AcDbLine
 10
-148.0612487792968
 20
-341.1768596490633
 30
0.0
 11
-54.92245101637036
 21
-341.1768596490633
 31
0.0
  0
LINE
  5
3CC
330
A
100
AcDbEntity
  8
PV
  6
Continuous
 62
     7
370
     0
100
AcDbLine
 10
134.6219262605482
 20
477.3038370276355
 30
0.0
 11
305.7343208754719
 21
477.3038370276355
 31
0.0
  0
LINE
  5
3CE
330
A
100
AcDbEntity
  8
PV
  6
Continuous
 62
     7
370
     0
100
AcDbLine
 10
134.6219262605482
 20
494.1551001362098
 30
0.0
 11
305.7343208754719
 21
494.1551001362098
 31
0.0
  0
LEADER
  5
4B9
330
A
100
AcDbEntity
  8
PV
  6
Continuous
 62
     7
100
AcDbLeader
  3
MXDIMSTYLE
 74
     0
 76
     2
 10
3.649764206646068
 20
415.6172532727176
 30
0.0
 10
-51.39765630329566
 20
452.4344379896633
 30
0.0
1001
ACAD
1000
DSTYLE
1002
{
1070
     6
1000
_OPEN30
1070
     7
1000
_OPEN30
1070
    41
1040
2.77
1070
   173
1070
     1
1070
   341
1005
99
1002
}
  0
MTEXT
  5
4BD
330
A
100
AcDbEntity
  8
PV
  6
Continuous
 62
     7
100
AcDbMText
 10
-138.9646384660264
 20
467.9161818818356
 30
0.0
 40
12.0
 41
0.0
 71
     1
 72
     1
  1
\A1;{\W0.819;VG80　※1\PJIS　Ｂ2290}
 73
     1
 44
0.9359251894303499
1001
ACAD
1000
MTEXTBEGIN
1070
    73
1070
     1
1070
    44
1040
0.9359251894303499
1070
    74
1070
     0
1000
MTEXTEND
  0
ARC
  5
4C1
330
A
100
AcDbEntity
  8
PV
  6
CENTER
 62
     7
100
AcDbCircle
 10
3.649751424789428
 20
476.1173095703123
 30
0.0
 40
67.5
100
AcDbArc
 50
0.0000173028427897
 51
180.0000186693353
  0
CIRCLE
  5
4C2
330
A
100
AcDbEntity
  8
PV
100
AcDbCircle
 10
-44.0799674987793
 20
523.8467712402344
 30
0.0
 40
6.0
  0
CIRCLE
  5
4C3
330
A
100
AcDbEntity
  8
PV
100
AcDbCircle
 10
51.37947082519531
 20
523.8467712402344
 30
0.0
 40
6.0
  0
LINE
  5
4C9
330
A
100
AcDbEntity
  8
PV
100
AcDbLine
 10
47.59174346923828
 20
403.6172790527343
 30
0.0
 11
47.59174346923828
 21
370.6174621582031
 31
0.0
  0
LINE
  5
4CA
330
A
100
AcDbEntity
  8
PV
100
AcDbLine
 10
-40.29235458374023
 20
403.6172790527343
 30
0.0
 11
-40.29235458374023
 21
370.6174621582031
 31
0.0
  0
LINE
  5
4CB
330
A
100
AcDbEntity
  8
PV
  6
CENTER
 62
     7
100
AcDbLine
 10
46.07620178075193
 20
518.5434825722349
 30
0.0
 11
56.6828033170259
 21
529.1500841085089
 31
0.0
  0
LINE
  5
4CC
330
A
100
AcDbEntity
  8
PV
  6
CENTER
 62
     7
100
AcDbLine
 10
-49.3832552040858
 20
529.1500409501368
 30
0.0
 11
-38.77665366781184
 21
518.5434394138629
 31
0.0
  0
LINE
  5
4CE
330
A
100
AcDbEntity
  8
PV
  6
CENTER
 62
     7
100
AcDbLine
 10
-76.35028839111328
 20
476.1173095703123
 30
0.0
 11
83.64975738525391
 21
476.1173095703123
 31
0.0
  0
LINE
  5
4CF
330
A
100
AcDbEntity
  8
PV
100
AcDbLine
 10
-76.35028839111328
 20
415.6173095703125
 30
0.0
 11
83.64975738525391
 21
415.6173095703125
 31
0.0
  0
LINE
  5
4D0
330
A
100
AcDbEntity
  8
PV
100
AcDbLine
 10
47.59174346923828
 20
403.6172790527343
 30
0.0
 11
83.64975738525391
 21
403.6172790527343
 31
0.0
  0
LINE
  5
4D1
330
A
100
AcDbEntity
  8
PV
  6
CENTER
 62
     7
100
AcDbLine
 10
71.14975738525391
 20
420.3375549316406
 30
0.0
 11
71.14975738525391
 21
398.3694763183594
 31
0.0
  0
LINE
  5
4D2
330
A
100
AcDbEntity
  8
PV
  6
CENTER
 62
     7
100
AcDbLine
 10
-63.85024642944336
 20
422.4297485351561
 30
0.0
 11
-63.85024642944336
 21
397.1331176757812
 31
0.0
  0
LINE
  5
4D3
330
A
100
AcDbEntity
  8
PV
100
AcDbLine
 10
-76.35028839111328
 20
415.6173095703125
 30
0.0
 11
-76.35028839111328
 21
403.6172790527343
 31
0.0
  0
LINE
  5
4D4
330
A
100
AcDbEntity
  8
PV
100
AcDbLine
 10
83.64975738525391
 20
415.6173095703125
 30
0.0
 11
83.64975738525391
 21
403.6172790527343
 31
0.0
  0
LINE
  5
4D5
330
A
100
AcDbEntity
  8
PV
100
AcDbLine
 10
-76.35028839111328
 20
403.6172790527343
 30
0.0
 11
47.59174346923828
 21
403.6172790527343
 31
0.0
  0
LINE
  5
4D6
330
A
100
AcDbEntity
  8
PV
  6
Continuous
 62
     7
100
AcDbLine
 10
-142.8996546208227
 20
434.3848077015823
 30
0.0
 11
-51.68778463715625
 21
434.3848077015823
 31
0.0
  0
LINE
  5
50C
330
A
100
AcDbEntity
  8
PV
  6
Continuous
 62
     7
100
AcDbLine
 10
-143.6078974731417
 20
452.4344379896633
 30
0.0
 11
-52.39602748947526
 21
452.4344379896633
 31
0.0
  0
DIMENSION
  5
513
330
A
100
AcDbEntity
  8
PV
 62
     7
100
AcDbDimension
  2
*D10
 10
317.7732848924688
 20
-284.3825988769532
 30
0.0
 11
317.7732848924688
 21
82.79378744568111
 31
0.0
 70
   160
  1
（<>）
 71
     5
 42
699.9999084472656
  3
MXDIMSTYLE$0
100
AcDbAlignedDimension
 13
83.64975738525391
 23
415.6173095703125
 33
0.0
 14
83.64978790283203
 24
-284.3825988769531
 34
0.0
 50
90.00000000000005
100
AcDbRotatedDimension
1001
ACAD_DSTYLE_DIMINSPECT
1070
   396
1000
100%
1070
   395
1000

1070
   394
1070
    33
1070
   393
1070
     0
1001
ACAD
1000
DSTYLE
1002
{
1070
   343
1005
99
1070
   173
1070
     1
1070
   344
1005
0
1070
   144
1040
1.0
1070
   271
1070
     0
1070
   278
1070
     0
1070
   371
1070
     0
1070
   372
1070
     0
1002
}
  0
LINE
  5
61D
330
A
100
AcDbEntity
  8
PV
370
     0
100
AcDbLine
 10
-137.0544055265693
 20
-12.14027687455261
 30
0.0
 11
-144.8488455576385
 21
-7.640154743663186
 31
0.0
  0
LINE
  5
61E
330
A
100
AcDbEntity
  8
PV
370
     0
100
AcDbLine
 10
-130.9760329004584
 20
-6.412031470641551
 30
0.0
 11
-142.9272257054546
 21
0.4879930363033651
 31
0.0
  0
LINE
  5
61F
330
A
100
AcDbEntity
  8
PV
370
     0
100
AcDbLine
 10
-137.0544055265693
 20
-12.14027687455261
 30
0.0
 11
-133.0544092874219
 21
-5.212080282613796
 31
0.0
  0
LINE
  5
620
330
A
100
AcDbEntity
  8
PV
370
     0
100
AcDbLine
 10
-144.848634125656
 20
-7.640276813977338
 30
0.0
 11
-140.8486378865087
 21
-0.712080222038523
 31
0.0
  0
LINE
  5
621
330
A
100
AcDbEntity
  8
PV
370
     0
100
AcDbLine
 10
-130.975821468476
 20
-6.412153540955699
 30
0.0
 11
-129.4758252629816
 21
-3.814083948509562
 31
0.0
  0
LINE
  5
622
330
A
100
AcDbEntity
  8
PV
370
     0
100
AcDbLine
 10
-142.9270142734722
 20
0.487870965989231
 30
0.0
 11
-141.4270180679778
 21
3.085940558435368
 31
0.0
  0
MTEXT
  5
879
102
{ACAD_XDICTIONARY
360
8C9
102
}
330
A
100
AcDbEntity
  8
PV
  6
Continuous
 62
     7
100
AcDbMText
 10
-236.236453550534
 20
-579.1484946790283
 30
0.0
 40
16.66799926757812
 41
0.0
 71
     1
 72
     1
  1
\A1;{\W0.706; ※1:VG80 外径\U+2205１6０，４－\U+2205１2中心径\U+2205１35,ガスケット溝\U+2205100\U+00D7\U+2205110\U+00D73}
 73
     1
 44
0.9359251894303499
1001
ACAD
1000
MTEXTBEGIN
1070
    73
1070
     1
1070
    44
1040
0.9359251894303499
1070
    74
1070
     0
1000
MTEXTEND
  0
LINE
  5
87A
330
A
100
AcDbEntity
  8
PV
  6
Continuous
 62
     7
100
AcDbLine
 10
-234.8343063228676
 20
-601.4692949275422
 30
0.0
 11
318.2055191165855
 21
-601.4692949275422
 31
0.0
  0
MTEXT
  5
87B
102
{ACAD_XDICTIONARY
360
8CB
102
}
330
A
100
AcDbEntity
  8
M2
 62
     4
370
    50
100
AcDbMText
 10
804.0377970919108
 20
-642.67095092832
 30
0.0
 40
35.0
 41
0.0
 71
     1
 72
     5
  1
\A1;{\W1.0833;\U+5916\U+89B3\U+5BF8\U+6CD5\U+56F3}
  7
Standard
 73
     1
 44
1.0
1001
ACAD
1000
MTEXTBEGIN
1070
    73
1070
     1
1070
    44
1040
1.0
1070
    74
1070
     0
1000
MTEXTEND
1000
ACAD_MTEXT_DEFINED_HEIGHT_BEGIN
1070
    46
1040
35.0
1000
ACAD_MTEXT_DEFINED_HEIGHT_END
  0
MTEXT
  5
87C
330
A
100
AcDbEntity
  8
M2
 62
     4
370
    50
100
AcDbMText
 10
804.0377970919108
 20
-589.3429509283187
 30
0.0
 40
35.0
 41
0.0
 71
     1
 72
     5
  1
\A1;{\W0.6638;TM-3F(PKS-030\fMS PGothic|b0|i0|c128|p50;）}
  7
Standard
 73
     1
 44
1.0
1001
ACAD
1000
MTEXTBEGIN
1070
    73
1070
     1
1070
    44
1040
1.0
1070
    74
1070
     0
1000
MTEXTEND
1000
ACAD_MTEXT_DEFINED_HEIGHT_BEGIN
1070
    46
1040
35.0
1000
ACAD_MTEXT_DEFINED_HEIGHT_END
  0
MTEXT
  5
87D
102
{ACAD_XDICTIONARY
360
8CD
102
}
330
A
100
AcDbEntity
  8
M2
 62
     4
370
    50
100
AcDbMText
 10
804.0377970919108
 20
-695.9989509283214
 30
0.0
 40
35.0
 41
0.0
 71
     1
 72
     5
  1
\A1;{\W0.7271;KG3115-012A1\U+3000\U+30001/2}
  7
Standard
 73
     1
 44
1.0
1001
ACAD
1000
MTEXTBEGIN
1070
    73
1070
     1
1070
    44
1040
1.0
1070
    74
1070
     0
1000
MTEXTEND
1000
ACAD_MTEXT_DEFINED_HEIGHT_BEGIN
1070
    46
1040
35.0
1000
ACAD_MTEXT_DEFINED_HEIGHT_END
  0
INSERT
  5
87E
330
A
100
AcDbEntity
  8
0
100
AcDbBlockReference
  2
JZB_0006
 10
-822.4662029080896
 20
-789.3229548950557
 30
0.0
  0
MTEXT
  5
87F
102
{ACAD_XDICTIONARY
360
8CF
102
}
330
A
100
AcDbEntity
  8
PV
  6
Continuous
 62
     7
100
AcDbMText
 10
-237.7617391877513
 20
-609.4330469356386
 30
0.0
 40
16.66799926757812
 41
0.0
 71
     1
 72
     1
  1
\A1;{\W0.706; ※1:VG80 \U+2205１6０　O.D，４－\U+2205１2HOLES　P.C.D.\U+2205１35,GASKET GROOVE \U+2205100\U+00D7\U+2205110\U+00D73}
 73
     1
 44
0.9359251894303499
1001
ACAD
1000
MTEXTBEGIN
1070
    73
1070
     1
1070
    44
1040
0.9359251894303499
1070
    74
1070
     0
1000
MTEXTEND
  0
ENDSEC
  0
SECTION
  2
OBJECTS
  0
DICTIONARY
  5
19
330
0
100
AcDbDictionary
281
     1
  3
ACAD_COLOR
350
204
  3
ACAD_GROUP
350
1A
  3
ACAD_LAYOUT
350
1E
  3
ACAD_MATERIAL
350
1EF
  3
ACAD_MLEADERSTYLE
350
2C5
  3
ACAD_MLINESTYLE
350
1B
  3
ACAD_PLOTSETTINGS
350
22
  3
ACAD_PLOTSTYLENAME
350
1F
  3
ACAD_SCALELIST
350
2B3
  3
ACAD_TABLESTYLE
350
205
  3
ACAD_VISUALSTYLE
350
1F3
  3
ACDB_RECOMPOSE_DATA
350
889
  3
AcDbVariableDictionary
350
2AD
  3
AcmDictionary
350
265
  3
AEC_PROPERTY_SET_DEFS
350
874
  3
AMG
350
20B
  3
AMGSNAPSETTINGS
350
2A5
  3
ASE_INDEX_DICTIONARY
350
2E0
  3
DWGPROPS
350
88A
  0
DICTIONARY
  5
318
330
2
100
AcDbDictionary
280
     1
281
     1
  3
ACAD_LAYERSTATES
360
319
  0
DICTIONARY
  5
2E9
330
14
100
AcDbDictionary
280
     1
281
     1
  3
ADSK_XREC_LAYER_RECONCILED
360
2EA
  0
DICTIONARY
  5
2EB
330
24
100
AcDbDictionary
280
     1
281
     1
  3
ADSK_XREC_LAYER_RECONCILED
360
2EC
  0
DICTIONARY
  5
2ED
330
25
100
AcDbDictionary
280
     1
281
     1
  3
ADSK_XREC_LAYER_RECONCILED
360
2EE
  0
DICTIONARY
  5
861
330
860
100
AcDbDictionary
280
     1
281
     1
  0
DICTIONARY
  5
863
330
862
100
AcDbDictionary
280
     1
281
     1
  0
DICTIONARY
  5
865
330
864
100
AcDbDictionary
280
     1
281
     1
  0
DICTIONARY
  5
867
330
866
100
AcDbDictionary
280
     1
281
     1
  0
DICTIONARY
  5
8BF
330
3B9
100
AcDbDictionary
280
     1
281
     1
  3
ACAD_MTEXT_RT
360
8C0
  0
DICTIONARY
  5
8BD
330
3B0
100
AcDbDictionary
280
     1
281
     1
  3
ACAD_MTEXT_RT
360
8BE
  0
DICTIONARY
  5
8C9
330
879
100
AcDbDictionary
280
     1
281
     1
  3
ACAD_MTEXT_RT
360
8CA
  0
DICTIONARY
  5
8CB
330
87B
100
AcDbDictionary
280
     1
281
     1
  3
ACAD_MTEXT_RT
360
8CC
  0
DICTIONARY
  5
8CD
330
87D
100
AcDbDictionary
280
     1
281
     1
  3
ACAD_MTEXT_RT
360
8CE
  0
DICTIONARY
  5
8CF
330
87F
100
AcDbDictionary
280
     1
281
     1
  3
ACAD_MTEXT_RT
360
8D0
  0
DICTIONARY
  5
204
102
{ACAD_REACTORS
330
19
102
}
330
19
100
AcDbDictionary
281
     1
  0
DICTIONARY
  5
1A
102
{ACAD_REACTORS
330
19
102
}
330
19
100
AcDbDictionary
281
     1
  0
DICTIONARY
  5
1E
102
{ACAD_REACTORS
330
19
102
}
330
19
100
AcDbDictionary
281
     1
  3
Layout1
350
21
  3
Model
350
20
  0
DICTIONARY
  5
1EF
102
{ACAD_REACTORS
330
19
102
}
330
19
100
AcDbDictionary
281
     1
  3
ByBlock
350
1F1
  3
ByLayer
350
1F0
  3
Global
350
1F2
  0
DICTIONARY
  5
2C5
102
{ACAD_REACTORS
330
19
102
}
330
19
100
AcDbDictionary
281
     1
  3
Standard
350
2C6
  0
DICTIONARY
  5
1B
102
{ACAD_REACTORS
330
19
102
}
330
19
100
AcDbDictionary
281
     1
  3
Standard
350
1C
  0
DICTIONARY
  5
22
102
{ACAD_REACTORS
330
19
102
}
330
19
100
AcDbDictionary
281
     1
  0
ACDBDICTIONARYWDFLT
  5
1F
102
{ACAD_REACTORS
330
19
102
}
330
19
100
AcDbDictionary
281
     1
  3
Normal
350
1D
100
AcDbDictionaryWithDefault
340
1D
  0
DICTIONARY
  5
2B3
102
{ACAD_REACTORS
330
19
102
}
330
19
100
AcDbDictionary
281
     1
  3
A0
350
2B4
  3
A1
350
2B5
  3
A2
350
2B6
  3
A3
350
2B7
  3
A4
350
2B8
  3
A5
350
2B9
  3
A6
350
2BA
  3
A7
350
2BB
  3
A8
350
2BC
  3
A9
350
2BD
  3
B0
350
2BE
  3
B1
350
2BF
  3
B2
350
2C0
  3
B3
350
2C1
  3
B4
350
2C2
  3
B5
350
2C3
  3
B6
350
2C4
  0
DICTIONARY
  5
205
102
{ACAD_REACTORS
330
19
102
}
330
19
100
AcDbDictionary
281
     1
  3
Standard
350
206
  0
DICTIONARY
  5
1F3
102
{ACAD_REACTORS
330
19
102
}
330
19
100
AcDbDictionary
281
     1
  3
2dWireframe
350
1F9
  3
3D Hidden
350
1FB
  3
3dWireframe
350
1FA
  3
Basic
350
1F8
  3
Brighten
350
1FF
  3
ColorChange
350
203
  3
Conceptual
350
1FC
  3
Dim
350
1FE
  3
EdgeColorOff
350
2B2
  3
Facepattern
350
202
  3
Flat
350
1F4
  3
FlatWithEdges
350
1F5
  3
Gouraud
350
1F6
  3
GouraudWithEdges
350
1F7
  3
JitterOff
350
2B0
  3
Linepattern
350
201
  3
OverhangOff
350
2B1
  3
Realistic
350
1FD
  3
Thicken
350
200
  0
XRECORD
  5
889
102
{ACAD_REACTORS
330
19
102
}
330
19
100
AcDbXrecord
280
     1
 90
        1
330
206
  0
DICTIONARY
  5
2AD
102
{ACAD_REACTORS
330
19
102
}
330
19
100
AcDbDictionary
281
     1
  3
CANNOSCALE
350
2F1
  3
CMLEADERSTYLE
350
2EF
  3
CTABLESTYLE
350
2AE
  3
DIMASSOC
350
884
  3
INDEXCTL
350
882
  3
LAYEREVAL
350
2F3
  3
LAYERNOTIFY
350
2F4
  3
LIGHTINGUNITS
350
2F2
  3
LOFTANG1
350
885
  3
LOFTANG2
350
886
  3
LONGITUDE
350
887
  3
MSLTSCALE
350
2F0
  3
SORTENTS
350
881
  3
XCLIPFRAME
350
883
  0
DICTIONARY
  5
265
102
{ACAD_REACTORS
330
19
102
}
330
19
100
AcDbDictionary
281
     1
  3
AcmStdDictionary
350
270
  3
AMDTSECTSYM_ARROWCOLOR
350
28F
  0
DICTIONARY
  5
874
102
{ACAD_REACTORS
330
19
102
}
330
19
100
AcDbDictionary
281
     1
  0
DICTIONARY
  5
20B
102
{ACAD_REACTORS
330
19
102
}
330
19
100
AcDbDictionary
281
     1
  0
DICTIONARY
  5
2A5
102
{ACAD_REACTORS
330
19
102
}
330
19
100
AcDbDictionary
281
     1
  0
DICTIONARY
  5
2E0
102
{ACAD_REACTORS
330
19
102
}
330
19
100
AcDbDictionary
281
     1
  3
ASEBlockHierarchyIndexRecord
350
2E2
1001
DCO15
1040
1731339868.441
  0
XRECORD
  5
88A
102
{ACAD_REACTORS
330
19
102
}
330
19
100
AcDbXrecord
280
     1
  1
DWGPROPS COOKIE
  2

  3

  4

  6

  7

  8
UJ35116
  9

300
=
301
=
302
=
303
=
304
=
305
=
306
=
307
=
308
=
309
=
 40
0.1817348726851852
 41
2454352.03650463
 42
2457984.604891481
  1

 90
        0
  0
DICTIONARY
  5
319
102
{ACAD_REACTORS
330
318
102
}
330
318
100
AcDbDictionary
281
     1
  0
XRECORD
  5
2EA
102
{ACAD_REACTORS
330
2E9
102
}
330
2E9
100
AcDbXrecord
280
     1
290
     1
  0
XRECORD
  5
2EC
102
{ACAD_REACTORS
330
2EB
102
}
330
2EB
100
AcDbXrecord
280
     1
290
     1
  0
XRECORD
  5
2EE
102
{ACAD_REACTORS
330
2ED
102
}
330
2ED
100
AcDbXrecord
280
     1
290
     1
  0
XRECORD
  5
8C0
102
{ACAD_REACTORS
330
8BF
102
}
330
8BF
100
AcDbXrecord
280
     1
 40
5822.0
  1
\A1;\U+2205318
  0
XRECORD
  5
8BE
102
{ACAD_REACTORS
330
8BD
102
}
330
8BD
100
AcDbXrecord
280
     1
 40
5803.0
  1
\A1;\U+2205362
  0
XRECORD
  5
8CA
102
{ACAD_REACTORS
330
8C9
102
}
330
8C9
100
AcDbXrecord
280
     1
 40
170103.0
  1
\A1;{\W0.706; ※1:VG80 外径\U+2205１6０，４－\U+2205１2中心径\U+2205１35,ガスケット溝\U+2205100\U+00D7\U+2205110\U+00D73}
  0
XRECORD
  5
8CC
102
{ACAD_REACTORS
330
8CB
102
}
330
8CB
100
AcDbXrecord
280
     1
 40
84481.0
  1
\A1;{\W1.0833;外観寸法図}
  0
XRECORD
  5
8CE
102
{ACAD_REACTORS
330
8CD
102
}
330
8CD
100
AcDbXrecord
280
     1
 40
58666.0
  1
\A1;{\W0.7271;KG3115-012A1　　1/2}
  0
XRECORD
  5
8D0
102
{ACAD_REACTORS
330
8CF
102
}
330
8CF
100
AcDbXrecord
280
     1
 40
351672.0
  1
\A1;{\W0.706; ※1:VG80 \U+2205１6０　O.D，４－\U+2205１2HOLES　P.C.D.\U+2205１35,GASKET GROOVE \U+2205100\U+00D7\U+2205110\U+00D73}
  0
LAYOUT
  5
21
102
{ACAD_XDICTIONARY
360
88C
102
}
102
{ACAD_REACTORS
330
1E
102
}
330
1E
100
AcDbPlotSettings
  1

  2

  4

  6

 40
0.0
 41
0.0
 42
0.0
 43
0.0
 44
0.0
 45
0.0
 46
0.0
 47
0.0
 48
0.0
 49
0.0
140
0.0
141
0.0
142
1.0
143
1.0
 70
     0
 72
     0
 73
     0
 74
     0
  7

 75
     0
147
1.0
148
0.0
149
0.0
100
AcDbLayout
  1
Layout1
 70
     0
 71
     1
 10
0.0
 20
0.0
 11
12.0
 21
9.0
 12
0.0
 22
0.0
 32
0.0
 14
1.000000000000000E+20
 24
1.000000000000000E+20
 34
1.000000000000000E+20
 15
-1.000000000000000E+20
 25
-1.000000000000000E+20
 35
-1.000000000000000E+20
146
0.0
 13
0.0
 23
0.0
 33
0.0
 16
1.0
 26
0.0
 36
0.0
 17
0.0
 27
1.0
 37
0.0
 76
     0
330
B
  0
LAYOUT
  5
20
102
{ACAD_XDICTIONARY
360
31E
102
}
102
{ACAD_REACTORS
330
1E
102
}
330
1E
100
AcDbPlotSettings
  1

  2
i-file Color 6.0
  4
A4
  6

 40
3.174999952316283
 41
3.174999952316283
 42
3.175003051757812
 43
3.17498779296875
 44
209.2959899902344
 45
296.6719970703125
 46
0.0
 47
0.0
 48
0.0
 49
0.0
140
0.0
141
0.0
142
1.0
143
1.0
 70
 11264
 72
     1
 73
     1
 74
     0
  7

 75
     0
147
1.0
148
876.7317781920347
149
138.1407667632597
100
AcDbLayout
  1
Model
 70
     0
 71
     0
 10
0.0
 20
0.0
 11
0.0
 21
0.0
 12
0.0
 22
0.0
 32
0.0
 14
0.0
 24
0.0
 34
0.0
 15
0.0
 25
0.0
 35
0.0
146
0.0
 13
0.0
 23
0.0
 33
0.0
 16
0.0
 26
0.0
 36
0.0
 17
0.0
 27
0.0
 37
0.0
 76
     0
330
A
331
15
1001
ACAD_PSEXT
1000
i-file Color 6.0
1000
i-file Color 6.0
1000
NULL
1000

1070
     0
  0
MATERIAL
  5
1F1
102
{ACAD_XDICTIONARY
360
890
102
}
102
{ACAD_REACTORS
330
1EF
102
}
330
1EF
100
AcDbMaterial
  1
ByBlock
 73
     1
 78
     1
172
     1
176
     1
270
     1
274
     1
  0
MATERIAL
  5
1F0
102
{ACAD_XDICTIONARY
360
88E
102
}
102
{ACAD_REACTORS
330
1EF
102
}
330
1EF
100
AcDbMaterial
  1
ByLayer
 73
     1
 78
     1
172
     1
176
     1
270
     1
274
     1
  0
MATERIAL
  5
1F2
102
{ACAD_XDICTIONARY
360
892
102
}
102
{ACAD_REACTORS
330
1EF
102
}
330
1EF
100
AcDbMaterial
  1
Global
 73
     1
 78
     1
172
     1
176
     1
270
     1
274
     1
  0
MLEADERSTYLE
  5
2C6
102
{ACAD_REACTORS
330
2C5
102
}
330
2C5
100
AcDbMLeaderStyle
170
     2
171
     1
172
     0
 90
        2
 40
0.0
 41
0.0
173
     1
 91
-1056964608
340
11
 92
       -2
290
     1
 42
2.0
291
     1
 43
0.36
  3
Standard
 44
4.0
300

342
17
174
     1
178
     6
175
     1
176
     0
 93
-1056964608
 45
4.0
292
     0
297
     0
 46
4.0
 94
-1056964608
 47
1.0
 49
1.0
140
1.0
293
     1
141
0.0
294
     1
177
     0
142
1.0
295
     0
296
     0
143
0.125
1001
ACAD_MLEADERVER
1070
     2
  0
MLINESTYLE
  5
1C
102
{ACAD_REACTORS
330
1B
102
}
330
1B
100
AcDbMlineStyle
  2
STANDARD
 70
     0
  3

 62
     0
 51
90.0
 52
90.0
 71
     2
 49
0.5
 62
   256
  6
BYLAYER
 49
-0.5
 62
   256
  6
BYLAYER
  0
ACDBPLACEHOLDER
  5
1D
102
{ACAD_REACTORS
330
1F
102
}
330
1F
  0
SCALE
  5
2B4
102
{ACAD_REACTORS
330
2B3
102
}
330
2B3
100
AcDbScale
 70
     0
300
1:1
140
1.0
141
1.0
290
     1
  0
SCALE
  5
2B5
102
{ACAD_REACTORS
330
2B3
102
}
330
2B3
100
AcDbScale
 70
     0
300
1:2
140
1.0
141
2.0
290
     0
  0
SCALE
  5
2B6
102
{ACAD_REACTORS
330
2B3
102
}
330
2B3
100
AcDbScale
 70
     0
300
1:4
140
1.0
141
4.0
290
     0
  0
SCALE
  5
2B7
102
{ACAD_REACTORS
330
2B3
102
}
330
2B3
100
AcDbScale
 70
     0
300
1:5
140
1.0
141
5.0
290
     0
  0
SCALE
  5
2B8
102
{ACAD_REACTORS
330
2B3
102
}
330
2B3
100
AcDbScale
 70
     0
300
1:8
140
1.0
141
8.0
290
     0
  0
SCALE
  5
2B9
102
{ACAD_REACTORS
330
2B3
102
}
330
2B3
100
AcDbScale
 70
     0
300
1:10
140
1.0
141
10.0
290
     0
  0
SCALE
  5
2BA
102
{ACAD_REACTORS
330
2B3
102
}
330
2B3
100
AcDbScale
 70
     0
300
1:16
140
1.0
141
16.0
290
     0
  0
SCALE
  5
2BB
102
{ACAD_REACTORS
330
2B3
102
}
330
2B3
100
AcDbScale
 70
     0
300
1:20
140
1.0
141
20.0
290
     0
  0
SCALE
  5
2BC
102
{ACAD_REACTORS
330
2B3
102
}
330
2B3
100
AcDbScale
 70
     0
300
1:30
140
1.0
141
30.0
290
     0
  0
SCALE
  5
2BD
102
{ACAD_REACTORS
330
2B3
102
}
330
2B3
100
AcDbScale
 70
     0
300
1:40
140
1.0
141
40.0
290
     0
  0
SCALE
  5
2BE
102
{ACAD_REACTORS
330
2B3
102
}
330
2B3
100
AcDbScale
 70
     0
300
1:50
140
1.0
141
50.0
290
     0
  0
SCALE
  5
2BF
102
{ACAD_REACTORS
330
2B3
102
}
330
2B3
100
AcDbScale
 70
     0
300
1:100
140
1.0
141
100.0
290
     0
  0
SCALE
  5
2C0
102
{ACAD_REACTORS
330
2B3
102
}
330
2B3
100
AcDbScale
 70
     0
300
2:1
140
2.0
141
1.0
290
     0
  0
SCALE
  5
2C1
102
{ACAD_REACTORS
330
2B3
102
}
330
2B3
100
AcDbScale
 70
     0
300
4:1
140
4.0
141
1.0
290
     0
  0
SCALE
  5
2C2
102
{ACAD_REACTORS
330
2B3
102
}
330
2B3
100
AcDbScale
 70
     0
300
8:1
140
8.0
141
1.0
290
     0
  0
SCALE
  5
2C3
102
{ACAD_REACTORS
330
2B3
102
}
330
2B3
100
AcDbScale
 70
     0
300
10:1
140
10.0
141
1.0
290
     0
  0
SCALE
  5
2C4
102
{ACAD_REACTORS
330
2B3
102
}
330
2B3
100
AcDbScale
 70
     0
300
100:1
140
100.0
141
1.0
290
     0
  0
TABLESTYLE
  5
206
102
{ACAD_XDICTIONARY
360
696
102
}
102
{ACAD_REACTORS
330
205
102
}
330
205
100
AcDbTableStyle
  3
Standard
 70
     0
 71
     0
 40
1.5
 41
1.5
280
     0
281
     0
  7
MX_NOTE_STANDARD
140
4.5
170
     2
 62
     0
 63
     7
283
     0
274
    -2
284
     1
 64
     0
275
    -2
285
     1
 65
     0
276
    -2
286
     1
 66
     0
277
    -2
287
     1
 67
     0
278
    -2
288
     1
 68
     0
279
    -2
289
     1
 69
     0
  7
MX_NOTE_STANDARD
140
6.0
170
     5
 62
     0
 63
     7
283
     0
274
    -2
284
     1
 64
     0
275
    -2
285
     1
 65
     0
276
    -2
286
     1
 66
     0
277
    -2
287
     1
 67
     0
278
    -2
288
     1
 68
     0
279
    -2
289
     1
 69
     0
  7
MX_NOTE_STANDARD
140
4.5
170
     5
 62
     0
 63
     7
283
     0
274
    -2
284
     1
 64
     0
275
    -2
285
     1
 65
     0
276
    -2
286
     1
 66
     0
277
    -2
287
     1
 67
     0
278
    -2
288
     1
 68
     0
279
    -2
289
     1
 69
     0
  0
VISUALSTYLE
  5
1F9
102
{ACAD_XDICTIONARY
360
89E
102
}
102
{ACAD_REACTORS
330
1F3
102
}
330
1F3
100
AcDbVisualStyle
  2
2dWireframe
 70
     4
 71
     0
 72
     2
 73
     0
 90
        0
 40
-0.6
 41
-30.0
 62
     5
 63
     7
 74
     1
 91
        4
 64
     7
 65
   257
 75
     1
175
     1
 42
1.0
 92
        0
 66
   257
 43
1.0
 76
     1
 77
     6
 78
     2
 67
     7
 79
     5
170
     0
171
     0
290
     0
174
     0
 93
        1
 44
0.0
173
     0
291
     0
 45
0.0
1001
ACAD
1000
AcDbSavedByObjectVersion
1070
     0
  0
VISUALSTYLE
  5
1FB
102
{ACAD_XDICTIONARY
360
8A2
102
}
102
{ACAD_REACTORS
330
1F3
102
}
330
1F3
100
AcDbVisualStyle
  2
3D Hidden
 70
     6
 71
     1
 72
     2
 73
     2
 90
        0
 40
-0.6
 41
-30.0
 62
     5
 63
     7
 74
     2
 91
        2
 64
     7
 65
   257
 75
     2
175
     1
 42
40.0
 92
        0
 66
   257
 43
1.0
 76
     1
 77
     6
 78
     2
 67
     7
 79
     3
170
     0
171
     0
290
     0
174
     0
 93
        1
 44
0.0
173
     0
291
     0
 45
0.0
1001
ACAD
1000
AcDbSavedByObjectVersion
1070
     0
  0
VISUALSTYLE
  5
1FA
102
{ACAD_XDICTIONARY
360
8A0
102
}
102
{ACAD_REACTORS
330
1F3
102
}
330
1F3
100
AcDbVisualStyle
  2
3dWireframe
 70
     5
 71
     0
 72
     2
 73
     0
 90
        0
 40
-0.6
 41
-30.0
 62
     5
 63
     7
 74
     1
 91
        4
 64
     7
 65
   257
 75
     1
175
     1
 42
1.0
 92
        0
 66
   257
 43
1.0
 76
     1
 77
     6
 78
     2
 67
     7
 79
     5
170
     0
171
     0
290
     0
174
     0
 93
        1
 44
0.0
173
     0
291
     0
 45
0.0
1001
ACAD
1000
AcDbSavedByObjectVersion
1070
     0
  0
VISUALSTYLE
  5
1F8
102
{ACAD_XDICTIONARY
360
89C
102
}
102
{ACAD_REACTORS
330
1F3
102
}
330
1F3
100
AcDbVisualStyle
  2
Basic
 70
     7
 71
     1
 72
     0
 73
     1
 90
        0
 40
-0.6
 41
-30.0
 62
     5
 63
     7
 74
     0
 91
        4
 64
     7
 65
   257
 75
     1
175
     1
 42
1.0
 92
        8
 66
     7
 43
1.0
 76
     1
 77
     6
 78
     2
 67
     7
 79
     5
170
     0
171
     0
290
     0
174
     0
 93
        1
 44
0.0
173
     0
291
     1
 45
0.0
1001
ACAD
1000
AcDbSavedByObjectVersion
1070
     0
  0
VISUALSTYLE
  5
1FF
102
{ACAD_XDICTIONARY
360
8AA
102
}
102
{ACAD_REACTORS
330
1F3
102
}
330
1F3
100
AcDbVisualStyle
  2
Brighten
 70
    12
 71
     2
 72
     2
 73
     0
 90
        0
 40
-0.6
 41
-30.0
 62
     5
 63
     7
 74
     1
 91
        4
 64
     7
 65
   257
 75
     1
175
     1
 42
1.0
 92
        8
 66
     7
 43
1.0
 76
     1
 77
     6
 78
     2
 67
     7
 79
     5
170
     0
171
     0
290
     0
174
     0
 93
        1
 44
50.0
173
     0
291
     1
 45
0.0
1001
ACAD
1000
AcDbSavedByObjectVersion
1070
     0
  0
VISUALSTYLE
  5
203
102
{ACAD_XDICTIONARY
360
8B2
102
}
102
{ACAD_REACTORS
330
1F3
102
}
330
1F3
100
AcDbVisualStyle
  2
ColorChange
 70
    16
 71
     2
 72
     2
 73
     3
 90
        0
 40
-0.6
 41
-30.0
 62
     5
 63
     8
 74
     1
 91
        4
 64
     7
 65
   257
 75
     1
175
     1
 42
1.0
 92
        8
 66
     8
 43
1.0
 76
     1
 77
     6
 78
     2
 67
     7
 79
     5
170
     0
171
     0
290
     0
174
     0
 93
        1
 44
0.0
173
     0
291
     1
 45
0.0
1001
ACAD
1000
AcDbSavedByObjectVersion
1070
     0
  0
VISUALSTYLE
  5
1FC
102
{ACAD_XDICTIONARY
360
8A4
102
}
102
{ACAD_REACTORS
330
1F3
102
}
330
1F3
100
AcDbVisualStyle
  2
Conceptual
 70
     9
 71
     3
 72
     2
 73
     0
 90
        0
 40
-0.6
 41
-30.0
 62
     5
 63
     7
 74
     2
 91
        2
 64
     7
 65
   257
 75
     1
175
     1
 42
40.0
 92
        8
 66
     7
 43
1.0
 76
     1
 77
     6
 78
     2
 67
     7
 79
     3
170
     0
171
     0
290
     0
174
     0
 93
        1
 44
0.0
173
     0
291
     0
 45
0.0
1001
ACAD
1000
AcDbSavedByObjectVersion
1070
     0
  0
VISUALSTYLE
  5
1FE
102
{ACAD_XDICTIONARY
360
8A8
102
}
102
{ACAD_REACTORS
330
1F3
102
}
330
1F3
100
AcDbVisualStyle
  2
Dim
 70
    11
 71
     2
 72
     2
 73
     0
 90
        0
 40
-0.6
 41
-30.0
 62
     5
 63
     7
 74
     1
 91
        4
 64
     7
 65
   257
 75
     1
175
     1
 42
1.0
 92
        8
 66
     7
 43
1.0
 76
     1
 77
     6
 78
     2
 67
     7
 79
     5
170
     0
171
     0
290
     0
174
     0
 93
        1
 44
-50.0
173
     0
291
     1
 45
0.0
1001
ACAD
1000
AcDbSavedByObjectVersion
1070
     0
  0
VISUALSTYLE
  5
2B2
102
{ACAD_XDICTIONARY
360
8BA
102
}
102
{ACAD_REACTORS
330
1F3
102
}
330
1F3
100
AcDbVisualStyle
  2
EdgeColorOff
 70
    22
 71
     2
 72
     2
 73
     0
 90
        0
 40
-0.6
 41
-30.0
 62
     5
 63
     7
 74
     1
 91
        4
 64
     7
 65
   257
 75
     1
175
     1
 42
1.0
 92
        8
 66
     7
 43
1.0
 76
     1
 77
     6
 78
     2
 67
     7
 79
     5
170
     0
171
     0
290
     0
174
     0
 93
        1
 44
0.0
173
     0
291
     1
 45
0.0
1001
ACAD
1000
AcDbSavedByObjectVersion
1070
     0
  0
VISUALSTYLE
  5
202
102
{ACAD_XDICTIONARY
360
8B0
102
}
102
{ACAD_REACTORS
330
1F3
102
}
330
1F3
100
AcDbVisualStyle
  2
Facepattern
 70
    15
 71
     2
 72
     2
 73
     0
 90
        0
 40
-0.6
 41
-30.0
 62
     5
 63
     7
 74
     1
 91
        4
 64
     7
 65
   257
 75
     1
175
     1
 42
1.0
 92
        8
 66
     7
 43
1.0
 76
     1
 77
     6
 78
     2
 67
     7
 79
     5
170
     0
171
     0
290
     0
174
     0
 93
        1
 44
0.0
173
     0
291
     1
 45
0.0
1001
ACAD
1000
AcDbSavedByObjectVersion
1070
     0
  0
VISUALSTYLE
  5
1F4
102
{ACAD_XDICTIONARY
360
894
102
}
102
{ACAD_REACTORS
330
1F3
102
}
330
1F3
100
AcDbVisualStyle
  2
Flat
 70
     0
 71
     2
 72
     1
 73
     1
 90
        2
 40
-0.6
 41
30.0
 62
     5
 63
     7
 74
     0
 91
        4
 64
     7
 65
   257
 75
     1
175
     1
 42
1.0
 92
        8
 66
     7
 43
1.0
 76
     1
 77
     6
 78
     2
 67
     7
 79
     5
170
     0
171
     0
290
     0
174
     0
 93
       13
 44
0.0
173
     0
291
     1
 45
0.0
1001
ACAD
1000
AcDbSavedByObjectVersion
1070
     0
  0
VISUALSTYLE
  5
1F5
102
{ACAD_XDICTIONARY
360
896
102
}
102
{ACAD_REACTORS
330
1F3
102
}
330
1F3
100
AcDbVisualStyle
  2
FlatWithEdges
 70
     1
 71
     2
 72
     1
 73
     1
 90
        2
 40
-0.6
 41
30.0
 62
     5
 63
     7
 74
     1
 91
        4
 64
     7
 65
   257
 75
     1
175
     1
 42
1.0
 92
        0
 66
   257
 43
1.0
 76
     1
 77
     6
 78
     2
 67
     7
 79
     5
170
     0
171
     0
290
     0
174
     0
 93
       13
 44
0.0
173
     0
291
     1
 45
0.0
1001
ACAD
1000
AcDbSavedByObjectVersion
1070
     0
  0
VISUALSTYLE
  5
1F6
102
{ACAD_XDICTIONARY
360
898
102
}
102
{ACAD_REACTORS
330
1F3
102
}
330
1F3
100
AcDbVisualStyle
  2
Gouraud
 70
     2
 71
     2
 72
     2
 73
     1
 90
        2
 40
-0.6
 41
30.0
 62
     5
 63
     7
 74
     0
 91
        4
 64
     7
 65
   257
 75
     1
175
     1
 42
1.0
 92
        0
 66
     7
 43
1.0
 76
     1
 77
     6
 78
     2
 67
     7
 79
     5
170
     0
171
     0
290
     0
174
     0
 93
       13
 44
0.0
173
     0
291
     1
 45
0.0
1001
ACAD
1000
AcDbSavedByObjectVersion
1070
     0
  0
VISUALSTYLE
  5
1F7
102
{ACAD_XDICTIONARY
360
89A
102
}
102
{ACAD_REACTORS
330
1F3
102
}
330
1F3
100
AcDbVisualStyle
  2
GouraudWithEdges
 70
     3
 71
     2
 72
     2
 73
     1
 90
        2
 40
-0.6
 41
30.0
 62
     5
 63
     7
 74
     1
 91
        4
 64
     7
 65
   257
 75
     1
175
     1
 42
1.0
 92
        0
 66
   257
 43
1.0
 76
     1
 77
     6
 78
     2
 67
     7
 79
     5
170
     0
171
     0
290
     0
174
     0
 93
       13
 44
0.0
173
     0
291
     1
 45
0.0
1001
ACAD
1000
AcDbSavedByObjectVersion
1070
     0
  0
VISUALSTYLE
  5
2B0
102
{ACAD_XDICTIONARY
360
8B6
102
}
102
{ACAD_REACTORS
330
1F3
102
}
330
1F3
100
AcDbVisualStyle
  2
JitterOff
 70
    20
 71
     2
 72
     2
 73
     0
 90
        0
 40
-0.6
 41
-30.0
 62
     5
 63
     7
 74
     1
 91
        4
 64
     7
 65
   257
 75
     1
175
     1
 42
1.0
 92
       10
 66
     7
 43
1.0
 76
     1
 77
     6
 78
     2
 67
     7
 79
     5
170
     0
171
     0
290
     0
174
     0
 93
        1
 44
0.0
173
     0
291
     1
 45
0.0
1001
ACAD
1000
AcDbSavedByObjectVersion
1070
     0
  0
VISUALSTYLE
  5
201
102
{ACAD_XDICTIONARY
360
8AE
102
}
102
{ACAD_REACTORS
330
1F3
102
}
330
1F3
100
AcDbVisualStyle
  2
Linepattern
 70
    14
 71
     2
 72
     2
 73
     0
 90
        0
 40
-0.6
 41
-30.0
 62
     5
 63
     7
 74
     1
 91
        4
 64
     7
 65
   257
 75
     7
175
     7
 42
1.0
 92
        8
 66
     7
 43
1.0
 76
     1
 77
     6
 78
     2
 67
     7
 79
     5
170
     0
171
     0
290
     0
174
     0
 93
        1
 44
0.0
173
     0
291
     1
 45
0.0
1001
ACAD
1000
AcDbSavedByObjectVersion
1070
     0
  0
VISUALSTYLE
  5
2B1
102
{ACAD_XDICTIONARY
360
8B8
102
}
102
{ACAD_REACTORS
330
1F3
102
}
330
1F3
100
AcDbVisualStyle
  2
OverhangOff
 70
    21
 71
     2
 72
     2
 73
     0
 90
        0
 40
-0.6
 41
-30.0
 62
     5
 63
     7
 74
     1
 91
        4
 64
     7
 65
   257
 75
     1
175
     1
 42
1.0
 92
        9
 66
     7
 43
1.0
 76
     1
 77
     6
 78
     2
 67
     7
 79
     5
170
     0
171
     0
290
     0
174
     0
 93
        1
 44
0.0
173
     0
291
     1
 45
0.0
1001
ACAD
1000
AcDbSavedByObjectVersion
1070
     0
  0
VISUALSTYLE
  5
1FD
102
{ACAD_XDICTIONARY
360
8A6
102
}
102
{ACAD_REACTORS
330
1F3
102
}
330
1F3
100
AcDbVisualStyle
  2
Realistic
 70
     8
 71
     2
 72
     2
 73
     0
 90
        0
 40
-0.6
 41
-30.0
 62
     5
 63
     7
 74
     1
 91
        0
 64
     7
 65
   257
 75
     1
175
     1
 42
1.0
 92
        8
 66
     8
 43
1.0
 76
     1
 77
     6
 78
     2
 67
     7
 79
     5
170
     0
171
     0
290
     0
174
     0
 93
       13
 44
0.0
173
     0
291
     0
 45
0.0
1001
ACAD
1000
AcDbSavedByObjectVersion
1070
     0
  0
VISUALSTYLE
  5
200
102
{ACAD_XDICTIONARY
360
8AC
102
}
102
{ACAD_REACTORS
330
1F3
102
}
330
1F3
100
AcDbVisualStyle
  2
Thicken
 70
    13
 71
     2
 72
     2
 73
     0
 90
        0
 40
-0.6
 41
-30.0
 62
     5
 63
     7
 74
     1
 91
        4
 64
     7
 65
   257
 75
     1
175
     1
 42
1.0
 92
       12
 66
     7
 43
1.0
 76
     1
 77
     6
 78
     2
 67
     7
 79
     5
170
     0
171
     0
290
     0
174
     0
 93
        1
 44
0.0
173
     0
291
     1
 45
0.0
1001
ACAD
1000
AcDbSavedByObjectVersion
1070
     0
  0
DICTIONARYVAR
  5
2F1
102
{ACAD_REACTORS
330
2AD
102
}
330
2AD
100
DictionaryVariables
280
     0
  1
1:1
  0
DICTIONARYVAR
  5
2EF
102
{ACAD_REACTORS
330
2AD
102
}
330
2AD
100
DictionaryVariables
280
     0
  1
STANDARD
  0
DICTIONARYVAR
  5
2AE
102
{ACAD_REACTORS
330
2AD
102
}
330
2AD
100
DictionaryVariables
280
     0
  1
STANDARD
  0
DICTIONARYVAR
  5
884
102
{ACAD_REACTORS
330
2AD
102
}
330
2AD
100
DictionaryVariables
280
     0
  1
1
  0
DICTIONARYVAR
  5
882
102
{ACAD_REACTORS
330
2AD
102
}
330
2AD
100
DictionaryVariables
280
     0
  1
0
  0
DICTIONARYVAR
  5
2F3
102
{ACAD_REACTORS
330
2AD
102
}
330
2AD
100
DictionaryVariables
280
     0
  1
1
  0
DICTIONARYVAR
  5
2F4
102
{ACAD_REACTORS
330
2AD
102
}
330
2AD
100
DictionaryVariables
280
     0
  1
15
  0
DICTIONARYVAR
  5
2F2
102
{ACAD_REACTORS
330
2AD
102
}
330
2AD
100
DictionaryVariables
280
     0
  1
0
  0
DICTIONARYVAR
  5
885
102
{ACAD_REACTORS
330
2AD
102
}
330
2AD
100
DictionaryVariables
280
     0
  1
1.570796
  0
DICTIONARYVAR
  5
886
102
{ACAD_REACTORS
330
2AD
102
}
330
2AD
100
DictionaryVariables
280
     0
  1
1.570796
  0
DICTIONARYVAR
  5
887
102
{ACAD_REACTORS
330
2AD
102
}
330
2AD
100
DictionaryVariables
280
     0
  1
-122.394000
  0
DICTIONARYVAR
  5
2F0
102
{ACAD_REACTORS
330
2AD
102
}
330
2AD
100
DictionaryVariables
280
     0
  1
0
  0
DICTIONARYVAR
  5
881
102
{ACAD_REACTORS
330
2AD
102
}
330
2AD
100
DictionaryVariables
280
     0
  1
127
  0
DICTIONARYVAR
  5
883
102
{ACAD_REACTORS
330
2AD
102
}
330
2AD
100
DictionaryVariables
280
     0
  1
0
  0
DICTIONARY
  5
270
102
{ACAD_REACTORS
330
265
102
}
330
265
100
AcDbDictionary
281
     1
  0
XRECORD
  5
28F
102
{ACAD_REACTORS
330
265
102
}
330
265
100
AcDbXrecord
280
     1
 90
-1023410169
  0
XRECORD
  5
2E2
102
{ACAD_REACTORS
330
2E0
102
}
330
2E0
100
AcDbXrecord
280
     1
330
1B7
330
1DD
330
0
330
0
330
0
330
0
330
0
330
0
330
0
330
0
330
D9
330
DA
330
0
330
0
330
0
330
0
  0
DICTIONARY
  5
88C
330
21
100
AcDbDictionary
280
     1
281
     1
  3
ACAD_XREC_ROUNDTRIP
360
88D
  0
DICTIONARY
  5
31E
330
20
100
AcDbDictionary
280
     1
281
     1
  3
ACAD_XREC_ROUNDTRIP
360
88B
  3
ADSK_XREC_LAYOUTTHUMBNAIL
360
31F
  0
DICTIONARY
  5
890
330
1F1
100
AcDbDictionary
280
     1
281
     1
  3
ACAD_XREC_ROUNDTRIP
360
891
  0
DICTIONARY
  5
88E
330
1F0
100
AcDbDictionary
280
     1
281
     1
  3
ACAD_XREC_ROUNDTRIP
360
88F
  0
DICTIONARY
  5
892
330
1F2
100
AcDbDictionary
280
     1
281
     1
  3
ACAD_XREC_ROUNDTRIP
360
893
  0
DICTIONARY
  5
696
330
206
100
AcDbDictionary
280
     1
281
     1
  3
ACAD_ROUNDTRIP_2008_TABLESTYLE_CELLSTYLEMAP
360
888
  3
ACAD_XREC_ROUNDTRIP
360
8B4
  0
DICTIONARY
  5
89E
330
1F9
100
AcDbDictionary
280
     1
281
     1
  3
ACAD_XREC_ROUNDTRIP
360
89F
  0
DICTIONARY
  5
8A2
330
1FB
100
AcDbDictionary
280
     1
281
     1
  3
ACAD_XREC_ROUNDTRIP
360
8A3
  0
DICTIONARY
  5
8A0
330
1FA
100
AcDbDictionary
280
     1
281
     1
  3
ACAD_XREC_ROUNDTRIP
360
8A1
  0
DICTIONARY
  5
89C
330
1F8
100
AcDbDictionary
280
     1
281
     1
  3
ACAD_XREC_ROUNDTRIP
360
89D
  0
DICTIONARY
  5
8AA
330
1FF
100
AcDbDictionary
280
     1
281
     1
  3
ACAD_XREC_ROUNDTRIP
360
8AB
  0
DICTIONARY
  5
8B2
330
203
100
AcDbDictionary
280
     1
281
     1
  3
ACAD_XREC_ROUNDTRIP
360
8B3
  0
DICTIONARY
  5
8A4
330
1FC
100
AcDbDictionary
280
     1
281
     1
  3
ACAD_XREC_ROUNDTRIP
360
8A5
  0
DICTIONARY
  5
8A8
330
1FE
100
AcDbDictionary
280
     1
281
     1
  3
ACAD_XREC_ROUNDTRIP
360
8A9
  0
DICTIONARY
  5
8BA
330
2B2
100
AcDbDictionary
280
     1
281
     1
  3
ACAD_XREC_ROUNDTRIP
360
8BB
  0
DICTIONARY
  5
8B0
330
202
100
AcDbDictionary
280
     1
281
     1
  3
ACAD_XREC_ROUNDTRIP
360
8B1
  0
DICTIONARY
  5
894
330
1F4
100
AcDbDictionary
280
     1
281
     1
  3
ACAD_XREC_ROUNDTRIP
360
895
  0
DICTIONARY
  5
896
330
1F5
100
AcDbDictionary
280
     1
281
     1
  3
ACAD_XREC_ROUNDTRIP
360
897
  0
DICTIONARY
  5
898
330
1F6
100
AcDbDictionary
280
     1
281
     1
  3
ACAD_XREC_ROUNDTRIP
360
899
  0
DICTIONARY
  5
89A
330
1F7
100
AcDbDictionary
280
     1
281
     1
  3
ACAD_XREC_ROUNDTRIP
360
89B
  0
DICTIONARY
  5
8B6
330
2B0
100
AcDbDictionary
280
     1
281
     1
  3
ACAD_XREC_ROUNDTRIP
360
8B7
  0
DICTIONARY
  5
8AE
330
201
100
AcDbDictionary
280
     1
281
     1
  3
ACAD_XREC_ROUNDTRIP
360
8AF
  0
DICTIONARY
  5
8B8
330
2B1
100
AcDbDictionary
280
     1
281
     1
  3
ACAD_XREC_ROUNDTRIP
360
8B9
  0
DICTIONARY
  5
8A6
330
1FD
100
AcDbDictionary
280
     1
281
     1
  3
ACAD_XREC_ROUNDTRIP
360
8A7
  0
DICTIONARY
  5
8AC
330
200
100
AcDbDictionary
280
     1
281
     1
  3
ACAD_XREC_ROUNDTRIP
360
8AD
  0
XRECORD
  5
88D
102
{ACAD_REACTORS
330
88C
102
}
330
88C
100
AcDbXrecord
280
     1
102
SHADEPLOT
 70
     0
102
SHADEPLOTRESLEVEL
 70
     2
102
SHADEPLOTCUSTOMDPI
 70
   300
  0
XRECORD
  5
88B
102
{ACAD_REACTORS
330
31E
102
}
330
31E
100
AcDbXrecord
280
     1
102
SHADEPLOT
 70
     0
102
SHADEPLOTRESLEVEL
 70
     2
102
SHADEPLOTCUSTOMDPI
 70
   300
  0
XRECORD
  5
31F
102
{ACAD_REACTORS
330
31E
102
}
330
31E
100
AcDbXrecord
280
     1
310
280000000001000085000000010008000000000000850000000000000000000000010000000000000000000000000000FFFFFF000000000000000000000000000000000000000000000000000000000000000000330000006600000099000000CC000000FF00000000330000333300006633000099330000CC330000FF3300
310
0000660000336600006666000099660000CC660000FF66000000990000339900006699000099990000CC990000FF99000000CC000033CC000066CC000099CC0000CCCC0000FFCC000000FF000033FF000066FF000099FF0000CCFF0000FFFF000000003300330033006600330099003300CC003300FF003300003333003333
310
33006633330099333300CC333300FF33330000663300336633006666330099663300CC663300FF66330000993300339933006699330099993300CC993300FF99330000CC330033CC330066CC330099CC3300CCCC3300FFCC330000FF330033FF330066FF330099FF3300CCFF3300FFFF330000006600330066006600660099
310
006600CC006600FF00660000336600333366006633660099336600CC336600FF33660000666600336666006666660099666600CC666600FF66660000996600339966006699660099996600CC996600FF99660000CC660033CC660066CC660099CC6600CCCC6600FFCC660000FF660033FF660066FF660099FF6600CCFF6600
310
FFFF660000009900330099006600990099009900CC009900FF00990000339900333399006633990099339900CC339900FF33990000669900336699006666990099669900CC669900FF66990000999900339999006699990099999900CC999900FF99990000CC990033CC990066CC990099CC9900CCCC9900FFCC990000FF99
310
0033FF990066FF990099FF9900CCFF9900FFFF99000000CC003300CC006600CC009900CC00CC00CC00FF00CC000033CC003333CC006633CC009933CC00CC33CC00FF33CC000066CC003366CC006666CC009966CC00CC66CC00FF66CC000099CC003399CC006699CC009999CC00CC99CC00FF99CC0000CCCC0033CCCC0066CC
310
CC0099CCCC00CCCCCC00FFCCCC0000FFCC0033FFCC0066FFCC0099FFCC00CCFFCC00FFFFCC000000FF003300FF006600FF009900FF00CC00FF00FF00FF000033FF003333FF006633FF009933FF00CC33FF00FF33FF000066FF003366FF006666FF009966FF00CC66FF00FF66FF000099FF003399FF006699FF009999FF00CC
310
99FF00FF99FF0000CCFF0033CCFF0066CCFF0099CCFF00CCCCFF00FFCCFF0000FFFF0033FFFF0066FFFF0099FFFF00CCFFFF00FFFFFF00000000000D0D0D001A1A1A00282828003535350043434300505050005D5D5D006B6B6B00787878008686860093939300A1A1A100AEAEAE00BBBBBB00C9C9C900D6D6D600E4E4E400
310
F1F1F100FFFFFF0000000000000000000000000000000000000000000000000000000000000000000000000000000000E2E2E2E2E2E2E2E2E2E2E2E2E2E2E2E2E2E2E2E2E2E2E2E2E2E2E2E2E2E2E2E2E2E2E2E2E2E2E2E2E2E2E2E2E2E2E2E2E2E2E2E2E2E2E2E2E2E2E2E2E2E2E2E2E2E2E2E2E2E2E2E2E2E2E2E2E2E2E2
310
E2E2E2E2E2E2E2E2E2E2E2E2E2E2E2E2E2E2E2E2E2E2E2E2E2E2E2E2E2E2E2E2E2E2E2E2E2E2E2E2E2E2E2E2E2E2E2E2E2E2E2E2E2E2E2E2E2E2E2E2E2E2E2E2E2E2E2E2E2E2E2E2E2E2E2E2E2E2E2E2E2E2E2E2E2E2E2E2E2E2E2E2E2E2E2E2E2E2E2E2E2E2E2E2E2E2E2E2E2E2E2E2E2E2E2E2E2E2E2E2E2E2E2E2E2E2E2
310
E2E2E2E2E2E2E2E2E2E2E2E2E2E2E2E2E2E2E2E2E2E2E2E2E2E2E2E2E2E2E2E2E2E2E2E2E2E2E2E2E2E2E2E2E2E2E2E2E2E2E2E2E2E2E2E2E2E2E2E2E2E2E2E2E2E2E2E2E2E2E2E2E2E2E2E2E2E2E2E2E2E2E2E2E2E2E2E2E2E2E2E2E2E2E2E2E2E2E2E2E2E2E2E2E2E2E2E2E2E2E2E2E2E2E2E2E2E2E2E2E2E2E2E2E2E2E2
310
E2E2E2E2E2E2E2E2E2E2E2E2E2E2E2E2E2E2E2E2E2E2E2E2E2E2E2E2E2E2E2E2E2E2E2E2E2E2E2E2E2E2E2E2E2E2E2E2E2E2E2E2E2E2E2E2E2E2E2E2E2E2E2E2E2E2E2E2E2E2E2E2E2E2E2E2E2E2E2E2E2E2E2E2E2E2E2E2E2E2E2E2E2E2E2E2E2E2E2E2E2E2E2E2E2E2E2E2E2E2E2E2E2E2E2E2E2E2E2E2E2E2E2E2E2E2E2
310
E2E2E2E2E2E2E2E2E2E2E2E2E2E2E2E2E2E2E2E2E2E2E2E2E2E2E2E2E2E2E2E2E2E2E2E2E2E2E2E2E2E2E2E2E2E2E2E2E2E2E2E2E2E2E2E2E2E2E2E2E2E2E2E2E2E2E2E2E2E2E2E2E2E2E2E2E2E2E2E2E2E2E2E2E2E2E2E2E2E2E2E2E2E2E2E2E2E2E2E2E2E2E2E2E2E2E2E2E2E2E2E2E2E2E2E2E2E2E2E2E2E2E2E2E2E2E2
310
E2E2E2E2E2E2E2E2E2E2E2E2E2E2E2E2E2E2E2E2E2E2E2E2E2E2E2E2E2E2E2E2E2E2E2E2E2E2E2E2E2E2E2E2E2E2E2E2E2E2E2E2E2E2E2E2E2E2E2E2E2E2E2E2E2E2E2E2E2E2E2E2E2E2E2E2E2E2E2E2E2E2E2E2E2E2E2E2E2E2E2E2E2E2E2E2E2E2E2E2E2E2E2E2E2E2E2E2E2E2E2E2E2E2E2E2E2E2E2E2E2E2E2E2E2E2E2
310
E2E2E2E2E2E2E2E2E2E2E2E2E2E2E2E2E2E2E2E2E2E2E2E2E2E2E2E2E2E2E2E2E2E2E2E2E2E2E2E2E2E2E2E2E2E2E2E2E2E2E2E2E2E2E2E2E2E2E2E2E2E2E2E2E2E2E2E2E2E2E2E2E2E2E2E2E2E2E2E2E2E2E2E2E2E2E2E2E2E2E2E2E2E2E2E2E2E2E2E2E2E2E2E2E2E2E2E2E2E2E2E2E2E2E2E2E2E2E2E2E2E2E2E2E2E2E2
310
E2E2E2E2E2E2E2E2E2E2E2E2E2E2E2E2E2E2E2E2E2E2E2E2E2E2E2E2E2E2E2E2E2E2E2E2E2E2E2E2E2E2E2E2E2E2E2E2E2E2E2E2E2E2E2E2E2E2E2E2E2E2E2E2E2E2E2E2E2E2E2E2E2E2E2E2E2E2E2E2E2E2E2E2E2E2E2E2E2E2E2E2E2E2E2E2E2E2E2E2E2E2E2E2E2E2E2E2E2E2E2E2E2E2E2E2E2E2E2E2E2E2E2E2E2E2E2
310
E2E2E2E2E2E2E2E2E2E2E2E2E2E2E2E2E2E2E2E2E2E2E2E2E2E2E2E2E2E2E2E2E2E2E2E2E2E2E2E2E2E2E2E2E2E2E2E2E2E2E2E2E2E2E2E2E2E2E2E2E2E2E2E2E2E2E2E2E2E2E2E2E2E2E2E2E2E2E2E2E2E2E2E2E2E2E2E2E2E2E2E2E2E2E2E2E2E2E2E2E2E2E2E2E2E2E2E2E2E2E2E2E2E2E2E2E2E2E2E2E2E2E2E2E2E2E2
310
E2E2E2E2E2E2E2E2E2E2E2E2E2E2E2E2E2E2E2E2E2E2E2E2E2E2E2E2E2E2E2E2E2E2E2E2E2E2E2E2E2E2E2E2E2E2E2E2E2E2E2E2E2E2E2E2E2E2E2E2E2E2E2E2E2E2E2E2E2E2E2E2E2E2E2E2E2E2E2E2E2E2E2E2E2E2E2E2E2E2E2E2E2E2E2E2E2E2E2E2E2E2E2E2E2E2E2E2E2E2E2E2E2E2E2E2E2E2E2E2E2E2E2E2E2E2E2
310
E2E2E2E2E2E2E2E2E2E2E2E2E2E2E2E2E2E2E2E2E2E2E2E2E2E2E2E2E2E2E2E2E2E2E2E2E2E2E2E2E2E2E2E2E2E2E2E2E2E2E2E2E2E2E2E2E2E2E2E2E2E2E2E2E2E2E2E2E2E2E2E2E2E2E2E2E2E2E2E2E2E2E2E2E2E2E2E2E2E2E2E2E2E2E2E2E2E2E2E2E2E2E2E2E2E2E2E2E2E2E2E2E2E2E2E2E2E2E2E2E2E2E2E2E2E2E2
310
E2E2E2E2E2E2E2E2E2E2E2E2E2E2E2E2E2E2E2E2E2E2E2E2E2E2E2E2E2E2E2E2E2E2E2E2E2E2E2E2E2E2E2E2E2E2E2E2E2E2E2E2E2E2E2E2E2E2E2E2E2E2E2E2E2E2E2E2E2E2E2E2E2E2E2E2E2E2E2E2E2E2E2E2E2E2E2E2E2E2E2E2E2E2E2E2E2E2E2E2E2E2E2E2E2E2E2E2E2E2E2E2E2E2E2E2E2E2E2E2E2E2E2E2E2E2E2
310
E2E2E2E2E2E2E2E2E2E2E2E2E2E2E2E2E2E2E2E2E2E2E2E2E2E2E2E2E2E2E2E2E2E2E2E2E2E2E2E2E2E2E2E2E2E2E2E2E2E2E2E2E2E2E2E2E2E2E2E2E2E2E2E2E2E2E2E2E2E2E2E2E2E2E2E2E2E2E2E2E2E2E2E2E2E2E2E2E2E2E2E2E2E2E2E2E2E2E2E2E2E2E2E2E2E2E2E2E2E2E2E2E2E2E2E2E2E2E2E2E2E2E2E2E2E2E2
310
E2E2E2E2E2E2E2E2E2E2E2E2E2E2E2E2E2E2E2E2E2E2E2E2E2E2E2E2E2E2E2E2E2E2E2E2E2E2E2E2E2E2E2E2E2E2E2E2E2E2E2E2E2E2E2E2E2E2E2E2E2E2E2E2E2E2E2E2E2E2E2E2E2E2E2E2E2E2E2E2E2E2E2E2E2E2E2E2E2E2E2E2E2E2E2E2E2E2E2E2E2E2E2E2E2E2E2E2E2E2E2E2E2E2E2E2E2E2E2E2E2E2E2E2E2E2E2
310
E2E2E2E2E2E2E2E2E2E2E2E2E2E2E2E2E2E2E2E2E2E2E2E2E2E2E2E2E2E2E2E2E2E2E2E2E2E2E2E2E2E2E2E2E2E2E2E2E2E2E2E2E2E2E2E2E2E2E2E2E2E2E2E2E2E2E2E2E2E2E2E2E2E2E2E2E2E2E2E2E2E2E2E2E2E2E2E2E2E2E2E2E2E2E2E2E2E2E2E2E2E2E2E2E2E2E2E2E2E2E2E2E2E2E2E2E2E2E2E2E2E2E2E2E2E2E2
310
E2E2E2E2E2E2E2E2E2E2E2E2E2E2E2E2E2E2E2E2E2E2E2E2E2E2E2E2E2E2E2E2E2E2E2E2E2E2E2E2E2E2E2E2E2E2E2E2E2E2E2E2E2E2E2E2E2E2E2E2E2E2E2E2E2E2E2E2E2E2E2E2E2E2E2E2E2E2E2E2E2E2E2E2E2E2E2E2E2E2E2E2E2E2E2E2E2E2E2E2E2E2E2E2E2E2E2E2E2E2E2E2E2E2E2E2E2E2E2E2E2E2E2E2E2E2E2
310
E2E2E2E2E2E2E2E2E2E2E2E2E2E2E2E2E2E2E2E2E2E2E2E2E2E2E2E2E2E2E2E2E2E2E2E2E2E2E2E2E2E2E2E2E2E2E2E2E2E2E2E2E2E2E2E2E2E2E2E2E2E2E2E2E2E2E2E2E2E2E2E2E2E2E2E2E2E2E2E2E2E2E2E2E2E2E2E2E2E2E2E2E2E2E2E2E2E2E2E2E2E2E2E2E2E2E2E2E2E2E2E2E2E2E2E2E2E2E2E2E2E2E2E2E2E2E2
310
E2E2E2E2E2E2E2E2E2E2E2E2E2E2E2E2E2E2E2E2E2E2E2E2E2E2E2E2E2E2E2E2E2E2E2E2E2E2E2E2E2E2E2E2E2E2E2E2E2E2E2E2E2E2E2E2E2E2E2E2E2E2E2E2E2E2E2E2E2E2E2E2E2E2E2E2E2E2E2E2E2E2E2E2E2E2E2E2E2E2E2E2E2E2E2E2E2E2E2E2E2E2E2E2E2E2E2E2E2E2E2E2E2E2E2E2E2E2E2E2E2E2E2E2E2E2E2
310
E2E2E2E2E2E2E2E2E2E2E2E2E2E2E2E2E2E2E2E2E2E2E2E2E2E2E2E2E2E2E2E2E2E2E2E2E2E2E2E2E2E2E2E2E2E2E2E2E2E2E2E2E2E2E2E2E2E2E2E2E2E2E2E2E2E2E2E2E2E2E2E2E2E2E2E2E2E2E2E2E2E2E2E2E2E2E2E2E2E2E2E2E2E2E2E2E2E2E2E2E2E2E2E2E2E2E2E2E2E2E2E2E2E2E2E2E2E2E2E2E2E2E2E2E2E2E2
310
E2E2E2E2E2E2E2E2E2E2E2E2E2E2E2E2E2E2E2E2E2E2E2E2E2E2E2E2E2E2E2E2E2E2E2E2E2E2E2E2E2E2E2E2E2E2E2E2E2E2E2E2E2E2E2E2E2E2E2E2E2E2E2E2E2E2E2E2E2E2E2E2E2E2E2E2E2E2E2E2E2E2E2E2E2E2E2E2E2E2E2E2E2E2E2E2E2E2E2E2E2E2E2E2E2E2E2E2E2E2E2E2E2E2E2E2E2E2E2E2E2E2E2E2E2E2E2
310
E2E2E2E2E2E2E2E2E2E2E2E2E2E2E2E2E2E2E2E2E2E2E2E2E2E2E2E2E2E2E2E2E2E2E2E2E2E2E2E2E2E2E2E2E2E2E2E2E2E2E2E2E2E2E2E2E2E2E2E2E2E2E2E2E2E2E2E2E2E2E2E2E2E2E2E2E2E2E2E2E2E2E2E2E2E2E2E2E2E2E2E2E2E2E2E2E2E2E2E2E2E2E2E2E2E2E2E2E2E2E2E2E2E2E2E2E2E2E2E2E2E2E2E2E2E2E2
310
E2E2E2E2E2E2E2E2E2E2E2E2E2E2E2E2E2E2E2E2E2E2E2E2E2E2E2E2E2E2E2E2E2E2E2E2E2E2E2E2E2E2E2E2E2E2E2E2E2E2E2E2E2E2E2E2E2E2E2E2E2E2E2E2E2E2E2E2E2E2E2E2E2E2E2E2E2E2E2E2E2E2E2E2E2E2E2E2E2E2E2E2E2E2E2E2E2E2E2E2E2E2E2E2E2E2E2E2E2E2E2E2E2E2E2E2E2E2E2E2E2E2E2E2E2E2E2
310
E2E2E2E2E2E2E2E2E2E2E2E2E2E2E2E2E2E2E2E2E2E2E2E2E2E2E2E2E2E2E2E2E2E2E2E2E2E2E2E2E2E2E2E2E2E2E2E2E2E2E2E2E2E2E2E2E2E2E2E2E2E2E2E2E2E2E2E2E2E2E2E2E2E2E2E2E2E2E2E2E2E2E2E2E2E2E2E2E2E2E2E2E2E2E2E2E2E2E2E2E2E2E2E2E2E2E2E2E2E2E2E2E2E2E2E2E2E2E2E2E2E2E2E2E2E2E2
310
E2E2E2E2E2E2E2E2E2E2E2E2E2E2E2E2E2E2E2E2E2E2E2E2E2E2E2E2E2E2E2E2E2E2E2E2E2E2E2E2E2E2E2E2E2E2E2E2E2E2E2E2E2E2E2E2E2E2E2E2E2E2E2E2E2E2E2E2E2E2E2E2E2E2E2E2E2E2E2E2E2E2E2E2E2E2E2E2E2E2E2E2E2E2E2E2E2E2E2E2E2E2E2E2E2E2E2E2E2E2E2E2E2E2E2E2E2E2E2E2E2E2E2E2E2E2E2
310
E2E2E2E2E2E2E2E2E2E2E2E2E2E2E2E2E2E2E2E2E2E2E2E2E2E2E2E2E2E2E2E2E2E2E2E2E2E2E2E2E2E2E2E2E2E2E2E2E2E2E2E2E2E2E2E2E2E2E2E2E2E2E2E2E2E2E2E2E2E2E2E2E2E2E2E2E2E2E2E2E2E2E2E2E2E2E2E2E2E2E2E2E2E2E2E2E2E2E2E2E2E2E2E2E2E2E2E2E2E2E2E2E2E2E2E2E2E2E2E2E2E2E2E2E2E2E2
310
E2E2E2E2E2E2E2E2E2E2E2E2E2E2E2E2E2E2E2E2E2E2E2E2E2E2E2E2E2E2E2E2E2E2E2E2E2E2E2E2E2E2E2E2E2E2E2E2E2E2E2E2E2E2E2E2E2E2E2E2E2E2E2E2E2E2E2E2E2E2E2E2E2E2E2E2E2E2E2E2E2E2E2E2E2E2E2E2E2E2E2E2E2E2E2E2E2E2E2E2E2E2E2E2E2E2E2E2E2E2E2E2E2E2E2E2E2E2E2E2E2E2E2E2E2E2E2
310
E2E2E2E2E2E2E2E2E2E2E2E2E2E2E2E2E2E2E2E2E2E2E2E2E2E2E2E2E2E2E2E2E2E2E2E2E2E2E2E2E2E2E2E2E2E2E2E2E2E2E2E2E2E2E2E2E2E2E2E2E2E2E2E2E2E2E2E2E2E2E2E2E2E2E2E2E2E2E2E2E2E2E2E2E2E2E2E2E2E2E2E2E2E2E2E2E2E2E2E2E2E2E2E2E2E2E2E2E2E2E2E2E2E2E2E2E2E2E2E2E2E2E2E2E2E2E2
310
E2E2E2E2E2E2E2E2E2E2E2E2E2E2E2E2E2E2E2E2E2E2E2E2E2E2E2E2E2E2E2E2E2E2E2E2E2E2E2E2E2E2E2E2E2E2E2E2E2E2E2E2E2E2E2E2E2E2E2E2E2E2E2E2E2E2E2E2E2E2E2E2E2E2E2E2E2E2E2E2E2E2E2E2E2E2E2E2E2E2E2E2E2E2E2E2E2E2E2E2E2E2E2E2E2E2E2E2E2E2E2E2E2E2E2E2E2E2E2E2E2E2E2E2E2E2E2
310
E2E2E2E2E2E2E2E2E2E2E2E2E2E2E2E2E2E2E2E2E2E2E2E2E2E2E2E2E2E2E2E2E2E2E2E2E2E2E2E2E2E2E2E2E2E2E2E2E2E2E2E2E2E2E2E2E2E2E2E2E2E2E2E2E2E2E2E2E2E2E2E2E2E2E2E2E2E2E2E2E2E2E2E2E2E2E2E2E2E2E2E2E2E2E2E2E2E2E2E2E2E2E2E2E2E2E2E2E2E2E2E2E2E2E2E2E2E2E2E2E2E2E2E2E2E2E2
310
E2E2E2E2E2E2E2E2E2E2E2E2E2E2E2E2E2E2E2E2E2E2E2E2E2E2E2E2E2E2E2E2E2E2E2E2E2E2E2E2E2E2E2E2E2E2E2E2E2E2E2E2E2E2E2E22828282828282828282828282828282828282828282828282828282828282828282828282828282828282828282828282828282828282828282828282828282828282828282828
310
282828E2E2E2E2E2E2E2E2E2E2E2E2E2E2E2E2E2E2E2E2E2E2E2E2E2E2E2E2E2E2E2E2E2E2E2E2E2E2E2E2E2E2E2E2E2E2E2E2E2E2E2E2E2E2E2E2E2E2E2E2E2E2E2E2E2E2E2E2E2E2E2E2E2E2E2E2E2E2E2E2E2E2E2E2E2E2E2E2E2E2E2E2E2E2E2E2E2E2E2E2E2E2E2E2E2E2E2E2E2E2E2E2E2E2E2E2E2E2E2E2E2E2E2E2
310
E2E2E2E2E2E2E2E2E2E2E2E2E2E2E2E2E2E2E2E2E2E2E2E2E2E2E2E2E2E2E2E2E2E2E2E2E2E2E2E2E2E2E2E2E2E2E2E2E2E2E2E2E2E2E2E2E2E2E2E2E2E2E2E2E2E2E2E2E2E2E2E2E2E2E2E2E2E2E2E2E2E2E2E2E2E2E2E2E2E2E2E2E2E2E2E2E2E2E2E2E2E2E2E2E2E2E2E2E2E2E2E2E2E2E2E2E2E2E2E2E2E2E2E2E2E2E2
310
E2E2E2E228E2E2E2E2E2E2E2E2E2E2E2E2E2E2E2E2E2E2E2E2E2E2E2E2E2E2E2E2E2E2E2E2E2E2E2E2E2E2E2E2E2E2E2E2E2E2E2E2E2E2E2E2E2E2E2E2E2E2E2E2E2E2E2E2E2E2E2E2E2E2E2E2E2E2E2E2E2E2E2E2E2E2E2E2E2E2E2E2E2E2E2E2E2E2E2E2E2E2E2E2E2E2E2E2E2E2E2E2E2E2E2E2E2E2E2E2E2E2E2E2E2E2
310
E2E2E2E2E2E2E2E2E2E2E2E2E2E2E2E2E2E2E2E2E2E2E2E2E2E2E2E2E2E2E2E2E2E2E2E2E2E2E2E2E2E2E2E2E2E2E2E2E2E2E2E2E2E2E2E2E2E2E2E2E2E2E2E2E2E2E2E2E2E2E2E2E2E2E2E2E2E2E2E2E2E2E2E2E2E2E2E2E2E2E2E2E2E2E2E2E2E2E2E2E2E2E2E2E2E2E2E2E2E2E2E2E2E2E2E2E2E2E2E2E2E2E2E2E2E2E2
310
E2E2E2E2E2E228E2E2E2E2E2E2E2E2E2E2E2E2E2E2E2E2E2E2E2E2E2E2E2E2E2E2E2E2E2E2E2E2E2E2E2E2E2E2E2E2E2E2E2E2E2E2E2E2E2E2E2E2E2E2E2E2E2E2E2E2E2E2E2E2E2E2E2E2E2E2E2E2E2E2E2E2E2E2E2E2E2E2E2E2E2E2E2E2E2E2E2E2E2E2E2E2E2E2E2E2E2E2E2E2E2E2E2E2E2E2E2E2E2E2E2E2E2E2E2E2
310
E2E2E2E2E2E2E2E2E2E2E2E2E2E2E2E2E2E2E2E2E2E2E2E2E2E2E2E2E2E2E2E2E2E2E2E2E2E2E2E2E2E2E2E2E2E2E2E2E2E2E2E2E2E2E2E2E2E2E2E2E2E2E2E2E2E2E2E2E2E2E2E2E2E2E2E2E2E2E2E2E2E2E2E2E2E2E2E2E2E2E2E2E2E2E2E2E2E2E2E2E2E2E2E2E2E2E2E2E2E2E2E2E2E2E2E2E2E2E2E2E2E2E2E2E2E2E2
310
E2E2E2E2E2E2E2E228E2E2E2E2E2E2E2E2E2E2E2E2E2E2E2E2E2E2E2E2E2E2E2E2E2E2E2E2E2E2E2E2E2E2E2E2E2E2E2E2E2E2E2E2E2E2E2E2E2E2E2E2E2E2E2E2E2E2E2E2E2E2E2E2E2E2E2E2E2E2E2E2E2E2E2E2E2E2E2E2E2E2E2E2E2E2E2E2E2E2E2E2E2E2E2E2E2E2E2E2E2E2E2E2E2E2E2E2E2E2E2E2E2E2E2E2E2E2
310
E2E2E2E2E2E2E2E2E2E2E2E2E2E2E2E2E2E2E2E2E2E2E2E2E2E2E2E2E2E2E2E2E2E2E2E2E2E2E2E2E2E2E2E2E2E2E2E2E2E2E2E2E2E2E2E2E2E2E2E2E2E2E2E2E2E2E2E2E2E2E2E2E2E2E2E2E2E2E2E2E2E2E2E2E2E2E2E2E2E2E2E2E2E2E2E2E2E2E2E2E2E2E2E2E2E2E2E2E2E2E2E2E2E2E2E2E2E2E2E2E2E2E2E2E2E2E2
310
E2E2E2E2E2E2E2E2E2E228E2E2E2E2E2E2E2E2E2E2E2E2E2E2E2E2E2E2E2E2E2E2E2E2E2E2E2E2E2E2E2E2E2E2E2E2E2E2E2E2E2E2E2E2E2E2E2E2E2E2E2E2E2E2E2E2E2E2E2E2E2E2E2E2E2E2E2E2E2E2E2E2E2E2E2E2E2E2E2E2E2E2E2E2E2E2E2E2E2E2E2E2E2E2E2E2E2E2E2E2E2E2E2E2E2E2E2E2E2E2E2E2E2E2E2E2
310
E2E2E2E2E2E2E2E2E2E2E2E2E2E2E2E2E2E2E2E2E2E2E2E2E2E2E2E2E2E2E2E2E2E2E2E2E2E2E2E2E2E2E2E2E2E2E2E2E2E2E2E2E2E2E2E2E2E2E2E2E2E2E2E2E2E2E2E2E2E2E2E2E2E2E2E2E2E2E2E2E2E2E2E2E2E2E2E2E2E2E2E2E2E2E2E2E2E2E2E2E2E2E2E2E2E2E2E2E2E2E2E2E2E2E2E2E2E2E2E2E2E2E2E2E2E2E2
310
E2E2E2E2E2E2E2E2E2E2E2E228E2E2E2E2E2E2E2E2E2E2E2E2E2E2E2E2E2E2E2E2E2E2E2E2E2E2E2E2E2E2E2E2E2E2E2E2E2E2E2E2E2E2E2E2E2E2E2E2E2E2E2E2E2E2E2E2E2E2E2E2E2E2E2E2E2E2E2E2E2E2E2E2E2E2E2E2E2E2E2E2E2E2E2E2E2E2E2E2E2E2E2E2E2E2E2E2E2E2E2E2E2E2E2E2E2E2E2E2E2E2E2E2E2E2
310
E2E2E2E2E2E2E2E2E2E2E2E2E2E2E2E2E2E2E2E2E2E2E2E2E2E2E2E2E2E2E2E2E2E2E2E2E2E2E2E2E2E2E2E2E2E2E2E2E2E2E2E2E2E2E2E2E2E2E2E2E2E2E2E2E2E2E2E2E2E2E2E2E2E2E2E2BEBEBEBEBEBEBEBEBEBEBEBEBEBEBEBEBEBEBEBEBEBEBEBEBEBEBEBEBEBEBEBEBEBEBEBEBEBEBEBEBEBEBEBEBEBEBEBEBEBEBE
310
BEBEBEBEBEBEBEBEBEBEBEE2E2E228E2E2E2E2E2E2E2E2E2E2E2E2E2E2E2E2E2E2E2E2E2E2E2E2E2E2E2E2E2E2E2E2E2E2E2E2E2E2E2E2E2E2E2E2E2E2E2E2E2E2E2E2E2E2E2E2E2E2E2E2E2E2E2E2E2E2E2E2E2E2E2E2E2E2E2E2E2E2E2E2E2E2E2E2E2E2E2E2E2E2E2E2E2E2E2E2E2E2E2E2E2E2E2E2E2E2E2E2E2E2E2E2
310
E2E2E2E2E2E2E2E2E2E2E2E2E2E2E2E2E2E2E2E2E2E2E2E2E2E2E2E2E2E2E2E2E2E2E2E2E2E2E2E2E2E2E2E2E2E2E2E2E2E2E2E2E2E2E2E2E2E2E2E2E2E2E2E2E2E2E2E2E2E2E2E2E2E2E2E2E2E2BEF5F5F5F5F5F5F5F5F5F5F5F5F5F5F5F5F5F5F5F5F5F5F5F5F5F5F5F5F5F5F5F5F5F5F5F5F5F5F5F5F5F5F5F5F5F5F5F5
310
F5BEF5F5F5F5F5F5F5F5F5F5BEE2E2E228E2E2E2E2E2E2E2E2E2E2E2E2E2E2E2E2E2E2E2E2E2E2E2E2E2E2E2E2E2E2E2E2E2E2E2E2E2E2E2E2E2E2E2E2E2E2E2E2E2E2E2E2E2E2E2E2E2E2E2E2E2E2E2E2E2E2E2E2E2E2E2E2E2E2E2E2E2E2E2E2E2E2E2E2E2E2E2E2E2E2E2E2E2E2E2E2E2E2E2E2E2E2E2E2E2E2E2E2E2E2
310
E2E2E2E2E2E2E2E2E2E2E2E2E2E2E2E2E2E2E2E2E2E2E2E2E2E2E2E2E2E2E2E2E2E2E2E2E2E2E2E2E2E2E2E2E2E2E2E2E2E2E2E2E2E2E2E2E2E2E2E2E2E2E2E2E2E2E2E2E2E2E2E2E2E2E2E2E2E2E2E2BEE2F5F5F5F5F5F5F5F5F5F5F5F5F5F5F5F5F5F5F5F5F5F5F5F5F5F5F5F5F5F5F5F5F5F5F5F5F5F5F5F5F5F5F5F5F5
310
F5F5E2BEBEBEBEBEBEBEBEBEBEBEBEE2E2E228E2E2E2E2E2E2E2E2E2E2E2E2E2E2E2E2E2E2E2E2E2E2E2E2E2E2E2E2E2E2E2E2E2E2E2E2E2E2E2E2E2E2E2E2E2E2E2E2E2E2E2E2E2E2E2E2E2E2E2E2E2E2E2E2E2E2E2E2E2E2E2E2E2E2E2E2E2E2E2E2E2E2E2E2E2E2E2E2E2E2E2E2E2E2E2E2E2E2E2E2E2E2E2E2E2E2E2E2
310
E2E2E2E2E2E2E2E2E2E2E2E2E2E2E2E2E2E2E2E2E2E2E2E2E2E2E2E2E2E2E2E2E2E2E2E2E2E2E2E2E2E2E2E2E2E2E2E2E2E2E2E2E2E2E2E2E2E2E2E2E2E2E2E2E2E2E2E2E2E2E2E2E2E2E2E2E2E2E2E2E2E2BEE2F5F5F5F5F5F5F5F5F5F5F5F5F5F5E2F5E2F5F5F5F5F5F5F5F5F5F5F5F5F5F5F5F5E2F5F5F5F5F5F5F5F5F5
310
F5F5F5F5E2E2E2E2E2E2E2E2E2E2E2E2BEE2E2E228E2E2E2E2E2E2E2E2E2E2E2E2E2E2E2E2E2E2E2E2E2E2E2E2E2E2E2E2E2E2E2E2E2E2E2E2E2E2E2E2E2E2E2E2E2E2E2E2E2E2E2E2E2E2E2E2E2E2E2E2E2E2E2E2E2E2E2E2E2E2E2E2E2E2E2E2E2E2E2E2E2E2E2E2E2E2E2E2E2E2E2E2E2E2E2E2E2E2E2E2E2E2E2E2E2E2
310
E2E2E2E2E2E2E2E2E2E2E2E2E2E2E2E2E2E2E2E2E2E2E2E2E2E2E2E2E2E2E2E2E2E2E2E2E2E2E2E2E2E2E2E2E2E2E2E2E2E2E2E2E2E2E2E2E2E2E2E2E2E2E2E2E2E2E2E2E2E2E2E2E2E2E2E2E2E2E2E2E2E2E2E2BEE2E2E2E2E2E2E2E2E2E2E2E2E2E2E2E2E2E2E2E2E2E2E2E2E2E2E2E2E2E2E2E2E2E2E2E2E2E2E2E2E2E2
310
E2E2E2E2E2E2E2E2E2E2E2E2E2E2E2E2E2E2BEE2E2E228E2E2E2E2E2E2E2E2E2E2E2E2E2E2E2E2E2E2E2E2E2E2E2E2E2E2E2E2E2E2E2E2E2E2E2E2E2E2E2E2E2E2E2E2E2E2E2E2E2E2E2E2E2E2E2E2E2E2E2E2E2E2E2E2E2E2E2E2E2E2E2E2E2E2E2E2E2E2E2E2E2E2E2E2E2E2E2E2E2E2E2E2E2E2E2E2E2E2E2E2E2E2E2E2
310
E2E2E2E2E2E2E2E2E2E2E2E2E2E2E2E2E2E2E2E2E2E2E2E2E2E2E2E2E2E2E2E2E2E2E2E2E2E2E2E2E2E2E2E2E2E2E2E2E2E2E2E2E2E2E2E2E2E2E2E2E2E2E2E2E2E2E2E2E2E2E2E2E2E2E2E2E2E2E2E2E2E2E2E2E2E2BEE2E2E2E2E2E2E2E2E2E2E2E2E2E2E2E2E2E2E2E2E2E2E2E2E2E2E2E2E2E2F5E2E2E2E2E2E2E2E2E2
310
E2E2E2E2E2E2E2E2E2E2E2E2E2E2E2E2E2E2E2E2BEE2E2E228E2E2E2E2E2E2E2E2E2E2E2E2E2E2E2E2E2E2E2E2E2E2E2E2E2E2E2E2E2E2E2E2E2E2E2E2E2E2E2E2E2E2E2E2E2E2E2E2E2E2E2E2E2E2E2E2E2E2E2E2E2E2E2E2E2E2E2E2E2E2E2E2E2E2E2E2E2E2E2E2E2E2E2E2E2E2E2E2E2E2E2E2E2E2E2E2E2E2E2E2E2E2
310
E2E2E2E2E2E2E2E2E2E2E2E2E2E2E2E2E2E2E2E2E2E2E2E2E2E2E2E2E2E2E2E2E2E2E2E2E2E2E2E2E2E2E2E2E2E2E2E2E2E2E2E2E2E2E2E2E2E2E2E2E2E2E2E2E2E2E2E2E2E2E2E2E2E2E2E2E2E2E2E2E2E2E2E2E2E2E2E2BEE2E2E2E2E2E2E2E2E2E2E2E2E2E2E2E2E2E2E2E2E2E2E2E2E2E2E2E2F5F5F5F5F5E2E2E2E2E2
310
E2E2E2E2E2E2E2E2E2E2E2E2E2E2E2E2E2E2E2E2E2E2BEE2E2E228E2E2E2E2E2E2E2E2E2E2E2E2E2E2E2E2E2E2E2E2E2E2E2E2E2E2E2E2E2E2E2E2E2E2E2E2E2E2E2E2E2E2E2E2E2E2E2E2E2E2E2E2E2E2E2E2E2E2E2E2E2E2E2E2E2E2E2E2E2E2E2E2E2E2E2E2E2E2E2E2E2E2E2E2E2E2E2E2E2E2E2E2E2E2E2E2E2E2E2E2
310
E2E2E2E2E2E2E2E2E2E2E2E2E2E2E2E2E2E2E2E2E2E2E2E2E2E2E2E2E2E2E2E2E2E2E2E2E2E2E2E2E2E2E2E2E2E2E2E2E2E2E2E2E2E2E2E2E2E2E2E2E2E2E2E2E2E2E2E2E2E2E2E2E2E2E2E2E2E2E2E2E2E2E2E2E2E2E2E2E2E2BEE2E2E2E2E2E2E2E2E2E2E2E2E2E2E2E2E2E2E2E2E2E2E2E2E2F5F5F5F5E2F5E2F5F5F5F5
310
E2E2E2E2E2E2E2E2E2E2E2E2E2E2E2E2E2E2E2E2E2E2E2E2BEE2E2E228E2E2E2E2E2E2E2E2E2E2E2E2E2E2E2E2E2E2E2E2E2E2E2E2E2E2E2E2E2E2E2E2E2E2E2E2E2E2E2E2E2E2E2E2E2E2E2E2E2E2E2E2E2E2E2E2E2E2E2E2E2E2E2E2E2E2E2E2E2E2E2E2E2E2E2E2E2E2E2E2E2E2E2E2E2E2E2E2E2E2E2E2E2E2E2E2E2E2
310
E2E2E2E2E2E2E2E2E2E2E2E2E2E2E2E2E2E2E2E2E2E2E2E2E2E2E2E2E2E2E2E2E2E2E2E2E2E2E2E2E2E2E2E2E2E2E2E2E2E2E2E2E2E2E2E2E2E2E2E2E2E2E2E2E2E2E2E2E2E2E2E2E2E2E2E2E2E2E2E2E2E2E2E2E2E2E2E2E2E2E2E2BEE2E2E2E2E2E2E2E2E2E2E2E2E2E2E2E2E2E2E2E2E2E2E2E2E2F5F5E2E2E2F5E2E2E2
310
F5F5E2E2E2E2E2E2E2E2E2E2E2E2E2E2E2E2E2E2E2E2E2E2E2E2BEE2E2E228E2E2E2E2E2E2E2E2E2E2E2E2E2E2E2E2E2E2E2E2E2E2E2E2E2E2E2E2E2E2E2E2E2E2E2E2E2E2E2E2E2E2E2E2E2E2E2E2E2E2E2E2E2E2E2E2E2E2E2E2E2E2E2E2E2E2E2E2E2E2E2E2E2E2E2E2E2E2E2E2E2E2E2E2E2E2E2E2E2E2E2E2E2E2E2E2
310
E2E2E2E2E2E2E2E2E2E2E2E2E2E2E2E2E2E2E2E2E2E2E2E2E2E2E2E2E2E2E2E2E2E2E2E2E2E2E2E2E2E2E2E2E2E2E2E2E2E2E2E2E2E2E2E2E2E2E2E2E2E2E2E2E2E2E2E2E2E2E2E2E2E2E2E2E2E2E2E2E2E2E2E2E2E2E2E2E2E2E2E2E2E2BEE2E2E2E2E2E2E2E2E2E2E2E2E2E2E2E2E2E2E2E2E2E2E2E2E2F5E2E2E2E2F5E2
310
E2E2E2F5E2E2E2E2E2E2E2E2E2E2E2E2E2E2E2E2E2E2E2E2E2E2E2E2BEE2E2E228E2E2E2E2E2E2E2E2E2E2E2E2E2E2E2E2E2E2E2E2E2E2E2E2E2E2E2E2E2E2E2E2E2E2E2E2E2E2E2E2E2E2E2E2E2E2E2E2E2E2E2E2E2E2E2E2E2E2E2E2E2E2E2E2E2E2E2E2E2E2E2E2E2E2E2E2E2E2E2E2E2E2E2E2E2E2E2E2E2E2E2E2E2E2
310
E2E2E2E2E2E2E2E2E2E2E2E2E2E2E2E2E2E2E2E2E2E2E2E2E2E2E2E2E2E2E2E2E2E2E2E2E2E2E2E2E2E2E2E2E2E2E2E2E2E2E2E2E2E2E2E2E2E2E2E2E2E2E2E2E2E2E2E2E2E2E2E2E2E2E2E2E2E2E2E2E2E2E2E2E2E2E2E2E2E2E2E2E2E2E2E2BEE2E2E2E2E2E2E2E2E2E2E2E2E2E2E2E2E2E2E2E2E2E2E2E2F5F5E2E2E2E2
310
F5E2E2E2E2F5F5E2E2E2E2E2E2E2E2E2E2E2E2E2E2E2E2E2E2E2E2E2E2E2BEE2E2E228E2E2E2E2E2E2E2E2E2E2E2E2E2E2E2E2E2E2E2E2E2E2E2E2E2E2E2E2E2E2E2E2E2E2E2E2E2E2E2E2E2E2E2E2E2E2E2E2E2E2E2E2E2E2E2E2E2E2E2E2E2E2E2E2E2E2E2E2E2E2E2E2E2E2E2E2E2E2E2E2E2E2E2E2E2E2E2E2E2E2E2E2
310
E2E2E2E2E2E2E2E2E2E2E2E2E2E2E2E2E2E2E2E2E2E2E2E2E2E2E2E2E2E2E2E2E2E2E2E2E2E2E2E2E2E2E2E2E2E2E2E2E2E2E2E2E2E2E2E2E2E2E2E2E2E2E2E2E2E2E2E2E2E2E2E2E2E2E2E2E2E2E2E2E2E2E2E2E2E2E2E2E2E2E2E2E2E2E2E2E2E2BEE2E2E2E2E2E2E2E2E2E2E2E2E2E2E2E2E2E2E2E2E2E2E2E2F5E2E2E2
310
E2E2F5E2E2E2E2E2F5E2E2E2E2E2E2E2E2E2E2E2E2E2E2E2E2E2E2E2E2E2E2E2BEE2E2E228E2E2E2E2E2E2E2E2E2E2E2E2E2E2E2E2E2E2E2E2E2E2E2E2E2E2E2E2E2E2E2E2E2E2E2E2E2E2E2E2E2E2E2E2E2E2E2E2E2E2E2E2E2E2E2E2E2E2E2E2E2E2E2E2E2E2E2E2E2E2E2E2E2E2E2E2E2E2E2E2E2E2E2E2E2E2E2E2E2E2
310
E2E2E2E2E2E2E2E2E2E2E2E2E2E2E2E2E2E2E2E2E2E2E2E2E2E2E2E2E2E2E2E2E2E2E2E2E2E2E2E2E2E2E2E2E2E2E2E2E2E2E2E2E2E2E2E2E2E2E2E2E2E2E2E2E2E2E2E2E2E2E2E2E2E2E2E2E2E2E2E2E2E2E2E2E2E2E2E2E2E2E2E2E2E2E2E2E2E2E2E2BEE2E2E2E2E2E2E2E2E2E2E2E2E2E2E2E2E2E2E2E2E2E2E2F5F5F5
310
F5F5F5F5F5F5F5F5F5F5F5F5E2E2E2E2E2E2E2E2E2E2E2E2E2E2E2E2E2E2E2E2E2E2BEE2E2E228E2E2E2E2E2E2E2E2E2E2E2E2E2E2E2E2E2E2E2E2E2E2E2E2E2E2E2E2E2E2E2E2E2E2E2E2E2E2E2E2E2E2E2E2E2E2E2E2E2E2E2E2E2E2E2E2E2E2E2E2E2E2E2E2E2E2E2E2E2E2E2E2E2E2E2E2E2E2E2E2E2E2E2E2E2E2E2E2
310
E2E2E2E2E2E2E2E2E2E2E2E2E2E2E2E2E2E2E2E2E2E2E2E2E2E2E2E2E2E2E2E2E2E2E2E2E2E2E2E2E2E2E2E2E2E2E2E2E2E2E2E2E2E2E2E2E2E2E2E2E2E2E2E2E2E2E2E2E2E2E2E2E2E2E2E2E2E2E2E2E2E2E2E2E2E2E2E2E2E2E2E2E2E2E2E2E2E2E2E2E2E2BEE2E2E2E2E2E2E2E2E2E2E2E2E2E2E2E2E2E2E2E2E2E2E2E2
310
E2E2E2E2E2E2F5E2E2E2E2E2E2E2E2E2E2F5F5F5F5F5F5F5F5F5F5F5F5F5F5F5F5F5F5E2BEE2E2E228E2E2E2E2E2E2E2E2E2E2E2E2E2E2E2E2E2E2E2E2E2E2E2E2E2E2E2E2E2E2E2E2E2E2E2E2E2E2E2E2E2E2E2E2E2E2E2E2E2E2E2E2E2E2E2E2E2E2E2E2E2E2E2E2E2E2E2E2E2E2E2E2E2E2E2E2E2E2E2E2E2E2E2E2E2E2
310
E2E2E2E2E2E2E2E2E2E2E2E2E2E2E2E2E2E2E2E2E2E2E2E2E2E2E2E2E2E2E2E2E2E2E2E2E2E2E2E2E2E2E2E2E2E2E2E2E2E2E2E2E2E2E2E2E2E2E2E2E2E2E2E2E2E2E2E2E2E2E2E2E2E2E2E2E2E2E2E2E2E2E2E2E2E2E2E2E2E2E2E2E2E2E2E2E2E2E2E2E2E2E2E2BEE2E2E2E2E2E2E2E2E2E2E2E2E2E2E2E2E2F5F5F5F5F5
310
F5F5F5F5E2E2E2E2E2E2E2E2E2E2E2E2E2E2E2E2F5F5F5F5F5F5F5F5F5F5F5F5F5F5F5F5E2E2BEE2E2E228E2E2E2E2E2E2E2E2E2E2E2E2E2E2E2E2E2E2E2E2E2E2E2E2E2E2E2E2E2E2E2E2E2E2E2E2E2E2E2E2E2E2E2E2E2E2E2E2E2E2E2E2E2E2E2E2E2E2E2E2E2E2E2E2E2E2E2E2E2E2E2E2E2E2E2E2E2E2E2E2E2E2E2E2
310
E2E2E2E2E2E2E2E2E2E2E2E2E2E2E2E2E2E2E2E2E2E2E2E2E2E2E2E2E2E2E2E2E2E2E2E2E2E2E2E2E2E2E2E2E2E2E2E2E2E2E2E2E2E2E2E2E2E2E2E2E2E2E2E2E2E2E2E2E2E2E2E2E2E2E2E2E2E2E2E2E2E2E2E2E2E2E2E2E2E2E2E2E2E2E2E2E2E2E2E2E2E2E2E2E2E2BEE2E2E2E2E2E2E2E2E2E2E2E2E2E2E2E2E2E2F5F5
310
F5F5F5F5F5E2E2E2E2E2E2E2E2E2E2E2E2E2E2E2E2F5F5F5F5F5F5F5F5F5F5F5F5F5F5F5F5F5F5E2BEE2E2E228E2E2E2E2E2E2E2E2E2E2E2E2E2E2E2E2E2E2E2E2E2E2E2E2E2E2E2E2E2E2E2E2E2E2E2E2E2E2E2E2E2E2E2E2E2E2E2E2E2E2E2E2E2E2E2E2E2E2E2E2E2E2E2E2E2E2E2E2E2E2E2E2E2E2E2E2E2E2E2E2E2E2
310
E2E2E2E2E2E2E2E2E2E2E2E2E2E2E2E2E2E2E2E2E2E2E2E2E2E2E2E2E2E2E2E2E2E2E2E2E2E2E2E2E2E2E2E2E2E2E2E2E2E2E2E2E2E2E2E2E2E2E2E2E2E2E2E2E2E2E2E2E2E2E2E2E2E2E2E2E2E2E2E2E2E2E2E2E2E2E2E2E2E2E2E2E2E2E2E2E2E2E2E2E2E2E2E2E2E2E2E2BEE2E2E2E2E2E2E2E2E2E2E2E2E2E2E2E2E2F5
310
F5F5F5F5F5F5F5F5E2E2E2E2E2E2E2E2E2E2E2E2E2E2E2F5F5F5F5F5F5F5F5F5F5F5F5F5F5F5F5F5F5E2BEE2E2E228E2E2E2E2E2E2E2E2E2E2E2E2E2E2E2E2E2E2E2E2E2E2E2E2E2E2E2E2E2E2E2E2E2E2E2E2E2E2E2E2E2E2E2E2E2E2E2E2E2E2E2E2E2E2E2E2E2E2E2E2E2E2E2E2E2E2E2E2E2E2E2E2E2E2E2E2E2E2E2E2
310
E2E2E2E2E2E2E2E2E2E2E2E2E2E2E2E2E2E2E2E2E2E2E2E2E2E2E2E2E2E2E2E2E2E2E2E2E2E2E2E2E2E2E2E2E2E2E2E2E2E2E2E2E2E2E2E2E2E2E2E2E2E2E2E2E2E2E2E2E2E2E2E2E2E2E2E2E2E2E2E2E2E2E2E2E2E2E2E2E2E2E2E2E2E2E2E2E2E2E2E2E2E2E2E2E2E2E2E2E2E2BEE2E2E2E2E2E2E2E2E2E2E2E2E2E2E2E2
310
E2F5F5F5F5F5F5F5E2E2F5E2E2E2E2E2E2E2E2E2E2E2E2E2E2F5F5F5F5F5F5F5F5F5F5F5E2E2E2E2E2E2E2E2BEE2E2E228E2E2E2E2E2E2E2E2E2E2E2E2E2E2E2E2E2E2E2E2E2E2E2E2E2E2E2E2E2E2E2E2E2E2E2E2E2E2E2E2E2E2E2E2E2E2E2E2E2E2E2E2E2E2E2E2E2E2E2E2E2E2E2E2E2E2E2E2E2E2E2E2E2E2E2E2E2E2
310
E2E2E2E2E2E2E2E2E2E2E2E2E2E2E2E2E2E2E2E2E2E2E2E2E2E2E2E2E2E2E2E2E2E2E2E2E2E2E2E2E2E2E2E2E2E2E2E2E2E2E2E2E2E2E2E2E2E2E2E2E2E2E2E2E2E2E2E2E2E2E2E2E2E2E2E2E2E2E2E2E2E2E2E2E2E2E2E2E2E2E2E2E2E2E2E2E2E2E2E2E2E2E2E2E2E2E2E2E2E2E2E2BEE2E2E2E2E2E2E2E2E2E2E2E2E2E2
310
E2E2E2E2E2E2E2E2E2E2E2E2E2F5E2E2E2E2E2E2E2E2E2E2E2E2F5E2F5F5F5F5E2F5F5F5E2F5E2E2E2E2E2E2E2E2BEE2E2E228E2E2E2E2E2E2E2E2E2E2E2E2E2E2E2E2E2E2E2E2E2E2E2E2E2E2E2E2E2E2E2E2E2E2E2E2E2E2E2E2E2E2E2E2E2E2E2E2E2E2E2E2E2E2E2E2E2E2E2E2E2E2E2E2E2E2E2E2E2E2E2E2E2E2E2E2
310
E2E2E2E2E2E2E2E2E2E2E2E2E2E2E2E2E2E2E2E2E2E2E2E2E2E2E2E2E2E2E2E2E2E2E2E2E2E2E2E2E2E2E2E2E2E2E2E2E2E2E2E2E2E2E2E2E2E2E2E2E2E2E2E2E2E2E2E2E2E2E2E2E2E2E2E2E2E2E2E2E2E2E2E2E2E2E2E2E2E2E2E2E2E2E2E2E2E2E2E2E2E2E2E2E2E2E2E2E2E2E2E2E2E2BEE2E2E2E2E2E2E2E2E2E2E2E2
310
E2E2E2E2E2E2E2E2E2E2E2E2E2E2E2E2F5E2F5E2E2E2E2E2E2E2E2E2F5E2E2E2E2E2E2E2E2E2E2E2E2E2E2E2E2E2E2E2BEE2E2E228E2E2E2E2E2E2E2E2E2E2E2E2E2E2E2E2E2E2E2E2E2E2E2E2E2E2E2E2E2E2E2E2E2E2E2E2E2E2E2E2E2E2E2E2E2E2E2E2E2E2E2E2E2E2E2E2E2E2E2E2E2E2E2E2E2E2E2E2E2E2E2E2E2E2
310
E2E2E2E2E2E2E2E2E2E2E2E2E2E2E2E2E2E2E2E2E2E2E2E2E2E2E2E2E2E2E2E2E2E2E2E2E2E2E2E2E2E2E2E2E2E2E2E2E2E2E2E2E2E2E2E2E2E2E2E2E2E2E2E2E2E2E2E2E2E2E2E2E2E2E2E2E2E2E2E2E2E2E2E2E2E2E2E2E2E2E2E2E2E2E2E2E2E2E2E2E2E2E2E2E2E2E2E2E2E2E2E2E2E2E2E2BEE2E2E2E2E2E2E2E2E2E2
310
E2E2E2E2E2E2E2E2E2E2E2E2E2F5F5F5F5F5F5F5F5F5F5F5F5F5F5F5F5F5F5F5F5F5F5F5F5F5F5F5F5F5F5F5F5F5F5F5F5E2BEE2E2E228E2E2E2E2E2E2E2E2E2E2E2E2E2E2E2E2E2E2E2E2E2E2E2E2E2E2E2E2E2E2E2E2E2E2E2E2E2E2E2E2E2E2E2E2E2E2E2E2E2E2E2E2E2E2E2E2E2E2E2E2E2E2E2E2E2E2E2E2E2E2E2E2
310
E2E2E2E2E2E2E2E2E2E2E2E2E2E2E2E2E2E2E2E2E2E2E2E2E2E2E2E2E2E2E2E2E2E2E2E2E2E2E2E2E2E2E2E2E2E2E2E2E2E2E2E2E2E2E2E2E2E2E2E2E2E2E2E2E2E2E2E2E2E2E2E2E2E2E2E2E2E2E2E2E2E2E2E2E2E2E2E2E2E2E2E2E2E2E2E2E2E2E2E2E2E2E2E2E2E2E2E2E2E2E2E2E2E2E2E2E2E2BEE2E2E2E2E2E2E2E2
310
E2E2E2E2E2E2E2E2E2E2E2E2E2E2E2F5F5E2E2E2E2E2F5E2E2E2E2E2F5F5E2F5E2E2E2E2E2E2F5F5E2E2E2F5E2F5F5E2E2F5F5E2BEE2E2E228E2E2E2E2E2E2E2E2E2E2E2E2E2E2E2E2E2E2E2E2E2E2E2E2E2E2E2E2E2E2E2E2E2E2E2E2E2E2E2E2E2E2E2E2E2E2E2E2E2E2E2E2E2E2E2E2E2E2E2E2E2E2E2E2E2E2E2E2E2E2
310
E2E2E2E2E2E2E2E2E2E2E2E2E2E2E2E2E2E2E2E2E2E2E2E2E2E2E2E2E2E2E2E2E2E2E2E2E2E2E2E2E2E2E2E2E2E2E2E2E2E2E2E2E2E2E2E2E2E2E2E2E2E2E2E2E2E2E2E2E2E2E2E2E2E2E2E2E2E2E2E2E2E2E2E2E2E2E2E2E2E2E2E2E2E2E2E2E2E2E2E2E2E2E2E2E2E2E2E2E2E2E2E2E2E2E2E2E2E2E2E2BEE2E2E2E2E2E2
310
E2E2E2E2E2E2E2E2E2E2E2E2E2E2E2E2E2F5F5F5F5F5F5F5F5F5F5F5F5F5F5F5E2F5E2E2E2E2E2E2E2F5E2E2E2F5E2E2F5E2E2F5E2E2BEE2E2E228E2E2E2E2E2E2E2E2E2E2E2E2E2E2E2E2E2E2E2E2E2E2E2E2E2E2E2E2E2E2E2E2E2E2E2E2E2E2E2E2E2E2E2E2E2E2E2E2E2E2E2E2E2E2E2E2E2E2E2E2E2E2E2E2E2E2E2E2
310
E2E2E2E2E2E2E2E2E2E2E2E2E2E2E2E2E2E2E2E2E2E2E2E2E2E2E2E2E2E2E2E2E2E2E2E2E2E2E2E2E2E2E2E2E2E2E2E2E2E2E2E2E2E2E2E2E2E2E2E2E2E2E2E2E2E2E2E2E2E2E2E2E2E2E2E2E2E2E2E2E2E2E2E2E2E2E2E2E2E2E2E2E2E2E2E2E2E2E2E2E2E2E2E2E2E2E2E2E2E2E2E2E2E2E2E2E2E2E2E2E2E2BEE2E2E2E2
310
E2E2E2E2E2E2E2E2E2E2E2E2E2E2E2E2E2E2E2E2E2E2F5E2E2E2F5E2E2E2F5E2E2E2E2F5E2E2E2E2E2E2E2F5E2E2E2F5E2E2F5E2E2F5E2E2BEE2E2E228E2E2E2E2E2E2E2E2E2E2E2E2E2E2E2E2E2E2E2E2E2E2E2E2E2E2E2E2E2E2E2E2E2E2E2E2E2E2E2E2E2E2E2E2E2E2E2E2E2E2E2E2E2E2E2E2E2E2E2E2E2E2E2E2E2E2
310
E2E2E2E2E2E2E2E2E2E2E2E2E2E2E2E2E2E2E2E2E2E2E2E2E2E2E2E2E2E2E2E2E2E2E2E2E2E2E2E2E2E2E2E2E2E2E2E2E2E2E2E2E2E2E2E2E2E2E2E2E2E2E2E2E2E2E2E2E2E2E2E2E2E2E2E2E2E2E2E2E2E2E2E2E2E2E2E2E2E2E2E2E2E2E2E2E2E2E2E2E2E2E2E2E2E2E2E2E2E2E2E2E2E2E2E2E2E2E2E2E2E2E2E2BEE2E2
310
E2E2E2E2E2E2E2E2E2E2E2E2E2E2E2E2E2E2E2E2E2E2E2E2F5E2E2E2F5E2E2E2F5E2E2E2F5E2E2E2E2E2E2F5F5F5E2E2E2F5E2E2F5E2E2F5E2E2BEE2E2E228E2E2E2E2E2E2E2E2E2E2E2E2E2E2E2E2E2E2E2E2E2E2E2E2E2E2E2E2E2E2E2E2E2E2E2E2E2E2E2E2E2E2E2E2E2E2E2E2E2E2E2E2E2E2E2E2E2E2E2E2E2E2E2E2
310
E2E2E2E2E2E2E2E2E2E2E2E2E2E2E2E2E2E2E2E2E2E2E2E2E2E2E2E2E2E2E2E2E2E2E2E2E2E2E2E2E2E2E2E2E2E2E2E2E2E2E2E2E2E2E2E2E2E2E2E2E2E2E2E2E2E2E2E2E2E2E2E2E2E2E2E2E2E2E2E2E2E2E2E2E2E2E2E2E2E2E2E2E2E2E2E2E2E2E2E2E2E2E2E2E2E2E2E2E2E2E2E2E2E2E2E2E2E2E2E2E2E2E2E2E2E2BE
310
E2E2E2E2E2E2E2E2E2E2E2E2E2E2E2E2E2E2E2E2E2E2E2E2E2E2F5E2E2E2F5E2E2E2F5E2E2E2F5E2E2E2E2E2E2E2F5F5E2E2E2F5E2E2F5E2E2F5E2E2BEE2E2E228E2E2E2E2E2E2E2E2E2E2E2E2E2E2E2E2E2E2E2E2E2E2E2E2E2E2E2E2E2E2E2E2E2E2E2E2E2E2E2E2E2E2E2E2E2E2E2E2E2E2E2E2E2E2E2E2E2E2E2E2E2E2
310
E2E2E2E2E2E2E2E2E2E2E2E2E2E2E2E2E2E2E2E2E2E2E2E2E2E2E2E2E2E2E2E2E2E2E2E2E2E2E2E2E2E2E2E2E2E2E2E2E2E2E2E2E2E2E2E2E2E2E2E2E2E2E2E2E2E2E2E2E2E2E2E2E2E2E2E2E2E2E2E2E2E2E2E2E2E2E2E2E2E2E2E2E2E2E2E2E2E2E2E2E2E2E2E2E2E2E2E2E2E2E2E2E2E2E2E2E2E2E2E2E2E2E2E2E2E2E2
310
E2BEE2E2E2E2E2E2E2E2E2E2E2E2E2E2E2E2E2E2E2E2E2E2E2E2E2E2F5E2E2E2F5E2E2E2F5E2E2E2F5E2E2E2E2E2E2F5F5F5E2E2E2F5E2E2F5E2E2F5E2E2BEE2E2E228E2E2E2E2E2E2E2E2E2E2E2E2E2E2E2E2E2E2E2E2E2E2E2E2E2E2E2E2E2E2E2E2E2E2E2E2E2E2E2E2E2E2E2E2E2E2E2E2E2E2E2E2E2E2E2E2E2E2E2E2
310
E2E2E2E2E2E2E2E2E2E2E2E2E2E2E2E2E2E2E2E2E2E2E2E2E2E2E2E2E2E2E2E2E2E2E2E2E2E2E2E2E2E2E2E2E2E2E2E2E2E2E2E2E2E2E2E2E2E2E2E2E2E2E2E2E2E2E2E2E2E2E2E2E2E2E2E2E2E2E2E2E2E2E2E2E2E2E2E2E2E2E2E2E2E2E2E2E2E2E2E2E2E2E2E2E2E2E2E2E2E2E2E2E2E2E2E2E2E2E2E2E2E2E2E2E2E2E2
310
E2E2E2BEE2E2E2E2E2E2E2E2E2E2E2E2E2E2E2E2E2E2E2E2E2E2E2E2E2E2F5E2E2E2F5E2E2E2F5E2E2F5E2E2E2E2E2E2E2F5F5F5E2E2E2F5E2E2F5E2E2F5E2E2BEE2E2E228E2E2E2E2E2E2E2E2E2E2E2E2E2E2E2E2E2E2E2E2E2E2E2E2E2E2E2E2E2E2E2E2E2E2E2E2E2E2E2E2E2E2E2E2E2E2E2E2E2E2E2E2E2E2E2E2E2E2
310
E2E2E2E2E2E2E2E2E2E2E2E2E2E2E2E2E2E2E2E2E2E2E2E2E2E2E2E2E2E2E2E2E2E2E2E2E2E2E2E2E2E2E2E2E2E2E2E2E2E2E2E2E2E2E2E2E2E2E2E2E2E2E2E2E2E2E2E2E2E2E2E2E2E2E2E2E2E2E2E2E2E2E2E2E2E2E2E2E2E2E2E2E2E2E2E2E2E2E2E2E2E2E2E2E2E2E2E2E2E2E2E2E2E2E2E2E2E2E2E2E2E2E2E2E2E2E2
310
E2E2E2E2E2BEE2E2E2E2E2E2E2E2E2E2E2E2E2E2E2E2E2E2E2E2E2E2E2E2E2E2F5E2E2E2F5E2E2E2F5E2E2F5E2E2E2E2E2E2E2F5F5F5E2E2E2F5E2E2F5E2E2F5E2E2BEE2E2E228E2E2E2E2E2E2E2E2E2E2E2E2E2E2E2E2E2E2E2E2E2E2E2E2E2E2E2E2E2E2E2E2E2E2E2E2E2E2E2E2E2E2E2E2E2E2E2E2E2E2E2E2E2E2E2E2
310
E2E2E2E2E2E2E2E2E2E2E2E2E2E2E2E2E2E2E2E2E2E2E2E2E2E2E2E2E2E2E2E2E2E2E2E2E2E2E2E2E2E2E2E2E2E2E2E2E2E2E2E2E2E2E2E2E2E2E2E2E2E2E2E2E2E2E2E2E2E2E2E2E2E2E2E2E2E2E2E2E2E2E2E2E2E2E2E2E2E2E2E2E2E2E2E2E2E2E2E2E2E2E2E2E2E2E2E2E2E2E2E2E2E2E2E2E2E2E2E2E2E2E2E2E2E2E2
310
E2E2E2E2E2E2E2BEE2E2E2E2E2E2E2E2E2F5F5F5F5F5F5F5F5F5F5F5F5F5F5F5F5E2F5E2E2E2F5E2E2E2F5E2E2F5E2E2E2E2E2E2E2E2E2F5E2E2E2F5E2E2F5E2E2F5E2E2BEE2E2E228E2E2E2E2E2E2E2E2E2E2E2E2E2E2E2E2E2E2E2E2E2E2E2E2E2E2E2E2E2E2E2E2E2E2E2E2E2E2E2E2E2E2E2E2E2E2E2E2E2E2E2E2E2E2
310
E2E2E2E2E2E2E2E2E2E2E2E2E2E2E2E2E2E2E2E2E2E2E2E2E2E2E2E2E2E2E2E2E2E2E2E2E2E2E2E2E2E2E2E2E2E2E2E2E2E2E2E2E2E2E2E2E2E2E2E2E2E2E2E2E2E2E2E2E2E2E2E2E2E2E2E2E2E2E2E2E2E2E2E2E2E2E2E2E2E2E2E2E2E2E2E2E2E2E2E2E2E2E2E2E2E2E2E2E2E2E2E2E2E2E2E2E2E2E2E2E2E2E2E2E2E2E2
310
E2E2E2E2E2E2E2E2E2BEE2E2E2E2E2E2E2E2E2F5F5F5F5F5F5F5F5F5F5F5F5F5F5F5F5E2F5E2E2E2F5E2E2E2F5E2F5E2E2E2E2E2E2E2E2E2E2F5E2F5F5F5E2E2F5E2E2F5E2E2BEE2E2E228E2E2E2E2E2E2E2E2E2E2E2E2E2E2E2E2E2E2E2E2E2E2E2E2E2E2E2E2E2E2E2E2E2E2E2E2E2E2E2E2E2E2E2E2E2E2E2E2E2E2E2E2
310
E2E2E2E2E2E2E2E2E2E2E2E2E2E2E2E2E2E2E2E2E2E2E2E2E2E2E2E2E2E2E2E2E2E2E2E2E2E2E2E2E2E2E2E2E2E2E2E2E2E2E2E2E2E2E2E2E2E2E2E2E2E2E2E2E2E2E2E2E2E2E2E2E2E2E2E2E2E2E2E2E2E2E2E2E2E2E2E2E2E2E2E2E2E2E2E2E2E2E2E2E2E2E2E2E2E2E2E2E2E2E2E2E2E2E2E2E2E2E2E2E2E2E2E2E2E2E2
310
E2E2E2E2E2E2E2E2E2E2E2BEE2E2E2E2E2E2E2E2E2F5F5F5F5F5F5F5F5F5F5F5F5F5F5F5E2E2F5E2E2E2F5E2E2E2F5E2F5F5E2E2E2E2E2E2E2E2E2F5E2F5F5F5E2E2F5E2E2F5E2E2BEE2E2E228E2E2E2E2E2E2E2E2E2E2E2E2E2E2E2E2E2E2E2E2E2E2E2E2E2E2E2E2E2E2E2E2E2E2E2E2E2E2E2E2E2E2E2E2E2E2E2E2E2E2
310
E2E2E2E2E2E2E2E2E2E2E2E2E2E2E2E2E2E2E2E2E2E2E2E2E2E2E2E2E2E2E2E2E2E2E2E2E2E2E2E2E2E2E2E2E2E2E2E2E2E2E2E2E2E2E2E2E2E2E2E2E2E2E2E2E2E2E2E2E2E2E2E2E2E2E2E2E2E2E2E2E2E2E2E2E2E2E2E2E2E2E2E2E2E2E2E2E2E2E2E2E2E2E2E2E2E2E2E2E2E2E2E2E2E2E2E2E2E2E2E2E2E2E2E2E2E2E2
310
E2E2E2E2E2E2E2E2E2E2E2E2E2BEE2E2E2E2E2E2E2E2E2F5F5F5F5F5F5F5F5F5F5F5F5E2E2E2E2E2F5E2E2E2F5E2E2E2F5F5F5E2E2E2E2E2E2E2E2E2F5F5E2F5E2F5E2E2F5E2E2F5E2E2BEE2E2E228E2E2E2E2E2E2E2E2E2E2E2E2E2E2E2E2E2E2E2E2E2E2E2E2E2E2E2E2E2E2E2E2E2E2E2E2E2E2E2E2E2E2E2E2E2E2E2E2
310
E2E2E2E2E2E2E2E2E2E2E2E2E2E2E2E2E2E2E2E2E2E2E2E2E2E2E2E2E2E2E2E2E2E2E2E2E2E2E2E2E2E2E2E2E2E2E2E2E2E2E2E2E2E2E2E2E2E2E2E2E2E2E2E2E2E2E2E2E2E2E2E2E2E2E2E2E2E2E2E2E2E2E2E2E2E2E2E2E2E2E2E2E2E2E2E2E2E2E2E2E2E2E2E2E2E2E2E2E2E2E2E2E2E2E2E2E2E2E2E2E2E2E2E2E2E2E2
310
E2E2E2E2E2E2E2E2E2E2E2E2E2E2E2BEE2E2E2E2E2E2E2E2E2F5F5F5F5F5F5F5F5F5F5F5F5F5F5F5E2E2F5E2E2E2F5E2E2F5F5F5F5F5F5F5F5F5F5F5F5F5F5F5E2F5F5F5E2E2F5E2E2F5E2E2BEE2E2E228E2E2E2E2E2E2E2E2E2E2E2E2E2E2E2E2E2E2E2E2E2E2E2E2E2E2E2E2E2E2E2E2E2E2E2E2E2E2E2E2E2E2E2E2E2E2
310
E2E2E2E2E2E2E2E2E2E2E2E2E2E2E2E2E2E2E2E2E2E2E2E2E2E2E2E2E2E2E2E2E2E2E2E2E2E2E2E2E2E2E2E2E2E2E2E2E2E2E2E2E2E2E2E2E2E2E2E2E2E2E2E2E2E2E2E2E2E2E2E2E2E2E2E2E2E2E2E2E2E2E2E2E2E2E2E2E2E2E2E2E2E2E2E2E2E2E2E2E2E2E2E2E2E2E2E2E2E2E2E2E2E2E2E2E2E2E2E2E2E2E2E2E2E2E2
310
E2E2E2E2E2E2E2E2E2E2E2E2E2E2E2E2E2BEE2E2E2E2E2E2E2E2E2F5F5F5F5F5F5F5E2E2E2E2E2E2E2E2E2E2F5E2E2E2F5E2E2E2F5E2E2E2E2E2E2E2E2E2E2E2E2E2E2F5F5F5E2E2F5E2E2F5E2E2BEE2E2E228E2E2E2E2E2E2E2E2E2E2E2E2E2E2E2E2E2E2E2E2E2E2E2E2E2E2E2E2E2E2E2E2E2E2E2E2E2E2E2E2E2E2E2E2
310
E2E2E2E2E2E2E2E2E2E2E2E2E2E2E2E2E2E2E2E2E2E2E2E2E2E2E2E2E2E2E2E2E2E2E2E2E2E2E2E2E2E2E2E2E2E2E2E2E2E2E2E2E2E2E2E2E2E2E2E2E2E2E2E2E2E2E2E2E2E2E2E2E2E2E2E2E2E2E2E2E2E2E2E2E2E2E2E2E2E2E2E2E2E2E2E2E2E2E2E2E2E2E2E2E2E2E2E2E2E2E2E2E2E2E2E2E2E2E2E2E2E2E2E2E2E2E2
310
E2E2E2E2E2E2E2E2E2E2E2E2E2E2E2E2E2E2E2BEE2E2E2E2E2E2E2E2E2F5F5F5F5F5F5F5F5F5F5F5F5F5F5F5E2E2F5E2E2E2F5E2E2E2F5E2E2E2E2E2E2E2E2E2E2E2E2E2E2E2E2F5E2E2F5E2E2F5E2E2BEE2E2E228E2E2E2E2E2E2E2E2E2E2E2E2E2E2E2E2E2E2E2E2E2E2E2E2E2E2E2E2E2E2E2E2E2E2E2E2E2E2E2E2E2E2
310
E2E2E2E2E2E2E2E2E2E2E2E2E2E2E2E2E2E2E2E2E2E2E2E2E2E2E2E2E2E2E2E2E2E2E2E2E2E2E2E2E2E2E2E2E2E2E2E2E2E2E2E2E2E2E2E2E2E2E2E2E2E2E2E2E2E2E2E2E2E2E2E2E2E2E2E2E2E2E2E2E2E2E2E2E2E2E2E2E2E2E2E2E2E2E2E2E2E2E2E2E2E2E2E2E2E2E2E2E2E2E2E2E2E2E2E2E2E2E2E2E2E2E2E2E2E2E2
310
E2E2E2E2E2E2E2E2E2E2E2E2E2E2E2E2E2E2E2E2E2BEE2E2E2E2E2E2E2E2F5F5F5F5F5F5F5F5F5F5F5F5F5F5F5F5E2E2F5E2E2E2F5E2E2E2F5E2E2E2E2E2E2E2E2E2E2E2E2E2E2E2E2F5E2E2F5E2E2F5E2E2BEE2E2E228E2E2E2E2E2E2E2E2E2E2E2E2E2E2E2E2E2E2E2E2E2E2E2E2E2E2E2E2E2E2E2E2E2E2E2E2E2E2E2E2
310
E2E2E2E2E2E2E2E2E2E2E2E2E2E2E2E2E2E2E2E2E2E2E2E2E2E2E2E2E2E2E2E2E2E2E2E2E2E2E2E2E2E2E2E2E2E2E2E2E2E2E2E2E2E2E2E2E2E2E2E2E2E2E2E2E2E2E2E2E2E2E2E2E2E2E2E2E2E2E2E2E2E2E2E2E2E2E2E2E2E2E2E2E2E2E2E2E2E2E2E2E2E2E2E2E2E2E2E2E2E2E2E2E2E2E2E2E2E2E2E2E2E2E2E2E2E2E2
310
E2E2E2E2E2E2E2E2E2E2E2E2E2E2E2E2E2E2E2E2E2E2E2BEE2E2E2E2E2E2E2E2E2F5F5F5F5F5F5F5E2E2E2E2E2E2F5E2E2E2F5E2E2E2F5E2E2E2F5E2E2E2E2E2E2E2E2E2E2E2E2E2E2E2E2F5E2E2F5E2E2F5E2E2BEE2E2E228E2E2E2E2E2E2E2E2E2E2E2E2E2E2E2E2E2E2E2E2E2E2E2E2E2E2E2E2E2E2E2E2E2E2E2E2E2E2
310
E2E2E2E2E2E2E2E2E2E2E2E2E2E2E2E2E2E2E2E2E2E2E2E2E2E2E2E2E2E2E2E2E2E2E2E2E2E2E2E2E2E2E2E2E2E2E2E2E2E2E2E2E2E2E2E2E2E2E2E2E2E2E2E2E2E2E2E2E2E2E2E2E2E2E2E2E2E2E2E2E2E2E2E2E2E2E2E2E2E2E2E2E2E2E2E2E2E2E2E2E2E2E2E2E2E2E2E2E2E2E2E2E2E2E2E2E2E2E2E2E2E2E2E2E2E2E2
310
E2E2E2E2E2E2E2E2E2E2E2E2E2E2E2E2E2E2E2E2E2E2E2E2E2BEE2E2E2E2E2E2E2E2E2F5F5F5F5F5F5E2E2E2E2E2E2E2F5E2E2E2F5E2E2E2F5E2E2E2F5E2E2E2E2E2E2E2E2E2E2E2E2E2E2E2E2F5E2E2F5E2E2F5E2E2BEE2E2E228E2E2E2E2E2E2E2E2E2E2E2E2E2E2E2E2E2E2E2E2E2E2E2E2E2E2E2E2E2E2E2E2E2E2E2E2
310
E2E2E2E2E2E2E2E2E2E2E2E2E2E2E2E2E2E2E2E2E2E2E2E2E2E2E2E2E2E2E2E2E2E2E2E2E2E2E2E2E2E2E2E2E2E2E2E2E2E2E2E2E2E2E2E2E2E2E2E2E2E2E2E2E2E2E2E2E2E2E2E2E2E2E2E2E2E2E2E2E2E2E2E2E2E2E2E2E2E2E2E2E2E2E2E2E2E2E2E2E2E2E2E2E2E2E2E2E2E2E2E2E2E2E2E2E2E2E2E2E2E2E2E2E2E2E2
310
E2E2E2E2E2E2E2E2E2E2E2E2E2E2E2E2E2E2E2E2E2E2E2E2E2E2E2BEE2E2E2E2E2E2E2E2E2E2E2E2E2E2E2E2E2E2E2E2E2F5E2E2E2E2F5E2E2E2F5E2E2E2F5E2E2E2E2E2E2E2E2E2E2E2E2E2E2E2E2F5E2E2F5E2E2F5E2E2BEE2E2E228E2E2E2E2E2E2E2E2E2E2E2E2E2E2E2E2E2E2E2E2E2E2E2E2E2E2E2E2E2E2E2E2E2E2
310
E2E2E2E2E2E2E2E2E2E2E2E2E2E2E2E2E2E2E2E2E2E2E2E2E2E2E2E2E2E2E2E2E2E2E2E2E2E2E2E2E2E2E2E2E2E2E2E2E2E2E2E2E2E2E2E2E2E2E2E2E2E2E2E2E2E2E2E2E2E2E2E2E2E2E2E2E2E2E2E2E2E2E2E2E2E2E2E2E2E2E2E2E2E2E2E2E2E2E2E2E2E2E2E2E2E2E2E2E2E2E2E2E2E2E2E2E2E2E2E2E2E2E2E2E2E2E2
310
E2E2E2E2E2E2E2E2E2E2E2E2E2E2E2E2E2E2E2E2E2E2E2E2E2E2E2E2E2BEE2E2E2E2E2E2E2E2E2E2E2E2E2E2E2E2E2E2E2E2F5E2E2E2E2E2F5E2E2E2F5E2E2E2F5E2E2E2E2E2E2E2E2E2E2E2E2E2E2E2E2F5E2E2F5E2E2F5E2E2BEE2E2E228E2E2E2E2E2E2E2E2E2E2E2E2E2E2E2E2E2E2E2E2E2E2E2E2E2E2E2E2E2E2E2E2
310
E2E2E2E2E2E2E2E2E2E2E2E2E2E2E2E2E2E2E2E2E2E2E2E2E2E2E2E2E2E2E2E2E2E2E2E2E2E2E2E2E2E2E2E2E2E2E2E2E2E2E2E2E2E2E2E2E2E2E2E2E2E2E2E2E2E2E2E2E2E2E2E2E2E2E2E2E2E2E2E2E2E2E2E2E2E2E2E2E2E2E2E2E2E2E2E2E2E2E2E2E2E2E2E2E2E2E2E2E2E2E2E2E2E2E2E2E2E2E2E2E2E2E2E2E2E2E2
310
E2E2E2E2E2E2E2E2E2E2E2E2E2E2E2E2E2E2E2E2E2E2E2E2E2E2E2E2E2E2E2BEE2E2E2E2E2E2E2E2E2E2E2E2E2E2E2E2E2E2E2F5E2E2E2E2E2E2F5E2E2E2F5E2E2E2F5E2E2E2E2E2E2E2E2E2E2E2E2E2E2E2E2F5E2E2F5E2E2F5E2E2BEE2E2E228E2E2E2E2E2E2E2E2E2E2E2E2E2E2E2E2E2E2E2E2E2E2E2E2E2E2E2E2E2E2
310
E2E2E2E2E2E2E2E2E2E2E2E2E2E2E2E2E2E2E2E2E2E2E2E2E2E2E2E2E2E2E2E2E2E2E2E2E2E2E2E2E2E2E2E2E2E2E2E2E2E2E2E2E2E2E2E2E2E2E2E2E2E2E2E2E2E2E2E2E2E2E2E2E2E2E2E2E2E2E2E2E2E2E2E2E2E2E2E2E2E2E2E2E2E2E2E2E2E2E2E2E2E2E2E2E2E2E2E2E2E2E2E2E2E2E2E2E2E2E2E2E2E2E2E2E2E2E2
310
E2E2E2E2E2E2E2E2E2E2E2E2E2E2E2E2E2E2E2E2E2E2E2E2E2E2E2E2E2E2E2E2E2BEE2E2E2E2E2E2E2E2E2E2E2E2E2E2E2E2E2E2E2F5E2E2E2E2E2E2F5E2E2E2F5E2E2E2F5E2E2E2E2E2E2E2E2E2E2E2E2E2E2E2E2F5E2E2F5E2E2F5E2E2BEE2E2E228E2E2E2E2E2E2E2E2E2E2E2E2E2E2E2E2E2E2E2E2E2E2E2E2E2E2E2E2
310
E2E2E2E2E2E2E2E2E2E2E2E2E2E2E2E2E2E2E2E2E2E2E2E2E2E2E2E2E2E2E2E2E2E2E2E2E2E2E2E2E2E2E2E2E2E2E2E2E2E2E2E2E2E2E2E2E2E2E2E2E2E2E2E2E2E2E2E2E2E2E2E2E2E2E2E2E2E2E2E2E2E2E2E2E2E2E2E2E2E2E2E2E2E2E2E2E2E2E2E2E2E2E2E2E2E2E2E2E2E2E2E2E2E2E2E2E2E2E2E2E2E2E2E2E2E2E2
310
E2E2E2E2E2E2E2E2E2E2E2E2E2E2E2E2E2E2E2E2E2E2E2E2E2E2E2E2E2E2E2E2E2E2E2BEE2E2E2E2E2E2E2E2E2E2E2E2E2E2E2E2E2E2F5F5E2E2E2F5F5F5F5E2E2E2F5E2E2E2F5F5F5F5E2E2E2E2E2E2E2E2E2E2E2E2E2F5E2E2F5E2E2F5E2E2BEE2E2E228E2E2E2E2E2E2E2E2E2E2E2E2E2E2E2E2E2E2E2E2E2E2E2E2E2E2
310
E2E2E2E2E2E2E2E2E2E2E2E2E2E2E2E2E2E2E2E2E2E2E2E2E2E2E2E2E2E2E2E2E2E2E2E2E2E2E2E2E2E2E2E2E2E2E2E2E2E2E2E2E2E2E2E2E2E2E2E2E2E2E2E2E2E2E2E2E2E2E2E2E2E2E2E2E2E2E2E2E2E2E2E2E2E2E2E2E2E2E2E2E2E2E2E2E2E2E2E2E2E2E2E2E2E2E2E2E2E2E2E2E2E2E2E2E2E2E2E2E2E2E2E2E2E2E2
310
E2E2E2E2E2E2E2E2E2E2E2E2E2E2E2E2E2E2E2E2E2E2E2E2E2E2E2E2E2E2E2E2E2E2E2E2E2BEE2E2E2E2E2E2E2E2E2E2E2E2E2E2E2E2E2F5F5F5F5F5F5F5F5F5F5F5F5F5F5F5F5F5F5F5F5F5F5F5F5F5F5F5F5F5F5F5F5F5F5F5F5E2F5E2E2F5E2E2BEE2E2E228E2E2E2E2E2E2E2E2E2E2E2E2E2E2E2E2E2E2E2E2E2E2E2E2
310
E2E2E2E2E2E2E2E2E2E2E2E2E2E2E2E2E2E2E2E2E2E2E2E2E2E2E2E2E2E2E2E2E2E2E2E2E2E2E2E2E2E2E2E2E2E2E2E2E2E2E2E2E2E2E2E2E2E2E2E2E2E2E2E2E2E2E2E2E2E2E2E2E2E2E2E2E2E2E2E2E2E2E2E2E2E2E2E2E2E2E2E2E2E2E2E2E2E2E2E2E2E2E2E2E2E2E2E2E2E2E2E2E2E2E2E2E2E2E2E2E2E2E2E2E2E2E2
310
E2E2E2E2E2E2E2E2E2E2E2E2E2E2E2E2E2E2E2E2E2E2E2E2E2E2E2E2E2E2E2E2E2E2E2E2E2E2E2BEE2E2E2E2E2E2E2E2E2E2E2E2E2E2E2E2E2F5F5F5F5F5F5F5F5F5F5F5F5F5F5F5F5F5F5F5F5F5F5F5F5F5E2E2E2E2E2E2E2E2E2E2E2E2F5E2E2F5E2E2BEE2E2E228E2E2E2E2E2E2E2E2E2E2E2E2E2E2E2E2E2E2E2E2E2E2
310
E2E2E2E2E2E2E2E2E2E2E2E2E2E2E2E2E2E2E2E2E2E2E2E2E2E2E2E2E2E2E2E2E2E2E2E2E2E2E2E2E2E2E2E2E2E2E2E2E2E2E2E2E2E2E2E2E2E2E2E2E2E2E2E2E2E2E2E2E2E2E2E2E2E2E2E2E2E2E2E2E2E2E2E2E2E2E2E2E2E2E2E2E2E2E2E2E2E2E2E2E2E2E2E2E2E2E2E2E2E2E2E2E2E2E2E2E2E2E2E2E2E2E2E2E2E2E2
310
E2E2E2E2E2E2E2E2E2E2E2E2E2E2E2E2E2E2E2E2E2E2E2E2E2E2E2E2E2E2E2E2E2E2E2E2E2E2E2E2E2BEE2E2E2E2E2E2E2E2E2E2E2E2E2E2E2E2E2E2F5F5E2E2E2E2E2E2E2E2E2E2F5E2E2E2E2E2E2E2E2E2E2E2F5E2E2E2E2E2E2E2E2E2E2E2F5E2E2F5E2E2BEE2E2E228E2E2E2E2E2E2E2E2E2E2E2E2E2E2E2E2E2E2E2E2
310
E2E2E2E2E2E2E2E2E2E2E2E2E2E2E2E2E2E2E2E2E2E2E2E2E2E2E2E2E2E2E2E2E2E2E2E2E2E2E2E2E2E2E2E2E2E2E2E2E2E2E2E2E2E2E2E2E2E2E2E2E2E2E2E2E2E2E2E2E2E2E2E2E2E2E2E2E2E2E2E2E2E2E2E2E2E2E2E2E2E2E2E2E2E2E2E2E2E2E2E2E2E2E2E2E2E2E2E2E2E2E2E2E2E2E2E2E2E2E2E2E2E2E2E2E2E2E2
310
E2E2E2E2E2E2E2E2E2E2E2E2E2E2E2E2E2E2E2E2E2E2E2E2E2E2E2E2E2E2E2E2E2E2E2E2E2E2E2E2E2E2E2BEE2E2E2E2E2E2E2E2E2E2E2E2E2E2E2E2E2F5E2E2E2E2E2E2E2E2E2E2E2E2F5E2E2E2E2E2E2E2E2E2E2E2E2F5E2E2E2E2E2E2E2E2E2E2F5E2E2F5E2E2BEE2E2E228E2E2E2E2E2E2E2E2E2E2E2E2E2E2E2E2E2E2
310
E2E2E2E2E2E2E2E2E2E2E2E2E2E2E2E2E2E2E2E2E2E2E2E2E2E2E2E2E2E2E2E2E2E2E2E2E2E2E2E2E2E2E2E2E2E2E2E2E2E2E2E2E2E2E2E2E2E2E2E2E2E2E2E2E2E2E2E2E2E2E2E2E2E2E2E2E2E2E2E2E2E2E2E2E2E2E2E2E2E2E2E2E2E2E2E2E2E2E2E2E2E2E2E2E2E2E2E2E2E2E2E2E2E2E2E2E2E2E2E2E2E2E2E2E2E2E2
310
E2E2E2E2E2E2E2E2E2E2E2E2E2E2E2E2E2E2E2E2E2E2E2E2E2E2E2E2E2E2E2E2E2E2E2E2E2E2E2E2E2E2E2E2E2BEE2E2E2E2E2E2E2E2E2E2E2E2E2E2E2E2E2F5E2E2E2E2E2E2E2E2E2E2E2E2F5E2E2E2E2E2E2E2E2E2E2E2E2E2F5E2E2E2E2E2E2E2E2E2F5E2E2F5E2E2BEE2E2E228E2E2E2E2E2E2E2E2E2E2E2E2E2E2E2E2
310
E2E2E2E2E2E2E2E2E2E2E2E2E2E2E2E2E2E2E2E2E2E2E2E2E2E2E2E2E2E2E2E2E2E2E2E2E2E2E2E2E2E2E2E2E2E2E2E2E2E2E2E2E2E2E2E2E2E2E2E2E2E2E2E2E2E2E2E2E2E2E2E2E2E2E2E2E2E2E2E2E2E2E2E2E2E2E2E2E2E2E2E2E2E2E2E2E2E2E2E2E2E2E2E2E2E2E2E2E2E2E2E2E2E2E2E2E2E2E2E2E2E2E2E2E2E2E2
310
E2E2E2E2E2E2E2E2E2E2E2E2E2E2E2E2E2E2E2E2E2E2E2E2E2E2E2E2E2E2E2E2E2E2E2E2E2E2E2E2E2E2E2E2E2E2E2BEE2E2E2E2E2E2E2E2E2E2E2E2E2E2E2E2E2F5E2E2E2E2E2E2E2E2E2E2E2E2F5E2E2E2E2E2E2E2E2E2E2E2E2E2F5E2E2E2E2E2E2E2E2E2F5E2E2F5E2E2BEE2E2E228E2E2E2E2E2E2E2E2E2E2E2E2E2E2
310
E2E2E2E2E2E2E2E2E2E2E2E2E2E2E2E2E2E2E2E2E2E2E2E2E2E2E2E2E2E2E2E2E2E2E2E2E2E2E2E2E2E2E2E2E2E2E2E2E2E2E2E2E2E2E2E2E2E2E2E2E2E2E2E2E2E2E2E2E2E2E2E2E2E2E2E2E2E2E2E2E2E2E2E2E2E2E2E2E2E2E2E2E2E2E2E2E2E2E2E2E2E2E2E2E2E2E2E2E2E2E2E2E2E2E2E2E2E2E2E2E2E2E2E2E2E2E2
310
E2E2E2E2E2E2E2E2E2E2E2E2E2E2E2E2E2E2E2E2E2E2E2E2E2E2E2E2E2E2E2E2E2E2E2E2E2E2E2E2E2E2E2E2E2E2E2E2E2BEE2E2E2E2E2E2E2E2E2E2E2E2E2E2E2E2F5E2E2E2E2E2E2E2E2E2E2E2E2E2F5E2E2E2E2E2E2E2E2E2E2E2E2E2F5E2E2E2E2E2E2E2F5F5F5E2F5F5E2E2BEE2E2E228E2E2E2E2E2E2E2E2E2E2E2E2
310
E2E2E2E2E2E2E2E2E2E2E2E2E2E2E2E2E2E2E2E2E2E2E2E2E2E2E2E2E2E2E2E2E2E2E2E2E2E2E2E2E2E2E2E2E2E2E2E2E2E2E2E2E2E2E2E2E2E2E2E2E2E2E2E2E2E2E2E2E2E2E2E2E2E2E2E2E2E2E2E2E2E2E2E2E2E2E2E2E2E2E2E2E2E2E2E2E2E2E2E2E2E2E2E2E2E2E2E2E2E2E2E2E2E2E2E2E2E2E2E2E2E2E2E2E2E2E2
310
E2E2E2E2E2E2E2E2E2E2E2E2E2E2E2E2E2E2E2E2E2E2E2E2E2E2E2E2E2E2E2E2E2E2E2E2E2E2E2E2E2E2E2E2E2E2E2E2E2E2E2BEE2E2E2E2E2E2E2E2E2E2E2E2E2E2E2E2F5E2E2E2E2E2E2E2E2E2E2E2E2E2F5E2E2E2E2E2E2E2E2E2E2E2E2E2F5E2E2E2E2E2E2E2F5F5F5E2F5F5E2E2BEE2E2E228E2E2E2E2E2E2E2E2E2E2
310
E2E2E2E2E2E2E2E2E2E2E2E2E2E2E2E2E2E2E2E2E2E2E2E2E2E2E2E2E2E2E2E2E2E2E2E2E2E2E2E2E2E2E2E2E2E2E2E2E2E2E2E2E2E2E2E2E2E2E2E2E2E2E2E2E2E2E2E2E2E2E2E2E2E2E2E2E2E2E2E2E2E2E2E2E2E2E2E2E2E2E2E2E2E2E2E2E2E2E2E2E2E2E2E2E2E2E2E2E2E2E2E2E2E2E2E2E2E2E2E2E2E2E2E2E2E2E2
310
E2E2E2E2E2E2E2E2E2E2E2E2E2E2E2E2E2E2E2E2E2E2E2E2E2E2E2E2E2E2E2E2E2E2E2E2E2E2E2E2E2E2E2E2E2E2E2E2E2E2E2E2E2BEE2E2E2E2E2E2E2E2E2E2E2E2E2E2E2E2F5E2E2E2E2E2E2E2E2E2E2E2E2E2F5E2E2E2E2E2E2E2E2E2E2E2E2E2F5E2E2E2E2E2E2E2F5F5F5E2F5F5E2E2BEE2E2E228E2E2E2E2E2E2E2E2
310
E2E2E2E2E2E2E2E2E2E2E2E2E2E2E2E2E2E2E2E2E2E2E2E2E2E2E2E2E2E2E2E2E2E2E2E2E2E2E2E2E2E2E2E2E2E2E2E2E2E2E2E2E2E2E2E2E2E2E2E2E2E2E2E2E2E2E2E2E2E2E2E2E2E2E2E2E2E2E2E2E2E2E2E2E2E2E2E2E2E2E2E2E2E2E2E2E2E2E2E2E2E2E2E2E2E2E2E2E2E2E2E2E2E2E2E2E2E2E2E2E2E2E2E2E2E2E2
310
E2E2E2E2E2E2E2E2E2E2E2E2E2E2E2E2E2E2E2E2E2E2E2E2E2E2E2E2E2E2E2E2E2E2E2E2E2E2E2E2E2E2E2E2E2E2E2E2E2E2E2E2E2E2E2BEE2E2E2E2E2E2E2E2E2E2E2E2E2E2E2E2F5E2E2E2E2E2E2E2E2E2E2E2E2E2F5E2E2E2E2E2E2E2E2E2E2E2E2E2F5E2E2E2E2E2E2E2F5F5F5E2F5F5E2E2BEE2E2E228E2E2E2E2E2E2
310
E2E2E2E2E2E2E2E2E2E2E2E2E2E2E2E2E2E2E2E2E2E2E2E2E2E2E2E2E2E2E2E2E2E2E2E2E2E2E2E2E2E2E2E2E2E2E2E2E2E2E2E2E2E2E2E2E2E2E2E2E2E2E2E2E2E2E2E2E2E2E2E2E2E2E2E2E2E2E2E2E2E2E2E2E2E2E2E2E2E2E2E2E2E2E2E2E2E2E2E2E2E2E2E2E2E2E2E2E2E2E2E2E2E2E2E2E2E2E2E2E2E2E2E2E2E2E2
310
E2E2E2E2E2E2E2E2E2E2E2E2E2E2E2E2E2E2E2E2E2E2E2E2E2E2E2E2E2E2E2E2E2E2E2E2E2E2E2E2E2E2E2E2E2E2E2E2E2E2E2E2E2E2E2E2E2BEE2E2E2E2E2E2E2E2E2E2E2E2E2E2E2E2F5E2E2E2E2E2E2E2E2E2E2E2E2E2F5E2E2E2E2E2E2E2E2E2E2E2E2E2F5E2E2E2E2E2E2E2E2F5F5E2F5F5E2E2BEE2E2E228E2E2E2E2
310
E2E2E2E2E2E2E2E2E2E2E2E2E2E2E2E2E2E2E2E2E2E2E2E2E2E2E2E2E2E2E2E2E2E2E2E2E2E2E2E2E2E2E2E2E2E2E2E2E2E2E2E2E2E2E2E2E2E2E2E2E2E2E2E2E2E2E2E2E2E2E2E2E2E2E2E2E2E2E2E2E2E2E2E2E2E2E2E2E2E2E2E2E2E2E2E2E2E2E2E2E2E2E2E2E2E2E2E2E2E2E2E2E2E2E2E2E2E2E2E2E2E2E2E2E2E2E2
310
E2E2E2E2E2E2E2E2E2E2E2E2E2E2E2E2E2E2E2E2E2E2E2E2E2E2E2E2E2E2E2E2E2E2E2E2E2E2E2E2E2E2E2E2E2E2E2E2E2E2E2E2E2E2E2E2E2E2E2BEE2E2E2E2E2E2E2E2E2E2E2E2E2E2E2E2F5F5F5F5F5F5F5F5F5F5F5F5F5F5F5F5F5F5F5F5F5F5F5F5F5F5F5F5F5E2E2E2E2E2E2E2E2E2F5E2F5F5E2E2BEE2E2E228E2E2
310
E2E2E2E2E2E2E2E2E2E2E2E2E2E2E2E2E2E2E2E2E2E2E2E2E2E2E2E2E2E2E2E2E2E2E2E2E2E2E2E2E2E2E2E2E2E2E2E2E2E2E2E2E2E2E2E2E2E2E2E2E2E2E2E2E2E2E2E2E2E2E2E2E2E2E2E2E2E2E2E2E2E2E2E2E2E2E2E2E2E2E2E2E2E2E2E2E2E2E2E2E2E2E2E2E2E2E2E2E2E2E2E2E2E2E2E2E2E2E2E2E2E2E2E2E2E2E2
310
E2E2E2E2E2E2E2E2E2E2E2E2E2E2E2E2E2E2E2E2E2E2E2E2E2E2E2E2E2E2E2E2E2E2E2E2E2E2E2E2E2E2E2E2E2E2E2E2E2E2E2E2E2E2E2E2E2E2E2E2E2BEE2E2E2E2E2E2E2E2E2E2E2E2E2E2E2E2F5E2E2E2E2E2E2E2E2E2E2E2E2E2F5E2F5F5F5F5F5F5E2E2E2E2E2E2F5E2E2E2E2E2E2E2E2E2F5E2E2F5E2E2BEE2E2E228
310
E2E2E2E2E2E2E2E2E2E2E2E2E2E2E2E2E2E2E2E2E2E2E2E2E2E2E2E2E2E2E2E2E2E2E2E2E2E2E2E2E2E2E2E2E2E2E2E2E2E2E2E2E2E2E2E2E2E2E2E2E2E2E2E2E2E2E2E2E2E2E2E2E2E2E2E2E2E2E2E2E2E2E2E2E2E2E2E2E2E2E2E2E2E2E2E2E2E2E2E2E2E2E2E2E2E2E2E2E2E2E2E2E2E2E2E2E2E2E2E2E2E2E2E2E2E2E2
310
E2E2E2E2E2E2E2E2E2E2E2E2E2E2E2E2E2E2E2E2E2E2E2E2E2E2E2E2E2E2E2E2E2E2E2E2E2E2E2E2E2E2E2E2E2E2E2E2E2E2E2E2E2E2E2E2E2E2E2E2E2E2E2BEE2E2E2E2E2E2E2E2E2E2E2E2E2E2E2E2F5E2E2E2E2E2E2E2E2E2E2E2E2E2F5E2F5F5F5F5F5F5E2E2E2E2E2E2F5E2E2E2E2E2E2E2E2E2F5E2E2F5E2E2BEE2E2
310
E228E2E2E2E2E2E2E2E2E2E2E2E2E2E2E2E2E2E2E2E2E2E2E2E2E2E2E2E2E2E2E2E2E2E2E2E2E2E2E2E2E2E2E2E2E2E2E2E2E2E2E2E2E2E2E2E2E2E2E2E2E2E2E2E2E2E2E2E2E2E2E2E2E2E2E2E2E2E2E2E2E2E2E2E2E2E2E2E2E2E2E2E2E2E2E2E2E2E2E2E2E2E2E2E2E2E2E2E2E2E2E2E2E2E2E2E2E2E2E2E2E2E2E2E2E2
310
E2E2E2E2E2E2E2E2E2E2E2E2E2E2E2E2E2E2E2E2E2E2E2E2E2E2E2E2E2E2E2E2E2E2E2E2E2E2E2E2E2E2E2E2E2E2E2E2E2E2E2E2E2E2E2E2E2E2E2E2E2E2E2E2E2BEE2E2E2E2E2E2E2E2E2E2E2E2E2E2E2E2F5E2E2E2E2E2E2E2E2E2E2E2E2E2F5E2E2E2E2E2E2E2E2E2E2E2E2E2F5E2E2E2E2E2E2E2E2E2F5E2E2F5E2E2BE
310
E2E2E228E2E2E2E2E2E2E2E2E2E2E2E2E2E2E2E2E2E2E2E2E2E2E2E2E2E2E2E2E2E2E2E2E2E2E2E2E2E2E2E2E2E2E2E2E2E2E2E2E2E2E2E2E2E2E2E2E2E2E2E2E2E2E2E2E2E2E2E2E2E2E2E2E2E2E2E2E2E2E2E2E2E2E2E2E2E2E2E2E2E2E2E2E2E2E2E2E2E2E2E2E2E2E2E2E2E2E2E2E2E2E2E2E2E2E2E2E2E2E2E2E2E2E2
310
E2E2E2E2E2E2E2E2E2E2E2E2E2E2E2E2E2E2E2E2E2E2E2E2E2E2E2E2E2E2E2E2E2E2E2E2E2E2E2E2E2E2E2E2E2E2E2E2E2E2E2E2E2E2E2E2E2E2E2E2E2E2E2E2E2E2E2BEE2E2E2E2E2E2E2E2E2E2E2E2E2E2E2F5F5E2E2E2E2E2E2E2E2E2E2E2E2E2F5E2E2E2E2E2E2E2E2E2E2E2E2E2F5E2E2E2E2E2E2E2E2E2F5E2E2F5E2
310
E2BEE2E2E228E2E2E2E2E2E2E2E2E2E2E2E2E2E2E2E2E2E2E2E2E2E2E2E2E2E2E2E2E2E2E2E2E2E2E2E2E2E2E2E2E2E2E2E2E2E2E2E2E2E2E2E2E2E2E2E2E2E2E2E2E2E2E2E2E2E2E2E2E2E2E2E2E2E2E2E2E2E2E2E2E2E2E2E2E2E2E2E2E2E2E2E2E2E2E2E2E2E2E2E2E2E2E2E2E2E2E2E2E2E2E2E2E2E2E2E2E2E2E2E2E2
310
E2E2E2E2E2E2E2E2E2E2E2E2E2E2E2E2E2E2E2E2E2E2E2E2E2E2E2E2E2E2E2E2E2E2E2E2E2E2E2E2E2E2E2E2E2E2E2E2E2E2E2E2E2E2E2E2E2E2E2E2E2E2E2E2E2E2E2E2E2BEE2E2E2E2E2E2E2E2E2E2E2E2E2E2F5F5F5F5F5F5F5F5F5F5F5F5F5F5F5F5F5F5F5F5F5F5F5F5F5F5F5F5F5F5F5F5F5E2E2E2E2E2E2E2F5E2E2
310
F5E2E2BEE2E2E228E2E2E2E2E2E2E2E2E2E2E2E2E2E2E2E2E2E2E2E2E2E2E2E2E2E2E2E2E2E2E2E2E2E2E2E2E2E2E2E2E2E2E2E2E2E2E2E2E2E2E2E2E2E2E2E2E2E2E2E2E2E2E2E2E2E2E2E2E2E2E2E2E2E2E2E2E2E2E2E2E2E2E2E2E2E2E2E2E2E2E2E2E2E2E2E2E2E2E2E2E2E2E2E2E2E2E2E2E2E2E2E2E2E2E2E2E2E2E2
310
E2E2E2E2E2E2E2E2E2E2E2E2E2E2E2E2E2E2E2E2E2E2E2E2E2E2E2E2E2E2E2E2E2E2E2E2E2E2E2E2E2E2E2E2E2E2E2E2E2E2E2E2E2E2E2E2E2E2E2E2E2E2E2E2E2E2E2E2E2E2E2BEE2E2E2E2E2E2E2E2E2E2E2E2E2E2F5F5F5F5F5F5F5F5F5F5F5F5F5F5F5F5F5F5F5F5F5F5F5F5F5F5F5F5F5F5F5F5F5E2E2E2E2E2E2E2F5
310
E2E2F5E2E2BEE2E2E228E2E2E2E2E2E2E2E2E2E2E2E2E2E2E2E2E2E2E2E2E2E2E2E2E2E2E2E2E2E2E2E2E2E2E2E2E2E2E2E2E2E2E2E2E2E2E2E2E2E2E2E2E2E2E2E2E2E2E2E2E2E2E2E2E2E2E2E2E2E2E2E2E2E2E2E2E2E2E2E2E2E2E2E2E2E2E2E2E2E2E2E2E2E2E2E2E2E2E2E2E2E2E2E2E2E2E2E2E2E2E2E2E2E2E2E2E2
310
E2E2E2E2E2E2E2E2E2E2E2E2E2E2E2E2E2E2E2E2E2E2E2E2E2E2E2E2E2E2E2E2E2E2E2E2E2E2E2E2E2E2E2E2E2E2E2E2E2E2E2E2E2E2E2E2E2E2E2E2E2E2E2E2E2E2E2E2E2E2E2E2E2BEE2E2E2E2E2E2E2E2E2E2E2E2E2E2F5E2F5E2E2E2E2E2E2E2E2E2E2E2E2E2F5E2E2E2E2E2E2E2E2E2E2E2E2E2F5E2F5E2E2E2E2E2E2
310
E2F5E2E2F5E2E2BEE2E2E228E2E2E2E2E2E2E2E2E2E2E2E2E2E2E2E2E2E2E2E2E2E2E2E2E2E2E2E2E2E2E2E2E2E2E2E2E2E2E2E2E2E2E2E2E2E2E2E2E2E2E2E2E2E2E2E2E2E2E2E2E2E2E2E2E2E2E2E2E2E2E2E2E2E2E2E2E2E2E2E2E2E2E2E2E2E2E2E2E2E2E2E2E2E2E2E2E2E2E2E2E2E2E2E2E2E2E2E2E2E2E2E2E2E2E2
310
E2E2E2E2E2E2E2E2E2E2E2E2E2E2E2E2E2E2E2E2E2E2E2E2E2E2E2E2E2E2E2E2E2E2E2E2E2E2E2E2E2E2E2E2E2E2E2E2E2E2E2E2E2E2E2E2E2E2E2E2E2E2E2E2E2E2E2E2E2E2E2E2E2E2E2BEE2E2E2E2E2E2E2E2E2E2E2E2E2E2F5E2F5E2E2E2E2E2E2E2E2E2E2E2E2E2F5E2E2E2E2E2E2E2E2E2E2E2E2E2F5E2F5E2E2E2E2
310
E2E2E2F5E2E2F5E2E2BEE2E2E228E2E2E2E2E2E2E2E2E2E2E2E2E2E2E2E2E2E2E2E2E2E2E2E2E2E2E2E2E2E2E2E2E2E2E2E2E2E2E2E2E2E2E2E2E2E2E2E2E2E2E2E2E2E2E2E2E2E2E2E2E2E2E2E2E2E2E2E2E2E2E2E2E2E2E2E2E2E2E2E2E2E2E2E2E2E2E2E2E2E2E2E2E2E2E2E2E2E2E2E2E2E2E2E2E2E2E2E2E2E2E2E2E2
310
E2E2E2E2E2E2E2E2E2E2E2E2E2E2E2E2E2E2E2E2E2E2E2E2E2E2E2E2E2E2E2E2E2E2E2E2E2E2E2E2E2E2E2E2E2E2E2E2E2E2E2E2E2E2E2E2E2E2E2E2E2E2E2E2E2E2E2E2E2E2E2E2E2E2E2E2E2BEE2E2E2E2E2E2E2E2E2E2E2E2E2E2F5E2F5E2E2E2E2E2E2E2E2E2E2E2E2E2F5E2E2E2E2E2E2E2E2E2E2E2E2E2F5E2F5E2E2
310
E2E2E2E2E2F5E2E2F5E2E2BEE2E2E228E2E2E2E2E2E2E2E2E2E2E2E2E2E2E2E2E2E2E2E2E2E2E2E2E2E2E2E2E2E2E2E2E2E2E2E2E2E2E2E2E2E2E2E2E2E2E2E2E2E2E2E2E2E2E2E2E2E2E2E2E2E2E2E2E2E2E2E2E2E2E2E2E2E2E2E2E2E2E2E2E2E2E2E2E2E2E2E2E2E2E2E2E2E2E2E2E2E2E2E2E2E2E2E2E2E2E2E2E2E2E2
310
E2E2E2E2E2E2E2E2E2E2E2E2E2E2E2E2E2E2E2E2E2E2E2E2E2E2E2E2E2E2E2E2E2E2E2E2E2E2E2E2E2E2E2E2E2E2E2E2E2E2E2E2E2E2E2E2E2E2E2E2E2E2E2E2E2E2E2E2E2E2E2E2E2E2E2E2E2E2E2BEE2E2E2E2E2E2E2E2E2E2E2E2E2E2F5E2F5E2E2E2E2E2E2E2E2E2E2E2E2E2F5E2E2E2E2E2E2E2E2E2E2E2E2E2F5E2F5
310
E2E2E2E2E2E2E2F5E2E2F5E2E2BEE2E2E228E2E2E2E2E2E2E2E2E2E2E2E2E2E2E2E2E2E2E2E2E2E2E2E2E2E2E2E2E2E2E2E2E2E2E2E2E2E2E2E2E2E2E2E2E2E2E2E2E2E2E2E2E2E2E2E2E2E2E2E2E2E2E2E2E2E2E2E2E2E2E2E2E2E2E2E2E2E2E2E2E2E2E2E2E2E2E2E2E2E2E2E2E2E2E2E2E2E2E2E2E2E2E2E2E2E2E2E2E2
310
E2E2E2E2E2E2E2E2E2E2E2E2E2E2E2E2E2E2E2E2E2E2E2E2E2E2E2E2E2E2E2E2E2E2E2E2E2E2E2E2E2E2E2E2E2E2E2E2E2E2E2E2E2E2E2E2E2E2E2E2E2E2E2E2E2E2E2E2E2E2E2E2E2E2E2E2E2E2E2E2E2BEE2E2E2E2E2E2E2E2E2E2E2E2E2E2F5F5F5F5F5F5F5F5F5F5F5F5F5F5F5F5F5F5F5F5F5F5F5F5F5F5F5F5F5F5F5
310
F5F5E2E2E2E2E2E2E2F5E2E2F5E2E2BEE2E2E228E2E2E2E2E2E2E2E2E2E2E2E2E2E2E2E2E2E2E2E2E2E2E2E2E2E2E2E2E2E2E2E2E2E2E2E2E2E2E2E2E2E2E2E2E2E2E2E2E2E2E2E2E2E2E2E2E2E2E2E2E2E2E2E2E2E2E2E2E2E2E2E2E2E2E2E2E2E2E2E2E2E2E2E2E2E2E2E2E2E2E2E2E2E2E2E2E2E2E2E2E2E2E2E2E2E2E2
310
E2E2E2E2E2E2E2E2E2E2E2E2E2E2E2E2E2E2E2E2E2E2E2E2E2E2E2E2E2E2E2E2E2E2E2E2E2E2E2E2E2E2E2E2E2E2E2E2E2E2E2E2E2E2E2E2E2E2E2E2E2E2E2E2E2E2E2E2E2E2E2E2E2E2E2E2E2E2E2E2E2E2E2BEE2E2E2E2E2E2E2E2E2E2E2E2E2E2F5F5F5E2E2E2E2E2E2E2E2E2E2E2E2E2F5E2F5F5F5F5F5E2E2E2E2E2E2
310
E2F5F5F5E2E2E2E2E2E2E2F5E2E2F5E2E2BEE2E2E228E2E2E2E2E2E2E2E2E2E2E2E2E2E2E2E2E2E2E2E2E2E2E2E2E2E2E2E2E2E2E2E2E2E2E2E2E2E2E2E2E2E2E2E2E2E2E2E2E2E2E2E2E2E2E2E2E2E2E2E2E2E2E2E2E2E2E2E2E2E2E2E2E2E2E2E2E2E2E2E2E2E2E2E2E2E2E2E2E2E2E2E2E2E2E2E2E2E2E2E2E2E2E2E2E2
310
E2E2E2E2E2E2E2E2E2E2E2E2E2E2E2E2E2E2E2E2E2E2E2E2E2E2E2E2E2E2E2E2E2E2E2E2E2E2E2E2E2E2E2E2E2E2E2E2E2E2E2E2E2E2E2E2E2E2E2E2E2E2E2E2E2E2E2E2E2E2E2E2E2E2E2E2E2E2E2E2E2E2E2E2E2BEE2E2E2E2E2E2E2E2E2E2E2E2E2E2E2E2F5E2E2E2E2E2E2E2E2E2E2E2E2E2F5E2F5F5F5F5F5E2E2E2E2
310
E2E2E2F5E2E2E2E2E2E2E2E2E2F5E2E2F5E2E2BEE2E2E228E2E2E2E2E2E2E2E2E2E2E2E2E2E2E2E2E2E2E2E2E2E2E2E2E2E2E2E2E2E2E2E2E2E2E2E2E2E2E2E2E2E2E2E2E2E2E2E2E2E2E2E2E2E2E2E2E2E2E2E2E2E2E2E2E2E2E2E2E2E2E2E2E2E2E2E2E2E2E2E2E2E2E2E2E2E2E2E2E2E2E2E2E2E2E2E2E2E2E2E2E2E2E2
310
E2E2E2E2E2E2E2E2E2E2E2E2E2E2E2E2E2E2E2E2E2E2E2E2E2E2E2E2E2E2E2E2E2E2E2E2E2E2E2E2E2E2E2E2E2E2E2E2E2E2E2E2E2E2E2E2E2E2E2E2E2E2E2E2E2E2E2E2E2E2E2E2E2E2E2E2E2E2E2E2E2E2E2E2E2E2E2BEE2E2E2E2E2E2E2E2E2E2E2E2E2E2E2E2F5E2E2E2E2E2E2E2E2E2E2E2E2E2F5E2E2E2E2E2E2E2E2
310
E2E2E2E2E2F5E2E2E2E2E2E2E2E2E2F5E2E2F5E2E2BEE2E2E228E2E2E2E2E2E2E2E2E2E2E2E2E2E2E2E2E2E2E2E2E2E2E2E2E2E2E2E2E2E2E2E2E2E2E2E2E2E2E2E2E2E2E2E2E2E2E2E2E2E2E2E2E2E2E2E2E2E2E2E2E2E2E2E2E2E2E2E2E2E2E2E2E2E2E2E2E2E2E2E2E2E2E2E2E2E2E2E2E2E2E2E2E2E2E2E2E2E2E2E2E2
310
E2E2E2E2E2E2E2E2E2E2E2E2E2E2E2E2E2E2E2E2E2E2E2E2E2E2E2E2E2E2E2E2E2E2E2E2E2E2E2E2E2E2E2E2E2E2E2E2E2E2E2E2E2E2E2E2E2E2E2E2E2E2E2E2E2E2E2E2E2E2E2E2E2E2E2E2E2E2E2E2E2E2E2E2E2E2E2E2E2BEE2E2E2E2E2E2E2E2E2E2E2E2E2E2E2E2F5E2E2E2E2E2E2E2E2E2E2E2E2E2F5E2E2E2E2E2E2
310
E2E2E2E2E2E2E2F5E2E2E2E2E2E2E2E2E2F5E2E2F5E2E2BEE2E2E228E2E2E2E2E2E2E2E2E2E2E2E2E2E2E2E2E2E2E2E2E2E2E2E2E2E2E2E2E2E2E2E2E2E2E2E2E2E2E2E2E2E2E2E2E2E2E2E2E2E2E2E2E2E2E2E2E2E2E2E2E2E2E2E2E2E2E2E2E2E2E2E2E2E2E2E2E2E2E2E2E2E2E2E2E2E2E2E2E2E2E2E2E2E2E2E2E2E2E2
310
E2E2E2E2E2E2E2E2E2E2E2E2E2E2E2E2E2E2E2E2E2E2E2E2E2E2E2E2E2E2E2E2E2E2E2E2E2E2E2E2E2E2E2E2E2E2E2E2E2E2E2E2E2E2E2E2E2E2E2E2E2E2E2E2E2E2E2E2E2E2E2E2E2E2E2E2E2E2E2E2E2E2E2E2E2E2E2E2E2E2E2BEE2E2E2E2E2E2E2E2E2E2E2E2E2E2E2E2F5E2E2E2E2E2E2E2E2E2E2E2E2E2F5E2E2E2E2
310
E2E2E2E2E2E2E2E2E2F5E2E2E2E2E2E2E2E2E2F5E2E2F5E2E2BEE2E2E228E2E2E2E2E2E2E2E2E2E2E2E2E2E2E2E2E2E2E2E2E2E2E2E2E2E2E2E2E2E2E2E2E2E2E2E2E2E2E2E2E2E2E2E2E2E2E2E2E2E2E2E2E2E2E2E2E2E2E2E2E2E2E2E2E2E2E2E2E2E2E2E2E2E2E2E2E2E2E2E2E2E2E2E2E2E2E2E2E2E2E2E2E2E2E2E2E2
310
E2E2E2E2E2E2E2E2E2E2E2E2E2E2E2E2E2E2E2E2E2E2E2E2E2E2E2E2E2E2E2E2E2E2E2E2E2E2E2E2E2E2E2E2E2E2E2E2E2E2E2E2E2E2E2E2E2E2E2E2E2E2E2E2E2E2E2E2E2E2E2E2E2E2E2E2E2E2E2E2E2E2E2E2E2E2E2E2E2E2E2E2E2BEE2E2E2E2E2E2E2E2E2E2E2E2E2E2E2E2F5E2E2E2E2E2E2E2E2E2E2E2E2E2F5E2E2
310
E2E2E2E2E2E2E2E2E2E2E2F5E2E2E2E2E2E2E2E2E2F5E2E2F5E2E2BEE2E2E228E2E2E2E2E2E2E2E2E2E2E2E2E2E2E2E2E2E2E2E2E2E2E2E2E2E2E2E2E2E2E2E2E2E2E2E2E2E2E2E2E2E2E2E2E2E2E2E2E2E2E2E2E2E2E2E2E2E2E2E2E2E2E2E2E2E2E2E2E2E2E2E2E2E2E2E2E2E2E2E2E2E2E2E2E2E2E2E2E2E2E2E2E2E2E2
310
E2E2E2E2E2E2E2E2E2E2E2E2E2E2E2E2E2E2E2E2E2E2E2E2E2E2E2E2E2E2E2E2E2E2E2E2E2E2E2E2E2E2E2E2E2E2E2E2E2E2E2E2E2E2E2E2E2E2E2E2E2E2E2E2E2E2E2E2E2E2E2E2E2E2E2E2E2E2E2E2E2E2E2E2E2E2E2E2E2E2E2E2E2E2E2BEE2E2E2E2E2E2E2E2E2E2E2E2E2E2E2E2E2F5F5E2E2E2E2E2E2E2E2E2E2E2F5
310
E2E2E2E2E2E2E2E2E2E2E2F5F5E2E2E2E2E2E2E2E2E2E2F5E2E2F5E2E2BEE2E2E228E2E2E2E2E2E2E2E2E2E2E2E2E2E2E2E2E2E2E2E2E2E2E2E2E2E2E2E2E2E2E2E2E2E2E2E2E2E2E2E2E2E2E2E2E2E2E2E2E2E2E2E2E2E2E2E2E2E2E2E2E2E2E2E2E2E2E2E2E2E2E2E2E2E2E2E2E2E2E2E2E2E2E2E2E2E2E2E2E2E2E2E2E2
310
E2E2E2E2E2E2E2E2E2E2E2E2E2E2E2E2E2E2E2E2E2E2E2E2E2E2E2E2E2E2E2E2E2E2E2E2E2E2E2E2E2E2E2E2E2E2E2E2E2E2E2E2E2E2E2E2E2E2E2E2E2E2E2E2E2E2E2E2E2E2E2E2E2E2E2E2E2E2E2E2E2E2E2E2E2E2E2E2E2E2E2E2E2E2E2E2E2BEE2E2E2E2E2E2E2E2E2E2E2E2E2E2E2E2E2E2E2F5F5E2E2E2E2E2E2E2E2
310
E2F5E2E2E2E2E2E2E2E2E2F5F5E2E2E2E2E2E2E2E2E2E2E2E2F5E2E2F5E2E2BEE2E2E228E2E2E2E2E2E2E2E2E2E2E2E2E2E2E2E2E2E2E2E2E2E2E2E2E2E2E2E2E2E2E2E2E2E2E2E2E2E2E2E2E2E2E2E2E2E2E2E2E2E2E2E2E2E2E2E2E2E2E2E2E2E2E2E2E2E2E2E2E2E2E2E2E2E2E2E2E2E2E2E2E2E2E2E2E2E2E2E2E2E2E2
310
E2E2E2E2E2E2E2E2E2E2E2E2E2E2E2E2E2E2E2E2E2E2E2E2E2E2E2E2E2E2E2E2E2E2E2E2E2E2E2E2E2E2E2E2E2E2E2E2E2E2E2E2E2E2E2E2E2E2E2E2E2E2E2E2E2E2E2E2E2E2E2E2E2E2E2E2E2E2E2E2E2E2E2E2E2E2E2E2E2E2E2E2E2E2E2E2E2E2E2BEE2E2F5F5F5F5F5F5F5F5F5F5F5F5F5F5F5E2E2E2E2F5F5F5F5F5E2
310
E2E2E2F5E2E2E2E2F5F5F5F5F5E2E2E2E2E2E2E2E2E2E2E2E2E2E2F5E2E2F5E2E2BEE2E2E228E2E2E2E2E2E2E2E2E2E2E2E2E2E2E2E2E2E2E2E2E2E2E2E2E2E2E2E2E2E2E2E2E2E2E2E2E2E2E2E2E2E2E2E2E2E2E2E2E2E2E2E2E2E2E2E2E2E2E2E2E2E2E2E2E2E2E2E2E2E2E2E2E2E2E2E2E2E2E2E2E2E2E2E2E2E2E2E2E2
310
E2E2E2E2E2E2E2E2E2E2E2E2E2E2E2E2E2E2E2E2E2E2E2E2E2E2E2E2E2E2E2E2E2E2E2E2E2E2E2E2E2E2E2E2E2E2E2E2E2E2E2E2E2E2E2E2E2E2E2E2E2E2E2E2E2E2E2E2E2E2E2E2E2E2E2E2E2E2E2E2E2E2E2E2E2E2E2E2E2E2E2E2E2E2E2E2E2E2E2E2E2BEE2E2F5F5F5F5F5F5F5F5F5E2F5F5F5F5F5E2E2E2E2E2E2E2E2
310
E2F5F5F5F5F5F5F5F5F5F5E2E2E2E2E2E2E2E2E2E2E2E2E2E2E2E2E2F5F5E2E2F5E2E2BEE2E2E228E2E2E2E2E2E2E2E2E2E2E2E2E2E2E2E2E2E2E2E2E2E2E2E2E2E2E2E2E2E2E2E2E2E2E2E2E2E2E2E2E2E2E2E2E2E2E2E2E2E2E2E2E2E2E2E2E2E2E2E2E2E2E2E2E2E2E2E2E2E2E2E2E2E2E2E2E2E2E2E2E2E2E2E2E2E2E2
310
E2E2E2E2E2E2E2E2E2E2E2E2E2E2E2E2E2E2E2E2E2E2E2E2E2E2E2E2E2E2E2E2E2E2E2E2E2E2E2E2E2E2E2E2E2E2E2E2E2E2E2E2E2E2E2E2E2E2E2E2E2E2E2E2E2E2E2E2E2E2E2E2E2E2E2E2E2E2E2E2E2E2E2E2E2E2E2E2E2E2E2E2E2E2E2E2E2E2E2E2E2E2E2BEE2E2F5F5F5F5F5F5F5F5F5F5F5E2E2E2F5E2E2E2E2E2E2
310
E2E2E2F5F5F5F5F5F5F5F5F5F5F5F5F5F5F5F5F5F5F5F5F5F5F5F5F5F5F5F5F5E2E2F5E2E2BEE2E2E228E2E2E2E2E2E2E2E2E2E2E2E2E2E2E2E2E2E2E2E2E2E2E2E2E2E2E2E2E2E2E2E2E2E2E2E2E2E2E2E2E2E2E2E2E2E2E2E2E2E2E2E2E2E2E2E2E2E2E2E2E2E2E2E2E2E2E2E2E2E2E2E2E2E2E2E2E2E2E2E2E2E2E2E2E2
310
E2E2E2E2E2E2E2E2E2E2E2E2E2E2E2E2E2E2E2E2E2E2E2E2E2E2E2E2E2E2E2E2E2E2E2E2E2E2E2E2E2E2E2E2E2E2E2E2E2E2E2E2E2E2E2E2E2E2E2E2E2E2E2E2E2E2E2E2E2E2E2E2E2E2E2E2E2E2E2E2E2E2E2E2E2E2E2E2E2E2E2E2E2E2E2E2E2E2E2E2E2E2E2E2E2BEE2E2F5F5F5F5F5F5F5F5F5F5E2E2E2E2E2E2E2E2E2
310
E2E2E2E2E2F5E2E2E2F5F5E2E2F5E2E2E2E2E2E2E2E2E2E2E2E2E2E2E2E2E2E2E2E2E2E2F5E2E2BEE2E2E228E2E2E2E2E2E2E2E2E2E2E2E2E2E2E2E2E2E2E2E2E2E2E2E2E2E2E2E2E2E2E2E2E2E2E2E2E2E2E2E2E2E2E2E2E2E2E2E2E2E2E2E2E2E2E2E2E2E2E2E2E2E2E2E2E2E2E2E2E2E2E2E2E2E2E2E2E2E2E2E2E2E2E2
310
E2E2E2E2E2E2E2E2E2E2E2E2E2E2E2E2E2E2E2E2E2E2E2E2E2E2E2E2E2E2E2E2E2E2E2E2E2E2E2E2E2E2E2E2E2E2E2E2E2E2E2E2E2E2E2E2E2E2E2E2E2E2E2E2E2E2E2E2E2E2E2E2E2E2E2E2E2E2E2E2E2E2E2E2E2E2E2E2E2E2E2E2E2E2E2E2E2E2E2E2E2E2E2E2E2E2E2BEE2E2F5F5F5F5F5F5F5F5F5F5F5E2E2E2E2E2E2
310
E2E2E2E2E2F5E2F5E2E2E2F5E2F5E2F5E2F5E2E2E2E2E2E2E2E2E2E2E2E2E2E2E2E2E2E2E2E2F5E2E2BEE2E2E228E2E2E2E2E2E2E2E2E2E2E2E2E2E2E2E2E2E2E2E2E2E2E2E2E2E2E2E2E2E2E2E2E2E2E2E2E2E2E2E2E2E2E2E2E2E2E2E2E2E2E2E2E2E2E2E2E2E2E2E2E2E2E2E2E2E2E2E2E2E2E2E2E2E2E2E2E2E2E2E2E2
310
E2E2E2E2E2E2E2E2E2E2E2E2E2E2E2E2E2E2E2E2E2E2E2E2E2E2E2E2E2E2E2E2E2E2E2E2E2E2E2E2E2E2E2E2E2E2E2E2E2E2E2E2E2E2E2E2E2E2E2E2E2E2E2E2E2E2E2E2E2E2E2E2E2E2E2E2E2E2E2E2E2E2E2E2E2E2E2E2E2E2E2E2E2E2E2E2E2E2E2E2E2E2E2E2E2E2E2E2E2BEE2E2F5F5F5F5F5F5F5F5F5F5F5E2E2E2E2
310
E2E2E2E2E2E2F5F5F5F5F5F5F5F5F5F5F5F5F5F5F5E2E2E2E2E2E2E2E2E2E2E2E2E2E2E2E2E2E2E2F5F5E2BEE2E2E228E2E2E2E2E2E2E2E2E2E2E2E2E2E2E2E2E2E2E2E2E2E2E2E2E2E2E2E2E2E2E2E2E2E2E2E2E2E2E2E2E2E2E2E2E2E2E2E2E2E2E2E2E2E2E2E2E2E2E2E2E2E2E2E2E2E2E2E2E2E2E2E2E2E2E2E2E2E2E2
310
E2E2E2E2E2E2E2E2E2E2E2E2E2E2E2E2E2E2E2E2E2E2E2E2E2E2E2E2E2E2E2E2E2E2E2E2E2E2E2E2E2E2E2E2E2E2E2E2E2E2E2E2E2E2E2E2E2E2E2E2E2E2E2E2E2E2E2E2E2E2E2E2E2E2E2E2E2E2E2E2E2E2E2E2E2E2E2E2E2E2E2E2E2E2E2E2E2E2E2E2E2E2E2E2E2E2E2E2E2E2E2BEE2E2F5F5F5F5F5F5F5F5F5F5F5E2E2
310
E2E2E2E2E2E2E2E2F5F5F5F5F5F5F5F5F5F5F5F5F5F5F5F5F5F5F5F5F5F5F5F5F5F5F5F5F5F5F5F5F5F5F5F5E2BEE2E2E228E2E2E2E2E2E2E2E2E2E2E2E2E2E2E2E2E2E2E2E2E2E2E2E2E2E2E2E2E2E2E2E2E2E2E2E2E2E2E2E2E2E2E2E2E2E2E2E2E2E2E2E2E2E2E2E2E2E2E2E2E2E2E2E2E2E2E2E2E2E2E2E2E2E2E2E2E2
310
E2E2E2E2E2E2E2E2E2E2E2E2E2E2E2E2E2E2E2E2E2E2E2E2E2E2E2E2E2E2E2E2E2E2E2E2E2E2E2E2E2E2E2E2E2E2E2E2E2E2E2E2E2E2E2E2E2E2E2E2E2E2E2E2E2E2E2E2E2E2E2E2E2E2E2E2E2E2E2E2E2E2E2E2E2E2E2E2E2E2E2E2E2E2E2E2E2E2E2E2E2E2E2E2E2E2E2E2E2E2E2E2E2BEE2E2F5F5F5F5F5F5F5F5F5F5F5
310
E2E2E2E2E2E2E2E2E2E2E2F5E2E2E2F5F5F5E2E2E2E2E2F5E2E2E2E2E2E2E2E2E2E2E2E2E2E2E2E2E2E2E2E2E2E2E2BEE2E2E228E2E2E2E2E2E2E2E2E2E2E2E2E2E2E2E2E2E2E2E2E2E2E2E2E2E2E2E2E2E2E2E2E2E2E2E2E2E2E2E2E2E2E2E2E2E2E2E2E2E2E2E2E2E2E2E2E2E2E2E2E2E2E2E2E2E2E2E2E2E2E2E2E2E2E2
310
E2E2E2E2E2E2E2E2E2E2E2E2E2E2E2E2E2E2E2E2E2E2E2E2E2E2E2E2E2E2E2E2E2E2E2E2E2E2E2E2E2E2E2E2E2E2E2E2E2E2E2E2E2E2E2E2E2E2E2E2E2E2E2E2E2E2E2E2E2E2E2E2E2E2E2E2E2E2E2E2E2E2E2E2E2E2E2E2E2E2E2E2E2E2E2E2E2E2E2E2E2E2E2E2E2E2E2E2E2E2E2E2E2E2E2BEE2E2F5F5F5F5F5F5F5F5F5
310
F5F5E2E2E2E2F5F5F5F5F5F5F5F5F5F5F5E2E2F5E2E2E2E2E2E2F5E2E2E2E2E2E2E2E2E2E2E2E2E2E2E2E2E2E2E2E2E2E2BEE2E2E228E2E2E2E2E2E2E2E2E2E2E2E2E2E2E2E2E2E2E2E2E2E2E2E2E2E2E2E2E2E2E2E2E2E2E2E2E2E2E2E2E2E2E2E2E2E2E2E2E2E2E2E2E2E2E2E2E2E2E2E2E2E2E2E2E2E2E2E2E2E2E2E2E2
310
E2E2E2E2E2E2E2E2E2E2E2E2E2E2E2E2E2E2E2E2E2E2E2E2E2E2E2E2E2E2E2E2E2E2E2E2E2E2E2E2E2E2E2E2E2E2E2E2E2E2E2E2E2E2E2E2E2E2E2E2E2E2E2E2E2E2E2E2E2E2E2E2E2E2E2E2E2E2E2E2E2E2E2E2E2E2E2E2E2E2E2E2E2E2E2E2E2E2E2E2E2E2E2E2E2E2E2E2E2E2E2E2E2E2E2E2E2BEE2E2F5F5F5F5F5F5F5
310
F5F5F5E2E2E2E2E2F5F5F5F5F5F5F5F5F5E2E2E2E2F5E2E2E2E2E2E2E2F5F5E2E2E2E2E2E2E2E2E2E2E2E2E2E2E2E2E2E2E2E2BEE2E2E228E2E2E2E2E2E2E2E2E2E2E2E2E2E2E2E2E2E2E2E2E2E2E2E2E2E2E2E2E2E2E2E2E2E2E2E2E2E2E2E2E2E2E2E2E2E2E2E2E2E2E2E2E2E2E2E2E2E2E2E2E2E2E2E2E2E2E2E2E2E2E2
310
E2E2E2E2E2E2E2E2E2E2E2E2E2E2E2E2E2E2E2E2E2E2E2E2E2E2E2E2E2E2E2E2E2E2E2E2E2E2E2E2E2E2E2E2E2E2E2E2E2E2E2E2E2E2E2E2E2E2E2E2E2E2E2E2E2E2E2E2E2E2E2E2E2E2E2E2E2E2E2E2E2E2E2E2E2E2E2E2E2E2E2E2E2E2E2E2E2E2E2E2E2E2E2E2E2E2E2E2E2E2E2E2E2E2E2E2E2E2E2BEE2E2F5F5F5F5F5
310
F5F5F5F5F5E2E2E2E2E2E2F5F5F5F5F5F5E2E2E2E2E2E2F5E2E2E2E2E2E2E2E2E2F5E2E2E2E2E2E2E2E2E2E2E2E2E2E2E2E2E2E2E2BEE2E2E228E2E2E2E2E2E2E2E2E2E2E2E2E2E2E2E2E2E2E2E2E2E2E2E2E2E2E2E2E2E2E2E2E2E2E2E2E2E2E2E2E2E2E2E2E2E2E2E2E2E2E2E2E2E2E2E2E2E2E2E2E2E2E2E2E2E2E2E2E2
310
E2E2E2E2E2E2E2E2E2E2E2E2E2E2E2E2E2E2E2E2E2E2E2E2E2E2E2E2E2E2E2E2E2E2E2E2E2E2E2E2E2E2E2E2E2E2E2E2E2E2E2E2E2E2E2E2E2E2E2E2E2E2E2E2E2E2E2E2E2E2E2E2E2E2E2E2E2E2E2E2E2E2E2E2E2E2E2E2E2E2E2E2E2E2E2E2E2E2E2E2E2E2E2E2E2E2E2E2E2E2E2E2E2E2E2E2E2E2E2E2E2BEE2F5F5F5F5
310
F5F5F5F5F5F5F5F5F5F5E2E2E2E2E2E2E2E2F5F5F5F5F5F5F5F5F5F5F5F5F5F5F5E2E2E2F5F5F5F5F5F5F5F5F5F5F5F5F5F5F5F5E2E2E2BEE2E2E228E2E2E2E2E2E2E2E2E2E2E2E2E2E2E2E2E2E2E2E2E2E2E2E2E2E2E2E2E2E2E2E2E2E2E2E2E2E2E2E2E2E2E2E2E2E2E2E2E2E2E2E2E2E2E2E2E2E2E2E2E2E2E2E2E2E2E2
310
E2E2E2E2E2E2E2E2E2E2E2E2E2E2E2E2E2E2E2E2E2E2E2E2E2E2E2E2E2E2E2E2E2E2E2E2E2E2E2E2E2E2E2E2E2E2E2E2E2E2E2E2E2E2E2E2E2E2E2E2E2E2E2E2E2E2E2E2E2E2E2E2E2E2E2E2E2E2E2E2E2E2E2E2E2E2E2E2E2E2E2E2E2E2E2E2E2E2E2E2E2E2E2E2E2E2E2E2E2E2E2E2E2E2E2E2E2E2E2E2E2E2E2BEE2E2F5
310
F5F5F5F5F5F5F5F5F5F5F5E2E2E2E2E2E2E2E2E2E2F5E2E2E2E2E2F5E2E2E2E2E2F5E2E2E2E2F5F5F5F5F5F5F5F5F5F5F5F5F5F5F5F5E2E2E2BEE2E2E228E2E2E2E2E2E2E2E2E2E2E2E2E2E2E2E2E2E2E2E2E2E2E2E2E2E2E2E2E2E2E2E2E2E2E2E2E2E2E2E2E2E2E2E2E2E2E2E2E2E2E2E2E2E2E2E2E2E2E2E2E2E2E2E2E2
310
E2E2E2E2E2E2E2E2E2E2E2E2E2E2E2E2E2E2E2E2E2E2E2E2E2E2E2E2E2E2E2E2E2E2E2E2E2E2E2E2E2E2E2E2E2E2E2E2E2E2E2E2E2E2E2E2E2E2E2E2E2E2E2E2E2E2E2E2E2E2E2E2E2E2E2E2E2E2E2E2E2E2E2E2E2E2E2E2E2E2E2E2E2E2E2E2E2E2E2E2E2E2E2E2E2E2E2E2E2E2E2E2E2E2E2E2E2E2E2E2E2E2E2E2E2BEE2
310
E2F5F5F5F5F5F5F5F5F5F5E2F5E2E2E2E2E2E2E2E2E2E2F5F5E2E2E2E2F5E2E2E2E2F5F5E2E2E2E2F5F5F5F5F5F5F5F5F5F5F5F5F5F5F5F5E2E2E2BEE2E2E228E2E2E2E2E2E2E2E2E2E2E2E2E2E2E2E2E2E2E2E2E2E2E2E2E2E2E2E2E2E2E2E2E2E2E2E2E2E2E2E2E2E2E2E2E2E2E2E2E2E2E2E2E2E2E2E2E2E2E2E2E2E2E2
310
E2E2E2E2E2E2E2E2E2E2E2E2E2E2E2E2E2E2E2E2E2E2E2E2E2E2E2E2E2E2E2E2E2E2E2E2E2E2E2E2E2E2E2E2E2E2E2E2E2E2E2E2E2E2E2E2E2E2E2E2E2E2E2E2E2E2E2E2E2E2E2E2E2E2E2E2E2E2E2E2E2E2E2E2E2E2E2E2E2E2E2E2E2E2E2E2E2E2E2E2E2E2E2E2E2E2E2E2E2E2E2E2E2E2E2E2E2E2E2E2E2E2E2E2E2E2E2
310
BEBEBEBEBEBEBEBEBEBEBEBEBEBEBEE2E2E2E2E2E2E2E2E2E2E2F5E2E2E2E2F5E2E2E2E2F5E2E2E2E2E2F5F5F5F5F5F5F5F5F5F5F5F5F5F5E2E2E2E2E2BEE2E2E228E2E2E2E2E2E2E2E2E2E2E2E2E2E2E2E2E2E2E2E2E2E2E2E2E2E2E2E2E2E2E2E2E2E2E2E2E2E2E2E2E2E2E2E2E2E2E2E2E2E2E2E2E2E2E2E2E2E2E2E2E2
310
E2E2E2E2E2E2E2E2E2E2E2E2E2E2E2E2E2E2E2E2E2E2E2E2E2E2E2E2E2E2E2E2E2E2E2E2E2E2E2E2E2E2E2E2E2E2E2E2E2E2E2E2E2E2E2E2E2E2E2E2E2E2E2E2E2E2E2E2E2E2E2E2E2E2E2E2E2E2E2E2E2E2E2E2E2E2E2E2E2E2E2E2E2E2E2E2E2E2E2E2E2E2E2E2E2E2E2E2E2E2E2E2E2E2E2E2E2E2E2E2E2E2E2E2E2E2E2
310
E2E2BEE2E2F5F5F5F5F5F5F5F5F5F5E2BEE2E2E2E2E2E2E2E2E2E2E2F5F5E2E2E2F5E2E2E2F5F5E2E2E2E2E2E2E2E2E2E2E2E2E2E2E2E2E2E2E2E2E2E2E2E2BEE2E2E228E2E2E2E2E2E2E2E2E2E2E2E2E2E2E2E2E2E2E2E2E2E2E2E2E2E2E2E2E2E2E2E2E2E2E2E2E2E2E2E2E2E2E2E2E2E2E2E2E2E2E2E2E2E2E2E2E2E2E2
310
E2E2E2E2E2E2E2E2E2E2E2E2E2E2E2E2E2E2E2E2E2E2E2E2E2E2E2E2E2E2E2E2E2E2E2E2E2E2E2E2E2E2E2E2E2E2E2E2E2E2E2E2E2E2E2E2E2E2E2E2E2E2E2E2E2E2E2E2E2E2E2E2E2E2E2E2E2E2E2E2E2E2E2E2E2E2E2E2E2E2E2E2E2E2E2E2E2E2E2E2E2E2E2E2E2E2E2E2E2E2E2E2E2E2E2E2E2E2E2E2E2E2E2E2E2E2E2
310
E2E2E2E2BEE2F5F5F5F5F5F5F5F5F5F5F5F5BEE2E2E2E2E2E2E2E2E2E2E2F5F5F5F5E2F5E2F5F5F5F5E2E2E2E2E2E2E2E2E2E2E2E2E2E2E2E2E2E2E2E2E2E2E2E2BEE2E2E228E2E2E2E2E2E2E2E2E2E2E2E2E2E2E2E2E2E2E2E2E2E2E2E2E2E2E2E2E2E2E2E2E2E2E2E2E2E2E2E2E2E2E2E2E2E2E2E2E2E2E2E2E2E2E2E2E2
310
E2E2E2E2E2E2E2E2E2E2E2E2E2E2E2E2E2E2E2E2E2E2E2E2E2E2E2E2E2E2E2E2E2E2E2E2E2E2E2E2E2E2E2E2E2E2E2E2E2E2E2E2E2E2E2E2E2E2E2E2E2E2E2E2E2E2E2E2E2E2E2E2E2E2E2E2E2E2E2E2E2E2E2E2E2E2E2E2E2E2E2E2E2E2E2E2E2E2E2E2E2E2E2E2E2E2E2E2E2E2E2E2E2E2E2E2E2E2E2E2E2E2E2E2E2E2E2
310
E2E2E2E2E2E2BEE2F5F5F5F5F5F5F5F5F5F5F5F5BEE2E2E2E2E2E2E2E2E2E2E2E2E2E2F5F5F5F5F5E2E2E2E2E2E2E2E2E2E2E2E2E2E2E2E2E2E2E2E2E2E2E2E2E2E2E2BEE2E2E228E2E2E2E2E2E2E2E2E2E2E2E2E2E2E2E2E2E2E2E2E2E2E2E2E2E2E2E2E2E2E2E2E2E2E2E2E2E2E2E2E2E2E2E2E2E2E2E2E2E2E2E2E2E2E2
310
E2E2E2E2E2E2E2E2E2E2E2E2E2E2E2E2E2E2E2E2E2E2E2E2E2E2E2E2E2E2E2E2E2E2E2E2E2E2E2E2E2E2E2E2E2E2E2E2E2E2E2E2E2E2E2E2E2E2E2E2E2E2E2E2E2E2E2E2E2E2E2E2E2E2E2E2E2E2E2E2E2E2E2E2E2E2E2E2E2E2E2E2E2E2E2E2E2E2E2E2E2E2E2E2E2E2E2E2E2E2E2E2E2E2E2E2E2E2E2E2E2E2E2E2E2E2E2
310
E2E2E2E2E2E2E2E2BEBEBEBEBEBEBEBEBEBEBEBEBEBEBEBEBEBEBEBEBEBEBEBEBEBEBEBEBEBEBEBEBEBEBEBEBEBEBEBEBEBEBEBEBEBEBEBEBEBEBEBEBEBEBEBEBEBEBEBEBEBEE2E2E228E2E2E2E2E2E2E2E2E2E2E2E2E2E2E2E2E2E2E2E2E2E2E2E2E2E2E2E2E2E2E2E2E2E2E2E2E2E2E2E2E2E2E2E2E2E2E2E2E2E2E2E2E2
310
E2E2E2E2E2E2E2E2E2E2E2E2E2E2E2E2E2E2E2E2E2E2E2E2E2E2E2E2E2E2E2E2E2E2E2E2E2E2E2E2E2E2E2E2E2E2E2E2E2E2E2E2E2E2E2E2E2E2E2E2E2E2E2E2E2E2E2E2E2E2E2E2E2E2E2E2E2E2E2E2E2E2E2E2E2E2E2E2E2E2E2E2E2E2E2E2E2E2E2E2E2E2E2E2E2E2E2E2E2E2E2E2E2E2E2E2E2E2E2E2E2E2E2E2E2E2E2
310
E2E2E2E2E2E2E2E2E2E2E2E2E2E2E2E2E2E2E2E2E2E2E2E2E2E2E2E2E2E2E2E2E2E2E2E2E2E2E2E2E2E2E2E2E2E2E2E2E2E2E2E2E2E2E2E2E2E2E2E2E2E2E2E2E2E2E2E2E2E2E2E2E2E2E228E2E2E2E2E2E2E2E2E2E2E2E2E2E2E2E2E2E2E2E2E2E2E2E2E2E2E2E2E2E2E2E2E2E2E2E2E2E2E2E2E2E2E2E2E2E2E2E2E2E2E2
310
E2E2E2E2E2E2E2E2E2E2E2E2E2E2E2E2E2E2E2E2E2E2E2E2E2E2E2E2E2E2E2E2E2E2E2E2E2E2E2E2E2E2E2E2E2E2E2E2E2E2E2E2E2E2E2E2E2E2E2E2E2E2E2E2E2E2E2E2E2E2E2E2E2E2E2E2E2E2E2E2E2E2E2E2E2E2E2E2E2E2E2E2E2E2E2E2E2E2E2E2E2E2E2E2E2E2E2E2E2E2E2E2E2E2E2E2E2E2E2E2E2E2E2E2E2E2E2
310
E2E2E2E2E2E2E2E2E2E2E2E2E2E2E2E2E2E2E2E2E2E2E2E2E2E2E2E2E2E2E2E2E2E2E2E2E2E2E2E2E2E2E2E2E2E2E2E2E2E2E2E2E2E2E2E2E2E2E2E2E2E2E2E2E2E2E2E2E2E2E2E2E2E2E2E2E228E2E2E2E2E2E2E2E2E2E2E2E2E2E2E2E2E2E2E2E2E2E2E2E2E2E2E2E2E2E2E2E2E2E2E2E2E2E2E2E2E2E2E2E2E2E2E2E2E2
310
E2E2E2E2E2E2E2E2E2E2E2E2E2E2E2E2E2E2E2E2E2E2E2E2E2E2E2E2E2E2E2E2E2E2E2E2E2E2E2E2E2E2E2E2E2E2E2E2E2E2E2E2E2E2E2E2E2E2E2E2E2E2E2E2E2E2E2E2E2E2E2E2E2E2E2E2E2E2E2E2E2E2E2E2E2E2E2E2E2E2E2E2E2E2E2E2E2E2E2E2E2E2E2E2E2E2E2E2E2E2E2E2E2E2E2E2E2E2E2E2E2E2E2E2E2E2E2
310
E2E2E2E2E2E2E2E2E2E2E2E2E2E2E2E2E2E2E2E2E2E2E2E2E2E2E2E2E2E2E2E2E2E2E2E2E2E2E2E2E2E2E2E2E2E2E2E2E2E2E2E2E2E2E2E2E2E2E2E2E2E2E2E2E2E2E2E2E2E2E2E2E2E2E2E2E2E2E228E2E2E2E2E2E2E2E2E2E2E2E2E2E2E2E2E2E2E2E2E2E2E2E2E2E2E2E2E2E2E2E2E2E2E2E2E2E2E2E2E2E2E2E2E2E2E2
310
E2E2E2E2E2E2E2E2E2E2E2E2E2E2E2E2E2E2E2E2E2E2E2E2E2E2E2E2E2E2E2E2E2E2E2E2E2E2E2E2E2E2E2E2E2E2E2E2E2E2E2E2E2E2E2E2E2E2E2E2E2E2E2E2E2E2E2E2E2E2E2E2E2E2E2E2E2E2E2E2E2E2E2E2E2E2E2E2E2E2E2E2E2E2E2E2E2E2E2E2E2E2E2E2E2E2E2E2E2E2E2E2E2E2E2E2E2E2E2E2E2E2E2E2E2E2E2
310
E2E2E2E2E2E2E2E2E2E2E2E2E2E2E2E2E2E2E2E2E2E2E2E2E2E2E2E2E2E2E2E2E2E2E2E2E2E2E2E2E2E2E2E2E2E2E2E2E2E2E2E2E2E2E2E2E2E2E2E2E2E2E2E2E2E2E2E2E2E2E2E2E2E2E2E2E2E2E2E2E2E2E2E2E2E2E2E2E2E2E2E2E2E2E2E2E2E2E2E2E2E2E2E2E2E2E2E2E2E2E2E2E2E2E2E2E2E2E2E2E2E2E2E2E2E2E2
310
E2E2E2E2E2E2E2E2E2E2E2E2E2E2E2E2E2E2E2E2E2E2E2E2E2E2E2E2E2E2E2E2E2E2E2E2E2E2E2E2E2E2E2E2E2E2E2E2E2E2E2E2E2E2E2E2E2E2E2E2E2E2E2E2E2E2E2E2E2E2E2E2E2E2E2E2E2E2E2E2E2E2E2E2E2E2E2E2E2E2E2E2E2E2E2E2E2E2E2E2E2E2E2E2E2E2E2E2E2E2E2E2E2E2E2E2E2E2E2E2E2E2E2E2E2E2E2
310
E2E2E2E2E2E2E2E2E2E2E2E2E2E2E2E2E2E2E2E2E2E2E2E2E2E2E2E2E2E2E2E2E2E2E2E2E2E2E2E2E2E2E2E2E2E2E2E2E2E2E2E2E2E2E2E2E2E2E2E2E2E2E2E2E2E2E2E2E2E2E2E2E2E2E2E2E2E2E2E2E2E2E2E2E2E2E2E2E2E2E2E2E2E2E2E2E2E2E2E2E2E2E2E2E2E2E2E2E2E2E2E2E2E2E2E2E2E2E2E2E2E2E2E2E2E2E2
310
E2E2E2E2E2E2E2E2E2E2E2E2E2E2E2E2E2E2E2E2E2E2E2E2E2E2E2E2E2E2E2E2E2E2E2E2E2E2E2E2E2E2E2E2E2E2E2E2E2E2E2E2E2E2E2E2E2E2E2E2E2E2E2E2E2E2E2E2E2E2E2E2E2E2E2E2E2E2E2E2E2E2E2E2E2E2E2E2E2E2E2E2E2E2E2E2E2E2E2E2E2E2E2E2E2E2E2E2E2E2E2E2E2E2E2E2E2E2E2E2E2E2E2E2E2E2E2
310
E2E2E2E2E2E2E2E2E2E2E2E2E2E2E2E2E2E2E2E2E2E2E2E2E2E2E2E2E2E2E2E2E2E2E2E2E2E2E2E2E2E2E2E2E2E2E2E2E2E2E2E2E2E2E2E2E2E2E2E2E2E2E2E2E2E2E2E2E2E2E2E2E2E2E2E2E2E2E2E2E2E2E2E2E2E2E2E2E2E2E2E2E2E2E2E2E2E2E2E2E2E2E2E2E2E2E2E2E2E2E2E2E2E2E2E2E2E2E2E2E2E2E2E2E2E2E2
310
E2E2E2E2E2E2E2E2E2E2E2E2E2E2E2E2E2E2E2E2E2E2E2E2E2E2E2E2E2E2E2E2E2E2E2E2E2E2E2E2E2E2E2E2E2E2E2E2E2E2E2E2E2E2E2E2E2E2E2E2E2E2E2E2E2E2E2E2E2E2E2E2E2E2E2E2E2E2E2E2E2E2E2E2E2E2E2E2E2E2E2E2E2E2E2E2E2E2E2E2E2E2E2E2E2E2E2E2E2E2E2E2E2E2E2E2E2E2E2E2E2E2E2E2E2E2E2
310
E2E2E2E2E2E2E2E2E2E2E2E2E2E2E2E2E2E2E2E2E2E2E2E2E2E2E2E2E2E2E2E2E2E2E2E2E2E2E2E2E2E2E2E2E2E2E2E2E2E2E2E2E2E2E2E2E2E2E2E2E2E2E2E2E2E2E2E2E2E2E2E2E2E2E2E2E2E2E2E2E2E2E2E2E2E2E2E2E2E2E2E2E2E2E2E2E2E2E2E2E2E2E2E2E2E2E2E2E2E2E2E2E2E2E2E2E2E2E2E2E2E2E2E2E2E2E2
310
E2E2E2E2E2E2E2E2E2E2E2E2E2E2E2E2E2E2E2E2E2E2E2E2E2E2E2E2E2E2E2E2E2E2E2E2E2E2E2E2E2E2E2E2E2E2E2E2E2E2E2E2E2E2E2E2E2E2E2E2E2E2E2E2E2E2E2E2E2E2E2E2E2E2E2E2E2E2E2E2E2E2E2E2E2E2E2E2E2E2E2E2E2E2E2E2E2E2E2E2E2E2E2E2E2E2E2E2E2E2E2E2E2E2E2E2E2E2E2E2E2E2E2E2E2E2E2
310
E2E2E2E2E2E2E2E2E2E2E2E2E2E2E2E2E2E2E2E2E2E2E2E2E2E2E2E2E2E2E2E2E2E2E2E2E2E2E2E2E2E2E2E2E2E2E2E2E2E2E2E2E2E2E2E2E2E2E2E2E2E2E2E2E2E2E2E2E2E2E2E2E2E2E2E2E2E2E2E2E2E2E2E2E2E2E2E2E2E2E2E2E2E2E2E2E2E2E2E2E2E2E2E2E2E2E2E2E2E2E2E2E2E2E2E2E2E2E2E2E2E2E2E2E2E2E2
310
E2E2E2E2E2E2E2E2E2E2E2E2E2E2E2E2E2E2E2E2E2E2E2E2E2E2E2E2E2E2E2E2E2E2E2E2E2E2E2E2E2E2E2E2E2E2E2E2E2E2E2E2E2E2E2E2E2E2E2E2E2E2E2E2E2E2E2E2E2E2E2E2E2E2E2E2E2E2E2E2E2E2E2E2E2E2E2E2E2E2E2E2E2E2E2E2E2E2E2E2E2E2E2E2E2E2E2E2E2E2E2E2E2E2E2E2E2E2E2E2E2E2E2E2E2E2E2
310
E2E2E2E2E2E2E2E2E2E2E2E2E2E2E2E2E2E2E2E2E2E2E2E2E2E2E2E2E2E2E2E2E2E2E2E2E2E2E2E2E2E2E2E2E2E2E2E2E2E2E2E2E2E2E2E2E2E2E2E2E2E2E2E2E2E2E2E2E2E2E2E2E2E2E2E2E2E2E2E2E2E2E2E2E2E2E2E2E2E2E2E2E2E2E2E2E2E2E2E2E2E2E2E2E2E2E2E2E2E2E2E2E2E2E2E2E2E2E2E2E2E2E2E2E2E2E2
310
E2E2E2E2E2E2E2E2E2E2E2E2E2E2E2E2E2E2E2E2E2E2E2E2E2E2E2E2E2E2E2E2E2E2E2E2E2E2E2E2E2E2E2E2E2E2E2E2E2E2E2E2E2E2E2E2E2E2E2E2E2E2E2E2E2E2E2E2E2E2E2E2E2E2E2E2E2E2E2E2E2E2E2E2E2E2E2E2E2E2E2E2E2E2E2E2E2E2E2E2E2E2E2E2E2E2E2E2E2E2E2E2E2E2E2E2E2E2E2E2E2E2E2E2E2E2E2
310
E2E2E2E2E2E2E2E2E2E2E2E2E2E2E2E2E2E2E2E2E2E2E2E2E2E2E2E2E2E2E2E2E2E2E2E2E2E2E2E2E2E2E2E2E2E2E2E2E2E2E2E2E2E2E2E2E2E2E2E2E2E2E2E2E2E2E2E2E2E2E2E2E2E2E2E2E2E2E2E2E2E2E2E2E2E2E2E2E2E2E2E2E2E2E2E2E2E2E2E2E2E2E2E2E2E2E2E2E2E2E2E2E2E2E2E2E2E2E2E2E2E2E2E2E2E2E2
310
E2E2E2E2E2E2E2E2E2E2E2E2E2E2E2E2E2E2E2E2E2E2E2E2E2E2E2E2E2E2E2E2E2E2E2E2E2E2E2E2E2E2E2E2E2E2E2E2E2E2E2E2E2E2E2E2E2E2E2E2E2E2E2E2E2E2E2E2E2E2E2E2E2E2E2E2E2E2E2E2E2E2E2E2E2E2E2E2E2E2E2E2E2E2E2E2E2E2E2E2E2E2E2E2E2E2E2E2E2E2E2E2E2E2E2E2E2E2E2E2E2E2E2E2E2E2E2
310
E2E2E2E2E2E2E2E2E2E2E2E2E2E2E2E2E2E2E2E2E2E2E2E2E2E2E2E2E2E2E2E2E2E2E2E2E2E2E2E2E2E2E2E2E2E2E2E2E2E2E2E2E2E2E2E2E2E2E2E2E2E2E2E2E2E2E2E2E2E2E2E2E2E2E2E2E2E2E2E2E2E2E2E2E2E2E2E2E2E2E2E2E2E2E2E2E2E2E2E2E2E2E2E2E2E2E2E2E2E2E2E2E2E2E2E2E2E2E2E2E2E2E2E2E2E2E2
310
E2E2E2E2E2E2E2E2E2E2E2E2E2E2E2E2E2E2E2E2E2E2E2E2E2E2E2E2E2E2E2E2E2E2E2E2E2E2E2E2E2E2E2E2E2E2E2E2E2E2E2E2E2E2E2E2E2E2E2E2E2E2E2E2E2E2E2E2E2E2E2E2E2E2E2E2E2E2E2E2E2E2E2E2E2E2E2E2E2E2E2E2E2E2E2E2E2E2E2E2E2E2E2E2E2E2E2E2E2E2E2E2E2E2E2E2E2E2E2E2E2E2E2E2E2E2E2
310
E2E2E2E2E2E2E2E2E2E2E2E2E2E2E2E2E2E2E2E2E2E2E2E2E2E2E2E2E2E2E2E2E2E2E2E2E2E2E2E2E2E2E2E2E2E2E2E2E2E2E2E2E2E2E2E2E2E2E2E2E2E2E2E2E2E2E2E2E2E2E2E2E2E2E2E2E2E2E2E2E2E2E2E2E2E2E2E2E2E2E2E2E2E2E2E2E2E2E2E2E2E2E2E2E2E2E2E2E2E2E2E2E2E2E2E2E2E2E2E2E2E2E2E2E2E2E2
310
E2E2E2E2E2E2E2E2E2E2E2E2E2E2E2E2E2E2E2E2E2E2E2E2E2E2E2E2E2E2E2E2E2E2E2E2E2E2E2E2E2E2E2E2E2E2E2E2E2E2E2E2E2E2E2E2E2E2E2E2E2E2E2E2E2E2E2E2E2E2E2E2E2E2E2E2E2E2E2E2E2E2E2E2E2E2E2E2E2E2E2E2E2E2E2E2E2E2E2E2E2E2E2E2E2E2E2E2E2E2E2E2E2E2E2E2E2E2E2E2E2E2E2E2E2E2E2
310
E2E2E2E2E2E2E2E2E2E2E2E2E2E2E2E2E2E2E2E2E2E2E2E2E2E2E2E2E2E2E2E2E2E2E2E2E2E2E2E2E2E2E2E2E2E2E2E2E2E2E2E2E2E2E2E2E2E2E2E2E2E2E2E2E2E2E2E2E2E2E2E2E2E2E2E2E2E2E2E2E2E2E2E2E2E2E2E2E2E2E2E2E2E2E2E2E2E2E2E2E2E2E2E2E2E2E2E2E2E2E2E2E2E2E2E2E2E2E2E2E2E2E2E2E2E2E2
310
E2E2E2E2E2E2E2E2E2E2E2E2E2E2E2E2E2E2E2E2E2E2E2E2E2E2E2E2E2E2E2E2E2E2E2E2E2E2E2E2E2E2E2E2E2E2E2E2E2E2E2E2E2E2E2E2E2E2E2E2E2E2E2E2E2E2E2E2E2E2E2E2E2E2E2E2E2E2E2E2E2E2E2E2E2E2E2E2E2E2E2E2E2E2E2E2E2E2E2E2E2E2E2E2E2E2E2E2E2E2E2E2E2E2E2E2E2E2E2E2E2E2E2E2E2E2E2
310
E2E2E2E2E2E2E2E2E2E2E2E2E2E2E2E2E2E2E2E2E2E2E2E2E2E2E2E2E2E2E2E2E2E2E2E2E2E2E2E2E2E2E2E2E2E2E2E2E2E2E2E2E2E2E2E2E2E2E2E2E2E2E2E2E2E2E2E2E2E2E2E2E2E2E2E2E2E2E2E2E2E2E2E2E2E2E2E2E2E2E2E2E2E2E2E2E2E2E2E2E2E2E2E2E2E2E2E2E2E2E2E2E2E2E2E2E2E2E2E2E2E2E2E2E2E2E2
310
E2E2E2E2E2E2E2E2E2E2E2E2E2E2E2E2E2E2E2E2E2E2E2E2E2E2E2E2E2E2E2E2E2E2E2E2E2E2E2E2E2E2E2E2E2E2E2E2E2E2E2E2E2E2E2E2E2E2E2E2E2E2E2E2E2E2E2E2E2E2E2E2E2E2E2E2E2E2E2E2E2E2E2E2E2E2E2E2E2E2E2E2E2E2E2E2E2E2E2E2E2E2E2E2E2E2E2E2E2E2E2E2E2E2E2E2E2E2E2E2E2E2E2E2E2E2E2
310
E2E2E2E2E2E2E2E2E2E2E2E2E2E2E2E2E2E2E2E2E2E2E2E2E2E2E2E2E2E2E2E2E2E2E2E2E2E2E2E2E2E2E2E2E2E2E2E2E2E2E2E2E2E2E2E2E2E2E2E2E2E2E2E2E2E2E2E2E2E2E2E2E2E2E2E2E2E2E2E2E2E2E2E2E2E2E2E2E2E2E2E2E2E2E2E2E2E2E2E2E2E2E2E2E2E2E2E2E2E2E2E2E2E2E2E2E2E2E2E2E2E2E2E2E2E2E2
310
E2E2E2E2E2E2E2E2E2E2E2E2E2E2E2E2E2E2E2E2E2E2E2E2E2E2E2E2E2E2E2E2E2E2E2E2E2E2E2E2E2E2E2E2E2E2E2E2E2E2E2E2E2E2E2E2E2E2E2E2E2E2E2E2E2E2E2E2E2E2E2E2E2E2E2E2E2E2E2E2E2E2E2E2E2E2E2E2E2E2E2E2E2E2E2E2E2E2E2E2E2E2E2E2E2E2E2E2E2E2E2E2E2E2E2E2E2E2E2E2E2E2E2E2E2E2E2
310
E2E2E2E2E2E2E2E2E2E2E2E2E2E2E2E2E2E2E2E2E2E2E2E2E2E2E2E2E2E2E2E2E2E2E2E2E2E2E2E2E2E2E2E2E2E2E2E2E2E2E2E2E2E2E2E2E2E2E2E2E2E2E2E2E2E2E2E2E2E2E2E2E2E2E2E2E2E2E2E2E2E2E2E2E2E2E2E2E2E2E2E2E2E2E2E2E2E2E2E2E2E2E2E2E2E2E2E2E2E2E2E2E2E2E2E2E2E2E2E2E2E2E2E2E2E2E2
310
E2E2E2E2E2E2E2E2E2E2E2E2E2E2E2E2E2E2E2E2E2E2E2E2E2E2E2E2E2E2E2E2E2E2E2E2E2E2E2E2E2E2E2E2E2E2E2E2E2E2E2E2E2E2E2E2E2E2E2E2E2E2E2E2E2E2E2E2E2E2E2E2E2E2E2E2E2E2E2E2E2E2E2E2E2E2E2E2E2E2E2E2E2E2E2E2E2E2E2E2E2E2E2E2E2E2E2E2E2E2E2E2E2E2E2E2E2E2E2E2E2E2E2E2E2E2E2
310
E2E2E2E2E2E2E2E2E2E2E2E2E2E2E2E2E2E2E2E2E2E2E2E2E2E2E2E2E2E2E2E2E2E2E2E2E2E2E2E2E2E2E2E2E2E2E2E2E2E2E2E2E2E2E2E2E2E2E2E2E2E2E2E2E2E2E2E2E2E2E2E2E2E2E2E2E2E2E2E2E2E2E2E2E2E2E2E2E2E2E2E2E2E2E2E2E2E2E2E2E2E2E2E2E2E2E2E2E2E2E2E2E2E2E2E2E2E2E2E2E2E2E2E2E2E2E2
310
E2E2E2E2E2E2E2E2E2E2E2E2E2E2E2E2E2E2E2E2E2E2E2E2E2E2E2E2E2E2E2E2E2E2E2E2E2E2E2E2E2E2E2E2E2E2E2E2E2E2E2E2E2E2E2E2E2E2E2E2E2E2E2E2E2E2E2E2E2E2E2E2E2E2E2E2E2E2E2E2E2E2E2E2E2E2E2E2E2E2E2E2E2E2E2E2E2E2E2E2E2E2E2E2E2E2E2E2E2E2E2E2E2E2E2E2E2E2E2E2E2E2E2E2E2E2E2
310
E2E2E2E2E2E2E2E2E2E2E2E2E2E2E2E2E2E2E2E2E2E2E2E2E2E2E2E2E2E2E2E2E2E2E2E2E2E2E2E2E2E2E2E2E2E2E2E2E2E2E2E2E2E2E2E2E2E2E2E2E2E2E2E2E2E2E2E2E2E2E2E2E2E2E2E2E2E2E2E2E2E2E2E2E2E2E2E2E2E2E2E2E2E2E2E2E2E2E2E2E2E2E2E2E2E2E2E2E2E2E2E2E2E2E2E2E2E2E2E2E2E2E2E2E2E2E2
310
E2E2E2E2E2E2E2E2E2E2E2E2E2E2E2E2E2E2E2E2E2E2E2E2E2E2E2E2E2E2E2E2E2E2E2E2E2E2E2E2E2E2E2E2E2E2E2E2E2E2E2E2E2E2E2E2E2E2E2E2E2E2E2E2E2E2E2E2E2E2E2E2E2E2E2E2E2E2E2E2E2E2E2E2E2E2E2E2E2E2E2E2E2E2E2E2E2E2E2E2E2E2E2E2E2E2E2E2E2E2E2E2E2E2E2E2E2E2E2E2E2E2E2E2E2E2E2
310
E2E2E2E2E2E2E2E2E2E2E2E2E2E2E2E2E2E2E2E2E2E2E2E2E2E2E2E2E2E2E2E2E2E2E2E2E2E2E2E2E2E2E2E2E2E2E2E2E2E2E2E2E2E2E2E2E2E2E2E2E2E2E2E2E2E2E2E2E2E2E2E2E2E2E2E2E2E2E2E2E2E2E2E2E2E2E2E2E2E2E2E2E2E2E2E2E2E2E2E2E2E2E2E2E2E2E2E2E2E2E2E2E2E2E2E2E2E2E2E2E2E2E2E2E2E2E2
310
E2E2E2E2E2E2E2E2E2E2E2E2E2E2E2E2E2E2E2E2E2E2E2E2E2E2E2E2E2E2E2E2E2E2E2E2E2E2E2E2E2E2E2E2E2E2E2E2E2E2E2E2E2E2E2E2E2E2E2E2
  0
XRECORD
  5
891
102
{ACAD_REACTORS
330
890
102
}
330
890
100
AcDbXrecord
280
     1
102
MATERIAL
148
0.0
149
0.0
149
0.0
 93
        0
 94
       63
282
     0
 72
     1
 77
     1
171
     1
175
     1
179
     1
273
     0
  0
XRECORD
  5
88F
102
{ACAD_REACTORS
330
88E
102
}
330
88E
100
AcDbXrecord
280
     1
102
MATERIAL
148
0.0
149
0.0
149
0.0
 93
        0
 94
       63
282
     0
 72
     1
 77
     1
171
     1
175
     1
179
     1
273
     0
  0
XRECORD
  5
893
102
{ACAD_REACTORS
330
892
102
}
330
892
100
AcDbXrecord
280
     1
102
MATERIAL
148
0.0
149
0.0
149
0.0
 93
        0
 94
       63
282
     0
 72
     1
 77
     1
171
     1
175
     1
179
     1
273
     0
  0
CELLSTYLEMAP
  5
888
102
{ACAD_REACTORS
330
696
102
}
330
696
100
AcDbCellStyleMap
 90
        3
300
CELLSTYLE
  1
TABLEFORMAT_BEGIN
 90
        5
170
     1
 91
        0
 92
    32768
 62
   257
 93
        1
300
CONTENTFORMAT
  1
CONTENTFORMAT_BEGIN
 90
        0
 91
        0
 92
      512
 93
        0
300

 40
0.0
140
1.0
 94
        5
 62
     0
340
17
144
6.0
309
CONTENTFORMAT_END
171
     1
301
MARGIN
  1
CELLMARGIN_BEGIN
 40
1.5
 40
1.5
 40
1.5
 40
1.5
 40
0.18
 40
0.18
309
CELLMARGIN_END
 94
        6
 95
        1
302
GRIDFORMAT
  1
GRIDFORMAT_BEGIN
 90
        0
 91
        1
 62
     0
 92
       -2
340
0
 93
        0
 40
0.045
309
GRIDFORMAT_END
 95
        2
302
GRIDFORMAT
  1
GRIDFORMAT_BEGIN
 90
        0
 91
        1
 62
     0
 92
       -2
340
0
 93
        0
 40
0.045
309
GRIDFORMAT_END
 95
        4
302
GRIDFORMAT
  1
GRIDFORMAT_BEGIN
 90
        0
 91
        1
 62
     0
 92
       -2
340
0
 93
        0
 40
0.045
309
GRIDFORMAT_END
 95
        8
302
GRIDFORMAT
  1
GRIDFORMAT_BEGIN
 90
        0
 91
        1
 62
     0
 92
       -2
340
0
 93
        0
 40
0.045
309
GRIDFORMAT_END
 95
       16
302
GRIDFORMAT
  1
GRIDFORMAT_BEGIN
 90
        0
 91
        1
 62
     0
 92
       -2
340
0
 93
        0
 40
0.045
309
GRIDFORMAT_END
 95
       32
302
GRIDFORMAT
  1
GRIDFORMAT_BEGIN
 90
        0
 91
        1
 62
     0
 92
       -2
340
0
 93
        0
 40
0.045
309
GRIDFORMAT_END
309
TABLEFORMAT_END
  1
CELLSTYLE_BEGIN
 90
        1
 91
        1
300
_TITLE
309
CELLSTYLE_END
300
CELLSTYLE
  1
TABLEFORMAT_BEGIN
 90
        5
170
     1
 91
        0
 92
        0
 62
   257
 93
        1
300
CONTENTFORMAT
  1
CONTENTFORMAT_BEGIN
 90
        0
 91
        0
 92
      512
 93
        0
300

 40
0.0
140
1.0
 94
        5
 62
     0
340
17
144
4.5
309
CONTENTFORMAT_END
171
     1
301
MARGIN
  1
CELLMARGIN_BEGIN
 40
1.5
 40
1.5
 40
1.5
 40
1.5
 40
0.18
 40
0.18
309
CELLMARGIN_END
 94
        6
 95
        1
302
GRIDFORMAT
  1
GRIDFORMAT_BEGIN
 90
        0
 91
        1
 62
     0
 92
       -2
340
0
 93
        0
 40
0.045
309
GRIDFORMAT_END
 95
        2
302
GRIDFORMAT
  1
GRIDFORMAT_BEGIN
 90
        0
 91
        1
 62
     0
 92
       -2
340
0
 93
        0
 40
0.045
309
GRIDFORMAT_END
 95
        4
302
GRIDFORMAT
  1
GRIDFORMAT_BEGIN
 90
        0
 91
        1
 62
     0
 92
       -2
340
0
 93
        0
 40
0.045
309
GRIDFORMAT_END
 95
        8
302
GRIDFORMAT
  1
GRIDFORMAT_BEGIN
 90
        0
 91
        1
 62
     0
 92
       -2
340
0
 93
        0
 40
0.045
309
GRIDFORMAT_END
 95
       16
302
GRIDFORMAT
  1
GRIDFORMAT_BEGIN
 90
        0
 91
        1
 62
     0
 92
       -2
340
0
 93
        0
 40
0.045
309
GRIDFORMAT_END
 95
       32
302
GRIDFORMAT
  1
GRIDFORMAT_BEGIN
 90
        0
 91
        1
 62
     0
 92
       -2
340
0
 93
        0
 40
0.045
309
GRIDFORMAT_END
309
TABLEFORMAT_END
  1
CELLSTYLE_BEGIN
 90
        2
 91
        1
300
_HEADER
309
CELLSTYLE_END
300
CELLSTYLE
  1
TABLEFORMAT_BEGIN
 90
        5
170
     1
 91
        0
 92
        0
 62
   257
 93
        1
300
CONTENTFORMAT
  1
CONTENTFORMAT_BEGIN
 90
        0
 91
        0
 92
      512
 93
        0
300

 40
0.0
140
1.0
 94
        2
 62
     0
340
17
144
4.5
309
CONTENTFORMAT_END
171
     1
301
MARGIN
  1
CELLMARGIN_BEGIN
 40
1.5
 40
1.5
 40
1.5
 40
1.5
 40
0.18
 40
0.18
309
CELLMARGIN_END
 94
        6
 95
        1
302
GRIDFORMAT
  1
GRIDFORMAT_BEGIN
 90
        0
 91
        1
 62
     0
 92
       -2
340
0
 93
        0
 40
0.045
309
GRIDFORMAT_END
 95
        2
302
GRIDFORMAT
  1
GRIDFORMAT_BEGIN
 90
        0
 91
        1
 62
     0
 92
       -2
340
0
 93
        0
 40
0.045
309
GRIDFORMAT_END
 95
        4
302
GRIDFORMAT
  1
GRIDFORMAT_BEGIN
 90
        0
 91
        1
 62
     0
 92
       -2
340
0
 93
        0
 40
0.045
309
GRIDFORMAT_END
 95
        8
302
GRIDFORMAT
  1
GRIDFORMAT_BEGIN
 90
        0
 91
        1
 62
     0
 92
       -2
340
0
 93
        0
 40
0.045
309
GRIDFORMAT_END
 95
       16
302
GRIDFORMAT
  1
GRIDFORMAT_BEGIN
 90
        0
 91
        1
 62
     0
 92
       -2
340
0
 93
        0
 40
0.045
309
GRIDFORMAT_END
 95
       32
302
GRIDFORMAT
  1
GRIDFORMAT_BEGIN
 90
        0
 91
        1
 62
     0
 92
       -2
340
0
 93
        0
 40
0.045
309
GRIDFORMAT_END
309
TABLEFORMAT_END
  1
CELLSTYLE_BEGIN
 90
        3
 91
        2
300
_DATA
309
CELLSTYLE_END
  0
XRECORD
  5
8B4
102
{ACAD_REACTORS
330
696
102
}
330
696
100
AcDbXrecord
280
     1
102
ACAD_ROUNDTRIP_PRE2007_TABLESTYLE
 90
      512
 91
        0
  1

 92
      512
 93
        0
  2

 94
      512
 95
        0
  3

  0
XRECORD
  5
89F
102
{ACAD_REACTORS
330
89E
102
}
330
89E
100
AcDbXrecord
280
     1
102
RTVSPropertyOp0
 70
     1
102
RTVSPropertyOp1
 70
     1
102
RTVSPropertyOp2
 70
     1
102
RTVSPropertyOp3
 70
     1
102
RTVSPropertyOp4
 70
     1
102
RTVSPropertyOp5
 70
     1
102
RTVSPropertyOp6
 70
     1
102
RTVSPropertyOp7
 70
     1
102
RTVSPropertyOp8
 70
     1
102
RTVSPropertyOp9
 70
     1
102
RTVSPropertyOp10
 70
     1
102
RTVSPropertyOp11
 70
     1
102
RTVSPropertyOp12
 70
     1
102
RTVSPropertyOp13
 70
     1
102
RTVSPropertyOp14
 70
     1
102
RTVSPropertyOp15
 70
     1
102
RTVSPropertyOp16
 70
     1
102
RTVSPropertyOp17
 70
     1
102
RTVSPropertyOp18
 70
     1
102
RTVSPropertyOp19
 70
     1
102
RTVSPropertyOp20
 70
     1
102
RTVSPropertyOp21
 70
     1
102
RTVSPropertyOp22
 70
     1
102
RTVSPropertyOp23
 70
     1
102
RTVSPropertyOp24
 70
     1
102
RTVSPropertyOp25
 70
     1
102
RTVSPropertyOp26
 70
     1
102
RTVSPropertyOp27
 70
     1
  0
XRECORD
  5
8A3
102
{ACAD_REACTORS
330
8A2
102
}
330
8A2
100
AcDbXrecord
280
     1
102
RTVSPropertyOp0
 70
     1
102
RTVSPropertyOp1
 70
     1
102
RTVSPropertyOp2
 70
     1
102
RTVSPropertyOp3
 70
     1
102
RTVSPropertyOp4
 70
     1
102
RTVSPropertyOp5
 70
     1
102
RTVSPropertyOp6
 70
     1
102
RTVSPropertyOp7
 70
     1
102
RTVSPropertyOp8
 70
     1
102
RTVSPropertyOp9
 70
     1
102
RTVSPropertyOp10
 70
     1
102
RTVSPropertyOp11
 70
     1
102
RTVSPropertyOp12
 70
     1
102
RTVSPropertyOp13
 70
     1
102
RTVSPropertyOp14
 70
     1
102
RTVSPropertyOp15
 70
     1
102
RTVSPropertyOp16
 70
     1
102
RTVSPropertyOp17
 70
     1
102
RTVSPropertyOp18
 70
     1
102
RTVSPropertyOp19
 70
     1
102
RTVSPropertyOp20
 70
     1
102
RTVSPropertyOp21
 70
     1
102
RTVSPropertyOp22
 70
     1
102
RTVSPropertyOp23
 70
     1
102
RTVSPropertyOp24
 70
     1
102
RTVSPropertyOp25
 70
     1
102
RTVSPropertyOp26
 70
     1
102
RTVSPropertyOp27
 70
     1
  0
XRECORD
  5
8A1
102
{ACAD_REACTORS
330
8A0
102
}
330
8A0
100
AcDbXrecord
280
     1
102
RTVSPropertyOp0
 70
     1
102
RTVSPropertyOp1
 70
     1
102
RTVSPropertyOp2
 70
     1
102
RTVSPropertyOp3
 70
     1
102
RTVSPropertyOp4
 70
     1
102
RTVSPropertyOp5
 70
     1
102
RTVSPropertyOp6
 70
     1
102
RTVSPropertyOp7
 70
     1
102
RTVSPropertyOp8
 70
     1
102
RTVSPropertyOp9
 70
     1
102
RTVSPropertyOp10
 70
     1
102
RTVSPropertyOp11
 70
     1
102
RTVSPropertyOp12
 70
     1
102
RTVSPropertyOp13
 70
     1
102
RTVSPropertyOp14
 70
     1
102
RTVSPropertyOp15
 70
     1
102
RTVSPropertyOp16
 70
     1
102
RTVSPropertyOp17
 70
     1
102
RTVSPropertyOp18
 70
     1
102
RTVSPropertyOp19
 70
     1
102
RTVSPropertyOp20
 70
     1
102
RTVSPropertyOp21
 70
     1
102
RTVSPropertyOp22
 70
     1
102
RTVSPropertyOp23
 70
     1
102
RTVSPropertyOp24
 70
     1
102
RTVSPropertyOp25
 70
     1
102
RTVSPropertyOp26
 70
     1
102
RTVSPropertyOp27
 70
     1
  0
XRECORD
  5
89D
102
{ACAD_REACTORS
330
89C
102
}
330
89C
100
AcDbXrecord
280
     1
102
RTVSPropertyOp0
 70
     1
102
RTVSPropertyOp1
 70
     1
102
RTVSPropertyOp2
 70
     1
102
RTVSPropertyOp3
 70
     1
102
RTVSPropertyOp4
 70
     1
102
RTVSPropertyOp5
 70
     1
102
RTVSPropertyOp6
 70
     1
102
RTVSPropertyOp7
 70
     1
102
RTVSPropertyOp8
 70
     1
102
RTVSPropertyOp9
 70
     1
102
RTVSPropertyOp10
 70
     1
102
RTVSPropertyOp11
 70
     1
102
RTVSPropertyOp12
 70
     1
102
RTVSPropertyOp13
 70
     1
102
RTVSPropertyOp14
 70
     1
102
RTVSPropertyOp15
 70
     1
102
RTVSPropertyOp16
 70
     1
102
RTVSPropertyOp17
 70
     1
102
RTVSPropertyOp18
 70
     1
102
RTVSPropertyOp19
 70
     1
102
RTVSPropertyOp20
 70
     1
102
RTVSPropertyOp21
 70
     1
102
RTVSPropertyOp22
 70
     1
102
RTVSPropertyOp23
 70
     1
102
RTVSPropertyOp24
 70
     1
102
RTVSPropertyOp25
 70
     1
102
RTVSPropertyOp26
 70
     1
102
RTVSPropertyOp27
 70
     1
  0
XRECORD
  5
8AB
102
{ACAD_REACTORS
330
8AA
102
}
330
8AA
100
AcDbXrecord
280
     1
102
RTVSPropertyOp0
 70
     1
102
RTVSPropertyOp1
 70
     1
102
RTVSPropertyOp2
 70
     1
102
RTVSPropertyOp3
 70
     1
102
RTVSPropertyOp4
 70
     1
102
RTVSPropertyOp5
 70
     1
102
RTVSPropertyOp6
 70
     1
102
RTVSPropertyOp7
 70
     1
102
RTVSPropertyOp8
 70
     1
102
RTVSPropertyOp9
 70
     1
102
RTVSPropertyOp10
 70
     1
102
RTVSPropertyOp11
 70
     1
102
RTVSPropertyOp12
 70
     1
102
RTVSPropertyOp13
 70
     1
102
RTVSPropertyOp14
 70
     1
102
RTVSPropertyOp15
 70
     1
102
RTVSPropertyOp16
 70
     1
102
RTVSPropertyOp17
 70
     1
102
RTVSPropertyOp18
 70
     1
102
RTVSPropertyOp19
 70
     1
102
RTVSPropertyOp20
 70
     1
102
RTVSPropertyOp21
 70
     1
102
RTVSPropertyOp22
 70
     1
102
RTVSPropertyOp23
 70
     1
102
RTVSPropertyOp24
 70
     1
102
RTVSPropertyOp25
 70
     1
102
RTVSPropertyOp26
 70
     1
102
RTVSPropertyOp27
 70
     1
  0
XRECORD
  5
8B3
102
{ACAD_REACTORS
330
8B2
102
}
330
8B2
100
AcDbXrecord
280
     1
102
RTVSPropertyOp0
 70
     1
102
RTVSPropertyOp1
 70
     1
102
RTVSPropertyOp2
 70
     1
102
RTVSPropertyOp3
 70
     1
102
RTVSPropertyOp4
 70
     1
102
RTVSPropertyOp5
 70
     1
102
RTVSPropertyOp6
 70
     1
102
RTVSPropertyOp7
 70
     1
102
RTVSPropertyOp8
 70
     1
102
RTVSPropertyOp9
 70
     1
102
RTVSPropertyOp10
 70
     1
102
RTVSPropertyOp11
 70
     1
102
RTVSPropertyOp12
 70
     1
102
RTVSPropertyOp13
 70
     1
102
RTVSPropertyOp14
 70
     1
102
RTVSPropertyOp15
 70
     1
102
RTVSPropertyOp16
 70
     1
102
RTVSPropertyOp17
 70
     1
102
RTVSPropertyOp18
 70
     1
102
RTVSPropertyOp19
 70
     1
102
RTVSPropertyOp20
 70
     1
102
RTVSPropertyOp21
 70
     1
102
RTVSPropertyOp22
 70
     1
102
RTVSPropertyOp23
 70
     1
102
RTVSPropertyOp24
 70
     1
102
RTVSPropertyOp25
 70
     1
102
RTVSPropertyOp26
 70
     1
102
RTVSPropertyOp27
 70
     1
  0
XRECORD
  5
8A5
102
{ACAD_REACTORS
330
8A4
102
}
330
8A4
100
AcDbXrecord
280
     1
102
RTVSPropertyOp0
 70
     1
102
RTVSPropertyOp1
 70
     1
102
RTVSPropertyOp2
 70
     1
102
RTVSPropertyOp3
 70
     1
102
RTVSPropertyOp4
 70
     1
102
RTVSPropertyOp5
 70
     1
102
RTVSPropertyOp6
 70
     1
102
RTVSPropertyOp7
 70
     1
102
RTVSPropertyOp8
 70
     1
102
RTVSPropertyOp9
 70
     1
102
RTVSPropertyOp10
 70
     1
102
RTVSPropertyOp11
 70
     1
102
RTVSPropertyOp12
 70
     1
102
RTVSPropertyOp13
 70
     1
102
RTVSPropertyOp14
 70
     1
102
RTVSPropertyOp15
 70
     1
102
RTVSPropertyOp16
 70
     1
102
RTVSPropertyOp17
 70
     1
102
RTVSPropertyOp18
 70
     1
102
RTVSPropertyOp19
 70
     1
102
RTVSPropertyOp20
 70
     1
102
RTVSPropertyOp21
 70
     1
102
RTVSPropertyOp22
 70
     1
102
RTVSPropertyOp23
 70
     1
102
RTVSPropertyOp24
 70
     1
102
RTVSPropertyOp25
 70
     1
102
RTVSPropertyOp26
 70
     1
102
RTVSPropertyOp27
 70
     1
  0
XRECORD
  5
8A9
102
{ACAD_REACTORS
330
8A8
102
}
330
8A8
100
AcDbXrecord
280
     1
102
RTVSPropertyOp0
 70
     1
102
RTVSPropertyOp1
 70
     1
102
RTVSPropertyOp2
 70
     1
102
RTVSPropertyOp3
 70
     1
102
RTVSPropertyOp4
 70
     1
102
RTVSPropertyOp5
 70
     1
102
RTVSPropertyOp6
 70
     1
102
RTVSPropertyOp7
 70
     1
102
RTVSPropertyOp8
 70
     1
102
RTVSPropertyOp9
 70
     1
102
RTVSPropertyOp10
 70
     1
102
RTVSPropertyOp11
 70
     1
102
RTVSPropertyOp12
 70
     1
102
RTVSPropertyOp13
 70
     1
102
RTVSPropertyOp14
 70
     1
102
RTVSPropertyOp15
 70
     1
102
RTVSPropertyOp16
 70
     1
102
RTVSPropertyOp17
 70
     1
102
RTVSPropertyOp18
 70
     1
102
RTVSPropertyOp19
 70
     1
102
RTVSPropertyOp20
 70
     1
102
RTVSPropertyOp21
 70
     1
102
RTVSPropertyOp22
 70
     1
102
RTVSPropertyOp23
 70
     1
102
RTVSPropertyOp24
 70
     1
102
RTVSPropertyOp25
 70
     1
102
RTVSPropertyOp26
 70
     1
102
RTVSPropertyOp27
 70
     1
  0
XRECORD
  5
8BB
102
{ACAD_REACTORS
330
8BA
102
}
330
8BA
100
AcDbXrecord
280
     1
102
RTVSPropertyOp0
 70
     0
102
RTVSPropertyOp1
 70
     0
102
RTVSPropertyOp2
 70
     0
102
RTVSPropertyOp3
 70
     0
102
RTVSPropertyOp4
 70
     0
102
RTVSPropertyOp5
 70
     0
102
RTVSPropertyOp6
 70
     0
102
RTVSPropertyOp7
 70
     0
102
RTVSPropertyOp8
 70
     0
102
RTVSPropertyOp9
 70
     0
102
RTVSPropertyOp10
 70
     0
102
RTVSPropertyOp11
 70
     0
102
RTVSPropertyOp12
 70
     0
102
RTVSPropertyOp13
 70
     0
102
RTVSPropertyOp14
 70
     2
102
RTVSPropertyOp15
 70
     0
102
RTVSPropertyOp16
 70
     0
102
RTVSPropertyOp17
 70
     0
102
RTVSPropertyOp18
 70
     0
102
RTVSPropertyOp19
 70
     0
102
RTVSPropertyOp20
 70
     0
102
RTVSPropertyOp21
 70
     0
102
RTVSPropertyOp22
 70
     0
102
RTVSPropertyOp23
 70
     0
102
RTVSPropertyOp24
 70
     0
102
RTVSPropertyOp25
 70
     0
102
RTVSPropertyOp26
 70
     0
102
RTVSPropertyOp27
 70
     0
  0
XRECORD
  5
8B1
102
{ACAD_REACTORS
330
8B0
102
}
330
8B0
100
AcDbXrecord
280
     1
102
RTVSPropertyOp0
 70
     1
102
RTVSPropertyOp1
 70
     1
102
RTVSPropertyOp2
 70
     1
102
RTVSPropertyOp3
 70
     1
102
RTVSPropertyOp4
 70
     1
102
RTVSPropertyOp5
 70
     1
102
RTVSPropertyOp6
 70
     1
102
RTVSPropertyOp7
 70
     1
102
RTVSPropertyOp8
 70
     1
102
RTVSPropertyOp9
 70
     1
102
RTVSPropertyOp10
 70
     1
102
RTVSPropertyOp11
 70
     1
102
RTVSPropertyOp12
 70
     1
102
RTVSPropertyOp13
 70
     1
102
RTVSPropertyOp14
 70
     1
102
RTVSPropertyOp15
 70
     1
102
RTVSPropertyOp16
 70
     1
102
RTVSPropertyOp17
 70
     1
102
RTVSPropertyOp18
 70
     1
102
RTVSPropertyOp19
 70
     1
102
RTVSPropertyOp20
 70
     1
102
RTVSPropertyOp21
 70
     1
102
RTVSPropertyOp22
 70
     1
102
RTVSPropertyOp23
 70
     1
102
RTVSPropertyOp24
 70
     1
102
RTVSPropertyOp25
 70
     1
102
RTVSPropertyOp26
 70
     1
102
RTVSPropertyOp27
 70
     1
  0
XRECORD
  5
895
102
{ACAD_REACTORS
330
894
102
}
330
894
100
AcDbXrecord
280
     1
102
RTVSPropertyOp0
 70
     1
102
RTVSPropertyOp1
 70
     1
102
RTVSPropertyOp2
 70
     1
102
RTVSPropertyOp3
 70
     1
102
RTVSPropertyOp4
 70
     1
102
RTVSPropertyOp5
 70
     1
102
RTVSPropertyOp6
 70
     1
102
RTVSPropertyOp7
 70
     1
102
RTVSPropertyOp8
 70
     1
102
RTVSPropertyOp9
 70
     1
102
RTVSPropertyOp10
 70
     1
102
RTVSPropertyOp11
 70
     1
102
RTVSPropertyOp12
 70
     1
102
RTVSPropertyOp13
 70
     1
102
RTVSPropertyOp14
 70
     1
102
RTVSPropertyOp15
 70
     1
102
RTVSPropertyOp16
 70
     1
102
RTVSPropertyOp17
 70
     1
102
RTVSPropertyOp18
 70
     1
102
RTVSPropertyOp19
 70
     1
102
RTVSPropertyOp20
 70
     1
102
RTVSPropertyOp21
 70
     1
102
RTVSPropertyOp22
 70
     1
102
RTVSPropertyOp23
 70
     1
102
RTVSPropertyOp24
 70
     1
102
RTVSPropertyOp25
 70
     1
102
RTVSPropertyOp26
 70
     1
102
RTVSPropertyOp27
 70
     1
  0
XRECORD
  5
897
102
{ACAD_REACTORS
330
896
102
}
330
896
100
AcDbXrecord
280
     1
102
RTVSPropertyOp0
 70
     1
102
RTVSPropertyOp1
 70
     1
102
RTVSPropertyOp2
 70
     1
102
RTVSPropertyOp3
 70
     1
102
RTVSPropertyOp4
 70
     1
102
RTVSPropertyOp5
 70
     1
102
RTVSPropertyOp6
 70
     1
102
RTVSPropertyOp7
 70
     1
102
RTVSPropertyOp8
 70
     1
102
RTVSPropertyOp9
 70
     1
102
RTVSPropertyOp10
 70
     1
102
RTVSPropertyOp11
 70
     1
102
RTVSPropertyOp12
 70
     1
102
RTVSPropertyOp13
 70
     1
102
RTVSPropertyOp14
 70
     1
102
RTVSPropertyOp15
 70
     1
102
RTVSPropertyOp16
 70
     1
102
RTVSPropertyOp17
 70
     1
102
RTVSPropertyOp18
 70
     1
102
RTVSPropertyOp19
 70
     1
102
RTVSPropertyOp20
 70
     1
102
RTVSPropertyOp21
 70
     1
102
RTVSPropertyOp22
 70
     1
102
RTVSPropertyOp23
 70
     1
102
RTVSPropertyOp24
 70
     1
102
RTVSPropertyOp25
 70
     1
102
RTVSPropertyOp26
 70
     1
102
RTVSPropertyOp27
 70
     1
  0
XRECORD
  5
899
102
{ACAD_REACTORS
330
898
102
}
330
898
100
AcDbXrecord
280
     1
102
RTVSPropertyOp0
 70
     1
102
RTVSPropertyOp1
 70
     1
102
RTVSPropertyOp2
 70
     1
102
RTVSPropertyOp3
 70
     1
102
RTVSPropertyOp4
 70
     1
102
RTVSPropertyOp5
 70
     1
102
RTVSPropertyOp6
 70
     1
102
RTVSPropertyOp7
 70
     1
102
RTVSPropertyOp8
 70
     1
102
RTVSPropertyOp9
 70
     1
102
RTVSPropertyOp10
 70
     1
102
RTVSPropertyOp11
 70
     1
102
RTVSPropertyOp12
 70
     1
102
RTVSPropertyOp13
 70
     1
102
RTVSPropertyOp14
 70
     1
102
RTVSPropertyOp15
 70
     1
102
RTVSPropertyOp16
 70
     1
102
RTVSPropertyOp17
 70
     1
102
RTVSPropertyOp18
 70
     1
102
RTVSPropertyOp19
 70
     1
102
RTVSPropertyOp20
 70
     1
102
RTVSPropertyOp21
 70
     1
102
RTVSPropertyOp22
 70
     1
102
RTVSPropertyOp23
 70
     1
102
RTVSPropertyOp24
 70
     1
102
RTVSPropertyOp25
 70
     1
102
RTVSPropertyOp26
 70
     1
102
RTVSPropertyOp27
 70
     1
  0
XRECORD
  5
89B
102
{ACAD_REACTORS
330
89A
102
}
330
89A
100
AcDbXrecord
280
     1
102
RTVSPropertyOp0
 70
     1
102
RTVSPropertyOp1
 70
     1
102
RTVSPropertyOp2
 70
     1
102
RTVSPropertyOp3
 70
     1
102
RTVSPropertyOp4
 70
     1
102
RTVSPropertyOp5
 70
     1
102
RTVSPropertyOp6
 70
     1
102
RTVSPropertyOp7
 70
     1
102
RTVSPropertyOp8
 70
     1
102
RTVSPropertyOp9
 70
     1
102
RTVSPropertyOp10
 70
     1
102
RTVSPropertyOp11
 70
     1
102
RTVSPropertyOp12
 70
     1
102
RTVSPropertyOp13
 70
     1
102
RTVSPropertyOp14
 70
     1
102
RTVSPropertyOp15
 70
     1
102
RTVSPropertyOp16
 70
     1
102
RTVSPropertyOp17
 70
     1
102
RTVSPropertyOp18
 70
     1
102
RTVSPropertyOp19
 70
     1
102
RTVSPropertyOp20
 70
     1
102
RTVSPropertyOp21
 70
     1
102
RTVSPropertyOp22
 70
     1
102
RTVSPropertyOp23
 70
     1
102
RTVSPropertyOp24
 70
     1
102
RTVSPropertyOp25
 70
     1
102
RTVSPropertyOp26
 70
     1
102
RTVSPropertyOp27
 70
     1
  0
XRECORD
  5
8B7
102
{ACAD_REACTORS
330
8B6
102
}
330
8B6
100
AcDbXrecord
280
     1
102
RTVSPropertyOp0
 70
     0
102
RTVSPropertyOp1
 70
     0
102
RTVSPropertyOp2
 70
     0
102
RTVSPropertyOp3
 70
     0
102
RTVSPropertyOp4
 70
     0
102
RTVSPropertyOp5
 70
     0
102
RTVSPropertyOp6
 70
     0
102
RTVSPropertyOp7
 70
     0
102
RTVSPropertyOp8
 70
     0
102
RTVSPropertyOp9
 70
     0
102
RTVSPropertyOp10
 70
     0
102
RTVSPropertyOp11
 70
     0
102
RTVSPropertyOp12
 70
     0
102
RTVSPropertyOp13
 70
     0
102
RTVSPropertyOp14
 70
     2
102
RTVSPropertyOp15
 70
     0
102
RTVSPropertyOp16
 70
     0
102
RTVSPropertyOp17
 70
     0
102
RTVSPropertyOp18
 70
     0
102
RTVSPropertyOp19
 70
     0
102
RTVSPropertyOp20
 70
     0
102
RTVSPropertyOp21
 70
     0
102
RTVSPropertyOp22
 70
     0
102
RTVSPropertyOp23
 70
     0
102
RTVSPropertyOp24
 70
     0
102
RTVSPropertyOp25
 70
     0
102
RTVSPropertyOp26
 70
     0
102
RTVSPropertyOp27
 70
     0
  0
XRECORD
  5
8AF
102
{ACAD_REACTORS
330
8AE
102
}
330
8AE
100
AcDbXrecord
280
     1
102
RTVSPropertyOp0
 70
     1
102
RTVSPropertyOp1
 70
     1
102
RTVSPropertyOp2
 70
     1
102
RTVSPropertyOp3
 70
     1
102
RTVSPropertyOp4
 70
     1
102
RTVSPropertyOp5
 70
     1
102
RTVSPropertyOp6
 70
     1
102
RTVSPropertyOp7
 70
     1
102
RTVSPropertyOp8
 70
     1
102
RTVSPropertyOp9
 70
     1
102
RTVSPropertyOp10
 70
     1
102
RTVSPropertyOp11
 70
     1
102
RTVSPropertyOp12
 70
     1
102
RTVSPropertyOp13
 70
     1
102
RTVSPropertyOp14
 70
     1
102
RTVSPropertyOp15
 70
     1
102
RTVSPropertyOp16
 70
     1
102
RTVSPropertyOp17
 70
     1
102
RTVSPropertyOp18
 70
     1
102
RTVSPropertyOp19
 70
     1
102
RTVSPropertyOp20
 70
     1
102
RTVSPropertyOp21
 70
     1
102
RTVSPropertyOp22
 70
     1
102
RTVSPropertyOp23
 70
     1
102
RTVSPropertyOp24
 70
     1
102
RTVSPropertyOp25
 70
     1
102
RTVSPropertyOp26
 70
     1
102
RTVSPropertyOp27
 70
     1
  0
XRECORD
  5
8B9
102
{ACAD_REACTORS
330
8B8
102
}
330
8B8
100
AcDbXrecord
280
     1
102
RTVSPropertyOp0
 70
     0
102
RTVSPropertyOp1
 70
     0
102
RTVSPropertyOp2
 70
     0
102
RTVSPropertyOp3
 70
     0
102
RTVSPropertyOp4
 70
     0
102
RTVSPropertyOp5
 70
     0
102
RTVSPropertyOp6
 70
     0
102
RTVSPropertyOp7
 70
     0
102
RTVSPropertyOp8
 70
     0
102
RTVSPropertyOp9
 70
     0
102
RTVSPropertyOp10
 70
     0
102
RTVSPropertyOp11
 70
     0
102
RTVSPropertyOp12
 70
     0
102
RTVSPropertyOp13
 70
     0
102
RTVSPropertyOp14
 70
     2
102
RTVSPropertyOp15
 70
     0
102
RTVSPropertyOp16
 70
     0
102
RTVSPropertyOp17
 70
     0
102
RTVSPropertyOp18
 70
     0
102
RTVSPropertyOp19
 70
     0
102
RTVSPropertyOp20
 70
     0
102
RTVSPropertyOp21
 70
     0
102
RTVSPropertyOp22
 70
     0
102
RTVSPropertyOp23
 70
     0
102
RTVSPropertyOp24
 70
     0
102
RTVSPropertyOp25
 70
     0
102
RTVSPropertyOp26
 70
     0
102
RTVSPropertyOp27
 70
     0
  0
XRECORD
  5
8A7
102
{ACAD_REACTORS
330
8A6
102
}
330
8A6
100
AcDbXrecord
280
     1
102
RTVSPropertyOp0
 70
     1
102
RTVSPropertyOp1
 70
     1
102
RTVSPropertyOp2
 70
     1
102
RTVSPropertyOp3
 70
     1
102
RTVSPropertyOp4
 70
     1
102
RTVSPropertyOp5
 70
     1
102
RTVSPropertyOp6
 70
     1
102
RTVSPropertyOp7
 70
     1
102
RTVSPropertyOp8
 70
     1
102
RTVSPropertyOp9
 70
     1
102
RTVSPropertyOp10
 70
     1
102
RTVSPropertyOp11
 70
     1
102
RTVSPropertyOp12
 70
     1
102
RTVSPropertyOp13
 70
     1
102
RTVSPropertyOp14
 70
     1
102
RTVSPropertyOp15
 70
     1
102
RTVSPropertyOp16
 70
     1
102
RTVSPropertyOp17
 70
     1
102
RTVSPropertyOp18
 70
     1
102
RTVSPropertyOp19
 70
     1
102
RTVSPropertyOp20
 70
     1
102
RTVSPropertyOp21
 70
     1
102
RTVSPropertyOp22
 70
     1
102
RTVSPropertyOp23
 70
     1
102
RTVSPropertyOp24
 70
     1
102
RTVSPropertyOp25
 70
     1
102
RTVSPropertyOp26
 70
     1
102
RTVSPropertyOp27
 70
     1
  0
XRECORD
  5
8AD
102
{ACAD_REACTORS
330
8AC
102
}
330
8AC
100
AcDbXrecord
280
     1
102
RTVSPropertyOp0
 70
     1
102
RTVSPropertyOp1
 70
     1
102
RTVSPropertyOp2
 70
     1
102
RTVSPropertyOp3
 70
     1
102
RTVSPropertyOp4
 70
     1
102
RTVSPropertyOp5
 70
     1
102
RTVSPropertyOp6
 70
     1
102
RTVSPropertyOp7
 70
     1
102
RTVSPropertyOp8
 70
     1
102
RTVSPropertyOp9
 70
     1
102
RTVSPropertyOp10
 70
     1
102
RTVSPropertyOp11
 70
     1
102
RTVSPropertyOp12
 70
     1
102
RTVSPropertyOp13
 70
     1
102
RTVSPropertyOp14
 70
     1
102
RTVSPropertyOp15
 70
     1
102
RTVSPropertyOp16
 70
     1
102
RTVSPropertyOp17
 70
     1
102
RTVSPropertyOp18
 70
     1
102
RTVSPropertyOp19
 70
     1
102
RTVSPropertyOp20
 70
     1
102
RTVSPropertyOp21
 70
     1
102
RTVSPropertyOp22
 70
     1
102
RTVSPropertyOp23
 70
     1
102
RTVSPropertyOp24
 70
     1
102
RTVSPropertyOp25
 70
     1
102
RTVSPropertyOp26
 70
     1
102
RTVSPropertyOp27
 70
     1
  0
ENDSEC
  0
EOF
