  0
SECTION
  2
HEADER
  9
$ACADVER
  1
AC1009
  9
$INSBASE
 10
0.0
 20
0.0
 30
0.0
  9
$EXTMIN
 10
-314.92883169939569
 20
-143.34542009144261
 30
-0.0015258207003583
  9
$EXTMAX
 10
60.698989604138433
 20
153.66530620172821
 30
0.0000000349246037
  9
$LIMMIN
 10
-217.5
 20
-148.5
  9
$LIMMAX
 10
202.5
 20
148.5
  9
$ORTHOMODE
 70
     0
  9
$REGENMODE
 70
     1
  9
$FILLMODE
 70
     1
  9
$QTEXTMODE
 70
     0
  9
$MIRRTEXT
 70
     1
  9
$DRAGMODE
 70
     2
  9
$LTSCALE
 40
1.0
  9
$OSMODE
 70
    39
  9
$ATTMODE
 70
     1
  9
$TEXTSIZE
 40
4.166999999999998
  9
$TRACEWID
 40
0.05
  9
$TEXTSTYLE
  7
MX_NOTE_STANDARD
  9
$CLAYER
  8
0
  9
$CELTYPE
  6
CONTINUOUS
  9
$CECOLOR
 62
   256
  9
$DIMSCALE
 40
1.0
  9
$DIMASZ
 40
2.5
  9
$DIMEXO
 40
1.27
  9
$DIMDLI
 40
3.75
  9
$DIMRND
 40
0.0
  9
$DIMDLE
 40
0.0
  9
$DIMEXE
 40
1.1999999999999991
  9
$DIMTP
 40
0.0
  9
$DIMTM
 40
0.0
  9
$DIMTXT
 40
4.166999999999998
  9
$DIMCEN
 40
2.5
  9
$DIMTSZ
 40
0.0
  9
$DIMTOL
 70
     0
  9
$DIMLIM
 70
     0
  9
$DIMTIH
 70
     0
  9
$DIMTOH
 70
     0
  9
$DIMSE1
 70
     0
  9
$DIMSE2
 70
     0
  9
$DIMTAD
 70
     1
  9
$DIMZIN
 70
     8
  9
$DIMBLK
  1

  9
$DIMASO
 70
     1
  9
$DIMSHO
 70
     1
  9
$DIMPOST
  1

  9
$DIMAPOST
  1

  9
$DIMALT
 70
     0
  9
$DIMALTD
 70
     4
  9
$DIMALTF
 40
0.03937
  9
$DIMLFAC
 40
1.0
  9
$DIMTOFL
 70
     1
  9
$DIMTVP
 40
0.0
  9
$DIMTIX
 70
     0
  9
$DIMSOXD
 70
     0
  9
$DIMSAH
 70
     0
  9
$DIMBLK1
  1

  9
$DIMBLK2
  1

  9
$DIMSTYLE
  2
MXDIMSTYLE
  9
$DIMCLRD
 70
     0
  9
$DIMCLRE
 70
     0
  9
$DIMCLRT
 70
     0
  9
$DIMTFAC
 40
1.0
  9
$DIMGAP
 40
1.0
  9
$LUNITS
 70
     2
  9
$LUPREC
 70
     2
  9
$SKETCHINC
 40
0.1
  9
$FILLETRAD
 40
0.0
  9
$AUNITS
 70
     0
  9
$AUPREC
 70
     0
  9
$MENU
  1
acad
  9
$ELEVATION
 40
0.0
  9
$PELEVATION
 40
0.0
  9
$THICKNESS
 40
0.0
  9
$LIMCHECK
 70
     0
  9
$BLIPMODE
 70
     0
  9
$CHAMFERA
 40
0.0
  9
$CHAMFERB
 40
0.0
  9
$SKPOLY
 70
     0
  9
$TDCREATE
 40
2453606.4382638889
  9
$TDUPDATE
 40
2457570.3825177662
  9
$TDINDWG
 40
0.0534331597
  9
$TDUSRTIMER
 40
0.0534331019
  9
$USRTIMER
 70
     1
  9
$ANGBASE
 50
0.0
  9
$ANGDIR
 70
     0
  9
$PDMODE
 70
     0
  9
$PDSIZE
 40
0.0
  9
$PLINEWID
 40
0.0
  9
$COORDS
 70
     1
  9
$SPLFRAME
 70
     0
  9
$SPLINETYPE
 70
     6
  9
$SPLINESEGS
 70
     8
  9
$ATTDIA
 70
     1
  9
$ATTREQ
 70
     1
  9
$HANDLING
 70
     1
  9
$HANDSEED
  5
2459
  9
$SURFTAB1
 70
     6
  9
$SURFTAB2
 70
     6
  9
$SURFTYPE
 70
     6
  9
$SURFU
 70
     6
  9
$SURFV
 70
     6
  9
$UCSNAME
  2

  9
$UCSORG
 10
0.0
 20
0.0
 30
0.0
  9
$UCSXDIR
 10
1.0
 20
0.0
 30
0.0
  9
$UCSYDIR
 10
0.0
 20
1.0
 30
0.0
  9
$PUCSNAME
  2

  9
$PUCSORG
 10
0.0
 20
0.0
 30
0.0
  9
$PUCSXDIR
 10
1.0
 20
0.0
 30
0.0
  9
$PUCSYDIR
 10
0.0
 20
1.0
 30
0.0
  9
$USERI1
 70
     0
  9
$USERI2
 70
     0
  9
$USERI3
 70
     0
  9
$USERI4
 70
     0
  9
$USERI5
 70
     0
  9
$USERR1
 40
0.0
  9
$USERR2
 40
0.0
  9
$USERR3
 40
0.0
  9
$USERR4
 40
0.0
  9
$USERR5
 40
0.0
  9
$WORLDVIEW
 70
     1
  9
$SHADEDGE
 70
     3
  9
$SHADEDIF
 70
    70
  9
$TILEMODE
 70
     1
  9
$MAXACTVP
 70
    16
  9
$PLIMCHECK
 70
     0
  9
$PEXTMIN
 10
1.0000000000000000E+020
 20
1.0000000000000000E+020
 30
1.0000000000000000E+020
  9
$PEXTMAX
 10
-1.0000000000000000E+020
 20
-1.0000000000000000E+020
 30
-1.0000000000000000E+020
  9
$PLIMMIN
 10
0.0
 20
0.0
  9
$PLIMMAX
 10
12.0
 20
9.0
  9
$UNITMODE
 70
     0
  9
$VISRETAIN
 70
     0
  9
$PLINEGEN
 70
     1
  9
$PSLTSCALE
 70
     0
  0
ENDSEC
  0
SECTION
  2
TABLES
  0
TABLE
  2
VPORT
 70
     1
  0
VPORT
  2
*ACTIVE
 70
     0
 10
0.0
 20
0.0
 11
1.0
 21
1.0
 12
-56.214415849697858
 22
2.5826531008640918
 13
0.0
 23
0.0
 14
1.0
 24
1.0
 15
0.0
 25
0.0
 16
0.0
 26
0.0
 36
1.0
 17
0.0
 27
0.0
 37
0.0
 40
304.1951715705959
 41
2.0834260289210231
 42
50.0
 43
0.0
 44
0.0
 50
0.0
 51
0.0
 71
     0
 72
   100
 73
     1
 74
     1
 75
     0
 76
     0
 77
     0
 78
     0
  0
ENDTAB
  0
TABLE
  2
LTYPE
 70
    26
  0
LTYPE
  2
CONTINUOUS
 70
     0
  3
Solid line
 72
    65
 73
     0
 40
0.0
  0
LTYPE
  2
NON_PLOTING
 70
     0
  3
Solid line
 72
    65
 73
     0
 40
0.0
  0
LTYPE
  2
DASHED
 70
     0
  3
Dashed __ __ __ __ __ __ __ __ __ __ __ __ __ _
 72
    65
 73
     2
 40
19.050000000000001
 49
12.699999999999999
 49
-6.3499999999999979
  0
LTYPE
  2
HIDDEN
 70
     0
  3
Hidden __ __ __ __ __ __ __ __ __ __ __ __ __ _
 72
    65
 73
     2
 40
9.5249999999999986
 49
6.3499999999999979
 49
-3.174999999999998
  0
LTYPE
  2
PHANTOM2
 70
     0
  3
Phantom (.5x) ___ _ _ ___ _ _ ___ _ _ ___ _ _
 72
    65
 73
     6
 40
31.75
 49
15.875
 49
-3.174999999999998
 49
3.174999999999998
 49
-3.174999999999998
 49
3.174999999999998
 49
-3.174999999999998
  0
LTYPE
  2
CENTER
 70
     0
  3
Center ____ _ ____ _ ____ _ ____ _ ____ _ ____
 72
    65
 73
     4
 40
50.799999999999997
 49
31.75
 49
-6.3499999999999979
 49
6.3499999999999979
 49
-6.3499999999999979
  0
LTYPE
  2
AM_ISO02W050
 70
     0
  3
__ __ __ __ __ __ __ __ __ __ __ __ __ __ __
 72
    65
 73
     2
 40
7.5
 49
6.0
 49
-1.5
  0
LTYPE
  2
AM_ISO08W050
 70
     0
  3
____ . ____ . ____ . ____ . ____ . ____ . ____
 72
    65
 73
     4
 40
18.0
 49
12.0
 49
-1.5
 49
3.0
 49
-1.5
  0
LTYPE
  2
AM_ISO09W050
 70
     0
  3
_____ . . _____ . . _____ . . ____ .. ____
 72
    65
 73
     6
 40
22.5
 49
12.0
 49
-1.5
 49
3.0
 49
-1.5
 49
3.0
 49
-1.5
  0
LTYPE
  2
AMCONSTR
 70
     0
  3
_______________________
 72
    65
 73
     2
 40
9999.0
 49
9999.0
 49
0.0
  0
LTYPE
  2
AM_ISO08W050X2
 70
     0
  3
__ . __ . __ . __ . __ . __
 72
    65
 73
     4
 40
9.0
 49
6.0
 49
-0.75
 49
1.5
 49
-0.75
  0
LTYPE
  2
AM_ISO02W050X2
 70
     0
  3
 _ _ _ _ _ _ _ _ _ _ _ _
 72
    65
 73
     2
 40
3.75
 49
3.0
 49
-0.75
  0
LTYPE
  2
AMZIGZAG
 70
     0
  3
/\/-/\/-/\/-/\/-/\/-/\/
 72
    65
 73
     2
 40
11.0001
 49
0.0001
 49
-11.0
  0
LTYPE
  2
ACISOWELD
 70
     0
  3
_ _ _ _ _
 72
    65
 73
     2
 40
2.0
 49
2.0
 49
-1.0
  0
LTYPE
  2
ACISOTGB
 70
     0
  3
__ . . __ . .
 72
    65
 73
     6
 40
9.0
 49
4.0
 49
-1.0
 49
1.0
 49
-1.0
 49
1.0
 49
-1.0
  0
LTYPE
  2
ACISOTGL
 70
     0
  3
_ _ _ _ _
 72
    65
 73
     2
 40
3.0
 49
2.0
 49
-1.0
  0
LTYPE
  2
ACJISTGB
 70
     0
  3
__ . . __ . .
 72
    65
 73
     6
 40
9.0
 49
4.0
 49
-1.0
 49
1.0
 49
-1.0
 49
1.0
 49
-1.0
  0
LTYPE
  2
ACJISTGL
 70
     0
  3
_ _ _ _ _
 72
    65
 73
     2
 40
3.0
 49
2.0
 49
-1.0
  0
LTYPE
  2
ACJISWELD
 70
     0
  3
_ _ _ _ _
 72
    65
 73
     2
 40
2.0
 49
2.0
 49
-1.0
  0
LTYPE
  2
HIDDEN2
 70
     0
  3
Hidden (.5x) _ _ _ _ _ _ _ _ _ _ _ _ _ _ _ _ _
 72
    65
 73
     2
 40
4.7624999999999993
 49
3.174999999999998
 49
-1.587499999999999
  0
LTYPE
  2
CENTER2
 70
     0
  3
Center (.5x) ___ _ ___ _ ___ _ ___ _ ___ _ ___
 72
    65
 73
     4
 40
28.574999999999999
 49
19.050000000000001
 49
-3.174999999999998
 49
3.174999999999998
 49
-3.174999999999998
  0
LTYPE
  2
AMZIGZAG2
 70
     0
  3
/\/-/\/-/\/-/\/-/\/-/\/
 72
    65
 73
     2
 40
0.4401
 49
0.0001
 49
-0.4400000000000001
  0
LTYPE
  2
ACANSTGB
 70
     0
  3
__ . . __ . .
 72
    65
 73
     6
 40
0.35433070866
 49
0.15748031496
 49
-0.03937007874
 49
0.03937007874
 49
-0.03937007874
 49
0.03937007874
 49
-0.03937007874
  0
LTYPE
  2
ACANSTGL
 70
     0
  3
_ _ _ _ _
 72
    65
 73
     2
 40
0.11811023622
 49
0.07874015748
 49
-0.03937007874
  0
ENDTAB
  0
TABLE
  2
LAYER
 70
     7
  0
LAYER
  2
0
 70
     0
 62
     7
  6
CONTINUOUS
  0
LAYER
  2
PROFILE2
 70
     0
 62
     4
  6
CONTINUOUS
  0
LAYER
  2
DIMENSION
 70
     0
 62
     7
  6
CONTINUOUS
  0
LAYER
  2
AM_5
 70
     0
 62
     3
  6
CONTINUOUS
  0
LAYER
  2
DEFPOINTS
 70
     0
 62
     7
  6
CONTINUOUS
  0
LAYER
  2
HIDDEN1
 70
     0
 62
     3
  6
HIDDEN
  0
LAYER
  2
AM_CL
 70
     0
 62
     1
  6
AMCONSTR
  0
ENDTAB
  0
TABLE
  2
STYLE
 70
    16
  0
STYLE
  2
STANDARD
 70
     0
 40
0.0
 41
1.0
 50
0.0
 71
     0
 42
0.2
  3
txt
  4

  0
STYLE
  2
ANNOTATIVE
 70
     0
 40
0.0
 41
1.0
 50
0.0
 71
     0
 42
0.2
  3
txt
  4

  0
STYLE
  2
MX_NOTE_STANDARD
 70
     0
 40
0.0
 41
1.0
 50
0.0
 71
     0
 42
4.166999999999998
  3
txt.shx
  4
extfont.shx
  0
STYLE
  2
MX_DIMTXSTY_2
 70
     0
 40
0.0
 41
0.85
 50
0.0
 71
     0
 42
4.166999999999998
  3
txt.shx
  4
extfont.shx
  0
STYLE
  2
MX_DIMTXSTY_3
 70
     0
 40
0.0
 41
0.75
 50
0.0
 71
     0
 42
4.166999999999998
  3
txt.shx
  4
extfont.shx
  0
STYLE
  2

 70
     1
 40
0.0
 41
1.0
 50
0.0
 71
     0
 42
4.166999999999998
  3
genltshp.shx
  4

  0
STYLE
  2
ACISOTS
 70
     0
 40
1.0
 41
1.0
 50
0.0
 71
     0
 42
4.166999999999998
  3
isocp.shx
  4
extfont.shx
  0
STYLE
  2
ACISOGDT
 70
     0
 40
0.0
 41
1.0
 50
0.0
 71
     0
 42
4.166999999999998
  3
amgdt.shx
  4

  0
STYLE
  2

 70
     1
 40
0.0
 41
1.0
 50
0.0
 71
     0
 42
2.5
  3
ltypeshp.shx
  4

  0
STYLE
  2
ACJISGDT
 70
     0
 40
0.0
 41
1.0
 50
0.0
 71
     0
 42
2.5
  3
amgdt.shx
  4
extfont.shx
  0
STYLE
  2
ULVAC
 70
     0
 40
0.0
 41
1.0
 50
0.0
 71
     0
 42
4.0
  3
extslim2.shx
  4
extfont2.shx
  0
STYLE
  2
ACANSTS
 70
     0
 40
1.0
 41
1.0
 50
0.0
 71
     0
 42
4.166999999999998
  3
romans.shx
  4
extfont.shx
  0
STYLE
  2
ACANSGDT
 70
     0
 40
0.0
 41
1.0
 50
0.0
 71
     0
 42
4.166999999999998
  3
amgdt.shx
  4

  0
ENDTAB
  0
TABLE
  2
VIEW
 70
     2
  0
ENDTAB
  0
TABLE
  2
UCS
 70
     0
  0
ENDTAB
  0
TABLE
  2
APPID
 70
    27
  0
APPID
  2
ACAD
 70
     0
  0
APPID
  2
ACADANNOTATIVE
 70
     0
  0
APPID
  2
MCAD_NO_VIS
 70
     0
  0
APPID
  2
ACAD_TEMP_GRAPHIC
 70
     0
  0
APPID
  2
AD_DRAW
 70
     0
  0
APPID
  2
ACATTRIBSERVICES
 70
     0
  0
APPID
  2
DESIGNERASSEMBLIES
 70
     0
  0
APPID
  2
ACADM_DIM_EDIT
 70
     0
  0
APPID
  2
AMDT_DM_ADJ
 70
     0
  0
APPID
  2
ACAD_DSTYLE_DIMJAG
 70
     0
  0
APPID
  2
ACAD_DSTYLE_DIMBREAK
 70
     0
  0
APPID
  2
ACAD_DSTYLE_DIMTEXT_FILL
 70
     0
  0
APPID
  2
GENIUS_GENODEF_13
 70
     0
  0
APPID
  2
ACAD_PSEXT
 70
     0
  0
APPID
  2
ACAD_DSTYLE_DIMTALN
 70
     0
  0
APPID
  2
GENIUS_GENOBJ-N-FIL_13
 70
     0
  0
APPID
  2
ACAD_DSTYLE_DIMINSPECT
 70
     0
  0
APPID
  2
DCO15
 70
     0
  0
APPID
  2
ACAD_EXEMPT_FROM_CAD_STANDARDS
 70
     0
  0
APPID
  2
GENIUS_GENOENT_13
 70
     0
  0
APPID
  2
GENIUS_GENOLIS_13
 70
     0
  0
APPID
  2
GENIUS_GENOREF_13
 70
     0
  0
APPID
  2
GENIUS_GENFIL_13
 70
     0
  0
APPID
  2
GENIUS_GENOBJ-N-CHA_13
 70
     0
  0
APPID
  2
ACAECLAYERSTANDARD
 70
     0
  0
APPID
  2
ACAD_MLEADERVER
 70
     0
  0
APPID
  2
GENIUS_GENOBJ-N-CRS_13
 70
     0
  0
ENDTAB
  0
TABLE
  2
DIMSTYLE
 70
    30
  0
DIMSTYLE
  2
STANDARD
 70
     0
  3

  4

  5

  6

  7

 40
1.0
 41
0.18
 42
0.0625
 43
0.38
 44
0.18
 45
0.0
 46
0.0
 47
0.0
 48
0.0
140
0.18
141
0.09
142
0.0
143
25.399999999999999
144
1.0
145
0.0
146
1.0
147
0.09
 71
     0
 72
     0
 73
     1
 74
     1
 75
     0
 76
     0
 77
     0
 78
     0
170
     0
171
     2
172
     0
173
     0
174
     0
175
     0
176
     0
177
     0
178
     0
  0
DIMSTYLE
  2
ANNOTATIVE
 70
     0
  3

  4

  5

  6

  7

 40
1.0
 41
0.18
 42
0.0625
 43
0.38
 44
0.18
 45
0.0
 46
0.0
 47
0.0
 48
0.0
140
0.18
141
0.09
142
0.0
143
25.399999999999999
144
1.0
145
0.0
146
1.0
147
0.09
 71
     0
 72
     0
 73
     1
 74
     1
 75
     0
 76
     0
 77
     0
 78
     0
170
     0
171
     2
172
     0
173
     0
174
     0
175
     0
176
     0
177
     0
178
     0
  0
DIMSTYLE
  2
MXDIMSTYLE
 70
     0
  3

  4

  5

  6

  7

 40
1.0
 41
2.5
 42
1.27
 43
3.75
 44
1.1999999999999991
 45
0.0
 46
0.0
 47
0.0
 48
0.0
140
4.166999999999998
141
2.5
142
0.0
143
0.03937
144
1.0
145
0.0
146
1.0
147
1.0
 71
     0
 72
     0
 73
     0
 74
     0
 75
     0
 76
     0
 77
     1
 78
     8
170
     0
171
     4
172
     1
173
     0
174
     0
175
     0
176
     0
177
     0
178
     0
  0
DIMSTYLE
  2
AM_ISO
 70
     0
  3

  4
"
  5

  6

  7

 40
1.0
 41
3.5
 42
1.0
 43
10.0
 44
1.0
 45
0.0
 46
0.0
 47
0.1
 48
0.1
140
3.5
141
0.0
142
0.0
143
0.0393701
144
1.0
145
0.0
146
0.71
147
1.5
 71
     0
 72
     0
 73
     0
 74
     0
 75
     0
 76
     0
 77
     1
 78
     8
170
     0
171
     2
172
     1
173
     0
174
     0
175
     0
176
   256
177
   256
178
     2
  0
DIMSTYLE
  2
AM_ISO$3
 70
     0
  3

  4
"
  5

  6

  7

 40
1.0
 41
3.5
 42
1.0
 43
10.0
 44
1.0
 45
0.0
 46
0.0
 47
0.1
 48
0.1
140
3.5
141
0.0
142
0.0
143
0.0393701
144
1.0
145
0.0
146
0.71
147
1.5
 71
     0
 72
     0
 73
     0
 74
     1
 75
     0
 76
     0
 77
     1
 78
     8
170
     0
171
     2
172
     0
173
     0
174
     0
175
     0
176
   256
177
   256
178
     2
  0
DIMSTYLE
  2
AM_ISO$4
 70
     0
  3

  4
"
  5

  6

  7

 40
1.0
 41
3.5
 42
1.0
 43
10.0
 44
1.0
 45
0.0
 46
0.0
 47
0.1
 48
0.1
140
3.5
141
0.0
142
0.0
143
0.0393701
144
1.0
145
0.0
146
0.71
147
1.5
 71
     0
 72
     0
 73
     0
 74
     1
 75
     0
 76
     0
 77
     1
 78
     8
170
     0
171
     2
172
     0
173
     0
174
     0
175
     0
176
   256
177
   256
178
     2
  0
DIMSTYLE
  2
AM_ISO$6
 70
     0
  3

  4
"
  5

  6

  7

 40
1.0
 41
3.5
 42
1.0
 43
10.0
 44
1.0
 45
0.0
 46
0.0
 47
0.1
 48
0.1
140
3.5
141
0.0
142
0.0
143
0.0393701
144
1.0
145
0.0
146
0.71
147
1.5
 71
     0
 72
     0
 73
     0
 74
     0
 75
     0
 76
     0
 77
     0
 78
     8
170
     0
171
     2
172
     1
173
     0
174
     0
175
     0
176
   256
177
   256
178
     2
  0
DIMSTYLE
  2
AM_ISO$7
 70
     0
  3

  4
"
  5

  6

  7

 40
1.0
 41
3.5
 42
1.0
 43
10.0
 44
1.0
 45
0.0
 46
0.0
 47
0.1
 48
0.1
140
3.5
141
0.0
142
0.0
143
0.0393701
144
1.0
145
0.0
146
0.71
147
1.5
 71
     0
 72
     0
 73
     0
 74
     0
 75
     0
 76
     0
 77
     1
 78
     8
170
     0
171
     2
172
     1
173
     0
174
     0
175
     0
176
   256
177
   256
178
     2
  0
DIMSTYLE
  2
AM_ISO$SF
 70
     0
  3

  4
"
  5

  6

  7

 40
1.0
 41
3.5
 42
1.0
 43
10.0
 44
1.0
 45
0.0
 46
0.0
 47
0.1
 48
0.1
140
3.5
141
0.0
142
0.0
143
0.0393701
144
1.0
145
0.0
146
0.71
147
1.5
 71
     0
 72
     0
 73
     0
 74
     0
 75
     1
 76
     1
 77
     1
 78
     8
170
     0
171
     2
172
     1
173
     0
174
     0
175
     0
176
   256
177
   256
178
     2
  0
DIMSTYLE
  2
AM_ISO$SH
 70
     0
  3

  4
"
  5

  6

  7

 40
1.0
 41
3.5
 42
1.0
 43
10.0
 44
1.0
 45
0.0
 46
0.0
 47
0.1
 48
0.1
140
3.5
141
0.0
142
0.0
143
0.0393701
144
2.0
145
0.0
146
0.71
147
1.5
 71
     0
 72
     0
 73
     0
 74
     0
 75
     1
 76
     1
 77
     1
 78
     8
170
     0
171
     2
172
     1
173
     1
174
     0
175
     0
176
   256
177
   256
178
     2
  0
DIMSTYLE
  2
ULVAC
 70
     0
  3

  4

  5

  6

  7

 40
1.0
 41
2.8999999999999999
 42
1.269999980926513
 43
10.0
 44
1.200000047683714
 45
0.0
 46
0.0
 47
0.0
 48
0.0
140
4.0
141
0.0
142
0.0
143
0.03937007874016
144
1.0
145
0.0
146
0.75
147
1.0
 71
     0
 72
     0
 73
     0
 74
     0
 75
     0
 76
     0
 77
     1
 78
     9
170
     0
171
     4
172
     1
173
     0
174
     0
175
     0
176
     0
177
     0
178
     0
  0
DIMSTYLE
  2
ULVAC$2
 70
     0
  3

  4

  5

  6

  7

 40
1.0
 41
2.8999999999999999
 42
1.269999980926513
 43
10.0
 44
1.200000047683714
 45
0.0
 46
0.0
 47
0.0
 48
0.0
140
4.0
141
0.0
142
0.0
143
0.03937007874016
144
1.0
145
0.0
146
0.75
147
1.0
 71
     0
 72
     0
 73
     0
 74
     0
 75
     0
 76
     0
 77
     1
 78
     9
170
     0
171
     4
172
     1
173
     0
174
     0
175
     0
176
     0
177
     0
178
     0
  0
DIMSTYLE
  2
ULVAC$0
 70
     0
  3

  4

  5

  6

  7

 40
1.0
 41
2.8999999999999999
 42
1.269999980926513
 43
10.0
 44
1.200000047683714
 45
0.0
 46
0.0
 47
0.0
 48
0.0
140
4.0
141
0.0
142
0.0
143
0.03937007874016
144
1.0
145
0.0
146
0.75
147
1.0
 71
     0
 72
     0
 73
     0
 74
     0
 75
     0
 76
     0
 77
     1
 78
     9
170
     0
171
     4
172
     1
173
     0
174
     0
175
     0
176
     0
177
     0
178
     0
  0
DIMSTYLE
  2
ULVAC$4
 70
     0
  3

  4

  5

  6

  7

 40
1.0
 41
2.8999999999999999
 42
1.269999980926513
 43
10.0
 44
1.200000047683714
 45
0.0
 46
0.0
 47
0.0
 48
0.0
140
4.0
141
0.0
142
0.0
143
0.03937007874016
144
1.0
145
0.0
146
0.75
147
1.0
 71
     0
 72
     0
 73
     0
 74
     0
 75
     0
 76
     0
 77
     1
 78
     9
170
     0
171
     4
172
     0
173
     0
174
     0
175
     0
176
     0
177
     0
178
     0
  0
DIMSTYLE
  2
ULVAC$6
 70
     0
  3

  4

  5

  6

  7

 40
1.0
 41
2.8999999999999999
 42
1.269999980926513
 43
10.0
 44
1.200000047683714
 45
0.0
 46
0.0
 47
0.0
 48
0.0
140
4.0
141
0.0
142
0.0
143
0.03937007874016
144
1.0
145
0.0
146
0.75
147
1.0
 71
     0
 72
     0
 73
     0
 74
     0
 75
     0
 76
     0
 77
     1
 78
     9
170
     0
171
     4
172
     1
173
     0
174
     0
175
     0
176
   256
177
     0
178
     0
  0
DIMSTYLE
  2
ULVAC$7
 70
     0
  3

  4

  5

  6

  7

 40
1.0
 41
2.8999999999999999
 42
1.269999980926513
 43
10.0
 44
1.200000047683714
 45
0.0
 46
0.0
 47
0.0
 48
0.0
140
4.0
141
0.0
142
0.0
143
0.03937007874016
144
1.0
145
0.0
146
1.0
147
1.0
 71
     0
 72
     0
 73
     0
 74
     0
 75
     0
 76
     0
 77
     1
 78
     1
170
     0
171
     4
172
     1
173
     0
174
     0
175
     0
176
     0
177
   256
178
     0
  0
DIMSTYLE
  2
ULVAC$3
 70
     0
  3

  4

  5

  6

  7

 40
1.0
 41
2.8999999999999999
 42
1.269999980926513
 43
10.0
 44
1.200000047683714
 45
0.0
 46
0.0
 47
0.0
 48
0.0
140
4.0
141
0.0
142
0.0
143
0.03937007874016
144
1.0
145
0.0
146
0.75
147
1.0
 71
     0
 72
     0
 73
     0
 74
     0
 75
     0
 76
     0
 77
     1
 78
     9
170
     0
171
     4
172
     1
173
     0
174
     0
175
     0
176
     0
177
     0
178
     0
  0
DIMSTYLE
  2
ULVAC$SH
 70
     0
  3

  4

  5

  6

  7

 40
1.0
 41
2.8999999999999999
 42
1.269999980926513
 43
10.0
 44
1.200000047683714
 45
0.0
 46
0.0
 47
0.0
 48
0.0
140
4.0
141
0.0
142
0.0
143
0.03937007874016
144
2.0
145
0.0
146
0.75
147
1.0
 71
     0
 72
     0
 73
     0
 74
     0
 75
     0
 76
     0
 77
     1
 78
     9
170
     0
171
     4
172
     1
173
     0
174
     0
175
     0
176
     0
177
     0
178
     0
  0
DIMSTYLE
  2
ULVAC$SF
 70
     0
  3

  4

  5

  6

  7

 40
1.0
 41
2.8999999999999999
 42
1.269999980926513
 43
10.0
 44
1.200000047683714
 45
0.0
 46
0.0
 47
0.0
 48
0.0
140
4.0
141
0.0
142
0.0
143
0.03937007874016
144
2.0
145
0.0
146
0.75
147
1.0
 71
     0
 72
     0
 73
     0
 74
     0
 75
     0
 76
     0
 77
     1
 78
     9
170
     0
171
     4
172
     1
173
     0
174
     0
175
     0
176
     0
177
     0
178
     0
  0
DIMSTYLE
  2
MXDIMSTYLE$0
 70
     0
  3

  4

  5

  6

  7

 40
1.0
 41
2.5
 42
1.27
 43
3.75
 44
1.1999999999999991
 45
0.0
 46
0.0
 47
0.0
 48
0.0
140
4.166999999999998
141
2.5
142
0.0
143
0.03937
144
1.0
145
0.0
146
1.0
147
1.0
 71
     0
 72
     0
 73
     0
 74
     0
 75
     0
 76
     0
 77
     1
 78
     8
170
     0
171
     4
172
     1
173
     0
174
     0
175
     0
176
     0
177
     0
178
     0
  0
DIMSTYLE
  2
AM_ANSI
 70
     0
  3

  4
mm
  5

  6

  7

 40
1.0
 41
0.12
 42
0.05
 43
0.5
 44
0.1
 45
0.0
 46
0.0
 47
0.1
 48
0.1
140
0.12
141
0.0
142
0.0
143
25.399999999999999
144
1.0
145
0.0
146
0.71
147
0.06
 71
     0
 72
     0
 73
     1
 74
     1
 75
     0
 76
     0
 77
     0
 78
     7
170
     0
171
     2
172
     0
173
     0
174
     0
175
     0
176
   256
177
   256
178
     2
  0
DIMSTYLE
  2
AM_ANSI$3
 70
     0
  3

  4
mm
  5

  6

  7

 40
1.0
 41
0.12
 42
0.05
 43
0.5
 44
0.1
 45
0.0
 46
0.0
 47
0.1
 48
0.1
140
0.12
141
0.0
142
0.0
143
25.399999999999999
144
1.0
145
0.0
146
0.71
147
0.06
 71
     0
 72
     0
 73
     1
 74
     1
 75
     0
 76
     0
 77
     0
 78
     7
170
     0
171
     2
172
     0
173
     0
174
     0
175
     0
176
   256
177
   256
178
     2
  0
DIMSTYLE
  2
AM_ANSI$4
 70
     0
  3

  4
mm
  5

  6

  7

 40
1.0
 41
0.12
 42
0.05
 43
0.5
 44
0.1
 45
0.0
 46
0.0
 47
0.1
 48
0.1
140
0.12
141
0.0
142
0.0
143
25.399999999999999
144
1.0
145
0.0
146
0.71
147
0.06
 71
     0
 72
     0
 73
     1
 74
     1
 75
     0
 76
     0
 77
     0
 78
     7
170
     0
171
     2
172
     0
173
     0
174
     0
175
     0
176
   256
177
   256
178
     2
  0
DIMSTYLE
  2
AM_ANSI$7
 70
     0
  3

  4
mm
  5

  6

  7

 40
1.0
 41
0.12
 42
0.05
 43
0.5
 44
0.1
 45
0.0
 46
0.0
 47
0.1
 48
0.1
140
0.12
141
0.0
142
0.0
143
25.399999999999999
144
1.0
145
0.0
146
0.71
147
0.06
 71
     0
 72
     0
 73
     1
 74
     1
 75
     0
 76
     0
 77
     0
 78
     7
170
     0
171
     2
172
     0
173
     0
174
     0
175
     0
176
   256
177
   256
178
     2
  0
DIMSTYLE
  2
AM_ANSI$SF
 70
     0
  3

  4
mm
  5

  6

  7

 40
1.0
 41
0.12
 42
0.05
 43
0.5
 44
0.1
 45
0.0
 46
0.0
 47
0.1
 48
0.1
140
0.12
141
0.0
142
0.0
143
25.399999999999999
144
1.0
145
0.0
146
0.71
147
0.06
 71
     0
 72
     0
 73
     1
 74
     1
 75
     1
 76
     1
 77
     0
 78
     7
170
     0
171
     2
172
     0
173
     0
174
     0
175
     0
176
   256
177
   256
178
     2
  0
DIMSTYLE
  2
AM_ANSI$SH
 70
     0
  3

  4
mm
  5

  6
GENAXEH
  7

 40
1.0
 41
0.12
 42
0.05
 43
0.5
 44
0.1
 45
0.0
 46
0.0
 47
0.1
 48
0.1
140
0.12
141
0.0
142
0.0
143
25.399999999999999
144
1.0
145
0.0
146
0.71
147
0.06
 71
     0
 72
     0
 73
     1
 74
     1
 75
     1
 76
     1
 77
     0
 78
     7
170
     0
171
     2
172
     0
173
     1
174
     0
175
     0
176
   256
177
   256
178
     2
  0
ENDTAB
  0
ENDSEC
  0
SECTION
  2
BLOCKS
  0
BLOCK
  8
0
  2
$MODEL_SPACE
 70
     0
 10
0.0
 20
0.0
 30
0.0
  3
$MODEL_SPACE
  1

  0
ENDBLK
  5
1834
  8
0
  0
BLOCK
 67
     1
  8
0
  2
$PAPER_SPACE
 70
     0
 10
0.0
 20
0.0
 30
0.0
  3
$PAPER_SPACE
  1

  0
ENDBLK
  5
1830
 67
     1
  8
0
  0
BLOCK
  8
0
  6
BYBLOCK
 62
     0
  2
_OPEN30
 70
     2
 10
0.0
 20
0.0
 30
0.0
  3
_OPEN30
  1

  0
LINE
  5
657
  8
0
  6
BYBLOCK
 62
     0
 10
-1.0
 20
0.267949
 30
0.0
 11
0.0
 21
0.0
 31
0.0
  0
LINE
  5
658
  8
0
  6
BYBLOCK
 62
     0
 10
0.0
 20
0.0
 30
0.0
 11
-1.0
 21
-0.267949
 31
0.0
  0
LINE
  5
659
  8
0
  6
BYBLOCK
 62
     0
 10
0.0
 20
0.0
 30
0.0
 11
-1.0
 21
0.0
 31
0.0
  0
ENDBLK
  5
65A
  8
0
  6
BYBLOCK
 62
     0
  0
BLOCK
  8
0
  2
GENAXEH
 70
     0
 10
0.0
 20
0.0
 30
0.0
  3
GENAXEH
  1

  0
LINE
  5
7D0
  8
0
 10
-1.0
 20
0.0
 30
0.0
 11
1.0
 21
0.0
 31
0.0
  0
ENDBLK
  5
7D2
  8
0
  0
BLOCK
  8
0
  2
*U5
 70
     1
 10
0.0
 20
0.0
 30
0.0
  3
*U5
  1

  0
TEXT
  5
1124
  8
DIMENSION
  6
CONTINUOUS
 62
     7
 10
16.129546288493898
 20
100.1700001543238
 30
0.0
 40
4.0
  1
(\U+220540)
  7
ULVAC
  0
ENDBLK
  5
1126
  8
0
  0
BLOCK
  8
0
  2
*U7
 70
     1
 10
0.0
 20
0.0
 30
0.0
  3
*U7
  1

  0
TEXT
  5
1110
  8
DIMENSION
  6
CONTINUOUS
 62
     0
 10
54.796091091026248
 20
57.588933993460898
 30
0.0
 40
4.0
  1
(35)
 50
90.0
  7
ULVAC
  0
ENDBLK
  5
1112
  8
0
  0
BLOCK
  8
0
  2
*U9
 70
     1
 10
0.0
 20
0.0
 30
0.0
  3
*U9
  1

  0
TEXT
  5
1114
  8
DIMENSION
  6
CONTINUOUS
 62
     0
 10
64.796091091026483
 20
41.655600183290368
 30
0.0
 40
4.0
  1
(60.2)
 50
90.0
  7
ULVAC
  0
ENDBLK
  5
1116
  8
0
  0
BLOCK
  8
0
  2
*U11
 70
     1
 10
0.0
 20
0.0
 30
0.0
  3
*U11
  1

  0
TEXT
  5
1118
  8
DIMENSION
  6
CONTINUOUS
 62
     0
 10
-66.128766815121111
 20
59.314022578697397
 30
0.0
 40
4.0
  1
(\U+220527.2)
  7
ULVAC
  0
ENDBLK
  5
111A
  8
0
  0
BLOCK
  8
0
  2
*U13
 70
     1
 10
0.0
 20
0.0
 30
0.0
  3
*U13
  1

  0
TEXT
  5
1104
  8
DIMENSION
  6
CONTINUOUS
 62
     0
 10
-62.795425852393222
 20
100.1700001543238
 30
0.0
 40
4.0
  1
(\U+220530)
  7
ULVAC
  0
ENDBLK
  5
1106
  8
0
  0
BLOCK
  8
0
  2
*U15
 70
     1
 10
0.0
 20
0.0
 30
0.0
  3
*U15
  1

  0
TEXT
  5
1108
  8
DIMENSION
  6
CONTINUOUS
 62
     0
 10
-24.128881049860869
 20
57.588933993460891
 30
0.0
 40
4.0
  1
(35)
 50
90.0
  7
ULVAC
  0
ENDBLK
  5
110A
  8
0
  0
BLOCK
  8
0
  2
*U17
 70
     1
 10
0.0
 20
0.0
 30
0.0
  3
*U17
  1

  0
TEXT
  5
110C
  8
DIMENSION
  6
CONTINUOUS
 62
     0
 10
-14.12888104986064
 20
41.655600660127497
 30
0.0
 40
4.0
  1
(60.2)
 50
90.0
  7
ULVAC
  0
ENDBLK
  5
110E
  8
0
  0
BLOCK
  8
0
  2
A$C18431A50
 70
     0
 10
0.0
 20
0.0
 30
0.0
  3
A$C18431A50
  1

  0
LINE
  5
AAD
  8
PROFILE2
 10
2.500000206835522
 20
20.32474755833087
 30
0.0
 11
2.500000206835522
 21
20.07474755833087
 31
0.0
  0
LINE
  5
AAE
  8
PROFILE2
 10
21.250000206835519
 20
44.324747558330863
 30
0.0
 11
21.250000206835519
 21
44.07474755833087
 31
0.0
  0
LINE
  5
AAF
  8
PROFILE2
 10
13.2799989861324
 20
22.399743056988122
 30
0.0
 11
13.2799989861324
 21
13.69974987575943
 31
0.0
  0
ARC
  5
AB0
  8
PROFILE2
 10
12.500000206835519
 20
22.41974971363484
 30
0.0
 40
0.7800002098083496
 50
0.0
 51
180.0000186693336
  0
LINE
  5
AB1
  8
PROFILE2
 10
11.720001427538641
 20
13.69974987575943
 30
0.0
 11
11.72000142753865
 21
22.399750686382649
 31
0.0
  0
POINT
  5
AB5
  8
PROFILE2
 62
     6
 10
12.500000206835519
 20
40.199749923443193
 30
0.0
  0
LINE
  5
AB6
  8
PROFILE2
 10
5.5300028008296627
 20
22.399743056988122
 30
0.0
 11
5.5300028008296627
 21
20.32474755833087
 31
0.0
  0
LINE
  5
AB7
  8
PROFILE2
 10
7.8750040215327859
 20
22.72190165111957
 30
0.0
 11
7.8750040215327859
 21
23.97474717686114
 31
0.0
  0
LINE
  5
AB8
  8
PROFILE2
 10
7.6250040215327859
 20
23.231031413769092
 30
0.0
 11
7.6250040215327859
 21
23.97474717686114
 31
0.0
  0
LINE
  5
AB9
  8
PROFILE2
 10
6.2399179619624761
 20
20.07474755833087
 30
0.0
 11
2.500000206835522
 21
20.07474755833087
 31
0.0
  0
LINE
  5
ABA
  8
PROFILE2
 10
6.2399179619624761
 20
20.32474755833087
 30
0.0
 11
2.500000206835522
 21
20.32474755833087
 31
0.0
  0
LINE
  5
ABB
  8
PROFILE2
 10
3.9700052422359118
 20
20.32474755833087
 30
0.0
 11
3.9700052422359118
 21
22.399750686382649
 31
0.0
  0
LINE
  5
ABC
  8
PROFILE2
 10
12.54999944389607
 20
40.199749923443193
 30
0.0
 11
12.54999944389607
 21
37.714043820878182
 31
0.0
  0
LINE
  5
ABD
  8
PROFILE2
 10
12.450000969774971
 20
40.199749923443193
 30
0.0
 11
12.450000969774971
 21
37.668688603392098
 31
0.0
  0
LINE
  5
ABE
  8
PROFILE2
 10
5.5300028008296627
 20
20.07474755833087
 30
0.0
 11
5.5300028008296547
 21
13.199999957271039
 31
0.0
  0
LINE
  5
ABF
  8
PROFILE2
 10
7.7999231499507564
 20
22.39974687168538
 30
0.0
 11
7.7999231499507564
 21
13.199999957271039
 31
0.0
  0
LINE
  5
AC0
  8
PROFILE2
 10
6.2399179619624761
 20
22.39974687168538
 30
0.0
 11
6.2399179619624681
 21
13.199999957271039
 31
0.0
  0
LINE
  5
AC1
  8
PROFILE2
 10
21.029998986132401
 20
22.399743056988122
 30
0.0
 11
21.029998986132391
 21
13.199999957271039
 31
0.0
  0
LINE
  5
AC2
  8
PROFILE2
 10
17.200081078417551
 20
22.39974687168538
 30
0.0
 11
17.200081078417529
 21
13.199999957271039
 31
0.0
  0
LINE
  5
AC3
  8
PROFILE2
 10
18.760078637011301
 20
22.39974687168538
 30
0.0
 11
18.760078637011301
 21
13.49999995727106
 31
0.0
  0
LINE
  5
AC4
  8
PROFILE2
 10
3.9700052422359118
 20
13.199999957271039
 30
0.0
 11
3.9700052422359118
 21
20.07474755833087
 31
0.0
  0
LINE
  5
AC5
  8
PROFILE2
 10
19.470001427538641
 20
13.199999957271039
 30
0.0
 11
19.470001427538641
 21
22.399750686382649
 31
0.0
  0
LINE
  5
AC6
  8
PROFILE2
 10
20.000000206835519
 20
45.19974755833087
 30
0.0
 11
20.000000206835519
 21
23.138597465252278
 31
0.0
  0
LINE
  5
AC7
  8
PROFILE2
 10
20.500000206835519
 20
45.19974755833087
 30
0.0
 11
20.500000206835519
 21
23.138597465252278
 31
0.0
  0
LINE
  5
ACA
  8
PROFILE2
 10
20.500000206835519
 20
45.19974755833087
 30
0.0
 11
20.000000206835519
 21
45.19974755833087
 31
0.0
  0
LINE
  5
ACB
  8
PROFILE2
 10
17.000000206835519
 20
44.324747558330863
 30
0.0
 11
21.250000206835519
 21
44.324747558330863
 31
0.0
  0
LINE
  5
ACC
  8
PROFILE2
 10
17.250000206835519
 20
44.07474755833087
 30
0.0
 11
21.250000206835519
 21
44.07474755833087
 31
0.0
  0
LINE
  5
ACD
  8
PROFILE2
 10
12.450000969774971
 20
40.199749923443193
 30
0.0
 11
12.54999944389607
 21
40.199749923443193
 31
0.0
  0
LINE
  5
ACF
  8
PROFILE2
 10
21.035007683642171
 20
44.07474755833087
 30
0.0
 11
17.010607302449049
 21
44.07474755833087
 31
0.0
  0
ARC
  5
AD0
  8
PROFILE2
 10
7.9749948662593502
 20
23.97474717686114
 30
0.0
 40
0.1000000014901161
 50
90.000002504478417
 51
180.0000050089553
  0
ARC
  5
AD1
  8
PROFILE2
 10
7.9749948662593502
 20
23.97474717686114
 30
0.0
 40
0.3499999940395355
 50
90.000002504478417
 51
180.0000050089553
  0
ARC
  5
AD2
  8
PROFILE2
 10
4.7500040215327868
 20
22.41974971363484
 30
0.0
 40
0.7800002098083496
 50
0.0
 51
180.0000186693336
  0
ARC
  5
AD3
  8
PROFILE2
 10
7.0199167412593511
 20
22.41974971363484
 30
0.0
 40
0.7800002098083496
 50
0.0
 51
180.0000186693336
  0
ARC
  5
AD4
  8
PROFILE2
 10
20.25000020683553
 20
22.41974971363484
 30
0.0
 40
0.7800002098083496
 50
0.0
 51
180.0000186693336
  0
ARC
  5
AD5
  8
PROFILE2
 10
17.980079857714419
 20
22.41974971363484
 30
0.0
 40
0.7800002098083496
 50
0.0
 51
180.0000186693336
  0
ARC
  5
AD6
  8
PROFILE2
 10
17.000000206835519
 20
44.19974755833087
 30
0.0
 40
0.125
 50
279.70062984590629
 51
99.700629845906334
  0
ARC
  5
AD7
  8
PROFILE2
 10
8.0000002068355212
 20
42.661247558330857
 30
0.0
 40
0.125
 50
80.299988699893092
 51
260.29998869988958
  0
ARC
  5
AD8
  8
PROFILE2
 10
17.000000206835519
 20
41.122847558330839
 30
0.0
 40
0.125
 50
279.70062984590629
 51
99.700629845906334
  0
ARC
  5
AD9
  8
PROFILE2
 10
8.0000002068355212
 20
39.584347558330848
 30
0.0
 40
0.125
 50
80.299988699893092
 51
260.29998869989288
  0
ARC
  5
ADA
  8
PROFILE2
 10
17.000000206835519
 20
38.04594755833083
 30
0.0
 40
0.125
 50
279.70062984590629
 51
80.299988699893092
  0
ARC
  5
ADB
  8
PROFILE2
 10
8.0000002068355212
 20
36.507447558330831
 30
0.0
 40
0.125
 50
80.209697465231812
 51
279.70062984590629
  0
ARC
  5
ADC
  8
PROFILE2
 10
17.000000206835519
 20
34.968947558330818
 30
0.0
 40
0.125
 50
279.70001130010689
 51
99.700011300106937
  0
ARC
  5
ADD
  8
PROFILE2
 10
8.0000002068355212
 20
33.430547558330858
 30
0.0
 40
0.125
 50
80.299370154093623
 51
260.29937015409371
  0
ARC
  5
ADE
  8
PROFILE2
 10
17.000000206835519
 20
31.892047558330859
 30
0.0
 40
0.125
 50
279.70062984590629
 51
99.700629845906334
  0
ARC
  5
ADF
  8
PROFILE2
 10
8.0000002068355212
 20
30.35354755833086
 30
0.0
 40
0.125
 50
110.8846886486803
 51
260.29998869989288
  0
ARC
  5
AE0
  8
PROFILE2
 10
17.000000206835519
 20
28.815147558330889
 30
0.0
 40
0.125
 50
279.70062984590629
 51
99.700629845906334
  0
ARC
  5
AE1
  8
PROFILE2
 10
8.0398300865541739
 20
27.2501692983124
 30
0.0
 40
0.1508628439061937
 50
97.14611360377917
 51
214.7308308113291
  0
ARC
  5
AE2
  8
PROFILE2
 10
17.000000206835519
 20
25.738247558330869
 30
0.0
 40
0.125
 50
279.70062984590629
 51
99.700629845906334
  0
LINE
  5
AE3
  8
PROFILE2
 10
16.978937679925561
 20
44.322960260436467
 30
0.0
 11
7.9789376799255631
 21
42.784460260436461
 31
0.0
  0
LINE
  5
AE4
  8
PROFILE2
 10
17.021062733745481
 20
44.076534856225202
 30
0.0
 11
8.7418624470828092
 21
42.66125156277738
 31
0.0
  0
LINE
  5
AE5
  8
PROFILE2
 10
8.0210614035816832
 20
42.784460487813149
 30
0.0
 11
17.02106140358168
 21
41.246060487813189
 31
0.0
  0
LINE
  5
AE6
  8
PROFILE2
 10
16.25813796658824
 20
41.122843553884337
 30
0.0
 11
7.9789390100893343
 21
42.538034628848521
 31
0.0
  0
LINE
  5
AE7
  8
PROFILE2
 10
16.978937679925561
 20
41.246060260436487
 30
0.0
 11
7.9789376799255631
 21
39.707560260436509
 31
0.0
  0
LINE
  5
AE8
  8
PROFILE2
 10
17.021062733745481
 20
40.999634856225242
 30
0.0
 11
8.7418624470828092
 21
39.584351562777421
 31
0.0
  0
LINE
  5
AE9
  8
PROFILE2
 10
8.0210614035816832
 20
39.707560487813197
 30
0.0
 11
11.999264341064899
 21
39.027552999032743
 31
0.0
  0
LINE
  5
AEA
  8
PROFILE2
 10
16.25813796658824
 20
38.045943553884307
 30
0.0
 11
12.951862574420881
 21
38.611096227585477
 31
0.0
  0
LINE
  5
AEB
  8
PROFILE2
 10
16.978937679925561
 20
38.169160260436477
 30
0.0
 11
7.9789376799255631
 21
36.6306602604365
 31
0.0
  0
LINE
  5
AEC
  8
PROFILE2
 10
8.7384585394274836
 20
36.50686968367431
 30
0.0
 11
17.021062733745481
 21
37.92273485622529
 31
0.0
  0
LINE
  5
AED
  8
PROFILE2
 10
17.076017569958111
 20
35.068176387326702
 30
0.0
 11
12.944358053934559
 21
35.781117768218593
 31
0.0
  0
LINE
  5
AEE
  8
PROFILE2
 10
7.9789376799255631
 20
36.384234856225277
 30
0.0
 11
11.94184075939128
 21
35.706798590918801
 31
0.0
  0
LINE
  5
AEF
  8
PROFILE2
 10
16.978939010089331
 20
35.092160487813231
 30
0.0
 11
7.9789390100893343
 21
33.553760487813207
 31
0.0
  0
LINE
  5
AF0
  8
PROFILE2
 10
8.7418624470828092
 20
33.430543553884277
 30
0.0
 11
17.02106140358168
 21
34.845734628848533
 31
0.0
  0
LINE
  5
AF1
  8
PROFILE2
 10
8.0210627337454792
 20
33.553760260436462
 30
0.0
 11
12.080988153196669
 21
32.85973856512252
 31
0.0
  0
LINE
  5
AF2
  8
PROFILE2
 10
16.258161392014891
 20
31.892047558330859
 30
0.0
 11
12.936636109047861
 21
32.45984385253584
 31
0.0
  0
LINE
  5
AF3
  8
PROFILE2
 10
16.978937679925561
 20
32.01526026043647
 30
0.0
 11
7.9789376799255631
 21
30.47676026043646
 31
0.0
  0
LINE
  5
AF4
  8
PROFILE2
 10
8.7381583417188722
 20
30.352918366543829
 30
0.0
 11
17.021062733745481
 21
31.768834856225251
 31
0.0
  0
LINE
  5
AF5
  8
PROFILE2
 10
17.078308986133582
 20
28.912578226422831
 30
0.0
 11
12.86129459444558
 21
29.64085465196721
 31
0.0
  0
LINE
  5
AF6
  8
PROFILE2
 10
7.9789390100893343
 20
30.23033462884851
 30
0.0
 11
12.07343092652965
 21
29.530449477264959
 31
0.0
  0
LINE
  5
AF7
  8
PROFILE2
 10
16.978937679925561
 20
28.93836026043644
 30
0.0
 11
7.9789376799255631
 21
27.399860260436441
 31
0.0
  0
LINE
  5
AF8
  8
PROFILE2
 10
17.021062733745481
 20
28.691934856225231
 30
0.0
 11
8.7418624470828092
 21
27.276651562777399
 31
0.0
  0
LINE
  5
AF9
  8
PROFILE2
 10
8.0210614035816832
 20
27.399860487813189
 30
0.0
 11
12.17303081462938
 21
26.69015051648481
 31
0.0
  0
LINE
  5
AFA
  8
PROFILE2
 10
16.25813796658824
 20
25.738243553884299
 30
0.0
 11
12.92721185407839
 21
26.307609857382701
 31
0.0
  0
LINE
  5
AFB
  8
PROFILE2
 10
16.978937679925561
 20
25.86146026043647
 30
0.0
 11
7.9789376799255631
 21
24.322960260436481
 31
0.0
  0
LINE
  5
AFC
  8
PROFILE2
 10
7.974994861888212
 20
24.074747178351259
 30
0.0
 11
17.021062733745481
 21
25.615034856225211
 31
0.0
  0
ARC
  5
AFD
  8
PROFILE2
 10
9.9042095639992738
 20
31.62162011541691
 30
0.0
 40
0.5781274429139672
 50
9.1650231559290081
 51
165.47193312637779
  0
ARC
  5
AFE
  8
PROFILE2
 10
9.9042095639992738
 20
31.62162011541691
 30
0.0
 40
0.4511274429139673
 50
9.1650231559290081
 51
165.47193312637779
  0
LINE
  5
AFF
  8
PROFILE2
 10
7.1227748966200277
 20
23.192938259318769
 30
0.0
 11
9.3445678193581312
 21
31.766645830051381
 31
0.0
  0
LINE
  5
B00
  8
PROFILE2
 10
11.894997681977291
 20
22.912062898727608
 30
0.0
 11
10.4749564483503
 21
31.71370341604117
 31
0.0
  0
LINE
  5
B01
  8
PROFILE2
 10
7.2457140555210051
 20
23.161079772086708
 30
0.0
 11
9.4675069782591361
 21
31.73478734281932
 31
0.0
  0
LINE
  5
B02
  8
PROFILE2
 10
11.76961900431543
 20
22.89183452292119
 30
0.0
 11
10.34957777068845
 21
31.693475040234748
 31
0.0
  0
LINE
  5
B03
  8
PROFILE2
 10
12.54999944389607
 20
24.54221256031704
 30
0.0
 11
12.54999944389607
 21
23.778429559278411
 31
0.0
  0
LINE
  5
B04
  8
PROFILE2
 10
12.450000969774971
 20
23.823656280243231
 30
0.0
 11
12.450000969774971
 21
24.833637242462061
 31
0.0
  0
LINE
  5
B05
  8
PROFILE2
 10
12.54999944389607
 20
27.7177538869594
 30
0.0
 11
12.54999944389607
 21
25.321984249766128
 31
0.0
  0
LINE
  5
B06
  8
PROFILE2
 10
12.450000969774971
 20
27.59983032149572
 30
0.0
 11
12.450000969774971
 21
25.282995665293729
 31
0.0
  0
LINE
  5
B07
  8
PROFILE2
 10
12.960899113674399
 20
26.555477561901309
 30
0.0
 11
17.02106140358168
 21
25.861460487813162
 31
0.0
  0
LINE
  5
B08
  8
PROFILE2
 10
12.18341119519965
 20
26.434750183340299
 30
0.0
 11
7.9158453300178708
 21
27.16421944189543
 31
0.0
  0
LINE
  5
B09
  8
PROFILE2
 10
12.07823640705473
 20
29.776088436995369
 30
0.0
 11
8.0212727512584632
 21
30.476724174836519
 31
0.0
  0
LINE
  5
B0A
  8
PROFILE2
 10
12.88193933309145
 20
29.392248440303351
 30
0.0
 11
16.25813796658824
 21
28.815143553884269
 31
0.0
  0
LINE
  5
B0B
  8
PROFILE2
 10
12.54999944389607
 20
30.738411371528318
 30
0.0
 11
12.54999944389607
 21
28.402082423090029
 31
0.0
  0
LINE
  5
B0C
  8
PROFILE2
 10
12.450000969774971
 20
30.693056154042239
 30
0.0
 11
12.450000969774971
 21
28.324105254145181
 31
0.0
  0
LINE
  5
B0D
  8
PROFILE2
 10
12.961509724695221
 20
32.709218294261319
 30
0.0
 11
17.021062733745481
 21
32.01526026043647
 31
0.0
  0
LINE
  5
B0E
  8
PROFILE2
 10
12.04730104204495
 20
32.611870741489639
 30
0.0
 11
7.9789376799255631
 21
33.30733485622526
 31
0.0
  0
LINE
  5
B0F
  8
PROFILE2
 10
12.54999944389607
 20
33.75906885609723
 30
0.0
 11
12.54999944389607
 21
31.527592155785019
 31
0.0
  0
LINE
  5
B10
  8
PROFILE2
 10
12.450000969774971
 20
33.749997812600007
 30
0.0
 11
12.450000969774971
 21
31.50037902529343
 31
0.0
  0
LINE
  5
B11
  8
PROFILE2
 10
11.9920783758852
 20
35.945439050267773
 30
0.0
 11
8.0000994567856196
 21
36.634277748625237
 31
0.0
  0
LINE
  5
B12
  8
PROFILE2
 10
12.935431154354021
 20
35.53694983284656
 30
0.0
 11
16.25813796658824
 21
34.968951562777448
 31
0.0
  0
LINE
  5
B13
  8
PROFILE2
 10
12.54999944389607
 20
36.80693947115779
 30
0.0
 11
12.54999944389607
 21
34.602675901337221
 31
0.0
  0
LINE
  5
B14
  8
PROFILE2
 10
12.450000969774971
 20
36.80693947115779
 30
0.0
 11
12.450000969774971
 21
34.57546277084559
 31
0.0
  0
LINE
  5
B15
  8
PROFILE2
 10
12.998882939225609
 20
38.856684859987162
 30
0.0
 11
17.02106140358168
 21
38.169160487813222
 31
0.0
  0
LINE
  5
B16
  8
PROFILE2
 10
11.95676355343565
 20
38.781191820239222
 30
0.0
 11
7.9789390100893343
 21
39.461134628848562
 31
0.0
  0
ARC
  5
B17
  8
PROFILE2
 10
20.25000020683553
 20
0.7999999572710692
 30
0.0
 40
0.8
 50
270.0
 51
0.0
1001
GENIUS_GENODEF_13
1002
{
1000
HIER
1070
     0
1002
}
1002
{
1000
MANEDIT
1070
     0
1002
}
1002
{
1000
NOSEL
1070
     0
1002
}
1002
{
1000
BEHIND
1070
     0
1002
}
1002
{
1000
OTHER
1070
     0
1002
}
1002
{
1000
REACTOR
1002
}
1001
GENIUS_GENOBJ-N-FIL_13
1002
{
1000
OWNER
1000
GEN
1002
}
  0
ARC
  5
B18
  8
PROFILE2
 10
20.25000020683553
 20
0.7999999572710692
 30
0.0
 40
0.8
 50
180.0
 51
270.0
1001
GENIUS_GENODEF_13
1002
{
1000
HIER
1070
     0
1002
}
1002
{
1000
MANEDIT
1070
     0
1002
}
1002
{
1000
NOSEL
1070
     0
1002
}
1002
{
1000
BEHIND
1070
     0
1002
}
1002
{
1000
OTHER
1070
     0
1002
}
1002
{
1000
REACTOR
1002
}
1001
GENIUS_GENOBJ-N-FIL_13
1002
{
1000
OWNER
1000
GEN
1002
}
  0
LINE
  5
B19
  8
PROFILE2
 10
21.050000206835531
 20
10.199999957271039
 30
0.0
 11
21.050000206835531
 21
0.7999999572710692
 31
0.0
  0
LINE
  5
B1A
  8
PROFILE2
 10
19.450000206835512
 20
10.199999957271039
 30
0.0
 11
19.450000206835512
 21
0.7999999572710692
 31
0.0
  0
ARC
  5
B1B
  8
PROFILE2
 10
4.7500002068355212
 20
0.7999999572710692
 30
0.0
 40
0.8
 50
270.0
 51
0.0
1001
GENIUS_GENODEF_13
1002
{
1000
HIER
1070
     0
1002
}
1002
{
1000
MANEDIT
1070
     0
1002
}
1002
{
1000
NOSEL
1070
     0
1002
}
1002
{
1000
BEHIND
1070
     0
1002
}
1002
{
1000
OTHER
1070
     0
1002
}
1002
{
1000
REACTOR
1002
}
1001
GENIUS_GENOBJ-N-FIL_13
1002
{
1000
OWNER
1000
GEN
1002
}
  0
ARC
  5
B1C
  8
PROFILE2
 10
4.7500002068355212
 20
0.7999999572710692
 30
0.0
 40
0.8
 50
180.0
 51
270.0
1001
GENIUS_GENODEF_13
1002
{
1000
HIER
1070
     0
1002
}
1002
{
1000
MANEDIT
1070
     0
1002
}
1002
{
1000
NOSEL
1070
     0
1002
}
1002
{
1000
BEHIND
1070
     0
1002
}
1002
{
1000
OTHER
1070
     0
1002
}
1002
{
1000
REACTOR
1002
}
1001
GENIUS_GENOBJ-N-FIL_13
1002
{
1000
OWNER
1000
GEN
1002
}
  0
LINE
  5
B1D
  8
PROFILE2
 10
5.5500002068355201
 20
10.199999957271039
 30
0.0
 11
5.5500002068355201
 21
0.7999999572710692
 31
0.0
  0
LINE
  5
B1E
  8
PROFILE2
 10
3.950000206835524
 20
10.199999957271039
 30
0.0
 11
3.950000206835524
 21
0.7999999572710692
 31
0.0
  0
LINE
  5
B1F
  8
PROFILE2
 10
25.00000020683553
 20
10.199999957271039
 30
0.0
 11
0.0000002068355514
 21
10.199999957271039
 31
0.0
  0
LINE
  5
B20
  8
PROFILE2
 10
0.0000002068355514
 20
10.199999957271039
 30
0.0
 11
0.0000002068355514
 21
10.699999957271039
 31
0.0
  0
LINE
  5
B21
  8
PROFILE2
 10
0.0000002068355514
 20
10.699999957271039
 30
0.0
 11
25.00000020683553
 21
10.699999957271039
 31
0.0
  0
LINE
  5
B22
  8
PROFILE2
 10
0.7500002068355514
 20
10.699999957271039
 30
0.0
 11
0.7500002068355514
 21
13.199999957271039
 31
0.0
  0
LINE
  5
B23
  8
PROFILE2
 10
24.250000206835519
 20
13.199999957271039
 30
0.0
 11
24.250000206835519
 21
10.699999957271039
 31
0.0
  0
LINE
  5
B24
  8
PROFILE2
 10
25.00000020683553
 20
10.199999957271039
 30
0.0
 11
25.00000020683553
 21
10.699999957271039
 31
0.0
  0
LINE
  5
B25
  8
PROFILE2
 10
0.7500002068355514
 20
13.199999957271039
 30
0.0
 11
24.250000206835519
 21
13.199999957271039
 31
0.0
  0
ARC
  5
B26
  8
PROFILE2
 10
17.980079857714419
 20
0.7999999572710692
 30
0.0
 40
0.8
 50
270.0
 51
0.0
1001
GENIUS_GENODEF_13
1002
{
1000
HIER
1070
     0
1002
}
1002
{
1000
MANEDIT
1070
     0
1002
}
1002
{
1000
NOSEL
1070
     0
1002
}
1002
{
1000
BEHIND
1070
     0
1002
}
1002
{
1000
OTHER
1070
     0
1002
}
1002
{
1000
REACTOR
1002
}
1001
GENIUS_GENOBJ-N-FIL_13
1002
{
1000
OWNER
1000
GEN
1002
}
  0
ARC
  5
B27
  8
PROFILE2
 10
17.980079857714419
 20
0.7999999572710692
 30
0.0
 40
0.8
 50
180.0
 51
270.0
1001
GENIUS_GENODEF_13
1002
{
1000
HIER
1070
     0
1002
}
1002
{
1000
MANEDIT
1070
     0
1002
}
1002
{
1000
NOSEL
1070
     0
1002
}
1002
{
1000
BEHIND
1070
     0
1002
}
1002
{
1000
OTHER
1070
     0
1002
}
1002
{
1000
REACTOR
1002
}
1001
GENIUS_GENOBJ-N-FIL_13
1002
{
1000
OWNER
1000
GEN
1002
}
  0
LINE
  5
B28
  8
PROFILE2
 10
18.780079857714441
 20
10.199999957271039
 30
0.0
 11
18.780079857714441
 21
0.7999999572710692
 31
0.0
  0
LINE
  5
B29
  8
PROFILE2
 10
17.180079857714421
 20
10.199999957271039
 30
0.0
 11
17.180079857714421
 21
0.7999999572710692
 31
0.0
  0
ARC
  5
B2A
  8
PROFILE2
 10
12.500000206835519
 20
0.7999999572710692
 30
0.0
 40
0.8
 50
270.0
 51
0.0
1001
GENIUS_GENODEF_13
1002
{
1000
HIER
1070
     0
1002
}
1002
{
1000
MANEDIT
1070
     0
1002
}
1002
{
1000
NOSEL
1070
     0
1002
}
1002
{
1000
BEHIND
1070
     0
1002
}
1002
{
1000
OTHER
1070
     0
1002
}
1002
{
1000
REACTOR
1002
}
1001
GENIUS_GENOBJ-N-FIL_13
1002
{
1000
OWNER
1000
GEN
1002
}
  0
ARC
  5
B2B
  8
PROFILE2
 10
12.500000206835519
 20
0.7999999572710692
 30
0.0
 40
0.8
 50
180.0
 51
270.0
1001
GENIUS_GENODEF_13
1002
{
1000
HIER
1070
     0
1002
}
1002
{
1000
MANEDIT
1070
     0
1002
}
1002
{
1000
NOSEL
1070
     0
1002
}
1002
{
1000
BEHIND
1070
     0
1002
}
1002
{
1000
OTHER
1070
     0
1002
}
1002
{
1000
REACTOR
1002
}
1001
GENIUS_GENOBJ-N-FIL_13
1002
{
1000
OWNER
1000
GEN
1002
}
  0
LINE
  5
B2C
  8
PROFILE2
 10
13.300000206835531
 20
10.199999957271039
 30
0.0
 11
13.300000206835531
 21
0.7999999572710692
 31
0.0
  0
LINE
  5
B2D
  8
PROFILE2
 10
11.70000020683551
 20
10.199999957271039
 30
0.0
 11
11.70000020683551
 21
0.7999999572710692
 31
0.0
  0
ARC
  5
B2E
  8
PROFILE2
 10
7.0199205559566149
 20
0.7999999572710692
 30
0.0
 40
0.8
 50
270.0
 51
0.0
1001
GENIUS_GENODEF_13
1002
{
1000
HIER
1070
     0
1002
}
1002
{
1000
MANEDIT
1070
     0
1002
}
1002
{
1000
NOSEL
1070
     0
1002
}
1002
{
1000
BEHIND
1070
     0
1002
}
1002
{
1000
OTHER
1070
     0
1002
}
1002
{
1000
REACTOR
1002
}
1001
GENIUS_GENOBJ-N-FIL_13
1002
{
1000
OWNER
1000
GEN
1002
}
  0
ARC
  5
B2F
  8
PROFILE2
 10
7.0199205559566149
 20
0.7999999572710692
 30
0.0
 40
0.8
 50
180.0
 51
270.0
1001
GENIUS_GENODEF_13
1002
{
1000
HIER
1070
     0
1002
}
1002
{
1000
MANEDIT
1070
     0
1002
}
1002
{
1000
NOSEL
1070
     0
1002
}
1002
{
1000
BEHIND
1070
     0
1002
}
1002
{
1000
OTHER
1070
     0
1002
}
1002
{
1000
REACTOR
1002
}
1001
GENIUS_GENOBJ-N-FIL_13
1002
{
1000
OWNER
1000
GEN
1002
}
  0
LINE
  5
B30
  8
PROFILE2
 10
7.819920555956628
 20
10.199999957271039
 30
0.0
 11
7.819920555956628
 21
0.7999999572710692
 31
0.0
  0
LINE
  5
B31
  8
PROFILE2
 10
6.2199205559566044
 20
10.199999957271039
 30
0.0
 11
6.2199205559566044
 21
0.7999999572710692
 31
0.0
  0
LINE
  5
B32
  8
PROFILE2
 10
18.039591210591631
 20
18.19999995727105
 30
0.0
 11
18.039591210591631
 21
13.199999957271039
 31
0.0
  0
LINE
  5
B33
  8
PROFILE2
 10
18.339591210591621
 20
18.19999995727105
 30
0.0
 11
18.339591210591621
 21
13.49999995727106
 31
0.0
  0
LINE
  5
B34
  8
PROFILE2
 10
18.339591210591621
 20
13.49999995727106
 30
0.0
 11
19.470001427538641
 21
13.49999995727106
 31
0.0
  0
LINE
  5
B35
  8
PROFILE2
 10
18.039591210591631
 20
18.19999995727105
 30
0.0
 11
18.339591210591621
 21
18.19999995727105
 31
0.0
  0
ENDBLK
  5
B36
  8
0
  0
BLOCK
  8
0
  2
A$C2A027D84
 70
     0
 10
0.0
 20
0.0
 30
0.0
  3
A$C2A027D84
  1

  0
LINE
  5
B53
  8
PROFILE2
 10
46.250001045200179
 20
8.9000007457359498
 30
0.0
 11
46.500001045200122
 21
8.9000007457358379
 31
0.0
  0
LINE
  5
B54
  8
PROFILE2
 10
47.500001045200207
 20
9.9000007457358379
 30
0.0
 11
47.500000785958719
 21
10.69999978949226
 31
0.0
  0
LINE
  5
B55
  8
PROFILE2
 10
47.500000785958719
 20
10.69999978949226
 30
0.0
 11
55.199988102090742
 21
10.699998299376141
 31
0.0
  0
ARC
  5
B56
  8
PROFILE2
 10
55.199988197458083
 20
10.799998263613469
 30
0.0
 40
0.0999999642373723
 50
269.99994535855183
 51
359.99992737228371
  0
LINE
  5
B57
  8
PROFILE2
 10
55.299988161695303
 20
10.79999813685424
 30
0.0
 11
55.299994300973808
 21
11.25575540472664
 31
0.0
  0
LINE
  5
B58
  8
PROFILE2
 10
55.299994300973808
 20
11.25575540472664
 30
0.0
 11
55.683610403451652
 21
12.03999612738289
 31
0.0
  0
LINE
  5
B59
  8
PROFILE2
 10
55.683610403451652
 20
12.03999612738289
 30
0.0
 11
58.531582189198048
 21
11.01298367198933
 31
0.0
  0
ARC
  5
B5A
  8
PROFILE2
 10
58.599991713756182
 20
11.20092944438329
 30
0.0
 40
0.2000086908388214
 50
249.9992307209514
 51
359.99813849724069
  0
LINE
  5
B5B
  8
PROFILE2
 10
69.300000404489424
 20
11.39999673773444
 30
0.0
 11
58.799994300973808
 21
11.39999673773444
 31
0.0
  0
LINE
  5
B5C
  8
PROFILE2
 10
21.800000023020122
 20
10.69999978949226
 30
0.0
 11
14.100012706888091
 21
10.699998299376199
 31
0.0
  0
ARC
  5
B5D
  8
PROFILE2
 10
14.10001261152081
 20
10.79999826361353
 30
0.0
 40
0.0999999642373723
 50
180.00007262771629
 51
270.00005464144817
  0
LINE
  5
B5E
  8
PROFILE2
 10
14.00001264728354
 20
10.799998136854301
 30
0.0
 11
14.00000650800507
 21
11.25575540472664
 31
0.0
  0
LINE
  5
B5F
  8
PROFILE2
 10
14.00000650800507
 20
11.25575540472664
 30
0.0
 11
13.61639040552723
 21
12.03999612738289
 31
0.0
  0
LINE
  5
B60
  8
PROFILE2
 10
13.61639040552723
 20
12.03999612738289
 30
0.0
 11
10.76841861978084
 21
11.01298367198933
 31
0.0
  0
ARC
  5
B61
  8
PROFILE2
 10
10.6999464298259
 20
11.200839944548591
 30
0.0
 40
0.1999460425642487
 50
179.97621535218121
 51
290.02641542959822
  0
LINE
  5
B62
  8
PROFILE2
 10
1.000036443152253
 20
0.0000314655728744
 30
0.0
 11
20.90000040448945
 21
0.0000028412500797
 31
0.0
  0
LINE
  5
B63
  8
PROFILE2
 10
0.0000004044894411
 20
11.39999673773444
 30
0.0
 11
10.50000650800507
 21
11.39999673773444
 31
0.0
  0
LINE
  5
B64
  8
PROFILE2
 10
47.500000404489413
 20
7.3999997894921981
 30
0.0
 11
21.800000404489431
 21
7.3999997894922549
 31
0.0
  0
LINE
  5
B65
  8
PROFILE2
 10
46.250001045200179
 20
8.9000007457359498
 30
0.0
 11
23.050000595224279
 21
8.8999997894922558
 31
0.0
  0
LINE
  5
B66
  8
PROFILE2
 10
21.800000023020122
 20
10.69999978949226
 30
0.0
 11
47.500000785958719
 21
10.69999978949226
 31
0.0
  0
LINE
  5
B67
  8
PROFILE2
 10
55.299994300973808
 20
11.25575540472664
 30
0.0
 11
14.00000650800507
 21
11.25575540472664
 31
0.0
  0
LINE
  5
B68
  8
PROFILE2
 10
13.61639040552723
 20
12.03999612738289
 30
0.0
 11
55.683610403451652
 21
12.03999612738289
 31
0.0
  0
LINE
  5
B69
  8
PROFILE2
 10
69.300000404489424
 20
12.699999789492271
 30
0.0
 11
0.0000004044894411
 21
12.699999789492271
 31
0.0
  0
ARC
  5
B6A
  8
PROFILE2
 10
46.500001045200172
 20
9.9000007457359516
 30
0.0
 40
1.0000000000000551
 50
269.99999999999682
 51
359.99999999999682
  0
LINE
  5
B6B
  8
PROFILE2
 10
23.050000595224279
 20
8.8999997894922558
 30
0.0
 11
22.800000595224329
 21
8.8999997894921972
 31
0.0
  0
LINE
  5
B6C
  8
PROFILE2
 10
21.800000595224208
 20
9.8999997894921954
 30
0.0
 11
21.800000023020122
 21
10.69999978949226
 31
0.0
  0
ARC
  5
B6D
  8
PROFILE2
 10
22.800000595224279
 20
9.8999997894922558
 30
0.0
 40
1.0000000000000551
 50
180.00000000000321
 51
270.00000000000648
  0
LINE
  5
B6E
  8
PROFILE2
 10
69.300000404489424
 20
12.699999789492271
 30
0.0
 11
69.300000404489424
 21
0.9999997894922783
 31
0.0
  0
LINE
  5
B6F
  8
PROFILE2
 10
0.0000004044894411
 20
12.699999789492271
 30
0.0
 11
0.0000004044893842
 21
0.9999997894922783
 31
0.0
  0
LINE
  5
B70
  8
PROFILE2
 10
1.0000004044893831
 20
-0.0000002105077215
 30
0.0
 11
0.0000004044893842
 21
0.9999997894922783
 31
0.0
1001
GENIUS_GENFIL_13
1070
     0
1040
1.0
1040
1.0
1040
10.000000000000041
1040
44.99999999999973
1002
{
1002
}
1001
GENIUS_GENODEF_13
1002
{
1000
HIER
1070
     0
1002
}
1002
{
1000
MANEDIT
1070
     0
1002
}
1002
{
1000
NOSEL
1070
     0
1002
}
1002
{
1000
BEHIND
1070
     0
1002
}
1002
{
1000
OTHER
1070
     0
1002
}
1002
{
1000
REACTOR
1002
}
1001
GENIUS_GENOBJ-N-CHA_13
1002
{
1000
OWNER
1000
GEN
1002
}
  0
LINE
  5
B71
  8
PROFILE2
 10
47.500000977512563
 20
5.0999997894922444
 30
0.0
 11
47.500001235935073
 21
7.4000007457359498
 31
0.0
  0
LINE
  5
B72
  8
PROFILE2
 10
21.800000404489431
 20
5.0999997894922444
 30
0.0
 11
21.800000404489431
 21
7.3999997894922549
 31
0.0
  0
LINE
  5
B73
  8
PROFILE2
 10
48.400000404489447
 20
0.0000028412500797
 30
0.0
 11
20.90000040448945
 21
0.0000028412500797
 31
0.0
  0
LINE
  5
B74
  8
PROFILE2
 10
10.5000004044895
 20
12.699999789492271
 30
0.0
 11
10.500000404489469
 21
5.0999997894922444
 31
0.0
  0
LINE
  5
B75
  8
PROFILE2
 10
58.800000404489481
 20
12.699999789492271
 30
0.0
 11
58.800000404489481
 21
5.0999997894922444
 31
0.0
  0
LINE
  5
B76
  8
PROFILE2
 10
58.800000404489481
 20
5.0999997894922444
 30
0.0
 11
10.500000404489469
 21
5.0999997894922444
 31
0.0
  0
LINE
  5
B77
  8
PROFILE2
 10
46.600000404489357
 20
7.3999997894921981
 30
0.0
 11
46.600001045200202
 21
8.9050133086292345
 31
0.0
  0
LINE
  5
B78
  8
PROFILE2
 10
22.700000404489401
 20
7.3999997894922549
 30
0.0
 11
22.70000059522431
 21
8.9050123523855973
 31
0.0
  0
LINE
  5
B79
  8
PROFILE2
 10
68.300000404489424
 20
-0.0000002105077215
 30
0.0
 11
1.0000004044893831
 21
-0.0000002105077215
 31
0.0
  0
LINE
  5
B7A
  8
PROFILE2
 10
69.300000404489424
 20
0.9999997894922783
 30
0.0
 11
68.300000404489424
 21
-0.0000002105077215
 31
0.0
1001
GENIUS_GENFIL_13
1070
     0
1040
1.0
1040
1.0
1040
10.000000000000041
1040
44.99999999999973
1002
{
1002
}
1001
GENIUS_GENODEF_13
1002
{
1000
HIER
1070
     0
1002
}
1002
{
1000
MANEDIT
1070
     0
1002
}
1002
{
1000
NOSEL
1070
     0
1002
}
1002
{
1000
BEHIND
1070
     0
1002
}
1002
{
1000
OTHER
1070
     0
1002
}
1002
{
1000
REACTOR
1002
}
1001
GENIUS_GENOBJ-N-CHA_13
1002
{
1000
OWNER
1000
GEN
1002
}
  0
ARC
  5
B7B
  8
PROFILE2
 10
55.191275428903502
 20
4.5800046723047672
 30
0.0
 40
0.5
 50
89.99998133066471
 51
202.0000026611871
  0
ARC
  5
B7C
  8
PROFILE2
 10
14.10872061170377
 20
4.5800046723047672
 30
0.0
 40
0.5
 50
337.99994269730109
 51
89.999964027821918
1001
GENIUS_GENOREF_13
1005
B7F
  0
LINE
  5
B7D
  8
PROFILE2
 10
54.727688570837252
 20
4.392697202968975
 30
0.0
 11
56.50245111990376
 21
0.0000051811471167
 31
0.0
  0
LINE
  5
B7E
  8
PROFILE2
 10
14.572314010201779
 20
4.3927008928552009
 30
0.0
 11
12.797551461135271
 21
0.0000088710333443
 31
0.0
  0
POINT
  5
B7F
  8
0
 10
-127.0720564618055
 20
-186.95514945549991
 30
0.0
1001
GENIUS_GENOBJ-N-FIL_13
1002
{
1000
OWNER
1000
GEN
1002
}
1001
GENIUS_GENOENT_13
1002
{
1000
MYREF
1005
B7F
1002
}
1002
{
1000
GRP
1005
0
1002
}
1001
GENIUS_GENOLIS_13
1002
{
1000
ENT
1005
0
1005
B7C
1002
}
1001
GENIUS_GENODEF_13
1002
{
1000
HIER
1070
     1
1002
}
1002
{
1000
MANEDIT
1070
     1
1002
}
1002
{
1000
NOSEL
1070
     0
1002
}
1002
{
1000
BEHIND
1070
     0
1002
}
1002
{
1000
OTHER
1070
     0
1002
}
1002
{
1000
REACTOR
1002
}
  0
ENDBLK
  5
B80
  8
0
  0
BLOCK
  8
0
  2
A$C2B622BB6
 70
     0
 10
0.0
 20
0.0
 30
0.0
  3
A$C2B622BB6
  1

  0
LINE
  5
B85
  8
PROFILE2
 10
1.099999836306182
 20
39.500000127824677
 30
0.0
 11
1.099999836306182
 21
33.000000127824677
 31
0.0
  0
LINE
  5
B86
  8
PROFILE2
 10
1.099999836306182
 20
33.000000127824677
 30
0.0
 11
-0.0000001636938123
 21
33.000000127824677
 31
0.0
  0
LINE
  5
B87
  8
PROFILE2
 10
2.0999998363061518
 20
0.0000001278246486
 30
0.0
 11
2.0999998363061518
 21
36.500000127824677
 31
0.0
  0
LINE
  5
B88
  8
PROFILE2
 10
2.0999998363061518
 20
36.500000127824677
 30
0.0
 11
1.5999998363061809
 21
36.500000127824677
 31
0.0
  0
LINE
  5
B89
  8
PROFILE2
 10
1.5999998363061809
 20
36.500000127824677
 30
0.0
 11
1.5999998363061809
 21
39.500000127824677
 31
0.0
  0
LINE
  5
B8A
  8
PROFILE2
 10
1.5999998363061809
 20
39.500000127824677
 30
0.0
 11
1.099999836306182
 21
39.500000127824677
 31
0.0
  0
LINE
  5
B8B
  8
PROFILE2
 10
26.099999836306178
 20
33.000000127824677
 30
0.0
 11
26.099999836306178
 21
39.500000127824677
 31
0.0
  0
LINE
  5
B8C
  8
PROFILE2
 10
26.099999836306178
 20
39.500000127824677
 30
0.0
 11
25.59999983630615
 21
39.500000127824677
 31
0.0
  0
LINE
  5
B8D
  8
PROFILE2
 10
25.59999983630615
 20
39.500000127824677
 30
0.0
 11
25.59999983630615
 21
36.500000127824677
 31
0.0
  0
LINE
  5
B8E
  8
PROFILE2
 10
25.59999983630615
 20
36.500000127824677
 30
0.0
 11
25.099999836306171
 21
36.500000127824677
 31
0.0
  0
LINE
  5
B8F
  8
PROFILE2
 10
25.099999836306171
 20
36.500000127824677
 30
0.0
 11
25.099999836306171
 21
0.0000001278246486
 31
0.0
  0
LINE
  5
B90
  8
PROFILE2
 10
27.19999983630618
 20
27.500000127824649
 30
0.0
 11
26.19999983630618
 21
27.500000127824649
 31
0.0
  0
LINE
  5
B91
  8
PROFILE2
 10
26.19999983630618
 20
27.500000127824649
 30
0.0
 11
26.19999983630618
 21
30.500000127824649
 31
0.0
  0
LINE
  5
B92
  8
PROFILE2
 10
26.19999983630618
 20
30.500000127824649
 30
0.0
 11
27.19999983630618
 21
30.500000127824649
 31
0.0
  0
LINE
  5
B93
  8
PROFILE2
 10
27.19999983630618
 20
30.500000127824649
 30
0.0
 11
27.19999983630618
 21
33.000000127824677
 31
0.0
  0
LINE
  5
B94
  8
PROFILE2
 10
27.19999983630618
 20
33.000000127824677
 30
0.0
 11
26.099999836306178
 21
33.000000127824677
 31
0.0
  0
POLYLINE
  5
114B
  8
PROFILE2
 66
     1
 10
0.0
 20
0.0
 30
0.0
 70
     8
  0
VERTEX
  5
114C
  8
PROFILE2
 10
27.199999999999999
 20
30.5
 30
0.0
 70
    32
  0
VERTEX
  5
114D
  8
PROFILE2
 10
27.199999999999999
 20
30.5
 30
0.0
 70
    32
  0
VERTEX
  5
114E
  8
PROFILE2
 10
27.199999999999999
 20
30.4999
 30
0.0
 70
    32
  0
VERTEX
  5
114F
  8
PROFILE2
 10
27.199999999999999
 20
30.4998
 30
0.0
 70
    32
  0
VERTEX
  5
1150
  8
PROFILE2
 10
27.199999999999999
 20
30.499700000000001
 30
0.0
 70
    32
  0
VERTEX
  5
1151
  8
PROFILE2
 10
27.1999
 20
30.499500000000001
 30
0.0
 70
    32
  0
VERTEX
  5
1152
  8
PROFILE2
 10
27.1999
 20
30.499300000000002
 30
0.0
 70
    32
  0
VERTEX
  5
1153
  8
PROFILE2
 10
27.1999
 20
30.498999999999999
 30
0.0
 70
    32
  0
VERTEX
  5
1154
  8
PROFILE2
 10
27.1999
 20
30.498699999999999
 30
0.0
 70
    32
  0
VERTEX
  5
1155
  8
PROFILE2
 10
27.1998
 20
30.4984
 30
0.0
 70
    32
  0
VERTEX
  5
1156
  8
PROFILE2
 10
27.1998
 20
30.498000000000001
 30
0.0
 70
    32
  0
VERTEX
  5
1157
  8
PROFILE2
 10
27.1997
 20
30.497599999999998
 30
0.0
 70
    32
  0
VERTEX
  5
1158
  8
PROFILE2
 10
27.1997
 20
30.497199999999999
 30
0.0
 70
    32
  0
VERTEX
  5
1159
  8
PROFILE2
 10
27.1996
 20
30.496700000000001
 30
0.0
 70
    32
  0
VERTEX
  5
115A
  8
PROFILE2
 10
27.1996
 20
30.496099999999998
 30
0.0
 70
    32
  0
VERTEX
  5
115B
  8
PROFILE2
 10
27.1995
 20
30.4956
 30
0.0
 70
    32
  0
VERTEX
  5
115C
  8
PROFILE2
 10
27.199400000000001
 20
30.495000000000001
 30
0.0
 70
    32
  0
VERTEX
  5
115D
  8
PROFILE2
 10
27.199400000000001
 20
30.494299999999999
 30
0.0
 70
    32
  0
VERTEX
  5
115E
  8
PROFILE2
 10
27.199300000000001
 20
30.493600000000001
 30
0.0
 70
    32
  0
VERTEX
  5
115F
  8
PROFILE2
 10
27.199200000000001
 20
30.492899999999999
 30
0.0
 70
    32
  0
VERTEX
  5
1160
  8
PROFILE2
 10
27.199100000000001
 20
30.492100000000001
 30
0.0
 70
    32
  0
VERTEX
  5
1161
  8
PROFILE2
 10
27.199000000000002
 20
30.491299999999999
 30
0.0
 70
    32
  0
VERTEX
  5
1162
  8
PROFILE2
 10
27.198899999999998
 20
30.490500000000001
 30
0.0
 70
    32
  0
VERTEX
  5
1163
  8
PROFILE2
 10
27.198799999999999
 20
30.489599999999999
 30
0.0
 70
    32
  0
VERTEX
  5
1164
  8
PROFILE2
 10
27.198699999999999
 20
30.488600000000002
 30
0.0
 70
    32
  0
VERTEX
  5
1165
  8
PROFILE2
 10
27.198599999999999
 20
30.4877
 30
0.0
 70
    32
  0
VERTEX
  5
1166
  8
PROFILE2
 10
27.198499999999999
 20
30.486699999999999
 30
0.0
 70
    32
  0
VERTEX
  5
1167
  8
PROFILE2
 10
27.198399999999999
 20
30.485600000000002
 30
0.0
 70
    32
  0
VERTEX
  5
1168
  8
PROFILE2
 10
27.1983
 20
30.484500000000001
 30
0.0
 70
    32
  0
VERTEX
  5
1169
  8
PROFILE2
 10
27.1982
 20
30.4834
 30
0.0
 70
    32
  0
VERTEX
  5
116A
  8
PROFILE2
 10
27.198
 20
30.482199999999999
 30
0.0
 70
    32
  0
VERTEX
  5
116B
  8
PROFILE2
 10
27.197900000000001
 20
30.481000000000002
 30
0.0
 70
    32
  0
VERTEX
  5
116C
  8
PROFILE2
 10
27.197800000000001
 20
30.479800000000001
 30
0.0
 70
    32
  0
VERTEX
  5
116D
  8
PROFILE2
 10
27.197600000000001
 20
30.4785
 30
0.0
 70
    32
  0
VERTEX
  5
116E
  8
PROFILE2
 10
27.197500000000002
 20
30.4772
 30
0.0
 70
    32
  0
VERTEX
  5
116F
  8
PROFILE2
 10
27.197299999999998
 20
30.4758
 30
0.0
 70
    32
  0
VERTEX
  5
1170
  8
PROFILE2
 10
27.197199999999999
 20
30.474399999999999
 30
0.0
 70
    32
  0
VERTEX
  5
1171
  8
PROFILE2
 10
27.196999999999999
 20
30.472999999999999
 30
0.0
 70
    32
  0
VERTEX
  5
1172
  8
PROFILE2
 10
27.196899999999999
 20
30.471499999999999
 30
0.0
 70
    32
  0
VERTEX
  5
1173
  8
PROFILE2
 10
27.1967
 20
30.469999999999999
 30
0.0
 70
    32
  0
VERTEX
  5
1174
  8
PROFILE2
 10
27.1965
 20
30.468399999999999
 30
0.0
 70
    32
  0
VERTEX
  5
1175
  8
PROFILE2
 10
27.196300000000001
 20
30.466799999999999
 30
0.0
 70
    32
  0
VERTEX
  5
1176
  8
PROFILE2
 10
27.196200000000001
 20
30.4651
 30
0.0
 70
    32
  0
VERTEX
  5
1177
  8
PROFILE2
 10
27.196000000000002
 20
30.4635
 30
0.0
 70
    32
  0
VERTEX
  5
1178
  8
PROFILE2
 10
27.195799999999998
 20
30.4617
 30
0.0
 70
    32
  0
VERTEX
  5
1179
  8
PROFILE2
 10
27.195599999999999
 20
30.460000000000001
 30
0.0
 70
    32
  0
VERTEX
  5
117A
  8
PROFILE2
 10
27.195399999999999
 20
30.458200000000001
 30
0.0
 70
    32
  0
VERTEX
  5
117B
  8
PROFILE2
 10
27.1952
 20
30.456299999999999
 30
0.0
 70
    32
  0
VERTEX
  5
117C
  8
PROFILE2
 10
27.195
 20
30.4544
 30
0.0
 70
    32
  0
VERTEX
  5
117D
  8
PROFILE2
 10
27.194800000000001
 20
30.452500000000001
 30
0.0
 70
    32
  0
VERTEX
  5
117E
  8
PROFILE2
 10
27.194600000000001
 20
30.450500000000002
 30
0.0
 70
    32
  0
VERTEX
  5
117F
  8
PROFILE2
 10
27.194400000000002
 20
30.448499999999999
 30
0.0
 70
    32
  0
VERTEX
  5
1180
  8
PROFILE2
 10
27.194199999999999
 20
30.4465
 30
0.0
 70
    32
  0
VERTEX
  5
1181
  8
PROFILE2
 10
27.193999999999999
 20
30.444400000000002
 30
0.0
 70
    32
  0
VERTEX
  5
1182
  8
PROFILE2
 10
27.1937
 20
30.442299999999999
 30
0.0
 70
    32
  0
VERTEX
  5
1183
  8
PROFILE2
 10
27.1935
 20
30.440100000000001
 30
0.0
 70
    32
  0
VERTEX
  5
1184
  8
PROFILE2
 10
27.193300000000001
 20
30.437899999999999
 30
0.0
 70
    32
  0
VERTEX
  5
1185
  8
PROFILE2
 10
27.193000000000001
 20
30.435700000000001
 30
0.0
 70
    32
  0
VERTEX
  5
1186
  8
PROFILE2
 10
27.192799999999998
 20
30.433399999999999
 30
0.0
 70
    32
  0
VERTEX
  5
1187
  8
PROFILE2
 10
27.192599999999999
 20
30.431100000000001
 30
0.0
 70
    32
  0
VERTEX
  5
1188
  8
PROFILE2
 10
27.192299999999999
 20
30.428699999999999
 30
0.0
 70
    32
  0
VERTEX
  5
1189
  8
PROFILE2
 10
27.1921
 20
30.426300000000001
 30
0.0
 70
    32
  0
VERTEX
  5
118A
  8
PROFILE2
 10
27.191800000000001
 20
30.4238
 30
0.0
 70
    32
  0
VERTEX
  5
118B
  8
PROFILE2
 10
27.191500000000001
 20
30.421399999999998
 30
0.0
 70
    32
  0
VERTEX
  5
118C
  8
PROFILE2
 10
27.191299999999998
 20
30.418800000000001
 30
0.0
 70
    32
  0
VERTEX
  5
118D
  8
PROFILE2
 10
27.190999999999999
 20
30.4163
 30
0.0
 70
    32
  0
VERTEX
  5
118E
  8
PROFILE2
 10
27.1907
 20
30.413699999999999
 30
0.0
 70
    32
  0
VERTEX
  5
118F
  8
PROFILE2
 10
27.1905
 20
30.411000000000001
 30
0.0
 70
    32
  0
VERTEX
  5
1190
  8
PROFILE2
 10
27.190200000000001
 20
30.408300000000001
 30
0.0
 70
    32
  0
VERTEX
  5
1191
  8
PROFILE2
 10
27.189900000000002
 20
30.4056
 30
0.0
 70
    32
  0
VERTEX
  5
1192
  8
PROFILE2
 10
27.189599999999999
 20
30.402799999999999
 30
0.0
 70
    32
  0
VERTEX
  5
1193
  8
PROFILE2
 10
27.189299999999999
 20
30.399999999999999
 30
0.0
 70
    32
  0
VERTEX
  5
1194
  8
PROFILE2
 10
27.189
 20
30.397200000000002
 30
0.0
 70
    32
  0
VERTEX
  5
1195
  8
PROFILE2
 10
27.188700000000001
 20
30.394300000000001
 30
0.0
 70
    32
  0
VERTEX
  5
1196
  8
PROFILE2
 10
27.188400000000001
 20
30.391300000000001
 30
0.0
 70
    32
  0
VERTEX
  5
1197
  8
PROFILE2
 10
27.188099999999999
 20
30.388400000000001
 30
0.0
 70
    32
  0
VERTEX
  5
1198
  8
PROFILE2
 10
27.187799999999999
 20
30.385400000000001
 30
0.0
 70
    32
  0
VERTEX
  5
1199
  8
PROFILE2
 10
27.1875
 20
30.382300000000001
 30
0.0
 70
    32
  0
VERTEX
  5
119A
  8
PROFILE2
 10
27.187200000000001
 20
30.379200000000001
 30
0.0
 70
    32
  0
VERTEX
  5
119B
  8
PROFILE2
 10
27.186900000000001
 20
30.376100000000001
 30
0.0
 70
    32
  0
VERTEX
  5
119C
  8
PROFILE2
 10
27.186599999999999
 20
30.372900000000001
 30
0.0
 70
    32
  0
VERTEX
  5
119D
  8
PROFILE2
 10
27.186199999999999
 20
30.369700000000002
 30
0.0
 70
    32
  0
VERTEX
  5
119E
  8
PROFILE2
 10
27.1859
 20
30.366399999999999
 30
0.0
 70
    32
  0
VERTEX
  5
119F
  8
PROFILE2
 10
27.185600000000001
 20
30.363199999999999
 30
0.0
 70
    32
  0
VERTEX
  5
11A0
  8
PROFILE2
 10
27.185300000000002
 20
30.3598
 30
0.0
 70
    32
  0
VERTEX
  5
11A1
  8
PROFILE2
 10
27.184899999999999
 20
30.3565
 30
0.0
 70
    32
  0
VERTEX
  5
11A2
  8
PROFILE2
 10
27.1846
 20
30.353100000000001
 30
0.0
 70
    32
  0
VERTEX
  5
11A3
  8
PROFILE2
 10
27.184200000000001
 20
30.349599999999999
 30
0.0
 70
    32
  0
VERTEX
  5
11A4
  8
PROFILE2
 10
27.183900000000001
 20
30.3461
 30
0.0
 70
    32
  0
VERTEX
  5
11A5
  8
PROFILE2
 10
27.183499999999999
 20
30.342600000000001
 30
0.0
 70
    32
  0
VERTEX
  5
11A6
  8
PROFILE2
 10
27.183199999999999
 20
30.339099999999998
 30
0.0
 70
    32
  0
VERTEX
  5
11A7
  8
PROFILE2
 10
27.1828
 20
30.3355
 30
0.0
 70
    32
  0
VERTEX
  5
11A8
  8
PROFILE2
 10
27.182500000000001
 20
30.331900000000001
 30
0.0
 70
    32
  0
VERTEX
  5
11A9
  8
PROFILE2
 10
27.182099999999998
 20
30.328199999999999
 30
0.0
 70
    32
  0
VERTEX
  5
11AA
  8
PROFILE2
 10
27.181799999999999
 20
30.3245
 30
0.0
 70
    32
  0
VERTEX
  5
11AB
  8
PROFILE2
 10
27.1814
 20
30.320799999999998
 30
0.0
 70
    32
  0
VERTEX
  5
11AC
  8
PROFILE2
 10
27.181000000000001
 20
30.317
 30
0.0
 70
    32
  0
VERTEX
  5
11AD
  8
PROFILE2
 10
27.180700000000002
 20
30.313199999999998
 30
0.0
 70
    32
  0
VERTEX
  5
11AE
  8
PROFILE2
 10
27.180299999999999
 20
30.3094
 30
0.0
 70
    32
  0
VERTEX
  5
11AF
  8
PROFILE2
 10
27.1799
 20
30.305499999999999
 30
0.0
 70
    32
  0
VERTEX
  5
11B0
  8
PROFILE2
 10
27.179600000000001
 20
30.301600000000001
 30
0.0
 70
    32
  0
VERTEX
  5
11B1
  8
PROFILE2
 10
27.179200000000002
 20
30.297699999999999
 30
0.0
 70
    32
  0
VERTEX
  5
11B2
  8
PROFILE2
 10
27.178799999999999
 20
30.293700000000001
 30
0.0
 70
    32
  0
VERTEX
  5
11B3
  8
PROFILE2
 10
27.1784
 20
30.2897
 30
0.0
 70
    32
  0
VERTEX
  5
11B4
  8
PROFILE2
 10
27.178000000000001
 20
30.285699999999999
 30
0.0
 70
    32
  0
VERTEX
  5
11B5
  8
PROFILE2
 10
27.177700000000002
 20
30.281600000000001
 30
0.0
 70
    32
  0
VERTEX
  5
11B6
  8
PROFILE2
 10
27.177299999999999
 20
30.2775
 30
0.0
 70
    32
  0
VERTEX
  5
11B7
  8
PROFILE2
 10
27.1769
 20
30.273399999999999
 30
0.0
 70
    32
  0
VERTEX
  5
11B8
  8
PROFILE2
 10
27.176500000000001
 20
30.269200000000001
 30
0.0
 70
    32
  0
VERTEX
  5
11B9
  8
PROFILE2
 10
27.176100000000002
 20
30.265000000000001
 30
0.0
 70
    32
  0
VERTEX
  5
11BA
  8
PROFILE2
 10
27.175699999999999
 20
30.2608
 30
0.0
 70
    32
  0
VERTEX
  5
11BB
  8
PROFILE2
 10
27.1753
 20
30.256499999999999
 30
0.0
 70
    32
  0
VERTEX
  5
11BC
  8
PROFILE2
 10
27.174900000000001
 20
30.252199999999998
 30
0.0
 70
    32
  0
VERTEX
  5
11BD
  8
PROFILE2
 10
27.174499999999998
 20
30.247900000000001
 30
0.0
 70
    32
  0
VERTEX
  5
11BE
  8
PROFILE2
 10
27.174099999999999
 20
30.243600000000001
 30
0.0
 70
    32
  0
VERTEX
  5
11BF
  8
PROFILE2
 10
27.1737
 20
30.2392
 30
0.0
 70
    32
  0
VERTEX
  5
11C0
  8
PROFILE2
 10
27.173300000000001
 20
30.2348
 30
0.0
 70
    32
  0
VERTEX
  5
11C1
  8
PROFILE2
 10
27.172899999999998
 20
30.230399999999999
 30
0.0
 70
    32
  0
VERTEX
  5
11C2
  8
PROFILE2
 10
27.172499999999999
 20
30.225899999999999
 30
0.0
 70
    32
  0
VERTEX
  5
11C3
  8
PROFILE2
 10
27.1721
 20
30.221399999999999
 30
0.0
 70
    32
  0
VERTEX
  5
11C4
  8
PROFILE2
 10
27.171700000000001
 20
30.216899999999999
 30
0.0
 70
    32
  0
VERTEX
  5
11C5
  8
PROFILE2
 10
27.171299999999999
 20
30.212399999999999
 30
0.0
 70
    32
  0
VERTEX
  5
11C6
  8
PROFILE2
 10
27.1709
 20
30.207799999999999
 30
0.0
 70
    32
  0
VERTEX
  5
11C7
  8
PROFILE2
 10
27.170500000000001
 20
30.203199999999999
 30
0.0
 70
    32
  0
VERTEX
  5
11C8
  8
PROFILE2
 10
27.170100000000001
 20
30.198599999999999
 30
0.0
 70
    32
  0
VERTEX
  5
11C9
  8
PROFILE2
 10
27.169699999999999
 20
30.193899999999999
 30
0.0
 70
    32
  0
VERTEX
  5
11CA
  8
PROFILE2
 10
27.1693
 20
30.1892
 30
0.0
 70
    32
  0
VERTEX
  5
11CB
  8
PROFILE2
 10
27.168800000000001
 20
30.1845
 30
0.0
 70
    32
  0
VERTEX
  5
11CC
  8
PROFILE2
 10
27.168399999999998
 20
30.1798
 30
0.0
 70
    32
  0
VERTEX
  5
11CD
  8
PROFILE2
 10
27.167999999999999
 20
30.175000000000001
 30
0.0
 70
    32
  0
VERTEX
  5
11CE
  8
PROFILE2
 10
27.1676
 20
30.170300000000001
 30
0.0
 70
    32
  0
VERTEX
  5
11CF
  8
PROFILE2
 10
27.167200000000001
 20
30.165500000000002
 30
0.0
 70
    32
  0
VERTEX
  5
11D0
  8
PROFILE2
 10
27.166799999999999
 20
30.160599999999999
 30
0.0
 70
    32
  0
VERTEX
  5
11D1
  8
PROFILE2
 10
27.166399999999999
 20
30.155799999999999
 30
0.0
 70
    32
  0
VERTEX
  5
11D2
  8
PROFILE2
 10
27.165900000000001
 20
30.1509
 30
0.0
 70
    32
  0
VERTEX
  5
11D3
  8
PROFILE2
 10
27.165500000000002
 20
30.146000000000001
 30
0.0
 70
    32
  0
VERTEX
  5
11D4
  8
PROFILE2
 10
27.165099999999999
 20
30.141100000000002
 30
0.0
 70
    32
  0
VERTEX
  5
11D5
  8
PROFILE2
 10
27.1647
 20
30.136099999999999
 30
0.0
 70
    32
  0
VERTEX
  5
11D6
  8
PROFILE2
 10
27.164300000000001
 20
30.1311
 30
0.0
 70
    32
  0
VERTEX
  5
11D7
  8
PROFILE2
 10
27.163900000000002
 20
30.126200000000001
 30
0.0
 70
    32
  0
VERTEX
  5
11D8
  8
PROFILE2
 10
27.163399999999999
 20
30.121099999999998
 30
0.0
 70
    32
  0
VERTEX
  5
11D9
  8
PROFILE2
 10
27.163
 20
30.116099999999999
 30
0.0
 70
    32
  0
VERTEX
  5
11DA
  8
PROFILE2
 10
27.162600000000001
 20
30.111000000000001
 30
0.0
 70
    32
  0
VERTEX
  5
11DB
  8
PROFILE2
 10
27.162199999999999
 20
30.106000000000002
 30
0.0
 70
    32
  0
VERTEX
  5
11DC
  8
PROFILE2
 10
27.161799999999999
 20
30.100899999999999
 30
0.0
 70
    32
  0
VERTEX
  5
11DD
  8
PROFILE2
 10
27.1614
 20
30.095700000000001
 30
0.0
 70
    32
  0
VERTEX
  5
11DE
  8
PROFILE2
 10
27.161000000000001
 20
30.090599999999998
 30
0.0
 70
    32
  0
VERTEX
  5
11DF
  8
PROFILE2
 10
27.160499999999999
 20
30.0854
 30
0.0
 70
    32
  0
VERTEX
  5
11E0
  8
PROFILE2
 10
27.1601
 20
30.080300000000001
 30
0.0
 70
    32
  0
VERTEX
  5
11E1
  8
PROFILE2
 10
27.159700000000001
 20
30.075099999999999
 30
0.0
 70
    32
  0
VERTEX
  5
11E2
  8
PROFILE2
 10
27.159300000000002
 20
30.069800000000001
 30
0.0
 70
    32
  0
VERTEX
  5
11E3
  8
PROFILE2
 10
27.158899999999999
 20
30.064599999999999
 30
0.0
 70
    32
  0
VERTEX
  5
11E4
  8
PROFILE2
 10
27.1585
 20
30.0593
 30
0.0
 70
    32
  0
VERTEX
  5
11E5
  8
PROFILE2
 10
27.158100000000001
 20
30.054099999999998
 30
0.0
 70
    32
  0
VERTEX
  5
11E6
  8
PROFILE2
 10
27.157599999999999
 20
30.0487
 30
0.0
 70
    32
  0
VERTEX
  5
11E7
  8
PROFILE2
 10
27.1572
 20
30.043399999999998
 30
0.0
 70
    32
  0
VERTEX
  5
11E8
  8
PROFILE2
 10
27.1568
 20
30.038
 30
0.0
 70
    32
  0
VERTEX
  5
11E9
  8
PROFILE2
 10
27.156400000000001
 20
30.032499999999999
 30
0.0
 70
    32
  0
VERTEX
  5
11EA
  8
PROFILE2
 10
27.155999999999999
 20
30.027100000000001
 30
0.0
 70
    32
  0
VERTEX
  5
11EB
  8
PROFILE2
 10
27.1556
 20
30.021599999999999
 30
0.0
 70
    32
  0
VERTEX
  5
11EC
  8
PROFILE2
 10
27.155200000000001
 20
30.015999999999998
 30
0.0
 70
    32
  0
VERTEX
  5
11ED
  8
PROFILE2
 10
27.154699999999998
 20
30.010400000000001
 30
0.0
 70
    32
  0
VERTEX
  5
11EE
  8
PROFILE2
 10
27.154299999999999
 20
30.004799999999999
 30
0.0
 70
    32
  0
VERTEX
  5
11EF
  8
PROFILE2
 10
27.1539
 20
29.999199999999998
 30
0.0
 70
    32
  0
VERTEX
  5
11F0
  8
PROFILE2
 10
27.153500000000001
 20
29.993500000000001
 30
0.0
 70
    32
  0
VERTEX
  5
11F1
  8
PROFILE2
 10
27.153099999999998
 20
29.9878
 30
0.0
 70
    32
  0
VERTEX
  5
11F2
  8
PROFILE2
 10
27.152699999999999
 20
29.981999999999999
 30
0.0
 70
    32
  0
VERTEX
  5
11F3
  8
PROFILE2
 10
27.152200000000001
 20
29.976299999999998
 30
0.0
 70
    32
  0
VERTEX
  5
11F4
  8
PROFILE2
 10
27.151800000000001
 20
29.970500000000001
 30
0.0
 70
    32
  0
VERTEX
  5
11F5
  8
PROFILE2
 10
27.151399999999999
 20
29.964600000000001
 30
0.0
 70
    32
  0
VERTEX
  5
11F6
  8
PROFILE2
 10
27.151
 20
29.9587
 30
0.0
 70
    32
  0
VERTEX
  5
11F7
  8
PROFILE2
 10
27.150600000000001
 20
29.9528
 30
0.0
 70
    32
  0
VERTEX
  5
11F8
  8
PROFILE2
 10
27.150200000000002
 20
29.946899999999999
 30
0.0
 70
    32
  0
VERTEX
  5
11F9
  8
PROFILE2
 10
27.149799999999999
 20
29.940899999999999
 30
0.0
 70
    32
  0
VERTEX
  5
11FA
  8
PROFILE2
 10
27.1493
 20
29.934899999999999
 30
0.0
 70
    32
  0
VERTEX
  5
11FB
  8
PROFILE2
 10
27.148900000000001
 20
29.928899999999999
 30
0.0
 70
    32
  0
VERTEX
  5
11FC
  8
PROFILE2
 10
27.148499999999999
 20
29.922799999999999
 30
0.0
 70
    32
  0
VERTEX
  5
11FD
  8
PROFILE2
 10
27.148099999999999
 20
29.916699999999999
 30
0.0
 70
    32
  0
VERTEX
  5
11FE
  8
PROFILE2
 10
27.1477
 20
29.910599999999999
 30
0.0
 70
    32
  0
VERTEX
  5
11FF
  8
PROFILE2
 10
27.147300000000001
 20
29.904399999999999
 30
0.0
 70
    32
  0
VERTEX
  5
1200
  8
PROFILE2
 10
27.146899999999999
 20
29.898199999999999
 30
0.0
 70
    32
  0
VERTEX
  5
1201
  8
PROFILE2
 10
27.1465
 20
29.891999999999999
 30
0.0
 70
    32
  0
VERTEX
  5
1202
  8
PROFILE2
 10
27.146000000000001
 20
29.8858
 30
0.0
 70
    32
  0
VERTEX
  5
1203
  8
PROFILE2
 10
27.145600000000002
 20
29.8795
 30
0.0
 70
    32
  0
VERTEX
  5
1204
  8
PROFILE2
 10
27.145199999999999
 20
29.873200000000001
 30
0.0
 70
    32
  0
VERTEX
  5
1205
  8
PROFILE2
 10
27.1448
 20
29.866900000000001
 30
0.0
 70
    32
  0
VERTEX
  5
1206
  8
PROFILE2
 10
27.144400000000001
 20
29.860499999999998
 30
0.0
 70
    32
  0
VERTEX
  5
1207
  8
PROFILE2
 10
27.143999999999998
 20
29.854099999999999
 30
0.0
 70
    32
  0
VERTEX
  5
1208
  8
PROFILE2
 10
27.143599999999999
 20
29.8477
 30
0.0
 70
    32
  0
VERTEX
  5
1209
  8
PROFILE2
 10
27.1432
 20
29.8413
 30
0.0
 70
    32
  0
VERTEX
  5
120A
  8
PROFILE2
 10
27.142800000000001
 20
29.834800000000001
 30
0.0
 70
    32
  0
VERTEX
  5
120B
  8
PROFILE2
 10
27.142399999999999
 20
29.828299999999999
 30
0.0
 70
    32
  0
VERTEX
  5
120C
  8
PROFILE2
 10
27.141999999999999
 20
29.8218
 30
0.0
 70
    32
  0
VERTEX
  5
120D
  8
PROFILE2
 10
27.1416
 20
29.815200000000001
 30
0.0
 70
    32
  0
VERTEX
  5
120E
  8
PROFILE2
 10
27.141200000000001
 20
29.808700000000002
 30
0.0
 70
    32
  0
VERTEX
  5
120F
  8
PROFILE2
 10
27.140799999999999
 20
29.802099999999999
 30
0.0
 70
    32
  0
VERTEX
  5
1210
  8
PROFILE2
 10
27.1404
 20
29.795400000000001
 30
0.0
 70
    32
  0
VERTEX
  5
1211
  8
PROFILE2
 10
27.140000000000001
 20
29.788799999999998
 30
0.0
 70
    32
  0
VERTEX
  5
1212
  8
PROFILE2
 10
27.139700000000001
 20
29.7821
 30
0.0
 70
    32
  0
VERTEX
  5
1213
  8
PROFILE2
 10
27.139299999999999
 20
29.775400000000001
 30
0.0
 70
    32
  0
VERTEX
  5
1214
  8
PROFILE2
 10
27.1389
 20
29.768699999999999
 30
0.0
 70
    32
  0
VERTEX
  5
1215
  8
PROFILE2
 10
27.138500000000001
 20
29.761900000000001
 30
0.0
 70
    32
  0
VERTEX
  5
1216
  8
PROFILE2
 10
27.138100000000001
 20
29.755099999999999
 30
0.0
 70
    32
  0
VERTEX
  5
1217
  8
PROFILE2
 10
27.137699999999999
 20
29.7484
 30
0.0
 70
    32
  0
VERTEX
  5
1218
  8
PROFILE2
 10
27.1374
 20
29.741499999999998
 30
0.0
 70
    32
  0
VERTEX
  5
1219
  8
PROFILE2
 10
27.137
 20
29.7347
 30
0.0
 70
    32
  0
VERTEX
  5
121A
  8
PROFILE2
 10
27.136600000000001
 20
29.727799999999998
 30
0.0
 70
    32
  0
VERTEX
  5
121B
  8
PROFILE2
 10
27.136299999999999
 20
29.7209
 30
0.0
 70
    32
  0
VERTEX
  5
121C
  8
PROFILE2
 10
27.135899999999999
 20
29.713999999999999
 30
0.0
 70
    32
  0
VERTEX
  5
121D
  8
PROFILE2
 10
27.1355
 20
29.707100000000001
 30
0.0
 70
    32
  0
VERTEX
  5
121E
  8
PROFILE2
 10
27.135200000000001
 20
29.700099999999999
 30
0.0
 70
    32
  0
VERTEX
  5
121F
  8
PROFILE2
 10
27.134799999999998
 20
29.693200000000001
 30
0.0
 70
    32
  0
VERTEX
  5
1220
  8
PROFILE2
 10
27.134399999999999
 20
29.686199999999999
 30
0.0
 70
    32
  0
VERTEX
  5
1221
  8
PROFILE2
 10
27.1341
 20
29.679099999999998
 30
0.0
 70
    32
  0
VERTEX
  5
1222
  8
PROFILE2
 10
27.133700000000001
 20
29.6721
 30
0.0
 70
    32
  0
VERTEX
  5
1223
  8
PROFILE2
 10
27.133400000000002
 20
29.664999999999999
 30
0.0
 70
    32
  0
VERTEX
  5
1224
  8
PROFILE2
 10
27.132999999999999
 20
29.658000000000001
 30
0.0
 70
    32
  0
VERTEX
  5
1225
  8
PROFILE2
 10
27.1327
 20
29.6508
 30
0.0
 70
    32
  0
VERTEX
  5
1226
  8
PROFILE2
 10
27.132400000000001
 20
29.643699999999999
 30
0.0
 70
    32
  0
VERTEX
  5
1227
  8
PROFILE2
 10
27.132000000000001
 20
29.636600000000001
 30
0.0
 70
    32
  0
VERTEX
  5
1228
  8
PROFILE2
 10
27.131699999999999
 20
29.6294
 30
0.0
 70
    32
  0
VERTEX
  5
1229
  8
PROFILE2
 10
27.1313
 20
29.622299999999999
 30
0.0
 70
    32
  0
VERTEX
  5
122A
  8
PROFILE2
 10
27.131
 20
29.615100000000002
 30
0.0
 70
    32
  0
VERTEX
  5
122B
  8
PROFILE2
 10
27.130700000000001
 20
29.607800000000001
 30
0.0
 70
    32
  0
VERTEX
  5
122C
  8
PROFILE2
 10
27.130400000000002
 20
29.6006
 30
0.0
 70
    32
  0
VERTEX
  5
122D
  8
PROFILE2
 10
27.129999999999999
 20
29.593399999999999
 30
0.0
 70
    32
  0
VERTEX
  5
122E
  8
PROFILE2
 10
27.1297
 20
29.586099999999998
 30
0.0
 70
    32
  0
VERTEX
  5
122F
  8
PROFILE2
 10
27.1294
 20
29.578800000000001
 30
0.0
 70
    32
  0
VERTEX
  5
1230
  8
PROFILE2
 10
27.129100000000001
 20
29.5715
 30
0.0
 70
    32
  0
VERTEX
  5
1231
  8
PROFILE2
 10
27.128799999999998
 20
29.5642
 30
0.0
 70
    32
  0
VERTEX
  5
1232
  8
PROFILE2
 10
27.128499999999999
 20
29.556799999999999
 30
0.0
 70
    32
  0
VERTEX
  5
1233
  8
PROFILE2
 10
27.1282
 20
29.549499999999998
 30
0.0
 70
    32
  0
VERTEX
  5
1234
  8
PROFILE2
 10
27.1279
 20
29.542100000000001
 30
0.0
 70
    32
  0
VERTEX
  5
1235
  8
PROFILE2
 10
27.127600000000001
 20
29.534700000000001
 30
0.0
 70
    32
  0
VERTEX
  5
1236
  8
PROFILE2
 10
27.127300000000002
 20
29.5273
 30
0.0
 70
    32
  0
VERTEX
  5
1237
  8
PROFILE2
 10
27.126999999999999
 20
29.5199
 30
0.0
 70
    32
  0
VERTEX
  5
1238
  8
PROFILE2
 10
27.126799999999999
 20
29.512499999999999
 30
0.0
 70
    32
  0
VERTEX
  5
1239
  8
PROFILE2
 10
27.1265
 20
29.505099999999999
 30
0.0
 70
    32
  0
VERTEX
  5
123A
  8
PROFILE2
 10
27.126200000000001
 20
29.497599999999998
 30
0.0
 70
    32
  0
VERTEX
  5
123B
  8
PROFILE2
 10
27.125900000000001
 20
29.490100000000002
 30
0.0
 70
    32
  0
VERTEX
  5
123C
  8
PROFILE2
 10
27.125699999999998
 20
29.482700000000001
 30
0.0
 70
    32
  0
VERTEX
  5
123D
  8
PROFILE2
 10
27.125399999999999
 20
29.475200000000001
 30
0.0
 70
    32
  0
VERTEX
  5
123E
  8
PROFILE2
 10
27.1251
 20
29.467700000000001
 30
0.0
 70
    32
  0
VERTEX
  5
123F
  8
PROFILE2
 10
27.1249
 20
29.4602
 30
0.0
 70
    32
  0
VERTEX
  5
1240
  8
PROFILE2
 10
27.124600000000001
 20
29.4526
 30
0.0
 70
    32
  0
VERTEX
  5
1241
  8
PROFILE2
 10
27.124400000000001
 20
29.4451
 30
0.0
 70
    32
  0
VERTEX
  5
1242
  8
PROFILE2
 10
27.124099999999999
 20
29.4376
 30
0.0
 70
    32
  0
VERTEX
  5
1243
  8
PROFILE2
 10
27.123899999999999
 20
29.43
 30
0.0
 70
    32
  0
VERTEX
  5
1244
  8
PROFILE2
 10
27.123699999999999
 20
29.4224
 30
0.0
 70
    32
  0
VERTEX
  5
1245
  8
PROFILE2
 10
27.1234
 20
29.414899999999999
 30
0.0
 70
    32
  0
VERTEX
  5
1246
  8
PROFILE2
 10
27.123200000000001
 20
29.407299999999999
 30
0.0
 70
    32
  0
VERTEX
  5
1247
  8
PROFILE2
 10
27.123000000000001
 20
29.399699999999999
 30
0.0
 70
    32
  0
VERTEX
  5
1248
  8
PROFILE2
 10
27.122800000000002
 20
29.392099999999999
 30
0.0
 70
    32
  0
VERTEX
  5
1249
  8
PROFILE2
 10
27.122599999999998
 20
29.384499999999999
 30
0.0
 70
    32
  0
VERTEX
  5
124A
  8
PROFILE2
 10
27.122299999999999
 20
29.376899999999999
 30
0.0
 70
    32
  0
VERTEX
  5
124B
  8
PROFILE2
 10
27.1221
 20
29.369299999999999
 30
0.0
 70
    32
  0
VERTEX
  5
124C
  8
PROFILE2
 10
27.1219
 20
29.361699999999999
 30
0.0
 70
    32
  0
VERTEX
  5
124D
  8
PROFILE2
 10
27.121700000000001
 20
29.353999999999999
 30
0.0
 70
    32
  0
VERTEX
  5
124E
  8
PROFILE2
 10
27.121500000000001
 20
29.346399999999999
 30
0.0
 70
    32
  0
VERTEX
  5
124F
  8
PROFILE2
 10
27.121300000000002
 20
29.338699999999999
 30
0.0
 70
    32
  0
VERTEX
  5
1250
  8
PROFILE2
 10
27.121200000000002
 20
29.331099999999999
 30
0.0
 70
    32
  0
VERTEX
  5
1251
  8
PROFILE2
 10
27.120999999999999
 20
29.323499999999999
 30
0.0
 70
    32
  0
VERTEX
  5
1252
  8
PROFILE2
 10
27.120799999999999
 20
29.315799999999999
 30
0.0
 70
    32
  0
VERTEX
  5
1253
  8
PROFILE2
 10
27.1206
 20
29.308199999999999
 30
0.0
 70
    32
  0
VERTEX
  5
1254
  8
PROFILE2
 10
27.1204
 20
29.3005
 30
0.0
 70
    32
  0
VERTEX
  5
1255
  8
PROFILE2
 10
27.1203
 20
29.2928
 30
0.0
 70
    32
  0
VERTEX
  5
1256
  8
PROFILE2
 10
27.120100000000001
 20
29.2852
 30
0.0
 70
    32
  0
VERTEX
  5
1257
  8
PROFILE2
 10
27.120000000000001
 20
29.2775
 30
0.0
 70
    32
  0
VERTEX
  5
1258
  8
PROFILE2
 10
27.119800000000001
 20
29.2698
 30
0.0
 70
    32
  0
VERTEX
  5
1259
  8
PROFILE2
 10
27.119599999999998
 20
29.2622
 30
0.0
 70
    32
  0
VERTEX
  5
125A
  8
PROFILE2
 10
27.119499999999999
 20
29.2545
 30
0.0
 70
    32
  0
VERTEX
  5
125B
  8
PROFILE2
 10
27.119399999999999
 20
29.2468
 30
0.0
 70
    32
  0
VERTEX
  5
125C
  8
PROFILE2
 10
27.119199999999999
 20
29.2392
 30
0.0
 70
    32
  0
VERTEX
  5
125D
  8
PROFILE2
 10
27.1191
 20
29.2315
 30
0.0
 70
    32
  0
VERTEX
  5
125E
  8
PROFILE2
 10
27.1189
 20
29.223800000000001
 30
0.0
 70
    32
  0
VERTEX
  5
125F
  8
PROFILE2
 10
27.1188
 20
29.216200000000001
 30
0.0
 70
    32
  0
VERTEX
  5
1260
  8
PROFILE2
 10
27.1187
 20
29.208500000000001
 30
0.0
 70
    32
  0
VERTEX
  5
1261
  8
PROFILE2
 10
27.118600000000001
 20
29.200900000000001
 30
0.0
 70
    32
  0
VERTEX
  5
1262
  8
PROFILE2
 10
27.118500000000001
 20
29.193200000000001
 30
0.0
 70
    32
  0
VERTEX
  5
1263
  8
PROFILE2
 10
27.118400000000001
 20
29.185500000000001
 30
0.0
 70
    32
  0
VERTEX
  5
1264
  8
PROFILE2
 10
27.118300000000001
 20
29.177900000000001
 30
0.0
 70
    32
  0
VERTEX
  5
1265
  8
PROFILE2
 10
27.118200000000002
 20
29.170200000000001
 30
0.0
 70
    32
  0
VERTEX
  5
1266
  8
PROFILE2
 10
27.118099999999998
 20
29.162600000000001
 30
0.0
 70
    32
  0
VERTEX
  5
1267
  8
PROFILE2
 10
27.117999999999999
 20
29.155000000000001
 30
0.0
 70
    32
  0
VERTEX
  5
1268
  8
PROFILE2
 10
27.117899999999999
 20
29.147300000000001
 30
0.0
 70
    32
  0
VERTEX
  5
1269
  8
PROFILE2
 10
27.117799999999999
 20
29.139700000000001
 30
0.0
 70
    32
  0
VERTEX
  5
126A
  8
PROFILE2
 10
27.117699999999999
 20
29.132100000000001
 30
0.0
 70
    32
  0
VERTEX
  5
126B
  8
PROFILE2
 10
27.117599999999999
 20
29.124500000000001
 30
0.0
 70
    32
  0
VERTEX
  5
126C
  8
PROFILE2
 10
27.117599999999999
 20
29.116800000000001
 30
0.0
 70
    32
  0
VERTEX
  5
126D
  8
PROFILE2
 10
27.1175
 20
29.109200000000001
 30
0.0
 70
    32
  0
VERTEX
  5
126E
  8
PROFILE2
 10
27.1174
 20
29.101600000000001
 30
0.0
 70
    32
  0
VERTEX
  5
126F
  8
PROFILE2
 10
27.1174
 20
29.094100000000001
 30
0.0
 70
    32
  0
VERTEX
  5
1270
  8
PROFILE2
 10
27.1173
 20
29.086500000000001
 30
0.0
 70
    32
  0
VERTEX
  5
1271
  8
PROFILE2
 10
27.1173
 20
29.078900000000001
 30
0.0
 70
    32
  0
VERTEX
  5
1272
  8
PROFILE2
 10
27.1172
 20
29.071300000000001
 30
0.0
 70
    32
  0
VERTEX
  5
1273
  8
PROFILE2
 10
27.1172
 20
29.063800000000001
 30
0.0
 70
    32
  0
VERTEX
  5
1274
  8
PROFILE2
 10
27.1172
 20
29.0562
 30
0.0
 70
    32
  0
VERTEX
  5
1275
  8
PROFILE2
 10
27.117100000000001
 20
29.0487
 30
0.0
 70
    32
  0
VERTEX
  5
1276
  8
PROFILE2
 10
27.117100000000001
 20
29.0412
 30
0.0
 70
    32
  0
VERTEX
  5
1277
  8
PROFILE2
 10
27.117100000000001
 20
29.0337
 30
0.0
 70
    32
  0
VERTEX
  5
1278
  8
PROFILE2
 10
27.117100000000001
 20
29.026199999999999
 30
0.0
 70
    32
  0
VERTEX
  5
1279
  8
PROFILE2
 10
27.117000000000001
 20
29.018699999999999
 30
0.0
 70
    32
  0
VERTEX
  5
127A
  8
PROFILE2
 10
27.117000000000001
 20
29.011199999999999
 30
0.0
 70
    32
  0
VERTEX
  5
127B
  8
PROFILE2
 10
27.117000000000001
 20
29.003699999999998
 30
0.0
 70
    32
  0
VERTEX
  5
127C
  8
PROFILE2
 10
27.117000000000001
 20
28.996300000000002
 30
0.0
 70
    32
  0
VERTEX
  5
127D
  8
PROFILE2
 10
27.117000000000001
 20
28.988800000000001
 30
0.0
 70
    32
  0
VERTEX
  5
127E
  8
PROFILE2
 10
27.117000000000001
 20
28.981300000000001
 30
0.0
 70
    32
  0
VERTEX
  5
127F
  8
PROFILE2
 10
27.117100000000001
 20
28.973800000000001
 30
0.0
 70
    32
  0
VERTEX
  5
1280
  8
PROFILE2
 10
27.117100000000001
 20
28.9663
 30
0.0
 70
    32
  0
VERTEX
  5
1281
  8
PROFILE2
 10
27.117100000000001
 20
28.9588
 30
0.0
 70
    32
  0
VERTEX
  5
1282
  8
PROFILE2
 10
27.117100000000001
 20
28.9513
 30
0.0
 70
    32
  0
VERTEX
  5
1283
  8
PROFILE2
 10
27.1172
 20
28.9438
 30
0.0
 70
    32
  0
VERTEX
  5
1284
  8
PROFILE2
 10
27.1172
 20
28.936199999999999
 30
0.0
 70
    32
  0
VERTEX
  5
1285
  8
PROFILE2
 10
27.1172
 20
28.928699999999999
 30
0.0
 70
    32
  0
VERTEX
  5
1286
  8
PROFILE2
 10
27.1173
 20
28.921099999999999
 30
0.0
 70
    32
  0
VERTEX
  5
1287
  8
PROFILE2
 10
27.1173
 20
28.913499999999999
 30
0.0
 70
    32
  0
VERTEX
  5
1288
  8
PROFILE2
 10
27.1174
 20
28.905899999999999
 30
0.0
 70
    32
  0
VERTEX
  5
1289
  8
PROFILE2
 10
27.1174
 20
28.898399999999999
 30
0.0
 70
    32
  0
VERTEX
  5
128A
  8
PROFILE2
 10
27.1175
 20
28.890799999999999
 30
0.0
 70
    32
  0
VERTEX
  5
128B
  8
PROFILE2
 10
27.117599999999999
 20
28.883199999999999
 30
0.0
 70
    32
  0
VERTEX
  5
128C
  8
PROFILE2
 10
27.117599999999999
 20
28.875499999999999
 30
0.0
 70
    32
  0
VERTEX
  5
128D
  8
PROFILE2
 10
27.117699999999999
 20
28.867899999999999
 30
0.0
 70
    32
  0
VERTEX
  5
128E
  8
PROFILE2
 10
27.117799999999999
 20
28.860299999999999
 30
0.0
 70
    32
  0
VERTEX
  5
128F
  8
PROFILE2
 10
27.117899999999999
 20
28.852699999999999
 30
0.0
 70
    32
  0
VERTEX
  5
1290
  8
PROFILE2
 10
27.117999999999999
 20
28.844999999999999
 30
0.0
 70
    32
  0
VERTEX
  5
1291
  8
PROFILE2
 10
27.118099999999998
 20
28.837399999999999
 30
0.0
 70
    32
  0
VERTEX
  5
1292
  8
PROFILE2
 10
27.118200000000002
 20
28.829799999999999
 30
0.0
 70
    32
  0
VERTEX
  5
1293
  8
PROFILE2
 10
27.118300000000001
 20
28.822099999999999
 30
0.0
 70
    32
  0
VERTEX
  5
1294
  8
PROFILE2
 10
27.118400000000001
 20
28.814499999999999
 30
0.0
 70
    32
  0
VERTEX
  5
1295
  8
PROFILE2
 10
27.118500000000001
 20
28.806799999999999
 30
0.0
 70
    32
  0
VERTEX
  5
1296
  8
PROFILE2
 10
27.118600000000001
 20
28.799099999999999
 30
0.0
 70
    32
  0
VERTEX
  5
1297
  8
PROFILE2
 10
27.1187
 20
28.791499999999999
 30
0.0
 70
    32
  0
VERTEX
  5
1298
  8
PROFILE2
 10
27.1188
 20
28.783799999999999
 30
0.0
 70
    32
  0
VERTEX
  5
1299
  8
PROFILE2
 10
27.1189
 20
28.776199999999999
 30
0.0
 70
    32
  0
VERTEX
  5
129A
  8
PROFILE2
 10
27.1191
 20
28.7685
 30
0.0
 70
    32
  0
VERTEX
  5
129B
  8
PROFILE2
 10
27.119199999999999
 20
28.7608
 30
0.0
 70
    32
  0
VERTEX
  5
129C
  8
PROFILE2
 10
27.119399999999999
 20
28.7532
 30
0.0
 70
    32
  0
VERTEX
  5
129D
  8
PROFILE2
 10
27.119499999999999
 20
28.7455
 30
0.0
 70
    32
  0
VERTEX
  5
129E
  8
PROFILE2
 10
27.119599999999998
 20
28.7378
 30
0.0
 70
    32
  0
VERTEX
  5
129F
  8
PROFILE2
 10
27.119800000000001
 20
28.7302
 30
0.0
 70
    32
  0
VERTEX
  5
12A0
  8
PROFILE2
 10
27.120000000000001
 20
28.7225
 30
0.0
 70
    32
  0
VERTEX
  5
12A1
  8
PROFILE2
 10
27.120100000000001
 20
28.7148
 30
0.0
 70
    32
  0
VERTEX
  5
12A2
  8
PROFILE2
 10
27.1203
 20
28.7072
 30
0.0
 70
    32
  0
VERTEX
  5
12A3
  8
PROFILE2
 10
27.1204
 20
28.6995
 30
0.0
 70
    32
  0
VERTEX
  5
12A4
  8
PROFILE2
 10
27.1206
 20
28.691800000000001
 30
0.0
 70
    32
  0
VERTEX
  5
12A5
  8
PROFILE2
 10
27.120799999999999
 20
28.684200000000001
 30
0.0
 70
    32
  0
VERTEX
  5
12A6
  8
PROFILE2
 10
27.120999999999999
 20
28.676500000000001
 30
0.0
 70
    32
  0
VERTEX
  5
12A7
  8
PROFILE2
 10
27.121200000000002
 20
28.668900000000001
 30
0.0
 70
    32
  0
VERTEX
  5
12A8
  8
PROFILE2
 10
27.121300000000002
 20
28.661300000000001
 30
0.0
 70
    32
  0
VERTEX
  5
12A9
  8
PROFILE2
 10
27.121500000000001
 20
28.653600000000001
 30
0.0
 70
    32
  0
VERTEX
  5
12AA
  8
PROFILE2
 10
27.121700000000001
 20
28.646000000000001
 30
0.0
 70
    32
  0
VERTEX
  5
12AB
  8
PROFILE2
 10
27.1219
 20
28.638300000000001
 30
0.0
 70
    32
  0
VERTEX
  5
12AC
  8
PROFILE2
 10
27.1221
 20
28.630700000000001
 30
0.0
 70
    32
  0
VERTEX
  5
12AD
  8
PROFILE2
 10
27.122299999999999
 20
28.623100000000001
 30
0.0
 70
    32
  0
VERTEX
  5
12AE
  8
PROFILE2
 10
27.122599999999998
 20
28.615500000000001
 30
0.0
 70
    32
  0
VERTEX
  5
12AF
  8
PROFILE2
 10
27.122800000000002
 20
28.607900000000001
 30
0.0
 70
    32
  0
VERTEX
  5
12B0
  8
PROFILE2
 10
27.123000000000001
 20
28.600300000000001
 30
0.0
 70
    32
  0
VERTEX
  5
12B1
  8
PROFILE2
 10
27.123200000000001
 20
28.592700000000001
 30
0.0
 70
    32
  0
VERTEX
  5
12B2
  8
PROFILE2
 10
27.1234
 20
28.585100000000001
 30
0.0
 70
    32
  0
VERTEX
  5
12B3
  8
PROFILE2
 10
27.123699999999999
 20
28.5776
 30
0.0
 70
    32
  0
VERTEX
  5
12B4
  8
PROFILE2
 10
27.123899999999999
 20
28.57
 30
0.0
 70
    32
  0
VERTEX
  5
12B5
  8
PROFILE2
 10
27.124099999999999
 20
28.5624
 30
0.0
 70
    32
  0
VERTEX
  5
12B6
  8
PROFILE2
 10
27.124400000000001
 20
28.5549
 30
0.0
 70
    32
  0
VERTEX
  5
12B7
  8
PROFILE2
 10
27.124600000000001
 20
28.5474
 30
0.0
 70
    32
  0
VERTEX
  5
12B8
  8
PROFILE2
 10
27.1249
 20
28.5398
 30
0.0
 70
    32
  0
VERTEX
  5
12B9
  8
PROFILE2
 10
27.1251
 20
28.532299999999999
 30
0.0
 70
    32
  0
VERTEX
  5
12BA
  8
PROFILE2
 10
27.125399999999999
 20
28.524799999999999
 30
0.0
 70
    32
  0
VERTEX
  5
12BB
  8
PROFILE2
 10
27.125699999999998
 20
28.517299999999999
 30
0.0
 70
    32
  0
VERTEX
  5
12BC
  8
PROFILE2
 10
27.125900000000001
 20
28.509899999999998
 30
0.0
 70
    32
  0
VERTEX
  5
12BD
  8
PROFILE2
 10
27.126200000000001
 20
28.502400000000002
 30
0.0
 70
    32
  0
VERTEX
  5
12BE
  8
PROFILE2
 10
27.1265
 20
28.494900000000001
 30
0.0
 70
    32
  0
VERTEX
  5
12BF
  8
PROFILE2
 10
27.126799999999999
 20
28.487500000000001
 30
0.0
 70
    32
  0
VERTEX
  5
12C0
  8
PROFILE2
 10
27.126999999999999
 20
28.4801
 30
0.0
 70
    32
  0
VERTEX
  5
12C1
  8
PROFILE2
 10
27.127300000000002
 20
28.4727
 30
0.0
 70
    32
  0
VERTEX
  5
12C2
  8
PROFILE2
 10
27.127600000000001
 20
28.465299999999999
 30
0.0
 70
    32
  0
VERTEX
  5
12C3
  8
PROFILE2
 10
27.1279
 20
28.457899999999999
 30
0.0
 70
    32
  0
VERTEX
  5
12C4
  8
PROFILE2
 10
27.1282
 20
28.450500000000002
 30
0.0
 70
    32
  0
VERTEX
  5
12C5
  8
PROFILE2
 10
27.128499999999999
 20
28.443200000000001
 30
0.0
 70
    32
  0
VERTEX
  5
12C6
  8
PROFILE2
 10
27.128799999999998
 20
28.4358
 30
0.0
 70
    32
  0
VERTEX
  5
12C7
  8
PROFILE2
 10
27.129100000000001
 20
28.4285
 30
0.0
 70
    32
  0
VERTEX
  5
12C8
  8
PROFILE2
 10
27.1294
 20
28.421199999999999
 30
0.0
 70
    32
  0
VERTEX
  5
12C9
  8
PROFILE2
 10
27.1297
 20
28.413900000000002
 30
0.0
 70
    32
  0
VERTEX
  5
12CA
  8
PROFILE2
 10
27.129999999999999
 20
28.406600000000001
 30
0.0
 70
    32
  0
VERTEX
  5
12CB
  8
PROFILE2
 10
27.130400000000002
 20
28.3994
 30
0.0
 70
    32
  0
VERTEX
  5
12CC
  8
PROFILE2
 10
27.130700000000001
 20
28.392199999999999
 30
0.0
 70
    32
  0
VERTEX
  5
12CD
  8
PROFILE2
 10
27.131
 20
28.384899999999998
 30
0.0
 70
    32
  0
VERTEX
  5
12CE
  8
PROFILE2
 10
27.1313
 20
28.377700000000001
 30
0.0
 70
    32
  0
VERTEX
  5
12CF
  8
PROFILE2
 10
27.131699999999999
 20
28.3706
 30
0.0
 70
    32
  0
VERTEX
  5
12D0
  8
PROFILE2
 10
27.132000000000001
 20
28.363399999999999
 30
0.0
 70
    32
  0
VERTEX
  5
12D1
  8
PROFILE2
 10
27.132400000000001
 20
28.356300000000001
 30
0.0
 70
    32
  0
VERTEX
  5
12D2
  8
PROFILE2
 10
27.1327
 20
28.3492
 30
0.0
 70
    32
  0
VERTEX
  5
12D3
  8
PROFILE2
 10
27.132999999999999
 20
28.342099999999999
 30
0.0
 70
    32
  0
VERTEX
  5
12D4
  8
PROFILE2
 10
27.133400000000002
 20
28.335000000000001
 30
0.0
 70
    32
  0
VERTEX
  5
12D5
  8
PROFILE2
 10
27.133700000000001
 20
28.3279
 30
0.0
 70
    32
  0
VERTEX
  5
12D6
  8
PROFILE2
 10
27.1341
 20
28.320900000000002
 30
0.0
 70
    32
  0
VERTEX
  5
12D7
  8
PROFILE2
 10
27.134399999999999
 20
28.313800000000001
 30
0.0
 70
    32
  0
VERTEX
  5
12D8
  8
PROFILE2
 10
27.134799999999998
 20
28.306799999999999
 30
0.0
 70
    32
  0
VERTEX
  5
12D9
  8
PROFILE2
 10
27.135200000000001
 20
28.299900000000001
 30
0.0
 70
    32
  0
VERTEX
  5
12DA
  8
PROFILE2
 10
27.1355
 20
28.292899999999999
 30
0.0
 70
    32
  0
VERTEX
  5
12DB
  8
PROFILE2
 10
27.135899999999999
 20
28.286000000000001
 30
0.0
 70
    32
  0
VERTEX
  5
12DC
  8
PROFILE2
 10
27.136299999999999
 20
28.2791
 30
0.0
 70
    32
  0
VERTEX
  5
12DD
  8
PROFILE2
 10
27.136600000000001
 20
28.272200000000002
 30
0.0
 70
    32
  0
VERTEX
  5
12DE
  8
PROFILE2
 10
27.137
 20
28.2653
 30
0.0
 70
    32
  0
VERTEX
  5
12DF
  8
PROFILE2
 10
27.1374
 20
28.258500000000002
 30
0.0
 70
    32
  0
VERTEX
  5
12E0
  8
PROFILE2
 10
27.137699999999999
 20
28.2516
 30
0.0
 70
    32
  0
VERTEX
  5
12E1
  8
PROFILE2
 10
27.138100000000001
 20
28.244900000000001
 30
0.0
 70
    32
  0
VERTEX
  5
12E2
  8
PROFILE2
 10
27.138500000000001
 20
28.238099999999999
 30
0.0
 70
    32
  0
VERTEX
  5
12E3
  8
PROFILE2
 10
27.1389
 20
28.231300000000001
 30
0.0
 70
    32
  0
VERTEX
  5
12E4
  8
PROFILE2
 10
27.139299999999999
 20
28.224599999999999
 30
0.0
 70
    32
  0
VERTEX
  5
12E5
  8
PROFILE2
 10
27.139700000000001
 20
28.2179
 30
0.0
 70
    32
  0
VERTEX
  5
12E6
  8
PROFILE2
 10
27.140000000000001
 20
28.211200000000002
 30
0.0
 70
    32
  0
VERTEX
  5
12E7
  8
PROFILE2
 10
27.1404
 20
28.204599999999999
 30
0.0
 70
    32
  0
VERTEX
  5
12E8
  8
PROFILE2
 10
27.140799999999999
 20
28.197900000000001
 30
0.0
 70
    32
  0
VERTEX
  5
12E9
  8
PROFILE2
 10
27.141200000000001
 20
28.191299999999998
 30
0.0
 70
    32
  0
VERTEX
  5
12EA
  8
PROFILE2
 10
27.1416
 20
28.184799999999999
 30
0.0
 70
    32
  0
VERTEX
  5
12EB
  8
PROFILE2
 10
27.141999999999999
 20
28.1782
 30
0.0
 70
    32
  0
VERTEX
  5
12EC
  8
PROFILE2
 10
27.142399999999999
 20
28.171700000000001
 30
0.0
 70
    32
  0
VERTEX
  5
12ED
  8
PROFILE2
 10
27.142800000000001
 20
28.165199999999999
 30
0.0
 70
    32
  0
VERTEX
  5
12EE
  8
PROFILE2
 10
27.1432
 20
28.1587
 30
0.0
 70
    32
  0
VERTEX
  5
12EF
  8
PROFILE2
 10
27.143599999999999
 20
28.1523
 30
0.0
 70
    32
  0
VERTEX
  5
12F0
  8
PROFILE2
 10
27.143999999999998
 20
28.145900000000001
 30
0.0
 70
    32
  0
VERTEX
  5
12F1
  8
PROFILE2
 10
27.144400000000001
 20
28.139500000000002
 30
0.0
 70
    32
  0
VERTEX
  5
12F2
  8
PROFILE2
 10
27.1448
 20
28.133099999999999
 30
0.0
 70
    32
  0
VERTEX
  5
12F3
  8
PROFILE2
 10
27.145199999999999
 20
28.126799999999999
 30
0.0
 70
    32
  0
VERTEX
  5
12F4
  8
PROFILE2
 10
27.145600000000002
 20
28.1205
 30
0.0
 70
    32
  0
VERTEX
  5
12F5
  8
PROFILE2
 10
27.146000000000001
 20
28.1142
 30
0.0
 70
    32
  0
VERTEX
  5
12F6
  8
PROFILE2
 10
27.1465
 20
28.108000000000001
 30
0.0
 70
    32
  0
VERTEX
  5
12F7
  8
PROFILE2
 10
27.146899999999999
 20
28.101800000000001
 30
0.0
 70
    32
  0
VERTEX
  5
12F8
  8
PROFILE2
 10
27.147300000000001
 20
28.095600000000001
 30
0.0
 70
    32
  0
VERTEX
  5
12F9
  8
PROFILE2
 10
27.1477
 20
28.089400000000001
 30
0.0
 70
    32
  0
VERTEX
  5
12FA
  8
PROFILE2
 10
27.148099999999999
 20
28.083300000000001
 30
0.0
 70
    32
  0
VERTEX
  5
12FB
  8
PROFILE2
 10
27.148499999999999
 20
28.077200000000001
 30
0.0
 70
    32
  0
VERTEX
  5
12FC
  8
PROFILE2
 10
27.148900000000001
 20
28.071100000000001
 30
0.0
 70
    32
  0
VERTEX
  5
12FD
  8
PROFILE2
 10
27.1493
 20
28.065100000000001
 30
0.0
 70
    32
  0
VERTEX
  5
12FE
  8
PROFILE2
 10
27.149799999999999
 20
28.059100000000001
 30
0.0
 70
    32
  0
VERTEX
  5
12FF
  8
PROFILE2
 10
27.150200000000002
 20
28.053100000000001
 30
0.0
 70
    32
  0
VERTEX
  5
1300
  8
PROFILE2
 10
27.150600000000001
 20
28.0472
 30
0.0
 70
    32
  0
VERTEX
  5
1301
  8
PROFILE2
 10
27.151
 20
28.0413
 30
0.0
 70
    32
  0
VERTEX
  5
1302
  8
PROFILE2
 10
27.151399999999999
 20
28.035399999999999
 30
0.0
 70
    32
  0
VERTEX
  5
1303
  8
PROFILE2
 10
27.151800000000001
 20
28.029499999999999
 30
0.0
 70
    32
  0
VERTEX
  5
1304
  8
PROFILE2
 10
27.152200000000001
 20
28.023700000000002
 30
0.0
 70
    32
  0
VERTEX
  5
1305
  8
PROFILE2
 10
27.152699999999999
 20
28.018000000000001
 30
0.0
 70
    32
  0
VERTEX
  5
1306
  8
PROFILE2
 10
27.153099999999998
 20
28.0122
 30
0.0
 70
    32
  0
VERTEX
  5
1307
  8
PROFILE2
 10
27.153500000000001
 20
28.006499999999999
 30
0.0
 70
    32
  0
VERTEX
  5
1308
  8
PROFILE2
 10
27.1539
 20
28.000800000000002
 30
0.0
 70
    32
  0
VERTEX
  5
1309
  8
PROFILE2
 10
27.154299999999999
 20
27.995200000000001
 30
0.0
 70
    32
  0
VERTEX
  5
130A
  8
PROFILE2
 10
27.154699999999998
 20
27.989599999999999
 30
0.0
 70
    32
  0
VERTEX
  5
130B
  8
PROFILE2
 10
27.155200000000001
 20
27.984000000000002
 30
0.0
 70
    32
  0
VERTEX
  5
130C
  8
PROFILE2
 10
27.1556
 20
27.978400000000001
 30
0.0
 70
    32
  0
VERTEX
  5
130D
  8
PROFILE2
 10
27.155999999999999
 20
27.972899999999999
 30
0.0
 70
    32
  0
VERTEX
  5
130E
  8
PROFILE2
 10
27.156400000000001
 20
27.967500000000001
 30
0.0
 70
    32
  0
VERTEX
  5
130F
  8
PROFILE2
 10
27.1568
 20
27.962
 30
0.0
 70
    32
  0
VERTEX
  5
1310
  8
PROFILE2
 10
27.1572
 20
27.956600000000002
 30
0.0
 70
    32
  0
VERTEX
  5
1311
  8
PROFILE2
 10
27.157599999999999
 20
27.9513
 30
0.0
 70
    32
  0
VERTEX
  5
1312
  8
PROFILE2
 10
27.158100000000001
 20
27.945900000000002
 30
0.0
 70
    32
  0
VERTEX
  5
1313
  8
PROFILE2
 10
27.1585
 20
27.9407
 30
0.0
 70
    32
  0
VERTEX
  5
1314
  8
PROFILE2
 10
27.158899999999999
 20
27.935400000000001
 30
0.0
 70
    32
  0
VERTEX
  5
1315
  8
PROFILE2
 10
27.159300000000002
 20
27.930199999999999
 30
0.0
 70
    32
  0
VERTEX
  5
1316
  8
PROFILE2
 10
27.159700000000001
 20
27.924900000000001
 30
0.0
 70
    32
  0
VERTEX
  5
1317
  8
PROFILE2
 10
27.1601
 20
27.919699999999999
 30
0.0
 70
    32
  0
VERTEX
  5
1318
  8
PROFILE2
 10
27.160499999999999
 20
27.9146
 30
0.0
 70
    32
  0
VERTEX
  5
1319
  8
PROFILE2
 10
27.161000000000001
 20
27.909400000000002
 30
0.0
 70
    32
  0
VERTEX
  5
131A
  8
PROFILE2
 10
27.1614
 20
27.904299999999999
 30
0.0
 70
    32
  0
VERTEX
  5
131B
  8
PROFILE2
 10
27.161799999999999
 20
27.899100000000001
 30
0.0
 70
    32
  0
VERTEX
  5
131C
  8
PROFILE2
 10
27.162199999999999
 20
27.893999999999998
 30
0.0
 70
    32
  0
VERTEX
  5
131D
  8
PROFILE2
 10
27.162600000000001
 20
27.888999999999999
 30
0.0
 70
    32
  0
VERTEX
  5
131E
  8
PROFILE2
 10
27.163
 20
27.883900000000001
 30
0.0
 70
    32
  0
VERTEX
  5
131F
  8
PROFILE2
 10
27.163399999999999
 20
27.878900000000002
 30
0.0
 70
    32
  0
VERTEX
  5
1320
  8
PROFILE2
 10
27.163900000000002
 20
27.873799999999999
 30
0.0
 70
    32
  0
VERTEX
  5
1321
  8
PROFILE2
 10
27.164300000000001
 20
27.8689
 30
0.0
 70
    32
  0
VERTEX
  5
1322
  8
PROFILE2
 10
27.1647
 20
27.863900000000001
 30
0.0
 70
    32
  0
VERTEX
  5
1323
  8
PROFILE2
 10
27.165099999999999
 20
27.858899999999998
 30
0.0
 70
    32
  0
VERTEX
  5
1324
  8
PROFILE2
 10
27.165500000000002
 20
27.853999999999999
 30
0.0
 70
    32
  0
VERTEX
  5
1325
  8
PROFILE2
 10
27.165900000000001
 20
27.8491
 30
0.0
 70
    32
  0
VERTEX
  5
1326
  8
PROFILE2
 10
27.166399999999999
 20
27.844200000000001
 30
0.0
 70
    32
  0
VERTEX
  5
1327
  8
PROFILE2
 10
27.166799999999999
 20
27.839400000000001
 30
0.0
 70
    32
  0
VERTEX
  5
1328
  8
PROFILE2
 10
27.167200000000001
 20
27.834499999999998
 30
0.0
 70
    32
  0
VERTEX
  5
1329
  8
PROFILE2
 10
27.1676
 20
27.829699999999999
 30
0.0
 70
    32
  0
VERTEX
  5
132A
  8
PROFILE2
 10
27.167999999999999
 20
27.824999999999999
 30
0.0
 70
    32
  0
VERTEX
  5
132B
  8
PROFILE2
 10
27.168399999999998
 20
27.8202
 30
0.0
 70
    32
  0
VERTEX
  5
132C
  8
PROFILE2
 10
27.168800000000001
 20
27.8155
 30
0.0
 70
    32
  0
VERTEX
  5
132D
  8
PROFILE2
 10
27.1693
 20
27.8108
 30
0.0
 70
    32
  0
VERTEX
  5
132E
  8
PROFILE2
 10
27.169699999999999
 20
27.806100000000001
 30
0.0
 70
    32
  0
VERTEX
  5
132F
  8
PROFILE2
 10
27.170100000000001
 20
27.801400000000001
 30
0.0
 70
    32
  0
VERTEX
  5
1330
  8
PROFILE2
 10
27.170500000000001
 20
27.796800000000001
 30
0.0
 70
    32
  0
VERTEX
  5
1331
  8
PROFILE2
 10
27.1709
 20
27.792200000000001
 30
0.0
 70
    32
  0
VERTEX
  5
1332
  8
PROFILE2
 10
27.171299999999999
 20
27.787600000000001
 30
0.0
 70
    32
  0
VERTEX
  5
1333
  8
PROFILE2
 10
27.171700000000001
 20
27.783100000000001
 30
0.0
 70
    32
  0
VERTEX
  5
1334
  8
PROFILE2
 10
27.1721
 20
27.778600000000001
 30
0.0
 70
    32
  0
VERTEX
  5
1335
  8
PROFILE2
 10
27.172499999999999
 20
27.774100000000001
 30
0.0
 70
    32
  0
VERTEX
  5
1336
  8
PROFILE2
 10
27.172899999999998
 20
27.769600000000001
 30
0.0
 70
    32
  0
VERTEX
  5
1337
  8
PROFILE2
 10
27.173300000000001
 20
27.7652
 30
0.0
 70
    32
  0
VERTEX
  5
1338
  8
PROFILE2
 10
27.1737
 20
27.7608
 30
0.0
 70
    32
  0
VERTEX
  5
1339
  8
PROFILE2
 10
27.174099999999999
 20
27.756399999999999
 30
0.0
 70
    32
  0
VERTEX
  5
133A
  8
PROFILE2
 10
27.174499999999998
 20
27.752099999999999
 30
0.0
 70
    32
  0
VERTEX
  5
133B
  8
PROFILE2
 10
27.174900000000001
 20
27.747800000000002
 30
0.0
 70
    32
  0
VERTEX
  5
133C
  8
PROFILE2
 10
27.1753
 20
27.743500000000001
 30
0.0
 70
    32
  0
VERTEX
  5
133D
  8
PROFILE2
 10
27.175699999999999
 20
27.7392
 30
0.0
 70
    32
  0
VERTEX
  5
133E
  8
PROFILE2
 10
27.176100000000002
 20
27.734999999999999
 30
0.0
 70
    32
  0
VERTEX
  5
133F
  8
PROFILE2
 10
27.176500000000001
 20
27.730799999999999
 30
0.0
 70
    32
  0
VERTEX
  5
1340
  8
PROFILE2
 10
27.1769
 20
27.726600000000001
 30
0.0
 70
    32
  0
VERTEX
  5
1341
  8
PROFILE2
 10
27.177299999999999
 20
27.7225
 30
0.0
 70
    32
  0
VERTEX
  5
1342
  8
PROFILE2
 10
27.177700000000002
 20
27.718399999999999
 30
0.0
 70
    32
  0
VERTEX
  5
1343
  8
PROFILE2
 10
27.178000000000001
 20
27.714300000000001
 30
0.0
 70
    32
  0
VERTEX
  5
1344
  8
PROFILE2
 10
27.1784
 20
27.7103
 30
0.0
 70
    32
  0
VERTEX
  5
1345
  8
PROFILE2
 10
27.178799999999999
 20
27.706299999999999
 30
0.0
 70
    32
  0
VERTEX
  5
1346
  8
PROFILE2
 10
27.179200000000002
 20
27.702300000000001
 30
0.0
 70
    32
  0
VERTEX
  5
1347
  8
PROFILE2
 10
27.179600000000001
 20
27.698399999999999
 30
0.0
 70
    32
  0
VERTEX
  5
1348
  8
PROFILE2
 10
27.1799
 20
27.694500000000001
 30
0.0
 70
    32
  0
VERTEX
  5
1349
  8
PROFILE2
 10
27.180299999999999
 20
27.6906
 30
0.0
 70
    32
  0
VERTEX
  5
134A
  8
PROFILE2
 10
27.180700000000002
 20
27.686800000000002
 30
0.0
 70
    32
  0
VERTEX
  5
134B
  8
PROFILE2
 10
27.181000000000001
 20
27.683
 30
0.0
 70
    32
  0
VERTEX
  5
134C
  8
PROFILE2
 10
27.1814
 20
27.679200000000002
 30
0.0
 70
    32
  0
VERTEX
  5
134D
  8
PROFILE2
 10
27.181799999999999
 20
27.6755
 30
0.0
 70
    32
  0
VERTEX
  5
134E
  8
PROFILE2
 10
27.182099999999998
 20
27.671800000000001
 30
0.0
 70
    32
  0
VERTEX
  5
134F
  8
PROFILE2
 10
27.182500000000001
 20
27.668099999999999
 30
0.0
 70
    32
  0
VERTEX
  5
1350
  8
PROFILE2
 10
27.1828
 20
27.6645
 30
0.0
 70
    32
  0
VERTEX
  5
1351
  8
PROFILE2
 10
27.183199999999999
 20
27.660900000000002
 30
0.0
 70
    32
  0
VERTEX
  5
1352
  8
PROFILE2
 10
27.183499999999999
 20
27.657399999999999
 30
0.0
 70
    32
  0
VERTEX
  5
1353
  8
PROFILE2
 10
27.183900000000001
 20
27.6539
 30
0.0
 70
    32
  0
VERTEX
  5
1354
  8
PROFILE2
 10
27.184200000000001
 20
27.650400000000001
 30
0.0
 70
    32
  0
VERTEX
  5
1355
  8
PROFILE2
 10
27.1846
 20
27.646899999999999
 30
0.0
 70
    32
  0
VERTEX
  5
1356
  8
PROFILE2
 10
27.184899999999999
 20
27.6435
 30
0.0
 70
    32
  0
VERTEX
  5
1357
  8
PROFILE2
 10
27.185300000000002
 20
27.6402
 30
0.0
 70
    32
  0
VERTEX
  5
1358
  8
PROFILE2
 10
27.185600000000001
 20
27.636800000000001
 30
0.0
 70
    32
  0
VERTEX
  5
1359
  8
PROFILE2
 10
27.1859
 20
27.633600000000001
 30
0.0
 70
    32
  0
VERTEX
  5
135A
  8
PROFILE2
 10
27.186199999999999
 20
27.630299999999998
 30
0.0
 70
    32
  0
VERTEX
  5
135B
  8
PROFILE2
 10
27.186599999999999
 20
27.627099999999999
 30
0.0
 70
    32
  0
VERTEX
  5
135C
  8
PROFILE2
 10
27.186900000000001
 20
27.623899999999999
 30
0.0
 70
    32
  0
VERTEX
  5
135D
  8
PROFILE2
 10
27.187200000000001
 20
27.620799999999999
 30
0.0
 70
    32
  0
VERTEX
  5
135E
  8
PROFILE2
 10
27.1875
 20
27.617699999999999
 30
0.0
 70
    32
  0
VERTEX
  5
135F
  8
PROFILE2
 10
27.187799999999999
 20
27.614599999999999
 30
0.0
 70
    32
  0
VERTEX
  5
1360
  8
PROFILE2
 10
27.188099999999999
 20
27.611599999999999
 30
0.0
 70
    32
  0
VERTEX
  5
1361
  8
PROFILE2
 10
27.188400000000001
 20
27.608699999999999
 30
0.0
 70
    32
  0
VERTEX
  5
1362
  8
PROFILE2
 10
27.188700000000001
 20
27.605699999999999
 30
0.0
 70
    32
  0
VERTEX
  5
1363
  8
PROFILE2
 10
27.189
 20
27.602799999999998
 30
0.0
 70
    32
  0
VERTEX
  5
1364
  8
PROFILE2
 10
27.189299999999999
 20
27.600000000000001
 30
0.0
 70
    32
  0
VERTEX
  5
1365
  8
PROFILE2
 10
27.189599999999999
 20
27.597200000000001
 30
0.0
 70
    32
  0
VERTEX
  5
1366
  8
PROFILE2
 10
27.189900000000002
 20
27.5944
 30
0.0
 70
    32
  0
VERTEX
  5
1367
  8
PROFILE2
 10
27.190200000000001
 20
27.591699999999999
 30
0.0
 70
    32
  0
VERTEX
  5
1368
  8
PROFILE2
 10
27.1905
 20
27.588999999999999
 30
0.0
 70
    32
  0
VERTEX
  5
1369
  8
PROFILE2
 10
27.1907
 20
27.586300000000001
 30
0.0
 70
    32
  0
VERTEX
  5
136A
  8
PROFILE2
 10
27.190999999999999
 20
27.5837
 30
0.0
 70
    32
  0
VERTEX
  5
136B
  8
PROFILE2
 10
27.191299999999998
 20
27.581199999999999
 30
0.0
 70
    32
  0
VERTEX
  5
136C
  8
PROFILE2
 10
27.191500000000001
 20
27.578600000000002
 30
0.0
 70
    32
  0
VERTEX
  5
136D
  8
PROFILE2
 10
27.191800000000001
 20
27.5762
 30
0.0
 70
    32
  0
VERTEX
  5
136E
  8
PROFILE2
 10
27.1921
 20
27.573699999999999
 30
0.0
 70
    32
  0
VERTEX
  5
136F
  8
PROFILE2
 10
27.192299999999999
 20
27.571300000000001
 30
0.0
 70
    32
  0
VERTEX
  5
1370
  8
PROFILE2
 10
27.192599999999999
 20
27.568899999999999
 30
0.0
 70
    32
  0
VERTEX
  5
1371
  8
PROFILE2
 10
27.192799999999998
 20
27.566600000000001
 30
0.0
 70
    32
  0
VERTEX
  5
1372
  8
PROFILE2
 10
27.193000000000001
 20
27.564299999999999
 30
0.0
 70
    32
  0
VERTEX
  5
1373
  8
PROFILE2
 10
27.193300000000001
 20
27.562100000000001
 30
0.0
 70
    32
  0
VERTEX
  5
1374
  8
PROFILE2
 10
27.1935
 20
27.559899999999999
 30
0.0
 70
    32
  0
VERTEX
  5
1375
  8
PROFILE2
 10
27.1937
 20
27.557700000000001
 30
0.0
 70
    32
  0
VERTEX
  5
1376
  8
PROFILE2
 10
27.193999999999999
 20
27.555599999999998
 30
0.0
 70
    32
  0
VERTEX
  5
1377
  8
PROFILE2
 10
27.194199999999999
 20
27.5535
 30
0.0
 70
    32
  0
VERTEX
  5
1378
  8
PROFILE2
 10
27.194400000000002
 20
27.551500000000001
 30
0.0
 70
    32
  0
VERTEX
  5
1379
  8
PROFILE2
 10
27.194600000000001
 20
27.549499999999998
 30
0.0
 70
    32
  0
VERTEX
  5
137A
  8
PROFILE2
 10
27.194800000000001
 20
27.547499999999999
 30
0.0
 70
    32
  0
VERTEX
  5
137B
  8
PROFILE2
 10
27.195
 20
27.5456
 30
0.0
 70
    32
  0
VERTEX
  5
137C
  8
PROFILE2
 10
27.1952
 20
27.543700000000001
 30
0.0
 70
    32
  0
VERTEX
  5
137D
  8
PROFILE2
 10
27.195399999999999
 20
27.541799999999999
 30
0.0
 70
    32
  0
VERTEX
  5
137E
  8
PROFILE2
 10
27.195599999999999
 20
27.539999999999999
 30
0.0
 70
    32
  0
VERTEX
  5
137F
  8
PROFILE2
 10
27.195799999999998
 20
27.5383
 30
0.0
 70
    32
  0
VERTEX
  5
1380
  8
PROFILE2
 10
27.196000000000002
 20
27.5365
 30
0.0
 70
    32
  0
VERTEX
  5
1381
  8
PROFILE2
 10
27.196200000000001
 20
27.5349
 30
0.0
 70
    32
  0
VERTEX
  5
1382
  8
PROFILE2
 10
27.196300000000001
 20
27.533200000000001
 30
0.0
 70
    32
  0
VERTEX
  5
1383
  8
PROFILE2
 10
27.1965
 20
27.531600000000001
 30
0.0
 70
    32
  0
VERTEX
  5
1384
  8
PROFILE2
 10
27.1967
 20
27.530000000000001
 30
0.0
 70
    32
  0
VERTEX
  5
1385
  8
PROFILE2
 10
27.196899999999999
 20
27.528500000000001
 30
0.0
 70
    32
  0
VERTEX
  5
1386
  8
PROFILE2
 10
27.196999999999999
 20
27.527000000000001
 30
0.0
 70
    32
  0
VERTEX
  5
1387
  8
PROFILE2
 10
27.197199999999999
 20
27.525600000000001
 30
0.0
 70
    32
  0
VERTEX
  5
1388
  8
PROFILE2
 10
27.197299999999998
 20
27.5242
 30
0.0
 70
    32
  0
VERTEX
  5
1389
  8
PROFILE2
 10
27.197500000000002
 20
27.5228
 30
0.0
 70
    32
  0
VERTEX
  5
138A
  8
PROFILE2
 10
27.197600000000001
 20
27.5215
 30
0.0
 70
    32
  0
VERTEX
  5
138B
  8
PROFILE2
 10
27.197800000000001
 20
27.520199999999999
 30
0.0
 70
    32
  0
VERTEX
  5
138C
  8
PROFILE2
 10
27.197900000000001
 20
27.518999999999998
 30
0.0
 70
    32
  0
VERTEX
  5
138D
  8
PROFILE2
 10
27.198
 20
27.517800000000001
 30
0.0
 70
    32
  0
VERTEX
  5
138E
  8
PROFILE2
 10
27.1982
 20
27.5166
 30
0.0
 70
    32
  0
VERTEX
  5
138F
  8
PROFILE2
 10
27.1983
 20
27.515499999999999
 30
0.0
 70
    32
  0
VERTEX
  5
1390
  8
PROFILE2
 10
27.198399999999999
 20
27.514399999999998
 30
0.0
 70
    32
  0
VERTEX
  5
1391
  8
PROFILE2
 10
27.198499999999999
 20
27.513300000000001
 30
0.0
 70
    32
  0
VERTEX
  5
1392
  8
PROFILE2
 10
27.198599999999999
 20
27.5123
 30
0.0
 70
    32
  0
VERTEX
  5
1393
  8
PROFILE2
 10
27.198699999999999
 20
27.511399999999998
 30
0.0
 70
    32
  0
VERTEX
  5
1394
  8
PROFILE2
 10
27.198799999999999
 20
27.510400000000001
 30
0.0
 70
    32
  0
VERTEX
  5
1395
  8
PROFILE2
 10
27.198899999999998
 20
27.509499999999999
 30
0.0
 70
    32
  0
VERTEX
  5
1396
  8
PROFILE2
 10
27.199000000000002
 20
27.508700000000001
 30
0.0
 70
    32
  0
VERTEX
  5
1397
  8
PROFILE2
 10
27.199100000000001
 20
27.507899999999999
 30
0.0
 70
    32
  0
VERTEX
  5
1398
  8
PROFILE2
 10
27.199200000000001
 20
27.507100000000001
 30
0.0
 70
    32
  0
VERTEX
  5
1399
  8
PROFILE2
 10
27.199300000000001
 20
27.506399999999999
 30
0.0
 70
    32
  0
VERTEX
  5
139A
  8
PROFILE2
 10
27.199400000000001
 20
27.505700000000001
 30
0.0
 70
    32
  0
VERTEX
  5
139B
  8
PROFILE2
 10
27.199400000000001
 20
27.504999999999999
 30
0.0
 70
    32
  0
VERTEX
  5
139C
  8
PROFILE2
 10
27.1995
 20
27.5044
 30
0.0
 70
    32
  0
VERTEX
  5
139D
  8
PROFILE2
 10
27.1996
 20
27.503900000000002
 30
0.0
 70
    32
  0
VERTEX
  5
139E
  8
PROFILE2
 10
27.1996
 20
27.503299999999999
 30
0.0
 70
    32
  0
VERTEX
  5
139F
  8
PROFILE2
 10
27.1997
 20
27.502800000000001
 30
0.0
 70
    32
  0
VERTEX
  5
13A0
  8
PROFILE2
 10
27.1997
 20
27.502400000000002
 30
0.0
 70
    32
  0
VERTEX
  5
13A1
  8
PROFILE2
 10
27.1998
 20
27.501999999999999
 30
0.0
 70
    32
  0
VERTEX
  5
13A2
  8
PROFILE2
 10
27.1998
 20
27.5016
 30
0.0
 70
    32
  0
VERTEX
  5
13A3
  8
PROFILE2
 10
27.1999
 20
27.501300000000001
 30
0.0
 70
    32
  0
VERTEX
  5
13A4
  8
PROFILE2
 10
27.1999
 20
27.501000000000001
 30
0.0
 70
    32
  0
VERTEX
  5
13A5
  8
PROFILE2
 10
27.1999
 20
27.500699999999998
 30
0.0
 70
    32
  0
VERTEX
  5
13A6
  8
PROFILE2
 10
27.1999
 20
27.500499999999999
 30
0.0
 70
    32
  0
VERTEX
  5
13A7
  8
PROFILE2
 10
27.199999999999999
 20
27.500299999999999
 30
0.0
 70
    32
  0
VERTEX
  5
13A8
  8
PROFILE2
 10
27.199999999999999
 20
27.5002
 30
0.0
 70
    32
  0
VERTEX
  5
13A9
  8
PROFILE2
 10
27.199999999999999
 20
27.5001
 30
0.0
 70
    32
  0
VERTEX
  5
13AA
  8
PROFILE2
 10
27.199999999999999
 20
27.5
 30
0.0
 70
    32
  0
VERTEX
  5
13AB
  8
PROFILE2
 10
27.199999999999999
 20
27.5
 30
0.0
 70
    32
  0
SEQEND
  5
13AC
  8
PROFILE2
  0
LINE
  5
B96
  8
PROFILE2
 10
1.5999998363061809
 20
39.500000127824677
 30
0.0
 11
25.59999983630615
 21
39.500000127824677
 31
0.0
  0
LINE
  5
B97
  8
PROFILE2
 10
-0.0000001636938123
 20
33.000000127824677
 30
0.0
 11
-0.0000001636938123
 21
3.000000127824705
 31
0.0
  0
LINE
  5
B98
  8
PROFILE2
 10
0.8999998363061648
 20
0.0000001278247055
 30
0.0
 11
2.0999998363061518
 21
0.0000001278247055
 31
0.0
  0
LINE
  5
B99
  8
PROFILE2
 10
25.0999998363062
 20
0.0000001278247055
 30
0.0
 11
2.0999998363061518
 21
0.0000001278247055
 31
0.0
  0
LINE
  5
B9A
  8
PROFILE2
 10
0.8999998363061648
 20
0.0000001278247055
 30
0.0
 11
0.8999998363061648
 21
2.1000001278247269
 31
0.0
  0
ARC
  5
B9B
  8
PROFILE2
 10
-0.0000001636938123
 20
2.1000001278247269
 30
0.0
 40
0.9
 50
0.0
 51
90.0
1001
GENIUS_GENODEF_13
1002
{
1000
HIER
1070
     0
1002
}
1002
{
1000
MANEDIT
1070
     0
1002
}
1002
{
1000
NOSEL
1070
     0
1002
}
1002
{
1000
BEHIND
1070
     0
1002
}
1002
{
1000
OTHER
1070
     0
1002
}
1002
{
1000
REACTOR
1002
}
1001
GENIUS_GENOBJ-N-FIL_13
1002
{
1000
OWNER
1000
GEN
1002
}
  0
LINE
  5
B9C
  8
PROFILE2
 10
-0.0000001636938123
 20
3.000000127824705
 30
0.0
 11
-0.0000001636938123
 21
3.000000127824705
 31
0.0
  0
LINE
  5
B9D
  8
PROFILE2
 10
27.199999836306169
 20
33.000000127824677
 30
0.0
 11
27.199999836306169
 21
3.000000127824705
 31
0.0
  0
LINE
  5
B9E
  8
PROFILE2
 10
26.299999836306171
 20
0.0000001278247055
 30
0.0
 11
25.0999998363062
 21
0.0000001278247055
 31
0.0
  0
LINE
  5
B9F
  8
PROFILE2
 10
26.299999836306171
 20
0.0000001278247055
 30
0.0
 11
26.299999836306171
 21
2.1000001278247269
 31
0.0
  0
ARC
  5
BA0
  8
PROFILE2
 10
27.199999836306169
 20
2.1000001278247269
 30
0.0
 40
0.9
 50
89.99999999999838
 51
180.0
1001
GENIUS_GENODEF_13
1002
{
1000
HIER
1070
     0
1002
}
1002
{
1000
MANEDIT
1070
     0
1002
}
1002
{
1000
NOSEL
1070
     0
1002
}
1002
{
1000
BEHIND
1070
     0
1002
}
1002
{
1000
OTHER
1070
     0
1002
}
1002
{
1000
REACTOR
1002
}
1001
GENIUS_GENOBJ-N-FIL_13
1002
{
1000
OWNER
1000
GEN
1002
}
  0
LINE
  5
BA1
  8
PROFILE2
 10
27.19999983630618
 20
3.000000127824705
 30
0.0
 11
27.199999836306169
 21
3.000000127824705
 31
0.0
  0
LINE
  5
BA2
  8
PROFILE2
 10
25.099999836306171
 20
36.500000127824677
 30
0.0
 11
22.12999480090582
 21
36.500000127824677
 31
0.0
  0
LINE
  5
BA3
  8
PROFILE2
 10
2.0999998363061518
 20
36.500000127824677
 30
0.0
 11
5.0700010570093346
 21
36.500000127824677
 31
0.0
  0
LINE
  5
BA4
  8
PROFILE2
 10
20.56999724231207
 20
36.500000127824677
 30
0.0
 11
19.860082081179261
 21
36.500000127824677
 31
0.0
  0
LINE
  5
BA5
  8
PROFILE2
 10
18.300076893190969
 20
36.500000127824677
 30
0.0
 11
14.37999861560308
 21
36.500000127824677
 31
0.0
  0
LINE
  5
BA6
  8
PROFILE2
 10
12.82000105700933
 20
36.500000127824677
 30
0.0
 11
8.8999189647242058
 21
36.500000127824677
 31
0.0
  0
LINE
  5
BA7
  8
PROFILE2
 10
7.3399214061304292
 20
36.500000127824677
 30
0.0
 11
6.6299986156030837
 21
36.500000127824677
 31
0.0
  0
ENDBLK
  5
BA8
  8
0
  0
BLOCK
  8
0
  2
*U22
 70
     1
 10
0.0
 20
0.0
 30
0.0
  3
*U22
  1

  0
TEXT
  5
111C
  8
DIMENSION
  6
CONTINUOUS
 62
     0
 10
155.4131536178204
 20
23.388933516623769
 30
0.0
 40
4.0
  1
(17.6)
 50
90.0
  7
ULVAC
  0
ENDBLK
  5
111E
  8
0
  0
BLOCK
  8
0
  2
*U24
 70
     1
 10
0.0
 20
0.0
 30
0.0
  3
*U24
  1

  0
TEXT
  5
1120
  8
DIMENSION
  6
CONTINUOUS
 62
     0
 10
165.4131536178206
 20
39.305600183290451
 30
0.0
 40
4.0
  1
(55.5)
 50
90.0
  7
ULVAC
  0
ENDBLK
  5
1122
  8
0
  0
BLOCK
  8
0
  2
*U26
 70
     1
 10
0.0
 20
0.0
 30
0.0
  3
*U26
  1

  0
TEXT
  5
1128
  8
AM_5
  6
CONTINUOUS
 62
     7
 10
116.1459345192269
 20
100.1700001543238
 30
0.0
 40
4.166999999999998
  1
(\U+220569)
  0
ENDBLK
  5
112A
  8
0
  0
BLOCK
  8
0
  2
*U28
 70
     1
 10
0.0
 20
0.0
 30
0.0
  3
*U28
  1

  0
TEXT
  5
112C
  8
DIMENSION
  6
CONTINUOUS
 62
     7
 10
-28.656388440417452
 20
-28.970409422514081
 30
0.0
 40
4.0
  1
No pin
  7
ULVAC
  0
ENDBLK
  5
112E
  8
0
  0
BLOCK
  8
0
  2
*U30
 70
     1
 10
0.0
 20
0.0
 30
0.0
  3
*U30
  1

  0
TEXT
  5
1130
  8
DIMENSION
  6
CONTINUOUS
 62
     7
 10
-97.518506058502155
 20
-10.79658309201068
 30
0.0
 40
4.0
  1
Filament 1
  7
ULVAC
  0
ENDBLK
  5
1132
  8
0
  0
BLOCK
  8
0
  2
*U32
 70
     1
 10
0.0
 20
0.0
 30
0.0
  3
*U32
  1

  0
TEXT
  5
1134
  8
DIMENSION
  6
CONTINUOUS
 62
     7
 10
-103.0933820018379
 20
-74.364309104393314
 30
0.0
 40
4.0
  1
Filament 2
  7
ULVAC
  0
ENDBLK
  5
1136
  8
0
  0
BLOCK
  8
0
  2
*U34
 70
     1
 10
0.0
 20
0.0
 30
0.0
  3
*U34
  1

  0
TEXT
  5
1138
  8
DIMENSION
  6
CONTINUOUS
 62
     7
 10
-94.271492555801515
 20
-42.590803835986137
 30
0.0
 40
4.0
  1
Grid
  7
ULVAC
  0
ENDBLK
  5
113A
  8
0
  0
BLOCK
  8
0
  2
*U36
 70
     1
 10
0.0
 20
0.0
 30
0.0
  3
*U36
  1

  0
TEXT
  5
113C
  8
DIMENSION
  6
CONTINUOUS
 62
     7
 10
-25.408906280470958
 20
-45.883395112836617
 30
0.0
 40
4.0
  1
Grid
  7
ULVAC
  0
ENDBLK
  5
113E
  8
0
  0
BLOCK
  8
0
  2
*U38
 70
     1
 10
0.0
 20
0.0
 30
0.0
  3
*U38
  1

  0
TEXT
  5
1140
  8
DIMENSION
  6
CONTINUOUS
 62
     7
 10
-24.749978150907658
 20
-59.876908039454577
 30
0.0
 40
4.0
  1
Case Ground
  7
ULVAC
  0
ENDBLK
  5
1142
  8
0
  0
BLOCK
  8
0
  2
*U40
 70
     1
 10
0.0
 20
0.0
 30
0.0
  3
*U40
  1

  0
TEXT
  5
1144
  8
DIMENSION
  6
CONTINUOUS
 62
     7
 10
-35.951750364159338
 20
-74.528938944839226
 30
0.0
 40
4.0
  1
Ioncollenctor
  7
ULVAC
  0
ENDBLK
  5
1146
  8
0
  0
BLOCK
  8
0
  2
*U42
 70
     1
 10
0.0
 20
0.0
 30
0.0
  3
*U42
  1

  0
TEXT
  5
1148
  8
DIMENSION
  6
CONTINUOUS
 62
     7
 10
-117.3116854898919
 20
48.231452719663253
 30
0.0
 40
4.0
  1
Controller
  7
ULVAC
  0
ENDBLK
  5
114A
  8
0
  0
BLOCK
  8
0
  2
*U43
 70
     1
 10
0.0
 20
0.0
 30
0.0
  3
*U43
  1

  0
TEXT
  5
10AC
  8
0
  6
CONTINUOUS
 62
     7
 10
121.326842
 20
-107.127151
 30
0.0
 40
2.5
  1
TITLE
 41
0.7759999999999999
  0
ENDBLK
  5
10AE
  8
0
  0
BLOCK
  8
0
  2
*U45
 70
     1
 10
0.0
 20
0.0
 30
0.0
  3
*U45
  1

  0
TEXT
  5
10B4
  8
0
  6
CONTINUOUS
 62
     7
 10
120.509985
 20
-132.3810463333333
 30
0.0
 40
2.3397109999999981
  1
DWG
 41
0.821
  0
TEXT
  5
10B5
  8
0
  6
CONTINUOUS
 62
     7
 10
120.509985
 20
-136.28056466666661
 30
0.0
 40
2.3397109999999981
  1
NéÅ.
 41
0.821
  0
ENDBLK
  5
10B7
  8
0
  0
BLOCK
  8
0
  2
*D58
 70
     1
 10
0.0
 20
0.0
 30
0.0
  3
*D58
  1

  0
LINE
  5
1C2E
  8
0
 62
     0
 10
-184.63544382578939
 20
67.508327022194081
 30
0.0
 11
-184.63544382578939
 21
72.530082817691564
 31
0.0
  0
LINE
  5
1C2F
  8
0
 62
     0
 10
-211.83544382578941
 20
67.508327022194081
 30
0.0
 11
-211.83544382578941
 21
72.530082817691564
 31
0.0
  0
LINE
  5
1C30
  8
0
 62
     0
 10
-187.5354438257894
 20
71.330082770007849
 30
0.0
 11
-208.93544382578941
 21
71.330082770007849
 31
0.0
  0
SOLID
  5
1C31
  8
0
 62
     0
 10
-187.5354438257894
 20
71.813416103341183
 30
0.0
 11
-187.5354438257894
 21
70.846749436674514
 31
0.0
 12
-184.63544382578939
 22
71.330082770007849
 32
0.0
 13
-184.63544382578939
 23
71.330082770007849
 33
0.0
  0
SOLID
  5
1C32
  8
0
 62
     0
 10
-208.93544382578941
 20
71.813416103341183
 30
0.0
 11
-208.93544382578941
 21
70.846749436674514
 31
0.0
 12
-211.83544382578941
 22
71.330082770007849
 32
0.0
 13
-211.83544382578941
 23
71.330082770007849
 33
0.0
  0
INSERT
  5
1C33
  8
0
  6
CONTINUOUS
  2
*U121
 10
0.0
 20
0.0
 30
0.0
  0
POINT
  5
1C34
  8
DEFPOINTS
 62
     0
 10
-184.63544382578939
 20
66.238327041267567
 30
0.0
  0
POINT
  5
1C35
  8
DEFPOINTS
 62
     0
 10
-211.83544382578941
 20
66.238327041267567
 30
0.0
  0
POINT
  5
1C36
  8
DEFPOINTS
 62
     0
 10
-211.83544382578941
 20
71.330082770007849
 30
0.0
  0
ENDBLK
  5
1B23
  8
0
  0
BLOCK
  8
0
  2
*D59
 70
     1
 10
0.0
 20
0.0
 30
0.0
  3
*D59
  1

  0
LINE
  5
1C13
  8
0
 62
     0
 10
-213.23544382578939
 20
95.508327975868397
 30
0.0
 11
-213.23544382578939
 21
115.50952717726329
 31
0.0
  0
LINE
  5
1C14
  8
0
 62
     0
 10
-183.2354285670003
 20
95.508327975868397
 30
0.0
 11
-183.2354285670003
 21
115.50952717726329
 31
0.0
  0
LINE
  5
1C15
  8
0
 62
     0
 10
-210.33544382578941
 20
114.30952712957961
 30
0.0
 11
-186.1354285670003
 21
114.30952712957961
 31
0.0
  0
INSERT
  5
1C16
  8
0
  6
CONTINUOUS
  2
*U118
 10
0.0
 20
0.0
 30
0.0
  0
SOLID
  5
1C17
  8
0
 62
     0
 10
-210.33544382578941
 20
114.7928604629129
 30
0.0
 11
-210.33544382578941
 21
113.8261937962462
 31
0.0
 12
-213.23544382578939
 22
114.30952712957961
 32
0.0
 13
-213.23544382578939
 23
114.30952712957961
 33
0.0
  0
SOLID
  5
1C18
  8
0
 62
     0
 10
-186.1354285670003
 20
114.7928604629129
 30
0.0
 11
-186.1354285670003
 21
113.8261937962462
 31
0.0
 12
-183.2354285670003
 22
114.30952712957961
 32
0.0
 13
-183.2354285670003
 23
114.30952712957961
 33
0.0
  0
POINT
  5
1C19
  8
DEFPOINTS
 62
     0
 10
-213.23544382578939
 20
94.238327994941884
 30
0.0
  0
POINT
  5
1C1A
  8
DEFPOINTS
 62
     0
 10
-183.2354285670003
 20
94.238327994941884
 30
0.0
  0
POINT
  5
1C1B
  8
DEFPOINTS
 62
     0
 10
-183.2354285670003
 20
114.30952712957961
 30
0.0
  0
ENDBLK
  5
1B35
  8
0
  0
BLOCK
  8
0
  2
*D60
 70
     1
 10
0.0
 20
0.0
 30
0.0
  3
*D60
  1

  0
LINE
  5
1C1C
  8
0
 62
     0
 10
-181.96542858607381
 20
94.238327994941884
 30
0.0
 11
-165.10222467951209
 21
94.238327994941884
 31
0.0
  0
LINE
  5
1C1D
  8
0
 62
     0
 10
-183.36544384486291
 20
59.23832704126756
 30
0.0
 11
-165.10222467951209
 21
59.238327041267553
 31
0.0
  0
LINE
  5
1C1E
  8
0
 62
     0
 10
-166.30222472719581
 20
91.338327994941878
 30
0.0
 11
-166.30222472719581
 21
62.138327041267559
 31
0.0
  0
SOLID
  5
1C1F
  8
0
 62
     0
 10
-166.7855580605291
 20
91.338327994941878
 30
0.0
 11
-165.81889139386249
 21
91.338327994941878
 31
0.0
 12
-166.30222472719581
 22
94.238327994941884
 32
0.0
 13
-166.30222472719581
 23
94.238327994941884
 33
0.0
  0
SOLID
  5
1C20
  8
0
 62
     0
 10
-166.7855580605291
 20
62.138327041267559
 30
0.0
 11
-165.81889139386249
 21
62.138327041267559
 31
0.0
 12
-166.30222472719581
 22
59.238327041267553
 32
0.0
 13
-166.30222472719581
 23
59.238327041267553
 33
0.0
  0
INSERT
  5
1C21
  8
0
  6
CONTINUOUS
  2
*U119
 10
0.0
 20
0.0
 30
0.0
  0
POINT
  5
1C22
  8
DEFPOINTS
 62
     0
 10
-183.2354285670003
 20
94.238327994941884
 30
0.0
  0
POINT
  5
1C23
  8
DEFPOINTS
 62
     0
 10
-184.63544382578939
 20
59.23832704126756
 30
0.0
  0
POINT
  5
1C24
  8
DEFPOINTS
 62
     0
 10
-166.30222472719581
 20
59.238327041267553
 30
0.0
  0
ENDBLK
  5
1B42
  8
0
  0
BLOCK
  8
0
  2
*D61
 70
     1
 10
0.0
 20
0.0
 30
0.0
  3
*D61
  1

  0
LINE
  5
1C25
  8
0
 62
     0
 10
-181.96542858607381
 20
94.238327994941884
 30
0.0
 11
-155.10222467951181
 21
94.238327994941869
 31
0.0
  0
LINE
  5
1C26
  8
0
 62
     0
 10
-190.16537316733201
 20
34.038221024964869
 30
0.0
 11
-155.10222467951189
 21
34.038221024964862
 31
0.0
  0
LINE
  5
1C27
  8
0
 62
     0
 10
-156.30222472719561
 20
91.338327994941864
 30
0.0
 11
-156.30222472719561
 21
36.938221024964861
 31
0.0
  0
SOLID
  5
1C28
  8
0
 62
     0
 10
-156.7855580605289
 20
91.338327994941864
 30
0.0
 11
-155.8188913938622
 21
91.338327994941864
 31
0.0
 12
-156.30222472719561
 22
94.238327994941869
 32
0.0
 13
-156.30222472719561
 23
94.238327994941869
 33
0.0
  0
SOLID
  5
1C29
  8
0
 62
     0
 10
-156.7855580605289
 20
36.938221024964861
 30
0.0
 11
-155.81889139386229
 21
36.938221024964861
 31
0.0
 12
-156.30222472719561
 22
34.038221024964862
 32
0.0
 13
-156.30222472719561
 23
34.038221024964862
 33
0.0
  0
INSERT
  5
1C2A
  8
0
  6
CONTINUOUS
  2
*U120
 10
0.0
 20
0.0
 30
0.0
  0
POINT
  5
1C2B
  8
DEFPOINTS
 62
     0
 10
-183.2354285670003
 20
94.238327994941884
 30
0.0
  0
POINT
  5
1C2C
  8
DEFPOINTS
 62
     0
 10
-191.43537314825849
 20
34.038221024964869
 30
0.0
  0
POINT
  5
1C2D
  8
DEFPOINTS
 62
     0
 10
-156.30222472719561
 20
34.038221024964862
 30
0.0
  0
ENDBLK
  5
1B4E
  8
0
  0
BLOCK
  8
0
  2
*D63
 70
     1
 10
0.0
 20
0.0
 30
0.0
  3
*D63
  1

  0
LINE
  5
1C43
  8
DIMENSION
 62
     0
 10
120.1609918044105
 20
268.01989033594202
 30
0.0
 11
120.1609918044105
 21
273.04164613143951
 31
0.0
  0
LINE
  5
1C44
  8
DIMENSION
 62
     0
 10
92.960991804410597
 20
268.01989033594202
 30
0.0
 11
92.960991804410597
 21
273.04164613143951
 31
0.0
  0
LINE
  5
1C45
  8
DIMENSION
 62
     0
 10
117.26099180441049
 20
271.84164608375568
 30
0.0
 11
95.860991804410574
 21
271.84164608375568
 31
0.0
  0
INSERT
  5
1C46
  8
DIMENSION
 62
     0
  2
_OPEN30
 10
120.1609918044105
 20
271.84164608375568
 30
0.0
 41
2.8999999999999999
 42
2.8999999999999999
 43
2.8999999999999999
  0
INSERT
  5
1C47
  8
DIMENSION
 62
     0
  2
_OPEN30
 10
92.960991804410597
 20
271.84164608375568
 30
0.0
 41
2.8999999999999999
 42
2.8999999999999999
 43
2.8999999999999999
 50
180.0
  0
INSERT
  5
1C48
  8
0
  6
CONTINUOUS
  2
*U124
 10
0.0
 20
0.0
 30
0.0
  0
POINT
  5
1C49
  8
DEFPOINTS
 62
     0
 10
120.1609918044105
 20
266.7498903550154
 30
0.0
  0
POINT
  5
1C4A
  8
DEFPOINTS
 62
     0
 10
92.960991804410597
 20
266.7498903550154
 30
0.0
  0
POINT
  5
1C4B
  8
DEFPOINTS
 62
     0
 10
92.960991804410597
 20
271.84164608375568
 30
0.0
  0
ENDBLK
  5
1C4C
  8
0
  0
BLOCK
  8
0
  2
*D64
 70
     1
 10
0.0
 20
0.0
 30
0.0
  3
*D64
  1

  0
LINE
  5
1C4F
  8
DIMENSION
 62
     0
 10
91.560991804410605
 20
296.01989128961628
 30
0.0
 11
91.560991804410605
 21
307.46126017290152
 31
0.0
  0
LINE
  5
1C50
  8
DIMENSION
 62
     0
 10
121.5610070631996
 20
296.01989128961628
 30
0.0
 11
121.5610070631996
 21
307.46126017290152
 31
0.0
  0
LINE
  5
1C51
  8
DIMENSION
 62
     0
 10
94.460991804410611
 20
306.2612601252178
 30
0.0
 11
118.66100706319961
 21
306.2612601252178
 31
0.0
  0
INSERT
  5
1C52
  8
DIMENSION
 62
     0
  2
_OPEN30
 10
91.560991804410605
 20
306.2612601252178
 30
0.0
 41
2.8999999999999999
 42
2.8999999999999999
 43
2.8999999999999999
 50
180.0
  0
INSERT
  5
1C53
  8
DIMENSION
 62
     0
  2
_OPEN30
 10
121.5610070631996
 20
306.2612601252178
 30
0.0
 41
2.8999999999999999
 42
2.8999999999999999
 43
2.8999999999999999
  0
INSERT
  5
1C54
  8
0
  6
CONTINUOUS
  2
*U125
 10
0.0
 20
0.0
 30
0.0
  0
POINT
  5
1C55
  8
DEFPOINTS
 62
     0
 10
91.560991804410605
 20
294.74989130868983
 30
0.0
  0
POINT
  5
1C56
  8
DEFPOINTS
 62
     0
 10
121.5610070631996
 20
294.74989130868983
 30
0.0
  0
POINT
  5
1C57
  8
DEFPOINTS
 62
     0
 10
121.5610070631996
 20
306.2612601252178
 30
0.0
  0
ENDBLK
  5
1C58
  8
0
  0
BLOCK
  8
0
  2
*D65
 70
     1
 10
0.0
 20
0.0
 30
0.0
  3
*D65
  1

  0
LINE
  5
1C5B
  8
DIMENSION
 62
     0
 10
122.8310070441262
 20
294.74989130868983
 30
0.0
 11
139.6942109506879
 21
294.74989130868971
 31
0.0
  0
LINE
  5
1C5C
  8
DIMENSION
 62
     0
 10
121.4309917853371
 20
259.74989035501551
 30
0.0
 11
139.6942109506879
 21
259.7498903550154
 31
0.0
  0
LINE
  5
1C5D
  8
DIMENSION
 62
     0
 10
138.4942109030041
 20
291.84989130868968
 30
0.0
 11
138.4942109030041
 21
262.64989035501537
 31
0.0
  0
INSERT
  5
1C5E
  8
DIMENSION
 62
     0
  2
_OPEN30
 10
138.4942109030041
 20
294.74989130868971
 30
0.0
 41
2.8999999999999999
 42
2.8999999999999999
 43
2.8999999999999999
 50
90.0
  0
INSERT
  5
1C5F
  8
DIMENSION
 62
     0
  2
_OPEN30
 10
138.4942109030041
 20
259.7498903550154
 30
0.0
 41
2.8999999999999999
 42
2.8999999999999999
 43
2.8999999999999999
 50
270.0
  0
INSERT
  5
1C60
  8
0
  6
CONTINUOUS
  2
*U126
 10
0.0
 20
0.0
 30
0.0
  0
POINT
  5
1C61
  8
DEFPOINTS
 62
     0
 10
121.5610070631996
 20
294.74989130868983
 30
0.0
  0
POINT
  5
1C62
  8
DEFPOINTS
 62
     0
 10
120.1609918044105
 20
259.74989035501551
 30
0.0
  0
POINT
  5
1C63
  8
DEFPOINTS
 62
     0
 10
138.4942109030041
 20
259.7498903550154
 30
0.0
  0
ENDBLK
  5
1C64
  8
0
  0
BLOCK
  8
0
  2
*D66
 70
     1
 10
0.0
 20
0.0
 30
0.0
  3
*D66
  1

  0
LINE
  5
1C67
  8
DIMENSION
 62
     0
 10
122.8310070441262
 20
294.74989130868983
 30
0.0
 11
159.67588851776571
 21
294.74989130868971
 31
0.0
  0
LINE
  5
1C68
  8
DIMENSION
 62
     0
 10
114.6310624628679
 20
234.54978433871281
 30
0.0
 11
159.67588851776571
 21
234.54978433871281
 31
0.0
  0
LINE
  5
1C69
  8
DIMENSION
 62
     0
 10
158.475888470082
 20
291.84989130868968
 30
0.0
 11
158.475888470082
 21
237.4497843387127
 31
0.0
  0
INSERT
  5
1C6A
  8
DIMENSION
 62
     0
  2
_OPEN30
 10
158.475888470082
 20
294.74989130868971
 30
0.0
 41
2.8999999999999999
 42
2.8999999999999999
 43
2.8999999999999999
 50
90.0
  0
INSERT
  5
1C6B
  8
DIMENSION
 62
     0
  2
_OPEN30
 10
158.475888470082
 20
234.54978433871281
 30
0.0
 41
2.8999999999999999
 42
2.8999999999999999
 43
2.8999999999999999
 50
270.0
  0
INSERT
  5
1C6C
  8
0
  6
CONTINUOUS
  2
*U127
 10
0.0
 20
0.0
 30
0.0
  0
POINT
  5
1C6D
  8
DEFPOINTS
 62
     0
 10
121.5610070631996
 20
294.74989130868983
 30
0.0
  0
POINT
  5
1C6E
  8
DEFPOINTS
 62
     0
 10
113.3610624819414
 20
234.54978433871281
 30
0.0
  0
POINT
  5
1C6F
  8
DEFPOINTS
 62
     0
 10
158.475888470082
 20
234.54978433871281
 30
0.0
  0
ENDBLK
  5
1C70
  8
0
  0
BLOCK
  8
0
  2
*D67
 70
     1
 10
0.0
 20
0.0
 30
0.0
  3
*D67
  1

  0
LINE
  5
1C73
  8
DIMENSION
 62
     0
 10
122.8310070441262
 20
294.74989130868983
 30
0.0
 11
148.08719159132841
 21
294.74989130868971
 31
0.0
  0
LINE
  5
1C74
  8
DIMENSION
 62
     0
 10
120.3309917853371
 20
244.74989035501551
 30
0.0
 11
148.08719159132841
 21
244.74989035501551
 31
0.0
  0
LINE
  5
1C75
  8
DIMENSION
 62
     0
 10
146.88719154364469
 20
291.84989130868968
 30
0.0
 11
146.88719154364469
 21
247.64989035501549
 31
0.0
  0
INSERT
  5
1C76
  8
DIMENSION
 62
     0
  2
_OPEN30
 10
146.88719154364469
 20
294.74989130868971
 30
0.0
 41
2.8999999999999999
 42
2.8999999999999999
 43
2.8999999999999999
 50
90.0
  0
INSERT
  5
1C77
  8
DIMENSION
 62
     0
  2
_OPEN30
 10
146.88719154364469
 20
244.74989035501551
 30
0.0
 41
2.8999999999999999
 42
2.8999999999999999
 43
2.8999999999999999
 50
270.0
  0
INSERT
  5
1C78
  8
0
  6
CONTINUOUS
  2
*U128
 10
0.0
 20
0.0
 30
0.0
  0
POINT
  5
1C79
  8
DEFPOINTS
 62
     0
 10
121.5610070631996
 20
294.74989130868983
 30
0.0
  0
POINT
  5
1C7A
  8
DEFPOINTS
 62
     0
 10
119.06099180441061
 20
244.74989035501551
 30
0.0
  0
POINT
  5
1C7B
  8
DEFPOINTS
 62
     0
 10
146.88719154364469
 20
244.74989035501551
 30
0.0
  0
ENDBLK
  5
1C7C
  8
0
  0
BLOCK
  8
0
  2
*D69
 70
     1
 10
0.0
 20
0.0
 30
0.0
  3
*D69
  1

  0
LINE
  5
1DB7
  8
DIMENSION
 62
     0
 10
-213.23544382578939
 20
91.553947517826387
 30
0.0
 11
-213.23544382578939
 21
102.99531640111159
 31
0.0
  0
LINE
  5
1DB8
  8
DIMENSION
 62
     0
 10
-183.2354285670003
 20
91.553947517826387
 30
0.0
 11
-183.2354285670003
 21
102.99531640111159
 31
0.0
  0
LINE
  5
1DB9
  8
DIMENSION
 62
     0
 10
-210.33544382578941
 20
101.79531635342791
 30
0.0
 11
-206.90210286306149
 21
101.79531635342791
 31
0.0
  0
LINE
  5
1DBA
  8
DIMENSION
 62
     0
 10
-186.1354285670003
 20
101.79531635342791
 30
0.0
 11
-189.5687695297282
 21
101.79531635342791
 31
0.0
  0
INSERT
  5
1DBB
  8
0
  6
CONTINUOUS
  2
*U131
 10
0.0
 20
0.0
 30
0.0
  0
SOLID
  5
1DBC
  8
DIMENSION
 62
     0
 10
-210.33544382578941
 20
102.2786496867612
 30
0.0
 11
-210.33544382578941
 21
101.3119830200945
 31
0.0
 12
-213.23544382578939
 22
101.79531635342791
 32
0.0
 13
-213.23544382578939
 23
101.79531635342791
 33
0.0
  0
SOLID
  5
1DBD
  8
DIMENSION
 62
     0
 10
-186.1354285670003
 20
102.2786496867612
 30
0.0
 11
-186.1354285670003
 21
101.3119830200945
 31
0.0
 12
-183.2354285670003
 22
101.79531635342791
 32
0.0
 13
-183.2354285670003
 23
101.79531635342791
 33
0.0
  0
POINT
  5
1DBE
  8
DEFPOINTS
 62
     0
 10
-213.23544382578939
 20
90.283947536899873
 30
0.0
  0
POINT
  5
1DBF
  8
DEFPOINTS
 62
     0
 10
-183.2354285670003
 20
90.283947536899873
 30
0.0
  0
POINT
  5
1DC0
  8
DEFPOINTS
 62
     0
 10
-183.2354285670003
 20
101.79531635342791
 30
0.0
  0
ENDBLK
  5
1D24
  8
0
  0
BLOCK
  8
0
  2
*D70
 70
     1
 10
0.0
 20
0.0
 30
0.0
  3
*D70
  1

  0
LINE
  5
1DC1
  8
DIMENSION
 62
     0
 10
-181.96542858607381
 20
90.283947536899873
 30
0.0
 11
-165.10222467951209
 21
90.283947536899873
 31
0.0
  0
LINE
  5
1DC2
  8
DIMENSION
 62
     0
 10
-183.36544384486291
 20
55.283946583225557
 30
0.0
 11
-165.10222467951209
 21
55.28394658322555
 31
0.0
  0
LINE
  5
1DC3
  8
DIMENSION
 62
     0
 10
-166.30222472719581
 20
87.383947536899854
 30
0.0
 11
-166.30222472719581
 21
58.183946583225548
 31
0.0
  0
SOLID
  5
1DC4
  8
DIMENSION
 62
     0
 10
-166.7855580605291
 20
87.383947536899854
 30
0.0
 11
-165.81889139386249
 21
87.383947536899854
 31
0.0
 12
-166.30222472719581
 22
90.283947536899873
 32
0.0
 13
-166.30222472719581
 23
90.283947536899873
 33
0.0
  0
SOLID
  5
1DC5
  8
DIMENSION
 62
     0
 10
-166.7855580605291
 20
58.183946583225548
 30
0.0
 11
-165.81889139386249
 21
58.183946583225548
 31
0.0
 12
-166.30222472719581
 22
55.28394658322555
 32
0.0
 13
-166.30222472719581
 23
55.28394658322555
 33
0.0
  0
INSERT
  5
1DC6
  8
0
  6
CONTINUOUS
  2
*U132
 10
0.0
 20
0.0
 30
0.0
  0
POINT
  5
1DC7
  8
DEFPOINTS
 62
     0
 10
-183.2354285670003
 20
90.283947536899873
 30
0.0
  0
POINT
  5
1DC8
  8
DEFPOINTS
 62
     0
 10
-184.63544382578939
 20
55.283946583225557
 30
0.0
  0
POINT
  5
1DC9
  8
DEFPOINTS
 62
     0
 10
-166.30222472719581
 20
55.28394658322555
 30
0.0
  0
ENDBLK
  5
1D31
  8
0
  0
BLOCK
  8
0
  2
*D71
 70
     1
 10
0.0
 20
0.0
 30
0.0
  3
*D71
  1

  0
LINE
  5
1DCA
  8
DIMENSION
 62
     0
 10
-181.96542858607381
 20
90.283947536899873
 30
0.0
 11
-145.1205471124342
 21
90.283947536899845
 31
0.0
  0
LINE
  5
1DCB
  8
DIMENSION
 62
     0
 10
-190.16537316733201
 20
30.083840566922859
 30
0.0
 11
-145.12054711243431
 21
30.083840566922849
 31
0.0
  0
LINE
  5
1DCC
  8
DIMENSION
 62
     0
 10
-146.320547160118
 20
87.383947536899854
 30
0.0
 11
-146.320547160118
 21
69.51722738524478
 31
0.0
  0
LINE
  5
1DCD
  8
DIMENSION
 62
     0
 10
-146.320547160118
 20
32.983840566922851
 30
0.0
 11
-146.320547160118
 21
50.850560718578109
 31
0.0
  0
INSERT
  5
1DCE
  8
0
  6
CONTINUOUS
  2
*U133
 10
0.0
 20
0.0
 30
0.0
  0
SOLID
  5
1DCF
  8
DIMENSION
 62
     0
 10
-146.80388049345129
 20
87.383947536899854
 30
0.0
 11
-145.83721382678459
 21
87.383947536899854
 31
0.0
 12
-146.320547160118
 22
90.283947536899845
 32
0.0
 13
-146.320547160118
 23
90.283947536899845
 33
0.0
  0
SOLID
  5
1DD0
  8
DIMENSION
 62
     0
 10
-146.80388049345129
 20
32.983840566922851
 30
0.0
 11
-145.8372138267847
 21
32.983840566922851
 31
0.0
 12
-146.320547160118
 22
30.083840566922849
 32
0.0
 13
-146.320547160118
 23
30.083840566922849
 33
0.0
  0
POINT
  5
1DD1
  8
DEFPOINTS
 62
     0
 10
-183.2354285670003
 20
90.283947536899873
 30
0.0
  0
POINT
  5
1DD2
  8
DEFPOINTS
 62
     0
 10
-191.43537314825849
 20
30.083840566922859
 30
0.0
  0
POINT
  5
1DD3
  8
DEFPOINTS
 62
     0
 10
-146.320547160118
 20
30.083840566922849
 30
0.0
  0
ENDBLK
  5
1D3D
  8
0
  0
BLOCK
  8
0
  2
*D72
 70
     1
 10
0.0
 20
0.0
 30
0.0
  3
*D72
  1

  0
LINE
  5
2276
  8
DIMENSION
 62
     0
 10
-184.63544382578939
 20
63.553946564152071
 30
0.0
 11
-184.63544382578939
 21
68.575702359649554
 31
0.0
  0
LINE
  5
2277
  8
DIMENSION
 62
     0
 10
-211.83544382578941
 20
63.553946564152071
 30
0.0
 11
-211.83544382578941
 21
68.575702359649554
 31
0.0
  0
LINE
  5
2278
  8
DIMENSION
 62
     0
 10
-187.5354438257894
 20
67.375702311965838
 30
0.0
 11
-208.93544382578941
 21
67.375702311965838
 31
0.0
  0
SOLID
  5
2279
  8
DIMENSION
 62
     0
 10
-187.5354438257894
 20
67.859035645299173
 30
0.0
 11
-187.5354438257894
 21
66.892368978632504
 31
0.0
 12
-184.63544382578939
 22
67.375702311965838
 32
0.0
 13
-184.63544382578939
 23
67.375702311965838
 33
0.0
  0
SOLID
  5
227A
  8
DIMENSION
 62
     0
 10
-208.93544382578941
 20
67.859035645299173
 30
0.0
 11
-208.93544382578941
 21
66.892368978632504
 31
0.0
 12
-211.83544382578941
 22
67.375702311965838
 32
0.0
 13
-211.83544382578941
 23
67.375702311965838
 33
0.0
  0
INSERT
  5
227B
  8
0
  6
CONTINUOUS
  2
*U160
 10
0.0
 20
0.0
 30
0.0
  0
POINT
  5
227C
  8
DEFPOINTS
 62
     0
 10
-184.63544382578939
 20
62.283946583225557
 30
0.0
  0
POINT
  5
227D
  8
DEFPOINTS
 62
     0
 10
-211.83544382578941
 20
62.283946583225557
 30
0.0
  0
POINT
  5
227E
  8
DEFPOINTS
 62
     0
 10
-211.83544382578941
 20
67.375702311965838
 30
0.0
  0
ENDBLK
  5
1D4A
  8
0
  0
BLOCK
  8
0
  2
*D73
 70
     1
 10
0.0
 20
0.0
 30
0.0
  3
*D73
  1

  0
LINE
  5
1DDD
  8
DIMENSION
 62
     0
 10
-181.96542858607381
 20
90.283947536899873
 30
0.0
 11
-156.7092440388715
 21
90.283947536899845
 31
0.0
  0
LINE
  5
1DDE
  8
DIMENSION
 62
     0
 10
-184.46544384486279
 20
40.283946583225557
 30
0.0
 11
-156.70924403887159
 21
40.28394658322555
 31
0.0
  0
LINE
  5
1DDF
  8
DIMENSION
 62
     0
 10
-157.9092440865553
 20
87.383947536899854
 30
0.0
 11
-157.9092440865553
 21
43.183946583225548
 31
0.0
  0
SOLID
  5
1DE0
  8
DIMENSION
 62
     0
 10
-158.3925774198886
 20
87.383947536899854
 30
0.0
 11
-157.4259107532219
 21
87.383947536899854
 31
0.0
 12
-157.9092440865553
 22
90.283947536899845
 32
0.0
 13
-157.9092440865553
 23
90.283947536899845
 33
0.0
  0
SOLID
  5
1DE1
  8
DIMENSION
 62
     0
 10
-158.3925774198886
 20
43.183946583225548
 30
0.0
 11
-157.42591075322201
 21
43.183946583225548
 31
0.0
 12
-157.9092440865553
 22
40.28394658322555
 32
0.0
 13
-157.9092440865553
 23
40.28394658322555
 33
0.0
  0
INSERT
  5
1DE2
  8
0
  6
CONTINUOUS
  2
*U134
 10
0.0
 20
0.0
 30
0.0
  0
POINT
  5
1DE3
  8
DEFPOINTS
 62
     0
 10
-183.2354285670003
 20
90.283947536899873
 30
0.0
  0
POINT
  5
1DE4
  8
DEFPOINTS
 62
     0
 10
-185.73544382578939
 20
40.283946583225557
 30
0.0
  0
POINT
  5
1DE5
  8
DEFPOINTS
 62
     0
 10
-157.9092440865553
 20
40.28394658322555
 30
0.0
  0
ENDBLK
  5
1D7C
  8
0
  0
BLOCK
  8
0
  2
*D74
 70
     1
 10
0.0
 20
0.0
 30
0.0
  3
*D74
  1

  0
LINE
  5
2395
  8
AM_5
 62
     0
 10
-181.96542856700029
 20
90.283947536899817
 30
0.0
 11
-168.53689090928839
 21
90.283947536899817
 31
0.0
  0
LINE
  5
2396
  8
AM_5
 62
     0
 10
-183.36544382578941
 20
55.283946583225557
 30
0.0
 11
-168.53689090928839
 21
55.28394658322555
 31
0.0
  0
LINE
  5
2397
  8
AM_5
 62
     0
 10
-169.73689090928841
 20
87.783947536899817
 30
0.0
 11
-169.73689090928841
 21
57.78394658322555
 31
0.0
  0
SOLID
  5
2398
  8
AM_5
 62
     0
 10
-170.15355757595501
 20
87.783947536899817
 30
0.0
 11
-169.32022424262169
 21
87.783947536899817
 31
0.0
 12
-169.73689090928841
 22
90.283947536899817
 32
0.0
 13
-169.73689090928841
 23
90.283947536899817
 33
0.0
  0
SOLID
  5
2399
  8
AM_5
 62
     0
 10
-170.15355757595501
 20
57.78394658322555
 30
0.0
 11
-169.32022424262169
 21
57.78394658322555
 31
0.0
 12
-169.73689090928841
 22
55.28394658322555
 32
0.0
 13
-169.73689090928841
 23
55.28394658322555
 33
0.0
  0
TEXT
  8
AM_5
  40
4.167
  5
2453
  62
0
  72
0
  71
0
 10
-181.154
 20
65.4084
 30
0.000000
  1
(35)
  0
POINT
  5
239B
  8
DEFPOINTS
 62
     0
 10
-183.2354285670003
 20
90.283947536899817
 30
0.0
  0
POINT
  5
239C
  8
DEFPOINTS
 62
     0
 10
-184.63544382578939
 20
55.283946583225557
 30
0.0
  0
POINT
  5
239D
  8
DEFPOINTS
 62
     0
 10
-169.73689090928841
 20
55.28394658322555
 30
0.0
  0
ENDBLK
  5
1DE9
  8
0
  0
BLOCK
  8
0
  2
*D75
 70
     1
 10
0.0
 20
0.0
 30
0.0
  3
*D75
  1

  0
LINE
  5
239E
  8
AM_5
 62
     0
 10
-181.96542856700029
 20
90.283947536899817
 30
0.0
 11
-157.47640995004639
 21
90.283947536899802
 31
0.0
  0
LINE
  5
239F
  8
AM_5
 62
     0
 10
-184.46544382578941
 20
40.283946583225557
 30
0.0
 11
-157.4764099500465
 21
40.28394658322555
 31
0.0
  0
LINE
  5
23A0
  8
AM_5
 62
     0
 10
-158.67640995004641
 20
87.783947536899802
 30
0.0
 11
-158.67640995004649
 21
42.78394658322555
 31
0.0
  0
SOLID
  5
23A1
  8
AM_5
 62
     0
 10
-159.09307661671309
 20
87.783947536899802
 30
0.0
 11
-158.25974328337981
 21
87.783947536899802
 31
0.0
 12
-158.67640995004641
 22
90.283947536899802
 32
0.0
 13
-158.67640995004641
 23
90.283947536899802
 33
0.0
  0
SOLID
  5
23A2
  8
AM_5
 62
     0
 10
-159.09307661671309
 20
42.78394658322555
 30
0.0
 11
-158.25974328337981
 21
42.78394658322555
 31
0.0
 12
-158.67640995004649
 22
40.28394658322555
 32
0.0
 13
-158.67640995004649
 23
40.28394658322555
 33
0.0
  0
TEXT
  8
AM_5
  40
4.167
  5
2454
  62
0
  72
0
  71
0
 10
-170.094
 20
57.9084
 30
0.000000
  1
(50)
  0
POINT
  5
23A4
  8
DEFPOINTS
 62
     0
 10
-183.2354285670003
 20
90.283947536899817
 30
0.0
  0
POINT
  5
23A5
  8
DEFPOINTS
 62
     0
 10
-185.73544382578939
 20
40.283946583225557
 30
0.0
  0
POINT
  5
23A6
  8
DEFPOINTS
 62
     0
 10
-158.67640995004649
 20
40.28394658322555
 30
0.0
  0
ENDBLK
  5
1E1A
  8
0
  0
BLOCK
  8
0
  2
*D76
 70
     1
 10
0.0
 20
0.0
 30
0.0
  3
*D76
  1

  0
LINE
  5
23A7
  8
AM_5
 62
     0
 10
-181.96542856700029
 20
90.283947536899817
 30
0.0
 11
-146.85261429514031
 21
90.283947536899802
 31
0.0
  0
LINE
  5
23A8
  8
AM_5
 62
     0
 10
-190.1653731482586
 20
30.083946583225512
 30
0.0
 11
-146.85261429514031
 21
30.08394658322549
 31
0.0
  0
LINE
  5
23A9
  8
AM_5
 62
     0
 10
-148.05261429514019
 20
87.783947536899802
 30
0.0
 11
-148.0526142951403
 21
32.58394658322549
 31
0.0
  0
SOLID
  5
23AA
  8
AM_5
 62
     0
 10
-148.4692809618069
 20
87.783947536899802
 30
0.0
 11
-147.63594762847359
 21
87.783947536899802
 31
0.0
 12
-148.05261429514019
 22
90.283947536899802
 32
0.0
 13
-148.05261429514019
 23
90.283947536899802
 33
0.0
  0
SOLID
  5
23AB
  8
AM_5
 62
     0
 10
-148.4692809618069
 20
32.58394658322549
 30
0.0
 11
-147.63594762847359
 21
32.58394658322549
 31
0.0
 12
-148.0526142951403
 22
30.08394658322549
 32
0.0
 13
-148.0526142951403
 23
30.08394658322549
 33
0.0
  0
TEXT
  8
AM_5
  40
4.167
  5
2455
  62
0
  72
0
  71
0
 10
-159.470
 20
52.8084
 30
0.000000
  1
(60.2)
  0
POINT
  5
23AD
  8
DEFPOINTS
 62
     0
 10
-183.2354285670003
 20
90.283947536899817
 30
0.0
  0
POINT
  5
23AE
  8
DEFPOINTS
 62
     0
 10
-191.43537314825861
 20
30.083946583225512
 30
0.0
  0
POINT
  5
23AF
  8
DEFPOINTS
 62
     0
 10
-148.0526142951403
 20
30.08394658322549
 30
0.0
  0
ENDBLK
  5
1E39
  8
0
  0
BLOCK
  8
0
  2
*D77
 70
     1
 10
0.0
 20
0.0
 30
0.0
  3
*D77
  1

  0
LINE
  5
23B0
  8
AM_5
 62
     0
 10
-213.23544382578939
 20
91.553947536899798
 30
0.0
 11
-213.23544382578939
 21
102.3758115857416
 31
0.0
  0
LINE
  5
23B1
  8
AM_5
 62
     0
 10
-183.2354285670003
 20
91.553947536899798
 30
0.0
 11
-183.2354285670003
 21
102.3758115857416
 31
0.0
  0
LINE
  5
23B2
  8
AM_5
 62
     0
 10
-210.73544382578939
 20
101.1758115857416
 30
0.0
 11
-185.7354285670003
 21
101.1758115857416
 31
0.0
  0
SOLID
  5
23B3
  8
AM_5
 62
     0
 10
-210.73544382578939
 20
101.5924782524082
 30
0.0
 11
-210.73544382578939
 21
100.7591449190749
 31
0.0
 12
-213.23544382578939
 22
101.1758115857416
 32
0.0
 13
-213.23544382578939
 23
101.1758115857416
 33
0.0
  0
SOLID
  5
23B4
  8
AM_5
 62
     0
 10
-185.7354285670003
 20
101.5924782524082
 30
0.0
 11
-185.7354285670003
 21
100.7591449190749
 31
0.0
 12
-183.2354285670003
 22
101.1758115857416
 32
0.0
 13
-183.2354285670003
 23
101.1758115857416
 33
0.0
  0
TEXT
  8
AM_5
  40
4.167
  5
2456
  62
0
  72
0
  71
0
 10
-206.569
 20
96.8837
 30
0.000000
  1
(%%c30)
  0
POINT
  5
23B6
  8
DEFPOINTS
 62
     0
 10
-213.23544382578939
 20
90.283947536899817
 30
0.0
  0
POINT
  5
23B7
  8
DEFPOINTS
 62
     0
 10
-183.2354285670003
 20
90.283947536899817
 30
0.0
  0
POINT
  5
23B8
  8
DEFPOINTS
 62
     0
 10
-183.2354285670003
 20
101.1758115857416
 30
0.0
  0
ENDBLK
  5
1E58
  8
0
  0
BLOCK
  8
0
  2
*D78
 70
     1
 10
0.0
 20
0.0
 30
0.0
  3
*D78
  1

  0
LINE
  5
1E92
  8
DIMENSION
 62
     0
 10
156.48161536568441
 20
367.67889403909902
 30
0.0
 11
156.48161536568441
 21
372.7006498345965
 31
0.0
  0
LINE
  5
1E93
  8
DIMENSION
 62
     0
 10
129.28161536568439
 20
367.67889403909902
 30
0.0
 11
129.28161536568439
 21
372.7006498345965
 31
0.0
  0
LINE
  5
1E94
  8
DIMENSION
 62
     0
 10
153.5816153656844
 20
371.50064978691279
 30
0.0
 11
132.18161536568439
 21
371.50064978691279
 31
0.0
  0
INSERT
  5
1E95
  8
DIMENSION
 62
     0
  2
_OPEN30
 10
156.48161536568441
 20
371.50064978691279
 30
0.0
 41
2.8999999999999999
 42
2.8999999999999999
 43
2.8999999999999999
  0
INSERT
  5
1E96
  8
DIMENSION
 62
     0
  2
_OPEN30
 10
129.28161536568439
 20
371.50064978691279
 30
0.0
 41
2.8999999999999999
 42
2.8999999999999999
 43
2.8999999999999999
 50
180.0
  0
INSERT
  5
1E97
  8
0
  6
CONTINUOUS
  2
*U135
 10
0.0
 20
0.0
 30
0.0
  0
POINT
  5
1E98
  8
DEFPOINTS
 62
     0
 10
156.48161536568441
 20
366.40889405817251
 30
0.0
  0
POINT
  5
1E99
  8
DEFPOINTS
 62
     0
 10
129.28161536568439
 20
366.40889405817251
 30
0.0
  0
POINT
  5
1E9A
  8
DEFPOINTS
 62
     0
 10
129.28161536568439
 20
371.50064978691279
 30
0.0
  0
ENDBLK
  5
1E9B
  8
0
  0
BLOCK
  8
0
  2
*D79
 70
     1
 10
0.0
 20
0.0
 30
0.0
  3
*D79
  1

  0
LINE
  5
1E9E
  8
DIMENSION
 62
     0
 10
127.8816153656844
 20
395.67889499277328
 30
0.0
 11
127.8816153656844
 21
407.12026387605857
 31
0.0
  0
LINE
  5
1E9F
  8
DIMENSION
 62
     0
 10
157.88163062447339
 20
395.67889499277328
 30
0.0
 11
157.88163062447339
 21
407.12026387605857
 31
0.0
  0
LINE
  5
1EA0
  8
DIMENSION
 62
     0
 10
130.78161536568439
 20
405.9202638283748
 30
0.0
 11
154.9816306244735
 21
405.9202638283748
 31
0.0
  0
INSERT
  5
1EA1
  8
DIMENSION
 62
     0
  2
_OPEN30
 10
127.8816153656844
 20
405.9202638283748
 30
0.0
 41
2.8999999999999999
 42
2.8999999999999999
 43
2.8999999999999999
 50
180.0
  0
INSERT
  5
1EA2
  8
DIMENSION
 62
     0
  2
_OPEN30
 10
157.88163062447339
 20
405.9202638283748
 30
0.0
 41
2.8999999999999999
 42
2.8999999999999999
 43
2.8999999999999999
  0
INSERT
  5
1EA3
  8
0
  6
CONTINUOUS
  2
*U136
 10
0.0
 20
0.0
 30
0.0
  0
POINT
  5
1EA4
  8
DEFPOINTS
 62
     0
 10
127.8816153656844
 20
394.40889501184682
 30
0.0
  0
POINT
  5
1EA5
  8
DEFPOINTS
 62
     0
 10
157.88163062447339
 20
394.40889501184682
 30
0.0
  0
POINT
  5
1EA6
  8
DEFPOINTS
 62
     0
 10
157.88163062447339
 20
405.9202638283748
 30
0.0
  0
ENDBLK
  5
1EA7
  8
0
  0
BLOCK
  8
0
  2
*D80
 70
     1
 10
0.0
 20
0.0
 30
0.0
  3
*D80
  1

  0
LINE
  5
1EAA
  8
DIMENSION
 62
     0
 10
159.15163060539999
 20
394.40889501184682
 30
0.0
 11
176.01483451196171
 21
394.40889501184682
 31
0.0
  0
LINE
  5
1EAB
  8
DIMENSION
 62
     0
 10
157.75161534661089
 20
359.40889405817251
 30
0.0
 11
176.01483451196171
 21
359.40889405817251
 31
0.0
  0
LINE
  5
1EAC
  8
DIMENSION
 62
     0
 10
174.81483446427791
 20
391.5088950118469
 30
0.0
 11
174.81483446427791
 21
362.30889405817248
 31
0.0
  0
INSERT
  5
1EAD
  8
DIMENSION
 62
     0
  2
_OPEN30
 10
174.81483446427791
 20
394.40889501184682
 30
0.0
 41
2.8999999999999999
 42
2.8999999999999999
 43
2.8999999999999999
 50
90.0
  0
INSERT
  5
1EAE
  8
DIMENSION
 62
     0
  2
_OPEN30
 10
174.81483446427791
 20
359.40889405817251
 30
0.0
 41
2.8999999999999999
 42
2.8999999999999999
 43
2.8999999999999999
 50
270.0
  0
INSERT
  5
1EAF
  8
0
  6
CONTINUOUS
  2
*U137
 10
0.0
 20
0.0
 30
0.0
  0
POINT
  5
1EB0
  8
DEFPOINTS
 62
     0
 10
157.88163062447339
 20
394.40889501184682
 30
0.0
  0
POINT
  5
1EB1
  8
DEFPOINTS
 62
     0
 10
156.48161536568441
 20
359.40889405817251
 30
0.0
  0
POINT
  5
1EB2
  8
DEFPOINTS
 62
     0
 10
174.81483446427791
 20
359.40889405817251
 30
0.0
  0
ENDBLK
  5
1EB3
  8
0
  0
BLOCK
  8
0
  2
*D81
 70
     1
 10
0.0
 20
0.0
 30
0.0
  3
*D81
  1

  0
LINE
  5
1EB6
  8
DIMENSION
 62
     0
 10
159.15163060539999
 20
394.40889501184682
 30
0.0
 11
195.99651207903949
 21
394.40889501184682
 31
0.0
  0
LINE
  5
1EB7
  8
DIMENSION
 62
     0
 10
150.95168602414171
 20
334.20878804186981
 30
0.0
 11
195.99651207903949
 21
334.20878804186981
 31
0.0
  0
LINE
  5
1EB8
  8
DIMENSION
 62
     0
 10
194.7965120313558
 20
391.5088950118469
 30
0.0
 11
194.7965120313558
 21
337.10878804186979
 31
0.0
  0
INSERT
  5
1EB9
  8
DIMENSION
 62
     0
  2
_OPEN30
 10
194.7965120313558
 20
394.40889501184682
 30
0.0
 41
2.8999999999999999
 42
2.8999999999999999
 43
2.8999999999999999
 50
90.0
  0
INSERT
  5
1EBA
  8
DIMENSION
 62
     0
  2
_OPEN30
 10
194.7965120313558
 20
334.20878804186981
 30
0.0
 41
2.8999999999999999
 42
2.8999999999999999
 43
2.8999999999999999
 50
270.0
  0
INSERT
  5
1EBB
  8
0
  6
CONTINUOUS
  2
*U138
 10
0.0
 20
0.0
 30
0.0
  0
POINT
  5
1EBC
  8
DEFPOINTS
 62
     0
 10
157.88163062447339
 20
394.40889501184682
 30
0.0
  0
POINT
  5
1EBD
  8
DEFPOINTS
 62
     0
 10
149.68168604321519
 20
334.20878804186981
 30
0.0
  0
POINT
  5
1EBE
  8
DEFPOINTS
 62
     0
 10
194.7965120313558
 20
334.20878804186981
 30
0.0
  0
ENDBLK
  5
1EBF
  8
0
  0
BLOCK
  8
0
  2
*D82
 70
     1
 10
0.0
 20
0.0
 30
0.0
  3
*D82
  1

  0
LINE
  5
1EC2
  8
DIMENSION
 62
     0
 10
159.15163060539999
 20
394.40889501184682
 30
0.0
 11
184.40781515260221
 21
394.40889501184682
 31
0.0
  0
LINE
  5
1EC3
  8
DIMENSION
 62
     0
 10
156.6516153466109
 20
344.40889405817251
 30
0.0
 11
184.40781515260221
 21
344.40889405817251
 31
0.0
  0
LINE
  5
1EC4
  8
DIMENSION
 62
     0
 10
183.2078151049185
 20
391.5088950118469
 30
0.0
 11
183.2078151049185
 21
347.30889405817248
 31
0.0
  0
INSERT
  5
1EC5
  8
DIMENSION
 62
     0
  2
_OPEN30
 10
183.2078151049185
 20
394.40889501184682
 30
0.0
 41
2.8999999999999999
 42
2.8999999999999999
 43
2.8999999999999999
 50
90.0
  0
INSERT
  5
1EC6
  8
DIMENSION
 62
     0
  2
_OPEN30
 10
183.2078151049185
 20
344.40889405817251
 30
0.0
 41
2.8999999999999999
 42
2.8999999999999999
 43
2.8999999999999999
 50
270.0
  0
INSERT
  5
1EC7
  8
0
  6
CONTINUOUS
  2
*U139
 10
0.0
 20
0.0
 30
0.0
  0
POINT
  5
1EC8
  8
DEFPOINTS
 62
     0
 10
157.88163062447339
 20
394.40889501184682
 30
0.0
  0
POINT
  5
1EC9
  8
DEFPOINTS
 62
     0
 10
155.38161536568441
 20
344.40889405817251
 30
0.0
  0
POINT
  5
1ECA
  8
DEFPOINTS
 62
     0
 10
183.2078151049185
 20
344.40889405817251
 30
0.0
  0
ENDBLK
  5
1ECB
  8
0
  0
BLOCK
  8
0
  2
*D83
 70
     1
 10
0.0
 20
0.0
 30
0.0
  3
*D83
  1

  0
LINE
  5
1ECE
  8
DIMENSION
 62
     0
 10
263.32393628466792
 20
395.6788959464476
 30
0.0
 11
263.32393628466792
 21
407.12026482973278
 31
0.0
  0
LINE
  5
1ECF
  8
DIMENSION
 62
     0
 10
303.32393628466781
 20
395.6788959464476
 30
0.0
 11
303.32393628466781
 21
407.12026482973278
 31
0.0
  0
LINE
  5
1ED0
  8
DIMENSION
 62
     0
 10
266.22393628466779
 20
405.92026478204912
 30
0.0
 11
300.42393628466777
 21
405.92026478204912
 31
0.0
  0
INSERT
  5
1ED1
  8
DIMENSION
 62
     0
  2
_OPEN30
 10
263.32393628466792
 20
405.92026478204912
 30
0.0
 41
2.8999999999999999
 42
2.8999999999999999
 43
2.8999999999999999
 50
180.0
  0
INSERT
  5
1ED2
  8
DIMENSION
 62
     0
  2
_OPEN30
 10
303.32393628466781
 20
405.92026478204912
 30
0.0
 41
2.8999999999999999
 42
2.8999999999999999
 43
2.8999999999999999
  0
INSERT
  5
1ED3
  8
0
  6
CONTINUOUS
  2
*U140
 10
0.0
 20
0.0
 30
0.0
  0
POINT
  5
1ED4
  8
DEFPOINTS
 62
     0
 10
263.32393628466792
 20
394.40889596552108
 30
0.0
  0
POINT
  5
1ED5
  8
DEFPOINTS
 62
     0
 10
303.32393628466781
 20
394.40889596552108
 30
0.0
  0
POINT
  5
1ED6
  8
DEFPOINTS
 62
     0
 10
303.32393628466781
 20
405.92026478204912
 30
0.0
  0
ENDBLK
  5
1ED7
  8
0
  0
BLOCK
  8
0
  2
*D84
 70
     1
 10
0.0
 20
0.0
 30
0.0
  3
*D84
  1

  0
LINE
  5
1EDA
  8
DIMENSION
 62
     0
 10
299.59395152438327
 20
394.40889596552108
 30
0.0
 11
316.45715543094508
 21
394.40889596552108
 31
0.0
  0
LINE
  5
1EDB
  8
DIMENSION
 62
     0
 10
298.19393626559429
 20
359.40889501184682
 30
0.0
 11
316.45715543094502
 21
359.40889501184682
 31
0.0
  0
LINE
  5
1EDC
  8
DIMENSION
 62
     0
 10
315.25715538326142
 20
391.50889596552111
 30
0.0
 11
315.25715538326131
 21
362.30889501184669
 31
0.0
  0
INSERT
  5
1EDD
  8
DIMENSION
 62
     0
  2
_OPEN30
 10
315.25715538326142
 20
394.40889596552108
 30
0.0
 41
2.8999999999999999
 42
2.8999999999999999
 43
2.8999999999999999
 50
90.0
  0
INSERT
  5
1EDE
  8
DIMENSION
 62
     0
  2
_OPEN30
 10
315.25715538326131
 20
359.40889501184682
 30
0.0
 41
2.8999999999999999
 42
2.8999999999999999
 43
2.8999999999999999
 50
270.0
  0
INSERT
  5
1EDF
  8
0
  6
CONTINUOUS
  2
*U141
 10
0.0
 20
0.0
 30
0.0
  0
POINT
  5
1EE0
  8
DEFPOINTS
 62
     0
 10
298.32395154345681
 20
394.40889596552108
 30
0.0
  0
POINT
  5
1EE1
  8
DEFPOINTS
 62
     0
 10
296.92393628466777
 20
359.40889501184682
 30
0.0
  0
POINT
  5
1EE2
  8
DEFPOINTS
 62
     0
 10
315.25715538326131
 20
359.40889501184682
 30
0.0
  0
ENDBLK
  5
1EE3
  8
0
  0
BLOCK
  8
0
  2
*D85
 70
     1
 10
0.0
 20
0.0
 30
0.0
  3
*D85
  1

  0
LINE
  5
1EE6
  8
DIMENSION
 62
     0
 10
299.59395152438327
 20
394.40889596552108
 30
0.0
 11
336.43883299802292
 21
394.40889596552108
 31
0.0
  0
LINE
  5
1EE7
  8
DIMENSION
 62
     0
 10
291.39400694312508
 20
334.20878899554413
 30
0.0
 11
336.43883299802292
 21
334.20878899554413
 31
0.0
  0
LINE
  5
1EE8
  8
DIMENSION
 62
     0
 10
335.2388329503392
 20
391.50889596552111
 30
0.0
 11
335.2388329503392
 21
337.1087889955441
 31
0.0
  0
INSERT
  5
1EE9
  8
DIMENSION
 62
     0
  2
_OPEN30
 10
335.2388329503392
 20
394.40889596552108
 30
0.0
 41
2.8999999999999999
 42
2.8999999999999999
 43
2.8999999999999999
 50
90.0
  0
INSERT
  5
1EEA
  8
DIMENSION
 62
     0
  2
_OPEN30
 10
335.2388329503392
 20
334.20878899554413
 30
0.0
 41
2.8999999999999999
 42
2.8999999999999999
 43
2.8999999999999999
 50
270.0
  0
INSERT
  5
1EEB
  8
0
  6
CONTINUOUS
  2
*U142
 10
0.0
 20
0.0
 30
0.0
  0
POINT
  5
1EEC
  8
DEFPOINTS
 62
     0
 10
298.32395154345681
 20
394.40889596552108
 30
0.0
  0
POINT
  5
1EED
  8
DEFPOINTS
 62
     0
 10
290.12400696219851
 20
334.20878899554413
 30
0.0
  0
POINT
  5
1EEE
  8
DEFPOINTS
 62
     0
 10
335.2388329503392
 20
334.20878899554413
 30
0.0
  0
ENDBLK
  5
1EEF
  8
0
  0
BLOCK
  8
0
  2
*D86
 70
     1
 10
0.0
 20
0.0
 30
0.0
  3
*D86
  1

  0
LINE
  5
1EF2
  8
DIMENSION
 62
     0
 10
296.92393628466777
 20
367.67889499277328
 30
0.0
 11
296.92393628466777
 21
372.70065078827082
 31
0.0
  0
LINE
  5
1EF3
  8
DIMENSION
 62
     0
 10
269.72393628466767
 20
367.67889499277328
 30
0.0
 11
269.72393628466767
 21
372.70065078827082
 31
0.0
  0
LINE
  5
1EF4
  8
DIMENSION
 62
     0
 10
294.0239362846678
 20
371.50065074058699
 30
0.0
 11
272.62393628466771
 21
371.50065074058699
 31
0.0
  0
INSERT
  5
1EF5
  8
DIMENSION
 62
     0
  2
_OPEN30
 10
296.92393628466777
 20
371.50065074058699
 30
0.0
 41
2.8999999999999999
 42
2.8999999999999999
 43
2.8999999999999999
  0
INSERT
  5
1EF6
  8
DIMENSION
 62
     0
  2
_OPEN30
 10
269.72393628466767
 20
371.50065074058699
 30
0.0
 41
2.8999999999999999
 42
2.8999999999999999
 43
2.8999999999999999
 50
180.0
  0
INSERT
  5
1EF7
  8
0
  6
CONTINUOUS
  2
*U143
 10
0.0
 20
0.0
 30
0.0
  0
POINT
  5
1EF8
  8
DEFPOINTS
 62
     0
 10
296.92393628466777
 20
366.40889501184682
 30
0.0
  0
POINT
  5
1EF9
  8
DEFPOINTS
 62
     0
 10
269.72393628466767
 20
366.40889501184682
 30
0.0
  0
POINT
  5
1EFA
  8
DEFPOINTS
 62
     0
 10
269.72393628466767
 20
371.50065074058699
 30
0.0
  0
ENDBLK
  5
1EFB
  8
0
  0
BLOCK
  8
0
  2
*D87
 70
     1
 10
0.0
 20
0.0
 30
0.0
  3
*D87
  1

  0
LINE
  5
1EFE
  8
DIMENSION
 62
     0
 10
299.59395152438327
 20
394.40889596552108
 30
0.0
 11
324.85013607158561
 21
394.40889596552108
 31
0.0
  0
LINE
  5
1EFF
  8
DIMENSION
 62
     0
 10
297.09393626559432
 20
344.40889501184682
 30
0.0
 11
324.8501360715855
 21
344.40889501184682
 31
0.0
  0
LINE
  5
1F00
  8
DIMENSION
 62
     0
 10
323.65013602390189
 20
391.50889596552111
 30
0.0
 11
323.65013602390178
 21
347.3088950118468
 31
0.0
  0
INSERT
  5
1F01
  8
DIMENSION
 62
     0
  2
_OPEN30
 10
323.65013602390189
 20
394.40889596552108
 30
0.0
 41
2.8999999999999999
 42
2.8999999999999999
 43
2.8999999999999999
 50
90.0
  0
INSERT
  5
1F02
  8
DIMENSION
 62
     0
  2
_OPEN30
 10
323.65013602390178
 20
344.40889501184682
 30
0.0
 41
2.8999999999999999
 42
2.8999999999999999
 43
2.8999999999999999
 50
270.0
  0
INSERT
  5
1F03
  8
0
  6
CONTINUOUS
  2
*U144
 10
0.0
 20
0.0
 30
0.0
  0
POINT
  5
1F04
  8
DEFPOINTS
 62
     0
 10
298.32395154345681
 20
394.40889596552108
 30
0.0
  0
POINT
  5
1F05
  8
DEFPOINTS
 62
     0
 10
295.8239362846677
 20
344.40889501184682
 30
0.0
  0
POINT
  5
1F06
  8
DEFPOINTS
 62
     0
 10
323.65013602390178
 20
344.40889501184682
 30
0.0
  0
ENDBLK
  5
1F07
  8
0
  0
BLOCK
  8
0
  2
*D89
 70
     1
 10
0.0
 20
0.0
 30
0.0
  3
*D89
  1

  0
LINE
  5
20F7
  8
DIMENSION
 62
     0
 10
212.005146253296
 20
74.20451734211963
 30
0.0
 11
212.005146253296
 21
85.645886225404865
 31
0.0
  0
LINE
  5
20F8
  8
DIMENSION
 62
     0
 10
242.0051615120851
 20
74.20451734211963
 30
0.0
 11
242.0051615120851
 21
85.645886225404865
 31
0.0
  0
LINE
  5
20F9
  8
DIMENSION
 62
     0
 10
214.9051462532961
 20
84.44588617772115
 30
0.0
 11
218.33848721602391
 21
84.44588617772115
 31
0.0
  0
LINE
  5
20FA
  8
DIMENSION
 62
     0
 10
239.10516151208509
 20
84.44588617772115
 30
0.0
 11
235.67182054935731
 21
84.44588617772115
 31
0.0
  0
INSERT
  5
20FB
  8
0
  6
CONTINUOUS
  2
*U150
 10
0.0
 20
0.0
 30
0.0
  0
SOLID
  5
20FC
  8
DIMENSION
 62
     0
 10
214.9051462532961
 20
84.929219511054484
 30
0.0
 11
214.9051462532961
 21
83.962552844387815
 31
0.0
 12
212.005146253296
 22
84.44588617772115
 32
0.0
 13
212.005146253296
 23
84.44588617772115
 33
0.0
  0
SOLID
  5
20FD
  8
DIMENSION
 62
     0
 10
239.10516151208509
 20
84.929219511054484
 30
0.0
 11
239.10516151208509
 21
83.962552844387815
 31
0.0
 12
242.0051615120851
 22
84.44588617772115
 32
0.0
 13
242.0051615120851
 23
84.44588617772115
 33
0.0
  0
POINT
  5
20FE
  8
DEFPOINTS
 62
     0
 10
212.005146253296
 20
72.934517361193116
 30
0.0
  0
POINT
  5
20FF
  8
DEFPOINTS
 62
     0
 10
242.0051615120851
 20
72.934517361193116
 30
0.0
  0
POINT
  5
2100
  8
DEFPOINTS
 62
     0
 10
242.0051615120851
 20
84.44588617772115
 30
0.0
  0
ENDBLK
  5
2090
  8
0
  0
BLOCK
  8
0
  2
*D90
 70
     1
 10
0.0
 20
0.0
 30
0.0
  3
*D90
  1

  0
LINE
  5
2101
  8
DIMENSION
 62
     0
 10
243.27516149301161
 20
72.934517361193116
 30
0.0
 11
260.13836539957327
 21
72.934517361193116
 31
0.0
  0
LINE
  5
2102
  8
DIMENSION
 62
     0
 10
241.87514623422251
 20
37.934516407518799
 30
0.0
 11
260.13836539957327
 21
37.934516407518799
 31
0.0
  0
LINE
  5
2103
  8
DIMENSION
 62
     0
 10
258.93836535188962
 20
70.03451736119311
 30
0.0
 11
258.93836535188962
 21
40.834516407518798
 31
0.0
  0
SOLID
  5
2104
  8
DIMENSION
 62
     0
 10
258.45503201855632
 20
70.03451736119311
 30
0.0
 11
259.42169868522302
 21
70.03451736119311
 31
0.0
 12
258.93836535188962
 22
72.934517361193116
 32
0.0
 13
258.93836535188962
 23
72.934517361193116
 33
0.0
  0
SOLID
  5
2105
  8
DIMENSION
 62
     0
 10
258.45503201855632
 20
40.834516407518798
 30
0.0
 11
259.42169868522302
 21
40.834516407518798
 31
0.0
 12
258.93836535188962
 22
37.934516407518799
 32
0.0
 13
258.93836535188962
 23
37.934516407518799
 33
0.0
  0
INSERT
  5
2106
  8
0
  6
CONTINUOUS
  2
*U151
 10
0.0
 20
0.0
 30
0.0
  0
POINT
  5
2107
  8
DEFPOINTS
 62
     0
 10
242.0051615120851
 20
72.934517361193116
 30
0.0
  0
POINT
  5
2108
  8
DEFPOINTS
 62
     0
 10
240.605146253296
 20
37.934516407518799
 30
0.0
  0
POINT
  5
2109
  8
DEFPOINTS
 62
     0
 10
258.93836535188962
 20
37.934516407518799
 30
0.0
  0
ENDBLK
  5
209D
  8
0
  0
BLOCK
  8
0
  2
*D91
 70
     1
 10
0.0
 20
0.0
 30
0.0
  3
*D91
  1

  0
LINE
  5
210A
  8
DIMENSION
 62
     0
 10
243.27516149301161
 20
72.934517361193116
 30
0.0
 11
280.12004296665123
 21
72.934517361193116
 31
0.0
  0
LINE
  5
210B
  8
DIMENSION
 62
     0
 10
235.07521691175339
 20
12.7344103912161
 30
0.0
 11
280.12004296665123
 21
12.734410391216089
 31
0.0
  0
LINE
  5
210C
  8
DIMENSION
 62
     0
 10
278.92004291896751
 20
70.03451736119311
 30
0.0
 11
278.92004291896751
 21
52.167797209537952
 31
0.0
  0
LINE
  5
210D
  8
DIMENSION
 62
     0
 10
278.92004291896751
 20
15.63441039121609
 30
0.0
 11
278.92004291896751
 21
33.501130542871287
 31
0.0
  0
INSERT
  5
210E
  8
0
  6
CONTINUOUS
  2
*U152
 10
0.0
 20
0.0
 30
0.0
  0
SOLID
  5
210F
  8
DIMENSION
 62
     0
 10
278.43670958563411
 20
70.03451736119311
 30
0.0
 11
279.4033762523008
 21
70.03451736119311
 31
0.0
 12
278.92004291896751
 22
72.934517361193116
 32
0.0
 13
278.92004291896751
 23
72.934517361193116
 33
0.0
  0
SOLID
  5
2110
  8
DIMENSION
 62
     0
 10
278.43670958563411
 20
15.63441039121609
 30
0.0
 11
279.4033762523008
 21
15.63441039121609
 31
0.0
 12
278.92004291896751
 22
12.734410391216089
 32
0.0
 13
278.92004291896751
 23
12.734410391216089
 33
0.0
  0
POINT
  5
2111
  8
DEFPOINTS
 62
     0
 10
242.0051615120851
 20
72.934517361193116
 30
0.0
  0
POINT
  5
2112
  8
DEFPOINTS
 62
     0
 10
233.8052169308269
 20
12.7344103912161
 30
0.0
  0
POINT
  5
2113
  8
DEFPOINTS
 62
     0
 10
278.92004291896751
 20
12.734410391216089
 30
0.0
  0
ENDBLK
  5
20A9
  8
0
  0
BLOCK
  8
0
  2
*D92
 70
     1
 10
0.0
 20
0.0
 30
0.0
  3
*D92
  1

  0
LINE
  5
2114
  8
DIMENSION
 62
     0
 10
240.605146253296
 20
46.204516388445313
 30
0.0
 11
240.605146253296
 21
51.226272183942797
 31
0.0
  0
LINE
  5
2115
  8
DIMENSION
 62
     0
 10
213.40514625329601
 20
46.204516388445313
 30
0.0
 11
213.40514625329601
 21
51.226272183942797
 31
0.0
  0
LINE
  5
2116
  8
DIMENSION
 62
     0
 10
237.70514625329599
 20
50.026272136259081
 30
0.0
 11
216.3051462532961
 21
50.026272136259081
 31
0.0
  0
SOLID
  5
2117
  8
DIMENSION
 62
     0
 10
237.70514625329599
 20
50.509605469592422
 30
0.0
 11
237.70514625329599
 21
49.54293880292574
 31
0.0
 12
240.605146253296
 22
50.026272136259081
 32
0.0
 13
240.605146253296
 23
50.026272136259081
 33
0.0
  0
SOLID
  5
2118
  8
DIMENSION
 62
     0
 10
216.3051462532961
 20
50.509605469592422
 30
0.0
 11
216.3051462532961
 21
49.54293880292574
 31
0.0
 12
213.40514625329601
 22
50.026272136259081
 32
0.0
 13
213.40514625329601
 23
50.026272136259081
 33
0.0
  0
INSERT
  5
2119
  8
0
  6
CONTINUOUS
  2
*U153
 10
0.0
 20
0.0
 30
0.0
  0
POINT
  5
211A
  8
DEFPOINTS
 62
     0
 10
240.605146253296
 20
44.934516407518799
 30
0.0
  0
POINT
  5
211B
  8
DEFPOINTS
 62
     0
 10
213.40514625329601
 20
44.934516407518799
 30
0.0
  0
POINT
  5
211C
  8
DEFPOINTS
 62
     0
 10
213.40514625329601
 20
50.026272136259081
 30
0.0
  0
ENDBLK
  5
20B6
  8
0
  0
BLOCK
  8
0
  2
*D93
 70
     1
 10
0.0
 20
0.0
 30
0.0
  3
*D93
  1

  0
LINE
  5
218B
  8
DIMENSION
 62
     0
 10
-75.875898163143518
 20
91.553948471500647
 30
0.0
 11
-75.875898163143518
 21
102.9953173547859
 31
0.0
  0
LINE
  5
218C
  8
DIMENSION
 62
     0
 10
-35.875898163143631
 20
91.553948471500647
 30
0.0
 11
-35.875898163143631
 21
102.9953173547859
 31
0.0
  0
LINE
  5
218D
  8
DIMENSION
 62
     0
 10
-72.975898163143512
 20
101.7953173071021
 30
0.0
 11
-64.542557200415771
 21
101.7953173071021
 31
0.0
  0
LINE
  5
218E
  8
DIMENSION
 62
     0
 10
-38.77589816314363
 20
101.7953173071021
 30
0.0
 11
-47.209223867082429
 21
101.7953173071021
 31
0.0
  0
INSERT
  5
218F
  8
0
  6
CONTINUOUS
  2
*U155
 10
0.0
 20
0.0
 30
0.0
  0
SOLID
  5
2190
  8
DIMENSION
 62
     0
 10
-72.975898163143512
 20
102.2786506404355
 30
0.0
 11
-72.975898163143512
 21
101.3119839737688
 31
0.0
 12
-75.875898163143518
 22
101.7953173071021
 32
0.0
 13
-75.875898163143518
 23
101.7953173071021
 33
0.0
  0
SOLID
  5
2191
  8
DIMENSION
 62
     0
 10
-38.77589816314363
 20
102.2786506404355
 30
0.0
 11
-38.77589816314363
 21
101.3119839737688
 31
0.0
 12
-35.875898163143631
 22
101.7953173071021
 32
0.0
 13
-35.875898163143631
 23
101.7953173071021
 33
0.0
  0
POINT
  5
2192
  8
DEFPOINTS
 62
     0
 10
-75.875898163143518
 20
90.283948490574133
 30
0.0
  0
POINT
  5
2193
  8
DEFPOINTS
 62
     0
 10
-35.875898163143631
 20
90.283948490574133
 30
0.0
  0
POINT
  5
2194
  8
DEFPOINTS
 62
     0
 10
-35.875898163143631
 20
101.7953173071021
 30
0.0
  0
ENDBLK
  5
20C2
  8
0
  0
BLOCK
  8
0
  2
*D94
 70
     1
 10
0.0
 20
0.0
 30
0.0
  3
*D94
  1

  0
LINE
  5
2249
  8
DIMENSION
 62
     0
 10
-39.605882923428048
 20
90.283948490574133
 30
0.0
 11
-22.742679016866351
 21
90.283948490574105
 31
0.0
  0
LINE
  5
224A
  8
DIMENSION
 62
     0
 10
-41.005898182217088
 20
55.283947536899817
 30
0.0
 11
-22.742679016866362
 21
55.283947536899817
 31
0.0
  0
LINE
  5
224B
  8
DIMENSION
 62
     0
 10
-23.94267906455007
 20
87.383948490574113
 30
0.0
 11
-23.942679064550081
 21
58.183947536899822
 31
0.0
  0
SOLID
  5
224C
  8
DIMENSION
 62
     0
 10
-24.426012397883401
 20
87.383948490574113
 30
0.0
 11
-23.459345731216739
 21
87.383948490574113
 31
0.0
 12
-23.94267906455007
 22
90.283948490574105
 32
0.0
 13
-23.94267906455007
 23
90.283948490574105
 33
0.0
  0
SOLID
  5
224D
  8
DIMENSION
 62
     0
 10
-24.426012397883412
 20
58.183947536899822
 30
0.0
 11
-23.459345731216739
 21
58.183947536899822
 31
0.0
 12
-23.942679064550081
 22
55.283947536899817
 32
0.0
 13
-23.942679064550081
 23
55.283947536899817
 33
0.0
  0
INSERT
  5
224E
  8
0
  6
CONTINUOUS
  2
*U159
 10
0.0
 20
0.0
 30
0.0
  0
POINT
  5
224F
  8
DEFPOINTS
 62
     0
 10
-40.875882904354569
 20
90.283948490574133
 30
0.0
  0
POINT
  5
2250
  8
DEFPOINTS
 62
     0
 10
-42.275898163143609
 20
55.283947536899817
 30
0.0
  0
POINT
  5
2251
  8
DEFPOINTS
 62
     0
 10
-23.942679064550081
 20
55.283947536899817
 30
0.0
  0
ENDBLK
  5
20CF
  8
0
  0
BLOCK
  8
0
  2
*D95
 70
     1
 10
0.0
 20
0.0
 30
0.0
  3
*D95
  1

  0
LINE
  5
219E
  8
DIMENSION
 62
     0
 10
-39.605882923428048
 20
90.283948490574133
 30
0.0
 11
-2.7610014497885098
 21
90.283948490574105
 31
0.0
  0
LINE
  5
219F
  8
DIMENSION
 62
     0
 10
-47.805827504686313
 20
30.083841520597119
 30
0.0
 11
-2.7610014497885231
 21
30.083841520597101
 31
0.0
  0
LINE
  5
21A0
  8
DIMENSION
 62
     0
 10
-3.9610014974722261
 20
87.383948490574113
 30
0.0
 11
-3.9610014974722301
 21
69.517228338919054
 31
0.0
  0
LINE
  5
21A1
  8
DIMENSION
 62
     0
 10
-3.9610014974722381
 20
32.98384152059711
 30
0.0
 11
-3.9610014974722341
 21
50.850561672252411
 31
0.0
  0
INSERT
  5
21A2
  8
0
  6
CONTINUOUS
  2
*U156
 10
0.0
 20
0.0
 30
0.0
  0
SOLID
  5
21A3
  8
DIMENSION
 62
     0
 10
-4.444334830805559
 20
87.383948490574113
 30
0.0
 11
-3.4776681641388918
 21
87.383948490574113
 31
0.0
 12
-3.9610014974722252
 22
90.283948490574105
 32
0.0
 13
-3.9610014974722252
 23
90.283948490574105
 33
0.0
  0
SOLID
  5
21A4
  8
DIMENSION
 62
     0
 10
-4.4443348308055706
 20
32.98384152059711
 30
0.0
 11
-3.4776681641389051
 21
32.98384152059711
 31
0.0
 12
-3.9610014974722381
 22
30.083841520597101
 32
0.0
 13
-3.9610014974722381
 23
30.083841520597101
 33
0.0
  0
POINT
  5
21A5
  8
DEFPOINTS
 62
     0
 10
-40.875882904354569
 20
90.283948490574133
 30
0.0
  0
POINT
  5
21A6
  8
DEFPOINTS
 62
     0
 10
-49.075827485612812
 20
30.083841520597119
 30
0.0
  0
POINT
  5
21A7
  8
DEFPOINTS
 62
     0
 10
-3.9610014974722381
 20
30.083841520597101
 30
0.0
  0
ENDBLK
  5
20DB
  8
0
  0
BLOCK
  8
0
  2
*D96
 70
     1
 10
0.0
 20
0.0
 30
0.0
  3
*D96
  1

  0
LINE
  5
2240
  8
DIMENSION
 62
     0
 10
-42.275898163143609
 20
63.55394751782633
 30
0.0
 11
-42.275898163143609
 21
68.575703313323814
 31
0.0
  0
LINE
  5
2241
  8
DIMENSION
 62
     0
 10
-69.475898163143654
 20
63.55394751782633
 30
0.0
 11
-69.475898163143654
 21
68.575703313323814
 31
0.0
  0
LINE
  5
2242
  8
DIMENSION
 62
     0
 10
-45.175898163143607
 20
67.375703265640098
 30
0.0
 11
-66.575898163143648
 21
67.375703265640098
 31
0.0
  0
SOLID
  5
2243
  8
DIMENSION
 62
     0
 10
-45.175898163143607
 20
67.859036598973432
 30
0.0
 11
-45.175898163143607
 21
66.892369932306764
 31
0.0
 12
-42.275898163143609
 22
67.375703265640098
 32
0.0
 13
-42.275898163143609
 23
67.375703265640098
 33
0.0
  0
SOLID
  5
2244
  8
DIMENSION
 62
     0
 10
-66.575898163143648
 20
67.859036598973432
 30
0.0
 11
-66.575898163143648
 21
66.892369932306764
 31
0.0
 12
-69.475898163143654
 22
67.375703265640098
 32
0.0
 13
-69.475898163143654
 23
67.375703265640098
 33
0.0
  0
INSERT
  5
2245
  8
0
  6
CONTINUOUS
  2
*U158
 10
0.0
 20
0.0
 30
0.0
  0
POINT
  5
2246
  8
DEFPOINTS
 62
     0
 10
-42.275898163143609
 20
62.283947536899817
 30
0.0
  0
POINT
  5
2247
  8
DEFPOINTS
 62
     0
 10
-69.475898163143654
 20
62.283947536899817
 30
0.0
  0
POINT
  5
2248
  8
DEFPOINTS
 62
     0
 10
-69.475898163143654
 20
67.375703265640098
 30
0.0
  0
ENDBLK
  5
20E8
  8
0
  0
BLOCK
  8
0
  2
*D97
 70
     1
 10
0.0
 20
0.0
 30
0.0
  3
*D97
  1

  0
LINE
  5
2120
  8
DIMENSION
 62
     0
 10
243.27516149301161
 20
72.934517361193116
 30
0.0
 11
268.5313460402138
 21
72.934517361193116
 31
0.0
  0
LINE
  5
2121
  8
DIMENSION
 62
     0
 10
240.7751462342226
 20
22.934516407518799
 30
0.0
 11
268.5313460402138
 21
22.934516407518789
 31
0.0
  0
LINE
  5
2122
  8
DIMENSION
 62
     0
 10
267.3313459925302
 20
70.03451736119311
 30
0.0
 11
267.3313459925302
 21
25.834516407518791
 31
0.0
  0
SOLID
  5
2123
  8
DIMENSION
 62
     0
 10
266.8480126591968
 20
70.03451736119311
 30
0.0
 11
267.81467932586349
 21
70.03451736119311
 31
0.0
 12
267.3313459925302
 22
72.934517361193116
 32
0.0
 13
267.3313459925302
 23
72.934517361193116
 33
0.0
  0
SOLID
  5
2124
  8
DIMENSION
 62
     0
 10
266.8480126591968
 20
25.834516407518791
 30
0.0
 11
267.81467932586349
 21
25.834516407518791
 31
0.0
 12
267.3313459925302
 22
22.934516407518789
 32
0.0
 13
267.3313459925302
 23
22.934516407518789
 33
0.0
  0
INSERT
  5
2125
  8
0
  6
CONTINUOUS
  2
*U154
 10
0.0
 20
0.0
 30
0.0
  0
POINT
  5
2126
  8
DEFPOINTS
 62
     0
 10
242.0051615120851
 20
72.934517361193116
 30
0.0
  0
POINT
  5
2127
  8
DEFPOINTS
 62
     0
 10
239.50514625329609
 20
22.934516407518799
 30
0.0
  0
POINT
  5
2128
  8
DEFPOINTS
 62
     0
 10
267.3313459925302
 20
22.934516407518789
 30
0.0
  0
ENDBLK
  5
211F
  8
0
  0
BLOCK
  8
0
  2
*D98
 70
     1
 10
0.0
 20
0.0
 30
0.0
  3
*D98
  1

  0
LINE
  5
2237
  8
DIMENSION
 62
     0
 10
-39.605882923428048
 20
90.283948490574133
 30
0.0
 11
-14.34969837622582
 21
90.283948490574105
 31
0.0
  0
LINE
  5
2238
  8
DIMENSION
 62
     0
 10
-42.105898182217118
 20
40.283947536899817
 30
0.0
 11
-14.349698376225829
 21
40.283947536899809
 31
0.0
  0
LINE
  5
2239
  8
DIMENSION
 62
     0
 10
-15.549698423909531
 20
87.383948490574113
 30
0.0
 11
-15.54969842390955
 21
43.183947536899808
 31
0.0
  0
SOLID
  5
223A
  8
DIMENSION
 62
     0
 10
-16.03303175724287
 20
87.383948490574113
 30
0.0
 11
-15.0663650905762
 21
87.383948490574113
 31
0.0
 12
-15.549698423909531
 22
90.283948490574105
 32
0.0
 13
-15.549698423909531
 23
90.283948490574105
 33
0.0
  0
SOLID
  5
223B
  8
DIMENSION
 62
     0
 10
-16.033031757242881
 20
43.183947536899822
 30
0.0
 11
-15.066365090576211
 21
43.183947536899808
 31
0.0
 12
-15.54969842390955
 22
40.283947536899809
 32
0.0
 13
-15.54969842390955
 23
40.283947536899809
 33
0.0
  0
INSERT
  5
223C
  8
0
  6
CONTINUOUS
  2
*U157
 10
0.0
 20
0.0
 30
0.0
  0
POINT
  5
223D
  8
DEFPOINTS
 62
     0
 10
-40.875882904354569
 20
90.283948490574133
 30
0.0
  0
POINT
  5
223E
  8
DEFPOINTS
 62
     0
 10
-43.375898163143631
 20
40.283947536899817
 30
0.0
  0
POINT
  5
223F
  8
DEFPOINTS
 62
     0
 10
-15.54969842390955
 20
40.283947536899809
 30
0.0
  0
ENDBLK
  5
2151
  8
0
  0
BLOCK
  8
0
  2
*D99
 70
     1
 10
0.0
 20
0.0
 30
0.0
  3
*D99
  1

  0
LINE
  5
2411
  8
AM_5
 62
     0
 10
-75.875898163143518
 20
91.553947536899798
 30
0.0
 11
-75.875898163143518
 21
103.53172591164849
 31
0.0
  0
LINE
  5
2412
  8
AM_5
 62
     0
 10
-35.875898163143631
 20
91.553947536899798
 30
0.0
 11
-35.875898163143631
 21
103.53172591164849
 31
0.0
  0
LINE
  5
2413
  8
AM_5
 62
     0
 10
-73.375898163143518
 20
102.3317259116485
 30
0.0
 11
-38.375898163143631
 21
102.3317259116485
 31
0.0
  0
SOLID
  5
2414
  8
AM_5
 62
     0
 10
-73.375898163143518
 20
102.7483925783152
 30
0.0
 11
-73.375898163143518
 21
101.9150592449818
 31
0.0
 12
-75.875898163143518
 22
102.3317259116485
 32
0.0
 13
-75.875898163143518
 23
102.3317259116485
 33
0.0
  0
SOLID
  5
2415
  8
AM_5
 62
     0
 10
-38.375898163143631
 20
102.7483925783152
 30
0.0
 11
-38.375898163143631
 21
101.9150592449818
 31
0.0
 12
-35.875898163143631
 22
102.3317259116485
 32
0.0
 13
-35.875898163143631
 23
102.3317259116485
 33
0.0
  0
TEXT
  8
AM_5
  40
4.167
  5
2457
  62
0
  72
0
  71
0
 10
-64.2099
 20
98.0396
 30
0.000000
  1
(%%c40)
  0
POINT
  5
2417
  8
DEFPOINTS
 62
     0
 10
-75.875898163143518
 20
90.283947536899817
 30
0.0
  0
POINT
  5
2418
  8
DEFPOINTS
 62
     0
 10
-35.875898163143631
 20
90.283947536899817
 30
0.0
  0
POINT
  5
2419
  8
DEFPOINTS
 62
     0
 10
-35.875898163143631
 20
102.3317259116485
 30
0.0
  0
ENDBLK
  5
21BD
  8
0
  0
BLOCK
  8
0
  2
*D100
 70
     1
 10
0.0
 20
0.0
 30
0.0
  3
*D100
  1

  0
LINE
  5
241A
  8
AM_5
 62
     0
 10
-34.605898163143628
 20
90.283947536899817
 30
0.0
 11
-3.9509294927509422
 21
90.283947536899802
 31
0.0
  0
LINE
  5
241B
  8
AM_5
 62
     0
 10
-47.805827485612873
 20
30.083947536899771
 30
0.0
 11
-3.9509294927509582
 21
30.08394753689976
 31
0.0
  0
LINE
  5
241C
  8
AM_5
 62
     0
 10
-5.150929492750941
 20
87.783947536899802
 30
0.0
 11
-5.1509294927509544
 21
32.583947536899757
 31
0.0
  0
SOLID
  5
241D
  8
AM_5
 62
     0
 10
-5.567596159417608
 20
87.783947536899802
 30
0.0
 11
-4.7342628260842741
 21
87.783947536899802
 31
0.0
 12
-5.150929492750941
 22
90.283947536899802
 32
0.0
 13
-5.150929492750941
 23
90.283947536899802
 33
0.0
  0
SOLID
  5
241E
  8
AM_5
 62
     0
 10
-5.5675961594176213
 20
32.583947536899757
 30
0.0
 11
-4.7342628260842874
 21
32.583947536899757
 31
0.0
 12
-5.1509294927509544
 22
30.08394753689976
 32
0.0
 13
-5.1509294927509544
 23
30.08394753689976
 33
0.0
  0
TEXT
  8
AM_5
  40
4.167
  5
2458
  62
0
  72
0
  71
0
 10
-16.5684
 20
52.8084
 30
0.000000
  1
(60.2)
  0
POINT
  5
2420
  8
DEFPOINTS
 62
     0
 10
-35.875898163143631
 20
90.283947536899817
 30
0.0
  0
POINT
  5
2421
  8
DEFPOINTS
 62
     0
 10
-49.075827485612884
 20
30.083947536899771
 30
0.0
  0
POINT
  5
2422
  8
DEFPOINTS
 62
     0
 10
-5.1509294927509544
 20
30.08394753689976
 30
0.0
  0
ENDBLK
  5
21F7
  8
0
  0
BLOCK
  8
0
  2
*S104
 70
     1
 10
0.0
 20
0.0
 30
0.0
  3
*S104
  1

  0
LINE
  5
22AA
  8
0
 62
     7
 10
-225.0132766360646
 20
-12.206478135402319
 30
0.0
 11
-208.74660996939789
 21
-12.206478135402319
 31
0.0
  0
LINE
  5
22AB
  8
0
 62
     7
 10
-208.74660996939789
 20
-12.206478135402319
 30
0.0
 11
-200.11798922561189
 21
-26.19237924348489
 31
0.0
  0
LINE
  5
22AC
  8
0
  6
CONTINUOUS
 62
     7
 10
-200.11798922561189
 20
-26.19237924348489
 30
0.0
 11
-198.5953029533415
 21
-28.66046078918783
 31
0.0
  0
LINE
  5
22AD
  8
0
  6
CONTINUOUS
 62
     7
 10
-200.7793096766369
 20
-26.600381796763848
 30
0.0
 11
-198.5953029533415
 21
-28.66046078918783
 31
0.0
  0
LINE
  5
22AE
  8
0
  6
CONTINUOUS
 62
     7
 10
-198.5953029533415
 20
-28.66046078918783
 30
0.0
 11
-199.4566687745868
 21
-25.784376690205931
 31
0.0
  0
INSERT
  5
22AF
  8
0
  6
CONTINUOUS
  2
*U161
 10
0.0
 20
0.0
 30
0.0
  0
ENDBLK
  5
22B1
  8
0
  0
BLOCK
  8
0
  2
*S105
 70
     1
 10
0.0
 20
0.0
 30
0.0
  3
*S105
  1

  0
LINE
  5
22B4
  8
0
 62
     7
 10
-259.9482561985543
 20
-22.484480097977329
 30
0.0
 11
-220.08158953188769
 21
-22.484480097977329
 31
0.0
  0
LINE
  5
22B5
  8
0
 62
     7
 10
-220.08158953188769
 20
-22.484480097977329
 30
0.0
 11
-207.55654840998989
 21
-30.909870044033351
 31
0.0
  0
LINE
  5
22B6
  8
0
  6
CONTINUOUS
 62
     7
 10
-207.55654840998989
 20
-30.909870044033351
 30
0.0
 11
-205.1503056395706
 21
-32.528510130588948
 31
0.0
  0
LINE
  5
22B7
  8
0
  6
CONTINUOUS
 62
     7
 10
-207.99026171008401
 20
-31.55462084531057
 30
0.0
 11
-205.1503056395706
 21
-32.528510130588948
 31
0.0
  0
LINE
  5
22B8
  8
0
  6
CONTINUOUS
 62
     7
 10
-205.1503056395706
 20
-32.528510130588948
 30
0.0
 11
-207.12283510989579
 21
-30.265119242756128
 31
0.0
  0
INSERT
  5
22B9
  8
0
  6
CONTINUOUS
  2
*U162
 10
0.0
 20
0.0
 30
0.0
  0
ENDBLK
  5
22BB
  8
0
  0
BLOCK
  8
0
  2
*S106
 70
     1
 10
0.0
 20
0.0
 30
0.0
  3
*S106
  1

  0
LINE
  5
22BE
  8
0
 62
     7
 10
-136.89311990136
 20
-20.00386653244448
 30
0.0
 11
-176.7597865680267
 21
-20.00386653244448
 31
0.0
  0
LINE
  5
22BF
  8
0
 62
     7
 10
-176.7597865680267
 20
-20.00386653244448
 30
0.0
 11
-189.15119021464051
 21
-30.598135237415431
 31
0.0
  0
LINE
  5
22C0
  8
0
  6
CONTINUOUS
 62
     7
 10
-189.15119021464051
 20
-30.598135237415431
 30
0.0
 11
-191.3554000226074
 21
-32.482666776674549
 31
0.0
  0
LINE
  5
22C1
  8
0
  6
CONTINUOUS
 62
     7
 10
-189.6561489141144
 20
-30.00751900478063
 30
0.0
 11
-191.3554000226074
 21
-32.482666776674549
 31
0.0
  0
LINE
  5
22C2
  8
0
  6
CONTINUOUS
 62
     7
 10
-191.3554000226074
 20
-32.482666776674549
 30
0.0
 11
-188.64623151516659
 21
-31.188751470050232
 31
0.0
  0
INSERT
  5
22C3
  8
0
  6
CONTINUOUS
  2
*U163
 10
0.0
 20
0.0
 30
0.0
  0
ENDBLK
  5
22C5
  8
0
  0
BLOCK
  8
0
  2
*S107
 70
     1
 10
0.0
 20
0.0
 30
0.0
  3
*S107
  1

  0
LINE
  5
22C8
  8
0
 62
     7
 10
-225.2804355266544
 20
-56.907460007031361
 30
0.0
 11
-198.21376885998779
 21
-56.907460007031361
 31
0.0
  0
LINE
  5
22C9
  8
0
 62
     7
 10
-198.21376885998779
 20
-56.907460007031361
 30
0.0
 11
-196.02003388825699
 21
-35.711858157086219
 31
0.0
  0
LINE
  5
22CA
  8
0
  6
CONTINUOUS
 62
     7
 10
-196.02003388825699
 20
-35.711858157086219
 30
0.0
 11
-195.72148004955901
 21
-32.827267093278621
 31
0.0
  0
LINE
  5
22CB
  8
0
  6
CONTINUOUS
 62
     7
 10
-195.2471100492285
 20
-35.791855416336759
 30
0.0
 11
-195.72148004955901
 21
-32.827267093278621
 31
0.0
  0
LINE
  5
22CC
  8
0
  6
CONTINUOUS
 62
     7
 10
-195.72148004955901
 20
-32.827267093278621
 30
0.0
 11
-196.79295772728551
 21
-35.631860897835693
 31
0.0
  0
LINE
  5
22CD
  8
0
 62
     7
 10
-198.21376885998779
 20
-56.907460007031361
 30
0.0
 11
-199.78308169654571
 21
-35.377511143694989
 31
0.0
  0
LINE
  5
22CE
  8
0
  6
CONTINUOUS
 62
     7
 10
-199.78308169654571
 20
-35.377511143694989
 30
0.0
 11
-199.99390270931741
 21
-32.485184312132908
 31
0.0
  0
LINE
  5
22CF
  8
0
  6
CONTINUOUS
 62
     7
 10
-199.0080850648134
 20
-35.321021824087843
 30
0.0
 11
-199.99390270931741
 21
-32.485184312132908
 31
0.0
  0
LINE
  5
22D0
  8
0
  6
CONTINUOUS
 62
     7
 10
-199.99390270931741
 20
-32.485184312132908
 30
0.0
 11
-200.55807832827799
 21
-35.434000463302148
 31
0.0
  0
INSERT
  5
22D1
  8
0
  6
CONTINUOUS
  2
*U164
 10
0.0
 20
0.0
 30
0.0
  0
ENDBLK
  5
22D3
  8
0
  0
BLOCK
  8
0
  2
*S108
 70
     1
 10
0.0
 20
0.0
 30
0.0
  3
*S108
  1

  0
LINE
  5
22D6
  8
0
 62
     7
 10
-178.93054201988369
 20
-12.93432970753457
 30
0.0
 11
-189.99720868655041
 21
-12.93432970753457
 31
0.0
  0
LINE
  5
22D7
  8
0
 62
     7
 10
-189.99720868655041
 20
-12.93432970753457
 30
0.0
 11
-192.85078318395779
 21
-24.904075944351838
 31
0.0
  0
LINE
  5
22D8
  8
0
  6
CONTINUOUS
 62
     7
 10
-192.85078318395779
 20
-24.904075944351838
 30
0.0
 11
-193.5232933792166
 21
-27.725020828122691
 31
0.0
  0
LINE
  5
22D9
  8
0
  6
CONTINUOUS
 62
     7
 10
-193.60665308059879
 20
-24.723877382265499
 30
0.0
 11
-193.5232933792166
 21
-27.725020828122691
 31
0.0
  0
LINE
  5
22DA
  8
0
  6
CONTINUOUS
 62
     7
 10
-193.5232933792166
 20
-27.725020828122691
 30
0.0
 11
-192.0949132873167
 21
-25.084274506438181
 31
0.0
  0
INSERT
  5
22DB
  8
0
  6
CONTINUOUS
  2
*U165
 10
0.0
 20
0.0
 30
0.0
  0
ENDBLK
  5
22DD
  8
0
  0
BLOCK
  8
0
  2
*S109
 70
     1
 10
0.0
 20
0.0
 30
0.0
  3
*S109
  1

  0
LINE
  5
22E0
  8
0
 62
     7
 10
-226.6557713063012
 20
-42.386757647425242
 30
0.0
 11
-215.58910463963451
 21
-42.386757647425242
 31
0.0
  0
LINE
  5
22E1
  8
0
 62
     7
 10
-215.58910463963451
 20
-42.386757647425242
 30
0.0
 11
-205.99861982826911
 21
-38.640783385141589
 31
0.0
  0
LINE
  5
22E2
  8
0
  6
CONTINUOUS
 62
     7
 10
-205.99861982826911
 20
-38.640783385141589
 30
0.0
 11
-203.2973640320732
 21
-37.585692335270672
 31
0.0
  0
LINE
  5
22E3
  8
0
  6
CONTINUOUS
 62
     7
 10
-205.71590903608001
 20
-39.364582687715099
 30
0.0
 11
-203.2973640320732
 21
-37.585692335270672
 31
0.0
  0
LINE
  5
22E4
  8
0
  6
CONTINUOUS
 62
     7
 10
-203.2973640320732
 20
-37.585692335270672
 30
0.0
 11
-206.28133062045831
 21
-37.916984082568071
 31
0.0
  0
INSERT
  5
22E5
  8
0
  6
CONTINUOUS
  2
*U166
 10
0.0
 20
0.0
 30
0.0
  0
ENDBLK
  5
22E7
  8
0
  0
BLOCK
  8
0
  2
*S110
 70
     1
 10
0.0
 20
0.0
 30
0.0
  3
*S110
  1

  0
LINE
  5
22EA
  8
DIMENSION
 62
     7
 10
-260.48502916722691
 20
55.293132452931687
 30
0.0
 11
-225.01836250056019
 21
55.293132452931687
 31
0.0
  0
LINE
  5
22EB
  8
DIMENSION
 62
     7
 10
-225.01836250056019
 20
55.293132452931687
 30
0.0
 11
-214.73544382578939
 21
55.293132452931687
 31
0.0
  0
LINE
  5
22EC
  8
DIMENSION
  6
CONTINUOUS
 62
     7
 10
-214.73544382578939
 20
55.293132452931687
 30
0.0
 11
-211.83544382578941
 21
55.293132452931687
 31
0.0
  0
LINE
  5
22ED
  8
DIMENSION
  6
CONTINUOUS
 62
     7
 10
-214.73544382578939
 20
54.516079801931689
 30
0.0
 11
-211.83544382578941
 21
55.293132452931687
 31
0.0
  0
LINE
  5
22EE
  8
DIMENSION
  6
CONTINUOUS
 62
     7
 10
-211.83544382578941
 20
55.293132452931687
 30
0.0
 11
-214.73544382578939
 21
56.070185103931678
 31
0.0
  0
INSERT
  5
22EF
  8
0
  6
CONTINUOUS
  2
*U167
 10
0.0
 20
0.0
 30
0.0
  0
ENDBLK
  5
22F1
  8
0
  0
BLOCK
  8
0
  2
*S111
 70
     1
 10
0.0
 20
0.0
 30
0.0
  3
*S111
  1

  0
LINE
  5
22F4
  8
DIMENSION
 62
     7
 10
-118.1254835045811
 20
55.293133406605939
 30
0.0
 11
-82.658816837914458
 21
55.293133406605939
 31
0.0
  0
LINE
  5
22F5
  8
DIMENSION
 62
     7
 10
-82.658816837914458
 20
55.293133406605939
 30
0.0
 11
-72.37589816314366
 21
55.293133406605939
 31
0.0
  0
LINE
  5
22F6
  8
DIMENSION
  6
CONTINUOUS
 62
     7
 10
-72.37589816314366
 20
55.293133406605939
 30
0.0
 11
-69.475898163143654
 21
55.293133406605939
 31
0.0
  0
LINE
  5
22F7
  8
DIMENSION
  6
CONTINUOUS
 62
     7
 10
-72.37589816314366
 20
54.516080755605948
 30
0.0
 11
-69.475898163143654
 21
55.293133406605939
 31
0.0
  0
LINE
  5
22F8
  8
DIMENSION
  6
CONTINUOUS
 62
     7
 10
-69.475898163143654
 20
55.293133406605939
 30
0.0
 11
-72.37589816314366
 21
56.070186057605937
 31
0.0
  0
INSERT
  5
22F9
  8
0
  6
CONTINUOUS
  2
*U168
 10
0.0
 20
0.0
 30
0.0
  0
ENDBLK
  5
22FB
  8
0
  0
BLOCK
  8
0
  2
*U112
 70
     1
 10
0.0
 20
0.0
 30
0.0
  3
*U112
  1

  0
TEXT
  5
2337
  8
0
  6
CONTINUOUS
 62
     7
 10
-6.1797717298586567
 20
-112.40679776126331
 30
0.0
 40
4.0
  1
SWT-16/25
  7
MX_NOTE_STANDARD
  0
ENDBLK
  5
2339
  8
0
  0
BLOCK
  8
0
  2
*U113
 70
     1
 10
0.0
 20
0.0
 30
0.0
  3
*U113
  1

  0
TEXT
  5
233B
  8
0
  6
CONTINUOUS
 62
     7
 10
-9.6294389231547939
 20
-129.3656218118922
 30
0.0
 40
4.0
  1
GP0067-379-04A
  7
MX_NOTE_STANDARD
  0
ENDBLK
  5
233D
  8
0
  0
BLOCK
  8
0
  2
*U114
 70
     1
 10
0.0
 20
0.0
 30
0.0
  3
*U114
  1

  0
TEXT
  5
233F
  8
DIMENSION
  6
CONTINUOUS
 62
     0
 10
95.494325137743914
 20
272.84164608375568
 30
0.0
 40
4.0
  1
(\U+220527.2)
  7
ULVAC
  0
ENDBLK
  5
2341
  8
0
  0
BLOCK
  8
0
  2
*U115
 70
     1
 10
0.0
 20
0.0
 30
0.0
  3
*U115
  1

  0
TEXT
  5
2343
  8
DIMENSION
  6
CONTINUOUS
 62
     0
 10
98.827666100471802
 20
307.2612601252178
 30
0.0
 40
4.0
  1
(\U+220530)
  7
ULVAC
  0
ENDBLK
  5
2345
  8
0
  0
BLOCK
  8
0
  2
*U116
 70
     1
 10
0.0
 20
0.0
 30
0.0
  3
*U116
  1

  0
TEXT
  5
2347
  8
DIMENSION
  6
CONTINUOUS
 62
     0
 10
137.4942109030041
 20
271.11655749851928
 30
0.0
 40
4.0
  1
(35)
 50
90.0
  7
ULVAC
  0
ENDBLK
  5
2349
  8
0
  0
BLOCK
  8
0
  2
*U117
 70
     1
 10
0.0
 20
0.0
 30
0.0
  3
*U117
  1

  0
TEXT
  5
234B
  8
DIMENSION
  6
CONTINUOUS
 62
     0
 10
147.4942109030043
 20
255.18317115703471
 30
0.0
 40
4.0
  1
(60.2)
 50
90.0
  7
ULVAC
  0
ENDBLK
  5
234D
  8
0
  0
BLOCK
  8
0
  2
*U118
 70
     1
 10
0.0
 20
0.0
 30
0.0
  3
*U118
  1

  0
TEXT
  5
234F
  8
0
  6
CONTINUOUS
 62
     0
 10
-205.90210286306149
 20
115.6113396612205
 30
0.0
 40
4.0
  1
(\U+220530)
  7
MX_NOTE_STANDARD
  0
ENDBLK
  5
2351
  8
0
  0
BLOCK
  8
0
  2
*U119
 70
     1
 10
0.0
 20
0.0
 30
0.0
  3
*U119
  1

  0
TEXT
  5
2353
  8
0
  6
CONTINUOUS
 62
     0
 10
-167.30222472719581
 20
70.738327518104697
 30
0.0
 40
4.0
  1
(35)
 50
90.0
  7
MX_NOTE_STANDARD
  0
ENDBLK
  5
2355
  8
0
  0
BLOCK
  8
0
  2
*U120
 70
     1
 10
0.0
 20
0.0
 30
0.0
  3
*U120
  1

  0
TEXT
  5
2357
  8
0
  6
CONTINUOUS
 62
     0
 10
-157.30222472719561
 20
55.804941176620019
 30
0.0
 40
4.0
  1
(60.2)
 50
90.0
  7
MX_NOTE_STANDARD
  0
ENDBLK
  5
2359
  8
0
  0
BLOCK
  8
0
  2
*U121
 70
     1
 10
0.0
 20
0.0
 30
0.0
  3
*U121
  1

  0
TEXT
  5
235B
  8
0
  6
CONTINUOUS
 62
     0
 10
-208.9021104924561
 20
72.330082770007834
 30
0.0
 40
4.0
  1
(\U+220527.2)
  7
MX_NOTE_STANDARD
  0
ENDBLK
  5
235D
  8
0
  0
BLOCK
  8
0
  2
*U122
 70
     1
 10
0.0
 20
0.0
 30
0.0
  3
*U122
  1

  0
TEXT
  5
2362
  8
0
  6
CONTINUOUS
 62
     7
 10
-208.34736482654529
 20
122.8814430897944
 30
0.0
 40
4.0
  1
SWT-16
  7
ULVAC
  0
ENDBLK
  5
2364
  8
0
  0
BLOCK
  8
0
  2
*U123
 70
     1
 10
0.0
 20
0.0
 30
0.0
  3
*U123
  1

  0
TEXT
  5
2366
  8
0
  6
CONTINUOUS
 62
     7
 10
-64.441426813363933
 20
122.8814430897944
 30
0.0
 40
4.0
  1
SWT-25
  7
ULVAC
  0
ENDBLK
  5
2368
  8
0
  0
BLOCK
  8
0
  2
*U124
 70
     1
 10
0.0
 20
0.0
 30
0.0
  3
*U124
  1

  0
TEXT
  5
236A
  8
DIMENSION
  6
CONTINUOUS
 62
     0
 10
95.494325137743914
 20
272.84164608375568
 30
0.0
 40
4.0
  1
(\U+220527.2)
  7
ULVAC
  0
ENDBLK
  5
236C
  8
0
  0
BLOCK
  8
0
  2
*U125
 70
     1
 10
0.0
 20
0.0
 30
0.0
  3
*U125
  1

  0
TEXT
  5
236E
  8
DIMENSION
  6
CONTINUOUS
 62
     0
 10
98.827666100471802
 20
307.2612601252178
 30
0.0
 40
4.0
  1
(\U+220530)
  7
ULVAC
  0
ENDBLK
  5
2370
  8
0
  0
BLOCK
  8
0
  2
*U126
 70
     1
 10
0.0
 20
0.0
 30
0.0
  3
*U126
  1

  0
TEXT
  5
2372
  8
DIMENSION
  6
CONTINUOUS
 62
     0
 10
137.4942109030041
 20
271.11655749851928
 30
0.0
 40
4.0
  1
(35)
 50
90.0
  7
ULVAC
  0
ENDBLK
  5
2374
  8
0
  0
BLOCK
  8
0
  2
*U127
 70
     1
 10
0.0
 20
0.0
 30
0.0
  3
*U127
  1

  0
TEXT
  5
2376
  8
DIMENSION
  6
CONTINUOUS
 62
     0
 10
157.47588847008191
 20
255.18317115703471
 30
0.0
 40
4.0
  1
(60.2)
 50
90.0
  7
ULVAC
  0
ENDBLK
  5
2378
  8
0
  0
BLOCK
  8
0
  2
*U128
 70
     1
 10
0.0
 20
0.0
 30
0.0
  3
*U128
  1

  0
TEXT
  5
237A
  8
DIMENSION
  6
CONTINUOUS
 62
     0
 10
145.8871915436446
 20
263.61655749851928
 30
0.0
 40
4.0
  1
(50)
 50
90.0
  7
ULVAC
  0
ENDBLK
  5
237C
  8
0
  0
BLOCK
  8
0
  2
*U129
 70
     1
 10
0.0
 20
0.0
 30
0.0
  3
*U129
  1

  0
TEXT
  5
237E
  8
PROFILE2
  6
CONTINUOUS
 10
55.579291426152167
 20
65.302994755623558
 30
0.0
 40
4.0
  1
NW16
  7
ULVAC
  0
ENDBLK
  5
2380
  8
0
  0
BLOCK
  8
0
  2
*U130
 70
     1
 10
0.0
 20
0.0
 30
0.0
  3
*U130
  1

  0
TEXT
  5
2382
  8
PROFILE2
  6
CONTINUOUS
 62
     7
 10
-204.90573765631279
 20
95.386608321421718
 30
0.0
 40
4.0
  1
NW16
  7
ULVAC
  0
ENDBLK
  5
2384
  8
0
  0
BLOCK
  8
0
  2
*U131
 70
     1
 10
0.0
 20
0.0
 30
0.0
  3
*U131
  1

  0
TEXT
  5
2386
  8
DIMENSION
  6
CONTINUOUS
 62
     0
 10
-205.90210286306149
 20
99.795316353427907
 30
0.0
 40
4.0
  1
(\U+220530)
  7
MX_NOTE_STANDARD
  0
ENDBLK
  5
2388
  8
0
  0
BLOCK
  8
0
  2
*U132
 70
     1
 10
0.0
 20
0.0
 30
0.0
  3
*U132
  1

  0
TEXT
  5
238A
  8
DIMENSION
  6
CONTINUOUS
 62
     0
 10
-167.30222472719581
 20
66.783947060062687
 30
0.0
 40
4.0
  1
(35)
 50
90.0
  7
MX_NOTE_STANDARD
  0
ENDBLK
  5
238C
  8
0
  0
BLOCK
  8
0
  2
*U133
 70
     1
 10
0.0
 20
0.0
 30
0.0
  3
*U133
  1

  0
TEXT
  5
238E
  8
DIMENSION
  6
CONTINUOUS
 62
     0
 10
-144.320547160118
 20
51.850560718578087
 30
0.0
 40
4.0
  1
(60.2)
 50
90.0
  7
MX_NOTE_STANDARD
  0
ENDBLK
  5
2390
  8
0
  0
BLOCK
  8
0
  2
*U134
 70
     1
 10
0.0
 20
0.0
 30
0.0
  3
*U134
  1

  0
TEXT
  5
2392
  8
DIMENSION
  6
CONTINUOUS
 62
     0
 10
-158.9092440865553
 20
59.617280393396022
 30
0.0
 40
4.0
  1
(50)
 50
90.0
  7
MX_NOTE_STANDARD
  0
ENDBLK
  5
2394
  8
0
  0
BLOCK
  8
0
  2
*U135
 70
     1
 10
0.0
 20
0.0
 30
0.0
  3
*U135
  1

  0
TEXT
  5
23BA
  8
DIMENSION
  6
CONTINUOUS
 62
     0
 10
131.81494869901769
 20
372.50064978691279
 30
0.0
 40
4.0
  1
(\U+220527.2)
  7
ULVAC
  0
ENDBLK
  5
23BC
  8
0
  0
BLOCK
  8
0
  2
*U136
 70
     1
 10
0.0
 20
0.0
 30
0.0
  3
*U136
  1

  0
TEXT
  5
23BE
  8
DIMENSION
  6
CONTINUOUS
 62
     0
 10
135.14828966174559
 20
406.9202638283748
 30
0.0
 40
4.0
  1
(\U+220530)
  7
ULVAC
  0
ENDBLK
  5
23C0
  8
0
  0
BLOCK
  8
0
  2
*U137
 70
     1
 10
0.0
 20
0.0
 30
0.0
  3
*U137
  1

  0
TEXT
  5
23C2
  8
DIMENSION
  6
CONTINUOUS
 62
     0
 10
173.81483446427791
 20
370.7755612016764
 30
0.0
 40
4.0
  1
(35)
 50
90.0
  7
ULVAC
  0
ENDBLK
  5
23C4
  8
0
  0
BLOCK
  8
0
  2
*U138
 70
     1
 10
0.0
 20
0.0
 30
0.0
  3
*U138
  1

  0
TEXT
  5
23C6
  8
DIMENSION
  6
CONTINUOUS
 62
     0
 10
193.79651203135569
 20
354.84217486019168
 30
0.0
 40
4.0
  1
(60.2)
 50
90.0
  7
ULVAC
  0
ENDBLK
  5
23C8
  8
0
  0
BLOCK
  8
0
  2
*U139
 70
     1
 10
0.0
 20
0.0
 30
0.0
  3
*U139
  1

  0
TEXT
  5
23CA
  8
DIMENSION
  6
CONTINUOUS
 62
     0
 10
182.20781510491841
 20
363.2755612016764
 30
0.0
 40
4.0
  1
(50)
 50
90.0
  7
ULVAC
  0
ENDBLK
  5
23CC
  8
0
  0
BLOCK
  8
0
  2
*U140
 70
     1
 10
0.0
 20
0.0
 30
0.0
  3
*U140
  1

  0
TEXT
  5
23CE
  8
DIMENSION
  6
CONTINUOUS
 62
     0
 10
275.59061058072899
 20
406.92026478204912
 30
0.0
 40
4.0
  1
(\U+220540)
  7
ULVAC
  0
ENDBLK
  5
23D0
  8
0
  0
BLOCK
  8
0
  2
*U141
 70
     1
 10
0.0
 20
0.0
 30
0.0
  3
*U141
  1

  0
TEXT
  5
23D2
  8
DIMENSION
  6
CONTINUOUS
 62
     0
 10
314.25715538326119
 20
370.77556215535071
 30
0.0
 40
4.0
  1
(35)
 50
90.0
  7
ULVAC
  0
ENDBLK
  5
23D4
  8
0
  0
BLOCK
  8
0
  2
*U142
 70
     1
 10
0.0
 20
0.0
 30
0.0
  3
*U142
  1

  0
TEXT
  5
23D6
  8
DIMENSION
  6
CONTINUOUS
 62
     0
 10
334.23883295033909
 20
354.84217581386599
 30
0.0
 40
4.0
  1
(60.2)
 50
90.0
  7
ULVAC
  0
ENDBLK
  5
23D8
  8
0
  0
BLOCK
  8
0
  2
*U143
 70
     1
 10
0.0
 20
0.0
 30
0.0
  3
*U143
  1

  0
TEXT
  5
23DA
  8
DIMENSION
  6
CONTINUOUS
 62
     0
 10
272.25726961800109
 20
372.5006507405871
 30
0.0
 40
4.0
  1
(\U+220527.2)
  7
ULVAC
  0
ENDBLK
  5
23DC
  8
0
  0
BLOCK
  8
0
  2
*U144
 70
     1
 10
0.0
 20
0.0
 30
0.0
  3
*U144
  1

  0
TEXT
  5
23DE
  8
DIMENSION
  6
CONTINUOUS
 62
     0
 10
322.65013602390178
 20
363.27556215535071
 30
0.0
 40
4.0
  1
(50)
 50
90.0
  7
ULVAC
  0
ENDBLK
  5
23E0
  8
0
  0
BLOCK
  8
0
  2
*U145
 70
     1
 10
0.0
 20
0.0
 30
0.0
  3
*U145
  1

  0
TEXT
  5
23E2
  8
PROFILE2
  6
CONTINUOUS
 10
55.579291120181097
 20
138.35608618355931
 30
0.0
 40
4.0
  1
NW16
  7
ULVAC
  0
ENDBLK
  5
23E4
  8
0
  0
BLOCK
  8
0
  2
*U146
 70
     1
 10
0.0
 20
0.0
 30
0.0
  3
*U146
  1

  0
TEXT
  5
23E6
  8
PROFILE2
  6
CONTINUOUS
 10
53.598166539197557
 20
161.7858518838467
 30
0.0
 40
4.0
  1
SWT-16
  7
ULVAC
  0
ENDBLK
  5
23E8
  8
0
  0
BLOCK
  8
0
  2
*U147
 70
     1
 10
0.0
 20
0.0
 30
0.0
  3
*U147
  1

  0
TEXT
  5
23EA
  8
PROFILE2
  6
CONTINUOUS
 10
194.7500199157559
 20
161.7858518838467
 30
0.0
 40
4.0
  1
SWT-25
  7
ULVAC
  0
ENDBLK
  5
23EC
  8
0
  0
BLOCK
  8
0
  2
*U148
 70
     1
 10
0.0
 20
0.0
 30
0.0
  3
*U148
  1

  0
TEXT
  5
23EE
  8
PROFILE2
  6
CONTINUOUS
 10
196.02161203916441
 20
138.3560871372336
 30
0.0
 40
4.0
  1
NW25
  7
ULVAC
  0
ENDBLK
  5
23F0
  8
0
  0
BLOCK
  8
0
  2
*U149
 70
     1
 10
0.0
 20
0.0
 30
0.0
  3
*U149
  1

  0
TEXT
  5
23F2
  8
PROFILE2
  6
CONTINUOUS
 62
     7
 10
-62.546191993667037
 20
95.386609275095978
 30
0.0
 40
4.0
  1
NW25
  7
ULVAC
  0
ENDBLK
  5
23F4
  8
0
  0
BLOCK
  8
0
  2
*U150
 70
     1
 10
0.0
 20
0.0
 30
0.0
  3
*U150
  1

  0
TEXT
  5
23F6
  8
DIMENSION
  6
CONTINUOUS
 62
     0
 10
219.33848721602399
 20
82.445886177721135
 30
0.0
 40
4.0
  1
(\U+220530)
  7
MX_NOTE_STANDARD
  0
ENDBLK
  5
23F8
  8
0
  0
BLOCK
  8
0
  2
*U151
 70
     1
 10
0.0
 20
0.0
 30
0.0
  3
*U151
  1

  0
TEXT
  5
23FA
  8
DIMENSION
  6
CONTINUOUS
 62
     0
 10
257.93836535188962
 20
49.434516884356
 30
0.0
 40
4.0
  1
(35)
 50
90.0
  7
MX_NOTE_STANDARD
  0
ENDBLK
  5
23FC
  8
0
  0
BLOCK
  8
0
  2
*U152
 70
     1
 10
0.0
 20
0.0
 30
0.0
  3
*U152
  1

  0
TEXT
  5
23FE
  8
DIMENSION
  6
CONTINUOUS
 62
     0
 10
280.9200429189674
 20
34.501130542871337
 30
0.0
 40
4.0
  1
(60.2)
 50
90.0
  7
MX_NOTE_STANDARD
  0
ENDBLK
  5
2400
  8
0
  0
BLOCK
  8
0
  2
*U153
 70
     1
 10
0.0
 20
0.0
 30
0.0
  3
*U153
  1

  0
TEXT
  5
2402
  8
DIMENSION
  6
CONTINUOUS
 62
     0
 10
216.3384795866294
 20
51.026272136259081
 30
0.0
 40
4.0
  1
(\U+220527.2)
  7
MX_NOTE_STANDARD
  0
ENDBLK
  5
2404
  8
0
  0
BLOCK
  8
0
  2
*U154
 70
     1
 10
0.0
 20
0.0
 30
0.0
  3
*U154
  1

  0
TEXT
  5
2406
  8
DIMENSION
  6
CONTINUOUS
 62
     0
 10
266.33134599253009
 20
42.267850217689322
 30
0.0
 40
4.0
  1
(50)
 50
90.0
  7
MX_NOTE_STANDARD
  0
ENDBLK
  5
2408
  8
0
  0
BLOCK
  8
0
  2
*U155
 70
     1
 10
0.0
 20
0.0
 30
0.0
  3
*U155
  1

  0
TEXT
  5
240A
  8
DIMENSION
  6
CONTINUOUS
 62
     0
 10
-63.542557200415757
 20
99.795317307102167
 30
0.0
 40
4.0
  1
(\U+220540)
  7
MX_NOTE_STANDARD
  0
ENDBLK
  5
240C
  8
0
  0
BLOCK
  8
0
  2
*U156
 70
     1
 10
0.0
 20
0.0
 30
0.0
  3
*U156
  1

  0
TEXT
  5
240E
  8
DIMENSION
  6
CONTINUOUS
 62
     0
 10
-1.961001497472296
 20
51.850561672252411
 30
0.0
 40
4.0
  1
(60.2)
 50
90.0
  7
MX_NOTE_STANDARD
  0
ENDBLK
  5
2410
  8
0
  0
BLOCK
  8
0
  2
*U157
 70
     1
 10
0.0
 20
0.0
 30
0.0
  3
*U157
  1

  0
TEXT
  5
2424
  8
DIMENSION
  6
CONTINUOUS
 62
     0
 10
-16.54969842390955
 20
59.617281347070303
 30
0.0
 40
4.0
  1
(50)
 50
90.0
  7
MX_NOTE_STANDARD
  0
ENDBLK
  5
2426
  8
0
  0
BLOCK
  8
0
  2
*U158
 70
     1
 10
0.0
 20
0.0
 30
0.0
  3
*U158
  1

  0
TEXT
  5
2428
  8
DIMENSION
  6
CONTINUOUS
 62
     0
 10
-66.542564829810303
 20
68.375703265640084
 30
0.0
 40
4.0
  1
(\U+220527.2)
  7
MX_NOTE_STANDARD
  0
ENDBLK
  5
242A
  8
0
  0
BLOCK
  8
0
  2
*U159
 70
     1
 10
0.0
 20
0.0
 30
0.0
  3
*U159
  1

  0
TEXT
  5
242C
  8
DIMENSION
  6
CONTINUOUS
 62
     0
 10
-24.942679064550092
 20
66.783948013736961
 30
0.0
 40
4.0
  1
(35)
 50
90.0
  7
MX_NOTE_STANDARD
  0
ENDBLK
  5
242E
  8
0
  0
BLOCK
  8
0
  2
*U160
 70
     1
 10
0.0
 20
0.0
 30
0.0
  3
*U160
  1

  0
TEXT
  5
2430
  8
DIMENSION
  6
CONTINUOUS
 62
     0
 10
-208.9021104924561
 20
68.375702311965838
 30
0.0
 40
4.0
  1
(\U+220527.2)
  7
MX_NOTE_STANDARD
  0
ENDBLK
  5
2432
  8
0
  0
BLOCK
  8
0
  2
*U161
 70
     1
 10
0.0
 20
0.0
 30
0.0
  3
*U161
  1

  0
TEXT
  5
2434
  8
0
  6
CONTINUOUS
 62
     7
 10
-225.0132766360646
 20
-10.20647813540231
 30
0.0
 40
4.0
  1
Grid
  7
ULVAC
  0
ENDBLK
  5
2436
  8
0
  0
BLOCK
  8
0
  2
*U162
 70
     1
 10
0.0
 20
0.0
 30
0.0
  3
*U162
  1

  0
TEXT
  5
2438
  8
0
  6
CONTINUOUS
 62
     7
 10
-259.9482561985543
 20
-21.484480097977329
 30
0.0
 40
4.0
  1
Ioncollector
  7
ULVAC
  0
ENDBLK
  5
243A
  8
0
  0
BLOCK
  8
0
  2
*U163
 70
     1
 10
0.0
 20
0.0
 30
0.0
  3
*U163
  1

  0
TEXT
  5
243C
  8
0
  6
CONTINUOUS
 62
     7
 10
-174.7597865680267
 20
-19.003866532444469
 30
0.0
 40
4.0
  1
Ioncollector
  7
ULVAC
  0
ENDBLK
  5
243E
  8
0
  0
BLOCK
  8
0
  2
*U164
 70
     1
 10
0.0
 20
0.0
 30
0.0
  3
*U164
  1

  0
TEXT
  5
2440
  8
0
  6
CONTINUOUS
 62
     7
 10
-225.2804355266544
 20
-55.907460007031361
 30
0.0
 40
4.0
  1
Filament
  7
ULVAC
  0
ENDBLK
  5
2442
  8
0
  0
BLOCK
  8
0
  2
*U165
 70
     1
 10
0.0
 20
0.0
 30
0.0
  3
*U165
  1

  0
TEXT
  5
2444
  8
0
  6
CONTINUOUS
 62
     7
 10
-187.99720868655041
 20
-11.93432970753457
 30
0.0
 40
4.0
  1
GND
  7
ULVAC
  0
ENDBLK
  5
2446
  8
0
  0
BLOCK
  8
0
  2
*U166
 70
     1
 10
0.0
 20
0.0
 30
0.0
  3
*U166
  1

  0
TEXT
  5
2448
  8
0
  6
CONTINUOUS
 62
     7
 10
-226.6557713063012
 20
-41.386757647425242
 30
0.0
 40
4.0
  1
GND
  7
ULVAC
  0
ENDBLK
  5
244A
  8
0
  0
BLOCK
  8
0
  2
*U167
 70
     1
 10
0.0
 20
0.0
 30
0.0
  3
*U167
  1

  0
TEXT
  5
244C
  8
DIMENSION
  6
CONTINUOUS
 62
     7
 10
-260.48502916722691
 20
57.293132452931687
 30
0.0
 40
4.0
  1
Controller
  7
ULVAC
  0
ENDBLK
  5
244E
  8
0
  0
BLOCK
  8
0
  2
*U168
 70
     1
 10
0.0
 20
0.0
 30
0.0
  3
*U168
  1

  0
TEXT
  5
2450
  8
DIMENSION
  6
CONTINUOUS
 62
     7
 10
-118.1254835045811
 20
57.293133406605953
 30
0.0
 40
4.0
  1
Controller
  7
ULVAC
  0
ENDBLK
  5
2452
  8
0
  0
ENDSEC
  0
SECTION
  2
ENTITIES
  0
LINE
  5
21
  8
0
  6
NON_PLOTING
 62
     7
 10
60.661688451104737
 20
153.65608442629309
 30
0.0
 11
60.661688451104737
 21
-143.34391557370691
 31
0.0
  0
LINE
  5
22
  8
0
  6
NON_PLOTING
 62
     7
 10
-314.90636427519757
 20
-143.34391557370691
 30
0.0
 11
60.661688451104737
 21
-143.34391557370691
 31
0.0
  0
LINE
  5
23
  8
0
  6
CONTINUOUS
 62
     7
 10
-23.338311548895259
 20
-133.34391557370691
 30
0.0
 11
50.661688451104737
 21
-133.34391557370691
 31
0.0
  0
LINE
  5
24
  8
0
  6
CONTINUOUS
 62
     7
 10
50.661688451104737
 20
-133.34391557370691
 30
0.0
 11
50.661688451104737
 21
-97.343915573706923
 31
0.0
  0
LINE
  5
25
  8
0
  6
CONTINUOUS
 62
     7
 10
-23.338311548895259
 20
-122.34391557370689
 30
0.0
 11
50.661688451104737
 21
-122.34391557370689
 31
0.0
  0
LINE
  5
26
  8
0
  6
CONTINUOUS
 62
     7
 10
-60.338311548895263
 20
-97.343915573706923
 30
0.0
 11
50.661688451104737
 21
-97.343915573706923
 31
0.0
  0
LINE
  5
27
  8
0
  6
CONTINUOUS
 62
     7
 10
-23.338311548895259
 20
-97.343915573706923
 30
0.0
 11
-23.338311548895259
 21
-133.34391557370691
 31
0.0
  0
LINE
  5
28
  8
0
  6
CONTINUOUS
 62
     7
 10
-60.338311548895263
 20
-97.343915573706923
 30
0.0
 11
-60.338311548895263
 21
-108.34391557370689
 31
0.0
  0
LINE
  5
29
  8
0
  6
CONTINUOUS
 62
     7
 10
-60.338311548895263
 20
-108.34391557370689
 30
0.0
 11
-23.338311548895259
 21
-108.34391557370689
 31
0.0
  0
LINE
  5
2A
  8
0
  6
CONTINUOUS
 62
     7
 10
-12.338311548895261
 20
-133.34391557370691
 30
0.0
 11
-12.338311548895261
 21
-122.34391557370689
 31
0.0
  0
LINE
  5
2B
  8
0
  6
CONTINUOUS
 62
     7
 10
-23.338311548895259
 20
-122.34391557370689
 30
0.0
 11
-23.338311548895259
 21
-133.34391557370691
 31
0.0
  0
INSERT
  5
2C
  8
0
  6
CONTINUOUS
 62
     7
  2
*U43
 10
-141.83831154889521
 20
5.1560844262930914
 30
0.0
  0
INSERT
  5
2E
  8
0
  6
CONTINUOUS
 62
     7
  2
*U45
 10
-141.83831154889521
 20
5.1560844262930914
 30
0.0
  0
LINE
  5
30
  8
0
  6
CONTINUOUS
 62
     7
 10
-50.510654548895303
 20
-101.33093657370689
 30
0.0
 11
-47.858003548895262
 21
-101.33093657370689
 31
0.0
  0
LINE
  5
31
  8
0
  6
CONTINUOUS
 62
     7
 10
-38.313185548895262
 20
-104.4836705737069
 30
0.0
 11
-35.181185548895257
 21
-104.4836705737069
 31
0.0
  0
LINE
  5
32
  8
0
  6
CONTINUOUS
 62
     7
 10
-38.01423454889526
 20
-103.9789755737069
 30
0.0
 11
-35.468610548895263
 21
-103.9789755737069
 31
0.0
  0
LINE
  5
33
  8
0
  6
CONTINUOUS
 62
     7
 10
-57.445021548895276
 20
-104.73019057370691
 30
0.0
 11
-57.445021548895276
 21
-101.99466657370689
 31
0.0
  0
LINE
  5
34
  8
0
  6
CONTINUOUS
 62
     7
 10
-55.814804548895282
 20
-104.6892655737069
 30
0.0
 11
-55.814804548895282
 21
-101.9946265737069
 31
0.0
  0
LINE
  5
35
  8
0
  6
CONTINUOUS
 62
     7
 10
-32.885222548895257
 20
-105.23330857370691
 30
0.0
 11
-35.26058054889527
 21
-101.33093657370689
 31
0.0
  0
LINE
  5
36
  8
0
  6
CONTINUOUS
 62
     7
 10
-39.357928548895273
 20
-105.2414385737069
 30
0.0
 11
-37.041581548895252
 21
-101.33093657370689
 31
0.0
  0
LINE
  5
37
  8
0
  6
CONTINUOUS
 62
     7
 10
-34.883031548895261
 20
-105.0072035737069
 30
0.0
 11
-35.181185548895257
 21
-104.4836705737069
 31
0.0
  0
LINE
  5
38
  8
0
  6
CONTINUOUS
 62
     7
 10
-38.615001548895258
 20
-104.9932025737069
 30
0.0
 11
-38.313185548895262
 21
-104.4836705737069
 31
0.0
  0
LINE
  5
39
  8
0
  6
CONTINUOUS
 62
     7
 10
-40.062723548895264
 20
-105.8374735737069
 30
0.0
 11
-38.30997854889528
 21
-105.8374735737069
 31
0.0
  0
LINE
  5
3A
  8
0
  6
CONTINUOUS
 62
     7
 10
-35.168816548895272
 20
-105.8374735737069
 30
0.0
 11
-32.085527548895257
 21
-105.8374735737069
 31
0.0
  0
LINE
  5
3B
  8
0
  6
CONTINUOUS
 62
     7
 10
-37.041581548895252
 20
-101.33093657370689
 30
0.0
 11
-35.26058054889527
 21
-101.33093657370689
 31
0.0
  0
LINE
  5
3C
  8
0
  6
CONTINUOUS
 62
     7
 10
-46.16554254889526
 20
-101.33093657370689
 30
0.0
 11
-43.198775548895249
 21
-101.33093657370689
 31
0.0
  0
LINE
  5
3D
  8
0
  6
CONTINUOUS
 62
     7
 10
-40.01993754889525
 20
-101.33093657370689
 30
0.0
 11
-38.300545548895258
 21
-101.33093657370689
 31
0.0
  0
LINE
  5
3E
  8
0
  6
CONTINUOUS
 62
     7
 10
-38.01423454889526
 20
-103.9789755737069
 30
0.0
 11
-36.716404548895269
 21
-101.7879545737069
 31
0.0
  0
LINE
  5
3F
  8
0
  6
CONTINUOUS
 62
     7
 10
-35.468610548895263
 20
-103.9789755737069
 30
0.0
 11
-36.716404548895269
 21
-101.7879545737069
 31
0.0
  0
LINE
  5
40
  8
0
  6
CONTINUOUS
 62
     7
 10
-41.296221548895261
 20
-105.8374735737069
 30
0.0
 11
-38.992432548895252
 21
-101.8611545737069
 31
0.0
  0
LINE
  5
41
  8
0
  6
CONTINUOUS
 62
     7
 10
-41.639966548895273
 20
-105.37182257370689
 30
0.0
 11
-39.750231548895258
 21
-102.11015957370689
 31
0.0
  0
LINE
  5
42
  8
0
  6
CONTINUOUS
 62
     7
 10
-41.639966548895273
 20
-105.37182257370689
 30
0.0
 11
-43.553968548895263
 21
-102.1450105737069
 31
0.0
  0
LINE
  5
43
  8
0
  6
CONTINUOUS
 62
     7
 10
-43.047718548895247
 20
-105.8374735737069
 30
0.0
 11
-45.402942548895261
 21
-101.86680757370689
 31
0.0
  0
LINE
  5
44
  8
0
  6
CONTINUOUS
 62
     7
 10
-43.047718548895247
 20
-105.8374735737069
 30
0.0
 11
-41.296221548895261
 21
-105.8374735737069
 31
0.0
  0
LINE
  5
45
  8
0
  6
CONTINUOUS
 62
     7
 10
-48.367434548895261
 20
-104.5592965737069
 30
0.0
 11
-48.367434548895261
 21
-101.8929435737069
 31
0.0
  0
LINE
  5
46
  8
0
  6
CONTINUOUS
 62
     7
 10
-49.99765254889526
 20
-104.9808695737069
 30
0.0
 11
-49.99765254889526
 21
-101.8935065737069
 31
0.0
  0
LINE
  5
47
  8
0
  6
CONTINUOUS
 62
     7
 10
-52.237998548895263
 20
-104.6892655737069
 30
0.0
 11
-52.237998548895263
 21
-101.9832595737069
 31
0.0
  0
LINE
  5
48
  8
0
  6
CONTINUOUS
 62
     7
 10
-47.589623548895261
 20
-105.3371075737069
 30
0.0
 11
-45.800740548895263
 21
-105.3371075737069
 31
0.0
  0
LINE
  5
49
  8
0
  6
CONTINUOUS
 62
     7
 10
-44.942575548895263
 20
-105.8374735737069
 30
0.0
 11
-44.704940548895273
 21
-104.45293657370691
 31
0.0
  0
LINE
  5
4A
  8
0
  6
CONTINUOUS
 62
     7
 10
-50.572039548895269
 20
-105.8374735737069
 30
0.0
 11
-44.942575548895263
 21
-105.8374735737069
 31
0.0
  0
LINE
  5
4B
  8
0
  6
CONTINUOUS
 62
     7
 10
-57.953789548895259
 20
-101.33093657370689
 30
0.0
 11
-55.306155548895248
 21
-101.33093657370689
 31
0.0
  0
ARC
  5
4C
  8
0
  6
CONTINUOUS
 62
     7
 10
-54.388982548895257
 20
-96.719894573706924
 30
0.0
 40
8.6593029999999978
 50
275.65153399999912
 51
277.9658520000001
  0
ARC
  5
4D
  8
0
  6
CONTINUOUS
 62
     7
 10
-54.388982548895257
 20
-96.719894573706924
 30
0.0
 40
9.3113910000000004
 50
261.60641899999979
 51
284.46884199999971
  0
LINE
  5
4E
  8
0
  6
CONTINUOUS
 62
     7
 10
-52.698325548895291
 20
-101.3312925737069
 30
0.0
 11
-50.95806654889526
 21
-101.3312925737069
 31
0.0
  0
LINE
  5
4F
  8
0
  6
CONTINUOUS
 62
     7
 10
-47.83970154889527
 20
-101.35515657370691
 30
0.0
 11
-47.83970154889527
 21
-101.3492375737069
 31
0.0
  0
LINE
  5
50
  8
0
  6
CONTINUOUS
 62
     7
 10
-50.528956548895259
 20
-101.3550845737069
 30
0.0
 11
-50.528956548895259
 21
-101.3492375737069
 31
0.0
  0
ARC
  5
51
  8
0
  6
CONTINUOUS
 62
     7
 10
-47.885455548895258
 20
-101.35515657370691
 30
0.0
 40
0.045754
 50
289.39587400000067
 51
0.0
  0
ARC
  5
52
  8
0
  6
CONTINUOUS
 62
     7
 10
-47.858003548895262
 20
-101.3492375737069
 30
0.0
 40
0.018301
 50
0.0
 51
90.0
  0
ARC
  5
53
  8
0
  6
CONTINUOUS
 62
     7
 10
-50.510654548895303
 20
-101.3492375737069
 30
0.0
 40
0.018301
 50
90.0
 51
180.0
  0
ARC
  5
54
  8
0
  6
CONTINUOUS
 62
     7
 10
-50.483202548895278
 20
-101.3550845737069
 30
0.0
 40
0.045754
 50
180.0
 51
250.72486599999971
  0
LINE
  5
55
  8
0
  6
CONTINUOUS
 62
     7
 10
-50.498306548895251
 20
-101.3982735737069
 30
0.0
 11
-50.114023548895261
 21
-101.6691175737069
 31
0.0
  0
LINE
  5
56
  8
0
  6
CONTINUOUS
 62
     7
 10
-47.870260548895253
 20
-101.3983135737069
 30
0.0
 11
-48.251788548895263
 21
-101.6690675737069
 31
0.0
  0
ARC
  5
57
  8
0
  6
CONTINUOUS
 62
     7
 10
-48.092912548895256
 20
-101.8929435737069
 30
0.0
 40
0.274522
 50
125.3616779999994
 51
180.0
  0
ARC
  5
58
  8
0
  6
CONTINUOUS
 62
     7
 10
-50.27217354889526
 20
-101.8935065737069
 30
0.0
 40
0.274522
 50
0.0
 51
54.823661999999629
  0
LINE
  5
59
  8
0
  6
CONTINUOUS
 62
     7
 10
-54.516571548895257
 20
-105.3371075737069
 30
0.0
 11
-53.536231548895252
 21
-105.3371075737069
 31
0.0
  0
LINE
  5
5A
  8
0
  6
CONTINUOUS
 62
     7
 10
-50.288981548895279
 20
-105.5421255737069
 30
0.0
 11
-50.551496548895251
 21
-105.7268655737069
 31
0.0
  0
LINE
  5
5B
  8
0
  6
CONTINUOUS
 62
     7
 10
-50.590340548895263
 20
-105.8016995737069
 30
0.0
 11
-50.590340548895263
 21
-105.8191715737069
 31
0.0
  0
ARC
  5
5C
  8
0
  6
CONTINUOUS
 62
     7
 10
-50.572039548895269
 20
-105.8191715737069
 30
0.0
 40
0.018301
 50
180.0
 51
270.0
  0
ARC
  5
5D
  8
0
  6
CONTINUOUS
 62
     7
 10
-50.683955548895263
 20
-104.9808695737069
 30
0.0
 40
0.686304
 50
305.13530900000001
 51
0.0
  0
ARC
  5
5E
  8
0
  6
CONTINUOUS
 62
     7
 10
-50.49883354889527
 20
-105.8016995737069
 30
0.0
 40
0.091507
 50
125.13530900000001
 51
180.0
  0
ARC
  5
5F
  8
0
  6
CONTINUOUS
 62
     7
 10
-47.589623548895261
 20
-104.5592965737069
 30
0.0
 40
0.7778109999999999
 50
180.0
 51
270.0
  0
LINE
  5
60
  8
0
  6
CONTINUOUS
 62
     7
 10
-51.455514548895273
 20
-104.98857157370691
 30
0.0
 11
-51.455514548895273
 21
-101.8864525737069
 31
0.0
  0
ARC
  5
61
  8
0
  6
CONTINUOUS
 62
     7
 10
-52.141818548895259
 20
-104.98857157370691
 30
0.0
 40
0.686304
 50
305.13530900000001
 51
0.0
  0
LINE
  5
62
  8
0
  6
CONTINUOUS
 62
     7
 10
-51.746843548895249
 20
-105.54982757370691
 30
0.0
 11
-51.91350054889525
 21
-105.6671085737069
 31
0.0
  0
LINE
  5
63
  8
0
  6
CONTINUOUS
 62
     7
 10
-50.939764548895269
 20
-101.3736945737069
 30
0.0
 11
-50.939764548895269
 21
-101.3495935737069
 31
0.0
  0
LINE
  5
64
  8
0
  6
CONTINUOUS
 62
     7
 10
-52.716627548895261
 20
-101.37762557370689
 30
0.0
 11
-52.716627548895261
 21
-101.3495935737069
 31
0.0
  0
ARC
  5
65
  8
0
  6
CONTINUOUS
 62
     7
 10
-51.180992548895262
 20
-101.8864525737069
 30
0.0
 40
0.274522
 50
127.52121799999949
 51
180.0
  0
LINE
  5
66
  8
0
  6
CONTINUOUS
 62
     7
 10
-51.348191548895258
 20
-101.6687215737069
 30
0.0
 11
-50.960257548895257
 21
-101.4118435737069
 31
0.0
  0
ARC
  5
67
  8
0
  6
CONTINUOUS
 62
     7
 10
-50.95806654889526
 20
-101.3495935737069
 30
0.0
 40
0.018301
 50
0.0
 51
90.0
  0
ARC
  5
68
  8
0
  6
CONTINUOUS
 62
     7
 10
-50.98551854889525
 20
-101.3736945737069
 30
0.0
 40
0.045754
 50
303.51137499999987
 51
0.0
  0
LINE
  5
69
  8
0
  6
CONTINUOUS
 62
     7
 10
-52.697895548895261
 20
-101.4145475737069
 30
0.0
 11
-52.425313548895247
 21
-101.61404457370691
 31
0.0
  0
ARC
  5
6A
  8
0
  6
CONTINUOUS
 62
     7
 10
-52.670873548895251
 20
-101.37762557370689
 30
0.0
 40
0.045754
 50
180.0
 51
233.80036399999969
  0
ARC
  5
6B
  8
0
  6
CONTINUOUS
 62
     7
 10
-52.698325548895291
 20
-101.3495935737069
 30
0.0
 40
0.018301
 50
90.0
 51
180.0
  0
ARC
  5
6C
  8
0
  6
CONTINUOUS
 62
     7
 10
-52.695534548895282
 20
-101.9832595737069
 30
0.0
 40
0.457536
 50
0.0
 51
53.800363999999661
  0
LINE
  5
6D
  8
0
  6
CONTINUOUS
 62
     7
 10
-57.972090548895281
 20
-101.3816765737069
 30
0.0
 11
-57.972090548895281
 21
-101.3492375737069
 31
0.0
  0
LINE
  5
6E
  8
0
  6
CONTINUOUS
 62
     7
 10
-55.287854548895282
 20
-101.3816535737069
 30
0.0
 11
-55.287854548895282
 21
-101.3492375737069
 31
0.0
  0
LINE
  5
6F
  8
0
  6
CONTINUOUS
 62
     7
 10
-57.959969548895259
 20
-101.4044485737069
 30
0.0
 11
-57.647035548895253
 21
-101.61513057370691
 31
0.0
  0
LINE
  5
70
  8
0
  6
CONTINUOUS
 62
     7
 10
-55.61284254889528
 20
-101.61512557370691
 30
0.0
 11
-55.299972548895283
 21
-101.40442357370689
 31
0.0
  0
ARC
  5
71
  8
0
  6
CONTINUOUS
 62
     7
 10
-55.357268548895277
 20
-101.9946265737069
 30
0.0
 40
0.457536
 50
123.9582570000001
 51
180.0
  0
ARC
  5
72
  8
0
  6
CONTINUOUS
 62
     7
 10
-57.902557548895253
 20
-101.99466657370689
 30
0.0
 40
0.457536
 50
0.0
 51
56.04966899999954
  0
ARC
  5
73
  8
0
  6
CONTINUOUS
 62
     7
 10
-55.315306548895258
 20
-101.3816535737069
 30
0.0
 40
0.027452
 50
303.95825700000012
 51
0.0
  0
ARC
  5
74
  8
0
  6
CONTINUOUS
 62
     7
 10
-57.944638548895277
 20
-101.3816765737069
 30
0.0
 40
0.027452
 50
180.0
 51
236.0496689999996
  0
ARC
  5
75
  8
0
  6
CONTINUOUS
 62
     7
 10
-55.306155548895248
 20
-101.3492375737069
 30
0.0
 40
0.018301
 50
0.0
 51
90.0
  0
ARC
  5
76
  8
0
  6
CONTINUOUS
 62
     7
 10
-57.953789548895259
 20
-101.3492375737069
 30
0.0
 40
0.018301
 50
90.0
 51
180.0
  0
LINE
  5
77
  8
0
  6
CONTINUOUS
 62
     7
 10
-52.361175548895261
 20
-105.00486057370691
 30
0.0
 11
-52.33344954889526
 21
-104.9689685737069
 31
0.0
  0
LINE
  5
78
  8
0
  6
CONTINUOUS
 62
     7
 10
-53.188951548895261
 20
-105.2956425737069
 30
0.0
 11
-52.625289548895282
 21
-105.1720815737069
 31
0.0
  0
ARC
  5
79
  8
0
  6
CONTINUOUS
 62
     7
 10
-52.695534548895282
 20
-104.6892655737069
 30
0.0
 40
0.457536
 50
322.31462500000038
 51
0.0
  0
ARC
  5
7A
  8
0
  6
CONTINUOUS
 62
     7
 10
-52.723260548895283
 20
-104.72515757370689
 30
0.0
 40
0.457536
 50
282.36435499999982
 51
322.31462500000038
  0
ARC
  5
7B
  8
0
  6
CONTINUOUS
 62
     7
 10
-53.663820548895259
 20
-96.719894573706924
 30
0.0
 40
8.6593029999999978
 50
262.0341479999999
 51
264.34846599999929
  0
LINE
  5
7C
  8
0
  6
CONTINUOUS
 62
     7
 10
-54.86385154889529
 20
-105.2956425737069
 30
0.0
 11
-55.427513548895277
 21
-105.1720815737069
 31
0.0
  0
ARC
  5
7D
  8
0
  6
CONTINUOUS
 62
     7
 10
-55.329542548895262
 20
-104.72515757370689
 30
0.0
 40
0.457536
 50
217.68537499999951
 51
257.63564500000018
  0
ARC
  5
7E
  8
0
  6
CONTINUOUS
 62
     7
 10
-55.357268548895277
 20
-104.6892655737069
 30
0.0
 40
0.457536
 50
180.0
 51
217.68537499999951
  0
LINE
  5
7F
  8
0
  6
CONTINUOUS
 62
     7
 10
-55.6916265488953
 20
-105.00486057370691
 30
0.0
 11
-55.719352548895259
 21
-104.9689685737069
 31
0.0
  0
LINE
  5
80
  8
0
  6
CONTINUOUS
 62
     7
 10
-46.183844548895259
 20
-101.3780245737069
 30
0.0
 11
-46.183844548895259
 21
-101.3492375737069
 31
0.0
  0
LINE
  5
81
  8
0
  6
CONTINUOUS
 62
     7
 10
-43.180473548895257
 20
-101.3761105737069
 30
0.0
 11
-43.180473548895257
 21
-101.3492375737069
 31
0.0
  0
LINE
  5
82
  8
0
  6
CONTINUOUS
 62
     7
 10
-46.168668548895269
 20
-101.4025785737069
 30
0.0
 11
-45.591843548895262
 21
-101.6909915737069
 31
0.0
  0
LINE
  5
83
  8
0
  6
CONTINUOUS
 62
     7
 10
-43.393511548895262
 20
-101.5178655737069
 30
0.0
 11
-43.193942548895258
 21
-101.3997335737069
 31
0.0
  0
ARC
  5
84
  8
0
  6
CONTINUOUS
 62
     7
 10
-45.79645954889525
 20
-102.1002235737069
 30
0.0
 40
0.457536
 50
30.674540999999991
 51
63.434962999999549
  0
ARC
  5
85
  8
0
  6
CONTINUOUS
 62
     7
 10
-43.16045154889526
 20
-101.9115935737069
 30
0.0
 40
0.457536
 50
120.6225970000004
 51
210.674541
  0
ARC
  5
86
  8
0
  6
CONTINUOUS
 62
     7
 10
-46.15639154889525
 20
-101.3780245737069
 30
0.0
 40
0.027452
 50
180.0
 51
243.43496299999961
  0
ARC
  5
87
  8
0
  6
CONTINUOUS
 62
     7
 10
-46.16554254889526
 20
-101.3492375737069
 30
0.0
 40
0.018301
 50
90.0
 51
180.0
  0
ARC
  5
88
  8
0
  6
CONTINUOUS
 62
     7
 10
-43.198775548895249
 20
-101.3492375737069
 30
0.0
 40
0.018301
 50
0.0
 51
90.0
  0
ARC
  5
89
  8
0
  6
CONTINUOUS
 62
     7
 10
-43.207925548895261
 20
-101.3761105737069
 30
0.0
 40
0.027452
 50
300.62259700000038
 51
0.0
  0
LINE
  5
8A
  8
0
  6
CONTINUOUS
 62
     7
 10
-38.282243548895252
 20
-101.3787725737069
 30
0.0
 11
-38.282243548895252
 21
-101.3492375737069
 31
0.0
  0
LINE
  5
8B
  8
0
  6
CONTINUOUS
 62
     7
 10
-40.038238548895258
 20
-101.38090657370689
 30
0.0
 11
-40.038238548895258
 21
-101.3492375737069
 31
0.0
  0
LINE
  5
8C
  8
0
  6
CONTINUOUS
 62
     7
 10
-38.81732354889526
 20
-101.6897815737069
 30
0.0
 11
-38.296449548895268
 21
-101.4028175737069
 31
0.0
  0
LINE
  5
8D
  8
0
  6
CONTINUOUS
 62
     7
 10
-40.02679754889526
 20
-101.4032055737069
 30
0.0
 11
-39.879268548895269
 21
-101.5091335737069
 31
0.0
  0
ARC
  5
8E
  8
0
  6
CONTINUOUS
 62
     7
 10
-38.309695548895263
 20
-101.3787725737069
 30
0.0
 40
0.027452
 50
298.8516000000007
 51
0.0
  0
ARC
  5
8F
  8
0
  6
CONTINUOUS
 62
     7
 10
-40.010786548895268
 20
-101.38090657370689
 30
0.0
 40
0.027452
 50
180.0
 51
234.3212409999997
  0
ARC
  5
90
  8
0
  6
CONTINUOUS
 62
     7
 10
-38.300545548895258
 20
-101.3492375737069
 30
0.0
 40
0.018301
 50
0.0
 51
90.0
  0
ARC
  5
91
  8
0
  6
CONTINUOUS
 62
     7
 10
-40.01993754889525
 20
-101.3492375737069
 30
0.0
 40
0.018301
 50
90.0
 51
180.0
  0
ARC
  5
92
  8
0
  6
CONTINUOUS
 62
     7
 10
-38.596542548895258
 20
-102.0905245737069
 30
0.0
 40
0.457536
 50
118.8516000000007
 51
149.91296199999979
  0
ARC
  5
93
  8
0
  6
CONTINUOUS
 62
     7
 10
-40.146121548895259
 20
-101.88078957370691
 30
0.0
 40
0.457536
 50
329.91296199999982
 51
54.321240999999667
  0
LINE
  5
94
  8
0
  6
CONTINUOUS
 62
     7
 10
-38.291676548895268
 20
-105.8191715737069
 30
0.0
 11
-38.291676548895268
 21
-105.76748457370689
 31
0.0
  0
LINE
  5
95
  8
0
  6
CONTINUOUS
 62
     7
 10
-40.081025548895269
 20
-105.8191715737069
 30
0.0
 11
-40.081025548895269
 21
-105.7694055737069
 31
0.0
  0
LINE
  5
96
  8
0
  6
CONTINUOUS
 62
     7
 10
-40.068137548895272
 20
-105.74613557370689
 30
0.0
 11
-39.508851548895258
 21
-105.3960975737069
 31
0.0
  0
LINE
  5
97
  8
0
  6
CONTINUOUS
 62
     7
 10
-38.505278548895262
 20
-105.5851565737069
 30
0.0
 11
-38.302092548895281
 21
-105.7459585737069
 31
0.0
  0
ARC
  5
98
  8
0
  6
CONTINUOUS
 62
     7
 10
-38.221343548895263
 20
-105.2263815737069
 30
0.0
 40
0.457536
 50
149.36004399999959
 51
231.64187199999969
  0
ARC
  5
99
  8
0
  6
CONTINUOUS
 62
     7
 10
-39.751586548895261
 20
-105.00825957370689
 30
0.0
 40
0.457536
 50
302.04103200000048
 51
329.36004399999979
  0
ARC
  5
9A
  8
0
  6
CONTINUOUS
 62
     7
 10
-38.319129548895262
 20
-105.76748457370689
 30
0.0
 40
0.027452
 50
0.0
 51
51.641871999999751
  0
ARC
  5
9B
  8
0
  6
CONTINUOUS
 62
     7
 10
-40.053573548895251
 20
-105.7694055737069
 30
0.0
 40
0.027452
 50
122.0410320000004
 51
180.0
  0
ARC
  5
9C
  8
0
  6
CONTINUOUS
 62
     7
 10
-38.30997854889528
 20
-105.8191715737069
 30
0.0
 40
0.018301
 50
270.0
 51
0.0
  0
ARC
  5
9D
  8
0
  6
CONTINUOUS
 62
     7
 10
-40.062723548895264
 20
-105.8191715737069
 30
0.0
 40
0.018301
 50
180.0
 51
270.0
  0
LINE
  5
9E
  8
0
  6
CONTINUOUS
 62
     7
 10
-35.187117548895273
 20
-105.8191715737069
 30
0.0
 11
-35.187117548895273
 21
-105.76691757370691
 31
0.0
  0
LINE
  5
9F
  8
0
  6
CONTINUOUS
 62
     7
 10
-32.715683548895257
 20
-105.3958775737069
 30
0.0
 11
-32.081401548895258
 21
-105.7463685737069
 31
0.0
  0
LINE
  5
A0
  8
0
  6
CONTINUOUS
 62
     7
 10
-35.177418548895282
 20
-105.74597857370691
 30
0.0
 11
-34.984734548895261
 21
-105.58261957370691
 31
0.0
  0
ARC
  5
A1
  8
0
  6
CONTINUOUS
 62
     7
 10
-35.168816548895272
 20
-105.8191715737069
 30
0.0
 40
0.018301
 50
180.0
 51
270.0
  0
LINE
  5
A2
  8
0
  6
CONTINUOUS
 62
     7
 10
-32.067226548895249
 20
-105.8191715737069
 30
0.0
 11
-32.067226548895249
 21
-105.7703965737069
 31
0.0
  0
ARC
  5
A3
  8
0
  6
CONTINUOUS
 62
     7
 10
-32.085527548895257
 20
-105.8191715737069
 30
0.0
 40
0.018301
 50
270.0
 51
0.0
  0
ARC
  5
A4
  8
0
  6
CONTINUOUS
 62
     7
 10
-32.09467854889526
 20
-105.7703965737069
 30
0.0
 40
0.027452
 50
0.0
 51
61.075906999999852
  0
ARC
  5
A5
  8
0
  6
CONTINUOUS
 62
     7
 10
-35.159665548895262
 20
-105.76691757370691
 30
0.0
 40
0.027452
 50
130.29155499999959
 51
180.0
  0
ARC
  5
A6
  8
0
  6
CONTINUOUS
 62
     7
 10
-32.494396548895267
 20
-104.9954145737069
 30
0.0
 40
0.457536
 50
211.3286930000003
 51
241.0759069999998
  0
ARC
  5
A7
  8
0
  6
CONTINUOUS
 62
     7
 10
-35.280612548895263
 20
-105.2336275737069
 30
0.0
 40
0.457536
 50
310.29155499999962
 51
29.661658999999929
  0
ARC
  5
A8
  8
0
  6
CONTINUOUS
 62
     7
 10
-52.17681654889526
 20
-105.29293757370689
 30
0.0
 40
0.457536
 50
284.46884199999971
 51
305.13530900000001
  0
LINE
  5
A9
  8
0
  6
CONTINUOUS
 62
     7
 10
-57.366474548895283
 20
-105.0098385737069
 30
0.0
 11
-57.409601548895282
 21
-104.9067075737069
 31
0.0
  0
LINE
  5
AA
  8
0
  6
CONTINUOUS
 62
     7
 10
-56.428183548895262
 20
-105.73978757370691
 30
0.0
 11
-55.808144548895257
 21
-105.9185435737069
 31
0.0
  0
LINE
  5
AB
  8
0
  6
CONTINUOUS
 62
     7
 10
-57.213188548895261
 20
-105.2035525737069
 30
0.0
 11
-56.570267548895259
 21
-105.67038657370691
 31
0.0
  0
ARC
  5
AC
  8
0
  6
CONTINUOUS
 62
     7
 10
-55.681399548895257
 20
-105.4789135737069
 30
0.0
 40
0.457536
 50
253.9178079999993
 51
261.60641899999979
  0
ARC
  5
AD
  8
0
  6
CONTINUOUS
 62
     7
 10
-56.301438548895277
 20
-105.3001575737069
 30
0.0
 40
0.457536
 50
234.01604900000009
 51
253.9178079999993
  0
ARC
  5
AE
  8
0
  6
CONTINUOUS
 62
     7
 10
-56.987486548895262
 20
-104.73019057370691
 30
0.0
 40
0.457536
 50
180.0
 51
202.69327800000019
  0
ARC
  5
AF
  8
0
  6
CONTINUOUS
 62
     7
 10
-56.944359548895257
 20
-104.83332257370689
 30
0.0
 40
0.457536
 50
202.69327800000019
 51
234.01604900000009
  0
LINE
  5
B0
  8
0
  6
CONTINUOUS
 62
     7
 10
-45.03612154889526
 20
-104.92474257370689
 30
0.0
 11
-44.721605548895262
 21
-104.44636157370689
 31
0.0
  0
ARC
  5
B1
  8
0
  6
CONTINUOUS
 62
     7
 10
-45.800740548895263
 20
-104.42203557370691
 30
0.0
 40
0.9150719999999999
 50
270.0
 51
326.67665400000021
  0
ARC
  5
B2
  8
0
  6
CONTINUOUS
 62
     7
 10
-44.713959548895247
 20
-104.45138857370689
 30
0.0
 40
0.009151
 50
350.26091999999989
 51
146.67665400000021
  0
POLYLINE
  5
B3
  8
0
  6
CONTINUOUS
 62
     7
 66
     1
 10
0.0
 20
0.0
 30
0.0
 70
     8
  0
VERTEX
  5
13AD
  8
0
 62
     7
 10
-26.63631154889525
 20
-101.58191557370689
 30
0.0
 70
    32
  0
VERTEX
  5
13AE
  8
0
 62
     7
 10
-26.72831154889526
 20
-101.5089155737069
 30
0.0
 70
    32
  0
VERTEX
  5
13AF
  8
0
 62
     7
 10
-26.823311548895269
 20
-101.4399155737069
 30
0.0
 70
    32
  0
VERTEX
  5
13B0
  8
0
 62
     7
 10
-26.922311548895269
 20
-101.3729155737069
 30
0.0
 70
    32
  0
VERTEX
  5
13B1
  8
0
 62
     7
 10
-27.02431154889527
 20
-101.3099155737069
 30
0.0
 70
    32
  0
VERTEX
  5
13B2
  8
0
 62
     7
 10
-27.129311548895259
 20
-101.25091557370691
 30
0.0
 70
    32
  0
VERTEX
  5
13B3
  8
0
 62
     7
 10
-27.23731154889526
 20
-101.1939155737069
 30
0.0
 70
    32
  0
VERTEX
  5
13B4
  8
0
 62
     7
 10
-27.348311548895271
 20
-101.1419155737069
 30
0.0
 70
    32
  0
VERTEX
  5
13B5
  8
0
 62
     7
 10
-27.46131154889525
 20
-101.0929155737069
 30
0.0
 70
    32
  0
VERTEX
  5
13B6
  8
0
 62
     7
 10
-27.577311548895249
 20
-101.0469155737069
 30
0.0
 70
    32
  0
VERTEX
  5
13B7
  8
0
 62
     7
 10
-27.69531154889528
 20
-101.0059155737069
 30
0.0
 70
    32
  0
VERTEX
  5
13B8
  8
0
 62
     7
 10
-27.81531154889527
 20
-100.9679155737069
 30
0.0
 70
    32
  0
VERTEX
  5
13B9
  8
0
 62
     7
 10
-27.937311548895249
 20
-100.9349155737069
 30
0.0
 70
    32
  0
VERTEX
  5
13BA
  8
0
 62
     7
 10
-28.060311548895271
 20
-100.9049155737069
 30
0.0
 70
    32
  0
VERTEX
  5
13BB
  8
0
 62
     7
 10
-28.185311548895271
 20
-100.87891557370691
 30
0.0
 70
    32
  0
VERTEX
  5
13BC
  8
0
 62
     7
 10
-28.311311548895262
 20
-100.8579155737069
 30
0.0
 70
    32
  0
VERTEX
  5
13BD
  8
0
 62
     7
 10
-28.43831154889526
 20
-100.8399155737069
 30
0.0
 70
    32
  0
VERTEX
  5
13BE
  8
0
 62
     7
 10
-28.566311548895261
 20
-100.8269155737069
 30
0.0
 70
    32
  0
VERTEX
  5
13BF
  8
0
 62
     7
 10
-28.69531154889528
 20
-100.81691557370689
 30
0.0
 70
    32
  0
VERTEX
  5
13C0
  8
0
 62
     7
 10
-28.823311548895258
 20
-100.8119155737069
 30
0.0
 70
    32
  0
VERTEX
  5
13C1
  8
0
 62
     7
 10
-28.952311548895249
 20
-100.8119155737069
 30
0.0
 70
    32
  0
VERTEX
  5
13C2
  8
0
 62
     7
 10
-29.081311548895261
 20
-100.8149155737069
 30
0.0
 70
    32
  0
VERTEX
  5
13C3
  8
0
 62
     7
 10
-29.21031154889528
 20
-100.82291557370689
 30
0.0
 70
    32
  0
VERTEX
  5
13C4
  8
0
 62
     7
 10
-29.338311548895259
 20
-100.8339155737069
 30
0.0
 70
    32
  0
VERTEX
  5
13C5
  8
0
 62
     7
 10
-29.465311548895269
 20
-100.84991557370689
 30
0.0
 70
    32
  0
VERTEX
  5
13C6
  8
0
 62
     7
 10
-29.59231154889526
 20
-100.8699155737069
 30
0.0
 70
    32
  0
VERTEX
  5
13C7
  8
0
 62
     7
 10
-29.71731154889525
 20
-100.89391557370691
 30
0.0
 70
    32
  0
VERTEX
  5
13C8
  8
0
 62
     7
 10
-29.841311548895249
 20
-100.9219155737069
 30
0.0
 70
    32
  0
VERTEX
  5
13C9
  8
0
 62
     7
 10
-29.963311548895259
 20
-100.9549155737069
 30
0.0
 70
    32
  0
VERTEX
  5
13CA
  8
0
 62
     7
 10
-30.084311548895268
 20
-100.9909155737069
 30
0.0
 70
    32
  0
VERTEX
  5
13CB
  8
0
 62
     7
 10
-30.203311548895261
 20
-101.03091557370691
 30
0.0
 70
    32
  0
VERTEX
  5
13CC
  8
0
 62
     7
 10
-30.32031154889528
 20
-101.0739155737069
 30
0.0
 70
    32
  0
VERTEX
  5
13CD
  8
0
 62
     7
 10
-30.43431154889527
 20
-101.1219155737069
 30
0.0
 70
    32
  0
VERTEX
  5
13CE
  8
0
 62
     7
 10
-30.546311548895261
 20
-101.1729155737069
 30
0.0
 70
    32
  0
VERTEX
  5
13CF
  8
0
 62
     7
 10
-30.65531154889527
 20
-101.22791557370689
 30
0.0
 70
    32
  0
VERTEX
  5
13D0
  8
0
 62
     7
 10
-30.76131154889525
 20
-101.2859155737069
 30
0.0
 70
    32
  0
VERTEX
  5
13D1
  8
0
 62
     7
 10
-30.86531154889526
 20
-101.3479155737069
 30
0.0
 70
    32
  0
VERTEX
  5
13D2
  8
0
 62
     7
 10
-30.965311548895279
 20
-101.4129155737069
 30
0.0
 70
    32
  0
VERTEX
  5
13D3
  8
0
 62
     7
 10
-31.061311548895262
 20
-101.48091557370689
 30
0.0
 70
    32
  0
VERTEX
  5
13D4
  8
0
 62
     7
 10
-31.154311548895269
 20
-101.5529155737069
 30
0.0
 70
    32
  0
VERTEX
  5
13D5
  8
0
 62
     7
 10
-31.244311548895269
 20
-101.6269155737069
 30
0.0
 70
    32
  0
VERTEX
  5
13D6
  8
0
 62
     7
 10
-31.329311548895259
 20
-101.70391557370689
 30
0.0
 70
    32
  0
VERTEX
  5
13D7
  8
0
 62
     7
 10
-31.411311548895259
 20
-101.78391557370691
 30
0.0
 70
    32
  0
VERTEX
  5
13D8
  8
0
 62
     7
 10
-31.488311548895268
 20
-101.8669155737069
 30
0.0
 70
    32
  0
VERTEX
  5
13D9
  8
0
 62
     7
 10
-31.561311548895262
 20
-101.95091557370689
 30
0.0
 70
    32
  0
VERTEX
  5
13DA
  8
0
 62
     7
 10
-31.630311548895271
 20
-102.0389155737069
 30
0.0
 70
    32
  0
VERTEX
  5
13DB
  8
0
 62
     7
 10
-31.69531154889528
 20
-102.1279155737069
 30
0.0
 70
    32
  0
VERTEX
  5
13DC
  8
0
 62
     7
 10
-31.754311548895259
 20
-102.21891557370689
 30
0.0
 70
    32
  0
VERTEX
  5
13DD
  8
0
 62
     7
 10
-31.80931154889527
 20
-102.3129155737069
 30
0.0
 70
    32
  0
VERTEX
  5
13DE
  8
0
 62
     7
 10
-31.860311548895272
 20
-102.4079155737069
 30
0.0
 70
    32
  0
VERTEX
  5
13DF
  8
0
 62
     7
 10
-31.90531154889527
 20
-102.50391557370691
 30
0.0
 70
    32
  0
VERTEX
  5
13E0
  8
0
 62
     7
 10
-31.94531154889528
 20
-102.6019155737069
 30
0.0
 70
    32
  0
VERTEX
  5
13E1
  8
0
 62
     7
 10
-31.981311548895249
 20
-102.70091557370689
 30
0.0
 70
    32
  0
VERTEX
  5
13E2
  8
0
 62
     7
 10
-32.01131154889525
 20
-102.8009155737069
 30
0.0
 70
    32
  0
VERTEX
  5
13E3
  8
0
 62
     7
 10
-32.037311548895261
 20
-102.9019155737069
 30
0.0
 70
    32
  0
VERTEX
  5
13E4
  8
0
 62
     7
 10
-32.057311548895257
 20
-103.00391557370691
 30
0.0
 70
    32
  0
VERTEX
  5
13E5
  8
0
 62
     7
 10
-32.072311548895257
 20
-103.1069155737069
 30
0.0
 70
    32
  0
VERTEX
  5
13E6
  8
0
 62
     7
 10
-32.081311548895258
 20
-103.2089155737069
 30
0.0
 70
    32
  0
VERTEX
  5
13E7
  8
0
 62
     7
 10
-32.08631154889526
 20
-103.3119155737069
 30
0.0
 70
    32
  0
VERTEX
  5
13E8
  8
0
 62
     7
 10
-32.085311548895277
 20
-103.4159155737069
 30
0.0
 70
    32
  0
VERTEX
  5
13E9
  8
0
 62
     7
 10
-32.079311548895262
 20
-103.51891557370691
 30
0.0
 70
    32
  0
VERTEX
  5
13EA
  8
0
 62
     7
 10
-32.068311548895267
 20
-103.6209155737069
 30
0.0
 70
    32
  0
VERTEX
  5
13EB
  8
0
 62
     7
 10
-32.051311548895256
 20
-103.7239155737069
 30
0.0
 70
    32
  0
VERTEX
  5
13EC
  8
0
 62
     7
 10
-32.03031154889527
 20
-103.8249155737069
 30
0.0
 70
    32
  0
VERTEX
  5
13ED
  8
0
 62
     7
 10
-32.003311548895269
 20
-103.9259155737069
 30
0.0
 70
    32
  0
VERTEX
  5
13EE
  8
0
 62
     7
 10
-31.971311548895262
 20
-104.0259155737069
 30
0.0
 70
    32
  0
VERTEX
  5
13EF
  8
0
 62
     7
 10
-31.93431154889527
 20
-104.1249155737069
 30
0.0
 70
    32
  0
VERTEX
  5
13F0
  8
0
 62
     7
 10
-31.892311548895261
 20
-104.22191557370689
 30
0.0
 70
    32
  0
VERTEX
  5
13F1
  8
0
 62
     7
 10
-31.846311548895262
 20
-104.3179155737069
 30
0.0
 70
    32
  0
VERTEX
  5
13F2
  8
0
 62
     7
 10
-31.794311548895269
 20
-104.4129155737069
 30
0.0
 70
    32
  0
VERTEX
  5
13F3
  8
0
 62
     7
 10
-31.738311548895268
 20
-104.5059155737069
 30
0.0
 70
    32
  0
VERTEX
  5
13F4
  8
0
 62
     7
 10
-31.677311548895261
 20
-104.5959155737069
 30
0.0
 70
    32
  0
VERTEX
  5
13F5
  8
0
 62
     7
 10
-31.611311548895259
 20
-104.6849155737069
 30
0.0
 70
    32
  0
VERTEX
  5
13F6
  8
0
 62
     7
 10
-31.541311548895251
 20
-104.77191557370691
 30
0.0
 70
    32
  0
VERTEX
  5
13F7
  8
0
 62
     7
 10
-31.466311548895249
 20
-104.85591557370689
 30
0.0
 70
    32
  0
VERTEX
  5
13F8
  8
0
 62
     7
 10
-31.38831154889526
 20
-104.9379155737069
 30
0.0
 70
    32
  0
VERTEX
  5
13F9
  8
0
 62
     7
 10
-31.305311548895279
 20
-105.0169155737069
 30
0.0
 70
    32
  0
VERTEX
  5
13FA
  8
0
 62
     7
 10
-31.218311548895262
 20
-105.0929155737069
 30
0.0
 70
    32
  0
VERTEX
  5
13FB
  8
0
 62
     7
 10
-31.128311548895269
 20
-105.1659155737069
 30
0.0
 70
    32
  0
VERTEX
  5
13FC
  8
0
 62
     7
 10
-31.034311548895261
 20
-105.2369155737069
 30
0.0
 70
    32
  0
VERTEX
  5
13FD
  8
0
 62
     7
 10
-30.936311548895262
 20
-105.3039155737069
 30
0.0
 70
    32
  0
VERTEX
  5
13FE
  8
0
 62
     7
 10
-30.83531154889528
 20
-105.3679155737069
 30
0.0
 70
    32
  0
VERTEX
  5
13FF
  8
0
 62
     7
 10
-30.731311548895249
 20
-105.4289155737069
 30
0.0
 70
    32
  0
VERTEX
  5
1400
  8
0
 62
     7
 10
-30.624311548895271
 20
-105.4859155737069
 30
0.0
 70
    32
  0
VERTEX
  5
1401
  8
0
 62
     7
 10
-30.514311548895261
 20
-105.53991557370691
 30
0.0
 70
    32
  0
VERTEX
  5
1402
  8
0
 62
     7
 10
-30.401311548895251
 20
-105.5899155737069
 30
0.0
 70
    32
  0
VERTEX
  5
1403
  8
0
 62
     7
 10
-30.286311548895259
 20
-105.6369155737069
 30
0.0
 70
    32
  0
VERTEX
  5
1404
  8
0
 62
     7
 10
-30.169311548895269
 20
-105.67991557370689
 30
0.0
 70
    32
  0
VERTEX
  5
1405
  8
0
 62
     7
 10
-30.050311548895269
 20
-105.71891557370689
 30
0.0
 70
    32
  0
VERTEX
  5
1406
  8
0
 62
     7
 10
-29.92831154889527
 20
-105.75391557370691
 30
0.0
 70
    32
  0
VERTEX
  5
1407
  8
0
 62
     7
 10
-29.805311548895279
 20
-105.7849155737069
 30
0.0
 70
    32
  0
VERTEX
  5
1408
  8
0
 62
     7
 10
-29.681311548895248
 20
-105.8119155737069
 30
0.0
 70
    32
  0
VERTEX
  5
1409
  8
0
 62
     7
 10
-29.555311548895268
 20
-105.8339155737069
 30
0.0
 70
    32
  0
VERTEX
  5
140A
  8
0
 62
     7
 10
-29.429311548895271
 20
-105.85291557370689
 30
0.0
 70
    32
  0
VERTEX
  5
140B
  8
0
 62
     7
 10
-29.30131154889526
 20
-105.8679155737069
 30
0.0
 70
    32
  0
VERTEX
  5
140C
  8
0
 62
     7
 10
-29.17331154889526
 20
-105.8779155737069
 30
0.0
 70
    32
  0
VERTEX
  5
140D
  8
0
 62
     7
 10
-29.044311548895269
 20
-105.88491557370691
 30
0.0
 70
    32
  0
VERTEX
  5
140E
  8
0
 62
     7
 10
-28.915311548895271
 20
-105.8869155737069
 30
0.0
 70
    32
  0
VERTEX
  5
140F
  8
0
 62
     7
 10
-28.786311548895249
 20
-105.88491557370691
 30
0.0
 70
    32
  0
VERTEX
  5
1410
  8
0
 62
     7
 10
-28.658311548895259
 20
-105.87891557370691
 30
0.0
 70
    32
  0
VERTEX
  5
1411
  8
0
 62
     7
 10
-28.529311548895269
 20
-105.8679155737069
 30
0.0
 70
    32
  0
VERTEX
  5
1412
  8
0
 62
     7
 10
-28.402311548895259
 20
-105.8539155737069
 30
0.0
 70
    32
  0
VERTEX
  5
1413
  8
0
 62
     7
 10
-28.275311548895271
 20
-105.83491557370689
 30
0.0
 70
    32
  0
VERTEX
  5
1414
  8
0
 62
     7
 10
-28.14931154889527
 20
-105.8119155737069
 30
0.0
 70
    32
  0
VERTEX
  5
1415
  8
0
 62
     7
 10
-28.025311548895271
 20
-105.7849155737069
 30
0.0
 70
    32
  0
VERTEX
  5
1416
  8
0
 62
     7
 10
-27.902311548895248
 20
-105.7549155737069
 30
0.0
 70
    32
  0
VERTEX
  5
1417
  8
0
 62
     7
 10
-27.78031154889527
 20
-105.7199155737069
 30
0.0
 70
    32
  0
VERTEX
  5
1418
  8
0
 62
     7
 10
-27.661311548895259
 20
-105.6809155737069
 30
0.0
 70
    32
  0
VERTEX
  5
1419
  8
0
 62
     7
 10
-27.544311548895269
 20
-105.63791557370691
 30
0.0
 70
    32
  0
VERTEX
  5
141A
  8
0
 62
     7
 10
-27.42831154889527
 20
-105.5919155737069
 30
0.0
 70
    32
  0
VERTEX
  5
141B
  8
0
 62
     7
 10
-27.316311548895261
 20
-105.5419155737069
 30
0.0
 70
    32
  0
VERTEX
  5
141C
  8
0
 62
     7
 10
-27.206311548895261
 20
-105.4879155737069
 30
0.0
 70
    32
  0
VERTEX
  5
141D
  8
0
 62
     7
 10
-27.098311548895271
 20
-105.4309155737069
 30
0.0
 70
    32
  0
VERTEX
  5
141E
  8
0
 62
     7
 10
-26.994311548895269
 20
-105.3699155737069
 30
0.0
 70
    32
  0
VERTEX
  5
141F
  8
0
 62
     7
 10
-26.893311548895269
 20
-105.3059155737069
 30
0.0
 70
    32
  0
VERTEX
  5
1420
  8
0
 62
     7
 10
-26.79531154889527
 20
-105.2389155737069
 30
0.0
 70
    32
  0
VERTEX
  5
1421
  8
0
 62
     7
 10
-26.701311548895269
 20
-105.1689155737069
 30
0.0
 70
    32
  0
VERTEX
  5
1422
  8
0
 62
     7
 10
-26.611311548895259
 20
-105.0949155737069
 30
0.0
 70
    32
  0
VERTEX
  5
1423
  8
0
 62
     7
 10
-26.52431154889527
 20
-105.01891557370691
 30
0.0
 70
    32
  0
VERTEX
  5
1424
  8
0
 62
     7
 10
-26.441311548895261
 20
-104.9399155737069
 30
0.0
 70
    32
  0
VERTEX
  5
1425
  8
0
 62
     7
 10
-26.36231154889526
 20
-104.8579155737069
 30
0.0
 70
    32
  0
VERTEX
  5
1426
  8
0
 62
     7
 10
-26.288311548895269
 20
-104.7739155737069
 30
0.0
 70
    32
  0
VERTEX
  5
1427
  8
0
 62
     7
 10
-26.218311548895262
 20
-104.6879155737069
 30
0.0
 70
    32
  0
VERTEX
  5
1428
  8
0
 62
     7
 10
-26.152311548895259
 20
-104.5989155737069
 30
0.0
 70
    32
  0
VERTEX
  5
1429
  8
0
 62
     7
 10
-26.091311548895249
 20
-104.5079155737069
 30
0.0
 70
    32
  0
VERTEX
  5
142A
  8
0
 62
     7
 10
-26.034311548895261
 20
-104.4159155737069
 30
0.0
 70
    32
  0
VERTEX
  5
142B
  8
0
 62
     7
 10
-25.98231154889525
 20
-104.3209155737069
 30
0.0
 70
    32
  0
VERTEX
  5
142C
  8
0
 62
     7
 10
-25.935311548895271
 20
-104.22491557370689
 30
0.0
 70
    32
  0
VERTEX
  5
142D
  8
0
 62
     7
 10
-25.893311548895269
 20
-104.1279155737069
 30
0.0
 70
    32
  0
SEQEND
  5
142E
  8
0
 62
     7
  0
POLYLINE
  5
B4
  8
0
  6
CONTINUOUS
 62
     7
 66
     1
 10
0.0
 20
0.0
 30
0.0
 70
     8
  0
VERTEX
  5
142F
  8
0
 62
     7
 10
-26.44031154889527
 20
-102.6419155737069
 30
0.0
 70
    32
  0
VERTEX
  5
1430
  8
0
 62
     7
 10
-26.483311548895259
 20
-102.5799155737069
 30
0.0
 70
    32
  0
VERTEX
  5
1431
  8
0
 62
     7
 10
-26.529311548895269
 20
-102.5199155737069
 30
0.0
 70
    32
  0
VERTEX
  5
1432
  8
0
 62
     7
 10
-26.579311548895269
 20
-102.4609155737069
 30
0.0
 70
    32
  0
VERTEX
  5
1433
  8
0
 62
     7
 10
-26.63231154889526
 20
-102.4039155737069
 30
0.0
 70
    32
  0
VERTEX
  5
1434
  8
0
 62
     7
 10
-26.68831154889526
 20
-102.3479155737069
 30
0.0
 70
    32
  0
VERTEX
  5
1435
  8
0
 62
     7
 10
-26.748311548895259
 20
-102.2939155737069
 30
0.0
 70
    32
  0
VERTEX
  5
1436
  8
0
 62
     7
 10
-26.810311548895271
 20
-102.2419155737069
 30
0.0
 70
    32
  0
VERTEX
  5
1437
  8
0
 62
     7
 10
-26.876311548895259
 20
-102.19191557370689
 30
0.0
 70
    32
  0
VERTEX
  5
1438
  8
0
 62
     7
 10
-26.94531154889528
 20
-102.1429155737069
 30
0.0
 70
    32
  0
VERTEX
  5
1439
  8
0
 62
     7
 10
-27.01631154889526
 20
-102.09691557370689
 30
0.0
 70
    32
  0
VERTEX
  5
143A
  8
0
 62
     7
 10
-27.089311548895271
 20
-102.0539155737069
 30
0.0
 70
    32
  0
VERTEX
  5
143B
  8
0
 62
     7
 10
-27.166311548895251
 20
-102.0119155737069
 30
0.0
 70
    32
  0
VERTEX
  5
143C
  8
0
 62
     7
 10
-27.244311548895269
 20
-101.9729155737069
 30
0.0
 70
    32
  0
VERTEX
  5
143D
  8
0
 62
     7
 10
-27.325311548895272
 20
-101.93591557370689
 30
0.0
 70
    32
  0
VERTEX
  5
143E
  8
0
 62
     7
 10
-27.408311548895259
 20
-101.9009155737069
 30
0.0
 70
    32
  0
VERTEX
  5
143F
  8
0
 62
     7
 10
-27.493311548895271
 20
-101.8689155737069
 30
0.0
 70
    32
  0
VERTEX
  5
1440
  8
0
 62
     7
 10
-27.579311548895259
 20
-101.8399155737069
 30
0.0
 70
    32
  0
VERTEX
  5
1441
  8
0
 62
     7
 10
-27.66731154889526
 20
-101.81391557370689
 30
0.0
 70
    32
  0
VERTEX
  5
1442
  8
0
 62
     7
 10
-27.75731154889526
 20
-101.78991557370691
 30
0.0
 70
    32
  0
VERTEX
  5
1443
  8
0
 62
     7
 10
-27.848311548895271
 20
-101.7679155737069
 30
0.0
 70
    32
  0
VERTEX
  5
1444
  8
0
 62
     7
 10
-27.94031154889527
 20
-101.7499155737069
 30
0.0
 70
    32
  0
VERTEX
  5
1445
  8
0
 62
     7
 10
-28.033311548895259
 20
-101.73391557370689
 30
0.0
 70
    32
  0
VERTEX
  5
1446
  8
0
 62
     7
 10
-28.127311548895261
 20
-101.7209155737069
 30
0.0
 70
    32
  0
VERTEX
  5
1447
  8
0
 62
     7
 10
-28.22231154889527
 20
-101.7109155737069
 30
0.0
 70
    32
  0
VERTEX
  5
1448
  8
0
 62
     7
 10
-28.317311548895258
 20
-101.70391557370689
 30
0.0
 70
    32
  0
VERTEX
  5
1449
  8
0
 62
     7
 10
-28.412311548895261
 20
-101.6999155737069
 30
0.0
 70
    32
  0
VERTEX
  5
144A
  8
0
 62
     7
 10
-28.508311548895261
 20
-101.69791557370689
 30
0.0
 70
    32
  0
VERTEX
  5
144B
  8
0
 62
     7
 10
-28.60331154889527
 20
-101.6999155737069
 30
0.0
 70
    32
  0
VERTEX
  5
144C
  8
0
 62
     7
 10
-28.69931154889527
 20
-101.70391557370689
 30
0.0
 70
    32
  0
VERTEX
  5
144D
  8
0
 62
     7
 10
-28.794311548895269
 20
-101.7109155737069
 30
0.0
 70
    32
  0
VERTEX
  5
144E
  8
0
 62
     7
 10
-28.88831154889526
 20
-101.7209155737069
 30
0.0
 70
    32
  0
VERTEX
  5
144F
  8
0
 62
     7
 10
-28.982311548895261
 20
-101.73391557370689
 30
0.0
 70
    32
  0
VERTEX
  5
1450
  8
0
 62
     7
 10
-29.075311548895272
 20
-101.7499155737069
 30
0.0
 70
    32
  0
VERTEX
  5
1451
  8
0
 62
     7
 10
-29.168311548895261
 20
-101.76891557370691
 30
0.0
 70
    32
  0
VERTEX
  5
1452
  8
0
 62
     7
 10
-29.258311548895271
 20
-101.78991557370691
 30
0.0
 70
    32
  0
VERTEX
  5
1453
  8
0
 62
     7
 10
-29.348311548895271
 20
-101.81391557370689
 30
0.0
 70
    32
  0
VERTEX
  5
1454
  8
0
 62
     7
 10
-29.436311548895262
 20
-101.84091557370689
 30
0.0
 70
    32
  0
VERTEX
  5
1455
  8
0
 62
     7
 10
-29.523311548895268
 20
-101.8699155737069
 30
0.0
 70
    32
  0
VERTEX
  5
1456
  8
0
 62
     7
 10
-29.608311548895259
 20
-101.9019155737069
 30
0.0
 70
    32
  0
VERTEX
  5
1457
  8
0
 62
     7
 10
-29.69031154889527
 20
-101.93591557370689
 30
0.0
 70
    32
  0
VERTEX
  5
1458
  8
0
 62
     7
 10
-29.771311548895259
 20
-101.9729155737069
 30
0.0
 70
    32
  0
VERTEX
  5
1459
  8
0
 62
     7
 10
-29.85031154889526
 20
-102.0119155737069
 30
0.0
 70
    32
  0
VERTEX
  5
145A
  8
0
 62
     7
 10
-29.92631154889526
 20
-102.0539155737069
 30
0.0
 70
    32
  0
VERTEX
  5
145B
  8
0
 62
     7
 10
-30.000311548895269
 20
-102.0979155737069
 30
0.0
 70
    32
  0
VERTEX
  5
145C
  8
0
 62
     7
 10
-30.071311548895249
 20
-102.14391557370691
 30
0.0
 70
    32
  0
VERTEX
  5
145D
  8
0
 62
     7
 10
-30.139311548895261
 20
-102.19191557370689
 30
0.0
 70
    32
  0
VERTEX
  5
145E
  8
0
 62
     7
 10
-30.205311548895271
 20
-102.2429155737069
 30
0.0
 70
    32
  0
VERTEX
  5
145F
  8
0
 62
     7
 10
-30.267311548895272
 20
-102.2949155737069
 30
0.0
 70
    32
  0
VERTEX
  5
1460
  8
0
 62
     7
 10
-30.327311548895249
 20
-102.3489155737069
 30
0.0
 70
    32
  0
VERTEX
  5
1461
  8
0
 62
     7
 10
-30.383311548895261
 20
-102.4039155737069
 30
0.0
 70
    32
  0
VERTEX
  5
1462
  8
0
 62
     7
 10
-30.436311548895262
 20
-102.4619155737069
 30
0.0
 70
    32
  0
VERTEX
  5
1463
  8
0
 62
     7
 10
-30.486311548895259
 20
-102.5209155737069
 30
0.0
 70
    32
  0
VERTEX
  5
1464
  8
0
 62
     7
 10
-30.532311548895269
 20
-102.5809155737069
 30
0.0
 70
    32
  0
VERTEX
  5
1465
  8
0
 62
     7
 10
-30.575311548895272
 20
-102.6429155737069
 30
0.0
 70
    32
  0
VERTEX
  5
1466
  8
0
 62
     7
 10
-30.61431154889528
 20
-102.7059155737069
 30
0.0
 70
    32
  0
VERTEX
  5
1467
  8
0
 62
     7
 10
-30.64931154889527
 20
-102.7699155737069
 30
0.0
 70
    32
  0
VERTEX
  5
1468
  8
0
 62
     7
 10
-30.681311548895248
 20
-102.83491557370689
 30
0.0
 70
    32
  0
VERTEX
  5
1469
  8
0
 62
     7
 10
-30.709311548895268
 20
-102.9009155737069
 30
0.0
 70
    32
  0
VERTEX
  5
146A
  8
0
 62
     7
 10
-30.733311548895259
 20
-102.9679155737069
 30
0.0
 70
    32
  0
VERTEX
  5
146B
  8
0
 62
     7
 10
-30.753311548895269
 20
-103.0349155737069
 30
0.0
 70
    32
  0
VERTEX
  5
146C
  8
0
 62
     7
 10
-30.76931154889526
 20
-103.10291557370689
 30
0.0
 70
    32
  0
VERTEX
  5
146D
  8
0
 62
     7
 10
-30.782311548895269
 20
-103.1719155737069
 30
0.0
 70
    32
  0
VERTEX
  5
146E
  8
0
 62
     7
 10
-30.790311548895271
 20
-103.2399155737069
 30
0.0
 70
    32
  0
VERTEX
  5
146F
  8
0
 62
     7
 10
-30.794311548895269
 20
-103.3089155737069
 30
0.0
 70
    32
  0
VERTEX
  5
1470
  8
0
 62
     7
 10
-30.79531154889527
 20
-103.3779155737069
 30
0.0
 70
    32
  0
VERTEX
  5
1471
  8
0
 62
     7
 10
-30.791311548895251
 20
-103.4469155737069
 30
0.0
 70
    32
  0
VERTEX
  5
1472
  8
0
 62
     7
 10
-30.783311548895259
 20
-103.51591557370691
 30
0.0
 70
    32
  0
VERTEX
  5
1473
  8
0
 62
     7
 10
-30.77231154889526
 20
-103.5839155737069
 30
0.0
 70
    32
  0
VERTEX
  5
1474
  8
0
 62
     7
 10
-30.756311548895258
 20
-103.6519155737069
 30
0.0
 70
    32
  0
VERTEX
  5
1475
  8
0
 62
     7
 10
-30.736311548895259
 20
-103.7199155737069
 30
0.0
 70
    32
  0
VERTEX
  5
1476
  8
0
 62
     7
 10
-30.713311548895259
 20
-103.78691557370691
 30
0.0
 70
    32
  0
VERTEX
  5
1477
  8
0
 62
     7
 10
-30.686311548895262
 20
-103.85291557370689
 30
0.0
 70
    32
  0
VERTEX
  5
1478
  8
0
 62
     7
 10
-30.65531154889527
 20
-103.91791557370691
 30
0.0
 70
    32
  0
VERTEX
  5
1479
  8
0
 62
     7
 10
-30.62031154889528
 20
-103.9829155737069
 30
0.0
 70
    32
  0
VERTEX
  5
147A
  8
0
 62
     7
 10
-30.581311548895261
 20
-104.04591557370691
 30
0.0
 70
    32
  0
VERTEX
  5
147B
  8
0
 62
     7
 10
-30.53931154889527
 20
-104.1079155737069
 30
0.0
 70
    32
  0
VERTEX
  5
147C
  8
0
 62
     7
 10
-30.494311548895269
 20
-104.16791557370691
 30
0.0
 70
    32
  0
VERTEX
  5
147D
  8
0
 62
     7
 10
-30.444311548895271
 20
-104.2269155737069
 30
0.0
 70
    32
  0
VERTEX
  5
147E
  8
0
 62
     7
 10
-30.392311548895261
 20
-104.2849155737069
 30
0.0
 70
    32
  0
VERTEX
  5
147F
  8
0
 62
     7
 10
-30.33631154889525
 20
-104.34091557370689
 30
0.0
 70
    32
  0
VERTEX
  5
1480
  8
0
 62
     7
 10
-30.277311548895259
 20
-104.3949155737069
 30
0.0
 70
    32
  0
VERTEX
  5
1481
  8
0
 62
     7
 10
-30.215311548895269
 20
-104.44791557370689
 30
0.0
 70
    32
  0
VERTEX
  5
1482
  8
0
 62
     7
 10
-30.150311548895271
 20
-104.4979155737069
 30
0.0
 70
    32
  0
VERTEX
  5
1483
  8
0
 62
     7
 10
-30.082311548895259
 20
-104.5469155737069
 30
0.0
 70
    32
  0
VERTEX
  5
1484
  8
0
 62
     7
 10
-30.01131154889525
 20
-104.5929155737069
 30
0.0
 70
    32
  0
VERTEX
  5
1485
  8
0
 62
     7
 10
-29.93831154889526
 20
-104.6369155737069
 30
0.0
 70
    32
  0
VERTEX
  5
1486
  8
0
 62
     7
 10
-29.862311548895271
 20
-104.6789155737069
 30
0.0
 70
    32
  0
VERTEX
  5
1487
  8
0
 62
     7
 10
-29.784311548895261
 20
-104.71891557370689
 30
0.0
 70
    32
  0
VERTEX
  5
1488
  8
0
 62
     7
 10
-29.703311548895261
 20
-104.7559155737069
 30
0.0
 70
    32
  0
VERTEX
  5
1489
  8
0
 62
     7
 10
-29.62131154889525
 20
-104.7909155737069
 30
0.0
 70
    32
  0
VERTEX
  5
148A
  8
0
 62
     7
 10
-29.536311548895259
 20
-104.8239155737069
 30
0.0
 70
    32
  0
VERTEX
  5
148B
  8
0
 62
     7
 10
-29.450311548895272
 20
-104.85291557370689
 30
0.0
 70
    32
  0
VERTEX
  5
148C
  8
0
 62
     7
 10
-29.36231154889526
 20
-104.8799155737069
 30
0.0
 70
    32
  0
VERTEX
  5
148D
  8
0
 62
     7
 10
-29.273311548895268
 20
-104.9049155737069
 30
0.0
 70
    32
  0
VERTEX
  5
148E
  8
0
 62
     7
 10
-29.18231154889526
 20
-104.92691557370691
 30
0.0
 70
    32
  0
VERTEX
  5
148F
  8
0
 62
     7
 10
-29.090311548895269
 20
-104.9459155737069
 30
0.0
 70
    32
  0
VERTEX
  5
1490
  8
0
 62
     7
 10
-28.997311548895262
 20
-104.9619155737069
 30
0.0
 70
    32
  0
VERTEX
  5
1491
  8
0
 62
     7
 10
-28.90331154889526
 20
-104.97491557370689
 30
0.0
 70
    32
  0
VERTEX
  5
1492
  8
0
 62
     7
 10
-28.80931154889527
 20
-104.9859155737069
 30
0.0
 70
    32
  0
VERTEX
  5
1493
  8
0
 62
     7
 10
-28.714311548895271
 20
-104.9929155737069
 30
0.0
 70
    32
  0
VERTEX
  5
1494
  8
0
 62
     7
 10
-28.619311548895269
 20
-104.9979155737069
 30
0.0
 70
    32
  0
VERTEX
  5
1495
  8
0
 62
     7
 10
-28.523311548895261
 20
-104.9999155737069
 30
0.0
 70
    32
  0
VERTEX
  5
1496
  8
0
 62
     7
 10
-28.427311548895261
 20
-104.9989155737069
 30
0.0
 70
    32
  0
VERTEX
  5
1497
  8
0
 62
     7
 10
-28.332311548895259
 20
-104.9949155737069
 30
0.0
 70
    32
  0
VERTEX
  5
1498
  8
0
 62
     7
 10
-28.237311548895271
 20
-104.9889155737069
 30
0.0
 70
    32
  0
VERTEX
  5
1499
  8
0
 62
     7
 10
-28.142311548895261
 20
-104.9789155737069
 30
0.0
 70
    32
  0
VERTEX
  5
149A
  8
0
 62
     7
 10
-28.04831154889526
 20
-104.9669155737069
 30
0.0
 70
    32
  0
VERTEX
  5
149B
  8
0
 62
     7
 10
-27.955311548895271
 20
-104.95091557370689
 30
0.0
 70
    32
  0
VERTEX
  5
149C
  8
0
 62
     7
 10
-27.863311548895268
 20
-104.93291557370689
 30
0.0
 70
    32
  0
VERTEX
  5
149D
  8
0
 62
     7
 10
-27.771311548895259
 20
-104.91191557370691
 30
0.0
 70
    32
  0
VERTEX
  5
149E
  8
0
 62
     7
 10
-27.68231154889526
 20
-104.8889155737069
 30
0.0
 70
    32
  0
VERTEX
  5
149F
  8
0
 62
     7
 10
-27.593311548895262
 20
-104.8629155737069
 30
0.0
 70
    32
  0
VERTEX
  5
14A0
  8
0
 62
     7
 10
-27.506311548895251
 20
-104.8339155737069
 30
0.0
 70
    32
  0
VERTEX
  5
14A1
  8
0
 62
     7
 10
-27.421311548895261
 20
-104.80191557370691
 30
0.0
 70
    32
  0
VERTEX
  5
14A2
  8
0
 62
     7
 10
-27.338311548895259
 20
-104.7679155737069
 30
0.0
 70
    32
  0
VERTEX
  5
14A3
  8
0
 62
     7
 10
-27.25731154889526
 20
-104.7319155737069
 30
0.0
 70
    32
  0
VERTEX
  5
14A4
  8
0
 62
     7
 10
-27.17831154889527
 20
-104.6929155737069
 30
0.0
 70
    32
  0
VERTEX
  5
14A5
  8
0
 62
     7
 10
-27.101311548895261
 20
-104.6519155737069
 30
0.0
 70
    32
  0
VERTEX
  5
14A6
  8
0
 62
     7
 10
-27.027311548895259
 20
-104.6079155737069
 30
0.0
 70
    32
  0
VERTEX
  5
14A7
  8
0
 62
     7
 10
-26.956311548895261
 20
-104.5619155737069
 30
0.0
 70
    32
  0
VERTEX
  5
14A8
  8
0
 62
     7
 10
-26.887311548895259
 20
-104.5139155737069
 30
0.0
 70
    32
  0
VERTEX
  5
14A9
  8
0
 62
     7
 10
-26.821311548895249
 20
-104.4649155737069
 30
0.0
 70
    32
  0
VERTEX
  5
14AA
  8
0
 62
     7
 10
-26.758311548895271
 20
-104.4129155737069
 30
0.0
 70
    32
  0
VERTEX
  5
14AB
  8
0
 62
     7
 10
-26.698311548895258
 20
-104.35891557370689
 30
0.0
 70
    32
  0
VERTEX
  5
14AC
  8
0
 62
     7
 10
-26.64131154889526
 20
-104.3039155737069
 30
0.0
 70
    32
  0
VERTEX
  5
14AD
  8
0
 62
     7
 10
-26.587311548895261
 20
-104.2469155737069
 30
0.0
 70
    32
  0
VERTEX
  5
14AE
  8
0
 62
     7
 10
-26.537311548895261
 20
-104.1879155737069
 30
0.0
 70
    32
  0
VERTEX
  5
14AF
  8
0
 62
     7
 10
-26.49031154889526
 20
-104.1279155737069
 30
0.0
 70
    32
  0
SEQEND
  5
14B0
  8
0
 62
     7
  0
LINE
  5
B5
  8
0
  6
CONTINUOUS
 62
     7
 10
-25.78702054889526
 20
-100.8296795737069
 30
0.0
 11
-25.78702054889526
 21
-102.64193357370689
 31
0.0
  0
LINE
  5
B6
  8
0
  6
CONTINUOUS
 62
     7
 10
-25.843617548895271
 20
-100.8113785737069
 30
0.0
 11
-25.805321548895279
 21
-100.8113785737069
 31
0.0
  0
ARC
  5
B7
  8
0
  6
CONTINUOUS
 62
     7
 10
-25.805321548895279
 20
-100.8296795737069
 30
0.0
 40
0.018301
 50
0.0
 51
90.0
  0
ARC
  5
B8
  8
0
  6
CONTINUOUS
 62
     7
 10
-25.843617548895271
 20
-100.8296795737069
 30
0.0
 40
0.018301
 50
90.0
 51
150.00044000000031
  0
LINE
  5
B9
  8
0
  6
CONTINUOUS
 62
     7
 10
-26.05647054889528
 20
-101.4144115737069
 30
0.0
 11
-25.856431548895259
 21
-100.8113785737069
 31
0.0
  0
ARC
  5
BA
  8
0
  6
CONTINUOUS
 62
     7
 10
-26.403883548895269
 20
-101.2991665737069
 30
0.0
 40
0.366029
 50
230.50994399999979
 51
341.64815299999981
  0
LINE
  5
BB
  8
0
  6
CONTINUOUS
 62
     7
 10
-26.44035354889526
 20
-102.64193357370689
 30
0.0
 11
-25.789252548895249
 21
-102.64193357370689
 31
0.0
  0
LINE
  5
BC
  8
0
  6
CONTINUOUS
 62
     7
 10
-26.490187548895271
 20
-104.1276355737069
 30
0.0
 11
-25.89356054889527
 21
-104.1276355737069
 31
0.0
  0
INSERT
  5
1983
  8
0
  6
CONTINUOUS
  2
*U112
 10
0.0
 20
0.0
 30
0.0
  0
INSERT
  5
1984
  8
0
  6
CONTINUOUS
  2
*U113
 10
0.0
 20
0.0
 30
0.0
  0
CIRCLE
  5
1AAF
  8
0
 62
     7
 10
-198.2354361963948
 20
-32.807586007581293
 30
0.0
 40
12.5
  0
CIRCLE
  5
1AB0
  8
0
 62
     7
 10
-198.2354361963948
 20
-32.807586007581293
 30
0.0
 40
12.0
  0
CIRCLE
  5
1AB1
  8
0
 62
     7
 10
-198.2354361963948
 20
-32.807586007581293
 30
0.0
 40
15.0
  0
CIRCLE
  5
1AB2
  8
0
 62
     7
 10
-198.2354361963948
 20
-32.807586007581293
 30
0.0
 40
13.6
  0
LINE
  5
1AB3
  8
0
 62
     7
 10
-189.73811540983411
 20
-22.188944877461001
 30
0.0
 11
-190.38655092522421
 21
-22.83738039285101
 31
0.0
  0
LINE
  5
1AB4
  8
0
 62
     7
 10
-190.38655092522421
 20
-22.83738039285101
 30
0.0
 11
-188.2652305816645
 21
-24.95870073641067
 31
0.0
  0
LINE
  5
1AB5
  8
0
 62
     7
 10
-188.2652305816645
 20
-24.95870073641067
 30
0.0
 11
-187.61679506627451
 21
-24.310265221020661
 31
0.0
  0
LINE
  5
1AB6
  8
0
 62
     7
 10
-187.61679506627451
 20
-41.304906794142042
 30
0.0
 11
-188.2652305816645
 21
-40.656471278751958
 31
0.0
  0
LINE
  5
1AB7
  8
0
 62
     7
 10
-188.2652305816645
 20
-40.656471278751958
 30
0.0
 11
-190.38655092522421
 21
-42.777791622311618
 31
0.0
  0
LINE
  5
1AB8
  8
0
 62
     7
 10
-190.38655092522421
 20
-42.777791622311618
 30
0.0
 11
-189.73811540983419
 21
-43.426227137701702
 31
0.0
  0
INSERT
  5
1AD5
  8
0
  6
CONTINUOUS
 62
     7
  2
*S104
 10
0.0
 20
0.0
 30
0.0
  0
CIRCLE
  5
1B09
  8
0
 62
     7
 10
-195.88543619639489
 20
-31.946586007581189
 30
0.0
 40
0.8
  0
CIRCLE
  5
1B0A
  8
0
 62
     7
 10
-195.88543619639489
 20
-31.946586007581189
 30
0.0
 40
1.8500000000000001
  0
CIRCLE
  5
1B0B
  8
0
 62
     7
 10
-200.5854361963948
 20
-31.946586007581189
 30
0.0
 40
0.8
  0
CIRCLE
  5
1B0C
  8
0
 62
     7
 10
-200.5854361963948
 20
-31.946586007581189
 30
0.0
 40
1.8500000000000001
  0
CIRCLE
  5
1B0D
  8
0
 62
     7
 10
-191.7354361963948
 20
-32.807586007581293
 30
0.0
 40
0.5
  0
CIRCLE
  5
1B0E
  8
0
 62
     7
 10
-204.7354361963948
 20
-32.807586007581293
 30
0.0
 40
0.5
  0
CIRCLE
  5
1B0F
  8
0
 62
     7
 10
-198.2354361963948
 20
-29.007586007581281
 30
0.0
 40
0.5
  0
CIRCLE
  5
1B10
  8
0
 62
     7
 10
-191.7354361963948
 20
-32.807586007581293
 30
0.0
 40
1.5
  0
CIRCLE
  5
1B11
  8
0
 62
     7
 10
-198.2354361963948
 20
-29.007586007581281
 30
0.0
 40
1.5
  0
CIRCLE
  5
1B12
  8
0
 62
     7
 10
-204.7354361963948
 20
-32.807586007581293
 30
0.0
 40
1.5
  0
CIRCLE
  5
1B13
  8
0
 62
     7
 10
-193.63924341288191
 20
-28.211390635669389
 30
0.0
 40
0.5
  0
CIRCLE
  5
1B14
  8
0
 62
     7
 10
-202.83163027410831
 20
-37.403780085292929
 30
0.0
 40
0.5
  0
CIRCLE
  5
1B15
  8
0
 62
     7
 10
-193.63924341288191
 20
-28.211390635669389
 30
0.0
 40
1.4999999999999989
  0
CIRCLE
  5
1B16
  8
0
 62
     7
 10
-202.83163027410831
 20
-37.403780085292929
 30
0.0
 40
1.4999999999999989
  0
INSERT
  5
1B17
  8
0
  6
CONTINUOUS
 62
     7
  2
*S105
 10
0.0
 20
0.0
 30
0.0
  0
INSERT
  5
1B19
  8
0
  6
CONTINUOUS
 62
     7
  2
*S106
 10
0.0
 20
0.0
 30
0.0
  0
INSERT
  5
1B1B
  8
0
  6
CONTINUOUS
 62
     7
  2
*S107
 10
0.0
 20
0.0
 30
0.0
  0
INSERT
  5
1B1D
  8
0
  6
CONTINUOUS
 62
     7
  2
*S108
 10
0.0
 20
0.0
 30
0.0
  0
INSERT
  5
1B1F
  8
0
  6
CONTINUOUS
 62
     7
  2
*S109
 10
0.0
 20
0.0
 30
0.0
  0
INSERT
  5
1C3E
  8
0
  6
CONTINUOUS
  2
*U122
 10
0.0
 20
0.0
 30
0.0
  0
INSERT
  5
1C3F
  8
0
  6
CONTINUOUS
  2
*U123
 10
0.0
 20
0.0
 30
0.0
  0
INSERT
  5
1CD5
  8
0
  6
CONTINUOUS
  2
*U130
 10
0.0
 20
0.0
 30
0.0
  0
DIMENSION
  5
1CD8
  8
DIMENSION
 62
     7
  2
*D72
 10
-211.83544382578941
 20
67.375702311965838
 30
0.0
 11
-198.23544382578939
 21
70.375702311965838
 31
0.0
 70
     0
  1
(%%c<>)
 13
-184.63544382578939
 23
62.283946583225557
 33
0.0
 14
-211.83544382578941
 24
62.283946583225557
 34
0.0
1001
ACAD_DSTYLE_DIMINSPECT
1070
   396
1000
100%
1070
   395
1000

1070
   394
1070
    33
1070
   393
1070
     0
  0
LINE
  5
1CD9
  8
PROFILE2
 62
     7
 10
-210.73544382578939
 20
40.78394658322555
 30
0.0
 11
-185.73544382578939
 21
40.78394658322555
 31
0.0
  0
LINE
  5
1CDA
  8
PROFILE2
 62
     7
 10
-185.73544382578939
 20
40.283946583225557
 30
0.0
 11
-210.73544382578939
 21
40.283946583225557
 31
0.0
  0
LINE
  5
1CDB
  8
PROFILE2
 62
     7
 10
-210.73544382578939
 20
40.283946583225557
 30
0.0
 11
-210.73544382578939
 21
40.78394658322555
 31
0.0
  0
LINE
  5
1CDC
  8
PROFILE2
 62
     7
 10
-185.73544382578939
 20
40.283946583225557
 30
0.0
 11
-185.73544382578939
 21
40.78394658322555
 31
0.0
  0
LINE
  5
1CDD
  8
HIDDEN1
 62
     7
 10
-211.83544382578941
 20
55.283946583225557
 30
0.0
 11
-184.63544382578939
 21
55.283946583225557
 31
0.0
  0
INSERT
  5
1CDE
  8
DIMENSION
  6
CONTINUOUS
 62
     7
  2
*S110
 10
0.0
 20
0.0
 30
0.0
  0
LINE
  5
1CDF
  8
PROFILE2
 62
     7
 10
-197.73551450331999
 20
30.284052587039941
 30
0.0
 11
-197.73551450331999
 21
40.283946583225557
 31
0.0
  0
LINE
  5
1CE0
  8
PROFILE2
 62
     7
 10
-198.73551450331999
 20
30.28384055443464
 30
0.0
 11
-198.73551450331999
 21
40.283946583225557
 31
0.0
  0
ARC
  5
1CE1
  8
PROFILE2
 62
     7
 10
-198.53551450332
 20
30.28384055443464
 30
0.0
 40
0.2
 50
180.0
 51
270.02024762149841
1001
GENIUS_GENODEF_13
1002
{
1000
HIER
1070
     0
1002
}
1002
{
1000
MANEDIT
1070
     0
1002
}
1002
{
1000
NOSEL
1070
     0
1002
}
1002
{
1000
BEHIND
1070
     0
1002
}
1002
{
1000
OTHER
1070
     0
1002
}
1002
{
1000
REACTOR
1002
}
1001
GENIUS_GENOBJ-N-FIL_13
1002
{
1000
OWNER
1000
GEN
1002
}
  0
LINE
  5
1CE2
  8
PROFILE2
 62
     7
 10
-197.93544382578929
 20
30.08405259952816
 30
0.0
 11
-198.5354438257892
 21
30.083840566922859
 31
0.0
  0
ARC
  5
1CE3
  8
PROFILE2
 62
     7
 10
-197.93551450332009
 20
30.284052587039941
 30
0.0
 40
0.2
 50
270.02024762149841
 51
0.0
1001
GENIUS_GENODEF_13
1002
{
1000
HIER
1070
     0
1002
}
1002
{
1000
MANEDIT
1070
     0
1002
}
1002
{
1000
NOSEL
1070
     0
1002
}
1002
{
1000
BEHIND
1070
     0
1002
}
1002
{
1000
OTHER
1070
     0
1002
}
1002
{
1000
REACTOR
1002
}
1001
GENIUS_GENOBJ-N-FIL_13
1002
{
1000
OWNER
1000
GEN
1002
}
  0
LINE
  5
1CE4
  8
PROFILE2
 62
     7
 10
-191.23544382578919
 20
30.283946570737289
 30
0.0
 11
-191.23544382578919
 21
40.283840566922898
 31
0.0
  0
LINE
  5
1CE5
  8
PROFILE2
 62
     7
 10
-192.23544382578919
 20
30.283734538131981
 30
0.0
 11
-192.23544382578919
 21
40.283840566922898
 31
0.0
  0
ARC
  5
1CE6
  8
PROFILE2
 62
     7
 10
-192.0354438257892
 20
30.283734538131981
 30
0.0
 40
0.2
 50
180.0
 51
270.02024762149841
1001
GENIUS_GENODEF_13
1002
{
1000
HIER
1070
     0
1002
}
1002
{
1000
MANEDIT
1070
     0
1002
}
1002
{
1000
NOSEL
1070
     0
1002
}
1002
{
1000
BEHIND
1070
     0
1002
}
1002
{
1000
OTHER
1070
     0
1002
}
1002
{
1000
REACTOR
1002
}
1001
GENIUS_GENOBJ-N-FIL_13
1002
{
1000
OWNER
1000
GEN
1002
}
  0
LINE
  5
1CE7
  8
PROFILE2
 62
     7
 10
-191.43537314825849
 20
30.083946583225512
 30
0.0
 11
-192.03537314825849
 21
30.083734550620211
 31
0.0
  0
ARC
  5
1CE8
  8
PROFILE2
 62
     7
 10
-191.43544382578929
 20
30.283946570737289
 30
0.0
 40
0.2
 50
270.02024762149841
 51
0.0
1001
GENIUS_GENODEF_13
1002
{
1000
HIER
1070
     0
1002
}
1002
{
1000
MANEDIT
1070
     0
1002
}
1002
{
1000
NOSEL
1070
     0
1002
}
1002
{
1000
BEHIND
1070
     0
1002
}
1002
{
1000
OTHER
1070
     0
1002
}
1002
{
1000
REACTOR
1002
}
1001
GENIUS_GENOBJ-N-FIL_13
1002
{
1000
OWNER
1000
GEN
1002
}
  0
LINE
  5
1CE9
  8
PROFILE2
 62
     7
 10
-204.23551450331999
 20
30.28415857836605
 30
0.0
 11
-204.23551450331999
 21
40.284052574551659
 31
0.0
  0
LINE
  5
1CEA
  8
PROFILE2
 62
     7
 10
-205.23551450331999
 20
30.283946545760742
 30
0.0
 11
-205.23551450331999
 21
40.284052574551659
 31
0.0
  0
ARC
  5
1CEB
  8
PROFILE2
 62
     7
 10
-205.03551450332
 20
30.283946545760742
 30
0.0
 40
0.2
 50
180.0
 51
270.02024762149841
1001
GENIUS_GENODEF_13
1002
{
1000
HIER
1070
     0
1002
}
1002
{
1000
MANEDIT
1070
     0
1002
}
1002
{
1000
NOSEL
1070
     0
1002
}
1002
{
1000
BEHIND
1070
     0
1002
}
1002
{
1000
OTHER
1070
     0
1002
}
1002
{
1000
REACTOR
1002
}
1001
GENIUS_GENOBJ-N-FIL_13
1002
{
1000
OWNER
1000
GEN
1002
}
  0
LINE
  5
1CEC
  8
PROFILE2
 62
     7
 10
-204.43544382578929
 20
30.084158590854269
 30
0.0
 11
-205.0354438257892
 21
30.083946558248972
 31
0.0
  0
ARC
  5
1CED
  8
PROFILE2
 62
     7
 10
-204.43551450332001
 20
30.28415857836605
 30
0.0
 40
0.2
 50
270.02024762149841
 51
0.0
1001
GENIUS_GENODEF_13
1002
{
1000
HIER
1070
     0
1002
}
1002
{
1000
MANEDIT
1070
     0
1002
}
1002
{
1000
NOSEL
1070
     0
1002
}
1002
{
1000
BEHIND
1070
     0
1002
}
1002
{
1000
OTHER
1070
     0
1002
}
1002
{
1000
REACTOR
1002
}
1001
GENIUS_GENOBJ-N-FIL_13
1002
{
1000
OWNER
1000
GEN
1002
}
  0
LINE
  5
1CEE
  8
PROFILE2
 62
     7
 10
-202.5437686436583
 20
30.284052587039941
 30
0.0
 11
-202.5437686436583
 21
40.283946583225557
 31
0.0
  0
LINE
  5
1CEF
  8
PROFILE2
 62
     7
 10
-203.5437686436583
 20
30.28384055443464
 30
0.0
 11
-203.5437686436583
 21
40.283946583225557
 31
0.0
  0
ARC
  5
1CF0
  8
PROFILE2
 62
     7
 10
-203.34376864365819
 20
30.28384055443464
 30
0.0
 40
0.2
 50
180.0
 51
270.02024762149841
1001
GENIUS_GENODEF_13
1002
{
1000
HIER
1070
     0
1002
}
1002
{
1000
MANEDIT
1070
     0
1002
}
1002
{
1000
NOSEL
1070
     0
1002
}
1002
{
1000
BEHIND
1070
     0
1002
}
1002
{
1000
OTHER
1070
     0
1002
}
1002
{
1000
REACTOR
1002
}
1001
GENIUS_GENOBJ-N-FIL_13
1002
{
1000
OWNER
1000
GEN
1002
}
  0
LINE
  5
1CF1
  8
PROFILE2
 62
     7
 10
-202.7436979661276
 20
30.08405259952816
 30
0.0
 11
-203.34369796612751
 21
30.083840566922859
 31
0.0
  0
ARC
  5
1CF2
  8
PROFILE2
 62
     7
 10
-202.74376864365831
 20
30.284052587039941
 30
0.0
 40
0.2
 50
270.02024762149841
 51
0.0
1001
GENIUS_GENODEF_13
1002
{
1000
HIER
1070
     0
1002
}
1002
{
1000
MANEDIT
1070
     0
1002
}
1002
{
1000
NOSEL
1070
     0
1002
}
1002
{
1000
BEHIND
1070
     0
1002
}
1002
{
1000
OTHER
1070
     0
1002
}
1002
{
1000
REACTOR
1002
}
1001
GENIUS_GENOBJ-N-FIL_13
1002
{
1000
OWNER
1000
GEN
1002
}
  0
LINE
  5
1CF3
  8
PROFILE2
 62
     7
 10
-199.7854443159533
 20
40.283946583225557
 30
0.0
 11
-199.78544431595321
 21
30.283825685942261
 31
0.0
  0
LINE
  5
1CF4
  8
PROFILE2
 62
     7
 10
-201.38544431595329
 20
40.283946583225557
 30
0.0
 11
-201.38544431595329
 21
30.28361365333696
 31
0.0
  0
LINE
  5
1CF5
  8
PROFILE2
 62
     7
 10
-195.085444315953
 20
40.283946583225557
 30
0.0
 11
-195.085444315953
 21
30.283825685942261
 31
0.0
  0
LINE
  5
1CF6
  8
PROFILE2
 62
     7
 10
-196.68544431595299
 20
40.283946583225557
 30
0.0
 11
-196.68544431595299
 21
30.28361365333696
 31
0.0
  0
LINE
  5
1CF7
  8
PROFILE2
 62
     7
 10
-195.2853736384223
 20
30.083825698430491
 30
0.0
 11
-196.48537363842229
 21
30.08361366582518
 31
0.0
  0
ARC
  5
1CF8
  8
PROFILE2
 62
     7
 10
-195.2854443159531
 20
30.283825685942261
 30
0.0
 40
0.2
 50
270.02024762149841
 51
0.0
1001
GENIUS_GENODEF_13
1002
{
1000
HIER
1070
     0
1002
}
1002
{
1000
MANEDIT
1070
     0
1002
}
1002
{
1000
NOSEL
1070
     0
1002
}
1002
{
1000
BEHIND
1070
     0
1002
}
1002
{
1000
OTHER
1070
     0
1002
}
1002
{
1000
REACTOR
1002
}
1001
GENIUS_GENOBJ-N-FIL_13
1002
{
1000
OWNER
1000
GEN
1002
}
  0
ARC
  5
1CF9
  8
PROFILE2
 62
     7
 10
-196.485444315953
 20
30.28361365333696
 30
0.0
 40
0.2
 50
180.0
 51
270.02024762149841
1001
GENIUS_GENODEF_13
1002
{
1000
HIER
1070
     0
1002
}
1002
{
1000
MANEDIT
1070
     0
1002
}
1002
{
1000
NOSEL
1070
     0
1002
}
1002
{
1000
BEHIND
1070
     0
1002
}
1002
{
1000
OTHER
1070
     0
1002
}
1002
{
1000
REACTOR
1002
}
1001
GENIUS_GENOBJ-N-FIL_13
1002
{
1000
OWNER
1000
GEN
1002
}
  0
LINE
  5
1CFA
  8
PROFILE2
 62
     7
 10
-199.98537363842249
 20
30.083825698430601
 30
0.0
 11
-201.1853736384225
 21
30.08361366582518
 31
0.0
  0
ARC
  5
1CFB
  8
PROFILE2
 62
     7
 10
-199.9854443159532
 20
30.283825685942261
 30
0.0
 40
0.2
 50
270.02024762149841
 51
0.0
1001
GENIUS_GENODEF_13
1002
{
1000
HIER
1070
     0
1002
}
1002
{
1000
MANEDIT
1070
     0
1002
}
1002
{
1000
NOSEL
1070
     0
1002
}
1002
{
1000
BEHIND
1070
     0
1002
}
1002
{
1000
OTHER
1070
     0
1002
}
1002
{
1000
REACTOR
1002
}
1001
GENIUS_GENOBJ-N-FIL_13
1002
{
1000
OWNER
1000
GEN
1002
}
  0
ARC
  5
1CFC
  8
PROFILE2
 62
     7
 10
-201.18544431595319
 20
30.28361365333696
 30
0.0
 40
0.2
 50
180.0
 51
270.02024762149841
1001
GENIUS_GENODEF_13
1002
{
1000
HIER
1070
     0
1002
}
1002
{
1000
MANEDIT
1070
     0
1002
}
1002
{
1000
NOSEL
1070
     0
1002
}
1002
{
1000
BEHIND
1070
     0
1002
}
1002
{
1000
OTHER
1070
     0
1002
}
1002
{
1000
REACTOR
1002
}
1001
GENIUS_GENOBJ-N-FIL_13
1002
{
1000
OWNER
1000
GEN
1002
}
  0
LINE
  5
1D00
  8
PROFILE2
 62
     7
 10
-185.73544382578939
 20
40.78394658322555
 30
0.0
 11
-185.73544382578939
 21
47.283946583225557
 31
0.0
  0
LINE
  5
1D01
  8
PROFILE2
 62
     7
 10
-185.73544382578939
 20
47.283946583225557
 30
0.0
 11
-184.63544382578939
 21
47.283946583225557
 31
0.0
  0
LINE
  5
1D02
  8
PROFILE2
 62
     7
 10
-210.73544382578939
 20
47.283946583225557
 30
0.0
 11
-210.73544382578939
 21
40.78394658322555
 31
0.0
  0
LINE
  5
1D03
  8
PROFILE2
 62
     7
 10
-211.83544382578941
 20
47.283946583225557
 30
0.0
 11
-210.73544382578939
 21
47.283946583225557
 31
0.0
  0
LINE
  5
1D04
  8
PROFILE2
 62
     7
 10
-185.73544382578939
 20
47.283946583225557
 30
0.0
 11
-210.73544382578939
 21
47.283946583225557
 31
0.0
  0
LINE
  5
1D05
  8
PROFILE2
 62
     7
 10
-184.63544382578939
 20
47.2839465832255
 30
0.0
 11
-184.63544382578931
 21
77.283946583225443
 31
0.0
  0
LINE
  5
1D06
  8
PROFILE2
 62
     7
 10
-211.83544382578941
 20
47.2839465832255
 30
0.0
 11
-211.83544382578941
 21
77.283946583225443
 31
0.0
  0
LINE
  5
1D07
  8
PROFILE2
 62
     7
 10
-185.5354438257894
 20
80.2839465832255
 30
0.0
 11
-185.5354438257894
 21
78.183946583225477
 31
0.0
  0
ARC
  5
1D08
  8
PROFILE2
 62
     7
 10
-184.63544382578931
 20
78.183946583225477
 30
0.0
 40
0.9
 50
180.0
 51
270.0
1001
GENIUS_GENODEF_13
1002
{
1000
HIER
1070
     0
1002
}
1002
{
1000
MANEDIT
1070
     0
1002
}
1002
{
1000
NOSEL
1070
     0
1002
}
1002
{
1000
BEHIND
1070
     0
1002
}
1002
{
1000
OTHER
1070
     0
1002
}
1002
{
1000
REACTOR
1002
}
1001
GENIUS_GENOBJ-N-FIL_13
1002
{
1000
OWNER
1000
GEN
1002
}
  0
LINE
  5
1D09
  8
PROFILE2
 62
     7
 10
-210.93544382578941
 20
80.2839465832255
 30
0.0
 11
-210.93544382578941
 21
78.183946583225477
 31
0.0
  0
ARC
  5
1D0A
  8
PROFILE2
 62
     7
 10
-211.83544382578941
 20
78.183946583225477
 30
0.0
 40
0.9
 50
269.99999999999841
 51
0.0
1001
GENIUS_GENODEF_13
1002
{
1000
HIER
1070
     0
1002
}
1002
{
1000
MANEDIT
1070
     0
1002
}
1002
{
1000
NOSEL
1070
     0
1002
}
1002
{
1000
BEHIND
1070
     0
1002
}
1002
{
1000
OTHER
1070
     0
1002
}
1002
{
1000
REACTOR
1002
}
1001
GENIUS_GENOBJ-N-FIL_13
1002
{
1000
OWNER
1000
GEN
1002
}
  0
LINE
  5
1D0B
  8
PROFILE2
 62
     7
 10
-184.63544382578931
 20
77.283946583225443
 30
0.0
 11
-211.83544382578941
 21
77.283946583225443
 31
0.0
  0
ARC
  5
1D0C
  8
PROFILE2
 62
     7
 10
-183.7354285670003
 20
87.667611030889304
 30
0.0
 40
0.5
 50
284.9999999999996
 51
0.0
  0
ARC
  5
1D0D
  8
PROFILE2
 62
     7
 10
-212.73544382578939
 20
87.667611030889304
 30
0.0
 40
0.5
 50
180.0
 51
254.99999999999881
  0
LINE
  5
1D0E
  8
PROFILE2
 62
     7
 10
-207.37894141456661
 20
85.676252382313081
 30
0.0
 11
-189.0919413445377
 21
85.676252382313081
 31
0.0
  0
LINE
  5
1D0F
  8
PROFILE2
 62
     7
 10
-213.0560718398178
 20
87.283947536899817
 30
0.0
 11
-183.41480055297191
 21
87.283947536899817
 31
0.0
  0
LINE
  5
1D10
  8
PROFILE2
 62
     7
 10
-183.606019044449
 20
87.184648117744771
 30
0.0
 11
-188.9389714438303
 21
85.755687829056981
 31
0.0
  0
ARC
  5
1D11
  8
PROFILE2
 62
     7
 10
-188.8354438257893
 20
85.369317498541378
 30
0.0
 40
0.4
 50
104.9999999999995
 51
180.0
1001
GENIUS_GENODEF_13
1002
{
1000
HIER
1070
     0
1002
}
1002
{
1000
MANEDIT
1070
     0
1002
}
1002
{
1000
NOSEL
1070
     0
1002
}
1002
{
1000
BEHIND
1070
     0
1002
}
1002
{
1000
OTHER
1070
     0
1002
}
1002
{
1000
REACTOR
1002
}
1001
GENIUS_GENOBJ-N-FIL_13
1002
{
1000
OWNER
1000
GEN
1002
}
  0
LINE
  5
1D12
  8
PROFILE2
 62
     7
 10
-212.8648533483406
 20
87.184648117744771
 30
0.0
 11
-207.5319162077484
 21
85.755691917637151
 31
0.0
  0
ARC
  5
1D13
  8
PROFILE2
 62
     7
 10
-207.63544382578939
 20
85.369321587121533
 30
0.0
 40
0.4
 50
0.0
 51
75.000000000000469
1001
GENIUS_GENODEF_13
1002
{
1000
HIER
1070
     0
1002
}
1002
{
1000
MANEDIT
1070
     0
1002
}
1002
{
1000
NOSEL
1070
     0
1002
}
1002
{
1000
BEHIND
1070
     0
1002
}
1002
{
1000
OTHER
1070
     0
1002
}
1002
{
1000
REACTOR
1002
}
1001
GENIUS_GENOBJ-N-FIL_13
1002
{
1000
OWNER
1000
GEN
1002
}
  0
LINE
  5
1D14
  8
PROFILE2
 62
     7
 10
-183.2354285670003
 20
90.283947536899817
 30
0.0
 11
-183.2354285670003
 21
87.667611030889304
 31
0.0
  0
LINE
  5
1D15
  8
PROFILE2
 62
     7
 10
-213.23544382578939
 20
90.283947536899817
 30
0.0
 11
-213.23544382578939
 21
87.667611030889304
 31
0.0
  0
LINE
  5
1D16
  8
PROFILE2
 62
     7
 10
-189.23544382578939
 20
85.369317498541378
 30
0.0
 11
-189.23544382578939
 21
82.634557901339235
 31
0.0
  0
ARC
  5
1D17
  8
PROFILE2
 62
     7
 10
-188.8354438257893
 20
82.634557901339235
 30
0.0
 40
0.4
 50
180.0
 51
254.1828959999992
1001
GENIUS_GENODEF_13
1002
{
1000
HIER
1070
     0
1002
}
1002
{
1000
MANEDIT
1070
     0
1002
}
1002
{
1000
NOSEL
1070
     0
1002
}
1002
{
1000
BEHIND
1070
     0
1002
}
1002
{
1000
OTHER
1070
     0
1002
}
1002
{
1000
REACTOR
1002
}
1001
GENIUS_GENOBJ-N-FIL_13
1002
{
1000
OWNER
1000
GEN
1002
}
  0
LINE
  5
1D18
  8
PROFILE2
 62
     7
 10
-185.5354438257894
 20
80.2839465832255
 30
0.0
 11
-210.93544382578941
 21
80.2839465832255
 31
0.0
  0
LINE
  5
1D19
  8
PROFILE2
 62
     7
 10
-183.2354285670003
 20
90.283947536899817
 30
0.0
 11
-213.23544382578939
 21
90.283947536899817
 31
0.0
  0
LINE
  5
1D1A
  8
PROFILE2
 62
     7
 10
-207.23544382578939
 20
85.369321587121533
 30
0.0
 11
-207.23544382578939
 21
82.634557901339235
 31
0.0
  0
LINE
  5
1D1B
  8
PROFILE2
 62
     7
 10
-185.5354438257894
 20
80.2839465832255
 30
0.0
 11
-185.5354438257894
 21
81.2839465832255
 31
0.0
  0
LINE
  5
1D1C
  8
PROFILE2
 62
     7
 10
-210.93544382578941
 20
80.2839465832255
 30
0.0
 11
-210.93544382578941
 21
81.2839465832255
 31
0.0
  0
LINE
  5
1D1D
  8
PROFILE2
 62
     7
 10
-207.3736426476859
 20
82.332134120621475
 30
0.0
 11
-189.09724500389279
 21
82.332134120621475
 31
0.0
  0
LINE
  5
1D1E
  8
PROFILE2
 62
     7
 10
-185.5354438257894
 20
81.283946583225443
 30
0.0
 11
-188.94447081670651
 21
82.249703233637845
 31
0.0
  0
ARC
  5
1D1F
  8
PROFILE2
 62
     7
 10
-207.63544382578939
 20
82.634557901339235
 30
0.0
 40
0.4
 50
285.81710400000082
 51
0.0
1001
GENIUS_GENODEF_13
1002
{
1000
HIER
1070
     0
1002
}
1002
{
1000
MANEDIT
1070
     0
1002
}
1002
{
1000
NOSEL
1070
     0
1002
}
1002
{
1000
BEHIND
1070
     0
1002
}
1002
{
1000
OTHER
1070
     0
1002
}
1002
{
1000
REACTOR
1002
}
1001
GENIUS_GENOBJ-N-FIL_13
1002
{
1000
OWNER
1000
GEN
1002
}
  0
LINE
  5
1D20
  8
PROFILE2
 62
     7
 10
-210.93544382578949
 20
81.2839465832255
 30
0.0
 11
-207.52641683487229
 21
82.249703233637845
 31
0.0
  0
LINE
  5
1D21
  8
PROFILE2
 62
     7
 10
-210.93544382578949
 20
81.2839465832255
 30
0.0
 11
-185.5354438257896
 21
81.2839465832255
 31
0.0
  0
DIMENSION
  5
1DE6
  8
AM_5
 62
     7
  2
*D74
 10
-169.73689090928841
 20
55.28394658322555
 30
0.0
 11
-172.82039090928839
 21
72.783947060062658
 31
0.0
 70
     0
  1
(<>)
 13
-183.2354285670003
 23
90.283947536899817
 33
0.0
 14
-184.63544382578939
 24
55.283946583225557
 34
0.0
 50
90.000000000000028
1001
ACAD_DSTYLE_DIMINSPECT
1070
   396
1000
100%
1070
   395
1000

1070
   394
1070
    33
1070
   393
1070
     0
1001
ACAD
1000
DSTYLE
1002
{
1070
   287
1070
     3
1070
   271
1070
     4
1070
   272
1070
     4
1070
   274
1070
     2
1070
   279
1070
     0
1070
   284
1070
     0
1070
   285
1070
     0
1070
   286
1070
     0
1070
   340
1005
181C
1002
}
  0
DIMENSION
  5
1E17
  8
AM_5
 62
     7
  2
*D75
 10
-158.67640995004649
 20
40.28394658322555
 30
0.0
 11
-161.75990995004639
 21
65.283947060062658
 31
0.0
 70
     0
  1
(<>)
 13
-183.2354285670003
 23
90.283947536899817
 33
0.0
 14
-185.73544382578939
 24
40.283946583225557
 34
0.0
 50
90.000000000000028
1001
ACAD_DSTYLE_DIMINSPECT
1070
   396
1000
100%
1070
   395
1000

1070
   394
1070
    33
1070
   393
1070
     0
1001
ACAD
1000
DSTYLE
1002
{
1070
   287
1070
     3
1070
   271
1070
     4
1070
   272
1070
     4
1070
   274
1070
     2
1070
   279
1070
     0
1070
   284
1070
     0
1070
   285
1070
     0
1070
   286
1070
     0
1070
   340
1005
181C
1002
}
  0
DIMENSION
  5
1E36
  8
AM_5
 62
     7
  2
*D76
 10
-148.0526142951403
 20
30.08394658322549
 30
0.0
 11
-151.13611429514029
 21
60.183947060062621
 31
0.0
 70
     0
  1
(<>)
 13
-183.2354285670003
 23
90.283947536899817
 33
0.0
 14
-191.43537314825861
 24
30.083946583225512
 34
0.0
 50
90.000000000000028
1001
ACAD_DSTYLE_DIMINSPECT
1070
   396
1000
100%
1070
   395
1000

1070
   394
1070
    33
1070
   393
1070
     0
1001
ACAD
1000
DSTYLE
1002
{
1070
   287
1070
     3
1070
   271
1070
     4
1070
   272
1070
     4
1070
   274
1070
     2
1070
   279
1070
     0
1070
   284
1070
     0
1070
   285
1070
     0
1070
   286
1070
     0
1070
   340
1005
181C
1002
}
  0
DIMENSION
  5
1E55
  8
AM_5
 62
     7
  2
*D77
 10
-183.2354285670003
 20
101.1758115857416
 30
0.0
 11
-198.2354361963948
 21
104.2593115857416
 31
0.0
 70
     0
  1
(%%c<>)
 13
-213.23544382578939
 23
90.283947536899817
 33
0.0
 14
-183.2354285670003
 24
90.283947536899817
 34
0.0
 50
0.0000000000000114
1001
ACAD_DSTYLE_DIMINSPECT
1070
   396
1000
100%
1070
   395
1000

1070
   394
1070
    33
1070
   393
1070
     0
1001
ACAD
1000
DSTYLE
1002
{
1070
   287
1070
     3
1070
   271
1070
     4
1070
   272
1070
     4
1070
   274
1070
     2
1070
   279
1070
     0
1070
   284
1070
     0
1070
   285
1070
     0
1070
   286
1070
     0
1070
   340
1005
181C
1002
}
  0
INSERT
  5
2045
  8
0
  6
CONTINUOUS
  2
*U149
 10
0.0
 20
0.0
 30
0.0
  0
DIMENSION
  5
2046
  8
DIMENSION
 62
     7
  2
*D94
 10
-23.942679064550081
 20
55.283947536899817
 30
0.0
 11
-26.942679064550092
 21
72.783948013736961
 31
0.0
 70
     0
  1
(<>)
 13
-40.875882904354569
 23
90.283948490574133
 33
0.0
 14
-42.275898163143609
 24
55.283947536899817
 34
0.0
 50
90.0
1001
ACAD_DSTYLE_DIMINSPECT
1070
   396
1000
100%
1070
   395
1000

1070
   394
1070
    33
1070
   393
1070
     0
  0
DIMENSION
  5
2048
  8
DIMENSION
 62
     7
  2
*D96
 10
-69.475898163143654
 20
67.375703265640098
 30
0.0
 11
-55.875898163143631
 21
70.375703265640098
 31
0.0
 70
     0
  1
(%%c<>)
 13
-42.275898163143609
 23
62.283947536899817
 33
0.0
 14
-69.475898163143654
 24
62.283947536899817
 34
0.0
1001
ACAD_DSTYLE_DIMINSPECT
1070
   396
1000
100%
1070
   395
1000

1070
   394
1070
    33
1070
   393
1070
     0
  0
LINE
  5
2049
  8
PROFILE2
 62
     7
 10
-43.875898163143617
 20
40.783947536899809
 30
0.0
 11
-43.375898163143631
 21
40.783947536899809
 31
0.0
  0
LINE
  5
204A
  8
PROFILE2
 62
     7
 10
-68.375898163143631
 20
40.783947536899809
 30
0.0
 11
-67.875898163143631
 21
40.783947536899809
 31
0.0
  0
LINE
  5
204B
  8
PROFILE2
 62
     7
 10
-43.875898163143617
 20
40.783947536899809
 30
0.0
 11
-67.875898163143631
 21
40.783947536899809
 31
0.0
  0
LINE
  5
204C
  8
PROFILE2
 62
     7
 10
-43.375898163143631
 20
40.283947536899817
 30
0.0
 11
-68.375898163143631
 21
40.283947536899817
 31
0.0
  0
LINE
  5
204D
  8
PROFILE2
 62
     7
 10
-68.375898163143631
 20
40.283947536899817
 30
0.0
 11
-68.375898163143631
 21
40.783947536899809
 31
0.0
  0
LINE
  5
204E
  8
PROFILE2
 62
     7
 10
-43.375898163143631
 20
40.283947536899817
 30
0.0
 11
-43.375898163143631
 21
40.783947536899809
 31
0.0
  0
LINE
  5
204F
  8
HIDDEN1
 62
     7
 10
-69.475898163143654
 20
55.283947536899817
 30
0.0
 11
-42.275898163143609
 21
55.283947536899817
 31
0.0
  0
INSERT
  5
2050
  8
DIMENSION
  6
CONTINUOUS
 62
     7
  2
*S111
 10
0.0
 20
0.0
 30
0.0
  0
LINE
  5
2051
  8
PROFILE2
 62
     7
 10
-55.375968840674261
 20
30.284053540714201
 30
0.0
 11
-55.375968840674261
 21
40.283947536899817
 31
0.0
  0
LINE
  5
2052
  8
PROFILE2
 62
     7
 10
-56.375968840674261
 20
30.283841508108889
 30
0.0
 11
-56.375968840674261
 21
40.283947536899817
 31
0.0
  0
ARC
  5
2053
  8
PROFILE2
 62
     7
 10
-56.175968840674209
 20
30.283841508108889
 30
0.0
 40
0.2
 50
180.0
 51
270.02024762149841
1001
GENIUS_GENODEF_13
1002
{
1000
HIER
1070
     0
1002
}
1002
{
1000
MANEDIT
1070
     0
1002
}
1002
{
1000
NOSEL
1070
     0
1002
}
1002
{
1000
BEHIND
1070
     0
1002
}
1002
{
1000
OTHER
1070
     0
1002
}
1002
{
1000
REACTOR
1002
}
1001
GENIUS_GENOBJ-N-FIL_13
1002
{
1000
OWNER
1000
GEN
1002
}
  0
LINE
  5
2054
  8
PROFILE2
 62
     7
 10
-55.575898163143563
 20
30.08405355320242
 30
0.0
 11
-56.175898163143472
 21
30.083841520597119
 31
0.0
  0
ARC
  5
2055
  8
PROFILE2
 62
     7
 10
-55.575968840674307
 20
30.284053540714201
 30
0.0
 40
0.2
 50
270.02024762149841
 51
0.0
1001
GENIUS_GENODEF_13
1002
{
1000
HIER
1070
     0
1002
}
1002
{
1000
MANEDIT
1070
     0
1002
}
1002
{
1000
NOSEL
1070
     0
1002
}
1002
{
1000
BEHIND
1070
     0
1002
}
1002
{
1000
OTHER
1070
     0
1002
}
1002
{
1000
REACTOR
1002
}
1001
GENIUS_GENOBJ-N-FIL_13
1002
{
1000
OWNER
1000
GEN
1002
}
  0
LINE
  5
2056
  8
PROFILE2
 62
     7
 10
-48.875898163143518
 20
30.283947524411548
 30
0.0
 11
-48.875898163143518
 21
40.283841520597157
 31
0.0
  0
LINE
  5
2057
  8
PROFILE2
 62
     7
 10
-49.875898163143511
 20
30.28373549180624
 30
0.0
 11
-49.875898163143511
 21
40.283841520597157
 31
0.0
  0
ARC
  5
2058
  8
PROFILE2
 62
     7
 10
-49.675898163143472
 20
30.28373549180624
 30
0.0
 40
0.2
 50
180.0
 51
270.02024762149841
1001
GENIUS_GENODEF_13
1002
{
1000
HIER
1070
     0
1002
}
1002
{
1000
MANEDIT
1070
     0
1002
}
1002
{
1000
NOSEL
1070
     0
1002
}
1002
{
1000
BEHIND
1070
     0
1002
}
1002
{
1000
OTHER
1070
     0
1002
}
1002
{
1000
REACTOR
1002
}
1001
GENIUS_GENOBJ-N-FIL_13
1002
{
1000
OWNER
1000
GEN
1002
}
  0
LINE
  5
2059
  8
PROFILE2
 62
     7
 10
-49.075827485612812
 20
30.083947536899771
 30
0.0
 11
-49.675827485612729
 21
30.08373550429447
 31
0.0
  0
ARC
  5
205A
  8
PROFILE2
 62
     7
 10
-49.075898163143563
 20
30.283947524411548
 30
0.0
 40
0.2
 50
270.02024762149841
 51
0.0
1001
GENIUS_GENODEF_13
1002
{
1000
HIER
1070
     0
1002
}
1002
{
1000
MANEDIT
1070
     0
1002
}
1002
{
1000
NOSEL
1070
     0
1002
}
1002
{
1000
BEHIND
1070
     0
1002
}
1002
{
1000
OTHER
1070
     0
1002
}
1002
{
1000
REACTOR
1002
}
1001
GENIUS_GENOBJ-N-FIL_13
1002
{
1000
OWNER
1000
GEN
1002
}
  0
LINE
  5
205B
  8
PROFILE2
 62
     7
 10
-61.875968840674261
 20
30.284159532040309
 30
0.0
 11
-61.875968840674261
 21
40.284053528225918
 31
0.0
  0
LINE
  5
205C
  8
PROFILE2
 62
     7
 10
-62.875968840674261
 20
30.283947499435001
 30
0.0
 11
-62.875968840674261
 21
40.284053528225918
 31
0.0
  0
ARC
  5
205D
  8
PROFILE2
 62
     7
 10
-62.675968840674223
 20
30.283947499435001
 30
0.0
 40
0.2
 50
180.0
 51
270.02024762149841
1001
GENIUS_GENODEF_13
1002
{
1000
HIER
1070
     0
1002
}
1002
{
1000
MANEDIT
1070
     0
1002
}
1002
{
1000
NOSEL
1070
     0
1002
}
1002
{
1000
BEHIND
1070
     0
1002
}
1002
{
1000
OTHER
1070
     0
1002
}
1002
{
1000
REACTOR
1002
}
1001
GENIUS_GENOBJ-N-FIL_13
1002
{
1000
OWNER
1000
GEN
1002
}
  0
LINE
  5
205E
  8
PROFILE2
 62
     7
 10
-62.07589816314357
 20
30.084159544528529
 30
0.0
 11
-62.675898163143472
 21
30.083947511923231
 31
0.0
  0
ARC
  5
205F
  8
PROFILE2
 62
     7
 10
-62.075968840674307
 20
30.284159532040309
 30
0.0
 40
0.2
 50
270.02024762149841
 51
0.0
1001
GENIUS_GENODEF_13
1002
{
1000
HIER
1070
     0
1002
}
1002
{
1000
MANEDIT
1070
     0
1002
}
1002
{
1000
NOSEL
1070
     0
1002
}
1002
{
1000
BEHIND
1070
     0
1002
}
1002
{
1000
OTHER
1070
     0
1002
}
1002
{
1000
REACTOR
1002
}
1001
GENIUS_GENOBJ-N-FIL_13
1002
{
1000
OWNER
1000
GEN
1002
}
  0
LINE
  5
2060
  8
PROFILE2
 62
     7
 10
-60.18422298101251
 20
30.284053540714201
 30
0.0
 11
-60.18422298101251
 21
40.283947536899817
 31
0.0
  0
LINE
  5
2061
  8
PROFILE2
 62
     7
 10
-61.18422298101251
 20
30.283841508108889
 30
0.0
 11
-61.18422298101251
 21
40.283947536899817
 31
0.0
  0
ARC
  5
2062
  8
PROFILE2
 62
     7
 10
-60.984222981012472
 20
30.283841508108889
 30
0.0
 40
0.2
 50
180.0
 51
270.02024762149841
1001
GENIUS_GENODEF_13
1002
{
1000
HIER
1070
     0
1002
}
1002
{
1000
MANEDIT
1070
     0
1002
}
1002
{
1000
NOSEL
1070
     0
1002
}
1002
{
1000
BEHIND
1070
     0
1002
}
1002
{
1000
OTHER
1070
     0
1002
}
1002
{
1000
REACTOR
1002
}
1001
GENIUS_GENOBJ-N-FIL_13
1002
{
1000
OWNER
1000
GEN
1002
}
  0
LINE
  5
2063
  8
PROFILE2
 62
     7
 10
-60.384152303481812
 20
30.08405355320242
 30
0.0
 11
-60.984152303481721
 21
30.083841520597119
 31
0.0
  0
ARC
  5
2064
  8
PROFILE2
 62
     7
 10
-60.384222981012563
 20
30.284053540714201
 30
0.0
 40
0.2
 50
270.02024762149841
 51
0.0
1001
GENIUS_GENODEF_13
1002
{
1000
HIER
1070
     0
1002
}
1002
{
1000
MANEDIT
1070
     0
1002
}
1002
{
1000
NOSEL
1070
     0
1002
}
1002
{
1000
BEHIND
1070
     0
1002
}
1002
{
1000
OTHER
1070
     0
1002
}
1002
{
1000
REACTOR
1002
}
1001
GENIUS_GENOBJ-N-FIL_13
1002
{
1000
OWNER
1000
GEN
1002
}
  0
LINE
  5
2065
  8
PROFILE2
 62
     7
 10
-57.425898653307563
 20
40.283947536899817
 30
0.0
 11
-57.425898653307463
 21
30.283826639616521
 31
0.0
  0
LINE
  5
2066
  8
PROFILE2
 62
     7
 10
-59.025898653307593
 20
40.283947536899817
 30
0.0
 11
-59.025898653307593
 21
30.28361460701122
 31
0.0
  0
LINE
  5
2067
  8
PROFILE2
 62
     7
 10
-52.72589865330729
 20
40.283947536899817
 30
0.0
 11
-52.72589865330729
 21
30.283826639616521
 31
0.0
  0
LINE
  5
2068
  8
PROFILE2
 62
     7
 10
-54.32589865330732
 20
40.283947536899817
 30
0.0
 11
-54.32589865330732
 21
30.28361460701122
 31
0.0
  0
LINE
  5
2069
  8
PROFILE2
 62
     7
 10
-52.925827975776599
 20
30.083826652104751
 30
0.0
 11
-54.125827975776531
 21
30.083614619499439
 31
0.0
  0
ARC
  5
206A
  8
PROFILE2
 62
     7
 10
-52.925898653307343
 20
30.283826639616521
 30
0.0
 40
0.2
 50
270.02024762149841
 51
0.0
1001
GENIUS_GENODEF_13
1002
{
1000
HIER
1070
     0
1002
}
1002
{
1000
MANEDIT
1070
     0
1002
}
1002
{
1000
NOSEL
1070
     0
1002
}
1002
{
1000
BEHIND
1070
     0
1002
}
1002
{
1000
OTHER
1070
     0
1002
}
1002
{
1000
REACTOR
1002
}
1001
GENIUS_GENOBJ-N-FIL_13
1002
{
1000
OWNER
1000
GEN
1002
}
  0
ARC
  5
206B
  8
PROFILE2
 62
     7
 10
-54.125898653307267
 20
30.28361460701122
 30
0.0
 40
0.2
 50
180.0
 51
270.02024762149841
1001
GENIUS_GENODEF_13
1002
{
1000
HIER
1070
     0
1002
}
1002
{
1000
MANEDIT
1070
     0
1002
}
1002
{
1000
NOSEL
1070
     0
1002
}
1002
{
1000
BEHIND
1070
     0
1002
}
1002
{
1000
OTHER
1070
     0
1002
}
1002
{
1000
REACTOR
1002
}
1001
GENIUS_GENOBJ-N-FIL_13
1002
{
1000
OWNER
1000
GEN
1002
}
  0
LINE
  5
206C
  8
PROFILE2
 62
     7
 10
-57.625827975776751
 20
30.083826652104861
 30
0.0
 11
-58.825827975776683
 21
30.083614619499439
 31
0.0
  0
ARC
  5
206D
  8
PROFILE2
 62
     7
 10
-57.625898653307502
 20
30.283826639616521
 30
0.0
 40
0.2
 50
270.02024762149841
 51
0.0
1001
GENIUS_GENODEF_13
1002
{
1000
HIER
1070
     0
1002
}
1002
{
1000
MANEDIT
1070
     0
1002
}
1002
{
1000
NOSEL
1070
     0
1002
}
1002
{
1000
BEHIND
1070
     0
1002
}
1002
{
1000
OTHER
1070
     0
1002
}
1002
{
1000
REACTOR
1002
}
1001
GENIUS_GENOBJ-N-FIL_13
1002
{
1000
OWNER
1000
GEN
1002
}
  0
ARC
  5
206E
  8
PROFILE2
 62
     7
 10
-58.825898653307434
 20
30.28361460701122
 30
0.0
 40
0.2
 50
180.0
 51
270.02024762149841
1001
GENIUS_GENODEF_13
1002
{
1000
HIER
1070
     0
1002
}
1002
{
1000
MANEDIT
1070
     0
1002
}
1002
{
1000
NOSEL
1070
     0
1002
}
1002
{
1000
BEHIND
1070
     0
1002
}
1002
{
1000
OTHER
1070
     0
1002
}
1002
{
1000
REACTOR
1002
}
1001
GENIUS_GENOBJ-N-FIL_13
1002
{
1000
OWNER
1000
GEN
1002
}
  0
DIMENSION
  5
206F
  8
DIMENSION
 62
     7
  2
*D98
 10
-15.54969842390955
 20
40.283947536899809
 30
0.0
 11
-18.54969842390955
 21
65.283948013736961
 31
0.0
 70
     0
  1
(<>)
 13
-40.875882904354569
 23
90.283948490574133
 33
0.0
 14
-43.375898163143631
 24
40.283947536899817
 34
0.0
 50
90.0
1001
ACAD_DSTYLE_DIMINSPECT
1070
   396
1000
100%
1070
   395
1000

1070
   394
1070
    33
1070
   393
1070
     0
1001
ACAD
1000
DSTYLE
1002
{
1070
    40
1040
1.0
1002
}
  0
LINE
  5
2072
  8
PROFILE2
 62
     7
 10
-75.875898163143518
 20
88.434938018868195
 30
0.0
 11
-75.875898163143518
 21
90.283947536899817
 31
0.0
  0
LINE
  5
2073
  8
PROFILE2
 62
     7
 10
-35.875898163143631
 20
88.434938018868195
 30
0.0
 11
-35.875898163143631
 21
90.283947536899817
 31
0.0
  0
LINE
  5
2074
  8
PROFILE2
 62
     7
 10
-35.875898163143631
 20
90.283947536899817
 30
0.0
 11
-75.875898163143518
 21
90.283947536899817
 31
0.0
  0
LINE
  5
2075
  8
PROFILE2
 62
     7
 10
-68.575898163143563
 20
80.283947536899817
 30
0.0
 11
-43.175898163143593
 21
80.283947536899817
 31
0.0
  0
LINE
  5
2076
  8
PROFILE2
 62
     7
 10
-68.575898163143563
 20
80.283947536899817
 30
0.0
 11
-68.575898163143563
 21
85.327918432152686
 31
0.0
  0
LINE
  5
2077
  8
PROFILE2
 62
     7
 10
-75.337782205228734
 20
87.283947536899817
 30
0.0
 11
-36.414014121058528
 21
87.283947536899817
 31
0.0
  0
ARC
  5
2078
  8
PROFILE2
 62
     7
 10
-74.375898163143518
 20
88.434938018868195
 30
0.0
 40
1.5
 50
180.0
 51
254.99999999999881
1001
GENIUS_GENODEF_13
1002
{
1000
HIER
1070
     0
1002
}
1002
{
1000
MANEDIT
1070
     0
1002
}
1002
{
1000
NOSEL
1070
     0
1002
}
1002
{
1000
BEHIND
1070
     0
1002
}
1002
{
1000
REACTOR
1002
}
1001
GENIUS_GENOBJ-N-FIL_13
1002
{
1000
OWNER
1000
GEN
1002
}
  0
LINE
  5
2079
  8
PROFILE2
 62
     7
 10
-74.764126730797273
 20
86.986049279434695
 30
0.0
 11
-68.575898163143563
 21
85.327918432152686
 31
0.0
  0
LINE
  5
207A
  8
PROFILE2
 62
     7
 10
-43.175898163143593
 20
80.283947536899817
 30
0.0
 11
-43.175898163143593
 21
85.327918432152572
 31
0.0
  0
ARC
  5
207B
  8
PROFILE2
 62
     7
 10
-37.375898163143631
 20
88.434938018868195
 30
0.0
 40
1.5
 50
285.00000000000119
 51
0.0
1001
GENIUS_GENODEF_13
1002
{
1000
HIER
1070
     0
1002
}
1002
{
1000
MANEDIT
1070
     0
1002
}
1002
{
1000
NOSEL
1070
     0
1002
}
1002
{
1000
BEHIND
1070
     0
1002
}
1002
{
1000
REACTOR
1002
}
1001
GENIUS_GENOBJ-N-FIL_13
1002
{
1000
OWNER
1000
GEN
1002
}
  0
LINE
  5
207C
  8
PROFILE2
 62
     7
 10
-36.987669595489763
 20
86.986049279434695
 30
0.0
 11
-43.175898163143593
 21
85.327918432152572
 31
0.0
  0
LINE
  5
207D
  8
PROFILE2
 62
     7
 10
-68.575898163143563
 20
85.327918432152686
 30
0.0
 11
-43.175898163143593
 21
85.327918432152686
 31
0.0
  0
LINE
  5
207E
  8
PROFILE2
 62
     7
 10
-43.375898163143631
 20
40.783947536899809
 30
0.0
 11
-43.375898163143631
 21
47.283947536899817
 31
0.0
  0
LINE
  5
207F
  8
PROFILE2
 62
     7
 10
-43.375898163143631
 20
47.283947536899817
 30
0.0
 11
-42.275898163143609
 21
47.283947536899817
 31
0.0
  0
LINE
  5
2080
  8
PROFILE2
 62
     7
 10
-43.875898163143617
 20
40.783947536899809
 30
0.0
 11
-43.375898163143631
 21
40.783947536899809
 31
0.0
  0
LINE
  5
2081
  8
PROFILE2
 62
     7
 10
-68.375898163143631
 20
47.283947536899817
 30
0.0
 11
-68.375898163143631
 21
40.783947536899809
 31
0.0
  0
LINE
  5
2082
  8
PROFILE2
 62
     7
 10
-68.375898163143631
 20
40.783947536899809
 30
0.0
 11
-67.875898163143631
 21
40.783947536899809
 31
0.0
  0
LINE
  5
2083
  8
PROFILE2
 62
     7
 10
-69.475898163143654
 20
47.283947536899817
 30
0.0
 11
-68.375898163143631
 21
47.283947536899817
 31
0.0
  0
LINE
  5
2084
  8
PROFILE2
 62
     7
 10
-43.875898163143617
 20
40.783947536899809
 30
0.0
 11
-67.875898163143631
 21
40.783947536899809
 31
0.0
  0
LINE
  5
2085
  8
PROFILE2
 62
     7
 10
-43.375898163143631
 20
47.283947536899817
 30
0.0
 11
-68.375898163143631
 21
47.283947536899817
 31
0.0
  0
LINE
  5
2086
  8
PROFILE2
 62
     7
 10
-42.275898163143609
 20
47.283947536899817
 30
0.0
 11
-42.275898163143609
 21
77.283947536899703
 31
0.0
  0
LINE
  5
2087
  8
PROFILE2
 62
     7
 10
-69.475898163143654
 20
47.283947536899817
 30
0.0
 11
-69.475898163143654
 21
77.283947536899703
 31
0.0
  0
LINE
  5
2088
  8
PROFILE2
 62
     7
 10
-43.175898163143593
 20
80.283947536899817
 30
0.0
 11
-43.175898163143593
 21
78.183947536899794
 31
0.0
  0
ARC
  5
2089
  8
PROFILE2
 62
     7
 10
-42.275898163143609
 20
78.183947536899794
 30
0.0
 40
0.9
 50
180.0
 51
270.0
1001
GENIUS_GENODEF_13
1002
{
1000
HIER
1070
     0
1002
}
1002
{
1000
MANEDIT
1070
     0
1002
}
1002
{
1000
NOSEL
1070
     0
1002
}
1002
{
1000
BEHIND
1070
     0
1002
}
1002
{
1000
OTHER
1070
     0
1002
}
1002
{
1000
REACTOR
1002
}
1001
GENIUS_GENOBJ-N-FIL_13
1002
{
1000
OWNER
1000
GEN
1002
}
  0
LINE
  5
208A
  8
PROFILE2
 62
     7
 10
-68.575898163143563
 20
80.283947536899817
 30
0.0
 11
-68.575898163143563
 21
78.183947536899794
 31
0.0
  0
ARC
  5
208B
  8
PROFILE2
 62
     7
 10
-69.475898163143654
 20
78.183947536899794
 30
0.0
 40
0.9
 50
270.0
 51
0.0
1001
GENIUS_GENODEF_13
1002
{
1000
HIER
1070
     0
1002
}
1002
{
1000
MANEDIT
1070
     0
1002
}
1002
{
1000
NOSEL
1070
     0
1002
}
1002
{
1000
BEHIND
1070
     0
1002
}
1002
{
1000
OTHER
1070
     0
1002
}
1002
{
1000
REACTOR
1002
}
1001
GENIUS_GENOBJ-N-FIL_13
1002
{
1000
OWNER
1000
GEN
1002
}
  0
LINE
  5
208C
  8
PROFILE2
 62
     7
 10
-43.175898163143593
 20
80.283947536899817
 30
0.0
 11
-68.575898163143563
 21
80.283947536899817
 31
0.0
  0
LINE
  5
208D
  8
PROFILE2
 62
     7
 10
-42.275898163143609
 20
77.283947536899703
 30
0.0
 11
-69.475898163143654
 21
77.283947536899703
 31
0.0
  0
DIMENSION
  5
21BA
  8
AM_5
 62
     7
  2
*D99
 10
-35.875898163143631
 20
102.3317259116485
 30
0.0
 11
-55.875898163143567
 21
105.41522591164851
 31
0.0
 70
     0
  1
(%%c<>)
 13
-75.875898163143518
 23
90.283947536899817
 33
0.0
 14
-35.875898163143631
 24
90.283947536899817
 34
0.0
 50
0.0000000000000114
1001
ACAD_DSTYLE_DIMINSPECT
1070
   396
1000
100%
1070
   395
1000

1070
   394
1070
    33
1070
   393
1070
     0
1001
ACAD
1000
DSTYLE
1002
{
1070
   287
1070
     3
1070
   271
1070
     4
1070
   272
1070
     4
1070
   274
1070
     2
1070
   279
1070
     0
1070
   284
1070
     0
1070
   285
1070
     0
1070
   286
1070
     0
1070
   340
1005
181C
1002
}
  0
DIMENSION
  5
21F4
  8
AM_5
 62
     7
  2
*D100
 10
-5.1509294927509544
 20
30.08394753689976
 30
0.0
 11
-8.2344294927509587
 21
60.18394753689978
 31
0.0
 70
     0
  1
(<>)
 13
-35.875898163143631
 23
90.283947536899817
 33
0.0
 14
-49.075827485612884
 24
30.083947536899771
 34
0.0
 50
90.000000000000028
1001
ACAD_DSTYLE_DIMINSPECT
1070
   396
1000
100%
1070
   395
1000

1070
   394
1070
    33
1070
   393
1070
     0
1001
ACAD
1000
DSTYLE
1002
{
1070
   287
1070
     3
1070
   271
1070
     4
1070
   272
1070
     4
1070
   274
1070
     2
1070
   279
1070
     0
1070
   284
1070
     0
1070
   285
1070
     0
1070
   286
1070
     0
1070
   340
1005
181C
1002
}
  0
ENDSEC
  0
EOF
