  0
SECTION
  2
HEADER
  9
$ACADVER
  1
AC1009
  9
$INSBASE
 10
0.0
 20
0.0
 30
0.0
  9
$EXTMIN
 10
255.98865965289721
 20
430.38009397959462
 30
0.0
  9
$EXTMAX
 10
669.77369520523871
 20
742.64911461951374
 30
0.0
  9
$LIMMIN
 10
0.0
 20
0.0
  9
$LIMMAX
 10
420.0
 20
297.0
  9
$ORTHOMODE
 70
     0
  9
$REGENMODE
 70
     1
  9
$FILLMODE
 70
     1
  9
$QTEXTMODE
 70
     0
  9
$MIRRTEXT
 70
     0
  9
$DRAGMODE
 70
     2
  9
$LTSCALE
 40
1.0
  9
$OSMODE
 70
    39
  9
$ATTMODE
 70
     1
  9
$TEXTSIZE
 40
4.0
  9
$TRACEWID
 40
1.0
  9
$TEXTSTYLE
  7
ULVAC
  9
$CLAYER
  8
PROFILE2
  9
$CELTYPE
  6
BYLAYER
  9
$CECOLOR
 62
   256
  9
$DIMSCALE
 40
1.0
  9
$DIMASZ
 40
2.8999999999999999
  9
$DIMEXO
 40
1.269999980926513
  9
$DIMDLI
 40
10.0
  9
$DIMRND
 40
0.0
  9
$DIMDLE
 40
0.0
  9
$DIMEXE
 40
1.200000047683714
  9
$DIMTP
 40
0.0
  9
$DIMTM
 40
0.0
  9
$DIMTXT
 40
4.0
  9
$DIMCEN
 40
0.0
  9
$DIMTSZ
 40
0.0
  9
$DIMTOL
 70
     0
  9
$DIMLIM
 70
     0
  9
$DIMTIH
 70
     0
  9
$DIMTOH
 70
     0
  9
$DIMSE1
 70
     0
  9
$DIMSE2
 70
     0
  9
$DIMTAD
 70
     1
  9
$DIMZIN
 70
     9
  9
$DIMBLK
  1
OPEN30
  9
$DIMASO
 70
     1
  9
$DIMSHO
 70
     1
  9
$DIMPOST
  1

  9
$DIMAPOST
  1

  9
$DIMALT
 70
     0
  9
$DIMALTD
 70
     4
  9
$DIMALTF
 40
0.03937007874016
  9
$DIMLFAC
 40
1.0
  9
$DIMTOFL
 70
     1
  9
$DIMTVP
 40
0.0
  9
$DIMTIX
 70
     0
  9
$DIMSOXD
 70
     0
  9
$DIMSAH
 70
     0
  9
$DIMBLK1
  1

  9
$DIMBLK2
  1

  9
$DIMSTYLE
  2
ULVAC
  9
$DIMCLRD
 70
     0
  9
$DIMCLRE
 70
     0
  9
$DIMCLRT
 70
     0
  9
$DIMTFAC
 40
0.75
  9
$DIMGAP
 40
1.0
  9
$LUNITS
 70
     2
  9
$LUPREC
 70
     2
  9
$SKETCHINC
 40
1.0
  9
$FILLETRAD
 40
2.5
  9
$AUNITS
 70
     0
  9
$AUPREC
 70
     0
  9
$MENU
  1
.
  9
$ELEVATION
 40
0.0
  9
$PELEVATION
 40
0.0
  9
$THICKNESS
 40
0.0
  9
$LIMCHECK
 70
     0
  9
$BLIPMODE
 70
     0
  9
$CHAMFERA
 40
2.5
  9
$CHAMFERB
 40
2.5
  9
$SKPOLY
 70
     0
  9
$TDCREATE
 40
2457443.7148076389
  9
$TDUPDATE
 40
2457583.3860319792
  9
$TDINDWG
 40
0.0047249653
  9
$TDUSRTIMER
 40
0.0047248727
  9
$USRTIMER
 70
     1
  9
$ANGBASE
 50
0.0
  9
$ANGDIR
 70
     0
  9
$PDMODE
 70
     0
  9
$PDSIZE
 40
0.0
  9
$PLINEWID
 40
0.0
  9
$COORDS
 70
     1
  9
$SPLFRAME
 70
     0
  9
$SPLINETYPE
 70
     6
  9
$SPLINESEGS
 70
     8
  9
$ATTDIA
 70
     1
  9
$ATTREQ
 70
     1
  9
$HANDLING
 70
     1
  9
$HANDSEED
  5
526A
  9
$SURFTAB1
 70
     6
  9
$SURFTAB2
 70
     6
  9
$SURFTYPE
 70
     6
  9
$SURFU
 70
     6
  9
$SURFV
 70
     6
  9
$UCSNAME
  2

  9
$UCSORG
 10
0.0
 20
0.0
 30
0.0
  9
$UCSXDIR
 10
1.0
 20
0.0
 30
0.0
  9
$UCSYDIR
 10
0.0
 20
1.0
 30
0.0
  9
$PUCSNAME
  2

  9
$PUCSORG
 10
0.0
 20
0.0
 30
0.0
  9
$PUCSXDIR
 10
1.0
 20
0.0
 30
0.0
  9
$PUCSYDIR
 10
0.0
 20
1.0
 30
0.0
  9
$USERI1
 70
     0
  9
$USERI2
 70
     0
  9
$USERI3
 70
     0
  9
$USERI4
 70
     0
  9
$USERI5
 70
     0
  9
$USERR1
 40
0.0
  9
$USERR2
 40
0.0
  9
$USERR3
 40
0.0
  9
$USERR4
 40
0.0
  9
$USERR5
 40
0.0
  9
$WORLDVIEW
 70
     1
  9
$SHADEDGE
 70
     3
  9
$SHADEDIF
 70
    70
  9
$TILEMODE
 70
     1
  9
$MAXACTVP
 70
    64
  9
$PLIMCHECK
 70
     0
  9
$PEXTMIN
 10
1.0000000000000000E+020
 20
1.0000000000000000E+020
 30
1.0000000000000000E+020
  9
$PEXTMAX
 10
-1.0000000000000000E+020
 20
-1.0000000000000000E+020
 30
-1.0000000000000000E+020
  9
$PLIMMIN
 10
-6.350006103515625
 20
-6.3499999046325684
  9
$PLIMMAX
 10
273.04998779296881
 20
209.54999399185181
  9
$UNITMODE
 70
     0
  9
$VISRETAIN
 70
     1
  9
$PLINEGEN
 70
     0
  9
$PSLTSCALE
 70
     1
  0
ENDSEC
  0
SECTION
  2
TABLES
  0
TABLE
  2
VPORT
 70
     1
  0
VPORT
  2
*ACTIVE
 70
     0
 10
0.0
 20
0.0
 11
1.0
 21
1.0
 12
375.51417023295897
 22
579.56316945742526
 13
0.0
 23
0.0
 14
2.5
 24
2.5
 15
10.0
 25
10.0
 16
0.0
 26
0.0
 36
1.0
 17
0.0
 27
0.0
 37
0.0
 40
460.13183153228601
 41
2.0834260289210231
 42
50.0
 43
0.0
 44
0.0
 50
0.0
 51
0.0
 71
     0
 72
   100
 73
     1
 74
     3
 75
     0
 76
     0
 77
     0
 78
     0
  0
ENDTAB
  0
TABLE
  2
LTYPE
 70
    20
  0
LTYPE
  2
CONTINUOUS
 70
     0
  3
Solid line
 72
    65
 73
     0
 40
0.0
  0
LTYPE
  2
AM_ISO02W050
 70
     0
  3
__ __ __ __ __ __ __ __ __ __ __ __ __ __ __
 72
    65
 73
     2
 40
7.5
 49
6.0
 49
-1.5
  0
LTYPE
  2
AM_ISO08W050
 70
     0
  3
____ . ____ . ____ . ____ . ____ . ____ . ____
 72
    65
 73
     4
 40
18.0
 49
12.0
 49
-1.5
 49
3.0
 49
-1.5
  0
LTYPE
  2
AM_ISO09W050
 70
     0
  3
_____ . . _____ . . _____ . . ____ .. ____
 72
    65
 73
     6
 40
22.5
 49
12.0
 49
-1.5
 49
3.0
 49
-1.5
 49
3.0
 49
-1.5
  0
LTYPE
  2
AMCONSTR
 70
     0
  3
_______________________
 72
    65
 73
     2
 40
9999.0
 49
9999.0
 49
0.0
  0
LTYPE
  2
AM_ISO08W050X2
 70
     0
  3
__ . __ . __ . __ . __ . __
 72
    65
 73
     4
 40
9.0
 49
6.0
 49
-0.75
 49
1.5
 49
-0.75
  0
LTYPE
  2
AM_ISO02W050X2
 70
     0
  3
 _ _ _ _ _ _ _ _ _ _ _ _
 72
    65
 73
     2
 40
3.75
 49
3.0
 49
-0.75
  0
LTYPE
  2
AMZIGZAG
 70
     0
  3
/\/-/\/-/\/-/\/-/\/-/\/
 72
    65
 73
     2
 40
11.0001
 49
0.0001
 49
-11.0
  0
LTYPE
  2
ACJISTGB
 70
     0
  3
__ . . __ . .
 72
    65
 73
     6
 40
9.0
 49
4.0
 49
-1.0
 49
1.0
 49
-1.0
 49
1.0
 49
-1.0
  0
LTYPE
  2
ACJISTGL
 70
     0
  3
_ _ _ _ _
 72
    65
 73
     2
 40
3.0
 49
2.0
 49
-1.0
  0
LTYPE
  2
CENTER
 70
     0
  3
__ . __
 72
    65
 73
     4
 40
7.0
 49
4.0
 49
-1.0
 49
1.0
 49
-1.0
  0
LTYPE
  2
HIDDEN
 70
     0
  3
Hidden __ __ __ __ __ __ __ __ __ __ __ __ __ _
 72
    65
 73
     2
 40
9.5249999999999986
 49
6.3499999999999979
 49
-3.174999999999998
  0
LTYPE
  2
PHANTOM2
 70
     0
  3
Phantom (.5x) ___ _ _ ___ _ _ ___ _ _ ___ _ _
 72
    65
 73
     6
 40
31.75
 49
15.875
 49
-3.174999999999998
 49
3.174999999999998
 49
-3.174999999999998
 49
3.174999999999998
 49
-3.174999999999998
  0
LTYPE
  2
ACJISWELD
 70
     0
  3
_ _ _ _ _
 72
    65
 73
     2
 40
2.0
 49
2.0
 49
-1.0
  0
LTYPE
  2
HIDDEN2
 70
     0
  3
Hidden (.5x) _ _ _ _ _ _ _ _ _ _ _ _ _ _ _ _ _
 72
    65
 73
     2
 40
4.7624999999999993
 49
3.174999999999998
 49
-1.587499999999999
  0
LTYPE
  2
CENTER2
 70
     0
  3
Center (.5x) ___ _ ___ _ ___ _ ___ _ ___ _ ___
 72
    65
 73
     4
 40
28.574999999999999
 49
19.050000000000001
 49
-3.174999999999998
 49
3.174999999999998
 49
-3.174999999999998
  0
LTYPE
  2
AMZIGZAG2
 70
     0
  3
/\/-/\/-/\/-/\/-/\/-/\/
 72
    65
 73
     2
 40
0.4401
 49
0.0001
 49
-0.4400000000000003
  0
LTYPE
  2
ACANSTGB
 70
     0
  3
__ . . __ . .
 72
    65
 73
     6
 40
0.35433070866
 49
0.15748031496
 49
-0.03937007874
 49
0.03937007874
 49
-0.03937007874
 49
0.03937007874
 49
-0.03937007874
  0
LTYPE
  2
ACANSTGL
 70
     0
  3
_ _ _ _ _
 72
    65
 73
     2
 40
0.11811023622
 49
0.07874015748
 49
-0.03937007874
  0
ENDTAB
  0
TABLE
  2
LAYER
 70
    23
  0
LAYER
  2
0
 70
     0
 62
     7
  6
CONTINUOUS
  0
LAYER
  2
PROFILE2
 70
     0
 62
     4
  6
CONTINUOUS
  0
LAYER
  2
DIMENSION
 70
     0
 62
     7
  6
CONTINUOUS
  0
LAYER
  2
HIDDEN1
 70
     0
 62
     3
  6
HIDDEN
  0
LAYER
  2
CENTER1
 70
     0
 62
     7
  6
CENTER2
  0
LAYER
  2
SECTION1
 70
     0
 62
     3
  6
CONTINUOUS
  0
LAYER
  2
HATCH
 70
     0
 62
     7
  6
CONTINUOUS
  0
LAYER
  2
TEXT
 70
     0
 62
     7
  6
CONTINUOUS
  0
LAYER
  2
NONPLOT
 70
     0
 62
     7
  6
CONTINUOUS
  0
LAYER
  2
PROFILE1
 70
     0
 62
     2
  6
CONTINUOUS
  0
LAYER
  2
PROFILE3
 70
     0
 62
     5
  6
CONTINUOUS
  0
LAYER
  2
PHANTOM1
 70
     0
 62
     2
  6
PHANTOM2
  0
LAYER
  2
PHANTOM2
 70
     0
 62
     4
  6
PHANTOM2
  0
LAYER
  2
HIDDEN2
 70
     0
 62
     4
  6
HIDDEN
  0
LAYER
  2
SECTION2
 70
     0
 62
     4
  6
CONTINUOUS
  0
LAYER
  2
CENTER2
 70
     0
 62
     4
  6
CENTER2
  0
LAYER
  2
BALLOON
 70
     0
 62
     7
  6
CONTINUOUS
  0
LAYER
  2
PARTSLIST
 70
     0
 62
     7
  6
CONTINUOUS
  0
LAYER
  2
CUTTING1
 70
     0
 62
     7
  6
CENTER2
  0
LAYER
  2
CUTTING2
 70
     0
 62
     7
  6
CENTER2
  0
LAYER
  2
FORMAT
 70
     0
 62
     7
  6
CONTINUOUS
  0
LAYER
  2
DEFPOINTS
 70
     0
 62
     7
  6
CONTINUOUS
  0
LAYER
  2
AM_5
 70
     0
 62
     3
  6
CONTINUOUS
  0
ENDTAB
  0
TABLE
  2
STYLE
 70
    11
  0
STYLE
  2
STANDARD
 70
     0
 40
0.0
 41
1.0
 50
0.0
 71
     0
 42
4.0
  3
ISOCP.SHX
  4
EXTFONT.SHX
  0
STYLE
  2
ANNOTATIVE
 70
     0
 40
0.0
 41
1.0
 50
0.0
 71
     0
 42
0.2
  3
txt
  4

  0
STYLE
  2
ULVAC
 70
     0
 40
0.0
 41
1.0
 50
0.0
 71
     0
 42
4.0
  3
extslim2.shx
  4
extfont2.shx
  0
STYLE
  2

 70
     1
 40
0.0
 41
1.0
 50
0.0
 71
     0
 42
2.5
  3
ltypeshp.shx
  4

  0
STYLE
  2
ACJISTS
 70
     0
 40
1.0
 41
1.0
 50
0.0
 71
     0
 42
2.5
  3
isocp.shx
  4
extfont.shx
  0
STYLE
  2
ACJISGDT
 70
     0
 40
0.0
 41
1.0
 50
0.0
 71
     0
 42
2.5
  3
amgdt.shx
  4
extfont.shx
  0
STYLE
  2
USER1
 70
     0
 40
0.0
 41
1.0
 50
0.0
 71
     0
 42
4.0
  3
TXT.SHX
  4

  0
STYLE
  2
USER2
 70
     0
 40
0.0
 41
1.0
 50
0.0
 71
     0
 42
4.0
  3
SIMPLEX.SHX
  4

  0
STYLE
  2
USER3
 70
     0
 40
0.0
 41
1.0
 50
0.0
 71
     0
 42
4.0
  3
ITALIC.SHX
  4

  0
STYLE
  2
ACANSGDT
 70
     0
 40
0.0
 41
1.0
 50
0.0
 71
     0
 42
4.0
  3
amgdt.shx
  4

  0
STYLE
  2
ACANSTS
 70
     0
 40
1.0
 41
1.0
 50
0.0
 71
     0
 42
4.0
  3
romans.shx
  4
extfont.shx
  0
ENDTAB
  0
TABLE
  2
VIEW
 70
     0
  0
ENDTAB
  0
TABLE
  2
UCS
 70
     0
  0
ENDTAB
  0
TABLE
  2
APPID
 70
    52
  0
APPID
  2
ACAD
 70
     0
  0
APPID
  2
ACADANNOTATIVE
 70
     0
  0
APPID
  2
MCAD_NO_VIS
 70
     0
  0
APPID
  2
ACAD_TEMP_GRAPHIC
 70
     0
  0
APPID
  2
ACATTRIBSERVICES
 70
     0
  0
APPID
  2
AD_DRAW
 70
     0
  0
APPID
  2
DESIGNERASSEMBLIES
 70
     0
  0
APPID
  2
ACADM_DIM_EDIT
 70
     0
  0
APPID
  2
AMDT_DM_ADJ
 70
     0
  0
APPID
  2
DCO15
 70
     0
  0
APPID
  2
CONTENTBLOCKDESCRIPTION
 70
     0
  0
APPID
  2
ACAD_DSTYLE_DIMTEXT_FILL
 70
     0
  0
APPID
  2
GENIUS_GENREC_14
 70
     0
  0
APPID
  2
GENIUS_GENOBJ-N-REC_13
 70
     0
  0
APPID
  2
GENIUS_GENODEF_13
 70
     0
  0
APPID
  2
GENIUS_GENOENT_13
 70
     0
  0
APPID
  2
GENIUS_GENOBJ-N-TIT_13
 70
     0
  0
APPID
  2
GENIUS_GENOLIS_13
 70
     0
  0
APPID
  2
GENIUS_GENTITLE_13
 70
     0
  0
APPID
  2
GENIUS_GENOREF_13
 70
     0
  0
APPID
  2
GENIUS_GENSCREG_15
 70
     0
  0
APPID
  2
GENIUS_GENOBJ-N-SDF_13
 70
     0
  0
APPID
  2
GENIUS_GENDTOL_13
 70
     0
  0
APPID
  2
ACAD_PSEXT
 70
     0
  0
APPID
  2
GENIUS_GENBH_13
 70
     0
  0
APPID
  2
GENIUS_GENOBJ-NBEHI-BHF_13
 70
     0
  0
APPID
  2
GENIUS_GENOBJ-NBEHI-BHB_13
 70
     0
  0
APPID
  2
GEVID1137384586
 70
     0
  0
APPID
  2
GEVDC
 70
     0
  0
APPID
  2
GENIUS_GENOBJ-N-CEN_13
 70
     0
  0
APPID
  2
GENIUS_GENCEN_19
 70
     0
  0
APPID
  2
GEVID1137384587
 70
     0
  0
APPID
  2
GEVCON
 70
     0
  0
APPID
  2
GENIUS_GENOBJ-F-SCPASSM_13
 70
     0
  0
APPID
  2
ACAUTHENVIRON
 70
     0
  0
APPID
  2
ACDBDYNAMICBLOCKTRUENAME
 70
     0
  0
APPID
  2
ACDBDYNAMICBLOCKGUID
 70
     0
  0
APPID
  2
ACDBBLOCKREPETAG
 70
     0
  0
APPID
  2
ACAECLAYERSTANDARD
 70
     0
  0
APPID
  2
GEVID1176237129
 70
     0
  0
APPID
  2
GEVID1176237130
 70
     0
  0
APPID
  2
GEVID1176237132
 70
     0
  0
APPID
  2
GENIUS_GENFIL_13
 70
     0
  0
APPID
  2
GENIUS_GENOBJ-N-CHA_13
 70
     0
  0
APPID
  2
ACAD_DSTYLE_DIMJAG
 70
     0
  0
APPID
  2
ACAD_DSTYLE_DIMTALN
 70
     0
  0
APPID
  2
ACAD_DSTYLE_DIMBREAK
 70
     0
  0
APPID
  2
GENIUS_GENOBJ-N-CRS_13
 70
     0
  0
APPID
  2
ACAD_DSTYLE_DIMINSPECT
 70
     0
  0
APPID
  2
CONTENTBLOCKICON
 70
     0
  0
APPID
  2
ACAD_MLEADERVER
 70
     0
  0
APPID
  2
ACAD_EXEMPT_FROM_CAD_STANDARDS
 70
     0
  0
ENDTAB
  0
TABLE
  2
DIMSTYLE
 70
    17
  0
DIMSTYLE
  2
STANDARD
 70
     0
  3

  4

  5

  6

  7

 40
1.0
 41
0.18
 42
0.0625
 43
0.38
 44
0.18
 45
0.0
 46
0.0
 47
0.0
 48
0.0
140
0.18
141
0.09
142
0.0
143
25.399999999999999
144
1.0
145
0.0
146
1.0
147
0.09
 71
     0
 72
     0
 73
     1
 74
     1
 75
     0
 76
     0
 77
     0
 78
     0
170
     0
171
     2
172
     0
173
     0
174
     0
175
     0
176
     0
177
     0
178
     0
  0
DIMSTYLE
  2
ANNOTATIVE
 70
     0
  3

  4

  5

  6

  7

 40
1.0
 41
0.18
 42
0.0625
 43
0.38
 44
0.18
 45
0.0
 46
0.0
 47
0.0
 48
0.0
140
0.18
141
0.09
142
0.0
143
25.399999999999999
144
1.0
145
0.0
146
1.0
147
0.09
 71
     0
 72
     0
 73
     1
 74
     1
 75
     0
 76
     0
 77
     0
 78
     0
170
     0
171
     2
172
     0
173
     0
174
     0
175
     0
176
     0
177
     0
178
     0
  0
DIMSTYLE
  2
ULVAC
 70
     0
  3

  4

  5

  6

  7

 40
1.0
 41
2.8999999999999999
 42
1.269999980926513
 43
10.0
 44
1.200000047683714
 45
0.0
 46
0.0
 47
0.0
 48
0.0
140
4.0
141
0.0
142
0.0
143
0.03937007874016
144
1.0
145
0.0
146
0.75
147
1.0
 71
     0
 72
     0
 73
     0
 74
     0
 75
     0
 76
     0
 77
     1
 78
     9
170
     0
171
     4
172
     1
173
     0
174
     0
175
     0
176
     0
177
     0
178
     0
  0
DIMSTYLE
  2
ULVAC$2
 70
     0
  3

  4

  5

  6

  7

 40
1.0
 41
2.8999999999999999
 42
1.269999980926513
 43
10.0
 44
1.200000047683714
 45
0.0
 46
0.0
 47
0.0
 48
0.0
140
4.0
141
0.0
142
0.0
143
0.03937007874016
144
1.0
145
0.0
146
0.75
147
1.0
 71
     0
 72
     0
 73
     0
 74
     0
 75
     0
 76
     0
 77
     1
 78
     9
170
     0
171
     4
172
     1
173
     0
174
     0
175
     0
176
     0
177
     0
178
     0
  0
DIMSTYLE
  2
ULVAC$0
 70
     0
  3

  4

  5

  6

  7

 40
1.0
 41
2.8999999999999999
 42
1.269999980926513
 43
10.0
 44
1.200000047683714
 45
0.0
 46
0.0
 47
0.0
 48
0.0
140
4.0
141
0.0
142
0.0
143
0.03937007874016
144
1.0
145
0.0
146
0.75
147
1.0
 71
     0
 72
     0
 73
     0
 74
     0
 75
     0
 76
     0
 77
     1
 78
     9
170
     0
171
     4
172
     1
173
     0
174
     0
175
     0
176
     0
177
     0
178
     0
  0
DIMSTYLE
  2
ULVAC$4
 70
     0
  3

  4

  5

  6

  7

 40
1.0
 41
2.8999999999999999
 42
1.269999980926513
 43
10.0
 44
1.200000047683714
 45
0.0
 46
0.0
 47
0.0
 48
0.0
140
4.0
141
0.0
142
0.0
143
0.03937007874016
144
1.0
145
0.0
146
0.75
147
1.0
 71
     0
 72
     0
 73
     0
 74
     0
 75
     1
 76
     0
 77
     1
 78
     9
170
     0
171
     4
172
     1
173
     0
174
     0
175
     0
176
     0
177
     0
178
     0
  0
DIMSTYLE
  2
ULVAC$6
 70
     0
  3

  4

  5

  6

  7

 40
1.0
 41
2.8999999999999999
 42
1.269999980926513
 43
10.0
 44
1.200000047683714
 45
0.0
 46
0.0
 47
0.0
 48
0.0
140
4.0
141
0.0
142
0.0
143
0.03937007874016
144
1.0
145
0.0
146
0.75
147
1.0
 71
     0
 72
     0
 73
     0
 74
     0
 75
     0
 76
     0
 77
     1
 78
     9
170
     0
171
     4
172
     1
173
     0
174
     0
175
     0
176
   256
177
     0
178
     0
  0
DIMSTYLE
  2
ULVAC$7
 70
     0
  3

  4

  5

  6

  7

 40
1.0
 41
2.8999999999999999
 42
1.269999980926513
 43
10.0
 44
1.200000047683714
 45
0.0
 46
0.0
 47
0.0
 48
0.0
140
4.0
141
0.0
142
0.0
143
0.03937007874016
144
1.0
145
0.0
146
1.0
147
1.0
 71
     0
 72
     0
 73
     0
 74
     0
 75
     0
 76
     0
 77
     1
 78
     1
170
     0
171
     4
172
     1
173
     0
174
     0
175
     0
176
     0
177
   256
178
     0
  0
DIMSTYLE
  2
ULVAC$3
 70
     0
  3

  4

  5

  6

  7

 40
1.0
 41
2.8999999999999999
 42
1.269999980926513
 43
10.0
 44
1.200000047683714
 45
0.0
 46
0.0
 47
0.0
 48
0.0
140
4.0
141
0.0
142
0.0
143
0.03937007874016
144
1.0
145
0.0
146
0.75
147
1.0
 71
     0
 72
     0
 73
     0
 74
     0
 75
     0
 76
     0
 77
     1
 78
     9
170
     0
171
     4
172
     1
173
     0
174
     0
175
     0
176
     0
177
     0
178
     0
  0
DIMSTYLE
  2
ULVAC$SH
 70
     0
  3

  4

  5

  6

  7

 40
1.0
 41
2.8999999999999999
 42
1.269999980926513
 43
10.0
 44
1.200000047683714
 45
0.0
 46
0.0
 47
0.0
 48
0.0
140
4.0
141
0.0
142
0.0
143
0.03937007874016
144
2.0
145
0.0
146
0.75
147
1.0
 71
     0
 72
     0
 73
     0
 74
     0
 75
     0
 76
     0
 77
     1
 78
     9
170
     0
171
     4
172
     1
173
     1
174
     0
175
     0
176
     0
177
     0
178
     0
  0
DIMSTYLE
  2
ULVAC$SF
 70
     0
  3

  4

  5

  6

  7

 40
1.0
 41
2.8999999999999999
 42
1.269999980926513
 43
10.0
 44
1.200000047683714
 45
0.0
 46
0.0
 47
0.0
 48
0.0
140
4.0
141
0.0
142
0.0
143
0.03937007874016
144
2.0
145
0.0
146
0.75
147
1.0
 71
     0
 72
     0
 73
     0
 74
     0
 75
     0
 76
     0
 77
     1
 78
     9
170
     0
171
     4
172
     1
173
     0
174
     0
175
     0
176
     0
177
     0
178
     0
  0
DIMSTYLE
  2
AM_ANSI
 70
     0
  3

  4
mm
  5

  6

  7

 40
1.0
 41
0.12
 42
0.05
 43
0.5
 44
0.1
 45
0.0
 46
0.0
 47
0.1
 48
0.1
140
0.12
141
0.0
142
0.0
143
25.399999999999999
144
1.0
145
0.0
146
0.71
147
0.06
 71
     0
 72
     0
 73
     1
 74
     1
 75
     0
 76
     0
 77
     0
 78
     7
170
     0
171
     2
172
     0
173
     0
174
     0
175
     0
176
   256
177
   256
178
     2
  0
DIMSTYLE
  2
AM_ANSI$3
 70
     0
  3

  4
mm
  5

  6

  7

 40
1.0
 41
0.12
 42
0.05
 43
0.5
 44
0.1
 45
0.0
 46
0.0
 47
0.1
 48
0.1
140
0.12
141
0.0
142
0.0
143
25.399999999999999
144
1.0
145
0.0
146
0.71
147
0.06
 71
     0
 72
     0
 73
     1
 74
     1
 75
     0
 76
     0
 77
     0
 78
     7
170
     0
171
     2
172
     0
173
     0
174
     0
175
     0
176
   256
177
   256
178
     2
  0
DIMSTYLE
  2
AM_ANSI$4
 70
     0
  3

  4
mm
  5

  6

  7

 40
1.0
 41
0.12
 42
0.05
 43
0.5
 44
0.1
 45
0.0
 46
0.0
 47
0.1
 48
0.1
140
0.12
141
0.0
142
0.0
143
25.399999999999999
144
1.0
145
0.0
146
0.71
147
0.06
 71
     0
 72
     0
 73
     1
 74
     1
 75
     0
 76
     0
 77
     0
 78
     7
170
     0
171
     2
172
     0
173
     0
174
     0
175
     0
176
   256
177
   256
178
     2
  0
DIMSTYLE
  2
AM_ANSI$7
 70
     0
  3

  4
mm
  5

  6

  7

 40
1.0
 41
0.12
 42
0.05
 43
0.5
 44
0.1
 45
0.0
 46
0.0
 47
0.1
 48
0.1
140
0.12
141
0.0
142
0.0
143
25.399999999999999
144
1.0
145
0.0
146
0.71
147
0.06
 71
     0
 72
     0
 73
     1
 74
     1
 75
     0
 76
     0
 77
     0
 78
     7
170
     0
171
     2
172
     0
173
     0
174
     0
175
     0
176
   256
177
   256
178
     2
  0
DIMSTYLE
  2
AM_ANSI$SF
 70
     0
  3

  4
mm
  5

  6

  7

 40
1.0
 41
0.12
 42
0.05
 43
0.5
 44
0.1
 45
0.0
 46
0.0
 47
0.1
 48
0.1
140
0.12
141
0.0
142
0.0
143
25.399999999999999
144
1.0
145
0.0
146
0.71
147
0.06
 71
     0
 72
     0
 73
     1
 74
     1
 75
     1
 76
     1
 77
     0
 78
     7
170
     0
171
     2
172
     0
173
     0
174
     0
175
     0
176
   256
177
   256
178
     2
  0
DIMSTYLE
  2
AM_ANSI$SH
 70
     0
  3

  4
mm
  5

  6

  7

 40
1.0
 41
0.12
 42
0.05
 43
0.5
 44
0.1
 45
0.0
 46
0.0
 47
0.1
 48
0.1
140
0.12
141
0.0
142
0.0
143
25.399999999999999
144
1.0
145
0.0
146
0.71
147
0.06
 71
     0
 72
     0
 73
     1
 74
     1
 75
     1
 76
     1
 77
     0
 78
     7
170
     0
171
     2
172
     0
173
     1
174
     0
175
     0
176
   256
177
   256
178
     2
  0
ENDTAB
  0
ENDSEC
  0
SECTION
  2
BLOCKS
  0
BLOCK
  8
0
  2
$MODEL_SPACE
 70
     0
 10
0.0
 20
0.0
 30
0.0
  3
$MODEL_SPACE
  1

  0
ENDBLK
  5
4F0B
  8
0
  0
BLOCK
 67
     1
  8
0
  2
$PAPER_SPACE
 70
     0
 10
0.0
 20
0.0
 30
0.0
  3
$PAPER_SPACE
  1

  0
ENDBLK
  5
4F07
 67
     1
  8
0
  0
BLOCK
  8
0
  2
_OPEN30
 70
     0
 10
0.0
 20
0.0
 30
0.0
  3
_OPEN30
  1

  0
LINE
  5
6A
  8
0
  6
BYBLOCK
 62
     0
 10
-1.0
 20
0.26794919
 30
0.0
 11
0.0
 21
0.0
 31
0.0
  0
LINE
  5
6B
  8
0
  6
BYBLOCK
 62
     0
 10
0.0
 20
0.0
 30
0.0
 11
-1.0
 21
-0.26794919
 31
0.0
  0
LINE
  5
6C
  8
0
  6
BYBLOCK
 62
     0
 10
0.0
 20
0.0
 30
0.0
 11
-1.0
 21
0.0
 31
0.0
  0
ENDBLK
  5
6E
  8
0
  0
BLOCK
  8
0
  2
ULVAC_BALLON
 70
     2
 10
0.0
 20
0.0
 30
0.0
  3
ULVAC_BALLON
  1

  0
CIRCLE
  5
3F7C
  8
0
  6
BYBLOCK
 62
     0
 10
0.0
 20
0.0
 30
0.0
 40
5.0
1001
ACDBBLOCKREPETAG
1070
     1
1071
        0
1005
3F7C
  0
ATTDEF
  5
3F7D
  8
0
  6
BYBLOCK
 62
     0
 10
-0.0000000000000001
 20
-2.0
 30
0.0
 40
4.0
  1

 41
0.76
  7
ULVAC
 72
     1
 11
0.0
 21
0.0
 31
0.0
  3
部番
  2
ITEM
 70
     0
 74
     2
1001
ACDBBLOCKREPETAG
1070
     1
1071
        1
1005
0
  0
ENDBLK
  5
2853
  8
0
  0
BLOCK
  8
0
  2
GENDOT
 70
     0
 10
0.0
 20
0.0
 30
0.0
  3
GENDOT
  1

  0
LINE
  5
4226
  8
0
 10
0.0
 20
0.0
 30
0.0
 11
-1.0
 21
0.0
 31
0.0
  0
POLYLINE
  5
4227
  8
0
 66
     1
 10
0.0
 20
0.0
 30
0.0
 70
     1
 40
0.25
 41
0.25
  0
VERTEX
  5
4E42
  8
0
 10
-0.125
 20
0.0
 30
0.0
 42
1.0
  0
VERTEX
  5
4E43
  8
0
 10
0.125
 20
0.0
 30
0.0
 42
1.0
  0
SEQEND
  5
4E44
  8
0
  0
ENDBLK
  5
4229
  8
0
  0
BLOCK
  8
0
  2
GENAXEH
 70
     0
 10
0.0
 20
0.0
 30
0.0
  3
GENAXEH
  1

  0
LINE
  5
43D1
  8
0
 10
-1.0
 20
0.0
 30
0.0
 11
1.0
 21
0.0
 31
0.0
  0
ENDBLK
  5
43D3
  8
0
  0
BLOCK
  8
0
  2
NEWCCM-080827__1
 70
     0
 10
0.0
 20
0.0
 30
0.0
  3
NEWCCM-080827__1
  1

  0
LINE
  5
46BE
  8
PROFILE2
 62
     7
 10
-6.349998474121092
 20
0.0
 30
0.0
 11
6.350006103515625
 21
0.0
 31
0.0
  0
LINE
  5
46BF
  8
PROFILE2
 62
     7
 10
-7.5
 20
-19.100004577636721
 30
0.0
 11
-7.5
 21
-20.19999542236329
 31
0.0
  0
LINE
  5
46C0
  8
PROFILE2
 62
     7
 10
7.5
 20
-19.100004577636721
 30
0.0
 11
7.5
 21
-23.499998474121089
 31
0.0
  0
LINE
  5
46C1
  8
PROFILE2
 62
     7
 10
0.0
 20
-28.400000000000009
 30
0.0
 11
7.6500015258789054
 21
-28.400000000000009
 31
0.0
  0
LINE
  5
46C2
  8
PROFILE2
 62
     7
 10
0.0
 20
-27.69999542236329
 30
0.0
 11
9.4000015258789062
 21
-27.69999542236329
 31
0.0
  0
LINE
  5
46C3
  8
PROFILE2
 62
     7
 10
0.0
 20
-25.19999542236329
 30
0.0
 11
10.150001525878899
 21
-25.19999542236329
 31
0.0
  0
LINE
  5
46C4
  8
PROFILE2
 62
     7
 10
0.0
 20
-23.499998474121089
 30
0.0
 11
10.25
 21
-23.499998474121089
 31
0.0
  0
LINE
  5
46C5
  8
PROFILE2
 62
     7
 10
10.150001525878899
 20
-23.499998474121089
 30
0.0
 11
10.150001525878899
 21
-25.19999542236329
 31
0.0
  0
LINE
  5
46C6
  8
PROFILE2
 62
     7
 10
9.4000015258789062
 20
-25.19999542236329
 30
0.0
 11
9.4000015258789062
 21
-27.69999542236329
 31
0.0
  0
LINE
  5
46C7
  8
PROFILE2
 62
     7
 10
-13.5
 20
-20.19999542236329
 30
0.0
 11
13.5
 21
-20.19999542236329
 31
0.0
  0
LINE
  5
46C8
  8
PROFILE2
 62
     7
 10
-13.5
 20
-23.19999542236329
 30
0.0
 11
0.0
 21
-23.19999542236329
 31
0.0
  0
LINE
  5
46C9
  8
PROFILE2
 62
     7
 10
-13.5
 20
-20.19999542236329
 30
0.0
 11
-13.5
 21
-23.19999542236329
 31
0.0
  0
LINE
  5
46CA
  8
PROFILE2
 62
     7
 10
-15.588455200195311
 20
-24.405767822265631
 30
0.0
 11
-15.588455200195311
 21
-41.49422302246095
 31
0.0
  0
LINE
  5
46CB
  8
PROFILE2
 62
     7
 10
13.5
 20
-20.19999542236329
 30
0.0
 11
13.5
 21
-23.19999542236329
 31
0.0
  0
LINE
  5
46CC
  8
PROFILE2
 62
     7
 10
15.588455200195311
 20
-24.405767822265631
 30
0.0
 11
15.588455200195311
 21
-41.49422302246095
 31
0.0
  0
LINE
  5
46CD
  8
PROFILE2
 62
     7
 10
-7.7942276000976563
 20
-24.405767822265631
 30
0.0
 11
-7.7942276000976563
 21
-41.49422302246095
 31
0.0
  0
LINE
  5
46CE
  8
PROFILE2
 62
     7
 10
-13.5
 20
-42.699987792968763
 30
0.0
 11
13.5
 21
-42.699987792968763
 31
0.0
  0
LINE
  5
46CF
  8
PROFILE2
 62
     7
 10
-15.588461108700351
 20
-24.40576602826836
 30
0.0
 11
-13.50000208718938
 21
-23.199993628365998
 31
0.0
  0
LINE
  5
46D0
  8
PROFILE2
 62
     7
 10
13.500000640604521
 20
-23.199992604826459
 30
0.0
 11
15.58845801030315
 21
-24.40576405105449
 31
0.0
  0
LINE
  5
46D1
  8
PROFILE2
 62
     7
 10
-15.58846173642473
 20
-41.494228300620641
 30
0.0
 11
-13.500004366726101
 21
-42.699999746848697
 31
0.0
  0
LINE
  5
46D2
  8
PROFILE2
 62
     7
 10
13.50000145539434
 20
-42.699990603977902
 30
0.0
 11
15.58845386965595
 21
-41.49422201877281
 31
0.0
  0
LINE
  5
46D3
  8
PROFILE2
 62
     7
 10
10.25
 20
-23.499998474121089
 30
0.0
 11
10.25
 21
-42.699987792968763
 31
0.0
  0
LINE
  5
46D4
  8
PROFILE2
 62
     7
 10
7.8000030517578089
 20
-20.19999542236329
 30
0.0
 11
7.8000030517578089
 21
-23.499998474121089
 31
0.0
  0
LINE
  5
46D5
  8
PROFILE2
 62
     7
 10
-7.5
 20
-19.100004577636721
 30
0.0
 11
7.5
 21
-19.100004577636721
 31
0.0
  0
ARC
  5
46D6
  8
PROFILE2
 62
     7
 10
-11.69134521484375
 20
-35.799269104003912
 30
0.0
 40
6.9007215499877921
 50
235.61575287397781
 51
304.38424894725517
  0
ARC
  5
46D7
  8
PROFILE2
 62
     7
 10
0.0
 20
-16.905767822265631
 30
0.0
 40
25.794229507446289
 50
252.41204864687481
 51
269.99999749552148
  0
ARC
  5
46D8
  8
PROFILE2
 62
     7
 10
7.6500015258789054
 20
-27.471426391601572
 30
0.0
 40
0.9285714030265808
 50
269.99999749552148
 51
345.7499671600591
  0
ARC
  5
46D9
  8
PROFILE2
 62
     7
 10
-11.69134521484375
 20
-30.100714111328131
 30
0.0
 40
6.9007215499877921
 50
55.615751052744812
 51
124.3842471260226
  0
ARC
  5
46DA
  8
PROFILE2
 62
     7
 10
0.0
 20
-48.994223022460943
 30
0.0
 40
25.794229507446289
 50
90.000002504478417
 51
107.58795135312511
  0
LINE
  5
46DB
  8
PROFILE2
 62
     7
 10
6.350006103515625
 20
0.0
 30
0.0
 11
6.350006103515625
 21
-19.100004577636721
 31
0.0
  0
LINE
  5
46DC
  8
PROFILE2
 62
     7
 10
-6.349998474121092
 20
0.0
 30
0.0
 11
-6.349998474121092
 21
-19.100004577636721
 31
0.0
  0
ENDBLK
  5
46DD
  8
0
  0
BLOCK
  8
0
  2
NEWCCM-080827__2
 70
     0
 10
0.0
 20
0.0
 30
0.0
  3
NEWCCM-080827__2
  1

  0
LINE
  5
46E0
  8
PROFILE2
 62
     7
 10
14.25
 20
87.799999713897705
 30
0.0
 11
19.25
 21
87.799999713897705
 31
0.0
  0
LINE
  5
46E1
  8
PROFILE2
 62
     7
 10
14.25
 20
87.799999713897705
 30
0.0
 11
14.25
 21
83.799999999999983
 31
0.0
  0
LINE
  5
46E2
  8
PROFILE2
 62
     7
 10
19.25
 20
87.799999713897705
 30
0.0
 11
19.25
 21
83.799999999999983
 31
0.0
  0
LINE
  5
46E3
  8
PROFILE2
 62
     7
 10
16.75
 20
87.499999713897708
 30
0.0
 11
16.75
 21
83.799999999999983
 31
0.0
  0
LINE
  5
46E4
  8
PROFILE2
 62
     7
 10
14.0
 20
86.8999924659729
 30
0.0
 11
14.0
 21
83.800000000000054
 31
0.0
  0
LINE
  5
46E5
  8
PROFILE2
 62
     7
 10
-19.25
 20
87.799999713897705
 30
0.0
 11
-19.249999999999972
 21
83.799999999999983
 31
0.0
  0
LINE
  5
46E6
  8
PROFILE2
 62
     7
 10
-14.25
 20
87.799999713897705
 30
0.0
 11
-14.25
 21
83.799999999999983
 31
0.0
  0
LINE
  5
46E7
  8
PROFILE2
 62
     7
 10
-13.5
 20
87.399992465972915
 30
0.0
 11
13.5
 21
87.399992465972915
 31
0.0
  0
LINE
  5
46E8
  8
PROFILE2
 62
     7
 10
-16.75
 20
87.499999713897708
 30
0.0
 11
-16.75
 21
83.799999999999983
 31
0.0
  0
LINE
  5
46E9
  8
PROFILE2
 62
     7
 10
-19.25
 20
87.799999713897705
 30
0.0
 11
-14.25
 21
87.799999713897705
 31
0.0
  0
LINE
  5
46EA
  8
PROFILE2
 62
     7
 10
13.50000206215986
 20
87.39999353152551
 30
0.0
 11
14.00000259295461
 21
86.899992958583852
 31
0.0
  0
LINE
  5
46EB
  8
PROFILE2
 62
     7
 10
-14.0000013376807
 20
86.899994138695774
 30
0.0
 11
-13.50000076473907
 21
87.399994669490525
 31
0.0
  0
LINE
  5
46EC
  8
PROFILE2
 62
     7
 10
-14.0
 20
86.8999924659729
 30
0.0
 11
-14.0
 21
83.800000000000054
 31
0.0
  0
LINE
  5
46ED
  8
PROFILE2
 62
     7
 10
-26.5
 20
83.799999999999983
 30
0.0
 11
26.5
 21
83.799999999999983
 31
0.0
  0
LINE
  5
46EE
  8
PROFILE2
 62
     7
 10
-27.5
 20
14.39999999999997
 30
0.0
 11
27.500000000000028
 21
14.39999999999997
 31
0.0
  0
LINE
  5
46EF
  8
PROFILE2
 62
     7
 10
-6.349998474121092
 20
-0.8000000000000112
 30
0.0
 11
6.350006103515625
 21
-0.8000000000000112
 31
0.0
  0
LINE
  5
46F0
  8
PROFILE2
 62
     7
 10
-27.5
 20
82.800000000000026
 30
0.0
 11
-27.5
 21
14.39999999999997
 31
0.0
  0
LINE
  5
46F1
  8
PROFILE2
 62
     7
 10
27.5
 20
82.800000000000026
 30
0.0
 11
27.500000000000028
 21
14.39999999999997
 31
0.0
  0
ARC
  5
46F2
  8
PROFILE2
 62
     7
 10
26.5
 20
82.800000000000026
 30
0.0
 40
1.0
 50
0.0
 51
90.0
  0
ARC
  5
46F3
  8
PROFILE2
 62
     7
 10
-26.5
 20
82.800000000000026
 30
0.0
 40
1.0
 50
90.0
 51
180.0
  0
LINE
  5
46F4
  8
PROFILE2
 62
     7
 10
6.350006103515625
 20
14.39999999999997
 30
0.0
 11
6.350006103515625
 21
-0.8000000000000112
 31
0.0
  0
LINE
  5
46F5
  8
PROFILE2
 62
     7
 10
-6.349998474121092
 20
14.39999999999997
 30
0.0
 11
-6.349998474121092
 21
-0.8000000000000112
 31
0.0
  0
ENDBLK
  5
46F6
  8
0
  0
BLOCK
  8
0
  2
NEWCCM-080827__6
 70
     0
 10
0.0
 20
0.0
 30
0.0
  3
NEWCCM-080827__6
  1

  0
LINE
  5
46F9
  8
PROFILE2
 62
     7
 10
-6.349998474121092
 20
0.0
 30
0.0
 11
-6.349998474121092
 21
-23.199999237060549
 31
0.0
  0
LINE
  5
46FA
  8
PROFILE2
 62
     7
 10
6.350006103515625
 20
0.0
 30
0.0
 11
6.350006103515625
 21
-23.199999237060549
 31
0.0
  0
ARC
  5
46FB
  8
PROFILE2
 62
     7
 10
14.0
 20
-26.177496337890631
 30
0.0
 40
1.0
 50
0.0
 51
75.73021419613687
  0
ARC
  5
46FC
  8
PROFILE2
 62
     7
 10
-14.0
 20
-26.177496337890631
 30
0.0
 40
1.0
 50
104.2697839826303
 51
180.00000500895601
  0
LINE
  5
46FD
  8
PROFILE2
 62
     7
 10
6.3500034661207101
 20
-23.199995412759311
 30
0.0
 11
14.246491661784029
 21
-25.208350810951998
 31
0.0
  0
LINE
  5
46FE
  8
PROFILE2
 62
     7
 10
-14.246486568813159
 20
-25.208346905002731
 30
0.0
 11
-6.3500020701478084
 21
-23.199992447086998
 31
0.0
  0
LINE
  5
46FF
  8
PROFILE2
 62
     7
 10
-15.0
 20
-28.400000000000009
 30
0.0
 11
15.0
 21
-28.400000000000009
 31
0.0
  0
LINE
  5
4700
  8
PROFILE2
 62
     7
 10
15.0
 20
-26.177496337890631
 30
0.0
 11
15.0
 21
-28.400000000000009
 31
0.0
  0
LINE
  5
4701
  8
PROFILE2
 62
     7
 10
-15.0
 20
-26.177496337890631
 30
0.0
 11
-15.0
 21
-28.400000000000009
 31
0.0
  0
LINE
  5
4702
  8
PROFILE2
 62
     7
 10
-6.349998474121092
 20
-23.199999237060549
 30
0.0
 11
6.349998474121092
 21
-23.199999237060549
 31
0.0
  0
LINE
  5
4703
  8
PROFILE2
 62
     7
 10
-6.349998474121092
 20
0.0
 30
0.0
 11
6.350006103515625
 21
0.0
 31
0.0
  0
ENDBLK
  5
4704
  8
0
  0
BLOCK
  8
0
  2
NEWCCM-080827__7
 70
     0
 10
0.0
 20
0.0
 30
0.0
  3
NEWCCM-080827__7
  1

  0
LINE
  5
4707
  8
PROFILE2
 62
     7
 10
-6.349998474121092
 20
28.400000000000009
 30
0.0
 11
-6.349998474121092
 21
0.0
 31
0.0
  0
LINE
  5
4708
  8
PROFILE2
 62
     7
 10
6.350006103515625
 20
28.400000000000009
 30
0.0
 11
6.350006103515625
 21
0.0
 31
0.0
  0
LINE
  5
4709
  8
PROFILE2
 62
     7
 10
-6.349998474121092
 20
28.400000000000009
 30
0.0
 11
6.350006103515625
 21
28.400000000000009
 31
0.0
  0
LINE
  5
470A
  8
PROFILE2
 62
     7
 10
-6.349998474121092
 20
0.0
 30
0.0
 11
6.350006103515625
 21
0.0
 31
0.0
  0
ENDBLK
  5
470B
  8
0
  0
BLOCK
  8
0
  2
GA0128-370-01B___4
 70
     0
 10
0.0
 20
0.0
 30
0.0
  3
GA0128-370-01B___4
  1

  0
ARC
  5
470E
  8
PROFILE2
 62
     7
 10
11.90688955094563
 20
1.5062254201297931
 30
0.0
 40
0.0132173212649021
 50
90.0
 51
150.00044031307101
  0
ARC
  5
470F
  8
PROFILE2
 62
     7
 10
11.93454643134146
 20
1.5062254201297931
 30
0.0
 40
0.0132173212649021
 50
0.0
 51
90.0
  0
LINE
  5
4710
  8
PROFILE2
 62
     7
 10
11.90688955094563
 20
1.519442741394698
 30
0.0
 11
11.93454643134146
 21
1.519442741394698
 31
0.0
  0
LINE
  5
4711
  8
PROFILE2
 62
     7
 10
-11.994880542678599
 20
1.1261228880588301
 30
0.0
 11
-10.02422567478402
 21
1.1261228880588301
 31
0.0
  0
LINE
  5
4712
  8
PROFILE2
 62
     7
 10
-11.99948081007917
 20
1.071406702324563
 30
0.0
 11
-11.76656161479977
 21
0.9145943309511039
 31
0.0
  0
LINE
  5
4713
  8
PROFILE2
 62
     7
 10
11.423732782394691
 20
-0.9554834185674964
 30
0.0
 11
11.867807631262879
 21
-0.9554834185674964
 31
0.0
  0
LINE
  5
4714
  8
PROFILE2
 62
     7
 10
11.460824689049931
 20
0.1503368287534386
 30
0.0
 11
11.945444651914951
 21
0.1503368287534386
 31
0.0
  0
ARC
  5
4715
  8
PROFILE2
 62
     7
 10
11.48796960033647
 20
1.1497689738287691
 30
0.0
 40
0.2724381095910043
 50
230.5099444785501
 51
341.64815343442842
  0
POLYLINE
  5
4716
  8
PROFILE2
 62
     7
 66
     1
 10
0.0
 20
0.0
 30
0.0
 70
     8
  0
VERTEX
  5
4717
  8
PROFILE2
 62
     7
 10
11.460800000000001
 20
0.150337
 30
0.0
 70
    32
  0
VERTEX
  5
4718
  8
PROFILE2
 62
     7
 10
11.429
 20
0.196268
 30
0.0
 70
    32
  0
VERTEX
  5
4719
  8
PROFILE2
 62
     7
 10
11.394600000000001
 20
0.241199
 30
0.0
 70
    32
  0
VERTEX
  5
471A
  8
PROFILE2
 62
     7
 10
11.3575
 20
0.2850519999999999
 30
0.0
 70
    32
  0
VERTEX
  5
471B
  8
PROFILE2
 62
     7
 10
11.318
 20
0.327751
 30
0.0
 70
    32
  0
VERTEX
  5
471C
  8
PROFILE2
 62
     7
 10
11.276
 20
0.369221
 30
0.0
 70
    32
  0
VERTEX
  5
471D
  8
PROFILE2
 62
     7
 10
11.2317
 20
0.4093900000000001
 30
0.0
 70
    32
  0
VERTEX
  5
471E
  8
PROFILE2
 62
     7
 10
11.1851
 20
0.448187
 30
0.0
 70
    32
  0
VERTEX
  5
471F
  8
PROFILE2
 62
     7
 10
11.1363
 20
0.485544
 30
0.0
 70
    32
  0
VERTEX
  5
4720
  8
PROFILE2
 62
     7
 10
11.0853
 20
0.521397
 30
0.0
 70
    32
  0
VERTEX
  5
4721
  8
PROFILE2
 62
     7
 10
11.032400000000001
 20
0.5556830000000002
 30
0.0
 70
    32
  0
VERTEX
  5
4722
  8
PROFILE2
 62
     7
 10
10.977499999999999
 20
0.588341
 30
0.0
 70
    32
  0
VERTEX
  5
4723
  8
PROFILE2
 62
     7
 10
10.9207
 20
0.619316
 30
0.0
 70
    32
  0
VERTEX
  5
4724
  8
PROFILE2
 62
     7
 10
10.8622
 20
0.6485520000000001
 30
0.0
 70
    32
  0
VERTEX
  5
4725
  8
PROFILE2
 62
     7
 10
10.802099999999999
 20
0.6759990000000001
 30
0.0
 70
    32
  0
VERTEX
  5
4726
  8
PROFILE2
 62
     7
 10
10.740399999999999
 20
0.7016090000000002
 30
0.0
 70
    32
  0
VERTEX
  5
4727
  8
PROFILE2
 62
     7
 10
10.677300000000001
 20
0.7253370000000002
 30
0.0
 70
    32
  0
VERTEX
  5
4728
  8
PROFILE2
 62
     7
 10
10.6129
 20
0.7471410000000001
 30
0.0
 70
    32
  0
VERTEX
  5
4729
  8
PROFILE2
 62
     7
 10
10.5472
 20
0.7669850000000003
 30
0.0
 70
    32
  0
VERTEX
  5
472A
  8
PROFILE2
 62
     7
 10
10.480499999999999
 20
0.784832
 30
0.0
 70
    32
  0
VERTEX
  5
472B
  8
PROFILE2
 62
     7
 10
10.412800000000001
 20
0.800651
 30
0.0
 70
    32
  0
VERTEX
  5
472C
  8
PROFILE2
 62
     7
 10
10.3443
 20
0.8144159999999999
 30
0.0
 70
    32
  0
VERTEX
  5
472D
  8
PROFILE2
 62
     7
 10
10.275
 20
0.826102
 30
0.0
 70
    32
  0
VERTEX
  5
472E
  8
PROFILE2
 62
     7
 10
10.2051
 20
0.8356889999999999
 30
0.0
 70
    32
  0
VERTEX
  5
472F
  8
PROFILE2
 62
     7
 10
10.1347
 20
0.8431589999999998
 30
0.0
 70
    32
  0
VERTEX
  5
4730
  8
PROFILE2
 62
     7
 10
10.0639
 20
0.848501
 30
0.0
 70
    32
  0
VERTEX
  5
4731
  8
PROFILE2
 62
     7
 10
9.9928899999999992
 20
0.8517030000000001
 30
0.0
 70
    32
  0
VERTEX
  5
4732
  8
PROFILE2
 62
     7
 10
9.9217499999999994
 20
0.852762
 30
0.0
 70
    32
  0
VERTEX
  5
4733
  8
PROFILE2
 62
     7
 10
9.8506099999999996
 20
0.851675
 30
0.0
 70
    32
  0
VERTEX
  5
4734
  8
PROFILE2
 62
     7
 10
9.7795899999999971
 20
0.8484440000000001
 30
0.0
 70
    32
  0
VERTEX
  5
4735
  8
PROFILE2
 62
     7
 10
9.7088300000000007
 20
0.8430749999999999
 30
0.0
 70
    32
  0
VERTEX
  5
4736
  8
PROFILE2
 62
     7
 10
9.6384299999999996
 20
0.8355769999999999
 30
0.0
 70
    32
  0
VERTEX
  5
4737
  8
PROFILE2
 62
     7
 10
9.5685300000000009
 20
0.8259629999999999
 30
0.0
 70
    32
  0
VERTEX
  5
4738
  8
PROFILE2
 62
     7
 10
9.4992499999999982
 20
0.814249
 30
0.0
 70
    32
  0
VERTEX
  5
4739
  8
PROFILE2
 62
     7
 10
9.4307099999999995
 20
0.8004569999999999
 30
0.0
 70
    32
  0
VERTEX
  5
473A
  8
PROFILE2
 62
     7
 10
9.3630300000000002
 20
0.784611
 30
0.0
 70
    32
  0
VERTEX
  5
473B
  8
PROFILE2
 62
     7
 10
9.2963199999999997
 20
0.7667380000000003
 30
0.0
 70
    32
  0
VERTEX
  5
473C
  8
PROFILE2
 62
     7
 10
9.2307100000000002
 20
0.746868
 30
0.0
 70
    32
  0
VERTEX
  5
473D
  8
PROFILE2
 62
     7
 10
9.1662999999999997
 20
0.725039
 30
0.0
 70
    32
  0
VERTEX
  5
473E
  8
PROFILE2
 62
     7
 10
9.1032100000000007
 20
0.701286
 30
0.0
 70
    32
  0
VERTEX
  5
473F
  8
PROFILE2
 62
     7
 10
9.0415600000000005
 20
0.675652
 30
0.0
 70
    32
  0
VERTEX
  5
4740
  8
PROFILE2
 62
     7
 10
8.9814399999999992
 20
0.6481810000000002
 30
0.0
 70
    32
  0
VERTEX
  5
4741
  8
PROFILE2
 62
     7
 10
8.9229699999999976
 20
0.6189210000000001
 30
0.0
 70
    32
  0
VERTEX
  5
4742
  8
PROFILE2
 62
     7
 10
8.8662299999999998
 20
0.5879240000000002
 30
0.0
 70
    32
  0
VERTEX
  5
4743
  8
PROFILE2
 62
     7
 10
8.8113499999999991
 20
0.555244
 30
0.0
 70
    32
  0
VERTEX
  5
4744
  8
PROFILE2
 62
     7
 10
8.7583999999999982
 20
0.5209380000000004
 30
0.0
 70
    32
  0
VERTEX
  5
4745
  8
PROFILE2
 62
     7
 10
8.7074899999999982
 20
0.4850640000000002
 30
0.0
 70
    32
  0
VERTEX
  5
4746
  8
PROFILE2
 62
     7
 10
8.6586999999999961
 20
0.4476880000000003
 30
0.0
 70
    32
  0
VERTEX
  5
4747
  8
PROFILE2
 62
     7
 10
8.6121100000000013
 20
0.408872
 30
0.0
 70
    32
  0
VERTEX
  5
4748
  8
PROFILE2
 62
     7
 10
8.5678099999999962
 20
0.368686
 30
0.0
 70
    32
  0
VERTEX
  5
4749
  8
PROFILE2
 62
     7
 10
8.5258800000000008
 20
0.3272
 30
0.0
 70
    32
  0
VERTEX
  5
474A
  8
PROFILE2
 62
     7
 10
8.4863900000000001
 20
0.284485
 30
0.0
 70
    32
  0
VERTEX
  5
474B
  8
PROFILE2
 62
     7
 10
8.4494000000000007
 20
0.240617
 30
0.0
 70
    32
  0
VERTEX
  5
474C
  8
PROFILE2
 62
     7
 10
8.4149899999999942
 20
0.195672
 30
0.0
 70
    32
  0
VERTEX
  5
474D
  8
PROFILE2
 62
     7
 10
8.3832000000000004
 20
0.149729
 30
0.0
 70
    32
  0
VERTEX
  5
474E
  8
PROFILE2
 62
     7
 10
8.3541100000000004
 20
0.102868
 30
0.0
 70
    32
  0
VERTEX
  5
474F
  8
PROFILE2
 62
     7
 10
8.3277499999999982
 20
0.0551698
 30
0.0
 70
    32
  0
VERTEX
  5
4750
  8
PROFILE2
 62
     7
 10
8.3041800000000006
 20
0.00671906
 30
0.0
 70
    32
  0
VERTEX
  5
4751
  8
PROFILE2
 62
     7
 10
8.2834400000000006
 20
-0.0424001
 30
0.0
 70
    32
  0
VERTEX
  5
4752
  8
PROFILE2
 62
     7
 10
8.2655499999999993
 20
-0.0921019
 30
0.0
 70
    32
  0
VERTEX
  5
4753
  8
PROFILE2
 62
     7
 10
8.2505600000000001
 20
-0.1423
 30
0.0
 70
    32
  0
VERTEX
  5
4754
  8
PROFILE2
 62
     7
 10
8.2384900000000005
 20
-0.192905
 30
0.0
 70
    32
  0
VERTEX
  5
4755
  8
PROFILE2
 62
     7
 10
8.2293599999999998
 20
-0.243831
 30
0.0
 70
    32
  0
VERTEX
  5
4756
  8
PROFILE2
 62
     7
 10
8.223180000000001
 20
-0.294987
 30
0.0
 70
    32
  0
VERTEX
  5
4757
  8
PROFILE2
 62
     7
 10
8.2199699999999982
 20
-0.346285
 30
0.0
 70
    32
  0
VERTEX
  5
4758
  8
PROFILE2
 62
     7
 10
8.2197399999999998
 20
-0.397635
 30
0.0
 70
    32
  0
VERTEX
  5
4759
  8
PROFILE2
 62
     7
 10
8.2224799999999991
 20
-0.4489470000000001
 30
0.0
 70
    32
  0
VERTEX
  5
475A
  8
PROFILE2
 62
     7
 10
8.22818
 20
-0.500132
 30
0.0
 70
    32
  0
VERTEX
  5
475B
  8
PROFILE2
 62
     7
 10
8.2368500000000004
 20
-0.5511000000000002
 30
0.0
 70
    32
  0
VERTEX
  5
475C
  8
PROFILE2
 62
     7
 10
8.2484600000000015
 20
-0.601762
 30
0.0
 70
    32
  0
VERTEX
  5
475D
  8
PROFILE2
 62
     7
 10
8.2629900000000003
 20
-0.65203
 30
0.0
 70
    32
  0
VERTEX
  5
475E
  8
PROFILE2
 62
     7
 10
8.2804199999999977
 20
-0.701816
 30
0.0
 70
    32
  0
VERTEX
  5
475F
  8
PROFILE2
 62
     7
 10
8.3007100000000005
 20
-0.751033
 30
0.0
 70
    32
  0
VERTEX
  5
4760
  8
PROFILE2
 62
     7
 10
8.3238400000000006
 20
-0.7995949999999999
 30
0.0
 70
    32
  0
VERTEX
  5
4761
  8
PROFILE2
 62
     7
 10
8.3497599999999998
 20
-0.847418
 30
0.0
 70
    32
  0
VERTEX
  5
4762
  8
PROFILE2
 62
     7
 10
8.3784200000000002
 20
-0.8944169999999999
 30
0.0
 70
    32
  0
VERTEX
  5
4763
  8
PROFILE2
 62
     7
 10
8.409779999999996
 20
-0.940511
 30
0.0
 70
    32
  0
VERTEX
  5
4764
  8
PROFILE2
 62
     7
 10
8.4437800000000003
 20
-0.9856189999999999
 30
0.0
 70
    32
  0
VERTEX
  5
4765
  8
PROFILE2
 62
     7
 10
8.4803700000000006
 20
-1.02966
 30
0.0
 70
    32
  0
VERTEX
  5
4766
  8
PROFILE2
 62
     7
 10
8.5194700000000001
 20
-1.0725599999999991
 30
0.0
 70
    32
  0
VERTEX
  5
4767
  8
PROFILE2
 62
     7
 10
8.5610199999999992
 20
-1.1142499999999991
 30
0.0
 70
    32
  0
VERTEX
  5
4768
  8
PROFILE2
 62
     7
 10
8.6049500000000005
 20
-1.1546499999999991
 30
0.0
 70
    32
  0
VERTEX
  5
4769
  8
PROFILE2
 62
     7
 10
8.6511800000000001
 20
-1.1936799999999981
 30
0.0
 70
    32
  0
VERTEX
  5
476A
  8
PROFILE2
 62
     7
 10
8.6996300000000009
 20
-1.2312899999999991
 30
0.0
 70
    32
  0
VERTEX
  5
476B
  8
PROFILE2
 62
     7
 10
8.7502099999999992
 20
-1.267409999999999
 30
0.0
 70
    32
  0
VERTEX
  5
476C
  8
PROFILE2
 62
     7
 10
8.8028399999999998
 20
-1.3019700000000001
 30
0.0
 70
    32
  0
VERTEX
  5
476D
  8
PROFILE2
 62
     7
 10
8.8574300000000008
 20
-1.33491
 30
0.0
 70
    32
  0
VERTEX
  5
476E
  8
PROFILE2
 62
     7
 10
8.9138699999999975
 20
-1.3661700000000001
 30
0.0
 70
    32
  0
VERTEX
  5
476F
  8
PROFILE2
 62
     7
 10
8.9720800000000001
 20
-1.39571
 30
0.0
 70
    32
  0
VERTEX
  5
4770
  8
PROFILE2
 62
     7
 10
9.0319399999999987
 20
-1.42347
 30
0.0
 70
    32
  0
VERTEX
  5
4771
  8
PROFILE2
 62
     7
 10
9.0933600000000006
 20
-1.449399999999998
 30
0.0
 70
    32
  0
VERTEX
  5
4772
  8
PROFILE2
 62
     7
 10
9.1562300000000008
 20
-1.473449999999997
 30
0.0
 70
    32
  0
VERTEX
  5
4773
  8
PROFILE2
 62
     7
 10
9.2204399999999982
 20
-1.4955899999999991
 30
0.0
 70
    32
  0
VERTEX
  5
4774
  8
PROFILE2
 62
     7
 10
9.2858699999999992
 20
-1.5157700000000001
 30
0.0
 70
    32
  0
VERTEX
  5
4775
  8
PROFILE2
 62
     7
 10
9.3524100000000008
 20
-1.5339599999999991
 30
0.0
 70
    32
  0
VERTEX
  5
4776
  8
PROFILE2
 62
     7
 10
9.41995
 20
-1.55013
 30
0.0
 70
    32
  0
VERTEX
  5
4777
  8
PROFILE2
 62
     7
 10
9.4883600000000001
 20
-1.564249999999999
 30
0.0
 70
    32
  0
VERTEX
  5
4778
  8
PROFILE2
 62
     7
 10
9.5575299999999999
 20
-1.57629
 30
0.0
 70
    32
  0
VERTEX
  5
4779
  8
PROFILE2
 62
     7
 10
9.6273400000000002
 20
-1.586239999999999
 30
0.0
 70
    32
  0
VERTEX
  5
477A
  8
PROFILE2
 62
     7
 10
9.6976600000000008
 20
-1.5940700000000001
 30
0.0
 70
    32
  0
VERTEX
  5
477B
  8
PROFILE2
 62
     7
 10
9.7683800000000005
 20
-1.5997799999999991
 30
0.0
 70
    32
  0
VERTEX
  5
477C
  8
PROFILE2
 62
     7
 10
9.8393599999999992
 20
-1.6033500000000001
 30
0.0
 70
    32
  0
VERTEX
  5
477D
  8
PROFILE2
 62
     7
 10
9.9104899999999994
 20
-1.60477
 30
0.0
 70
    32
  0
VERTEX
  5
477E
  8
PROFILE2
 62
     7
 10
9.9816399999999987
 20
-1.6040499999999991
 30
0.0
 70
    32
  0
VERTEX
  5
477F
  8
PROFILE2
 62
     7
 10
10.0527
 20
-1.601189999999999
 30
0.0
 70
    32
  0
VERTEX
  5
4780
  8
PROFILE2
 62
     7
 10
10.1235
 20
-1.5961899999999991
 30
0.0
 70
    32
  0
VERTEX
  5
4781
  8
PROFILE2
 62
     7
 10
10.194000000000001
 20
-1.5890500000000001
 30
0.0
 70
    32
  0
VERTEX
  5
4782
  8
PROFILE2
 62
     7
 10
10.263999999999999
 20
-1.5798000000000001
 30
0.0
 70
    32
  0
VERTEX
  5
4783
  8
PROFILE2
 62
     7
 10
10.333399999999999
 20
-1.5684400000000001
 30
0.0
 70
    32
  0
VERTEX
  5
4784
  8
PROFILE2
 62
     7
 10
10.401999999999999
 20
-1.55501
 30
0.0
 70
    32
  0
VERTEX
  5
4785
  8
PROFILE2
 62
     7
 10
10.469900000000001
 20
-1.539509999999999
 30
0.0
 70
    32
  0
VERTEX
  5
4786
  8
PROFILE2
 62
     7
 10
10.536799999999999
 20
-1.521979999999999
 30
0.0
 70
    32
  0
VERTEX
  5
4787
  8
PROFILE2
 62
     7
 10
10.602600000000001
 20
-1.5024500000000001
 30
0.0
 70
    32
  0
VERTEX
  5
4788
  8
PROFILE2
 62
     7
 10
10.667199999999999
 20
-1.4809600000000001
 30
0.0
 70
    32
  0
VERTEX
  5
4789
  8
PROFILE2
 62
     7
 10
10.730499999999999
 20
-1.45753
 30
0.0
 70
    32
  0
VERTEX
  5
478A
  8
PROFILE2
 62
     7
 10
10.792400000000001
 20
-1.4322099999999991
 30
0.0
 70
    32
  0
VERTEX
  5
478B
  8
PROFILE2
 62
     7
 10
10.8528
 20
-1.405049999999999
 30
0.0
 70
    32
  0
VERTEX
  5
478C
  8
PROFILE2
 62
     7
 10
10.9116
 20
-1.3761000000000001
 30
0.0
 70
    32
  0
VERTEX
  5
478D
  8
PROFILE2
 62
     7
 10
10.9686
 20
-1.345389999999999
 30
0.0
 70
    32
  0
VERTEX
  5
478E
  8
PROFILE2
 62
     7
 10
11.0238
 20
-1.3129999999999991
 30
0.0
 70
    32
  0
VERTEX
  5
478F
  8
PROFILE2
 62
     7
 10
11.0771
 20
-1.2789699999999991
 30
0.0
 70
    32
  0
VERTEX
  5
4790
  8
PROFILE2
 62
     7
 10
11.128399999999999
 20
-1.24336
 30
0.0
 70
    32
  0
VERTEX
  5
4791
  8
PROFILE2
 62
     7
 10
11.1775
 20
-1.206229999999999
 30
0.0
 70
    32
  0
VERTEX
  5
4792
  8
PROFILE2
 62
     7
 10
11.224500000000001
 20
-1.167659999999999
 30
0.0
 70
    32
  0
VERTEX
  5
4793
  8
PROFILE2
 62
     7
 10
11.2692
 20
-1.127699999999999
 30
0.0
 70
    32
  0
VERTEX
  5
4794
  8
PROFILE2
 62
     7
 10
11.311500000000001
 20
-1.08643
 30
0.0
 70
    32
  0
VERTEX
  5
4795
  8
PROFILE2
 62
     7
 10
11.3515
 20
-1.04393
 30
0.0
 70
    32
  0
VERTEX
  5
4796
  8
PROFILE2
 62
     7
 10
11.3889
 20
-1.0002500000000001
 30
0.0
 70
    32
  0
VERTEX
  5
4797
  8
PROFILE2
 62
     7
 10
11.4237
 20
-0.9554829999999999
 30
0.0
 70
    32
  0
SEQEND
  5
4798
  8
PROFILE2
 62
     7
  0
ARC
  5
4799
  8
PROFILE2
 62
     7
 10
-2.1403677754630031
 20
-1.196455088552681
 30
0.0
 40
0.0068109527397751
 50
350.26092029199918
 51
146.67665379495361
  0
ARC
  5
479A
  8
PROFILE2
 62
     7
 10
-2.9492681662455311
 20
-1.1746073616636741
 30
0.0
 40
0.6810952739775102
 50
270.0
 51
326.67665379495639
  0
LINE
  5
479B
  8
PROFILE2
 62
     7
 10
-2.380156137068921
 20
-1.54877613438657
 30
0.0
 11
-2.146058895754777
 21
-1.1927134008254821
 31
0.0
  0
ARC
  5
479C
  8
PROFILE2
 62
     7
 10
-11.24355374316465
 20
-1.4807318213927361
 30
0.0
 40
0.3405476369887551
 50
202.69327756524669
 51
234.01604894801119
  0
ARC
  5
479D
  8
PROFILE2
 62
     7
 10
-11.27565334316105
 20
-1.4039699609467671
 30
0.0
 40
0.3405476369887551
 50
180.0
 51
202.69327756524669
  0
ARC
  5
479E
  8
PROFILE2
 62
     7
 10
-10.765022343587949
 20
-1.828200480957946
 30
0.0
 40
0.3405476369887551
 50
234.01604894801119
 51
253.91780767322521
  0
ARC
  5
479F
  8
PROFILE2
 62
     7
 10
-10.30445639214207
 20
-1.9644900412787361
 30
0.0
 40
0.3371758782066883
 50
253.91780767322521
 51
261.60641905681518
  0
LINE
  5
47A0
  8
PROFILE2
 62
     7
 10
-11.443645442091761
 20
-1.7562967050028531
 30
0.0
 11
-10.96511404251507
 21
-2.103765364568118
 31
0.0
  0
LINE
  5
47A1
  8
PROFILE2
 62
     7
 10
-10.859359497100231
 20
-2.155420887604349
 30
0.0
 11
-10.39785951443147
 21
-2.2884706419187042
 31
0.0
  0
LINE
  5
47A2
  8
PROFILE2
 62
     7
 10
-11.55773732665442
 20
-1.612114350384044
 30
0.0
 11
-11.589836926650859
 21
-1.53535248993802
 31
0.0
  0
ARC
  5
47A3
  8
PROFILE2
 62
     7
 10
-7.6950327867185688
 20
-1.822827126423135
 30
0.0
 40
0.3405476369887551
 50
284.46884214097128
 51
305.13530884227828
  0
ARC
  5
47A4
  8
PROFILE2
 62
     7
 10
4.8809481673759452
 20
-1.778682099764751
 30
0.0
 40
0.3405476369887551
 50
310.29155520422239
 51
29.661658655046601
  0
ARC
  5
47A5
  8
PROFILE2
 62
     7
 10
6.954751858202882
 20
-1.601378148430284
 30
0.0
 40
0.3405476369887551
 50
211.32869286670501
 51
241.0759065697373
  0
ARC
  5
47A6
  8
PROFILE2
 62
     7
 10
4.9709701409328204
 20
-2.1756141273365861
 30
0.0
 40
0.0204328582193253
 50
130.29155520421861
 51
180.0
  0
ARC
  5
47A7
  8
PROFILE2
 62
     7
 10
7.2522649145449769
 20
-2.1782034595747151
 30
0.0
 40
0.0204328582193253
 50
0.0
 51
61.07590656974196
  0
ARC
  5
47A8
  8
PROFILE2
 62
     7
 10
7.2590758672847651
 20
-2.214507409835162
 30
0.0
 40
0.0136219054795502
 50
270.0
 51
0.0
  0
LINE
  5
47A9
  8
PROFILE2
 62
     7
 10
7.2726977727643023
 20
-2.214507409835162
 30
0.0
 11
7.2726977727643023
 21
-2.1782034595747151
 31
0.0
  0
ARC
  5
47AA
  8
PROFILE2
 62
     7
 10
4.964159188193034
 20
-2.214507409835162
 30
0.0
 40
0.0136219054795502
 50
180.0
 51
270.0
  0
LINE
  5
47AB
  8
PROFILE2
 62
     7
 10
4.9577566740571211
 20
-2.160028685792156
 30
0.0
 11
5.101172615303966
 21
-2.038439458839377
 31
0.0
  0
LINE
  5
47AC
  8
PROFILE2
 62
     7
 10
6.790045829487636
 20
-1.899446290242619
 30
0.0
 11
7.262147276267882
 21
-2.1603193710659521
 31
0.0
  0
LINE
  5
47AD
  8
PROFILE2
 62
     7
 10
4.950537282713495
 20
-2.214507409835162
 30
0.0
 11
4.950537282713495
 21
-2.1756141273365861
 31
0.0
  0
ARC
  5
47AE
  8
PROFILE2
 62
     7
 10
1.3215843303988191
 20
-2.214507409835162
 30
0.0
 40
0.0136219054795502
 50
180.0
 51
270.0
  0
ARC
  5
47AF
  8
PROFILE2
 62
     7
 10
2.626166915955138
 20
-2.214507409835162
 30
0.0
 40
0.0136219054795502
 50
270.0
 51
0.0
  0
ARC
  5
47B0
  8
PROFILE2
 62
     7
 10
1.328395283138575
 20
-2.1774659051994241
 30
0.0
 40
0.0204328582193253
 50
122.04103222436591
 51
180.0
  0
ARC
  5
47B1
  8
PROFILE2
 62
     7
 10
2.6193559632153551
 20
-2.176036191306252
 30
0.0
 40
0.0204328582193253
 50
0.0
 51
51.641872069399952
  0
ARC
  5
47B2
  8
PROFILE2
 62
     7
 10
1.553166263000147
 20
-1.6109384060742391
 30
0.0
 40
0.3405476369887551
 50
302.04103222436589
 51
329.36004397390877
  0
ARC
  5
47B3
  8
PROFILE2
 62
     7
 10
2.692138681690861
 20
-1.773288628769589
 30
0.0
 40
0.3405476369887551
 50
149.3600439739086
 51
231.64187206939991
  0
LINE
  5
47B4
  8
PROFILE2
 62
     7
 10
2.4808033703521342
 20
-2.040328100084138
 30
0.0
 11
2.6320360818956741
 21
-2.1600138230273842
 31
0.0
  0
LINE
  5
47B5
  8
PROFILE2
 62
     7
 10
1.3175551112867641
 20
-2.1601456174064402
 30
0.0
 11
1.733835793863701
 21
-1.899609869291792
 31
0.0
  0
LINE
  5
47B6
  8
PROFILE2
 62
     7
 10
1.3079624249192521
 20
-2.214507409835162
 30
0.0
 11
1.3079624249192521
 21
-2.1774659051994241
 31
0.0
  0
LINE
  5
47B7
  8
PROFILE2
 62
     7
 10
2.6397888214347041
 20
-2.214507409835162
 30
0.0
 11
2.6397888214347041
 21
-2.176036191306252
 31
0.0
  0
ARC
  5
47B8
  8
PROFILE2
 62
     7
 10
1.259510768294603
 20
0.7168622752105877
 30
0.0
 40
0.3405476369887551
 50
329.91296235742431
 51
54.321240687920351
  0
ARC
  5
47B9
  8
PROFILE2
 62
     7
 10
2.412874916005419
 20
0.5607552182996188
 30
0.0
 40
0.3405476369887551
 50
118.8516001623702
 51
149.91296235742431
  0
ARC
  5
47BA
  8
PROFILE2
 62
     7
 10
1.353430771736043
 20
1.1125009825792631
 30
0.0
 40
0.0136219054795502
 50
90.0
 51
180.0
  0
ARC
  5
47BB
  8
PROFILE2
 62
     7
 10
2.633188074957983
 20
1.1125009825792631
 30
0.0
 40
0.0136219054795502
 50
0.0
 51
90.0
  0
ARC
  5
47BC
  8
PROFILE2
 62
     7
 10
1.360241724475854
 20
1.0889295342836931
 30
0.0
 40
0.0204328582193253
 50
180.0
 51
234.32124068792029
  0
ARC
  5
47BD
  8
PROFILE2
 62
     7
 10
2.6263771222181722
 20
1.090517759579029
 30
0.0
 40
0.0204328582193253
 50
298.85160016236841
 51
0.0
  0
LINE
  5
47BE
  8
PROFILE2
 62
     7
 10
1.348324461883748
 20
1.0723319276091261
 30
0.0
 11
1.458131811496
 21
0.99348905311939
 31
0.0
  0
LINE
  5
47BF
  8
PROFILE2
 62
     7
 10
2.2485461486110121
 20
0.8590315151541859
 30
0.0
 11
2.636236848261857
 21
1.072621181767714
 31
0.0
  0
LINE
  5
47C0
  8
PROFILE2
 62
     7
 10
1.339808866256504
 20
1.0889295342836931
 30
0.0
 11
1.339808866256504
 21
1.1125009825792631
 31
0.0
  0
LINE
  5
47C1
  8
PROFILE2
 62
     7
 10
2.646809980437522
 20
1.090517759579029
 30
0.0
 11
2.646809980437522
 21
1.1125009825792631
 31
0.0
  0
ARC
  5
47C2
  8
PROFILE2
 62
     7
 10
-1.0194151351867611
 20
1.092499329307371
 30
0.0
 40
0.0204328582193253
 50
300.6225974401321
 51
0.0
  0
ARC
  5
47C3
  8
PROFILE2
 62
     7
 10
-1.012604182447006
 20
1.1125009825792631
 30
0.0
 40
0.0136219054795502
 50
0.0
 51
90.0
  0
ARC
  5
47C4
  8
PROFILE2
 62
     7
 10
-3.2207931765187521
 20
1.1125009825792631
 30
0.0
 40
0.0136219054795502
 50
90.0
 51
180.0
  0
ARC
  5
47C5
  8
PROFILE2
 62
     7
 10
-3.2139822237789391
 20
1.091074424320253
 30
0.0
 40
0.0204328582193253
 50
180.0
 51
243.43496312249971
  0
ARC
  5
47C6
  8
PROFILE2
 62
     7
 10
-0.9840794087885456
 20
0.6939348502861549
 30
0.0
 40
0.3405476369887551
 50
120.6225974401311
 51
210.67454069278179
  0
ARC
  5
47C7
  8
PROFILE2
 62
     7
 10
-2.9460813668743242
 20
0.5535356668888201
 30
0.0
 40
0.3405476369887551
 50
30.674540692781829
 51
63.434963122499688
  0
LINE
  5
47C8
  8
PROFILE2
 62
     7
 10
-1.157547854460629
 20
0.9869901205249219
 30
0.0
 11
-1.0090070284464321
 21
1.074916013093002
 31
0.0
  0
LINE
  5
47C9
  8
PROFILE2
 62
     7
 10
-3.223120071208426
 20
1.072798718058493
 30
0.0
 11
-2.793783909716808
 21
0.8581307712519786
 31
0.0
  0
LINE
  5
47CA
  8
PROFILE2
 62
     7
 10
-0.998982276967439
 20
1.092499329307371
 30
0.0
 11
-0.998982276967439
 21
1.1125009825792631
 31
0.0
  0
LINE
  5
47CB
  8
PROFILE2
 62
     7
 10
-3.2344150819983191
 20
1.091074424320253
 30
0.0
 11
-3.2344150819983191
 21
1.1125009825792631
 31
0.0
  0
LINE
  5
47CC
  8
PROFILE2
 62
     7
 10
-10.311134772537461
 20
-1.60840911593084
 30
0.0
 11
-10.331771513678859
 21
-1.5816942022432841
 31
0.0
  0
ARC
  5
47CD
  8
PROFILE2
 62
     7
 10
-10.062269059352611
 20
-1.3735088997584051
 30
0.0
 40
0.3405476369887551
 50
180.0
 51
217.68537476613011
  0
ARC
  5
47CE
  8
PROFILE2
 62
     7
 10
-10.04163231821118
 20
-1.4002238134459031
 30
0.0
 40
0.3405476369887551
 50
217.68537476613011
 51
257.63564456808427
  0
LINE
  5
47CF
  8
PROFILE2
 62
     7
 10
-9.6950146998046023
 20
-1.824840575289838
 30
0.0
 11
-10.11455299470677
 21
-1.7328726793662059
 31
0.0
  0
ARC
  5
47D0
  8
PROFILE2
 62
     7
 10
-8.8018218194137336
 20
4.5581581561369831
 30
0.0
 40
6.445189393458481
 50
262.03414830020449
 51
264.34846569526178
  0
ARC
  5
47D1
  8
PROFILE2
 62
     7
 10
-8.1017556958752834
 20
-1.4002238134459031
 30
0.0
 40
0.3405476369887551
 50
282.36435543191573
 51
322.31462523386972
  0
ARC
  5
47D2
  8
PROFILE2
 62
     7
 10
-8.0811189547338511
 20
-1.3735088997584051
 30
0.0
 40
0.3405476369887551
 50
322.31462523386972
 51
0.0
  0
LINE
  5
47D3
  8
PROFILE2
 62
     7
 10
-8.4483733142818966
 20
-1.824840575289838
 30
0.0
 11
-8.0288350193797271
 21
-1.7328726793662059
 31
0.0
  0
LINE
  5
47D4
  8
PROFILE2
 62
     7
 10
-7.8322532415490089
 20
-1.60840911593084
 30
0.0
 11
-7.8116165004076059
 21
-1.5816942022432841
 31
0.0
  0
ARC
  5
47D5
  8
PROFILE2
 62
     7
 10
-10.02422567478402
 20
1.1125009825792631
 30
0.0
 40
0.0136219054795502
 50
0.0
 51
90.0
  0
ARC
  5
47D6
  8
PROFILE2
 62
     7
 10
-10.0310366275238
 20
1.088373646914419
 30
0.0
 40
0.0204328582193253
 50
303.95825709575922
 51
0.0
  0
ARC
  5
47D7
  8
PROFILE2
 62
     7
 10
-11.956748617138571
 20
0.6321025661154068
 30
0.0
 40
0.3405476369887551
 50
0.0
 51
56.049669496754568
  0
ARC
  5
47D8
  8
PROFILE2
 62
     7
 10
-10.062269059352611
 20
0.6321327952852016
 30
0.0
 40
0.3405476369887551
 50
123.9582570957573
 51
180.0
  0
LINE
  5
47D9
  8
PROFILE2
 62
     7
 10
-10.252495141233389
 20
0.9145982459705804
 30
0.0
 11
-10.01962306261094
 21
1.071425719873329
 31
0.0
  0
LINE
  5
47DA
  8
PROFILE2
 62
     7
 10
-10.010603769304479
 20
1.088373646914419
 30
0.0
 11
-10.010603769304479
 21
1.1125009825792631
 31
0.0
  0
ARC
  5
47DB
  8
PROFILE2
 62
     7
 10
-8.0811189547338511
 20
0.6405933058605342
 30
0.0
 40
0.3405476369887551
 50
0.0
 51
53.800363587001598
  0
ARC
  5
47DC
  8
PROFILE2
 62
     7
 10
-8.0831964355965056
 20
1.112235887269946
 30
0.0
 40
0.0136219054795502
 50
90.0
 51
180.0
  0
ARC
  5
47DD
  8
PROFILE2
 62
     7
 10
-8.0627635773772113
 20
1.09137137990467
 30
0.0
 40
0.0340547636988755
 50
180.0
 51
233.80036358700281
  0
LINE
  5
47DE
  8
PROFILE2
 62
     7
 10
-8.0828763394391672
 20
1.0638904095283681
 30
0.0
 11
-7.8799913341144352
 21
0.9154030096240715
 31
0.0
  0
ARC
  5
47DF
  8
PROFILE2
 62
     7
 10
-6.8083402632104804
 20
1.094297169390017
 30
0.0
 40
0.0340547636988755
 50
303.5113754732198
 51
0.0
  0
ARC
  5
47E0
  8
PROFILE2
 62
     7
 10
-6.7879074049911603
 20
1.112235887269946
 30
0.0
 40
0.0136219054795502
 50
0.0
 51
90.0
  0
LINE
  5
47E1
  8
PROFILE2
 62
     7
 10
-7.0782807679806572
 20
0.8747063547630773
 30
0.0
 11
-6.7895385418886161
 21
1.0659031170916931
 31
0.0
  0
ARC
  5
47E2
  8
PROFILE2
 62
     7
 10
-6.9538333851207312
 20
0.7126476666268787
 30
0.0
 40
0.2043285821932532
 50
127.521218151779
 51
180.0
  0
LINE
  5
47E3
  8
PROFILE2
 62
     7
 10
-8.096818341076073
 20
1.09137137990467
 30
0.0
 11
-8.096818341076073
 21
1.112235887269946
 31
0.0
  0
LINE
  5
47E4
  8
PROFILE2
 62
     7
 10
-6.7742854995115911
 20
1.094297169390017
 30
0.0
 11
-6.7742854995115911
 21
1.112235887269946
 31
0.0
  0
LINE
  5
47E5
  8
PROFILE2
 62
     7
 10
-7.375000908113007
 20
-2.0140318461297362
 30
0.0
 11
-7.4990444435958352
 21
-2.1013253533809002
 31
0.0
  0
ARC
  5
47E6
  8
PROFILE2
 62
     7
 10
-7.6689834227971101
 20
-1.596284505693063
 30
0.0
 40
0.510821455483133
 50
305.13530884227828
 51
0.0
  0
LINE
  5
47E7
  8
PROFILE2
 62
     7
 10
-7.1581619673139549
 20
-1.596284505693063
 30
0.0
 11
-7.1581619673139549
 21
0.7126476666268787
 31
0.0
  0
ARC
  5
47E8
  8
PROFILE2
 62
     7
 10
-4.2807479736654273
 20
-1.2767716527602591
 30
0.0
 40
0.5789309828808841
 50
180.0
 51
270.0
  0
ARC
  5
47E9
  8
PROFILE2
 62
     7
 10
-6.446096576697923
 20
-2.201502769391253
 30
0.0
 40
0.0681095273977511
 50
125.1353088422763
 51
180.0
  0
ARC
  5
47EA
  8
PROFILE2
 62
     7
 10
-6.5838846958378952
 20
-1.5905519748886821
 30
0.0
 40
0.510821455483133
 50
305.13530884227828
 51
0.0
  0
ARC
  5
47EB
  8
PROFILE2
 62
     7
 10
-6.5005841986161661
 20
-2.214507409835162
 30
0.0
 40
0.0136219054795502
 50
180.0
 51
270.0
  0
LINE
  5
47EC
  8
PROFILE2
 62
     7
 10
-6.514206104095674
 20
-2.201502769391253
 30
0.0
 11
-6.514206104095674
 21
-2.214507409835162
 31
0.0
  0
LINE
  5
47ED
  8
PROFILE2
 62
     7
 10
-6.2899021811537921
 20
-2.0082993153253592
 30
0.0
 11
-6.4852942453224749
 21
-2.1458031239997122
 31
0.0
  0
LINE
  5
47EE
  8
PROFILE2
 62
     7
 10
-9.4365312499727434
 20
-1.855702635641137
 30
0.0
 11
-8.7068567623502435
 21
-1.855702635641137
 31
0.0
  0
ARC
  5
47EF
  8
PROFILE2
 62
     7
 10
-6.277391822548025
 20
0.7073969308183905
 30
0.0
 40
0.2043285821932532
 50
0.0
 51
54.823661867209331
  0
ARC
  5
47F0
  8
PROFILE2
 62
     7
 10
-4.6553503743530484
 20
0.7078159462943745
 30
0.0
 40
0.2043285821932532
 50
125.3616783504017
 51
180.0
  0
LINE
  5
47F1
  8
PROFILE2
 62
     7
 10
-4.4896286336492892
 20
1.075973090509136
 30
0.0
 11
-4.773602650780786
 21
0.8744489820969079
 31
0.0
  0
LINE
  5
47F2
  8
PROFILE2
 62
     7
 10
-6.4457042347030411
 20
1.076003241197611
 30
0.0
 11
-6.1596791879203181
 21
0.8744116162508246
 31
0.0
  0
ARC
  5
47F3
  8
PROFILE2
 62
     7
 10
-6.434462595347326
 20
1.108149041470426
 30
0.0
 40
0.0340547636988755
 50
180.0
 51
250.724866313083
  0
ARC
  5
47F4
  8
PROFILE2
 62
     7
 10
-6.454895453566647
 20
1.1125009825792631
 30
0.0
 40
0.0136219054795502
 50
90.0
 51
180.0
  0
ARC
  5
47F5
  8
PROFILE2
 62
     7
 10
-4.4805051311431292
 20
1.1125009825792631
 30
0.0
 40
0.0136219054795502
 50
0.0
 51
90.0
  0
ARC
  5
47F6
  8
PROFILE2
 62
     7
 10
-4.5009379893624271
 20
1.108095129733609
 30
0.0
 40
0.0340547636988755
 50
289.39587401606627
 51
0.0
  0
LINE
  5
47F7
  8
PROFILE2
 62
     7
 10
-6.4685173590461602
 20
1.108149041470426
 30
0.0
 11
-6.4685173590461602
 21
1.1125009825792631
 31
0.0
  0
LINE
  5
47F8
  8
PROFILE2
 62
     7
 10
-4.4668832256635644
 20
1.108095129733609
 30
0.0
 11
-4.4668832256635644
 21
1.1125009825792631
 31
0.0
  0
LINE
  5
47F9
  8
PROFILE2
 62
     7
 10
-8.0831964355965056
 20
1.125857792749513
 30
0.0
 11
-6.7879074049911603
 21
1.125857792749513
 31
0.0
  0
ARC
  5
47FA
  8
PROFILE2
 62
     7
 10
-9.3415661946727369
 20
4.5581581561369831
 30
0.0
 40
6.9305434973636171
 50
261.60641905681609
 51
284.46884214097128
  0
ARC
  5
47FB
  8
PROFILE2
 62
     7
 10
-9.3415661946727369
 20
4.5581581561369831
 30
0.0
 40
6.445189393458481
 50
275.65153430473822
 51
277.96585169979551
  0
LINE
  5
47FC
  8
PROFILE2
 62
     7
 10
-6.5005841986161661
 20
-2.228129315314729
 30
0.0
 11
-2.310528853413869
 21
-2.228129315314729
 31
0.0
  0
LINE
  5
47FD
  8
PROFILE2
 62
     7
 10
-2.310528853259028
 20
-2.228129314412568
 30
0.0
 11
-2.1336549800059541
 21
-1.19760724061524
 31
0.0
  0
LINE
  5
47FE
  8
PROFILE2
 62
     7
 10
-4.2807479736654273
 20
-1.855702635641137
 30
0.0
 11
-2.9492681662455311
 21
-1.855702635641137
 31
0.0
  0
LINE
  5
47FF
  8
PROFILE2
 62
     7
 10
-7.7405713177451201
 20
-1.3735088997584051
 30
0.0
 11
-7.7405713177451201
 21
0.6405933058605342
 31
0.0
  0
LINE
  5
4800
  8
PROFILE2
 62
     7
 10
-6.0730632403547684
 20
-1.5905519748886821
 30
0.0
 11
-6.0730632403547684
 21
0.7073969308183905
 31
0.0
  0
LINE
  5
4801
  8
PROFILE2
 62
     7
 10
-4.8596789565463041
 20
-1.2767716527602591
 30
0.0
 11
-4.8596789565463041
 21
0.7078159462943745
 31
0.0
  0
LINE
  5
4802
  8
PROFILE2
 62
     7
 10
-0.9001716804828275
 20
-2.228129315314729
 30
0.0
 11
0.4034817692288473
 21
-2.228129315314729
 31
0.0
  0
LINE
  5
4803
  8
PROFILE2
 62
     7
 10
-0.9001716810179232
 20
-2.228129314412568
 30
0.0
 11
-2.653183480202697
 21
0.7272697195149931
 31
0.0
  0
LINE
  5
4804
  8
PROFILE2
 62
     7
 10
0.1476300517142022
 20
-1.881541837228891
 30
0.0
 11
-1.276977295460199
 21
0.5202007976599817
 31
0.0
  0
LINE
  5
4805
  8
PROFILE2
 62
     7
 10
0.1476300517142022
 20
-1.881541837228891
 30
0.0
 11
1.5541746710964901
 21
0.5461406379053531
 31
0.0
  0
LINE
  5
4806
  8
PROFILE2
 62
     7
 10
0.4034817673994838
 20
-2.2281293184722122
 30
0.0
 11
2.118211013203505
 21
0.7314768556048537
 31
0.0
  0
LINE
  5
4807
  8
PROFILE2
 62
     7
 10
4.7410201877879103
 20
-0.8448347184844918
 30
0.0
 11
3.8122767799590882
 21
0.7859605611031955
 31
0.0
  0
LINE
  5
4808
  8
PROFILE2
 62
     7
 10
2.846291489931303
 20
-0.8448347184844918
 30
0.0
 11
3.812276780065643
 21
0.7859605612831047
 31
0.0
  0
LINE
  5
4809
  8
PROFILE2
 62
     7
 10
1.353430771736043
 20
1.1261228880588301
 30
0.0
 11
2.633188074957983
 21
1.1261228880588301
 31
0.0
  0
LINE
  5
480A
  8
PROFILE2
 62
     7
 10
-3.2207931765187521
 20
1.1261228880588301
 30
0.0
 11
-1.012604182447006
 21
1.1261228880588301
 31
0.0
  0
LINE
  5
480B
  8
PROFILE2
 62
     7
 10
3.5702447626749461
 20
1.1261228880588301
 30
0.0
 11
4.8958588034892578
 21
1.1261228880588301
 31
0.0
  0
LINE
  5
480C
  8
PROFILE2
 62
     7
 10
4.964159188193034
 20
-2.228129315314729
 30
0.0
 11
7.2590758672847651
 21
-2.228129315314729
 31
0.0
  0
LINE
  5
480D
  8
PROFILE2
 62
     7
 10
1.3215843303988191
 20
-2.228129315314729
 30
0.0
 11
2.626166915955138
 21
-2.228129315314729
 31
0.0
  0
LINE
  5
480E
  8
PROFILE2
 62
     7
 10
2.3991359796778511
 20
-1.59973140572282
 30
0.0
 11
2.6237800828883442
 21
-1.220482832390644
 31
0.0
  0
LINE
  5
480F
  8
PROFILE2
 62
     7
 10
5.176871420168168
 20
-1.610152809979521
 30
0.0
 11
4.9549530546661309
 21
-1.220482832390644
 31
0.0
  0
LINE
  5
4810
  8
PROFILE2
 62
     7
 10
1.846168965013163
 20
-1.7844956291209531
 30
0.0
 11
3.570244764650595
 21
1.126122891394115
 31
0.0
  0
LINE
  5
4811
  8
PROFILE2
 62
     7
 10
6.663856558565751
 20
-1.7784448525495691
 30
0.0
 11
4.8958588014590703
 21
1.126122891394115
 31
0.0
  0
LINE
  5
4812
  8
PROFILE2
 62
     7
 10
-10.40281669634137
 20
-1.3735088997584051
 30
0.0
 11
-10.40281669634137
 21
0.6321327952852016
 31
0.0
  0
LINE
  5
4813
  8
PROFILE2
 62
     7
 10
-11.61620098014984
 20
-1.4039699609467671
 30
0.0
 11
-11.61620098014984
 21
0.6321025661154068
 31
0.0
  0
LINE
  5
4814
  8
PROFILE2
 62
     7
 10
2.846291489931303
 20
-0.8448347184844918
 30
0.0
 11
4.7410201883712331
 21
-0.8448347184844918
 31
0.0
  0
LINE
  5
4815
  8
PROFILE2
 62
     7
 10
2.6237800828883442
 20
-1.220482832390644
 30
0.0
 11
4.9549530553356611
 21
-1.220482832390644
 31
0.0
  0
LINE
  5
4816
  8
PROFILE2
 62
     7
 10
-6.454895453566647
 20
1.1261228880588301
 30
0.0
 11
-4.4805051311431292
 21
1.1261228880588301
 31
0.0
  0
LINE
  5
4817
  8
PROFILE2
 62
     7
 10
-12.008413907186711
 20
1.088373646914419
 30
0.0
 11
-12.008413907186711
 21
1.1125009825792631
 31
0.0
  0
ARC
  5
4818
  8
PROFILE2
 62
     7
 10
-11.994792001707181
 20
1.1125009825792631
 30
0.0
 40
0.0136219054795502
 50
90.0
 51
180.0
  0
ARC
  5
4819
  8
PROFILE2
 62
     7
 10
-11.987981048967409
 20
1.088373646914419
 30
0.0
 40
0.0204328582193253
 50
180.0
 51
236.04174290424061
  0
POLYLINE
  5
481A
  8
PROFILE2
 62
     7
 66
     1
 10
0.0
 20
0.0
 30
0.0
 70
     8
  0
VERTEX
  5
481B
  8
PROFILE2
 62
     7
 10
11.3147
 20
0.9395189999999999
 30
0.0
 70
    32
  0
VERTEX
  5
481C
  8
PROFILE2
 62
     7
 10
11.246499999999999
 20
0.993491
 30
0.0
 70
    32
  0
VERTEX
  5
481D
  8
PROFILE2
 62
     7
 10
11.175599999999999
 20
1.045199999999999
 30
0.0
 70
    32
  0
VERTEX
  5
481E
  8
PROFILE2
 62
     7
 10
11.1021
 20
1.09457
 30
0.0
 70
    32
  0
VERTEX
  5
481F
  8
PROFILE2
 62
     7
 10
11.026199999999999
 20
1.14151
 30
0.0
 70
    32
  0
VERTEX
  5
4820
  8
PROFILE2
 62
     7
 10
10.948
 20
1.1859399999999991
 30
0.0
 70
    32
  0
VERTEX
  5
4821
  8
PROFILE2
 62
     7
 10
10.867599999999999
 20
1.227789999999999
 30
0.0
 70
    32
  0
VERTEX
  5
4822
  8
PROFILE2
 62
     7
 10
10.7851
 20
1.266999999999999
 30
0.0
 70
    32
  0
VERTEX
  5
4823
  8
PROFILE2
 62
     7
 10
10.700699999999999
 20
1.30349
 30
0.0
 70
    32
  0
VERTEX
  5
4824
  8
PROFILE2
 62
     7
 10
10.6145
 20
1.3372200000000001
 30
0.0
 70
    32
  0
VERTEX
  5
4825
  8
PROFILE2
 62
     7
 10
10.5267
 20
1.368109999999999
 30
0.0
 70
    32
  0
VERTEX
  5
4826
  8
PROFILE2
 62
     7
 10
10.4373
 20
1.39612
 30
0.0
 70
    32
  0
VERTEX
  5
4827
  8
PROFILE2
 62
     7
 10
10.3466
 20
1.4212100000000001
 30
0.0
 70
    32
  0
VERTEX
  5
4828
  8
PROFILE2
 62
     7
 10
10.254799999999999
 20
1.4433400000000001
 30
0.0
 70
    32
  0
VERTEX
  5
4829
  8
PROFILE2
 62
     7
 10
10.161799999999999
 20
1.4624600000000001
 30
0.0
 70
    32
  0
VERTEX
  5
482A
  8
PROFILE2
 62
     7
 10
10.068
 20
1.4785399999999991
 30
0.0
 70
    32
  0
VERTEX
  5
482B
  8
PROFILE2
 62
     7
 10
9.9734599999999993
 20
1.4915599999999991
 30
0.0
 70
    32
  0
VERTEX
  5
482C
  8
PROFILE2
 62
     7
 10
9.8783100000000008
 20
1.5015099999999979
 30
0.0
 70
    32
  0
VERTEX
  5
482D
  8
PROFILE2
 62
     7
 10
9.7827399999999987
 20
1.5083500000000001
 30
0.0
 70
    32
  0
VERTEX
  5
482E
  8
PROFILE2
 62
     7
 10
9.6869099999999992
 20
1.512079999999999
 30
0.0
 70
    32
  0
VERTEX
  5
482F
  8
PROFILE2
 62
     7
 10
9.5909600000000008
 20
1.512689999999999
 30
0.0
 70
    32
  0
VERTEX
  5
4830
  8
PROFILE2
 62
     7
 10
9.4950600000000005
 20
1.510189999999997
 30
0.0
 70
    32
  0
VERTEX
  5
4831
  8
PROFILE2
 62
     7
 10
9.3993599999999997
 20
1.50457
 30
0.0
 70
    32
  0
VERTEX
  5
4832
  8
PROFILE2
 62
     7
 10
9.3040299999999991
 20
1.495849999999999
 30
0.0
 70
    32
  0
VERTEX
  5
4833
  8
PROFILE2
 62
     7
 10
9.2092200000000002
 20
1.48404
 30
0.0
 70
    32
  0
VERTEX
  5
4834
  8
PROFILE2
 62
     7
 10
9.1150899999999986
 20
1.4691499999999991
 30
0.0
 70
    32
  0
VERTEX
  5
4835
  8
PROFILE2
 62
     7
 10
9.0218000000000007
 20
1.45122
 30
0.0
 70
    32
  0
VERTEX
  5
4836
  8
PROFILE2
 62
     7
 10
8.9294899999999942
 20
1.4302799999999991
 30
0.0
 70
    32
  0
VERTEX
  5
4837
  8
PROFILE2
 62
     7
 10
8.8383199999999942
 20
1.4063499999999991
 30
0.0
 70
    32
  0
VERTEX
  5
4838
  8
PROFILE2
 62
     7
 10
8.7484399999999987
 20
1.379489999999999
 30
0.0
 70
    32
  0
VERTEX
  5
4839
  8
PROFILE2
 62
     7
 10
8.6600000000000001
 20
1.34972
 30
0.0
 70
    32
  0
VERTEX
  5
483A
  8
PROFILE2
 62
     7
 10
8.57315
 20
1.317099999999999
 30
0.0
 70
    32
  0
VERTEX
  5
483B
  8
PROFILE2
 62
     7
 10
8.4880200000000006
 20
1.28169
 30
0.0
 70
    32
  0
VERTEX
  5
483C
  8
PROFILE2
 62
     7
 10
8.4047600000000013
 20
1.243549999999999
 30
0.0
 70
    32
  0
VERTEX
  5
483D
  8
PROFILE2
 62
     7
 10
8.3235100000000006
 20
1.2027299999999981
 30
0.0
 70
    32
  0
VERTEX
  5
483E
  8
PROFILE2
 62
     7
 10
8.2444000000000006
 20
1.1592999999999991
 30
0.0
 70
    32
  0
VERTEX
  5
483F
  8
PROFILE2
 62
     7
 10
8.1675599999999982
 20
1.1133399999999991
 30
0.0
 70
    32
  0
VERTEX
  5
4840
  8
PROFILE2
 62
     7
 10
8.0931100000000011
 20
1.0649200000000001
 30
0.0
 70
    32
  0
VERTEX
  5
4841
  8
PROFILE2
 62
     7
 10
8.0211899999999972
 20
1.014119999999999
 30
0.0
 70
    32
  0
VERTEX
  5
4842
  8
PROFILE2
 62
     7
 10
7.9519099999999989
 20
0.961031
 30
0.0
 70
    32
  0
VERTEX
  5
4843
  8
PROFILE2
 62
     7
 10
7.8853799999999961
 20
0.905732
 30
0.0
 70
    32
  0
VERTEX
  5
4844
  8
PROFILE2
 62
     7
 10
7.8217100000000004
 20
0.8483159999999999
 30
0.0
 70
    32
  0
VERTEX
  5
4845
  8
PROFILE2
 62
     7
 10
7.7610099999999971
 20
0.78888
 30
0.0
 70
    32
  0
VERTEX
  5
4846
  8
PROFILE2
 62
     7
 10
7.7033800000000001
 20
0.7275199999999999
 30
0.0
 70
    32
  0
VERTEX
  5
4847
  8
PROFILE2
 62
     7
 10
7.6489199999999959
 20
0.6643390000000001
 30
0.0
 70
    32
  0
VERTEX
  5
4848
  8
PROFILE2
 62
     7
 10
7.5977100000000002
 20
0.5994410000000002
 30
0.0
 70
    32
  0
VERTEX
  5
4849
  8
PROFILE2
 62
     7
 10
7.54983
 20
0.532932
 30
0.0
 70
    32
  0
VERTEX
  5
484A
  8
PROFILE2
 62
     7
 10
7.5053799999999979
 20
0.464923
 30
0.0
 70
    32
  0
VERTEX
  5
484B
  8
PROFILE2
 62
     7
 10
7.46441
 20
0.395526
 30
0.0
 70
    32
  0
VERTEX
  5
484C
  8
PROFILE2
 62
     7
 10
7.4270100000000001
 20
0.324855
 30
0.0
 70
    32
  0
VERTEX
  5
484D
  8
PROFILE2
 62
     7
 10
7.3932199999999959
 20
0.253027
 30
0.0
 70
    32
  0
VERTEX
  5
484E
  8
PROFILE2
 62
     7
 10
7.3631099999999989
 20
0.180161
 30
0.0
 70
    32
  0
VERTEX
  5
484F
  8
PROFILE2
 62
     7
 10
7.3367300000000002
 20
0.106377
 30
0.0
 70
    32
  0
VERTEX
  5
4850
  8
PROFILE2
 62
     7
 10
7.3141100000000003
 20
0.0317959
 30
0.0
 70
    32
  0
VERTEX
  5
4851
  8
PROFILE2
 62
     7
 10
7.2953000000000001
 20
-0.0434579
 30
0.0
 70
    32
  0
VERTEX
  5
4852
  8
PROFILE2
 62
     7
 10
7.2803300000000002
 20
-0.119261
 30
0.0
 70
    32
  0
VERTEX
  5
4853
  8
PROFILE2
 62
     7
 10
7.2692199999999989
 20
-0.195487
 30
0.0
 70
    32
  0
VERTEX
  5
4854
  8
PROFILE2
 62
     7
 10
7.2619899999999982
 20
-0.272012
 30
0.0
 70
    32
  0
VERTEX
  5
4855
  8
PROFILE2
 62
     7
 10
7.258659999999999
 20
-0.348708
 30
0.0
 70
    32
  0
VERTEX
  5
4856
  8
PROFILE2
 62
     7
 10
7.25922
 20
-0.4254500000000001
 30
0.0
 70
    32
  0
VERTEX
  5
4857
  8
PROFILE2
 62
     7
 10
7.263679999999999
 20
-0.5021100000000001
 30
0.0
 70
    32
  0
VERTEX
  5
4858
  8
PROFILE2
 62
     7
 10
7.2720299999999982
 20
-0.5785610000000001
 30
0.0
 70
    32
  0
VERTEX
  5
4859
  8
PROFILE2
 62
     7
 10
7.2842500000000001
 20
-0.654679
 30
0.0
 70
    32
  0
VERTEX
  5
485A
  8
PROFILE2
 62
     7
 10
7.3003299999999989
 20
-0.730336
 30
0.0
 70
    32
  0
VERTEX
  5
485B
  8
PROFILE2
 62
     7
 10
7.3202399999999983
 20
-0.805409
 30
0.0
 70
    32
  0
VERTEX
  5
485C
  8
PROFILE2
 62
     7
 10
7.3439500000000004
 20
-0.8797719999999998
 30
0.0
 70
    32
  0
VERTEX
  5
485D
  8
PROFILE2
 62
     7
 10
7.37141
 20
-0.9533049999999999
 30
0.0
 70
    32
  0
VERTEX
  5
485E
  8
PROFILE2
 62
     7
 10
7.4025899999999982
 20
-1.025879999999999
 30
0.0
 70
    32
  0
VERTEX
  5
485F
  8
PROFILE2
 62
     7
 10
7.4374199999999959
 20
-1.0973899999999981
 30
0.0
 70
    32
  0
VERTEX
  5
4860
  8
PROFILE2
 62
     7
 10
7.4758599999999982
 20
-1.16771
 30
0.0
 70
    32
  0
VERTEX
  5
4861
  8
PROFILE2
 62
     7
 10
7.5178399999999979
 20
-1.2367099999999991
 30
0.0
 70
    32
  0
VERTEX
  5
4862
  8
PROFILE2
 62
     7
 10
7.5632899999999958
 20
-1.3043
 30
0.0
 70
    32
  0
VERTEX
  5
4863
  8
PROFILE2
 62
     7
 10
7.6121299999999961
 20
-1.37036
 30
0.0
 70
    32
  0
VERTEX
  5
4864
  8
PROFILE2
 62
     7
 10
7.6642899999999958
 20
-1.4347700000000001
 30
0.0
 70
    32
  0
VERTEX
  5
4865
  8
PROFILE2
 62
     7
 10
7.7196699999999989
 20
-1.497439999999999
 30
0.0
 70
    32
  0
VERTEX
  5
4866
  8
PROFILE2
 62
     7
 10
7.7782
 20
-1.558249999999999
 30
0.0
 70
    32
  0
VERTEX
  5
4867
  8
PROFILE2
 62
     7
 10
7.8397600000000001
 20
-1.617119999999999
 30
0.0
 70
    32
  0
VERTEX
  5
4868
  8
PROFILE2
 62
     7
 10
7.9042599999999981
 20
-1.673929999999999
 30
0.0
 70
    32
  0
VERTEX
  5
4869
  8
PROFILE2
 62
     7
 10
7.971599999999996
 20
-1.7286099999999991
 30
0.0
 70
    32
  0
VERTEX
  5
486A
  8
PROFILE2
 62
     7
 10
8.0416600000000003
 20
-1.78105
 30
0.0
 70
    32
  0
VERTEX
  5
486B
  8
PROFILE2
 62
     7
 10
8.1143199999999975
 20
-1.83117
 30
0.0
 70
    32
  0
VERTEX
  5
486C
  8
PROFILE2
 62
     7
 10
8.1894600000000004
 20
-1.8788799999999981
 30
0.0
 70
    32
  0
VERTEX
  5
486D
  8
PROFILE2
 62
     7
 10
8.2669700000000006
 20
-1.9241200000000001
 30
0.0
 70
    32
  0
VERTEX
  5
486E
  8
PROFILE2
 62
     7
 10
8.3467199999999941
 20
-1.9668000000000001
 30
0.0
 70
    32
  0
VERTEX
  5
486F
  8
PROFILE2
 62
     7
 10
8.4285599999999992
 20
-2.0068599999999992
 30
0.0
 70
    32
  0
VERTEX
  5
4870
  8
PROFILE2
 62
     7
 10
8.5123700000000007
 20
-2.0442200000000001
 30
0.0
 70
    32
  0
VERTEX
  5
4871
  8
PROFILE2
 62
     7
 10
8.5980100000000004
 20
-2.0788299999999991
 30
0.0
 70
    32
  0
VERTEX
  5
4872
  8
PROFILE2
 62
     7
 10
8.6853400000000001
 20
-2.11063
 30
0.0
 70
    32
  0
VERTEX
  5
4873
  8
PROFILE2
 62
     7
 10
8.7742100000000001
 20
-2.1395699999999991
 30
0.0
 70
    32
  0
VERTEX
  5
4874
  8
PROFILE2
 62
     7
 10
8.8644699999999972
 20
-2.165589999999999
 30
0.0
 70
    32
  0
VERTEX
  5
4875
  8
PROFILE2
 62
     7
 10
8.9559899999999981
 20
-2.1886700000000001
 30
0.0
 70
    32
  0
VERTEX
  5
4876
  8
PROFILE2
 62
     7
 10
9.0486000000000004
 20
-2.2087400000000001
 30
0.0
 70
    32
  0
VERTEX
  5
4877
  8
PROFILE2
 62
     7
 10
9.1421500000000009
 20
-2.2258
 30
0.0
 70
    32
  0
VERTEX
  5
4878
  8
PROFILE2
 62
     7
 10
9.2364899999999999
 20
-2.239799999999998
 30
0.0
 70
    32
  0
VERTEX
  5
4879
  8
PROFILE2
 62
     7
 10
9.3314599999999999
 20
-2.2507199999999981
 30
0.0
 70
    32
  0
VERTEX
  5
487A
  8
PROFILE2
 62
     7
 10
9.4269200000000009
 20
-2.2585500000000001
 30
0.0
 70
    32
  0
VERTEX
  5
487B
  8
PROFILE2
 62
     7
 10
9.5226899999999972
 20
-2.263269999999999
 30
0.0
 70
    32
  0
VERTEX
  5
487C
  8
PROFILE2
 62
     7
 10
9.6186199999999982
 20
-2.2648700000000002
 30
0.0
 70
    32
  0
VERTEX
  5
487D
  8
PROFILE2
 62
     7
 10
9.7145499999999991
 20
-2.26336
 30
0.0
 70
    32
  0
VERTEX
  5
487E
  8
PROFILE2
 62
     7
 10
9.8103300000000004
 20
-2.258729999999999
 30
0.0
 70
    32
  0
VERTEX
  5
487F
  8
PROFILE2
 62
     7
 10
9.9057899999999997
 20
-2.250999999999999
 30
0.0
 70
    32
  0
VERTEX
  5
4880
  8
PROFILE2
 62
     7
 10
10.0008
 20
-2.2401699999999991
 30
0.0
 70
    32
  0
VERTEX
  5
4881
  8
PROFILE2
 62
     7
 10
10.0951
 20
-2.226259999999999
 30
0.0
 70
    32
  0
VERTEX
  5
4882
  8
PROFILE2
 62
     7
 10
10.188700000000001
 20
-2.209299999999998
 30
0.0
 70
    32
  0
VERTEX
  5
4883
  8
PROFILE2
 62
     7
 10
10.2814
 20
-2.1893099999999981
 30
0.0
 70
    32
  0
VERTEX
  5
4884
  8
PROFILE2
 62
     7
 10
10.3729
 20
-2.1663299999999981
 30
0.0
 70
    32
  0
VERTEX
  5
4885
  8
PROFILE2
 62
     7
 10
10.463200000000001
 20
-2.14039
 30
0.0
 70
    32
  0
VERTEX
  5
4886
  8
PROFILE2
 62
     7
 10
10.552099999999999
 20
-2.1115400000000002
 30
0.0
 70
    32
  0
VERTEX
  5
4887
  8
PROFILE2
 62
     7
 10
10.6395
 20
-2.079819999999998
 30
0.0
 70
    32
  0
VERTEX
  5
4888
  8
PROFILE2
 62
     7
 10
10.725199999999999
 20
-2.0453000000000001
 30
0.0
 70
    32
  0
VERTEX
  5
4889
  8
PROFILE2
 62
     7
 10
10.809100000000001
 20
-2.0080100000000001
 30
0.0
 70
    32
  0
VERTEX
  5
488A
  8
PROFILE2
 62
     7
 10
10.891
 20
-1.96804
 30
0.0
 70
    32
  0
VERTEX
  5
488B
  8
PROFILE2
 62
     7
 10
10.970800000000001
 20
-1.92543
 30
0.0
 70
    32
  0
VERTEX
  5
488C
  8
PROFILE2
 62
     7
 10
11.048400000000001
 20
-1.8802700000000001
 30
0.0
 70
    32
  0
VERTEX
  5
488D
  8
PROFILE2
 62
     7
 10
11.1236
 20
-1.8326199999999999
 30
0.0
 70
    32
  0
VERTEX
  5
488E
  8
PROFILE2
 62
     7
 10
11.196300000000001
 20
-1.7825699999999991
 30
0.0
 70
    32
  0
VERTEX
  5
488F
  8
PROFILE2
 62
     7
 10
11.266400000000001
 20
-1.7301999999999991
 30
0.0
 70
    32
  0
VERTEX
  5
4890
  8
PROFILE2
 62
     7
 10
11.3339
 20
-1.6756
 30
0.0
 70
    32
  0
VERTEX
  5
4891
  8
PROFILE2
 62
     7
 10
11.3985
 20
-1.6188400000000001
 30
0.0
 70
    32
  0
VERTEX
  5
4892
  8
PROFILE2
 62
     7
 10
11.460100000000001
 20
-1.560039999999999
 30
0.0
 70
    32
  0
VERTEX
  5
4893
  8
PROFILE2
 62
     7
 10
11.518700000000001
 20
-1.4992799999999991
 30
0.0
 70
    32
  0
VERTEX
  5
4894
  8
PROFILE2
 62
     7
 10
11.574199999999999
 20
-1.436669999999999
 30
0.0
 70
    32
  0
VERTEX
  5
4895
  8
PROFILE2
 62
     7
 10
11.6265
 20
-1.3723000000000001
 30
0.0
 70
    32
  0
VERTEX
  5
4896
  8
PROFILE2
 62
     7
 10
11.6754
 20
-1.3063
 30
0.0
 70
    32
  0
VERTEX
  5
4897
  8
PROFILE2
 62
     7
 10
11.721
 20
-1.23875
 30
0.0
 70
    32
  0
VERTEX
  5
4898
  8
PROFILE2
 62
     7
 10
11.763
 20
-1.169779999999998
 30
0.0
 70
    32
  0
VERTEX
  5
4899
  8
PROFILE2
 62
     7
 10
11.801600000000001
 20
-1.099499999999999
 30
0.0
 70
    32
  0
VERTEX
  5
489A
  8
PROFILE2
 62
     7
 10
11.836499999999999
 20
-1.028029999999998
 30
0.0
 70
    32
  0
VERTEX
  5
489B
  8
PROFILE2
 62
     7
 10
11.867800000000001
 20
-0.9554829999999999
 30
0.0
 70
    32
  0
SEQEND
  5
489C
  8
PROFILE2
 62
     7
  0
LINE
  5
489D
  8
PROFILE2
 62
     7
 10
11.9471059232703
 20
1.5060231307151071
 30
0.0
 11
11.9471059232703
 21
0.1503368287534386
 31
0.0
  0
LINE
  5
489E
  8
PROFILE2
 62
     7
 10
11.746551769025981
 20
1.063991438346874
 30
0.0
 11
11.89544296417364
 21
1.5128339927964021
 31
0.0
  0
ENDBLK
  5
489F
  8
0
  0
BLOCK
  8
0
  2
*U11
 70
     1
 10
0.0
 20
0.0
 30
0.0
  3
*U11
  1

  0
INSERT
  5
48A2
  8
0
  6
CONTINUOUS
  2
*U12
 10
0.0
 20
0.0
 30
0.0
  0
ENDBLK
  5
48A3
  8
0
  0
BLOCK
  8
0
  2
*U12
 70
     1
 10
0.0
 20
0.0
 30
0.0
  3
*U12
  1

  0
TEXT
  5
48A6
  8
0
  6
CONTINUOUS
 62
     7
 10
143.23368400212871
 20
-155.4795650596044
 30
0.0
 40
5.0
  1
TITLE
 41
0.7759999999999999
  0
ENDBLK
  5
48A7
  8
0
  0
BLOCK
  8
0
  2
*U13
 70
     1
 10
0.0
 20
0.0
 30
0.0
  3
*U13
  1

  0
INSERT
  5
48AA
  8
0
  6
CONTINUOUS
  2
*U14
 10
0.0
 20
0.0
 30
0.0
  0
INSERT
  5
48AB
  8
0
  6
CONTINUOUS
  2
*U15
 10
0.0
 20
0.0
 30
0.0
  0
ENDBLK
  5
48AC
  8
0
  0
BLOCK
  8
0
  2
*U14
 70
     1
 10
0.0
 20
0.0
 30
0.0
  3
*U14
  1

  0
TEXT
  5
48AF
  8
0
  6
CONTINUOUS
 62
     7
 10
141.59996896820351
 20
-213.78639370137529
 30
0.0
 40
4.6794228553771964
  1
Nｏ.
 41
0.821
  0
ENDBLK
  5
48B0
  8
0
  0
BLOCK
  8
0
  2
*U15
 70
     1
 10
0.0
 20
0.0
 30
0.0
  3
*U15
  1

  0
TEXT
  5
48B3
  8
0
  6
CONTINUOUS
 62
     7
 10
141.59996895819319
 20
-205.98735536804199
 30
0.0
 40
4.6794228553771964
  1
DWG
 41
0.821
  0
ENDBLK
  5
48B4
  8
0
  0
BLOCK
  8
0
  2
*U16
 70
     1
 10
0.0
 20
0.0
 30
0.0
  3
*U16
  1

  0
TEXT
  5
48B7
  8
0
 62
     7
 10
345.3567365453988
 20
28.343155192601579
 30
0.0
 40
4.0
  1
CCMT-D Series
  7
ULVAC
  0
ENDBLK
  5
48B8
  8
0
  0
BLOCK
  8
0
  2
*U17
 70
     1
 10
0.0
 20
0.0
 30
0.0
  3
*U17
  1

  0
TEXT
  5
48BB
  8
0
 62
     7
 10
210.4902838961477
 20
141.05827948383441
 30
0.0
 40
4.1669998168945312
  1
8VCR
 41
0.7879999999999999
  7
ULVAC
  0
ENDBLK
  5
48BC
  8
0
  0
BLOCK
  8
0
  2
*U18
 70
     1
 10
0.0
 20
0.0
 30
0.0
  3
*U18
  1

  0
TEXT
  5
48BF
  8
0
 62
     7
 10
164.8929958582118
 20
140.59526801391249
 30
0.0
 40
4.1669998168945312
  1
1/2" Pipe
 41
1.0569999999999991
  7
ULVAC
  0
ENDBLK
  5
48C0
  8
0
  0
BLOCK
  8
0
  2
*U19
 70
     1
 10
0.0
 20
0.0
 30
0.0
  3
*U19
  1

  0
TEXT
  5
48C3
  8
0
 62
     7
 10
113.7074063855887
 20
88.301520356724495
 30
0.0
 40
4.1669998168945312
  1
NW16
 41
0.8529999999999999
  7
ULVAC
  0
ENDBLK
  5
48C4
  8
0
  0
BLOCK
  8
0
  2
*U20
 70
     1
 10
0.0
 20
0.0
 30
0.0
  3
*U20
  1

  0
TEXT
  5
48C7
  8
0
 62
     7
 10
187.97194722705109
 20
250.39471619030911
 30
0.0
 40
4.0
  1
Model Name : CCMT-[Name1]-[Name2]
  7
ULVAC
  0
ENDBLK
  5
48C8
  8
0
  0
BLOCK
  8
0
  2
*U21
 70
     1
 10
0.0
 20
0.0
 30
0.0
  3
*U21
  1

  0
TEXT
  5
48CB
  8
0
 62
     7
 10
194.87739295541419
 20
230.69092109840449
 30
0.0
 40
4.0
  1
Name1   F.S.    Name2  Flange
  7
ULVAC
  0
ENDBLK
  5
48CC
  8
0
  0
BLOCK
  8
0
  2
*U22
 70
     1
 10
0.0
 20
0.0
 30
0.0
  3
*U22
  1

  0
TEXT
  5
48CF
  8
0
 62
     7
 10
194.87739295541419
 20
222.70452317963779
 30
0.0
 40
4.0
  1
1000D  133kPa    N16   NW16
  7
ULVAC
  0
ENDBLK
  5
48D0
  8
0
  0
BLOCK
  8
0
  2
*U23
 70
     1
 10
0.0
 20
0.0
 30
0.0
  3
*U23
  1

  0
TEXT
  5
48D3
  8
0
 62
     7
 10
194.87739295541419
 20
213.70452317963779
 30
0.0
 40
4.0
  1
 100D  13.3kPa   1/2   1/2"Tube
  7
ULVAC
  0
ENDBLK
  5
48D4
  8
0
  0
BLOCK
  8
0
  2
*U24
 70
     1
 10
0.0
 20
0.0
 30
0.0
  3
*U24
  1

  0
TEXT
  5
48D7
  8
0
 62
     7
 10
194.87739295541419
 20
204.7045231796377
 30
0.0
 40
4.0
  1
  10D  1.33kPa   VCR   8VCR
  7
ULVAC
  0
ENDBLK
  5
48D8
  8
0
  0
BLOCK
  8
0
  2
*U25
 70
     1
 10
0.0
 20
0.0
 30
0.0
  3
*U25
  1

  0
TEXT
  5
48DB
  8
0
 62
     7
 10
194.87739295541419
 20
195.7045231796377
 30
0.0
 40
4.0
  1
   1D  133Pa
  7
ULVAC
  0
ENDBLK
  5
48DC
  8
0
  0
BLOCK
  8
0
  2
*U26
 70
     1
 10
0.0
 20
0.0
 30
0.0
  3
*U26
  1

  0
TEXT
  5
48DF
  8
0
 62
     7
 10
135.29769676446011
 20
147.05224424676859
 30
0.0
 40
2.0
  1
CCMT
 41
0.9599999999999999
  7
ULVAC
  0
ENDBLK
  5
48E0
  8
0
  0
BLOCK
  8
0
  2
*U27
 70
     1
 10
0.0
 20
0.0
 30
0.0
  3
*U27
  1

  0
TEXT
  5
48E3
  8
0
 62
     7
 10
101.3088955717601
 20
147.00378105239781
 30
0.0
 40
2.0
  1
G-TRAN
 41
0.8529999999999999
  7
ULVAC
  0
ENDBLK
  5
48E4
  8
0
  0
BLOCK
  8
0
  2
*U28
 70
     1
 10
0.0
 20
0.0
 30
0.0
  3
*U28
  1

  0
TEXT
  5
48E7
  8
0
 62
     7
 10
304.09343574208918
 20
58.463091071297193
 30
0.0
 40
4.0
  1
GA0130-010-01C
  7
ULVAC
  0
ENDBLK
  5
48E8
  8
0
  0
BLOCK
  8
0
  2
*U29
 70
     1
 10
0.0
 20
0.0
 30
0.0
  3
*U29
  1

  0
TEXT
  5
48EB
  8
0
 62
     7
 10
112.4454737110853
 20
282.7466020901162
 30
0.0
 40
2.5
  1
RUN
 41
0.8529999999999999
  7
ULVAC
  0
ENDBLK
  5
48EC
  8
0
  0
BLOCK
  8
0
  2
*U30
 70
     1
 10
0.0
 20
0.0
 30
0.0
  3
*U30
  1

  0
TEXT
  5
48EF
  8
0
 62
     7
 10
111.0882631988606
 20
268.67730356716697
 30
0.0
 40
2.0
  1
15
 50
180.0
 41
1.024
  7
ULVAC
  0
ENDBLK
  5
48F0
  8
0
  0
BLOCK
  8
0
  2
*U31
 70
     1
 10
0.0
 20
0.0
 30
0.0
  3
*U31
  1

  0
TEXT
  5
48F3
  8
0
 62
     7
 10
130.34403770072461
 20
268.58758951687412
 30
0.0
 40
2.0
  1
9
 50
180.0
 41
0.8529999999999999
  7
ULVAC
  0
ENDBLK
  5
48F4
  8
0
  0
BLOCK
  8
0
  2
*U32
 70
     1
 10
0.0
 20
0.0
 30
0.0
  3
*U32
  1

  0
TEXT
  5
48F7
  8
0
 62
     7
 10
131.9063836751705
 20
261.32072855496
 30
0.0
 40
2.0
  1
1
 50
180.0
 41
1.28
  7
ULVAC
  0
ENDBLK
  5
48F8
  8
0
  0
BLOCK
  8
0
  2
*U33
 70
     1
 10
0.0
 20
0.0
 30
0.0
  3
*U33
  1

  0
TEXT
  5
48FB
  8
0
 62
     7
 10
108.8125817070722
 20
261.32072855496
 30
0.0
 40
2.0
  1
8
 50
180.0
 41
0.8529999999999999
  7
ULVAC
  0
ENDBLK
  5
48FC
  8
0
  0
BLOCK
  8
0
  2
*U34
 70
     1
 10
0.0
 20
0.0
 30
0.0
  3
*U34
  1

  0
TEXT
  5
48FF
  8
0
 62
     7
 10
125.7696207545943
 20
282.8624593787672
 30
0.0
 40
2.5
  1
ZERO
 41
0.8529999999999999
  7
ULVAC
  0
ENDBLK
  5
4900
  8
0
  0
BLOCK
  8
0
  2
*D35
 70
     1
 10
0.0
 20
0.0
 30
0.0
  3
*D35
  1

  0
LINE
  5
4903
  8
AM_5
 62
     0
 10
164.192371230514
 20
169.5378517991908
 30
0.0
 11
182.80583907429349
 21
169.5378517991908
 31
0.0
  0
LINE
  5
4904
  8
AM_5
 62
     0
 10
171.442371230514
 20
165.537852085293
 30
0.0
 11
182.80583907429349
 21
165.537852085293
 31
0.0
  0
LINE
  5
4905
  8
AM_5
 62
     0
 10
181.6058390266098
 20
162.63785208529299
 30
0.0
 11
181.6058390266098
 21
159.73785208529301
 31
0.0
  0
LINE
  5
4906
  8
AM_5
 62
     0
 10
181.6058390266098
 20
172.43785179919061
 30
0.0
 11
181.6058390266098
 21
179.33785179919079
 31
0.0
  0
LINE
  5
4907
  8
AM_5
 62
     0
 10
181.6058390266098
 20
165.537852085293
 30
0.0
 11
181.6058390266098
 21
169.5378517991908
 31
0.0
  0
INSERT
  5
4908
  8
AM_5
 62
     0
  2
_OPEN30
 10
181.6058390266098
 20
165.537852085293
 30
0.0
 41
2.8999999999999999
 42
2.8999999999999999
 43
2.8999999999999999
 50
90.0
  0
INSERT
  5
4909
  8
AM_5
 62
     0
  2
_OPEN30
 10
181.6058390266098
 20
169.5378517991908
 30
0.0
 41
2.8999999999999999
 42
2.8999999999999999
 43
2.8999999999999999
 50
270.0
  0
INSERT
  5
490A
  8
PROFILE2
  2
*U36
 10
0.0
 20
0.0
 30
0.0
  0
POINT
  5
490B
  8
DEFPOINTS
 62
     0
 10
162.9223712495874
 20
169.5378517991908
 30
0.0
  0
POINT
  5
490C
  8
DEFPOINTS
 62
     0
 10
170.1723712495874
 20
165.537852085293
 30
0.0
  0
POINT
  5
490D
  8
DEFPOINTS
 62
     0
 10
181.6058390266098
 20
165.537852085293
 30
0.0
  0
ENDBLK
  5
490E
  8
0
  0
BLOCK
  8
0
  2
*U36
 70
     1
 10
0.0
 20
0.0
 30
0.0
  3
*U36
  1

  0
TEXT
  5
4E4D
  8
AM_5
 62
     0
 10
180.6058390266098
 20
175.73785179919079
 30
0.0
 40
4.0
  1
4
 50
90.0
  0
ENDBLK
  5
4E4F
  8
0
  0
BLOCK
  8
0
  2
*D37
 70
     1
 10
0.0
 20
0.0
 30
0.0
  3
*D37
  1

  0
LINE
  5
4911
  8
AM_5
 62
     0
 10
171.442371230514
 20
165.53785208529311
 30
0.0
 11
182.80583907429349
 21
165.53785208529311
 31
0.0
  0
LINE
  5
4912
  8
AM_5
 62
     0
 10
172.442371230514
 20
96.137852085293076
 30
0.0
 11
182.80583907429349
 21
96.137852085293076
 31
0.0
  0
LINE
  5
4913
  8
AM_5
 62
     0
 10
181.6058390266098
 20
162.6378520852931
 30
0.0
 11
181.6058390266098
 21
99.037852085293039
 31
0.0
  0
INSERT
  5
4914
  8
AM_5
 62
     0
  2
_OPEN30
 10
181.6058390266098
 20
165.53785208529311
 30
0.0
 41
2.8999999999999999
 42
2.8999999999999999
 43
2.8999999999999999
 50
90.0
  0
INSERT
  5
4915
  8
AM_5
 62
     0
  2
_OPEN30
 10
181.6058390266098
 20
96.137852085293076
 30
0.0
 41
2.8999999999999999
 42
2.8999999999999999
 43
2.8999999999999999
 50
270.0
  0
INSERT
  5
4916
  8
PROFILE2
  2
*U38
 10
0.0
 20
0.0
 30
0.0
  0
POINT
  5
4917
  8
DEFPOINTS
 62
     0
 10
170.1723712495874
 20
165.53785208529311
 30
0.0
  0
POINT
  5
4918
  8
DEFPOINTS
 62
     0
 10
171.17237124958751
 20
96.137852085293076
 30
0.0
  0
POINT
  5
4919
  8
DEFPOINTS
 62
     0
 10
181.6058390266098
 20
96.137852085293076
 30
0.0
  0
ENDBLK
  5
491A
  8
0
  0
BLOCK
  8
0
  2
*U38
 70
     1
 10
0.0
 20
0.0
 30
0.0
  3
*U38
  1

  0
TEXT
  5
4E51
  8
AM_5
 62
     0
 10
180.6058390266098
 20
125.95054846367459
 30
0.0
 40
4.0
  1
69.4
 50
90.0
  0
ENDBLK
  5
4E53
  8
0
  0
BLOCK
  8
0
  2
*D39
 70
     1
 10
0.0
 20
0.0
 30
0.0
  3
*D39
  1

  0
LINE
  5
491D
  8
AM_5
 62
     0
 10
171.1723712495874
 20
165.8078520662196
 30
0.0
 11
171.1723712495874
 21
179.77392420703109
 31
0.0
  0
LINE
  5
491E
  8
AM_5
 62
     0
 10
116.1723712495874
 20
165.8078520662196
 30
0.0
 11
116.1723712495874
 21
179.77392420703109
 31
0.0
  0
LINE
  5
491F
  8
AM_5
 62
     0
 10
168.27237124958739
 20
178.57392415934731
 30
0.0
 11
119.07237124958741
 21
178.57392415934731
 31
0.0
  0
INSERT
  5
4920
  8
AM_5
 62
     0
  2
_OPEN30
 10
171.1723712495874
 20
178.57392415934731
 30
0.0
 41
2.8999999999999999
 42
2.8999999999999999
 43
2.8999999999999999
  0
INSERT
  5
4921
  8
AM_5
 62
     0
  2
_OPEN30
 10
116.1723712495874
 20
178.57392415934731
 30
0.0
 41
2.8999999999999999
 42
2.8999999999999999
 43
2.8999999999999999
 50
180.0
  0
INSERT
  5
4922
  8
PROFILE2
  2
*U40
 10
0.0
 20
0.0
 30
0.0
  0
POINT
  5
4923
  8
DEFPOINTS
 62
     0
 10
171.1723712495874
 20
164.53785208529311
 30
0.0
  0
POINT
  5
4924
  8
DEFPOINTS
 62
     0
 10
116.1723712495874
 20
164.53785208529311
 30
0.0
  0
POINT
  5
4925
  8
DEFPOINTS
 62
     0
 10
116.1723712495874
 20
178.57392415934731
 30
0.0
  0
ENDBLK
  5
4926
  8
0
  0
BLOCK
  8
0
  2
*U40
 70
     1
 10
0.0
 20
0.0
 30
0.0
  3
*U40
  1

  0
TEXT
  5
4E55
  8
AM_5
 62
     0
 10
138.98952853711279
 20
179.57392415934731
 30
0.0
 40
4.0
  1
\U+220555
  0
ENDBLK
  5
4E57
  8
0
  0
BLOCK
  8
0
  2
*D41
 70
     1
 10
0.0
 20
0.0
 30
0.0
  3
*D41
  1

  0
LINE
  5
4929
  8
AM_5
 62
     0
 10
115.9023712686609
 20
165.537852085293
 30
0.0
 11
90.389702305165869
 21
165.537852085293
 31
0.0
  0
LINE
  5
492A
  8
AM_5
 62
     0
 10
127.4023712686609
 20
52.537852085293082
 30
0.0
 11
90.389702305165869
 21
52.537852085293089
 31
0.0
  0
LINE
  5
492B
  8
AM_5
 62
     0
 10
91.589702352849585
 20
162.63785208529299
 30
0.0
 11
91.589702352849585
 21
55.437852085293102
 31
0.0
  0
INSERT
  5
492C
  8
AM_5
 62
     0
  2
_OPEN30
 10
91.589702352849585
 20
165.537852085293
 30
0.0
 41
2.8999999999999999
 42
2.8999999999999999
 43
2.8999999999999999
 50
90.0
  0
INSERT
  5
492D
  8
AM_5
 62
     0
  2
_OPEN30
 10
91.589702352849585
 20
52.537852085293089
 30
0.0
 41
2.8999999999999999
 42
2.8999999999999999
 43
2.8999999999999999
 50
270.0
  0
INSERT
  5
492E
  8
PROFILE2
  2
*U42
 10
0.0
 20
0.0
 30
0.0
  0
POINT
  5
492F
  8
DEFPOINTS
 62
     0
 10
117.1723712495874
 20
165.537852085293
 30
0.0
  0
POINT
  5
4930
  8
DEFPOINTS
 62
     0
 10
128.6723712495874
 20
52.537852085293082
 30
0.0
  0
POINT
  5
4931
  8
DEFPOINTS
 62
     0
 10
91.589702352849585
 20
52.537852085293089
 30
0.0
  0
ENDBLK
  5
4932
  8
0
  0
BLOCK
  8
0
  2
*U42
 70
     1
 10
0.0
 20
0.0
 30
0.0
  3
*U42
  1

  0
TEXT
  5
4E59
  8
AM_5
 62
     0
 10
90.589702352849585
 20
105.5550093728185
 30
0.0
 40
4.0
  1
113
 50
90.0
  0
ENDBLK
  5
4E5B
  8
0
  0
BLOCK
  8
0
  2
*D43
 70
     1
 10
0.0
 20
0.0
 30
0.0
  3
*D43
  1

  0
LINE
  5
4935
  8
AM_5
 62
     0
 10
232.83012159126781
 20
80.937852085293088
 30
0.0
 11
106.1041034473437
 21
80.937852085293116
 31
0.0
  0
LINE
  5
4936
  8
AM_5
 62
     0
 10
239.18012006538891
 20
52.537852085293089
 30
0.0
 11
106.1041034473437
 21
52.537852085293117
 31
0.0
  0
LINE
  5
4937
  8
AM_5
 62
     0
 10
107.30410349502741
 20
78.037852085293125
 30
0.0
 11
107.30410349502741
 21
55.437852085293123
 31
0.0
  0
INSERT
  5
4938
  8
AM_5
 62
     0
  2
_OPEN30
 10
107.30410349502741
 20
80.937852085293116
 30
0.0
 41
2.8999999999999999
 42
2.8999999999999999
 43
2.8999999999999999
 50
90.0
  0
INSERT
  5
4939
  8
AM_5
 62
     0
  2
_OPEN30
 10
107.30410349502741
 20
52.537852085293117
 30
0.0
 41
2.8999999999999999
 42
2.8999999999999999
 43
2.8999999999999999
 50
270.0
  0
INSERT
  5
493A
  8
PROFILE2
  2
*U44
 10
0.0
 20
0.0
 30
0.0
  0
POINT
  5
493B
  8
DEFPOINTS
 62
     0
 10
234.1001215721943
 20
80.937852085293088
 30
0.0
  0
POINT
  5
493C
  8
DEFPOINTS
 62
     0
 10
240.45012004631539
 20
52.537852085293082
 30
0.0
  0
POINT
  5
493D
  8
DEFPOINTS
 62
     0
 10
107.30410349502741
 20
52.537852085293117
 30
0.0
  0
ENDBLK
  5
493E
  8
0
  0
BLOCK
  8
0
  2
*U44
 70
     1
 10
0.0
 20
0.0
 30
0.0
  3
*U44
  1

  0
TEXT
  5
4E5D
  8
AM_5
 62
     0
 10
106.00410349502739
 20
60.137852085293162
 30
0.0
 40
4.0
  1
(28.4)
 50
90.0
  0
ENDBLK
  5
4E5F
  8
0
  0
BLOCK
  8
0
  2
*D45
 70
     1
 10
0.0
 20
0.0
 30
0.0
  3
*D45
  1

  0
LINE
  5
4E60
  8
AM_5
 62
     0
 10
418.94979766777999
 20
598.76378147064918
 30
0.0
 11
437.56326551155951
 21
598.76378147064918
 31
0.0
  0
LINE
  5
4E61
  8
AM_5
 62
     0
 10
426.19979766777999
 20
594.76378175675143
 30
0.0
 11
437.56326551155951
 21
594.76378175675143
 31
0.0
  0
LINE
  5
4E62
  8
AM_5
 62
     0
 10
436.3632654638759
 20
591.86378175675145
 30
0.0
 11
436.3632654638759
 21
588.96378175675159
 31
0.0
  0
LINE
  5
4E63
  8
AM_5
 62
     0
 10
436.3632654638759
 20
601.66378147064916
 30
0.0
 11
436.3632654638759
 21
608.56378147064925
 31
0.0
  0
LINE
  5
4E64
  8
AM_5
 62
     0
 10
436.3632654638759
 20
594.76378175675143
 30
0.0
 11
436.3632654638759
 21
598.76378147064918
 31
0.0
  0
INSERT
  5
4E65
  8
AM_5
 62
     0
  2
_OPEN30
 10
436.3632654638759
 20
594.76378175675143
 30
0.0
 41
2.8999999999999999
 42
2.8999999999999999
 43
2.8999999999999999
 50
90.0
  0
INSERT
  5
4E66
  8
AM_5
 62
     0
  2
_OPEN30
 10
436.3632654638759
 20
598.76378147064918
 30
0.0
 41
2.8999999999999999
 42
2.8999999999999999
 43
2.8999999999999999
 50
270.0
  0
TEXT
  5
4E8F
  8
AM_5
 62
     0
 10
425.363
 20
599.48400000000004
 30
0.0
 40
4.0
  1
4
  0
POINT
  5
4E68
  8
DEFPOINTS
 62
     0
 10
417.67979768685348
 20
598.76378147064918
 30
0.0
  0
POINT
  5
4E69
  8
DEFPOINTS
 62
     0
 10
424.92979768685342
 20
594.76378175675143
 30
0.0
  0
POINT
  5
4E6A
  8
DEFPOINTS
 62
     0
 10
436.3632654638759
 20
594.76378175675143
 30
0.0
  0
ENDBLK
  5
4D7B
  8
0
  0
BLOCK
  8
0
  2
*D46
 70
     1
 10
0.0
 20
0.0
 30
0.0
  3
*D46
  1

  0
LINE
  5
4E6B
  8
AM_5
 62
     0
 10
426.19979766777999
 20
594.76378175675143
 30
0.0
 11
437.56326551155951
 21
594.76378175675143
 31
0.0
  0
LINE
  5
4E6C
  8
AM_5
 62
     0
 10
427.1997976677801
 20
525.36378175675145
 30
0.0
 11
437.56326551155951
 21
525.36378175675145
 31
0.0
  0
LINE
  5
4E6D
  8
AM_5
 62
     0
 10
436.3632654638759
 20
591.86378175675145
 30
0.0
 11
436.3632654638759
 21
528.26378175675143
 31
0.0
  0
INSERT
  5
4E6E
  8
AM_5
 62
     0
  2
_OPEN30
 10
436.3632654638759
 20
594.76378175675143
 30
0.0
 41
2.8999999999999999
 42
2.8999999999999999
 43
2.8999999999999999
 50
90.0
  0
INSERT
  5
4E6F
  8
AM_5
 62
     0
  2
_OPEN30
 10
436.3632654638759
 20
525.36378175675145
 30
0.0
 41
2.8999999999999999
 42
2.8999999999999999
 43
2.8999999999999999
 50
270.0
  0
TEXT
  5
4E90
  8
AM_5
 62
     0
 10
425.363
 20
552.98400000000004
 30
0.0
 40
4.0
  1
69.4
  0
POINT
  5
4E71
  8
DEFPOINTS
 62
     0
 10
424.92979768685342
 20
594.76378175675143
 30
0.0
  0
POINT
  5
4E72
  8
DEFPOINTS
 62
     0
 10
425.92979768685359
 20
525.36378175675145
 30
0.0
  0
POINT
  5
4E73
  8
DEFPOINTS
 62
     0
 10
436.3632654638759
 20
525.36378175675145
 30
0.0
  0
ENDBLK
  5
4D89
  8
0
  0
BLOCK
  8
0
  2
*D47
 70
     1
 10
0.0
 20
0.0
 30
0.0
  3
*D47
  1

  0
LINE
  5
4E74
  8
AM_5
 62
     0
 10
425.92979768685342
 20
595.03378173767805
 30
0.0
 11
425.92979768685342
 21
608.9998538784896
 31
0.0
  0
LINE
  5
4E75
  8
AM_5
 62
     0
 10
370.92979768685348
 20
595.03378173767805
 30
0.0
 11
370.92979768685348
 21
608.9998538784896
 31
0.0
  0
LINE
  5
4E76
  8
AM_5
 62
     0
 10
423.02979768685339
 20
607.79985383080566
 30
0.0
 11
373.82979768685351
 21
607.79985383080566
 31
0.0
  0
INSERT
  5
4E77
  8
AM_5
 62
     0
  2
_OPEN30
 10
425.92979768685342
 20
607.79985383080566
 30
0.0
 41
2.8999999999999999
 42
2.8999999999999999
 43
2.8999999999999999
  0
INSERT
  5
4E78
  8
AM_5
 62
     0
  2
_OPEN30
 10
370.92979768685348
 20
607.79985383080566
 30
0.0
 41
2.8999999999999999
 42
2.8999999999999999
 43
2.8999999999999999
 50
180.0
  0
TEXT
  5
4E91
  8
AM_5
 62
     0
 10
390.43000000000001
 20
603.72000000000003
 30
0.0
 40
4.0
  1
%%c55
  0
POINT
  5
4E7A
  8
DEFPOINTS
 62
     0
 10
425.92979768685342
 20
593.76378175675143
 30
0.0
  0
POINT
  5
4E7B
  8
DEFPOINTS
 62
     0
 10
370.92979768685348
 20
593.76378175675143
 30
0.0
  0
POINT
  5
4E7C
  8
DEFPOINTS
 62
     0
 10
370.92979768685348
 20
607.79985383080566
 30
0.0
  0
ENDBLK
  5
4D95
  8
0
  0
BLOCK
  8
0
  2
*D48
 70
     1
 10
0.0
 20
0.0
 30
0.0
  3
*D48
  1

  0
LINE
  5
4E7D
  8
AM_5
 62
     0
 10
370.65979770592708
 20
594.76378175675143
 30
0.0
 11
345.14712874243202
 21
594.76378175675143
 31
0.0
  0
LINE
  5
4E7E
  8
AM_5
 62
     0
 10
382.15979770592708
 20
481.7637817567516
 30
0.0
 11
345.14712874243202
 21
481.7637817567516
 31
0.0
  0
LINE
  5
4E7F
  8
AM_5
 62
     0
 10
346.34712879011568
 20
591.86378175675145
 30
0.0
 11
346.34712879011568
 21
484.66378175675158
 31
0.0
  0
INSERT
  5
4E80
  8
AM_5
 62
     0
  2
_OPEN30
 10
346.34712879011568
 20
594.76378175675143
 30
0.0
 41
2.8999999999999999
 42
2.8999999999999999
 43
2.8999999999999999
 50
90.0
  0
INSERT
  5
4E81
  8
AM_5
 62
     0
  2
_OPEN30
 10
346.34712879011568
 20
481.7637817567516
 30
0.0
 41
2.8999999999999999
 42
2.8999999999999999
 43
2.8999999999999999
 50
270.0
  0
TEXT
  5
4E92
  8
AM_5
 62
     0
 10
335.34699999999998
 20
531.18399999999997
 30
0.0
 40
4.0
  1
113
  0
POINT
  5
4E83
  8
DEFPOINTS
 62
     0
 10
371.92979768685348
 20
594.76378175675143
 30
0.0
  0
POINT
  5
4E84
  8
DEFPOINTS
 62
     0
 10
383.42979768685348
 20
481.7637817567516
 30
0.0
  0
POINT
  5
4E85
  8
DEFPOINTS
 62
     0
 10
346.34712879011568
 20
481.7637817567516
 30
0.0
  0
ENDBLK
  5
4DA1
  8
0
  0
BLOCK
  8
0
  2
*D49
 70
     1
 10
0.0
 20
0.0
 30
0.0
  3
*D49
  1

  0
LINE
  5
4E86
  8
AM_5
 62
     0
 10
487.58754802853372
 20
510.16378175675158
 30
0.0
 11
360.86152988460969
 21
510.16378175675158
 31
0.0
  0
LINE
  5
4E87
  8
AM_5
 62
     0
 10
493.93754650265481
 20
481.7637817567516
 30
0.0
 11
360.86152988460969
 21
481.7637817567516
 31
0.0
  0
LINE
  5
4E88
  8
AM_5
 62
     0
 10
362.06152993229352
 20
507.26378175675171
 30
0.0
 11
362.06152993229352
 21
484.66378175675158
 31
0.0
  0
INSERT
  5
4E89
  8
AM_5
 62
     0
  2
_OPEN30
 10
362.06152993229352
 20
510.16378175675158
 30
0.0
 41
2.8999999999999999
 42
2.8999999999999999
 43
2.8999999999999999
 50
90.0
  0
INSERT
  5
4E8A
  8
AM_5
 62
     0
  2
_OPEN30
 10
362.06152993229352
 20
481.7637817567516
 30
0.0
 41
2.8999999999999999
 42
2.8999999999999999
 43
2.8999999999999999
 50
270.0
  0
TEXT
  5
4E93
  8
AM_5
 62
     0
 10
350.86200000000002
 20
488.88400000000001
 30
0.0
 40
4.0
  1
(28.4)
  0
POINT
  5
4E8C
  8
DEFPOINTS
 62
     0
 10
488.85754800946017
 20
510.16378175675158
 30
0.0
  0
POINT
  5
4E8D
  8
DEFPOINTS
 62
     0
 10
495.20754648358138
 20
481.7637817567516
 30
0.0
  0
POINT
  5
4E8E
  8
DEFPOINTS
 62
     0
 10
362.06152993229352
 20
481.7637817567516
 30
0.0
  0
ENDBLK
  5
4DAD
  8
0
  0
BLOCK
  8
0
  2
*D51
 70
     1
 10
0.0
 20
0.0
 30
0.0
  3
*D51
  1

  0
LINE
  5
507C
  8
AM_5
 62
     0
 10
488.79504800946017
 20
510.16378175675158
 30
0.0
 11
361.8815299322934
 21
510.16378175675158
 31
0.0
  0
LINE
  5
507D
  8
AM_5
 62
     0
 10
495.14504648358132
 20
481.7637817567516
 30
0.0
 11
361.8815299322934
 21
481.76378175675171
 31
0.0
  0
LINE
  5
507E
  8
AM_5
 62
     0
 10
362.06152993229352
 20
509.98378175675163
 30
0.0
 11
362.06152993229352
 21
496.14378175675159
 31
0.0
  0
LINE
  5
507F
  8
AM_5
 62
     0
 10
362.06152993229352
 20
481.94378175675172
 30
0.0
 11
362.06152993229352
 21
495.78378175675169
 31
0.0
  0
INSERT
  5
5080
  8
AM_5
 62
     0
  2
_OPEN30
 10
362.06152993229352
 20
510.16378175675158
 30
0.0
 41
0.18
 42
0.18
 43
0.18
 50
90.0
  0
INSERT
  5
5081
  8
AM_5
 62
     0
  2
_OPEN30
 10
362.06152993229352
 20
481.76378175675171
 30
0.0
 41
0.18
 42
0.18
 43
0.18
 50
270.0
  0
INSERT
  5
5082
  8
PROFILE2
  2
*U59
 10
0.0
 20
0.0
 30
0.0
  0
POINT
  5
5083
  8
DEFPOINTS
 62
     0
 10
488.85754800946017
 20
510.16378175675158
 30
0.0
  0
POINT
  5
5084
  8
DEFPOINTS
 62
     0
 10
495.20754648358138
 20
481.7637817567516
 30
0.0
  0
POINT
  5
5085
  8
DEFPOINTS
 62
     0
 10
362.06152993229352
 20
481.76378175675171
 30
0.0
  0
ENDBLK
  5
5071
  8
0
  0
BLOCK
  8
0
  2
*D52
 70
     1
 10
0.0
 20
0.0
 30
0.0
  3
*D52
  1

  0
LINE
  5
5236
  8
AM_5
 62
     0
 10
370.65979770592708
 20
594.76378175675165
 30
0.0
 11
346.34695148100923
 21
594.76378175675165
 31
0.0
  0
LINE
  5
5237
  8
AM_5
 62
     0
 10
493.93754650265481
 20
481.7637817567516
 30
0.0
 11
346.34695148100923
 21
481.7637817567516
 31
0.0
  0
LINE
  5
5238
  8
AM_5
 62
     0
 10
347.54695152869289
 20
591.86378175675168
 30
0.0
 11
347.54695152869289
 21
484.66378175675158
 31
0.0
  0
INSERT
  5
5239
  8
AM_5
 62
     0
  2
_OPEN30
 10
347.54695152869289
 20
594.76378175675165
 30
0.0
 41
2.8999999999999999
 42
2.8999999999999999
 43
2.8999999999999999
 50
90.0
  0
INSERT
  5
523A
  8
AM_5
 62
     0
  2
_OPEN30
 10
347.54695152869289
 20
481.7637817567516
 30
0.0
 41
2.8999999999999999
 42
2.8999999999999999
 43
2.8999999999999999
 50
270.0
  0
TEXT
  8
AM_5
  40
4
  5
5265
  62
0
  72
0
  71
0
 10
336.547
 20
531.184
 30
0.000000
  1
113
  0
POINT
  5
523C
  8
DEFPOINTS
 62
     0
 10
371.92979768685359
 20
594.76378175675165
 30
0.0
  0
POINT
  5
523D
  8
DEFPOINTS
 62
     0
 10
495.20754648358138
 20
481.7637817567516
 30
0.0
  0
POINT
  5
523E
  8
DEFPOINTS
 62
     0
 10
347.54695152869289
 20
481.7637817567516
 30
0.0
  0
ENDBLK
  5
508A
  8
0
  0
BLOCK
  8
0
  2
*D53
 70
     1
 10
0.0
 20
0.0
 30
0.0
  3
*D53
  1

  0
LINE
  5
523F
  8
AM_5
 62
     0
 10
390.80979923180598
 20
510.16378175675158
 30
0.0
 11
356.34695148100923
 21
510.16378175675158
 31
0.0
  0
LINE
  5
5240
  8
AM_5
 62
     0
 10
382.15979770592708
 20
481.7637817567516
 30
0.0
 11
356.34695148100923
 21
481.7637817567516
 31
0.0
  0
LINE
  5
5241
  8
AM_5
 62
     0
 10
357.54695152869289
 20
507.26378175675171
 30
0.0
 11
357.54695152869289
 21
484.66378175675158
 31
0.0
  0
INSERT
  5
5242
  8
AM_5
 62
     0
  2
_OPEN30
 10
357.54695152869289
 20
510.16378175675158
 30
0.0
 41
2.8999999999999999
 42
2.8999999999999999
 43
2.8999999999999999
 50
90.0
  0
INSERT
  5
5243
  8
AM_5
 62
     0
  2
_OPEN30
 10
357.54695152869289
 20
481.7637817567516
 30
0.0
 41
2.8999999999999999
 42
2.8999999999999999
 43
2.8999999999999999
 50
270.0
  0
TEXT
  8
AM_5
  40
4
  5
5266
  62
0
  72
0
  71
0
 10
346.347
 20
488.884
 30
0.000000
  1
(28.4)
  0
POINT
  5
5245
  8
DEFPOINTS
 62
     0
 10
392.07979921273261
 20
510.16378175675158
 30
0.0
  0
POINT
  5
5246
  8
DEFPOINTS
 62
     0
 10
383.4297976868537
 20
481.7637817567516
 30
0.0
  0
POINT
  5
5247
  8
DEFPOINTS
 62
     0
 10
357.54695152869289
 20
481.7637817567516
 30
0.0
  0
ENDBLK
  5
50BB
  8
0
  0
BLOCK
  8
0
  2
*D54
 70
     1
 10
0.0
 20
0.0
 30
0.0
  3
*D54
  1

  0
LINE
  5
5248
  8
AM_5
 62
     0
 10
426.1997976677801
 20
594.76378175675165
 30
0.0
 11
439.60902025095061
 21
594.76378175675165
 31
0.0
  0
LINE
  5
5249
  8
AM_5
 62
     0
 10
427.19979766778022
 20
525.36378175675145
 30
0.0
 11
439.60902025095061
 21
525.36378175675145
 31
0.0
  0
LINE
  5
524A
  8
AM_5
 62
     0
 10
438.40902020326689
 20
591.86378175675168
 30
0.0
 11
438.40902020326689
 21
528.26378175675154
 31
0.0
  0
INSERT
  5
524B
  8
AM_5
 62
     0
  2
_OPEN30
 10
438.40902020326689
 20
594.76378175675165
 30
0.0
 41
2.8999999999999999
 42
2.8999999999999999
 43
2.8999999999999999
 50
90.0
  0
INSERT
  5
524C
  8
AM_5
 62
     0
  2
_OPEN30
 10
438.40902020326689
 20
525.36378175675145
 30
0.0
 41
2.8999999999999999
 42
2.8999999999999999
 43
2.8999999999999999
 50
270.0
  0
TEXT
  8
AM_5
  40
4
  5
5267
  62
0
  72
0
  71
0
 10
427.409
 20
552.984
 30
0.000000
  1
69.4
  0
POINT
  5
524E
  8
DEFPOINTS
 62
     0
 10
424.92979768685359
 20
594.76378175675165
 30
0.0
  0
POINT
  5
524F
  8
DEFPOINTS
 62
     0
 10
425.9297976868537
 20
525.36378175675145
 30
0.0
  0
POINT
  5
5250
  8
DEFPOINTS
 62
     0
 10
438.40902020326689
 20
525.36378175675145
 30
0.0
  0
ENDBLK
  5
50EC
  8
0
  0
BLOCK
  8
0
  2
*D55
 70
     1
 10
0.0
 20
0.0
 30
0.0
  3
*D55
  1

  0
LINE
  5
5251
  8
AM_5
 62
     0
 10
426.1997976677801
 20
594.76378175675165
 30
0.0
 11
439.60902025095061
 21
594.76378175675165
 31
0.0
  0
LINE
  5
5252
  8
AM_5
 62
     0
 10
418.9497976677801
 20
598.76378147064918
 30
0.0
 11
439.60902025095061
 21
598.76378147064918
 31
0.0
  0
LINE
  5
5253
  8
AM_5
 62
     0
 10
438.40902020326689
 20
591.86378175675168
 30
0.0
 11
438.40902020326689
 21
588.9637817567517
 31
0.0
  0
LINE
  5
5254
  8
AM_5
 62
     0
 10
438.40902020326689
 20
601.66378147064916
 30
0.0
 11
438.40902020326689
 21
608.56378147064925
 31
0.0
  0
LINE
  5
5255
  8
AM_5
 62
     0
 10
438.40902020326689
 20
594.76378175675165
 30
0.0
 11
438.40902020326689
 21
598.76378147064918
 31
0.0
  0
INSERT
  5
5256
  8
AM_5
 62
     0
  2
_OPEN30
 10
438.40902020326689
 20
594.76378175675165
 30
0.0
 41
2.8999999999999999
 42
2.8999999999999999
 43
2.8999999999999999
 50
90.0
  0
INSERT
  5
5257
  8
AM_5
 62
     0
  2
_OPEN30
 10
438.40902020326689
 20
598.76378147064918
 30
0.0
 41
2.8999999999999999
 42
2.8999999999999999
 43
2.8999999999999999
 50
270.0
  0
TEXT
  8
AM_5
  40
4
  5
5268
  62
0
  72
0
  71
0
 10
427.409
 20
599.484
 30
0.000000
  1
4
  0
POINT
  5
5259
  8
DEFPOINTS
 62
     0
 10
424.92979768685359
 20
594.76378175675165
 30
0.0
  0
POINT
  5
525A
  8
DEFPOINTS
 62
     0
 10
417.67979768685359
 20
598.76378147064918
 30
0.0
  0
POINT
  5
525B
  8
DEFPOINTS
 62
     0
 10
438.40902020326689
 20
598.76378147064918
 30
0.0
  0
ENDBLK
  5
510B
  8
0
  0
BLOCK
  8
0
  2
*D56
 70
     1
 10
0.0
 20
0.0
 30
0.0
  3
*D56
  1

  0
LINE
  5
525C
  8
AM_5
 62
     0
 10
425.92979768685359
 20
595.03378173767805
 30
0.0
 11
425.92979768685359
 21
608.83416171670137
 31
0.0
  0
LINE
  5
525D
  8
AM_5
 62
     0
 10
370.9297976868537
 20
595.03378173767805
 30
0.0
 11
370.9297976868537
 21
608.83416171670137
 31
0.0
  0
LINE
  5
525E
  8
AM_5
 62
     0
 10
423.02979768685361
 20
607.63416166901754
 30
0.0
 11
373.82979768685368
 21
607.63416166901754
 31
0.0
  0
INSERT
  5
525F
  8
AM_5
 62
     0
  2
_OPEN30
 10
425.92979768685359
 20
607.63416166901754
 30
0.0
 41
2.8999999999999999
 42
2.8999999999999999
 43
2.8999999999999999
  0
INSERT
  5
5260
  8
AM_5
 62
     0
  2
_OPEN30
 10
370.9297976868537
 20
607.63416166901754
 30
0.0
 41
2.8999999999999999
 42
2.8999999999999999
 43
2.8999999999999999
 50
180.0
  0
TEXT
  8
AM_5
  40
4
  5
5269
  62
0
  72
0
  71
0
 10
390.430
 20
603.554
 30
0.000000
  1
%%c55
  0
POINT
  5
5262
  8
DEFPOINTS
 62
     0
 10
425.92979768685359
 20
593.76378175675165
 30
0.0
  0
POINT
  5
5263
  8
DEFPOINTS
 62
     0
 10
370.9297976868537
 20
593.76378175675165
 30
0.0
  0
POINT
  5
5264
  8
DEFPOINTS
 62
     0
 10
370.9297976868537
 20
607.63416166901754
 30
0.0
  0
ENDBLK
  5
5161
  8
0
  0
BLOCK
  8
0
  2
*U57
 70
     1
 10
0.0
 20
0.0
 30
0.0
  3
*U57
  1

  0
TEXT
  5
522B
  8
PROFILE2
 62
     7
 10
584.83994822164345
 20
441.84513105254888
 30
0.0
 40
4.0
  1
GA0130-010-01C
  7
ULVAC
  0
ENDBLK
  5
522D
  8
0
  0
BLOCK
  8
0
  2
*U58
 70
     1
 10
0.0
 20
0.0
 30
0.0
  3
*U58
  1

  0
TEXT
  5
522F
  8
PROFILE2
 62
     7
 10
476.71773197149122
 20
596.11445548335485
 30
0.0
 40
4.0
  1
100D  13.3kPa   1/2   1/2"Pipe
  7
ULVAC
  0
ENDBLK
  5
5231
  8
0
  0
BLOCK
  8
0
  2
*U59
 70
     1
 10
0.0
 20
0.0
 30
0.0
  3
*U59
  1

  0
TEXT
  5
5233
  8
AM_5
 62
     0
 10
361.63552993229342
 20
495.87378175675161
 30
0.0
 40
0.18
  1
(28.4)
  7
ULVAC
  0
ENDBLK
  5
5235
  8
0
  0
ENDSEC
  0
SECTION
  2
ENTITIES
  0
INSERT
  5
4B72
  8
0
 62
     7
  2
*U17
 10
278.67703623442497
 20
374.60391083498411
 30
0.0
  0
INSERT
  5
4B73
  8
0
 62
     7
  2
*U18
 10
278.67703623442497
 20
374.60391083498411
 30
0.0
  0
INSERT
  5
4B74
  8
0
 62
     7
  2
*U19
 10
278.67703623442497
 20
382.69157808903623
 30
0.0
  0
INSERT
  5
4B75
  8
0
 62
     7
  2
NEWCCM-080827__7
 10
457.67302314266061
 20
481.76378175675143
 30
0.0
  0
INSERT
  5
4B76
  8
0
 62
     7
  2
NEWCCM-080827__6
 10
398.42979768685359
 20
510.16378175675158
 30
0.0
  0
INSERT
  5
4B77
  8
0
 62
     7
  2
NEWCCM-080827__1
 10
495.20754648358138
 20
510.16378175675158
 30
0.0
  0
INSERT
  5
4B78
  8
0
 62
     7
  2
NEWCCM-080827__2
 10
398.42979768685359
 20
510.96378175675159
 30
0.0
  0
INSERT
  5
4B79
  8
0
 62
     7
  2
*U20
 10
278.67703623442497
 20
382.69157808903623
 30
0.0
  0
INSERT
  5
4B7A
  8
0
 62
     7
  2
*U21
 10
278.67703623442497
 20
382.69157808903623
 30
0.0
  0
INSERT
  5
4B7B
  8
0
 62
     7
  2
*U22
 10
278.67703623442497
 20
382.69157808903623
 30
0.0
  0
INSERT
  5
4B7D
  8
0
 62
     7
  2
*U24
 10
278.67703623442497
 20
382.69157808903623
 30
0.0
  0
INSERT
  5
4B7E
  8
0
 62
     7
  2
*U25
 10
278.67703623442497
 20
382.69157808903623
 30
0.0
  0
POLYLINE
  5
4B7F
  8
0
 62
     7
 66
     1
 10
0.0
 20
0.0
 30
0.0
 70
     1
1001
GENIUS_GENREC_14
1002
{
1000
PYDIR
1011
469.82473079845931
1021
-8.9998573840683772E+061
1031
-8.9998573840683772E+061
1021
575.8338729214413
1031
0.0
1002
}
1002
{
1000
PXDIR
1011
577.24036187190814
1021
-8.9998573840683772E+061
1031
-8.9998573840683772E+061
1021
621.4629755749196
1031
0.0
1002
}
1002
{
1000
PORI
1011
469.82473079845931
1021
-8.9998573840683772E+061
1031
-8.9998573840683772E+061
1021
621.4629755749196
1031
0.0
1002
}
1002
{
1000
PINS
1011
469.82473079845931
1021
-8.9998573840683772E+061
1031
-8.9998573840683772E+061
1021
621.4629755749196
1031
0.0
1002
}
1002
{
1000
PINS2
1011
577.24036187190814
1021
-8.9998573840683772E+061
1031
-8.9998573840683772E+061
1021
575.8338729214413
1031
0.0
1002
}
1002
{
1000
C
1070
     1
1002
}
1001
GENIUS_GENODEF_13
1002
{
1000
HIER
1070
     0
1002
}
1002
{
1000
MANEDIT
1070
     0
1002
}
1002
{
1000
NOSEL
1070
     0
1002
}
1002
{
1000
BEHIND
1070
     0
1002
}
1002
{
1000
OTHER
1070
     0
1002
}
1002
{
1000
REACTOR
1002
}
1001
GENIUS_GENOBJ-N-REC_13
1002
{
1000
OWNER
1000
GEN
1002
}
  0
VERTEX
  5
4B80
  8
0
 62
     7
 10
469.82473079845931
 20
621.4629755749196
 30
0.0
  0
VERTEX
  5
4B81
  8
0
 62
     7
 10
577.24036187190814
 20
621.4629755749196
 30
0.0
  0
VERTEX
  5
4B82
  8
0
 62
     7
 10
577.24036187190814
 20
575.8338729214413
 30
0.0
  0
VERTEX
  5
4B83
  8
0
 62
     7
 10
469.82473079845931
 20
575.8338729214413
 30
0.0
  0
SEQEND
  5
4B84
  8
0
 62
     7
  0
LINE
  5
4B85
  8
0
 62
     7
 10
523.53254633518395
 20
621.4629755749196
 30
0.0
 11
523.53254633518395
 21
575.8338729214413
 31
0.0
  0
LINE
  5
4B86
  8
0
 62
     7
 10
469.82473079845931
 20
611.97446418022105
 30
0.0
 11
577.24036187190814
 21
611.97446418022105
 31
0.0
  0
LINE
  5
4B87
  8
0
 62
     7
 10
469.82473079845931
 20
602.67094543295855
 30
0.0
 11
577.24036187190814
 21
602.67094543295855
 31
0.0
  0
LINE
  5
4B88
  8
0
 62
     7
 10
469.82473079845931
 20
593.72525459578617
 30
0.0
 11
577.24036187190814
 21
593.72525459578617
 31
0.0
  0
LINE
  5
4B89
  8
0
 62
     7
 10
469.82473079845931
 20
584.77956375861379
 30
0.0
 11
577.24036187190814
 21
584.77956375861379
 31
0.0
  0
LINE
  5
4B8A
  8
0
 62
     7
 10
544.33237054488143
 20
621.4629755749196
 30
0.0
 11
544.33237054488143
 21
575.8338729214413
 31
0.0
  0
LINE
  5
4B8B
  8
0
 62
     7
 10
492.24512312819002
 20
621.4629755749196
 30
0.0
 11
492.24512312819002
 21
575.8338729214413
 31
0.0
  0
LINE
  5
4B8C
  8
0
 62
     7
 10
376.48119199942289
 20
591.25980781167368
 30
0.0
 11
422.48119199942278
 21
591.25980781167368
 31
0.0
  0
LINE
  5
4B8D
  8
0
 62
     7
 10
422.48119199942278
 20
528.2598078116738
 30
0.0
 11
376.48119199942289
 21
528.2598078116738
 31
0.0
  0
INSERT
  5
4B8E
  8
0
 62
     7
  2
GA0128-370-01B___4
 10
399.57567523251981
 20
585.05562103584725
 30
0.0
 41
0.6400000000000148
 42
0.6399999999999864
 43
0.6400000000000004
  0
LINE
  5
4B8F
  8
0
 62
     7
 10
422.48119199942278
 20
533.25980781167368
 30
0.0
 11
376.48119199942289
 21
533.25980781167368
 31
0.0
  0
INSERT
  5
4B90
  8
0
 62
     7
  2
*U26
 10
278.67703623442497
 20
382.69157808903623
 30
0.0
  0
INSERT
  5
4B91
  8
0
 62
     7
  2
*U27
 10
278.67703623442497
 20
382.69157808903623
 30
0.0
  0
LINE
  5
4B92
  8
0
 62
     7
 10
376.48119199942289
 20
590.25980781167391
 30
0.0
 11
422.48119199942278
 21
590.25980781167368
 31
0.0
  0
LINE
  5
4B93
  8
0
 62
     7
 10
376.48119199942289
 20
533.25980781167368
 30
0.0
 11
376.48119199942289
 21
528.2598078116738
 31
0.0
  0
LINE
  5
4B94
  8
0
 62
     7
 10
422.48119199942278
 20
528.2598078116738
 30
0.0
 11
422.48119199942278
 21
533.25980781167368
 31
0.0
  0
LINE
  5
4B95
  8
0
 62
     7
 10
422.48119199942278
 20
591.25980781167368
 30
0.0
 11
422.48119199942278
 21
590.25980781167368
 31
0.0
  0
LINE
  5
4B96
  8
0
 62
     7
 10
376.48119199942289
 20
591.25980781167368
 30
0.0
 11
376.48119199942289
 21
590.25980781167391
 31
0.0
  0
INSERT
  5
4B97
  8
0
  6
BYBLOCK
 62
     7
  2
*U13
 10
499.0321961962008
 20
546.83588067219625
 30
0.0
 41
0.5
 42
0.5
 43
0.5
  0
INSERT
  5
4B98
  8
0
  6
BYBLOCK
 62
     7
  2
*U11
 10
499.0321961962008
 20
546.83588067219625
 30
0.0
 41
0.5
 42
0.5
 43
0.5
  0
POINT
  5
4B99
  8
0
  6
CONTINUOUS
 62
     7
 10
641.82219619620048
 20
437.72324917219618
 30
0.0
  0
LINE
  5
4B9A
  8
0
  6
CONTINUOUS
 62
     7
 10
567.82219619620105
 20
448.72324917219629
 30
0.0
 11
567.82219619620105
 21
437.72324917219618
 31
0.0
  0
LINE
  5
4B9B
  8
0
  6
CONTINUOUS
 62
     7
 10
578.82219619620105
 20
437.72324917219618
 30
0.0
 11
578.82219619620105
 21
448.72324917219629
 31
0.0
  0
LINE
  5
4B9C
  8
0
  6
CONTINUOUS
 62
     7
 10
530.82219619620105
 20
462.72324917219618
 30
0.0
 11
567.82219619620105
 21
462.72324917219618
 31
0.0
  0
LINE
  5
4B9D
  8
0
  6
CONTINUOUS
 62
     7
 10
530.82219619620105
 20
473.72324917219629
 30
0.0
 11
530.82219619620105
 21
462.72324917219618
 31
0.0
  0
LINE
  5
4B9E
  8
0
  6
CONTINUOUS
 62
     7
 10
567.82219619620105
 20
473.72324917219629
 30
0.0
 11
567.82219619620105
 21
437.72324917219618
 31
0.0
  0
LINE
  5
4B9F
  8
0
  6
CONTINUOUS
 62
     7
 10
530.82219619620105
 20
473.72324917219629
 30
0.0
 11
641.82219619620048
 21
473.72324917219629
 31
0.0
  0
LINE
  5
4BA0
  8
0
  6
CONTINUOUS
 62
     7
 10
567.82219619620105
 20
448.72324917219629
 30
0.0
 11
641.82219619620048
 21
448.72324917219629
 31
0.0
  0
LINE
  5
4BA1
  8
0
  6
CONTINUOUS
 62
     7
 10
641.82219619620048
 20
437.72324917219618
 30
0.0
 11
641.82219619620048
 21
473.72324917219629
 31
0.0
  0
LINE
  5
4BA2
  8
0
  6
CONTINUOUS
 62
     7
 10
567.82219619620105
 20
437.72324917219618
 30
0.0
 11
641.82219619620048
 21
437.72324917219618
 31
0.0
  0
LINE
  5
4BA3
  8
0
  6
CONTINUOUS
 62
     7
 10
564.67032019620092
 20
467.38864817219633
 30
0.0
 11
565.26694819620081
 21
467.38864817219633
 31
0.0
  0
LINE
  5
4BA4
  8
0
  6
CONTINUOUS
 62
     7
 10
564.72015419620107
 20
468.87435117219633
 30
0.0
 11
565.37125519620088
 21
468.87435117219633
 31
0.0
  0
ARC
  5
4BA5
  8
0
  6
CONTINUOUS
 62
     7
 10
564.75662419620085
 20
470.21711717219608
 30
0.0
 40
0.366029
 50
230.50994400000209
 51
341.64815300000078
  0
LINE
  5
4BA6
  8
0
  6
CONTINUOUS
 62
     7
 10
565.10403719620069
 20
470.10187317219629
 30
0.0
 11
565.30407719620075
 21
470.70490617219627
 31
0.0
  0
ARC
  5
4BA7
  8
0
  6
CONTINUOUS
 62
     7
 10
565.31689119620069
 20
470.68660517219632
 30
0.0
 40
0.018302
 50
90.0
 51
150.00044000000071
  0
ARC
  5
4BA8
  8
0
  6
CONTINUOUS
 62
     7
 10
565.35518619620075
 20
470.68660517219632
 30
0.0
 40
0.018302
 50
0.0
 51
90.0
  0
LINE
  5
4BA9
  8
0
  6
CONTINUOUS
 62
     7
 10
565.31689119620069
 20
470.70490617219627
 30
0.0
 11
565.35518619620075
 21
470.70490617219627
 31
0.0
  0
LINE
  5
4BAA
  8
0
  6
CONTINUOUS
 62
     7
 10
565.3734871962007
 20
470.68660517219632
 30
0.0
 11
565.3734871962007
 21
468.87435117219633
 31
0.0
  0
POLYLINE
  5
4BAB
  8
0
  6
CONTINUOUS
 62
     7
 66
     1
 10
0.0
 20
0.0
 30
0.0
  0
VERTEX
  5
4BAC
  8
0
  6
CONTINUOUS
 62
     7
 10
564.72019619620085
 20
468.87438067219631
 30
0.0
  0
VERTEX
  5
4BAD
  8
0
  6
CONTINUOUS
 62
     7
 10
564.67719619620095
 20
468.93588067219622
 30
0.0
  0
VERTEX
  5
4BAE
  8
0
  6
CONTINUOUS
 62
     7
 10
564.6311961962009
 20
468.99638067219632
 30
0.0
  0
VERTEX
  5
4BAF
  8
0
  6
CONTINUOUS
 62
     7
 10
564.58119619620095
 20
469.05538067219629
 30
0.0
  0
VERTEX
  5
4BB0
  8
0
  6
CONTINUOUS
 62
     7
 10
564.52819619620107
 20
469.11288067219618
 30
0.0
  0
VERTEX
  5
4BB1
  8
0
  6
CONTINUOUS
 62
     7
 10
564.47169619620058
 20
469.16838067219629
 30
0.0
  0
VERTEX
  5
4BB2
  8
0
  6
CONTINUOUS
 62
     7
 10
564.41219619620085
 20
469.22238067219632
 30
0.0
  0
VERTEX
  5
4BB3
  8
0
  6
CONTINUOUS
 62
     7
 10
564.34969619620085
 20
469.27438067219629
 30
0.0
  0
VERTEX
  5
4BB4
  8
0
  6
CONTINUOUS
 62
     7
 10
564.28419619620058
 20
469.32488067219617
 30
0.0
  0
VERTEX
  5
4BB5
  8
0
  6
CONTINUOUS
 62
     7
 10
564.21569619620095
 20
469.37288067219629
 30
0.0
  0
VERTEX
  5
4BB6
  8
0
  6
CONTINUOUS
 62
     7
 10
564.1446961962007
 20
469.41888067219622
 30
0.0
  0
VERTEX
  5
4BB7
  8
0
  6
CONTINUOUS
 62
     7
 10
564.07069619620086
 20
469.46288067219632
 30
0.0
  0
VERTEX
  5
4BB8
  8
0
  6
CONTINUOUS
 62
     7
 10
563.99469619620095
 20
469.50438067219631
 30
0.0
  0
VERTEX
  5
4BB9
  8
0
  6
CONTINUOUS
 62
     7
 10
563.915696196201
 20
469.54388067219628
 30
0.0
  0
VERTEX
  5
4BBA
  8
0
  6
CONTINUOUS
 62
     7
 10
563.83519619620085
 20
469.58038067219633
 30
0.0
  0
VERTEX
  5
4BBB
  8
0
  6
CONTINUOUS
 62
     7
 10
563.752196196201
 20
469.61488067219619
 30
0.0
  0
VERTEX
  5
4BBC
  8
0
  6
CONTINUOUS
 62
     7
 10
563.66769619620095
 20
469.64688067219629
 30
0.0
  0
VERTEX
  5
4BBD
  8
0
  6
CONTINUOUS
 62
     7
 10
563.58069619620107
 20
469.67638067219622
 30
0.0
  0
VERTEX
  5
4BBE
  8
0
  6
CONTINUOUS
 62
     7
 10
563.49269619620077
 20
469.70288067219622
 30
0.0
  0
VERTEX
  5
4BBF
  8
0
  6
CONTINUOUS
 62
     7
 10
563.40319619620095
 20
469.72688067219627
 30
0.0
  0
VERTEX
  5
4BC0
  8
0
  6
CONTINUOUS
 62
     7
 10
563.3121961962006
 20
469.74788067219629
 30
0.0
  0
VERTEX
  5
4BC1
  8
0
  6
CONTINUOUS
 62
     7
 10
563.22019619620085
 20
469.76638067219608
 30
0.0
  0
VERTEX
  5
4BC2
  8
0
  6
CONTINUOUS
 62
     7
 10
563.12669619620101
 20
469.78238067219633
 30
0.0
  0
VERTEX
  5
4BC3
  8
0
  6
CONTINUOUS
 62
     7
 10
563.03319619620095
 20
469.7953806721963
 30
0.0
  0
VERTEX
  5
4BC4
  8
0
  6
CONTINUOUS
 62
     7
 10
562.93819619620081
 20
469.80538067219612
 30
0.0
  0
VERTEX
  5
4BC5
  8
0
  6
CONTINUOUS
 62
     7
 10
562.84319619620078
 20
469.8123806721963
 30
0.0
  0
VERTEX
  5
4BC6
  8
0
  6
CONTINUOUS
 62
     7
 10
562.7476961962011
 20
469.81688067219619
 30
0.0
  0
VERTEX
  5
4BC7
  8
0
  6
CONTINUOUS
 62
     7
 10
562.65219619620075
 20
469.81788067219622
 30
0.0
  0
VERTEX
  5
4BC8
  8
0
  6
CONTINUOUS
 62
     7
 10
562.55669619620085
 20
469.81638067219632
 30
0.0
  0
VERTEX
  5
4BC9
  8
0
  6
CONTINUOUS
 62
     7
 10
562.46119619620094
 20
469.8123806721963
 30
0.0
  0
VERTEX
  5
4BCA
  8
0
  6
CONTINUOUS
 62
     7
 10
562.36619619620069
 20
469.8048806721963
 30
0.0
  0
VERTEX
  5
4BCB
  8
0
  6
CONTINUOUS
 62
     7
 10
562.27169619620099
 20
469.79488067219643
 30
0.0
  0
VERTEX
  5
4BCC
  8
0
  6
CONTINUOUS
 62
     7
 10
562.17769619620083
 20
469.78188067219611
 30
0.0
  0
VERTEX
  5
4BCD
  8
0
  6
CONTINUOUS
 62
     7
 10
562.08469619620075
 20
469.76638067219608
 30
0.0
  0
VERTEX
  5
4BCE
  8
0
  6
CONTINUOUS
 62
     7
 10
561.992696196201
 20
469.74788067219629
 30
0.0
  0
VERTEX
  5
4BCF
  8
0
  6
CONTINUOUS
 62
     7
 10
561.90169619620076
 20
469.72638067219623
 30
0.0
  0
VERTEX
  5
4BD0
  8
0
  6
CONTINUOUS
 62
     7
 10
561.81219619620094
 20
469.70238067219623
 30
0.0
  0
VERTEX
  5
4BD1
  8
0
  6
CONTINUOUS
 62
     7
 10
561.72369619620076
 20
469.67588067219617
 30
0.0
  0
VERTEX
  5
4BD2
  8
0
  6
CONTINUOUS
 62
     7
 10
561.6371961962011
 20
469.6463806721963
 30
0.0
  0
VERTEX
  5
4BD3
  8
0
  6
CONTINUOUS
 62
     7
 10
561.55269619620083
 20
469.61438067219638
 30
0.0
  0
VERTEX
  5
4BD4
  8
0
  6
CONTINUOUS
 62
     7
 10
561.46969619620086
 20
469.57988067219623
 30
0.0
  0
VERTEX
  5
4BD5
  8
0
  6
CONTINUOUS
 62
     7
 10
561.38919619620106
 20
469.54338067219629
 30
0.0
  0
VERTEX
  5
4BD6
  8
0
  6
CONTINUOUS
 62
     7
 10
561.31069619620075
 20
469.50388067219637
 30
0.0
  0
VERTEX
  5
4BD7
  8
0
  6
CONTINUOUS
 62
     7
 10
561.23419619620086
 20
469.46238067219622
 30
0.0
  0
VERTEX
  5
4BD8
  8
0
  6
CONTINUOUS
 62
     7
 10
561.16069619620112
 20
469.41838067219618
 30
0.0
  0
VERTEX
  5
4BD9
  8
0
  6
CONTINUOUS
 62
     7
 10
561.0891961962011
 20
469.3723806721963
 30
0.0
  0
VERTEX
  5
4BDA
  8
0
  6
CONTINUOUS
 62
     7
 10
561.02119619620089
 20
469.32388067219631
 30
0.0
  0
VERTEX
  5
4BDB
  8
0
  6
CONTINUOUS
 62
     7
 10
560.95519619620075
 20
469.2738806721963
 30
0.0
  0
VERTEX
  5
4BDC
  8
0
  6
CONTINUOUS
 62
     7
 10
560.89269619620086
 20
469.22188067219622
 30
0.0
  0
VERTEX
  5
4BDD
  8
0
  6
CONTINUOUS
 62
     7
 10
560.8331961962009
 20
469.1678806721963
 30
0.0
  0
VERTEX
  5
4BDE
  8
0
  6
CONTINUOUS
 62
     7
 10
560.77719619620075
 20
469.11188067219638
 30
0.0
  0
VERTEX
  5
4BDF
  8
0
  6
CONTINUOUS
 62
     7
 10
560.72369619620088
 20
469.0543806721962
 30
0.0
  0
VERTEX
  5
4BE0
  8
0
  6
CONTINUOUS
 62
     7
 10
560.67419619620091
 20
468.99588067219622
 30
0.0
  0
VERTEX
  5
4BE1
  8
0
  6
CONTINUOUS
 62
     7
 10
560.62819619620075
 20
468.93538067219612
 30
0.0
  0
VERTEX
  5
4BE2
  8
0
  6
CONTINUOUS
 62
     7
 10
560.58519619620085
 20
468.87338067219628
 30
0.0
  0
VERTEX
  5
4BE3
  8
0
  6
CONTINUOUS
 62
     7
 10
560.54619619620075
 20
468.81038067219617
 30
0.0
  0
VERTEX
  5
4BE4
  8
0
  6
CONTINUOUS
 62
     7
 10
560.51069619620068
 20
468.74638067219632
 30
0.0
  0
VERTEX
  5
4BE5
  8
0
  6
CONTINUOUS
 62
     7
 10
560.47919619620075
 20
468.68138067219633
 30
0.0
  0
VERTEX
  5
4BE6
  8
0
  6
CONTINUOUS
 62
     7
 10
560.45119619620095
 20
468.6153806721963
 30
0.0
  0
VERTEX
  5
4BE7
  8
0
  6
CONTINUOUS
 62
     7
 10
560.42719619620107
 20
468.54838067219617
 30
0.0
  0
VERTEX
  5
4BE8
  8
0
  6
CONTINUOUS
 62
     7
 10
560.40719619620086
 20
468.48138067219628
 30
0.0
  0
VERTEX
  5
4BE9
  8
0
  6
CONTINUOUS
 62
     7
 10
560.39069619620079
 20
468.4133806721963
 30
0.0
  0
VERTEX
  5
4BEA
  8
0
  6
CONTINUOUS
 62
     7
 10
560.37869619620085
 20
468.34488067219621
 30
0.0
  0
VERTEX
  5
4BEB
  8
0
  6
CONTINUOUS
 62
     7
 10
560.37019619620105
 20
468.27588067219631
 30
0.0
  0
VERTEX
  5
4BEC
  8
0
  6
CONTINUOUS
 62
     7
 10
560.36619619620046
 20
468.20688067219629
 30
0.0
  0
VERTEX
  5
4BED
  8
0
  6
CONTINUOUS
 62
     7
 10
560.36569619620093
 20
468.13838067219638
 30
0.0
  0
VERTEX
  5
4BEE
  8
0
  6
CONTINUOUS
 62
     7
 10
560.36919619620085
 20
468.06938067219608
 30
0.0
  0
VERTEX
  5
4BEF
  8
0
  6
CONTINUOUS
 62
     7
 10
560.37719619620111
 20
468.00038067219629
 30
0.0
  0
VERTEX
  5
4BF0
  8
0
  6
CONTINUOUS
 62
     7
 10
560.38869619620095
 20
467.93188067219643
 30
0.0
  0
VERTEX
  5
4BF1
  8
0
  6
CONTINUOUS
 62
     7
 10
560.40419619620093
 20
467.86388067219622
 30
0.0
  0
VERTEX
  5
4BF2
  8
0
  6
CONTINUOUS
 62
     7
 10
560.42369619620081
 20
467.79638067219628
 30
0.0
  0
VERTEX
  5
4BF3
  8
0
  6
CONTINUOUS
 62
     7
 10
560.44719619620082
 20
467.72938067219633
 30
0.0
  0
VERTEX
  5
4BF4
  8
0
  6
CONTINUOUS
 62
     7
 10
560.47469619620097
 20
467.6633806721963
 30
0.0
  0
VERTEX
  5
4BF5
  8
0
  6
CONTINUOUS
 62
     7
 10
560.5056961962008
 20
467.59788067219631
 30
0.0
  0
VERTEX
  5
4BF6
  8
0
  6
CONTINUOUS
 62
     7
 10
560.5401961962009
 20
467.53388067219629
 30
0.0
  0
VERTEX
  5
4BF7
  8
0
  6
CONTINUOUS
 62
     7
 10
560.57869619620078
 20
467.47088067219607
 30
0.0
  0
VERTEX
  5
4BF8
  8
0
  6
CONTINUOUS
 62
     7
 10
560.62119619620091
 20
467.40888067219629
 30
0.0
  0
VERTEX
  5
4BF9
  8
0
  6
CONTINUOUS
 62
     7
 10
560.66669619620075
 20
467.3483806721963
 30
0.0
  0
VERTEX
  5
4BFA
  8
0
  6
CONTINUOUS
 62
     7
 10
560.71569619620107
 20
467.28888067219629
 30
0.0
  0
VERTEX
  5
4BFB
  8
0
  6
CONTINUOUS
 62
     7
 10
560.76819619620085
 20
467.23138067219622
 30
0.0
  0
VERTEX
  5
4BFC
  8
0
  6
CONTINUOUS
 62
     7
 10
560.824196196201
 20
467.17538067219613
 30
0.0
  0
VERTEX
  5
4BFD
  8
0
  6
CONTINUOUS
 62
     7
 10
560.88319619620086
 20
467.12088067219628
 30
0.0
  0
VERTEX
  5
4BFE
  8
0
  6
CONTINUOUS
 62
     7
 10
560.94519619620075
 20
467.06838067219633
 30
0.0
  0
VERTEX
  5
4BFF
  8
0
  6
CONTINUOUS
 62
     7
 10
561.01019619620081
 20
467.01788067219621
 30
0.0
  0
VERTEX
  5
4C00
  8
0
  6
CONTINUOUS
 62
     7
 10
561.07819619620079
 20
466.96938067219622
 30
0.0
  0
VERTEX
  5
4C01
  8
0
  6
CONTINUOUS
 62
     7
 10
561.14919619620105
 20
466.92338067219629
 30
0.0
  0
VERTEX
  5
4C02
  8
0
  6
CONTINUOUS
 62
     7
 10
561.22219619620091
 20
466.87888067219637
 30
0.0
  0
VERTEX
  5
4C03
  8
0
  6
CONTINUOUS
 62
     7
 10
561.29819619620105
 20
466.83688067219629
 30
0.0
  0
VERTEX
  5
4C04
  8
0
  6
CONTINUOUS
 62
     7
 10
561.37669619620078
 20
466.7973806721962
 30
0.0
  0
VERTEX
  5
4C05
  8
0
  6
CONTINUOUS
 62
     7
 10
561.45669619620094
 20
466.75988067219618
 30
0.0
  0
VERTEX
  5
4C06
  8
0
  6
CONTINUOUS
 62
     7
 10
561.53919619620046
 20
466.72488067219609
 30
0.0
  0
VERTEX
  5
4C07
  8
0
  6
CONTINUOUS
 62
     7
 10
561.62369619620085
 20
466.69288067219622
 30
0.0
  0
VERTEX
  5
4C08
  8
0
  6
CONTINUOUS
 62
     7
 10
561.71019619620085
 20
466.66288067219642
 30
0.0
  0
VERTEX
  5
4C09
  8
0
  6
CONTINUOUS
 62
     7
 10
561.79819619620082
 20
466.63588067219632
 30
0.0
  0
VERTEX
  5
4C0A
  8
0
  6
CONTINUOUS
 62
     7
 10
561.88719619620088
 20
466.61138067219628
 30
0.0
  0
VERTEX
  5
4C0B
  8
0
  6
CONTINUOUS
 62
     7
 10
561.978196196201
 20
466.58988067219622
 30
0.0
  0
VERTEX
  5
4C0C
  8
0
  6
CONTINUOUS
 62
     7
 10
562.07019619620075
 20
466.57088067219632
 30
0.0
  0
VERTEX
  5
4C0D
  8
0
  6
CONTINUOUS
 62
     7
 10
562.16319619620094
 20
466.55438067219632
 30
0.0
  0
VERTEX
  5
4C0E
  8
0
  6
CONTINUOUS
 62
     7
 10
562.25669619620112
 20
466.54138067219628
 30
0.0
  0
VERTEX
  5
4C0F
  8
0
  6
CONTINUOUS
 62
     7
 10
562.35119619620082
 20
466.5308806721963
 30
0.0
  0
VERTEX
  5
4C10
  8
0
  6
CONTINUOUS
 62
     7
 10
562.44619619620084
 20
466.52288067219621
 30
0.0
  0
VERTEX
  5
4C11
  8
0
  6
CONTINUOUS
 62
     7
 10
562.54169619620097
 20
466.51838067219609
 30
0.0
  0
VERTEX
  5
4C12
  8
0
  6
CONTINUOUS
 62
     7
 10
562.63719619620065
 20
466.51638067219631
 30
0.0
  0
VERTEX
  5
4C13
  8
0
  6
CONTINUOUS
 62
     7
 10
562.732696196201
 20
466.51738067219628
 30
0.0
  0
VERTEX
  5
4C14
  8
0
  6
CONTINUOUS
 62
     7
 10
562.82819619620091
 20
466.52088067219609
 30
0.0
  0
VERTEX
  5
4C15
  8
0
  6
CONTINUOUS
 62
     7
 10
562.92319619620105
 20
466.52788067219632
 30
0.0
  0
VERTEX
  5
4C16
  8
0
  6
CONTINUOUS
 62
     7
 10
563.01819619620085
 20
466.53738067219632
 30
0.0
  0
VERTEX
  5
4C17
  8
0
  6
CONTINUOUS
 62
     7
 10
563.11219619620078
 20
466.54988067219631
 30
0.0
  0
VERTEX
  5
4C18
  8
0
  6
CONTINUOUS
 62
     7
 10
563.20519619620075
 20
466.5648806721963
 30
0.0
  0
VERTEX
  5
4C19
  8
0
  6
CONTINUOUS
 62
     7
 10
563.29769619620095
 20
466.58338067219643
 30
0.0
  0
VERTEX
  5
4C1A
  8
0
  6
CONTINUOUS
 62
     7
 10
563.38869619620095
 20
466.60388067219628
 30
0.0
  0
VERTEX
  5
4C1B
  8
0
  6
CONTINUOUS
 62
     7
 10
563.4786961962011
 20
466.6273806721963
 30
0.0
  0
VERTEX
  5
4C1C
  8
0
  6
CONTINUOUS
 62
     7
 10
563.56719619620105
 20
466.65388067219629
 30
0.0
  0
VERTEX
  5
4C1D
  8
0
  6
CONTINUOUS
 62
     7
 10
563.65369619620071
 20
466.68288067219618
 30
0.0
  0
VERTEX
  5
4C1E
  8
0
  6
CONTINUOUS
 62
     7
 10
563.73919619620085
 20
466.71438067219628
 30
0.0
  0
VERTEX
  5
4C1F
  8
0
  6
CONTINUOUS
 62
     7
 10
563.82219619620105
 20
466.74838067219622
 30
0.0
  0
VERTEX
  5
4C20
  8
0
  6
CONTINUOUS
 62
     7
 10
563.90319619620072
 20
466.78488067219632
 30
0.0
  0
VERTEX
  5
4C21
  8
0
  6
CONTINUOUS
 62
     7
 10
563.9821961962009
 20
466.82338067219632
 30
0.0
  0
VERTEX
  5
4C22
  8
0
  6
CONTINUOUS
 62
     7
 10
564.05869619620103
 20
466.86488067219642
 30
0.0
  0
VERTEX
  5
4C23
  8
0
  6
CONTINUOUS
 62
     7
 10
564.13319619620086
 20
466.9083806721963
 30
0.0
  0
VERTEX
  5
4C24
  8
0
  6
CONTINUOUS
 62
     7
 10
564.20469619620064
 20
466.95388067219642
 30
0.0
  0
VERTEX
  5
4C25
  8
0
  6
CONTINUOUS
 62
     7
 10
564.27369619620094
 20
467.00188067219608
 30
0.0
  0
VERTEX
  5
4C26
  8
0
  6
CONTINUOUS
 62
     7
 10
564.33969619620075
 20
467.05188067219638
 30
0.0
  0
VERTEX
  5
4C27
  8
0
  6
CONTINUOUS
 62
     7
 10
564.40269619620085
 20
467.10338067219629
 30
0.0
  0
VERTEX
  5
4C28
  8
0
  6
CONTINUOUS
 62
     7
 10
564.46269619620091
 20
467.15738067219621
 30
0.0
  0
VERTEX
  5
4C29
  8
0
  6
CONTINUOUS
 62
     7
 10
564.5196961962007
 20
467.21288067219609
 30
0.0
  0
VERTEX
  5
4C2A
  8
0
  6
CONTINUOUS
 62
     7
 10
564.57319619620091
 20
467.26988067219622
 30
0.0
  0
VERTEX
  5
4C2B
  8
0
  6
CONTINUOUS
 62
     7
 10
564.62369619620085
 20
467.32838067219632
 30
0.0
  0
VERTEX
  5
4C2C
  8
0
  6
CONTINUOUS
 62
     7
 10
564.67019619620078
 20
467.38888067219631
 30
0.0
  0
SEQEND
  5
4C2D
  8
0
  6
CONTINUOUS
 62
     7
  0
POLYLINE
  5
4C2E
  8
0
  6
CONTINUOUS
 62
     7
 66
     1
 10
0.0
 20
0.0
 30
0.0
  0
VERTEX
  5
4C2F
  8
0
  6
CONTINUOUS
 62
     7
 10
564.52369619620106
 20
469.9348806721963
 30
0.0
  0
VERTEX
  5
4C30
  8
0
  6
CONTINUOUS
 62
     7
 10
564.43219619620106
 20
470.00738067219612
 30
0.0
  0
VERTEX
  5
4C31
  8
0
  6
CONTINUOUS
 62
     7
 10
564.33719619620092
 20
470.07638067219642
 30
0.0
  0
VERTEX
  5
4C32
  8
0
  6
CONTINUOUS
 62
     7
 10
564.23819619620087
 20
470.14288067219621
 30
0.0
  0
VERTEX
  5
4C33
  8
0
  6
CONTINUOUS
 62
     7
 10
564.13619619620101
 20
470.20588067219632
 30
0.0
  0
VERTEX
  5
4C34
  8
0
  6
CONTINUOUS
 62
     7
 10
564.03119619620111
 20
470.26588067219632
 30
0.0
  0
VERTEX
  5
4C35
  8
0
  6
CONTINUOUS
 62
     7
 10
563.92319619620105
 20
470.3218806721963
 30
0.0
  0
VERTEX
  5
4C36
  8
0
  6
CONTINUOUS
 62
     7
 10
563.81219619620094
 20
470.37438067219642
 30
0.0
  0
VERTEX
  5
4C37
  8
0
  6
CONTINUOUS
 62
     7
 10
563.69869619620079
 20
470.42388067219628
 30
0.0
  0
VERTEX
  5
4C38
  8
0
  6
CONTINUOUS
 62
     7
 10
563.58319619620102
 20
470.46888067219618
 30
0.0
  0
VERTEX
  5
4C39
  8
0
  6
CONTINUOUS
 62
     7
 10
563.46519619620085
 20
470.51038067219628
 30
0.0
  0
VERTEX
  5
4C3A
  8
0
  6
CONTINUOUS
 62
     7
 10
563.34519619620085
 20
470.5478806721963
 30
0.0
  0
VERTEX
  5
4C3B
  8
0
  6
CONTINUOUS
 62
     7
 10
563.22319619620112
 20
470.58188067219618
 30
0.0
  0
VERTEX
  5
4C3C
  8
0
  6
CONTINUOUS
 62
     7
 10
563.09969619620097
 20
470.61138067219628
 30
0.0
  0
VERTEX
  5
4C3D
  8
0
  6
CONTINUOUS
 62
     7
 10
562.97469619620085
 20
470.63738067219629
 30
0.0
  0
VERTEX
  5
4C3E
  8
0
  6
CONTINUOUS
 62
     7
 10
562.84869619620099
 20
470.65888067219629
 30
0.0
  0
VERTEX
  5
4C3F
  8
0
  6
CONTINUOUS
 62
     7
 10
562.72169619620081
 20
470.67638067219622
 30
0.0
  0
VERTEX
  5
4C40
  8
0
  6
CONTINUOUS
 62
     7
 10
562.59419619620076
 20
470.68988067219613
 30
0.0
  0
VERTEX
  5
4C41
  8
0
  6
CONTINUOUS
 62
     7
 10
562.46569619620095
 20
470.6988806721962
 30
0.0
  0
VERTEX
  5
4C42
  8
0
  6
CONTINUOUS
 62
     7
 10
562.33669619620105
 20
470.70388067219608
 30
0.0
  0
VERTEX
  5
4C43
  8
0
  6
CONTINUOUS
 62
     7
 10
562.20769619620091
 20
470.70488067219628
 30
0.0
  0
VERTEX
  5
4C44
  8
0
  6
CONTINUOUS
 62
     7
 10
562.07919619620111
 20
470.70138067219619
 30
0.0
  0
VERTEX
  5
4C45
  8
0
  6
CONTINUOUS
 62
     7
 10
561.95069619620085
 20
470.69388067219631
 30
0.0
  0
VERTEX
  5
4C46
  8
0
  6
CONTINUOUS
 62
     7
 10
561.82219619620105
 20
470.68188067219643
 30
0.0
  0
VERTEX
  5
4C47
  8
0
  6
CONTINUOUS
 62
     7
 10
561.69519619620075
 20
470.66638067219611
 30
0.0
  0
VERTEX
  5
4C48
  8
0
  6
CONTINUOUS
 62
     7
 10
561.56869619620079
 20
470.6463806721963
 30
0.0
  0
VERTEX
  5
4C49
  8
0
  6
CONTINUOUS
 62
     7
 10
561.44319619620092
 20
470.6223806721963
 30
0.0
  0
VERTEX
  5
4C4A
  8
0
  6
CONTINUOUS
 62
     7
 10
561.31919619620089
 20
470.59388067219612
 30
0.0
  0
VERTEX
  5
4C4B
  8
0
  6
CONTINUOUS
 62
     7
 10
561.19669619620095
 20
470.56188067219642
 30
0.0
  0
VERTEX
  5
4C4C
  8
0
  6
CONTINUOUS
 62
     7
 10
561.07619619620073
 20
470.52588067219631
 30
0.0
  0
VERTEX
  5
4C4D
  8
0
  6
CONTINUOUS
 62
     7
 10
560.95719619620093
 20
470.48588067219617
 30
0.0
  0
VERTEX
  5
4C4E
  8
0
  6
CONTINUOUS
 62
     7
 10
560.84069619620095
 20
470.44188067219631
 30
0.0
  0
VERTEX
  5
4C4F
  8
0
  6
CONTINUOUS
 62
     7
 10
560.72619619620082
 20
470.39438067219618
 30
0.0
  0
VERTEX
  5
4C50
  8
0
  6
CONTINUOUS
 62
     7
 10
560.61419619620085
 20
470.34288067219632
 30
0.0
  0
VERTEX
  5
4C51
  8
0
  6
CONTINUOUS
 62
     7
 10
560.50519619620093
 20
470.2883806721963
 30
0.0
  0
VERTEX
  5
4C52
  8
0
  6
CONTINUOUS
 62
     7
 10
560.39869619620094
 20
470.22988067219609
 30
0.0
  0
VERTEX
  5
4C53
  8
0
  6
CONTINUOUS
 62
     7
 10
560.29569619620065
 20
470.16838067219629
 30
0.0
  0
VERTEX
  5
4C54
  8
0
  6
CONTINUOUS
 62
     7
 10
560.19569619620086
 20
470.10288067219619
 30
0.0
  0
VERTEX
  5
4C55
  8
0
  6
CONTINUOUS
 62
     7
 10
560.09869619620099
 20
470.03488067219621
 30
0.0
  0
VERTEX
  5
4C56
  8
0
  6
CONTINUOUS
 62
     7
 10
560.00569619620092
 20
469.96338067219631
 30
0.0
  0
VERTEX
  5
4C57
  8
0
  6
CONTINUOUS
 62
     7
 10
559.91619619620099
 20
469.8893806721963
 30
0.0
  0
VERTEX
  5
4C58
  8
0
  6
CONTINUOUS
 62
     7
 10
559.83069619620085
 20
469.81188067219631
 30
0.0
  0
VERTEX
  5
4C59
  8
0
  6
CONTINUOUS
 62
     7
 10
559.74919619620096
 20
469.7323806721962
 30
0.0
  0
VERTEX
  5
4C5A
  8
0
  6
CONTINUOUS
 62
     7
 10
559.67169619620086
 20
469.64988067219628
 30
0.0
  0
VERTEX
  5
4C5B
  8
0
  6
CONTINUOUS
 62
     7
 10
559.59869619620099
 20
469.5648806721963
 30
0.0
  0
VERTEX
  5
4C5C
  8
0
  6
CONTINUOUS
 62
     7
 10
559.5296961962008
 20
469.47788067219631
 30
0.0
  0
VERTEX
  5
4C5D
  8
0
  6
CONTINUOUS
 62
     7
 10
559.46569619620095
 20
469.38838067219632
 30
0.0
  0
VERTEX
  5
4C5E
  8
0
  6
CONTINUOUS
 62
     7
 10
559.40569619620078
 20
469.29688067219632
 30
0.0
  0
VERTEX
  5
4C5F
  8
0
  6
CONTINUOUS
 62
     7
 10
559.35069619620083
 20
469.20388067219642
 30
0.0
  0
VERTEX
  5
4C60
  8
0
  6
CONTINUOUS
 62
     7
 10
559.30069619620099
 20
469.10888067219622
 30
0.0
  0
VERTEX
  5
4C61
  8
0
  6
CONTINUOUS
 62
     7
 10
559.25519619620081
 20
469.01238067219617
 30
0.0
  0
VERTEX
  5
4C62
  8
0
  6
CONTINUOUS
 62
     7
 10
559.21469619620075
 20
468.91438067219622
 30
0.0
  0
VERTEX
  5
4C63
  8
0
  6
CONTINUOUS
 62
     7
 10
559.17919619620091
 20
468.81538067219623
 30
0.0
  0
VERTEX
  5
4C64
  8
0
  6
CONTINUOUS
 62
     7
 10
559.14869619620106
 20
468.71488067219622
 30
0.0
  0
VERTEX
  5
4C65
  8
0
  6
CONTINUOUS
 62
     7
 10
559.12369619620085
 20
468.61388067219622
 30
0.0
  0
VERTEX
  5
4C66
  8
0
  6
CONTINUOUS
 62
     7
 10
559.1036961962011
 20
468.51238067219617
 30
0.0
  0
VERTEX
  5
4C67
  8
0
  6
CONTINUOUS
 62
     7
 10
559.08869619620077
 20
468.40988067219632
 30
0.0
  0
VERTEX
  5
4C68
  8
0
  6
CONTINUOUS
 62
     7
 10
559.07869619620089
 20
468.30688067219631
 30
0.0
  0
VERTEX
  5
4C69
  8
0
  6
CONTINUOUS
 62
     7
 10
559.074196196201
 20
468.20388067219631
 30
0.0
  0
VERTEX
  5
4C6A
  8
0
  6
CONTINUOUS
 62
     7
 10
559.07519619620075
 20
468.1008806721963
 30
0.0
  0
VERTEX
  5
4C6B
  8
0
  6
CONTINUOUS
 62
     7
 10
559.08119619620095
 20
467.99788067219629
 30
0.0
  0
VERTEX
  5
4C6C
  8
0
  6
CONTINUOUS
 62
     7
 10
559.0921961962008
 20
467.89488067219628
 30
0.0
  0
VERTEX
  5
4C6D
  8
0
  6
CONTINUOUS
 62
     7
 10
559.10869619620075
 20
467.7928806721963
 30
0.0
  0
VERTEX
  5
4C6E
  8
0
  6
CONTINUOUS
 62
     7
 10
559.13019619620093
 20
467.69138067219609
 30
0.0
  0
VERTEX
  5
4C6F
  8
0
  6
CONTINUOUS
 62
     7
 10
559.15719619620074
 20
467.5903806721962
 30
0.0
  0
VERTEX
  5
4C70
  8
0
  6
CONTINUOUS
 62
     7
 10
559.1891961962009
 20
467.4903806721963
 30
0.0
  0
VERTEX
  5
4C71
  8
0
  6
CONTINUOUS
 62
     7
 10
559.22569619620106
 20
467.39138067219608
 30
0.0
  0
VERTEX
  5
4C72
  8
0
  6
CONTINUOUS
 62
     7
 10
559.26769619620109
 20
467.29388067219628
 30
0.0
  0
VERTEX
  5
4C73
  8
0
  6
CONTINUOUS
 62
     7
 10
559.31469619620111
 20
467.19788067219628
 30
0.0
  0
VERTEX
  5
4C74
  8
0
  6
CONTINUOUS
 62
     7
 10
559.36619619620092
 20
467.10338067219629
 30
0.0
  0
VERTEX
  5
4C75
  8
0
  6
CONTINUOUS
 62
     7
 10
559.42269619620095
 20
467.01088067219621
 30
0.0
  0
VERTEX
  5
4C76
  8
0
  6
CONTINUOUS
 62
     7
 10
559.48369619620075
 20
466.91988067219631
 30
0.0
  0
VERTEX
  5
4C77
  8
0
  6
CONTINUOUS
 62
     7
 10
559.54919619620091
 20
466.8313806721963
 30
0.0
  0
VERTEX
  5
4C78
  8
0
  6
CONTINUOUS
 62
     7
 10
559.61919619620085
 20
466.7448806721963
 30
0.0
  0
VERTEX
  5
4C79
  8
0
  6
CONTINUOUS
 62
     7
 10
559.6936961962009
 20
466.66038067219642
 30
0.0
  0
VERTEX
  5
4C7A
  8
0
  6
CONTINUOUS
 62
     7
 10
559.77219619620075
 20
466.57888067219631
 30
0.0
  0
VERTEX
  5
4C7B
  8
0
  6
CONTINUOUS
 62
     7
 10
559.85519619620095
 20
466.49988067219613
 30
0.0
  0
VERTEX
  5
4C7C
  8
0
  6
CONTINUOUS
 62
     7
 10
559.94169619620106
 20
466.42338067219629
 30
0.0
  0
VERTEX
  5
4C7D
  8
0
  6
CONTINUOUS
 62
     7
 10
560.03219619620074
 20
466.34988067219632
 30
0.0
  0
VERTEX
  5
4C7E
  8
0
  6
CONTINUOUS
 62
     7
 10
560.12619619620068
 20
466.27938067219623
 30
0.0
  0
VERTEX
  5
4C7F
  8
0
  6
CONTINUOUS
 62
     7
 10
560.22419619620075
 20
466.21238067219628
 30
0.0
  0
VERTEX
  5
4C80
  8
0
  6
CONTINUOUS
 62
     7
 10
560.32519619620075
 20
466.14788067219632
 30
0.0
  0
VERTEX
  5
4C81
  8
0
  6
CONTINUOUS
 62
     7
 10
560.42919619620091
 20
466.08738067219622
 30
0.0
  0
VERTEX
  5
4C82
  8
0
  6
CONTINUOUS
 62
     7
 10
560.53619619620076
 20
466.02988067219633
 30
0.0
  0
VERTEX
  5
4C83
  8
0
  6
CONTINUOUS
 62
     7
 10
560.64619619620089
 20
465.9758806721963
 30
0.0
  0
VERTEX
  5
4C84
  8
0
  6
CONTINUOUS
 62
     7
 10
560.75869619620096
 20
465.92588067219629
 30
0.0
  0
VERTEX
  5
4C85
  8
0
  6
CONTINUOUS
 62
     7
 10
560.87369619620085
 20
465.87938067219642
 30
0.0
  0
VERTEX
  5
4C86
  8
0
  6
CONTINUOUS
 62
     7
 10
560.99119619620069
 20
465.83688067219629
 30
0.0
  0
VERTEX
  5
4C87
  8
0
  6
CONTINUOUS
 62
     7
 10
561.11069619620105
 20
465.79788067219619
 30
0.0
  0
VERTEX
  5
4C88
  8
0
  6
CONTINUOUS
 62
     7
 10
561.23169619620091
 20
465.76288067219622
 30
0.0
  0
VERTEX
  5
4C89
  8
0
  6
CONTINUOUS
 62
     7
 10
561.35469619620085
 20
465.73188067219633
 30
0.0
  0
VERTEX
  5
4C8A
  8
0
  6
CONTINUOUS
 62
     7
 10
561.47919619620086
 20
465.70488067219623
 30
0.0
  0
VERTEX
  5
4C8B
  8
0
  6
CONTINUOUS
 62
     7
 10
561.60469619620108
 20
465.68188067219643
 30
0.0
  0
VERTEX
  5
4C8C
  8
0
  6
CONTINUOUS
 62
     7
 10
561.73169619620091
 20
465.6633806721963
 30
0.0
  0
VERTEX
  5
4C8D
  8
0
  6
CONTINUOUS
 62
     7
 10
561.85919619620086
 20
465.64838067219631
 30
0.0
  0
VERTEX
  5
4C8E
  8
0
  6
CONTINUOUS
 62
     7
 10
561.98769619620111
 20
465.63788067219627
 30
0.0
  0
VERTEX
  5
4C8F
  8
0
  6
CONTINUOUS
 62
     7
 10
562.11619619620046
 20
465.6313806721962
 30
0.0
  0
VERTEX
  5
4C90
  8
0
  6
CONTINUOUS
 62
     7
 10
562.24519619620105
 20
465.62938067219608
 30
0.0
  0
VERTEX
  5
4C91
  8
0
  6
CONTINUOUS
 62
     7
 10
562.37419619620096
 20
465.6313806721962
 30
0.0
  0
VERTEX
  5
4C92
  8
0
  6
CONTINUOUS
 62
     7
 10
562.50269619620076
 20
465.63788067219627
 30
0.0
  0
VERTEX
  5
4C93
  8
0
  6
CONTINUOUS
 62
     7
 10
562.63069619620092
 20
465.64788067219621
 30
0.0
  0
VERTEX
  5
4C94
  8
0
  6
CONTINUOUS
 62
     7
 10
562.75869619620084
 20
465.66288067219631
 30
0.0
  0
VERTEX
  5
4C95
  8
0
  6
CONTINUOUS
 62
     7
 10
562.88519619620058
 20
465.68138067219633
 30
0.0
  0
VERTEX
  5
4C96
  8
0
  6
CONTINUOUS
 62
     7
 10
563.0111961962009
 20
465.70388067219631
 30
0.0
  0
VERTEX
  5
4C97
  8
0
  6
CONTINUOUS
 62
     7
 10
563.13569619620068
 20
465.73088067219629
 30
0.0
  0
VERTEX
  5
4C98
  8
0
  6
CONTINUOUS
 62
     7
 10
563.25869619620107
 20
465.7618806721963
 30
0.0
  0
VERTEX
  5
4C99
  8
0
  6
CONTINUOUS
 62
     7
 10
563.37969619620105
 20
465.79688067219632
 30
0.0
  0
VERTEX
  5
4C9A
  8
0
  6
CONTINUOUS
 62
     7
 10
563.49919619620096
 20
465.83538067219621
 30
0.0
  0
VERTEX
  5
4C9B
  8
0
  6
CONTINUOUS
 62
     7
 10
563.61669619620102
 20
465.87788067219611
 30
0.0
  0
VERTEX
  5
4C9C
  8
0
  6
CONTINUOUS
 62
     7
 10
563.73169619620069
 20
465.92438067219632
 30
0.0
  0
VERTEX
  5
4C9D
  8
0
  6
CONTINUOUS
 62
     7
 10
563.84469619620074
 20
465.97438067219622
 30
0.0
  0
VERTEX
  5
4C9E
  8
0
  6
CONTINUOUS
 62
     7
 10
563.95469619620064
 20
466.02838067219631
 30
0.0
  0
VERTEX
  5
4C9F
  8
0
  6
CONTINUOUS
 62
     7
 10
564.06169619620107
 20
466.08538067219632
 30
0.0
  0
VERTEX
  5
4CA0
  8
0
  6
CONTINUOUS
 62
     7
 10
564.1661961962011
 20
466.1463806721963
 30
0.0
  0
VERTEX
  5
4CA1
  8
0
  6
CONTINUOUS
 62
     7
 10
564.26719619620076
 20
466.21038067219632
 30
0.0
  0
VERTEX
  5
4CA2
  8
0
  6
CONTINUOUS
 62
     7
 10
564.36469619620095
 20
466.27738067219622
 30
0.0
  0
VERTEX
  5
4CA3
  8
0
  6
CONTINUOUS
 62
     7
 10
564.45919619620076
 20
466.34788067219631
 30
0.0
  0
VERTEX
  5
4CA4
  8
0
  6
CONTINUOUS
 62
     7
 10
564.54969619620101
 20
466.42138067219628
 30
0.0
  0
VERTEX
  5
4CA5
  8
0
  6
CONTINUOUS
 62
     7
 10
564.63619619620101
 20
466.49738067219607
 30
0.0
  0
VERTEX
  5
4CA6
  8
0
  6
CONTINUOUS
 62
     7
 10
564.71919619620087
 20
466.57638067219642
 30
0.0
  0
VERTEX
  5
4CA7
  8
0
  6
CONTINUOUS
 62
     7
 10
564.79769619620095
 20
466.65788067219643
 30
0.0
  0
VERTEX
  5
4CA8
  8
0
  6
CONTINUOUS
 62
     7
 10
564.8726961962011
 20
466.7423806721963
 30
0.0
  0
VERTEX
  5
4CA9
  8
0
  6
CONTINUOUS
 62
     7
 10
564.94269619620104
 20
466.82888067219631
 30
0.0
  0
VERTEX
  5
4CAA
  8
0
  6
CONTINUOUS
 62
     7
 10
565.00819619620086
 20
466.91738067219632
 30
0.0
  0
VERTEX
  5
4CAB
  8
0
  6
CONTINUOUS
 62
     7
 10
565.06969619620099
 20
467.00788067219628
 30
0.0
  0
VERTEX
  5
4CAC
  8
0
  6
CONTINUOUS
 62
     7
 10
565.12619619620102
 20
467.1008806721963
 30
0.0
  0
VERTEX
  5
4CAD
  8
0
  6
CONTINUOUS
 62
     7
 10
565.1781961962007
 20
467.19538067219628
 30
0.0
  0
VERTEX
  5
4CAE
  8
0
  6
CONTINUOUS
 62
     7
 10
565.22469619620085
 20
467.29138067219628
 30
0.0
  0
VERTEX
  5
4CAF
  8
0
  6
CONTINUOUS
 62
     7
 10
565.26719619620064
 20
467.38888067219631
 30
0.0
  0
SEQEND
  5
4CB0
  8
0
  6
CONTINUOUS
 62
     7
  0
ARC
  5
4CB1
  8
0
  6
CONTINUOUS
 62
     7
 10
546.44654919620075
 20
467.06489617219643
 30
0.0
 40
0.00915
 50
350.26091999999818
 51
146.67665400000081
  0
ARC
  5
4CB2
  8
0
  6
CONTINUOUS
 62
     7
 10
545.35976719620112
 20
467.09424917219633
 30
0.0
 40
0.9150719999999996
 50
270.0
 51
326.67665399999993
  0
LINE
  5
4CB3
  8
0
  6
CONTINUOUS
 62
     7
 10
546.12438619620082
 20
466.59154217219628
 30
0.0
 11
546.43890219620084
 21
467.0699231721963
 31
0.0
  0
ARC
  5
4CB4
  8
0
  6
CONTINUOUS
 62
     7
 10
534.21614819620095
 20
466.68296217219631
 30
0.0
 40
0.457536
 50
202.6932780000005
 51
234.0160489999989
  0
ARC
  5
4CB5
  8
0
  6
CONTINUOUS
 62
     7
 10
534.17302219620069
 20
466.78609317219622
 30
0.0
 40
0.457536
 50
180.0
 51
202.6932780000005
  0
ARC
  5
4CB6
  8
0
  6
CONTINUOUS
 62
     7
 10
534.85906919620095
 20
466.21612717219631
 30
0.0
 40
0.457536
 50
234.0160489999989
 51
253.91780799999759
  0
ARC
  5
4CB7
  8
0
  6
CONTINUOUS
 62
     7
 10
535.47910819620097
 20
466.03737117219629
 30
0.0
 40
0.457536
 50
253.91780799999759
 51
261.60641900000297
  0
LINE
  5
4CB8
  8
0
  6
CONTINUOUS
 62
     7
 10
533.94731919620085
 20
466.31273217219632
 30
0.0
 11
534.59024019620097
 21
465.84589817219609
 31
0.0
  0
LINE
  5
4CB9
  8
0
  6
CONTINUOUS
 62
     7
 10
534.73232519620069
 20
465.77649717219612
 30
0.0
 11
535.35236419620105
 21
465.59774117219632
 31
0.0
  0
LINE
  5
4CBA
  8
0
  6
CONTINUOUS
 62
     7
 10
533.7940331962011
 20
466.50644517219632
 30
0.0
 11
533.75090719620096
 21
466.60957717219628
 31
0.0
  0
ARC
  5
4CBB
  8
0
  6
CONTINUOUS
 62
     7
 10
538.98369219620076
 20
466.22334617219622
 30
0.0
 40
0.457536
 50
284.46884200000318
 51
305.13530899999739
  0
ARC
  5
4CBC
  8
0
  6
CONTINUOUS
 62
     7
 10
555.87989519620089
 20
466.28265717219631
 30
0.0
 40
0.457536
 50
310.29155499999888
 51
29.66165899999876
  0
ARC
  5
4CBD
  8
0
  6
CONTINUOUS
 62
     7
 10
558.66611219620086
 20
466.52087017219628
 30
0.0
 40
0.457536
 50
211.3286930000005
 51
241.0759069999983
  0
ARC
  5
4CBE
  8
0
  6
CONTINUOUS
 62
     7
 10
556.00084219620089
 20
465.74936717219629
 30
0.0
 40
0.027452
 50
130.29155499999891
 51
180.0
  0
ARC
  5
4CBF
  8
0
  6
CONTINUOUS
 62
     7
 10
559.06582919620075
 20
465.74588817219632
 30
0.0
 40
0.027452
 50
0.0
 51
61.075906999998253
  0
ARC
  5
4CC0
  8
0
  6
CONTINUOUS
 62
     7
 10
559.07498019620107
 20
465.69711217219611
 30
0.0
 40
0.018302
 50
270.0
 51
0.0
  0
LINE
  5
4CC1
  8
0
  6
CONTINUOUS
 62
     7
 10
559.09328119620091
 20
465.69711217219611
 30
0.0
 11
559.09328119620091
 21
465.74588817219632
 31
0.0
  0
ARC
  5
4CC2
  8
0
  6
CONTINUOUS
 62
     7
 10
555.99169119620046
 20
465.69711217219611
 30
0.0
 40
0.018302
 50
180.0
 51
270.0
  0
LINE
  5
4CC3
  8
0
  6
CONTINUOUS
 62
     7
 10
555.98308919620081
 20
465.77030617219629
 30
0.0
 11
556.17577319620091
 21
465.93366517219641
 31
0.0
  0
LINE
  5
4CC4
  8
0
  6
CONTINUOUS
 62
     7
 10
558.44482419620113
 20
466.12040617219628
 30
0.0
 11
559.079106196201
 21
465.76991617219619
 31
0.0
  0
LINE
  5
4CC5
  8
0
  6
CONTINUOUS
 62
     7
 10
555.97339019620085
 20
465.69711217219611
 30
0.0
 11
555.97339019620085
 21
465.74936717219629
 31
0.0
  0
ARC
  5
4CC6
  8
0
  6
CONTINUOUS
 62
     7
 10
551.09778419620091
 20
465.69711217219611
 30
0.0
 40
0.018302
 50
180.0
 51
270.0
  0
ARC
  5
4CC7
  8
0
  6
CONTINUOUS
 62
     7
 10
552.85052919620091
 20
465.69711217219611
 30
0.0
 40
0.018302
 50
270.0
 51
0.0
  0
ARC
  5
4CC8
  8
0
  6
CONTINUOUS
 62
     7
 10
551.10693519620077
 20
465.74687917219637
 30
0.0
 40
0.027452
 50
122.0410319999966
 51
180.0
  0
ARC
  5
4CC9
  8
0
  6
CONTINUOUS
 62
     7
 10
552.84137919620082
 20
465.74880017219613
 30
0.0
 40
0.027452
 50
0.0
 51
51.64187199999715
  0
ARC
  5
4CCA
  8
0
  6
CONTINUOUS
 62
     7
 10
551.40892119620105
 20
466.5080251721962
 30
0.0
 40
0.457536
 50
302.04103199999662
 51
329.36004400000007
  0
ARC
  5
4CCB
  8
0
  6
CONTINUOUS
 62
     7
 10
552.93916419620075
 20
466.28990317219638
 30
0.0
 40
0.457536
 50
149.36004399999919
 51
231.64187199999719
  0
LINE
  5
4CCC
  8
0
  6
CONTINUOUS
 62
     7
 10
552.65522919620082
 20
465.93112717219623
 30
0.0
 11
552.85841519620112
 21
465.77032617219618
 31
0.0
  0
LINE
  5
4CCD
  8
0
  6
CONTINUOUS
 62
     7
 10
551.09237119620082
 20
465.77014917219628
 30
0.0
 11
551.65165619620075
 21
466.12018717219632
 31
0.0
  0
LINE
  5
4CCE
  8
0
  6
CONTINUOUS
 62
     7
 10
551.07948319620095
 20
465.69711217219611
 30
0.0
 11
551.07948319620095
 21
465.74687917219637
 31
0.0
  0
LINE
  5
4CCF
  8
0
  6
CONTINUOUS
 62
     7
 10
552.86883119620074
 20
465.69711217219611
 30
0.0
 11
552.86883119620074
 21
465.74880017219613
 31
0.0
  0
ARC
  5
4CD0
  8
0
  6
CONTINUOUS
 62
     7
 10
551.01438619620092
 20
469.63549417219622
 30
0.0
 40
0.457536
 50
329.9129620000017
 51
54.321240999999461
  0
ARC
  5
4CD1
  8
0
  6
CONTINUOUS
 62
     7
 10
552.56396519620068
 20
469.42576017219642
 30
0.0
 40
0.457536
 50
118.85159999999649
 51
149.91296200000241
  0
ARC
  5
4CD2
  8
0
  6
CONTINUOUS
 62
     7
 10
551.14057119620111
 20
470.16704717219631
 30
0.0
 40
0.018302
 50
90.0
 51
180.0
  0
ARC
  5
4CD3
  8
0
  6
CONTINUOUS
 62
     7
 10
552.85996319620085
 20
470.16704717219631
 30
0.0
 40
0.018302
 50
0.0
 51
90.0
  0
ARC
  5
4CD4
  8
0
  6
CONTINUOUS
 62
     7
 10
551.14972119620097
 20
470.13537817219623
 30
0.0
 40
0.027452
 50
180.0
 51
234.3212409999995
  0
ARC
  5
4CD5
  8
0
  6
CONTINUOUS
 62
     7
 10
552.85081219620076
 20
470.1375121721963
 30
0.0
 40
0.027452
 50
298.85159999999649
 51
0.0
  0
LINE
  5
4CD6
  8
0
  6
CONTINUOUS
 62
     7
 10
551.13371019620058
 20
470.11307817219631
 30
0.0
 11
551.28124019620077
 21
470.00715117219619
 31
0.0
  0
LINE
  5
4CD7
  8
0
  6
CONTINUOUS
 62
     7
 10
552.34318519620081
 20
469.82650317219623
 30
0.0
 11
552.86405919620086
 21
470.11346717219629
 31
0.0
  0
LINE
  5
4CD8
  8
0
  6
CONTINUOUS
 62
     7
 10
551.12226919620105
 20
470.13537817219623
 30
0.0
 11
551.12226919620105
 21
470.16704717219631
 31
0.0
  0
LINE
  5
4CD9
  8
0
  6
CONTINUOUS
 62
     7
 10
552.87826419620092
 20
470.1375121721963
 30
0.0
 11
552.87826419620092
 21
470.16704717219631
 31
0.0
  0
ARC
  5
4CDA
  8
0
  6
CONTINUOUS
 62
     7
 10
547.95258219620075
 20
470.14017417219623
 30
0.0
 40
0.027452
 50
300.62259699999743
 51
0.0
  0
ARC
  5
4CDB
  8
0
  6
CONTINUOUS
 62
     7
 10
547.96173319620095
 20
470.16704717219631
 30
0.0
 40
0.018302
 50
0.0
 51
90.0
  0
ARC
  5
4CDC
  8
0
  6
CONTINUOUS
 62
     7
 10
544.99496519620095
 20
470.16704717219631
 30
0.0
 40
0.018302
 50
90.0
 51
180.0
  0
ARC
  5
4CDD
  8
0
  6
CONTINUOUS
 62
     7
 10
545.0041161962007
 20
470.13826017219611
 30
0.0
 40
0.027452
 50
180.0
 51
243.4349630000012
  0
ARC
  5
4CDE
  8
0
  6
CONTINUOUS
 62
     7
 10
548.00005619620094
 20
469.60469117219623
 30
0.0
 40
0.457536
 50
120.6225969999974
 51
210.67454099999881
  0
ARC
  5
4CDF
  8
0
  6
CONTINUOUS
 62
     7
 10
545.36404919620077
 20
469.4160601721963
 30
0.0
 40
0.457536
 50
30.674540999997969
 51
63.434963000001183
  0
LINE
  5
4CE0
  8
0
  6
CONTINUOUS
 62
     7
 10
547.76699619620081
 20
469.99841917219629
 30
0.0
 11
547.96656519620092
 21
470.11655017219641
 31
0.0
  0
LINE
  5
4CE1
  8
0
  6
CONTINUOUS
 62
     7
 10
544.99183919620077
 20
470.11370617219632
 30
0.0
 11
545.56866519620075
 21
469.82529317219633
 31
0.0
  0
LINE
  5
4CE2
  8
0
  6
CONTINUOUS
 62
     7
 10
547.98003419620079
 20
470.14017417219623
 30
0.0
 11
547.98003419620079
 21
470.16704717219631
 31
0.0
  0
LINE
  5
4CE3
  8
0
  6
CONTINUOUS
 62
     7
 10
544.976664196201
 20
470.13826017219611
 30
0.0
 11
544.976664196201
 21
470.16704717219631
 31
0.0
  0
LINE
  5
4CE4
  8
0
  6
CONTINUOUS
 62
     7
 10
535.46888119620087
 20
466.51142317219637
 30
0.0
 11
535.44115519620095
 21
466.5473161721963
 31
0.0
  0
ARC
  5
4CE5
  8
0
  6
CONTINUOUS
 62
     7
 10
535.80323919620071
 20
466.82701917219629
 30
0.0
 40
0.457536
 50
180.0
 51
217.68537499999951
  0
ARC
  5
4CE6
  8
0
  6
CONTINUOUS
 62
     7
 10
535.83096519620085
 20
466.7911271721963
 30
0.0
 40
0.457536
 50
217.68537499999951
 51
257.6356449999966
  0
LINE
  5
4CE7
  8
0
  6
CONTINUOUS
 62
     7
 10
536.29665619620096
 20
466.22064117219622
 30
0.0
 11
535.73299419620071
 21
466.34420317219622
 31
0.0
  0
ARC
  5
4CE8
  8
0
  6
CONTINUOUS
 62
     7
 10
537.49668819620069
 20
474.79638917219643
 30
0.0
 40
8.6593029999999942
 50
262.03414800000297
 51
264.34846600000083
  0
ARC
  5
4CE9
  8
0
  6
CONTINUOUS
 62
     7
 10
538.43724719620081
 20
466.7911271721963
 30
0.0
 40
0.457536
 50
282.36435500000329
 51
322.31462499999941
  0
ARC
  5
4CEA
  8
0
  6
CONTINUOUS
 62
     7
 10
538.46497319620084
 20
466.82701917219629
 30
0.0
 40
0.457536
 50
322.31462499999941
 51
0.0
  0
LINE
  5
4CEB
  8
0
  6
CONTINUOUS
 62
     7
 10
537.97155619620094
 20
466.22064117219622
 30
0.0
 11
538.53521819620096
 21
466.34420317219622
 31
0.0
  0
LINE
  5
4CEC
  8
0
  6
CONTINUOUS
 62
     7
 10
538.79933219620068
 20
466.51142317219637
 30
0.0
 11
538.82705819620105
 21
466.5473161721963
 31
0.0
  0
ARC
  5
4CED
  8
0
  6
CONTINUOUS
 62
     7
 10
533.20671919620099
 20
470.16704717219631
 30
0.0
 40
0.018302
 50
90.0
 51
180.0
  0
ARC
  5
4CEE
  8
0
  6
CONTINUOUS
 62
     7
 10
535.85435219620069
 20
470.16704717219631
 30
0.0
 40
0.018302
 50
0.0
 51
90.0
  0
ARC
  5
4CEF
  8
0
  6
CONTINUOUS
 62
     7
 10
533.21586919620086
 20
470.13460817219629
 30
0.0
 40
0.027452
 50
180.0
 51
236.04966900000301
  0
ARC
  5
4CF0
  8
0
  6
CONTINUOUS
 62
     7
 10
535.84520119620095
 20
470.13463117219618
 30
0.0
 40
0.027452
 50
303.95825699999813
 51
0.0
  0
ARC
  5
4CF1
  8
0
  6
CONTINUOUS
 62
     7
 10
533.25795019620068
 20
469.52161717219627
 30
0.0
 40
0.457536
 50
0.0
 51
56.049669000002943
  0
ARC
  5
4CF2
  8
0
  6
CONTINUOUS
 62
     7
 10
535.80323919620071
 20
469.52165817219628
 30
0.0
 40
0.457536
 50
123.9582569999981
 51
180.0
  0
LINE
  5
4CF3
  8
0
  6
CONTINUOUS
 62
     7
 10
535.54766519620091
 20
469.90115917219617
 30
0.0
 11
535.86053619620111
 21
470.1118611721962
 31
0.0
  0
LINE
  5
4CF4
  8
0
  6
CONTINUOUS
 62
     7
 10
533.20053819620091
 20
470.11183517219632
 30
0.0
 11
533.51347219620106
 21
469.90115317219619
 31
0.0
  0
LINE
  5
4CF5
  8
0
  6
CONTINUOUS
 62
     7
 10
535.87265319620064
 20
470.13463117219618
 30
0.0
 11
535.87265319620064
 21
470.16704717219631
 31
0.0
  0
LINE
  5
4CF6
  8
0
  6
CONTINUOUS
 62
     7
 10
533.18841719620093
 20
470.13460817219629
 30
0.0
 11
533.18841719620093
 21
470.16704717219631
 31
0.0
  0
ARC
  5
4CF7
  8
0
  6
CONTINUOUS
 62
     7
 10
538.46497319620084
 20
469.53302517219612
 30
0.0
 40
0.457536
 50
0.0
 51
53.800363999998389
  0
ARC
  5
4CF8
  8
0
  6
CONTINUOUS
 62
     7
 10
538.46218219620118
 20
470.16669117219641
 30
0.0
 40
0.018302
 50
90.0
 51
180.0
  0
ARC
  5
4CF9
  8
0
  6
CONTINUOUS
 62
     7
 10
538.489634196201
 20
470.1386591721963
 30
0.0
 40
0.045754
 50
180.0
 51
233.80036399999841
  0
LINE
  5
4CFA
  8
0
  6
CONTINUOUS
 62
     7
 10
538.46261219620055
 20
470.10173717219612
 30
0.0
 11
538.73519419620095
 21
469.90224017219617
 31
0.0
  0
ARC
  5
4CFB
  8
0
  6
CONTINUOUS
 62
     7
 10
540.17498919620084
 20
470.14258917219632
 30
0.0
 40
0.045754
 50
303.51137500000391
 51
0.0
  0
ARC
  5
4CFC
  8
0
  6
CONTINUOUS
 62
     7
 10
540.20244119620111
 20
470.16669117219641
 30
0.0
 40
0.018302
 50
0.0
 51
90.0
  0
LINE
  5
4CFD
  8
0
  6
CONTINUOUS
 62
     7
 10
539.81231619620075
 20
469.8475631721962
 30
0.0
 11
540.20025019620084
 21
470.10444117219612
 31
0.0
  0
ARC
  5
4CFE
  8
0
  6
CONTINUOUS
 62
     7
 10
539.97951519620085
 20
469.6298321721963
 30
0.0
 40
0.274522
 50
127.52121799999659
 51
180.0
  0
LINE
  5
4CFF
  8
0
  6
CONTINUOUS
 62
     7
 10
538.44388119620112
 20
470.1386591721963
 30
0.0
 11
538.44388119620112
 21
470.16669117219641
 31
0.0
  0
LINE
  5
4D00
  8
0
  6
CONTINUOUS
 62
     7
 10
540.22074319620106
 20
470.14258917219632
 30
0.0
 11
540.22074319620106
 21
470.16669117219641
 31
0.0
  0
LINE
  5
4D01
  8
0
  6
CONTINUOUS
 62
     7
 10
539.41366419620113
 20
465.96645717219621
 30
0.0
 11
539.24700819620091
 21
465.84917617219622
 31
0.0
  0
ARC
  5
4D02
  8
0
  6
CONTINUOUS
 62
     7
 10
539.01869019620085
 20
466.52771317219612
 30
0.0
 40
0.686304
 50
305.13530899999739
 51
0.0
  0
LINE
  5
4D03
  8
0
  6
CONTINUOUS
 62
     7
 10
539.70499319620069
 20
466.52771317219612
 30
0.0
 11
539.70499319620069
 21
469.6298321721963
 31
0.0
  0
ARC
  5
4D04
  8
0
  6
CONTINUOUS
 62
     7
 10
543.57088419620095
 20
466.9569881721963
 30
0.0
 40
0.777810999999999
 50
180.0
 51
270.0
  0
ARC
  5
4D05
  8
0
  6
CONTINUOUS
 62
     7
 10
540.66167419620069
 20
465.71458417219628
 30
0.0
 40
0.091507
 50
125.13530899999741
 51
180.0
  0
ARC
  5
4D06
  8
0
  6
CONTINUOUS
 62
     7
 10
540.47655219620094
 20
466.53541517219622
 30
0.0
 40
0.686304
 50
305.13530899999739
 51
0.0
  0
ARC
  5
4D07
  8
0
  6
CONTINUOUS
 62
     7
 10
540.58846919620078
 20
465.69711217219611
 30
0.0
 40
0.018302
 50
180.0
 51
270.0
  0
LINE
  5
4D08
  8
0
  6
CONTINUOUS
 62
     7
 10
540.57016719620083
 20
465.71458417219628
 30
0.0
 11
540.57016719620083
 21
465.69711217219611
 31
0.0
  0
LINE
  5
4D09
  8
0
  6
CONTINUOUS
 62
     7
 10
540.87152619620065
 20
465.97415917219632
 30
0.0
 11
540.60901119620075
 21
465.78941917219629
 31
0.0
  0
LINE
  5
4D0A
  8
0
  6
CONTINUOUS
 62
     7
 10
536.64393719620091
 20
466.17917717219632
 30
0.0
 11
537.62427619620075
 21
466.17917717219632
 31
0.0
  0
ARC
  5
4D0B
  8
0
  6
CONTINUOUS
 62
     7
 10
540.88833419620084
 20
469.62277817219632
 30
0.0
 40
0.274522
 50
0.0
 51
54.823661999997817
  0
ARC
  5
4D0C
  8
0
  6
CONTINUOUS
 62
     7
 10
543.06759519620118
 20
469.62334017219632
 30
0.0
 40
0.274522
 50
125.3616779999991
 51
180.0
  0
LINE
  5
4D0D
  8
0
  6
CONTINUOUS
 62
     7
 10
543.29024719620065
 20
470.11797117219618
 30
0.0
 11
542.90872019620076
 21
469.84721717219622
 31
0.0
  0
LINE
  5
4D0E
  8
0
  6
CONTINUOUS
 62
     7
 10
540.66220119620095
 20
470.11801117219642
 30
0.0
 11
541.04648519620082
 21
469.84716717219629
 31
0.0
  0
ARC
  5
4D0F
  8
0
  6
CONTINUOUS
 62
     7
 10
540.6773051962009
 20
470.16120017219617
 30
0.0
 40
0.045754
 50
180.0
 51
250.7248660000036
  0
ARC
  5
4D10
  8
0
  6
CONTINUOUS
 62
     7
 10
540.64985319620075
 20
470.16704717219631
 30
0.0
 40
0.018302
 50
90.0
 51
180.0
  0
ARC
  5
4D11
  8
0
  6
CONTINUOUS
 62
     7
 10
543.30250519620085
 20
470.16704717219631
 30
0.0
 40
0.018302
 50
0.0
 51
90.0
  0
ARC
  5
4D12
  8
0
  6
CONTINUOUS
 62
     7
 10
543.27505319620093
 20
470.16112717219619
 30
0.0
 40
0.045754
 50
289.39587399999749
 51
0.0
  0
LINE
  5
4D13
  8
0
  6
CONTINUOUS
 62
     7
 10
540.6315511962008
 20
470.16120017219617
 30
0.0
 11
540.6315511962008
 21
470.16704717219631
 31
0.0
  0
LINE
  5
4D14
  8
0
  6
CONTINUOUS
 62
     7
 10
543.32080619620046
 20
470.16112717219619
 30
0.0
 11
543.32080619620046
 21
470.16704717219631
 31
0.0
  0
LINE
  5
4D15
  8
0
  6
CONTINUOUS
 62
     7
 10
538.46218219620118
 20
470.18499217219619
 30
0.0
 11
540.20244119620111
 21
470.18499217219619
 31
0.0
  0
ARC
  5
4D16
  8
0
  6
CONTINUOUS
 62
     7
 10
536.77152519620086
 20
474.79638917219643
 30
0.0
 40
9.3113910000000004
 50
261.60641900000297
 51
284.46884200000318
  0
ARC
  5
4D17
  8
0
  6
CONTINUOUS
 62
     7
 10
536.77152519620086
 20
474.79638917219643
 30
0.0
 40
8.6593029999999942
 50
275.65153399999917
 51
277.96585199999703
  0
LINE
  5
4D18
  8
0
  6
CONTINUOUS
 62
     7
 10
533.20671919620099
 20
470.18534817219631
 30
0.0
 11
535.85435219620069
 21
470.18534817219631
 31
0.0
  0
LINE
  5
4D19
  8
0
  6
CONTINUOUS
 62
     7
 10
540.58846919620078
 20
465.67881117219622
 30
0.0
 11
546.21793219620076
 21
465.67881117219622
 31
0.0
  0
LINE
  5
4D1A
  8
0
  6
CONTINUOUS
 62
     7
 10
546.21793219620076
 20
465.67881117219622
 30
0.0
 11
546.45556819620106
 21
467.0633481721963
 31
0.0
  0
LINE
  5
4D1B
  8
0
  6
CONTINUOUS
 62
     7
 10
543.57088419620095
 20
466.17917717219632
 30
0.0
 11
545.35976719620112
 21
466.17917717219632
 31
0.0
  0
LINE
  5
4D1C
  8
0
  6
CONTINUOUS
 62
     7
 10
538.92250919620096
 20
466.82701917219629
 30
0.0
 11
538.92250919620096
 21
469.53302517219612
 31
0.0
  0
LINE
  5
4D1D
  8
0
  6
CONTINUOUS
 62
     7
 10
541.16285619620066
 20
466.53541517219622
 30
0.0
 11
541.16285619620066
 21
469.62277817219632
 31
0.0
  0
LINE
  5
4D1E
  8
0
  6
CONTINUOUS
 62
     7
 10
542.79307319620091
 20
466.9569881721963
 30
0.0
 11
542.79307319620091
 21
469.62334017219632
 31
0.0
  0
LINE
  5
4D1F
  8
0
  6
CONTINUOUS
 62
     7
 10
548.11278919620088
 20
465.67881117219622
 30
0.0
 11
549.86428619620085
 21
465.67881117219622
 31
0.0
  0
LINE
  5
4D20
  8
0
  6
CONTINUOUS
 62
     7
 10
548.11278919620088
 20
465.67881117219622
 30
0.0
 11
545.75756619620086
 21
469.64947717219633
 31
0.0
  0
LINE
  5
4D21
  8
0
  6
CONTINUOUS
 62
     7
 10
549.52054219620095
 20
466.14446117219637
 30
0.0
 11
547.60653919620086
 21
469.37127417219631
 31
0.0
  0
LINE
  5
4D22
  8
0
  6
CONTINUOUS
 62
     7
 10
549.52054219620095
 20
466.14446117219637
 30
0.0
 11
551.41027619620081
 21
469.40612517219608
 31
0.0
  0
LINE
  5
4D23
  8
0
  6
CONTINUOUS
 62
     7
 10
549.86428619620085
 20
465.67881117219622
 30
0.0
 11
552.16807619620079
 21
469.65513017219632
 31
0.0
  0
LINE
  5
4D24
  8
0
  6
CONTINUOUS
 62
     7
 10
555.6918971962009
 20
467.53730817219622
 30
0.0
 11
554.44410319620079
 21
469.72833017219631
 31
0.0
  0
LINE
  5
4D25
  8
0
  6
CONTINUOUS
 62
     7
 10
553.14627319620058
 20
467.53730817219622
 30
0.0
 11
554.44410319620079
 21
469.72833017219631
 31
0.0
  0
LINE
  5
4D26
  8
0
  6
CONTINUOUS
 62
     7
 10
551.14057119620111
 20
470.18534817219631
 30
0.0
 11
552.85996319620085
 21
470.18534817219631
 31
0.0
  0
LINE
  5
4D27
  8
0
  6
CONTINUOUS
 62
     7
 10
544.99496519620095
 20
470.18534817219631
 30
0.0
 11
547.96173319620095
 21
470.18534817219631
 31
0.0
  0
LINE
  5
4D28
  8
0
  6
CONTINUOUS
 62
     7
 10
554.11892619620085
 20
470.18534817219631
 30
0.0
 11
555.8999281962009
 21
470.18534817219631
 31
0.0
  0
LINE
  5
4D29
  8
0
  6
CONTINUOUS
 62
     7
 10
555.99169119620046
 20
465.67881117219622
 30
0.0
 11
559.07498019620107
 21
465.67881117219622
 31
0.0
  0
LINE
  5
4D2A
  8
0
  6
CONTINUOUS
 62
     7
 10
551.09778419620091
 20
465.67881117219622
 30
0.0
 11
552.85052919620091
 21
465.67881117219622
 31
0.0
  0
LINE
  5
4D2B
  8
0
  6
CONTINUOUS
 62
     7
 10
552.54550719620113
 20
466.5230821721961
 30
0.0
 11
552.84732319620105
 21
467.03261417219642
 31
0.0
  0
LINE
  5
4D2C
  8
0
  6
CONTINUOUS
 62
     7
 10
556.27747719620095
 20
466.50908117219632
 30
0.0
 11
555.97932319620099
 21
467.03261417219642
 31
0.0
  0
LINE
  5
4D2D
  8
0
  6
CONTINUOUS
 62
     7
 10
551.80257919620112
 20
466.27484617219631
 30
0.0
 11
554.11892619620085
 21
470.18534817219631
 31
0.0
  0
LINE
  5
4D2E
  8
0
  6
CONTINUOUS
 62
     7
 10
558.27528519620091
 20
466.28297517219642
 30
0.0
 11
555.8999281962009
 21
470.18534817219631
 31
0.0
  0
LINE
  5
4D2F
  8
0
  6
CONTINUOUS
 62
     7
 10
535.34570419620093
 20
466.82701917219629
 30
0.0
 11
535.34570419620093
 21
469.52165817219628
 31
0.0
  0
LINE
  5
4D30
  8
0
  6
CONTINUOUS
 62
     7
 10
533.71548619620091
 20
466.78609317219622
 30
0.0
 11
533.71548619620091
 21
469.52161717219627
 31
0.0
  0
LINE
  5
4D31
  8
0
  6
CONTINUOUS
 62
     7
 10
553.14627319620058
 20
467.53730817219622
 30
0.0
 11
555.6918971962009
 21
467.53730817219622
 31
0.0
  0
LINE
  5
4D32
  8
0
  6
CONTINUOUS
 62
     7
 10
552.84732319620105
 20
467.03261417219642
 30
0.0
 11
555.97932319620099
 21
467.03261417219642
 31
0.0
  0
LINE
  5
4D33
  8
0
  6
CONTINUOUS
 62
     7
 10
540.64985319620075
 20
470.18534817219631
 30
0.0
 11
543.30250519620085
 21
470.18534817219631
 31
0.0
  0
INSERT
  5
4D34
  8
0
 62
     7
  2
*U16
 10
229.16535138880249
 20
430.38009397959462
 30
0.0
  0
LINE
  5
4D35
  8
0
 62
     7
 10
649.16535138880238
 20
742.64911461951374
 30
0.0
 11
649.16535138880238
 21
430.38009397959462
 31
0.0
  0
LINE
  5
4D36
  8
0
 62
     7
 10
649.16535138880238
 20
430.38009397959462
 30
0.0
 11
255.98865965289721
 21
430.38009397959462
 31
0.0
  0
CIRCLE
  5
4D38
  8
0
 62
     7
 10
408.02979759148587
 20
663.22858472016787
 30
0.0
 40
0.5499999523162842
  0
CIRCLE
  5
4D39
  8
0
 62
     7
 10
388.44579759148598
 20
666.39658472016811
 30
0.0
 40
1.299999952316284
  0
INSERT
  5
4D3A
  8
0
 62
     7
  2
*U29
 10
278.67703623442497
 20
382.69157808903623
 30
0.0
  0
CIRCLE
  5
4D3B
  8
0
 62
     7
 10
415.17979768685342
 20
646.72858472016787
 30
0.0
 40
1.5
  0
CIRCLE
  5
4D3C
  8
0
 62
     7
 10
415.17979768685342
 20
646.72858472016787
 30
0.0
 40
1.200000047683714
  0
LINE
  5
4D3D
  8
0
 62
     7
 10
417.67979604009139
 20
648.17196297307942
 30
0.0
 11
415.17979788488321
 21
649.61533760686848
 31
0.0
  0
LINE
  5
4D3E
  8
0
 62
     7
 10
415.1797960400915
 20
643.84183603187535
 30
0.0
 11
412.67979788488321
 21
645.28521066566441
 31
0.0
  0
LINE
  5
4D3F
  8
0
 62
     7
 10
417.67979768685348
 20
645.28521008637904
 30
0.0
 11
417.67979768685348
 21
648.17195935395716
 31
0.0
  0
LINE
  5
4D40
  8
0
 62
     7
 10
412.67979768685348
 20
645.28521008637904
 30
0.0
 11
412.67979768685348
 21
648.17195935395716
 31
0.0
  0
LINE
  5
4D41
  8
0
 62
     7
 10
415.17980099990621
 20
649.61533262443913
 30
0.0
 11
412.67979960559711
 21
648.17195612055434
 31
0.0
  0
LINE
  5
4D42
  8
0
 62
     7
 10
417.67980099990598
 20
645.28520568323495
 30
0.0
 11
415.17979960559722
 21
643.84182917935016
 31
0.0
  0
LINE
  5
4D43
  8
0
  6
CENTER
 62
     7
 10
417.17980531624801
 20
646.72858472016787
 30
0.0
 11
413.17980531624801
 21
646.72858472016787
 31
0.0
  0
LINE
  5
4D44
  8
0
  6
CENTER
 62
     7
 10
415.17979768685342
 20
644.7285847201681
 30
0.0
 11
415.17979768685342
 21
648.7285847201681
 31
0.0
  0
LINE
  5
4D45
  8
0
 62
     7
 10
408.85453370980241
 20
641.22859234956252
 30
0.0
 11
388.00506166390443
 21
641.22859234956252
 31
0.0
  0
LINE
  5
4D46
  8
0
 62
     7
 10
407.97290376595492
 20
652.2285847201681
 30
0.0
 11
388.88669160775191
 21
652.2285847201681
 31
0.0
  0
LINE
  5
4D47
  8
0
  6
CENTER
 62
     7
 10
381.67979768685348
 20
644.7285847201681
 30
0.0
 11
381.67979768685348
 21
648.7285847201681
 31
0.0
  0
LINE
  5
4D48
  8
0
  6
CENTER
 62
     7
 10
383.67980531624801
 20
646.72858472016787
 30
0.0
 11
379.67980531624801
 21
646.72858472016787
 31
0.0
  0
LINE
  5
4D49
  8
0
 62
     7
 10
384.17980099990632
 20
645.28520568323495
 30
0.0
 11
381.67979960559722
 21
643.84182917935016
 31
0.0
  0
LINE
  5
4D4A
  8
0
 62
     7
 10
381.67980099990632
 20
649.61533262443913
 30
0.0
 11
379.17979960559722
 21
648.17195612055434
 31
0.0
  0
LINE
  5
4D4B
  8
0
 62
     7
 10
379.17979768685348
 20
645.28521008637904
 30
0.0
 11
379.17979768685348
 21
648.17195935395716
 31
0.0
  0
LINE
  5
4D4C
  8
0
 62
     7
 10
384.17979768685348
 20
645.28521008637904
 30
0.0
 11
384.17979768685348
 21
648.17195935395716
 31
0.0
  0
LINE
  5
4D4D
  8
0
 62
     7
 10
381.6797960400915
 20
643.84183603187535
 30
0.0
 11
379.17979788488321
 21
645.28521066566441
 31
0.0
  0
LINE
  5
4D4E
  8
0
 62
     7
 10
384.17979604009139
 20
648.17196297307942
 30
0.0
 11
381.67979788488321
 21
649.61533760686848
 31
0.0
  0
LINE
  5
4D4F
  8
0
 62
     7
 10
411.80895865432319
 20
644.74952848280805
 30
0.0
 11
410.92732372544521
 21
649.74952848202565
 31
0.0
  0
LINE
  5
4D50
  8
0
 62
     7
 10
385.0506348670425
 20
644.74953125673619
 30
0.0
 11
385.93226979592072
 21
649.74953125595425
 31
0.0
  0
CIRCLE
  5
4D51
  8
0
 62
     7
 10
381.67979768685348
 20
646.72858472016787
 30
0.0
 40
1.200000047683714
  0
CIRCLE
  5
4D52
  8
0
 62
     7
 10
381.67979768685348
 20
646.72858472016787
 30
0.0
 40
1.5
  0
CIRCLE
  5
4D53
  8
0
 62
     7
 10
386.70869020394321
 20
644.87636609223819
 30
0.0
 40
0.6111111044883728
  0
CIRCLE
  5
4D54
  8
0
 62
     7
 10
396.75535921029092
 20
644.87637372163294
 30
0.0
 40
0.6111111044883728
  0
CIRCLE
  5
4D55
  8
0
 62
     7
 10
393.40646699837691
 20
644.87636609223819
 30
0.0
 40
0.6111111044883728
  0
CIRCLE
  5
4D56
  8
0
 62
     7
 10
390.05757478646291
 20
644.87636609223819
 30
0.0
 40
0.6111111044883728
  0
CIRCLE
  5
4D57
  8
0
 62
     7
 10
388.38312868050582
 20
648.34747357514846
 30
0.0
 40
0.6111111044883728
  0
ARC
  5
4D58
  8
0
 62
     7
 10
398.42979768685359
 20
648.3474812045431
 30
0.0
 40
0.6111111044883728
 50
89.999990665332334
 51
270.00000250447852
  0
CIRCLE
  5
4D59
  8
0
 62
     7
 10
395.0809054749393
 20
648.34747357514846
 30
0.0
 40
0.6111111044883728
  0
CIRCLE
  5
4D5A
  8
0
 62
     7
 10
391.7320285218143
 20
648.34747357514846
 30
0.0
 40
0.6111111044883728
  0
CIRCLE
  5
4D5B
  8
0
 62
     7
 10
410.15090516976358
 20
644.87637372163294
 30
0.0
 40
0.6111111044883728
  0
CIRCLE
  5
4D5C
  8
0
 62
     7
 10
400.10423616341592
 20
644.87637372163294
 30
0.0
 40
0.6111111044883728
  0
CIRCLE
  5
4D5D
  8
0
 62
     7
 10
403.45312837532998
 20
644.87637372163294
 30
0.0
 40
0.6111111044883728
  0
CIRCLE
  5
4D5E
  8
0
 62
     7
 10
406.8020205872441
 20
644.87637372163294
 30
0.0
 40
0.6111111044883728
  0
CIRCLE
  5
4D5F
  8
0
 62
     7
 10
408.47646669320102
 20
648.3474812045431
 30
0.0
 40
0.6111111044883728
  0
ARC
  5
4D60
  8
0
 62
     7
 10
398.42979768685359
 20
648.3474812045431
 30
0.0
 40
0.6111111044883728
 50
269.99999567428921
 51
90.000000683246213
  0
CIRCLE
  5
4D61
  8
0
 62
     7
 10
401.77868989876742
 20
648.3474812045431
 30
0.0
 40
0.6111111044883728
  0
CIRCLE
  5
4D62
  8
0
 62
     7
 10
405.12756685189248
 20
648.3474812045431
 30
0.0
 40
0.6111111044883728
  0
ARC
  5
4D63
  8
0
 62
     7
 10
408.85453370980241
 20
644.2285923495624
 30
0.0
 40
3.0
 50
270.00000250447852
 51
10.00000301049927
  0
ARC
  5
4D64
  8
0
 62
     7
 10
388.00506166390443
 20
644.2285923495624
 30
0.0
 40
3.0
 50
170.00000029090671
 51
270.00000250447852
  0
ARC
  5
4D65
  8
0
 62
     7
 10
388.88669160775191
 20
649.2285847201681
 30
0.0
 40
3.0
 50
89.999997495521498
 51
170.00000029090671
  0
ARC
  5
4D66
  8
0
 62
     7
 10
407.97290376595492
 20
649.2285847201681
 30
0.0
 40
3.0
 50
10.00000665296692
 51
89.999997495521498
  0
INSERT
  5
4D67
  8
0
 62
     7
  2
*U30
 10
278.67703623442497
 20
382.69157808903623
 30
0.0
  0
INSERT
  5
4D68
  8
0
 62
     7
  2
*U31
 10
278.67703623442497
 20
382.69157808903623
 30
0.0
  0
INSERT
  5
4D69
  8
0
 62
     7
  2
*U32
 10
278.67703623442497
 20
382.69157808903623
 30
0.0
  0
INSERT
  5
4D6A
  8
0
 62
     7
  2
*U33
 10
278.67703623442497
 20
382.69157808903623
 30
0.0
  0
INSERT
  5
4D6B
  8
0
 62
     7
  2
*U34
 10
278.67703623442497
 20
382.69157808903623
 30
0.0
  0
CIRCLE
  5
4D6C
  8
0
 62
     7
 10
398.42979768685359
 20
654.22858472016799
 30
0.0
 40
27.5
  0
LINE
  5
4D6D
  8
0
  6
AM_ISO08W050
 62
     7
 10
398.42979768685359
 20
654.22858472016799
 30
0.0
 11
365.92979768685348
 21
654.22858472016799
 31
0.0
1001
GENIUS_GENOREF_13
1005
4D78
  0
LINE
  5
4D6E
  8
0
  6
AM_ISO08W050
 62
     7
 10
398.42979768685359
 20
654.22858472016799
 30
0.0
 11
430.92979768685342
 21
654.22858472016799
 31
0.0
1001
GENIUS_GENOREF_13
1005
4D77
  0
LINE
  5
4D6F
  8
0
  6
AM_ISO08W050
 62
     7
 10
398.42979768685359
 20
654.22858472016799
 30
0.0
 11
398.42979768685359
 21
686.7285847201681
 31
0.0
1001
GENIUS_GENOREF_13
1005
4D77
  0
LINE
  5
4D70
  8
0
  6
AM_ISO08W050
 62
     7
 10
398.42979768685359
 20
654.22858472016799
 30
0.0
 11
398.42979768685359
 21
621.72858472016799
 31
0.0
1001
GENIUS_GENOREF_13
1005
4D77
  0
LINE
  5
4D71
  8
0
  6
AM_ISO08W050
 62
     7
 10
398.42979768685359
 20
479.1954924611087
 30
0.0
 11
398.42979768685359
 21
601.20667908727285
 31
0.0
1001
GENIUS_GENODEF_13
1002
{
1000
HIER
1070
     0
1002
}
1002
{
1000
MANEDIT
1070
     0
1002
}
1002
{
1000
NOSEL
1070
     0
1002
}
1002
{
1000
BEHIND
1070
     0
1002
}
1002
{
1000
OTHER
1070
     0
1002
}
1002
{
1000
REACTOR
1002
}
1001
GENIUS_GENOBJ-N-CEN_13
1002
{
1000
OWNER
1000
GEN
1002
}
1001
GENIUS_GENCEN_19
1002
{
1040
0.11
1002
}
  0
POINT
  5
4D77
  8
0
 10
301.88633756091548
 20
651.33241064805725
 30
0.0
1001
GENIUS_GENOENT_13
1002
{
1000
MYREF
1005
4D77
1002
}
1002
{
1000
GRP
1005
0
1002
}
1001
GENIUS_GENOBJ-N-CRS_13
1002
{
1000
OWNER
1000
GEN
1002
}
1001
GENIUS_GENOLIS_13
1002
{
1000
ENT
1005
4D70
1005
0
1005
4D6F
1005
4D6E
1002
}
1001
GENIUS_GENODEF_13
1002
{
1000
HIER
1070
    10
1002
}
1002
{
1000
MANEDIT
1070
     1
1002
}
1002
{
1000
NOSEL
1070
     0
1002
}
1002
{
1000
BEHIND
1070
     0
1002
}
1002
{
1000
OTHER
1070
     0
1002
}
1002
{
1000
REACTOR
1002
}
  0
POINT
  5
4D78
  8
0
 10
301.88633756091548
 20
651.33241064805725
 30
0.0
1001
GENIUS_GENOENT_13
1002
{
1000
MYREF
1005
4D78
1002
}
1002
{
1000
GRP
1005
0
1002
}
1001
GENIUS_GENOBJ-N-CRS_13
1002
{
1000
OWNER
1000
GEN
1002
}
1001
GENIUS_GENOLIS_13
1002
{
1000
ENT
1005
0
1005
4D6D
1005
0
1005
0
1002
}
1001
GENIUS_GENODEF_13
1002
{
1000
HIER
1070
    10
1002
}
1002
{
1000
MANEDIT
1070
     1
1002
}
1002
{
1000
NOSEL
1070
     0
1002
}
1002
{
1000
BEHIND
1070
     0
1002
}
1002
{
1000
OTHER
1070
     0
1002
}
1002
{
1000
REACTOR
1002
}
  0
INSERT
  5
506D
  8
PROFILE2
  2
*U57
 10
0.0
 20
0.0
 30
0.0
  0
INSERT
  5
506E
  8
PROFILE2
  2
*U58
 10
0.0
 20
0.0
 30
0.0
  0
DIMENSION
  5
5087
  8
AM_5
 62
     7
  2
*D52
 10
347.54695152869289
 20
481.7637817567516
 30
0.0
 11
344.54695152869289
 21
538.26378175675165
 31
0.0
 70
     0
 13
371.92979768685359
 23
594.76378175675165
 33
0.0
 14
495.20754648358138
 24
481.7637817567516
 34
0.0
 50
90.000000000000028
1001
ACAD_DSTYLE_DIMINSPECT
1070
   396
1000
100%
1070
   395
1000

1070
   394
1070
    33
1070
   393
1070
     0
1001
ACAD
1000
DSTYLE
1002
{
1070
   287
1070
     3
1070
   271
1070
     4
1070
   272
1070
     4
1070
   274
1070
     2
1070
   279
1070
     0
1070
   284
1070
     0
1070
   285
1070
     0
1070
   286
1070
     0
1070
   340
1005
4EF3
1070
   341
1005
4F8B
1070
     5
1000
OPEN30
1002
}
  0
DIMENSION
  5
50B8
  8
AM_5
 62
     7
  2
*D53
 10
357.54695152869289
 20
481.7637817567516
 30
0.0
 11
354.3469515286929
 21
495.9637817567517
 31
0.0
 70
     0
  1
(<>)
 13
392.07979921273261
 23
510.16378175675158
 33
0.0
 14
383.4297976868537
 24
481.7637817567516
 34
0.0
 50
90.000000000000028
1001
ACAD_DSTYLE_DIMINSPECT
1070
   396
1000
100%
1070
   395
1000

1070
   394
1070
    33
1070
   393
1070
     0
1001
ACAD
1000
DSTYLE
1002
{
1070
   287
1070
     3
1070
   271
1070
     4
1070
   272
1070
     4
1070
   274
1070
     2
1070
   279
1070
     0
1070
   284
1070
     0
1070
   285
1070
     0
1070
   286
1070
     0
1070
   340
1005
4EF3
1070
   341
1005
4F8B
1070
     5
1000
OPEN30
1002
}
  0
DIMENSION
  5
50E9
  8
AM_5
 62
     7
  2
*D54
 10
438.40902020326689
 20
525.36378175675145
 30
0.0
 11
435.40902020326678
 21
560.06378175675172
 31
0.0
 70
     0
  1
<>
 13
424.92979768685359
 23
594.76378175675165
 33
0.0
 14
425.9297976868537
 24
525.36378175675145
 34
0.0
 50
90.000000000000028
1001
ACAD_DSTYLE_DIMINSPECT
1070
   396
1000
100%
1070
   395
1000

1070
   394
1070
    33
1070
   393
1070
     0
1001
ACAD
1000
DSTYLE
1002
{
1070
   287
1070
     3
1070
   271
1070
     4
1070
   272
1070
     4
1070
   274
1070
     2
1070
   279
1070
     0
1070
   285
1070
     0
1070
   340
1005
4EF3
1070
   341
1005
4F8B
1070
     5
1000
OPEN30
1002
}
  0
DIMENSION
  5
5108
  8
AM_5
 62
     7
  2
*D55
 10
438.40902020326689
 20
598.76378147064918
 30
0.0
 11
435.40902020326678
 21
606.56378147064925
 31
0.0
 70
     0
  1
<>
 13
424.92979768685359
 23
594.76378175675165
 33
0.0
 14
417.67979768685359
 24
598.76378147064918
 34
0.0
 50
90.000000000000028
1001
ACAD_DSTYLE_DIMINSPECT
1070
   396
1000
100%
1070
   395
1000

1070
   394
1070
    33
1070
   393
1070
     0
1001
ACAD
1000
DSTYLE
1002
{
1070
   287
1070
     3
1070
   271
1070
     4
1070
   272
1070
     4
1070
   274
1070
     2
1070
   279
1070
     0
1070
   285
1070
     0
1070
   340
1005
4EF3
1070
   341
1005
4F8B
1070
     5
1000
OPEN30
1002
}
  0
DIMENSION
  5
515E
  8
AM_5
 62
     7
  2
*D56
 10
370.9297976868537
 20
607.63416166901754
 30
0.0
 11
398.4297976868537
 21
610.63416166901754
 31
0.0
 70
     0
  1
%%c<>
 13
425.92979768685359
 23
593.76378175675165
 33
0.0
 14
370.9297976868537
 24
593.76378175675165
 34
0.0
1001
ACAD_DSTYLE_DIMINSPECT
1070
   396
1000
100%
1070
   395
1000

1070
   394
1070
    33
1070
   393
1070
     0
1001
ACAD
1000
DSTYLE
1002
{
1070
   287
1070
     3
1070
   271
1070
     4
1070
   272
1070
     4
1070
   274
1070
     2
1070
   279
1070
     0
1070
   284
1070
     0
1070
   285
1070
     0
1070
   286
1070
     0
1070
   340
1005
4EF3
1070
   341
1005
4F8B
1070
     5
1000
OPEN30
1002
}
  0
VIEWPORT
  5
19A2
 67
     1
  8
0
 10
133.34999084472651
 20
101.5999970436096
 30
0.0
 40
381.63220140633928
 41
228.4221935424805
 68
     1
 69
     1
1001
ACAD
1000
MVIEW
1002
{
1070
    16
1010
0.0
1020
0.0
1030
0.0
1010
0.0
1020
0.0
1030
1.0
1040
0.0
1040
228.4221935424805
1040
133.34999084472651
1040
101.5999970436096
1040
50.0
1040
0.0
1040
0.0
1070
     0
1070
   100
1070
     1
1070
     1
1070
     0
1070
     0
1070
     0
1070
     0
1040
0.0
1040
0.0
1040
0.0
1040
10.0
1040
10.0
1040
10.0
1040
10.0
1070
     0
1002
{
1002
}
1002
}
1001
GENIUS_GENOBJ-N-SDF_13
1002
{
1000
OWNER
1000
GEN
1002
}
1001
GENIUS_GENODEF_13
1002
{
1000
HIER
1070
     0
1002
}
1002
{
1000
MANEDIT
1070
     0
1002
}
1002
{
1000
NOSEL
1070
     0
1002
}
1002
{
1000
BEHIND
1070
     0
1002
}
1002
{
1000
OTHER
1070
     0
1002
}
1002
{
1000
REACTOR
1002
}
1001
GENIUS_GENSCREG_15
1000
PF
1040
1.0
1000
DF
1040
1.0
1000
MIN
1011
-57.466109858443133
1021
-8.9998573840683772E+061
1031
-8.9998573840683772E+061
1021
-12.611099727630631
1031
0.0
1000
MAX
1011
324.16609154789609
1021
-8.9998573840683772E+061
1031
-8.9998573840683772E+061
1021
215.8110938148499
1031
0.0
1000
FLAGS
1070
     4
  0
ENDSEC
  0
EOF
