  0
SECTION
  2
HEADER
  9
$ACADVER
  1
AC1009
  9
$INSBASE
 10
0.0
 20
0.0
 30
0.0
  9
$EXTMIN
 10
3.439570214131435
 20
7.7178096235217017
 30
0.0
  9
$EXTMAX
 10
373.2062574350428
 20
304.71782762352171
 30
0.0
  9
$LIMMIN
 10
0.0
 20
0.0
  9
$LIMMAX
 10
17.0
 20
11.0
  9
$ORTHOMODE
 70
     0
  9
$REGENMODE
 70
     1
  9
$FILLMODE
 70
     1
  9
$QTEXTMODE
 70
     0
  9
$MIRRTEXT
 70
     0
  9
$DRAGMODE
 70
     2
  9
$LTSCALE
 40
1.0
  9
$OSMODE
 70
    39
  9
$ATTMODE
 70
     1
  9
$TEXTSIZE
 40
0.2
  9
$TRACEWID
 40
0.05
  9
$TEXTSTYLE
  7
STANDARD
  9
$CLAYER
  8
0
  9
$CELTYPE
  6
BYLAYER
  9
$CECOLOR
 62
   256
  9
$DIMSCALE
 40
1.0
  9
$DIMASZ
 40
0.12
  9
$DIMEXO
 40
0.05
  9
$DIMDLI
 40
0.5
  9
$DIMRND
 40
0.0
  9
$DIMDLE
 40
0.0
  9
$DIMEXE
 40
0.1
  9
$DIMTP
 40
0.1
  9
$DIMTM
 40
0.1
  9
$DIMTXT
 40
0.12
  9
$DIMCEN
 40
0.0
  9
$DIMTSZ
 40
0.0
  9
$DIMTOL
 70
     0
  9
$DIMLIM
 70
     0
  9
$DIMTIH
 70
     1
  9
$DIMTOH
 70
     1
  9
$DIMSE1
 70
     0
  9
$DIMSE2
 70
     0
  9
$DIMTAD
 70
     0
  9
$DIMZIN
 70
     7
  9
$DIMBLK
  1

  9
$DIMASO
 70
     1
  9
$DIMSHO
 70
     1
  9
$DIMPOST
  1

  9
$DIMAPOST
  1
mm
  9
$DIMALT
 70
     0
  9
$DIMALTD
 70
     2
  9
$DIMALTF
 40
25.399999999999999
  9
$DIMLFAC
 40
1.0
  9
$DIMTOFL
 70
     0
  9
$DIMTVP
 40
0.0
  9
$DIMTIX
 70
     0
  9
$DIMSOXD
 70
     0
  9
$DIMSAH
 70
     0
  9
$DIMBLK1
  1

  9
$DIMBLK2
  1

  9
$DIMSTYLE
  2
AM_ANSI
  9
$DIMCLRD
 70
   256
  9
$DIMCLRE
 70
   256
  9
$DIMCLRT
 70
   140
  9
$DIMTFAC
 40
0.71
  9
$DIMGAP
 40
0.06
  9
$LUNITS
 70
     2
  9
$LUPREC
 70
     4
  9
$SKETCHINC
 40
0.1
  9
$FILLETRAD
 40
0.125
  9
$AUNITS
 70
     0
  9
$AUPREC
 70
     0
  9
$MENU
  1
.
  9
$ELEVATION
 40
0.0
  9
$PELEVATION
 40
0.0
  9
$THICKNESS
 40
0.0
  9
$LIMCHECK
 70
     0
  9
$BLIPMODE
 70
     0
  9
$CHAMFERA
 40
0.125
  9
$CHAMFERB
 40
0.125
  9
$SKPOLY
 70
     0
  9
$TDCREATE
 40
2456301.4472599542
  9
$TDUPDATE
 40
2456786.3860112042
  9
$TDINDWG
 40
0.0040438773
  9
$TDUSRTIMER
 40
0.0040438773
  9
$USRTIMER
 70
     1
  9
$ANGBASE
 50
0.0
  9
$ANGDIR
 70
     0
  9
$PDMODE
 70
     0
  9
$PDSIZE
 40
0.0
  9
$PLINEWID
 40
0.0
  9
$COORDS
 70
     1
  9
$SPLFRAME
 70
     0
  9
$SPLINETYPE
 70
     6
  9
$SPLINESEGS
 70
     8
  9
$ATTDIA
 70
     1
  9
$ATTREQ
 70
     1
  9
$HANDLING
 70
     1
  9
$HANDSEED
  5
EE8
  9
$SURFTAB1
 70
     6
  9
$SURFTAB2
 70
     6
  9
$SURFTYPE
 70
     6
  9
$SURFU
 70
     6
  9
$SURFV
 70
     6
  9
$UCSNAME
  2

  9
$UCSORG
 10
0.0
 20
0.0
 30
0.0
  9
$UCSXDIR
 10
1.0
 20
0.0
 30
0.0
  9
$UCSYDIR
 10
0.0
 20
1.0
 30
0.0
  9
$PUCSNAME
  2

  9
$PUCSORG
 10
0.0
 20
0.0
 30
0.0
  9
$PUCSXDIR
 10
1.0
 20
0.0
 30
0.0
  9
$PUCSYDIR
 10
0.0
 20
1.0
 30
0.0
  9
$USERI1
 70
     0
  9
$USERI2
 70
     0
  9
$USERI3
 70
     0
  9
$USERI4
 70
     0
  9
$USERI5
 70
     0
  9
$USERR1
 40
0.0
  9
$USERR2
 40
0.0
  9
$USERR3
 40
0.0
  9
$USERR4
 40
0.0
  9
$USERR5
 40
0.0
  9
$WORLDVIEW
 70
     1
  9
$SHADEDGE
 70
     3
  9
$SHADEDIF
 70
    70
  9
$TILEMODE
 70
     1
  9
$MAXACTVP
 70
    64
  9
$PLIMCHECK
 70
     0
  9
$PEXTMIN
 10
1.0000000000000000E+020
 20
1.0000000000000000E+020
 30
1.0000000000000000E+020
  9
$PEXTMAX
 10
-1.0000000000000000E+020
 20
-1.0000000000000000E+020
 30
-1.0000000000000000E+020
  9
$PLIMMIN
 10
0.0
 20
0.0
  9
$PLIMMAX
 10
12.0
 20
9.0
  9
$UNITMODE
 70
     0
  9
$VISRETAIN
 70
     1
  9
$PLINEGEN
 70
     0
  9
$PSLTSCALE
 70
     1
  0
ENDSEC
  0
SECTION
  2
TABLES
  0
TABLE
  2
VPORT
 70
     1
  0
VPORT
  2
*ACTIVE
 70
     0
 10
0.0
 20
0.0
 11
1.0
 21
1.0
 12
186.02969065796799
 22
162.1987426586565
 13
0.0
 23
0.0
 14
0.125
 24
0.125
 15
1.0
 25
1.0
 16
0.0
 26
0.0
 36
1.0
 17
0.0
 27
0.0
 37
0.0
 40
365.96838393617003
 41
2.0880713489409142
 42
50.0
 43
0.0
 44
0.0
 50
0.0
 51
0.0
 71
     0
 72
   100
 73
     1
 74
     3
 75
     0
 76
     0
 77
     0
 78
     0
  0
ENDTAB
  0
TABLE
  2
LTYPE
 70
    22
  0
LTYPE
  2
CONTINUOUS
 70
     0
  3
Solid line
 72
    65
 73
     0
 40
0.0
  0
LTYPE
  2
AM_ISO02W050
 70
     0
  3
__ __ __ __ __ __ __ __ __ __ __ __ __ __ __
 72
    65
 73
     2
 40
7.5
 49
6.0
 49
-1.5
  0
LTYPE
  2
AM_ISO08W050
 70
     0
  3
____ . ____ . ____ . ____ . ____ . ____ . ____
 72
    65
 73
     4
 40
18.0
 49
12.0
 49
-1.5
 49
3.0
 49
-1.5
  0
LTYPE
  2
AM_ISO09W050
 70
     0
  3
_____ . . _____ . . _____ . . ____ .. ____
 72
    65
 73
     6
 40
22.5
 49
12.0
 49
-1.5
 49
3.0
 49
-1.5
 49
3.0
 49
-1.5
  0
LTYPE
  2
AMCONSTR
 70
     0
  3
_______________________
 72
    65
 73
     2
 40
9999.0
 49
9999.0
 49
0.0
  0
LTYPE
  2
AM_ISO08W050X2
 70
     0
  3
__ . __ . __ . __ . __ . __
 72
    65
 73
     4
 40
9.0
 49
6.0
 49
-0.75
 49
1.5
 49
-0.75
  0
LTYPE
  2
AM_ISO02W050X2
 70
     0
  3
 _ _ _ _ _ _ _ _ _ _ _ _
 72
    65
 73
     2
 40
3.75
 49
3.0
 49
-0.75
  0
LTYPE
  2
AMZIGZAG
 70
     0
  3
/\/-/\/-/\/-/\/-/\/-/\/
 72
    65
 73
     2
 40
11.0001
 49
0.0001
 49
-11.0
  0
LTYPE
  2
HIDDEN
 70
     0
  3
Hidden __ __ __ __ __ __ __ __ __ __ __ __ __ _
 72
    65
 73
     2
 40
0.375
 49
0.25
 49
-0.125
  0
LTYPE
  2
CENTER
 70
     0
  3
Center ____ _ ____ _ ____ _ ____ _ ____ _ ____
 72
    65
 73
     4
 40
2.0
 49
1.25
 49
-0.25
 49
0.25
 49
-0.25
  0
LTYPE
  2
PHANTOM2
 70
     0
  3
Phantom (.5x) ___ _ _ ___ _ _ ___ _ _ ___ _ _
 72
    65
 73
     6
 40
1.25
 49
0.625
 49
-0.125
 49
0.125
 49
-0.125
 49
0.125
 49
-0.125
  0
LTYPE
  2
CENTER2
 70
     0
  3
Center (.5x) ___ _ ___ _ ___ _ ___ _ ___ _ ___
 72
    65
 73
     4
 40
1.125
 49
0.75
 49
-0.125
 49
0.125
 49
-0.125
  0
LTYPE
  2
HIDDEN2
 70
     0
  3
Hidden (.5x) _ _ _ _ _ _ _ _ _ _ _ _ _ _ _ _ _
 72
    65
 73
     2
 40
0.1875
 49
0.125
 49
-0.0625
  0
LTYPE
  2
AMZIGZAG2
 70
     0
  3
/\/-/\/-/\/-/\/-/\/-/\/
 72
    65
 73
     2
 40
0.4401
 49
0.0001
 49
-0.4400000000000001
  0
LTYPE
  2
ACANSTGB
 70
     0
  3
__ . . __ . .
 72
    65
 73
     6
 40
0.35433070866
 49
0.15748031496
 49
-0.03937007874
 49
0.03937007874
 49
-0.03937007874
 49
0.03937007874
 49
-0.03937007874
  0
LTYPE
  2
ACANSTGL
 70
     0
  3
_ _ _ _ _
 72
    65
 73
     2
 40
0.11811023622
 49
0.07874015748
 49
-0.03937007874
  0
LTYPE
  2
ACJISTGB
 70
     0
  3
__ . . __ . .
 72
    65
 73
     6
 40
9.0
 49
4.0
 49
-1.0
 49
1.0
 49
-1.0
 49
1.0
 49
-1.0
  0
LTYPE
  2
ACJISTGL
 70
     0
  3
_ _ _ _ _
 72
    65
 73
     2
 40
3.0
 49
2.0
 49
-1.0
  0
LTYPE
  2
ACJISWELD
 70
     0
  3
_ _ _ _ _
 72
    65
 73
     2
 40
2.0
 49
2.0
 49
-1.0
  0
LTYPE
  2
NON_PLOTING
 70
     0
  3
Solid line
 72
    65
 73
     0
 40
0.0
  0
ENDTAB
  0
TABLE
  2
LAYER
 70
     2
  0
LAYER
  2
0
 70
     0
 62
     7
  6
CONTINUOUS
  0
LAYER
  2
DEFPOINTS
 70
     0
 62
     7
  6
CONTINUOUS
  0
ENDTAB
  0
TABLE
  2
STYLE
 70
    11
  0
STYLE
  2
STANDARD
 70
     0
 40
0.0
 41
1.0
 50
0.0
 71
     0
 42
0.2
  3
ROMANS.SHX
  4
EXTFONT.SHX
  0
STYLE
  2

 70
     1
 40
0.0
 41
1.0
 50
0.0
 71
     0
 42
0.2
  3
ltypeshp.shx
  4

  0
STYLE
  2
ACANSTS
 70
     0
 40
1.0
 41
1.0
 50
0.0
 71
     0
 42
0.2
  3
romans.shx
  4
extfont.shx
  0
STYLE
  2
ACANSGDT
 70
     0
 40
0.0
 41
1.0
 50
0.0
 71
     0
 42
0.2
  3
amgdt.shx
  4
extfont.shx
  0
STYLE
  2
USER1
 70
     0
 40
0.0
 41
1.0
 50
0.0
 71
     0
 42
0.2
  3
TXT.SHX
  4
extfont.shx
  0
STYLE
  2
USER2
 70
     0
 40
0.0
 41
1.0
 50
0.0
 71
     0
 42
0.2
  3
SIMPLEX.SHX
  4
extfont.shx
  0
STYLE
  2
USER3
 70
     0
 40
0.0
 41
1.0
 50
0.0
 71
     0
 42
0.2
  3
ITALIC.SHX
  4
extfont.shx
  0
STYLE
  2

 70
     1
 40
0.0
 41
1.0
 50
0.0
 71
     0
 42
0.2
  3
genltshp.shx
  4

  0
STYLE
  2
ACJISGDT
 70
     0
 40
0.0
 41
1.0
 50
0.0
 71
     0
 42
2.5
  3
amgdt.shx
  4
extfont.shx
  0
STYLE
  2
ULVAC
 70
     0
 40
0.0
 41
1.0
 50
0.0
 71
     0
 42
4.0
  3
extslim2.shx
  4
extfont2.shx
  0
STYLE
  2
MX_NOTE_STANDARD
 70
     0
 40
0.0
 41
1.0
 50
0.0
 71
     0
 42
4.1669999999999989
  3
txt.shx
  4
extfont.shx
  0
ENDTAB
  0
TABLE
  2
VIEW
 70
     1
  0
ENDTAB
  0
TABLE
  2
UCS
 70
     0
  0
ENDTAB
  0
TABLE
  2
APPID
 70
    20
  0
APPID
  2
ACAD
 70
     0
  0
APPID
  2
MCAD_NO_VIS
 70
     0
  0
APPID
  2
ACAD_TEMP_GRAPHIC
 70
     0
  0
APPID
  2
ACATTRIBSERVICES
 70
     0
  0
APPID
  2
AD_DRAW
 70
     0
  0
APPID
  2
DESIGNERASSEMBLIES
 70
     0
  0
APPID
  2
ACADM_DIM_EDIT
 70
     0
  0
APPID
  2
AMDT_DM_ADJ
 70
     0
  0
APPID
  2
ACAD_DSTYLE_DIMARC_LENGTH_
 70
     0
  0
APPID
  2
ACAD_DSTYLE_DIMJOGGED_JOGA
 70
     0
  0
APPID
  2
ACAD_MLEADERVER
 70
     0
  0
APPID
  2
ACAD_DSTYLE_DIMJAG
 70
     0
  0
APPID
  2
ACAD_DSTYLE_DIMBREAK
 70
     0
  0
APPID
  2
ACADANNOPO
 70
     0
  0
APPID
  2
ACAD_EXEMPT_FROM_CAD_STANDARDS
 70
     0
  0
APPID
  2
ACAD_PSEXT
 70
     0
  0
APPID
  2
ACAD_DSTYLE_DIMTEXT_FILL
 70
     0
  0
APPID
  2
ACAD_DSTYLE_DIMTALN
 70
     0
  0
APPID
  2
ACAD_DSTYLE_DIMINSPECT
 70
     0
  0
APPID
  2
CONTENTBLOCKICON
 70
     0
  0
ENDTAB
  0
TABLE
  2
DIMSTYLE
 70
    18
  0
DIMSTYLE
  2
STANDARD
 70
     0
  3

  4

  5

  6

  7

 40
1.0
 41
0.18
 42
0.0625
 43
0.38
 44
0.18
 45
0.0
 46
0.0
 47
0.0
 48
0.0
140
0.18
141
0.09
142
0.0
143
25.399999999999999
144
1.0
145
0.0
146
1.0
147
0.09
 71
     0
 72
     0
 73
     1
 74
     1
 75
     0
 76
     0
 77
     0
 78
     0
170
     0
171
     2
172
     0
173
     0
174
     0
175
     0
176
     0
177
     0
178
     0
  0
DIMSTYLE
  2
AM_ANSI
 70
     0
  3

  4
mm
  5

  6

  7

 40
1.0
 41
0.12
 42
0.05
 43
0.5
 44
0.1
 45
0.0
 46
0.0
 47
0.1
 48
0.1
140
0.12
141
0.0
142
0.0
143
25.399999999999999
144
1.0
145
0.0
146
0.71
147
0.06
 71
     0
 72
     0
 73
     1
 74
     1
 75
     0
 76
     0
 77
     0
 78
     7
170
     0
171
     2
172
     0
173
     0
174
     0
175
     0
176
   256
177
   256
178
   140
  0
DIMSTYLE
  2
AM_ANSI$3
 70
     0
  3

  4
mm
  5

  6

  7

 40
1.0
 41
0.12
 42
0.05
 43
0.5
 44
0.1
 45
0.0
 46
0.0
 47
0.1
 48
0.1
140
0.12
141
0.0
142
0.0
143
25.399999999999999
144
1.0
145
0.0
146
0.71
147
0.06
 71
     0
 72
     0
 73
     1
 74
     1
 75
     0
 76
     0
 77
     0
 78
     7
170
     0
171
     2
172
     0
173
     0
174
     0
175
     0
176
   256
177
   256
178
   140
  0
DIMSTYLE
  2
AM_ANSI$4
 70
     0
  3

  4
mm
  5

  6

  7

 40
1.0
 41
0.12
 42
0.05
 43
0.5
 44
0.1
 45
0.0
 46
0.0
 47
0.1
 48
0.1
140
0.12
141
0.0
142
0.0
143
25.399999999999999
144
1.0
145
0.0
146
0.71
147
0.06
 71
     0
 72
     0
 73
     1
 74
     1
 75
     0
 76
     0
 77
     0
 78
     7
170
     0
171
     2
172
     0
173
     0
174
     0
175
     0
176
   256
177
   256
178
   140
  0
DIMSTYLE
  2
AM_ANSI$7
 70
     0
  3

  4
mm
  5

  6

  7

 40
1.0
 41
0.12
 42
0.05
 43
0.5
 44
0.1
 45
0.0
 46
0.0
 47
0.1
 48
0.1
140
0.12
141
0.0
142
0.0
143
25.399999999999999
144
1.0
145
0.0
146
0.71
147
0.06
 71
     0
 72
     0
 73
     1
 74
     1
 75
     0
 76
     0
 77
     0
 78
     7
170
     0
171
     2
172
     0
173
     0
174
     0
175
     0
176
   256
177
   256
178
   140
  0
DIMSTYLE
  2
AM_ANSI$SF
 70
     0
  3

  4
mm
  5

  6

  7

 40
1.0
 41
0.12
 42
0.05
 43
0.5
 44
0.1
 45
0.0
 46
0.0
 47
0.1
 48
0.1
140
0.12
141
0.0
142
0.0
143
25.399999999999999
144
1.0
145
0.0
146
0.71
147
0.06
 71
     0
 72
     0
 73
     1
 74
     1
 75
     1
 76
     1
 77
     0
 78
     7
170
     0
171
     2
172
     0
173
     0
174
     0
175
     0
176
   256
177
   256
178
   140
  0
DIMSTYLE
  2
AM_ANSI$SH
 70
     0
  3

  4
mm
  5

  6
GENAXEH
  7

 40
1.0
 41
0.12
 42
0.05
 43
0.5
 44
0.1
 45
0.0
 46
0.0
 47
0.1
 48
0.1
140
0.12
141
0.0
142
0.0
143
25.399999999999999
144
1.0
145
0.0
146
0.71
147
0.06
 71
     0
 72
     0
 73
     1
 74
     1
 75
     1
 76
     1
 77
     0
 78
     7
170
     0
171
     2
172
     0
173
     1
174
     0
175
     0
176
   256
177
   256
178
   140
  0
DIMSTYLE
  2
ULVAC
 70
     0
  3

  4

  5
OPEN30
  6

  7

 40
1.0
 41
2.8999999999999999
 42
1.269999980926513
 43
10.0
 44
1.2000000476837149
 45
0.0
 46
0.0
 47
0.0
 48
0.0
140
4.0
141
0.0
142
0.0
143
0.03937007874016
144
1.0
145
0.0
146
0.75
147
1.0
 71
     0
 72
     0
 73
     0
 74
     0
 75
     0
 76
     0
 77
     1
 78
     9
170
     0
171
     4
172
     1
173
     0
174
     0
175
     0
176
     0
177
     0
178
     0
  0
DIMSTYLE
  2
ULVAC$2
 70
     0
  3

  4

  5
OPEN30
  6

  7

 40
1.0
 41
2.8999999999999999
 42
1.269999980926513
 43
10.0
 44
1.2000000476837149
 45
0.0
 46
0.0
 47
0.0
 48
0.0
140
4.0
141
0.0
142
0.0
143
0.03937007874016
144
1.0
145
0.0
146
0.75
147
1.0
 71
     0
 72
     0
 73
     0
 74
     0
 75
     0
 76
     0
 77
     1
 78
     9
170
     0
171
     4
172
     1
173
     0
174
     0
175
     0
176
     0
177
     0
178
     0
  0
DIMSTYLE
  2
ULVAC$0
 70
     0
  3

  4

  5
OPEN30
  6

  7

 40
1.0
 41
2.8999999999999999
 42
1.269999980926513
 43
10.0
 44
1.2000000476837149
 45
0.0
 46
0.0
 47
0.0
 48
0.0
140
4.0
141
0.0
142
0.0
143
0.03937007874016
144
1.0
145
0.0
146
0.75
147
1.0
 71
     0
 72
     0
 73
     0
 74
     0
 75
     0
 76
     0
 77
     1
 78
     9
170
     0
171
     4
172
     1
173
     0
174
     0
175
     0
176
     0
177
     0
178
     0
  0
DIMSTYLE
  2
ULVAC$4
 70
     0
  3

  4

  5
OPEN30
  6

  7

 40
1.0
 41
2.8999999999999999
 42
1.269999980926513
 43
10.0
 44
1.2000000476837149
 45
0.0
 46
0.0
 47
0.0
 48
0.0
140
4.0
141
0.0
142
0.0
143
0.03937007874016
144
1.0
145
0.0
146
0.75
147
1.0
 71
     0
 72
     0
 73
     0
 74
     0
 75
     1
 76
     0
 77
     1
 78
     9
170
     0
171
     4
172
     1
173
     0
174
     0
175
     0
176
     0
177
     0
178
     0
  0
DIMSTYLE
  2
ULVAC$6
 70
     0
  3

  4

  5
OPEN30
  6

  7

 40
1.0
 41
2.8999999999999999
 42
1.269999980926513
 43
10.0
 44
1.2000000476837149
 45
0.0
 46
0.0
 47
0.0
 48
0.0
140
4.0
141
0.0
142
0.0
143
0.03937007874016
144
1.0
145
0.0
146
0.75
147
1.0
 71
     0
 72
     0
 73
     0
 74
     0
 75
     0
 76
     0
 77
     1
 78
     9
170
     0
171
     4
172
     1
173
     0
174
     0
175
     0
176
   256
177
     0
178
     0
  0
DIMSTYLE
  2
ULVAC$7
 70
     0
  3

  4

  5
OPEN30
  6

  7

 40
1.0
 41
2.8999999999999999
 42
1.269999980926513
 43
10.0
 44
1.2000000476837149
 45
0.0
 46
0.0
 47
0.0
 48
0.0
140
4.0
141
0.0
142
0.0
143
0.03937007874016
144
1.0
145
0.0
146
1.0
147
1.0
 71
     0
 72
     0
 73
     0
 74
     0
 75
     0
 76
     0
 77
     1
 78
     1
170
     0
171
     4
172
     1
173
     0
174
     0
175
     0
176
     0
177
   256
178
     0
  0
DIMSTYLE
  2
ULVAC$3
 70
     0
  3

  4

  5
OPEN30
  6

  7

 40
1.0
 41
2.8999999999999999
 42
1.269999980926513
 43
10.0
 44
1.2000000476837149
 45
0.0
 46
0.0
 47
0.0
 48
0.0
140
4.0
141
0.0
142
0.0
143
0.03937007874016
144
1.0
145
0.0
146
0.75
147
1.0
 71
     0
 72
     0
 73
     0
 74
     0
 75
     0
 76
     0
 77
     1
 78
     9
170
     0
171
     4
172
     1
173
     0
174
     0
175
     0
176
     0
177
     0
178
     0
  0
DIMSTYLE
  2
ULVAC$SH
 70
     0
  3

  4

  5

  6
GENAXEH
  7
OPEN30
 40
1.0
 41
2.8999999999999999
 42
1.269999980926513
 43
10.0
 44
1.2000000476837149
 45
0.0
 46
0.0
 47
0.0
 48
0.0
140
4.0
141
0.0
142
0.0
143
0.03937007874016
144
2.0
145
0.0
146
0.75
147
1.0
 71
     0
 72
     0
 73
     0
 74
     0
 75
     0
 76
     0
 77
     1
 78
     9
170
     0
171
     4
172
     1
173
     1
174
     0
175
     0
176
     0
177
     0
178
     0
  0
DIMSTYLE
  2
ULVAC$SF
 70
     0
  3

  4

  5
OPEN30
  6

  7

 40
1.0
 41
2.8999999999999999
 42
1.269999980926513
 43
10.0
 44
1.2000000476837149
 45
0.0
 46
0.0
 47
0.0
 48
0.0
140
4.0
141
0.0
142
0.0
143
0.03937007874016
144
2.0
145
0.0
146
0.75
147
1.0
 71
     0
 72
     0
 73
     0
 74
     0
 75
     0
 76
     0
 77
     1
 78
     9
170
     0
171
     4
172
     1
173
     0
174
     0
175
     0
176
     0
177
     0
178
     0
  0
DIMSTYLE
  2
MXDIMSTYLE
 70
     0
  3

  4

  5

  6

  7

 40
1.0
 41
2.5
 42
1.27
 43
3.75
 44
1.1999999999999991
 45
0.0
 46
0.0
 47
0.0
 48
0.0
140
4.1669999999999989
141
2.5
142
0.0
143
0.03937
144
1.0
145
0.0
146
1.0
147
1.0
 71
     0
 72
     0
 73
     0
 74
     0
 75
     0
 76
     0
 77
     1
 78
     8
170
     0
171
     4
172
     1
173
     0
174
     0
175
     0
176
     0
177
     0
178
     0
  0
ENDTAB
  0
ENDSEC
  0
SECTION
  2
BLOCKS
  0
BLOCK
  8
0
  2
$MODEL_SPACE
 70
     0
 10
0.0
 20
0.0
 30
0.0
  3
$MODEL_SPACE
  1

  0
ENDBLK
  5
21
  8
0
  0
BLOCK
 67
     1
  8
0
  2
$PAPER_SPACE
 70
     0
 10
0.0
 20
0.0
 30
0.0
  3
$PAPER_SPACE
  1

  0
ENDBLK
  5
1D
 67
     1
  8
0
  0
BLOCK
  8
0
  2
GENAXEH
 70
     0
 10
0.0
 20
0.0
 30
0.0
  3
GENAXEH
  1

  0
LINE
  5
92
  8
0
 10
-1.0
 20
0.0
 30
0.0
 11
1.0
 21
0.0
 31
0.0
  0
ENDBLK
  5
94
  8
0
  0
BLOCK
  8
0
  2
_OPEN30
 70
     0
 10
0.0
 20
0.0
 30
0.0
  3
_OPEN30
  1

  0
LINE
  5
428
  8
0
  6
BYBLOCK
 62
     0
 10
-1.0
 20
0.26794919
 30
0.0
 11
0.0
 21
0.0
 31
0.0
  0
LINE
  5
429
  8
0
  6
BYBLOCK
 62
     0
 10
0.0
 20
0.0
 30
0.0
 11
-1.0
 21
-0.26794919
 31
0.0
  0
LINE
  5
42A
  8
0
  6
BYBLOCK
 62
     0
 10
0.0
 20
0.0
 30
0.0
 11
-1.0
 21
0.0
 31
0.0
  0
ENDBLK
  5
42B
  8
0
  0
BLOCK
  8
0
  2
*D4
 70
     1
 10
0.0
 20
0.0
 30
0.0
  3
*D4
  1

  0
LINE
  5
A11
  8
0
  6
CONTINUOUS
 62
     0
 10
244.2821064995928
 20
274.99962385611047
 30
0.0
 11
267.34018349959302
 21
274.99962385611047
 31
0.0
  0
LINE
  5
A12
  8
0
  6
CONTINUOUS
 62
     0
 10
244.2821064995928
 20
255.9996238561105
 30
0.0
 11
267.34018349959302
 21
255.9996238561105
 31
0.0
  0
LINE
  5
A13
  8
0
  6
CONTINUOUS
 62
     0
 10
266.14018349959298
 20
272.22962385611049
 30
0.0
 11
266.14018349959298
 21
258.7696238561104
 31
0.0
  0
INSERT
  5
A14
  8
0
  6
CONTINUOUS
 62
     0
  2
_OPEN30
 10
266.14018349959298
 20
274.99962385611047
 30
0.0
 41
2.77
 42
2.77
 43
2.77
 50
90.0
  0
INSERT
  5
A15
  8
0
  6
CONTINUOUS
 62
     0
  2
_OPEN30
 10
266.14018349959298
 20
255.9996238561105
 30
0.0
 41
2.77
 42
2.77
 43
2.77
 50
270.0
  0
INSERT
  5
A16
  8
0
  2
*U32
 10
0.0
 20
0.0
 30
0.0
  0
POINT
  5
A17
  8
DEFPOINTS
  6
CONTINUOUS
 62
     0
 10
243.01210649959279
 20
274.99962385611047
 30
0.0
  0
POINT
  5
A18
  8
DEFPOINTS
  6
CONTINUOUS
 62
     0
 10
243.01210649959279
 20
255.9996238561105
 30
0.0
  0
POINT
  5
A19
  8
DEFPOINTS
  6
CONTINUOUS
 62
     0
 10
266.14018349959298
 20
255.9996238561105
 30
0.0
  0
ENDBLK
  5
848
  8
0
  0
BLOCK
  8
0
  2
*D5
 70
     1
 10
0.0
 20
0.0
 30
0.0
  3
*D5
  1

  0
LINE
  5
A1A
  8
0
 62
     0
 10
50.153989585571367
 20
176.69670096318009
 30
0.0
 11
50.153989585571367
 21
184.75536717059791
 31
0.0
  0
LINE
  5
A1B
  8
0
 62
     0
 10
68.153989585571367
 20
176.69670096318009
 30
0.0
 11
68.153989585571367
 21
184.75536717059791
 31
0.0
  0
LINE
  5
A1C
  8
0
 62
     0
 10
65.253989585571361
 20
183.55536712291419
 30
0.0
 11
53.053989585571372
 21
183.55536712291419
 31
0.0
  0
LINE
  5
A1D
  8
0
 62
     0
 10
50.153989585571367
 20
183.55536712291419
 30
0.0
 11
36.187322918904691
 21
183.55536712291419
 31
0.0
  0
INSERT
  5
A1E
  8
0
 62
     0
  2
_OPEN30
 10
68.153989585571367
 20
183.55536712291419
 30
0.0
 41
2.8999999999999999
 42
2.8999999999999999
 43
2.8999999999999999
  0
INSERT
  5
A1F
  8
0
 62
     0
  2
_OPEN30
 10
50.153989585571367
 20
183.55536712291419
 30
0.0
 41
2.8999999999999999
 42
2.8999999999999999
 43
2.8999999999999999
 50
180.0
  0
INSERT
  5
A20
  8
0
  2
*U33
 10
0.0
 20
0.0
 30
0.0
  0
POINT
  5
A21
  8
DEFPOINTS
 62
     0
 10
50.153989585571367
 20
175.42670098225361
 30
0.0
  0
POINT
  5
A22
  8
DEFPOINTS
 62
     0
 10
68.153989585571367
 20
175.42670098225361
 30
0.0
  0
POINT
  5
A23
  8
DEFPOINTS
 62
     0
 10
68.153989585571367
 20
183.55536712291419
 30
0.0
  0
ENDBLK
  5
85E
  8
0
  0
BLOCK
  8
0
  2
*D6
 70
     1
 10
0.0
 20
0.0
 30
0.0
  3
*D6
  1

  0
LINE
  5
A24
  8
0
 62
     0
 10
65.173989544681262
 20
226.7267014822537
 30
0.0
 11
89.353989611438934
 21
226.7267014822537
 31
0.0
  0
LINE
  5
A25
  8
0
 62
     0
 10
69.423989544681262
 20
133.72669948225359
 30
0.0
 11
89.353989611438919
 21
133.72669948225359
 31
0.0
  0
LINE
  5
A26
  8
0
 62
     0
 10
88.153989563755218
 20
223.82670148225361
 30
0.0
 11
88.153989563755204
 21
136.6266994822536
 31
0.0
  0
INSERT
  5
A27
  8
0
 62
     0
  2
_OPEN30
 10
88.153989563755218
 20
226.7267014822537
 30
0.0
 41
2.8999999999999999
 42
2.8999999999999999
 43
2.8999999999999999
 50
90.0
  0
INSERT
  5
A28
  8
0
 62
     0
  2
_OPEN30
 10
88.153989563755204
 20
133.72669948225359
 30
0.0
 41
2.8999999999999999
 42
2.8999999999999999
 43
2.8999999999999999
 50
270.0
  0
INSERT
  5
A29
  8
0
  2
*U34
 10
0.0
 20
0.0
 30
0.0
  0
POINT
  5
A2A
  8
DEFPOINTS
 62
     0
 10
63.903989563754749
 20
226.7267014822537
 30
0.0
  0
POINT
  5
A2B
  8
DEFPOINTS
 62
     0
 10
68.153989563754735
 20
133.72669948225359
 30
0.0
  0
POINT
  5
A2C
  8
DEFPOINTS
 62
     0
 10
88.153989563755204
 20
133.72669948225359
 30
0.0
  0
ENDBLK
  5
86B
  8
0
  0
BLOCK
  8
0
  2
*D7
 70
     1
 10
0.0
 20
0.0
 30
0.0
  3
*D7
  1

  0
LINE
  5
A2D
  8
0
 62
     0
 10
68.848990504975063
 20
220.3266964822536
 30
0.0
 11
79.353989611439161
 21
220.3266964822536
 31
0.0
  0
LINE
  5
A2E
  8
0
 62
     0
 10
69.42398956649788
 20
133.72669948225359
 30
0.0
 11
79.353989611439147
 21
133.72669948225359
 31
0.0
  0
LINE
  5
A2F
  8
0
 62
     0
 10
78.153989563755445
 20
217.42669648225359
 30
0.0
 11
78.153989563755431
 21
136.6266994822536
 31
0.0
  0
INSERT
  5
A30
  8
0
 62
     0
  2
_OPEN30
 10
78.153989563755445
 20
220.3266964822536
 30
0.0
 41
2.8999999999999999
 42
2.8999999999999999
 43
2.8999999999999999
 50
90.0
  0
INSERT
  5
A31
  8
0
 62
     0
  2
_OPEN30
 10
78.153989563755431
 20
133.72669948225359
 30
0.0
 41
2.8999999999999999
 42
2.8999999999999999
 43
2.8999999999999999
 50
270.0
  0
INSERT
  5
A32
  8
0
  2
*U35
 10
0.0
 20
0.0
 30
0.0
  0
POINT
  5
A33
  8
DEFPOINTS
 62
     0
 10
67.57899052404855
 20
220.3266964822536
 30
0.0
  0
POINT
  5
A34
  8
DEFPOINTS
 62
     0
 10
68.153989585571367
 20
133.72669948225359
 30
0.0
  0
POINT
  5
A35
  8
DEFPOINTS
 62
     0
 10
78.153989563755431
 20
133.72669948225359
 30
0.0
  0
ENDBLK
  5
877
  8
0
  0
BLOCK
  8
0
  2
*D8
 70
     1
 10
0.0
 20
0.0
 30
0.0
  3
*D8
  1

  0
LINE
  5
A36
  8
0
 62
     0
 10
130.15398958557131
 20
183.156703501327
 30
0.0
 11
130.15398958557131
 21
181.20143745214449
 31
0.0
  0
LINE
  5
A37
  8
0
 62
     0
 10
148.15398958557131
 20
183.156703501327
 30
0.0
 11
148.15398958557131
 21
181.20143745214449
 31
0.0
  0
LINE
  5
A38
  8
0
 62
     0
 10
145.2539895855713
 20
182.40143749982821
 30
0.0
 11
133.05398958557129
 21
182.40143749982821
 31
0.0
  0
LINE
  5
A39
  8
0
 62
     0
 10
130.15398958557131
 20
182.40143749982821
 30
0.0
 11
116.1873229189047
 21
182.40143749982821
 31
0.0
  0
INSERT
  5
A3A
  8
0
 62
     0
  2
_OPEN30
 10
148.15398958557131
 20
182.40143749982821
 30
0.0
 41
2.8999999999999999
 42
2.8999999999999999
 43
2.8999999999999999
  0
INSERT
  5
A3B
  8
0
 62
     0
  2
_OPEN30
 10
130.15398958557131
 20
182.40143749982821
 30
0.0
 41
2.8999999999999999
 42
2.8999999999999999
 43
2.8999999999999999
 50
180.0
  0
INSERT
  5
A3C
  8
0
  2
*U36
 10
0.0
 20
0.0
 30
0.0
  0
POINT
  5
A3D
  8
DEFPOINTS
 62
     0
 10
130.15398958557131
 20
184.4267034822536
 30
0.0
  0
POINT
  5
A3E
  8
DEFPOINTS
 62
     0
 10
148.15398958557131
 20
184.4267034822536
 30
0.0
  0
POINT
  5
A3F
  8
DEFPOINTS
 62
     0
 10
148.15398958557131
 20
182.40143749982821
 30
0.0
  0
ENDBLK
  5
883
  8
0
  0
BLOCK
  8
0
  2
*D9
 70
     1
 10
0.0
 20
0.0
 30
0.0
  3
*D9
  1

  0
LINE
  5
A40
  8
0
 62
     0
 10
131.65399058557131
 20
138.4967034631801
 30
0.0
 11
131.65399058557131
 21
139.17052263957001
 31
0.0
  0
LINE
  5
A41
  8
0
 62
     0
 10
146.65398858557131
 20
138.4967034631801
 30
0.0
 11
146.65398858557131
 21
139.17052263957001
 31
0.0
  0
LINE
  5
A42
  8
0
 62
     0
 10
143.75398858557131
 20
137.97052259188621
 30
0.0
 11
134.5539905855714
 21
137.97052259188621
 31
0.0
  0
LINE
  5
A43
  8
0
 62
     0
 10
131.65399058557131
 20
137.97052259188621
 30
0.0
 11
117.6873239189047
 21
137.97052259188621
 31
0.0
  0
INSERT
  5
A44
  8
0
 62
     0
  2
_OPEN30
 10
146.65398858557131
 20
137.97052259188621
 30
0.0
 41
2.8999999999999999
 42
2.8999999999999999
 43
2.8999999999999999
  0
INSERT
  5
A45
  8
0
 62
     0
  2
_OPEN30
 10
131.65399058557131
 20
137.97052259188621
 30
0.0
 41
2.8999999999999999
 42
2.8999999999999999
 43
2.8999999999999999
 50
180.0
  0
INSERT
  5
A46
  8
0
  2
*U37
 10
0.0
 20
0.0
 30
0.0
  0
POINT
  5
A47
  8
DEFPOINTS
 62
     0
 10
131.65399058557131
 20
137.22670348225361
 30
0.0
  0
POINT
  5
A48
  8
DEFPOINTS
 62
     0
 10
146.65398858557131
 20
137.22670348225361
 30
0.0
  0
POINT
  5
A49
  8
DEFPOINTS
 62
     0
 10
146.65398858557131
 20
137.97052259188621
 30
0.0
  0
ENDBLK
  5
890
  8
0
  0
BLOCK
  8
0
  2
*D10
 70
     1
 10
0.0
 20
0.0
 30
0.0
  3
*D10
  1

  0
LINE
  5
A4A
  8
0
 62
     0
 10
147.92398856649791
 20
124.2267024822536
 30
0.0
 11
157.85398863325511
 21
124.2267024822536
 31
0.0
  0
LINE
  5
A4B
  8
0
 62
     0
 10
147.92398856649791
 20
150.2267034822535
 30
0.0
 11
157.85398863325511
 21
150.2267034822535
 31
0.0
  0
LINE
  5
A4C
  8
0
 62
     0
 10
156.65398858557131
 20
127.12670248225351
 30
0.0
 11
156.65398858557131
 21
147.32670348225361
 31
0.0
  0
INSERT
  5
A4D
  8
0
 62
     0
  2
_OPEN30
 10
156.65398858557131
 20
124.2267024822536
 30
0.0
 41
2.8999999999999999
 42
2.8999999999999999
 43
2.8999999999999999
 50
270.0
  0
INSERT
  5
A4E
  8
0
 62
     0
  2
_OPEN30
 10
156.65398858557131
 20
150.2267034822535
 30
0.0
 41
2.8999999999999999
 42
2.8999999999999999
 43
2.8999999999999999
 50
90.0
  0
INSERT
  5
A4F
  8
0
  2
*U38
 10
0.0
 20
0.0
 30
0.0
  0
POINT
  5
A50
  8
DEFPOINTS
 62
     0
 10
146.65398858557131
 20
124.2267024822536
 30
0.0
  0
POINT
  5
A51
  8
DEFPOINTS
 62
     0
 10
146.65398858557131
 20
150.2267034822535
 30
0.0
  0
POINT
  5
A52
  8
DEFPOINTS
 62
     0
 10
156.65398858557131
 20
150.2267034822535
 30
0.0
  0
ENDBLK
  5
89D
  8
0
  0
BLOCK
  8
0
  2
*D11
 70
     1
 10
0.0
 20
0.0
 30
0.0
  3
*D11
  1

  0
LINE
  5
A53
  8
0
 62
     0
 10
147.92398856649791
 20
124.2267024822536
 30
0.0
 11
168.1947285566709
 21
124.2267024822535
 31
0.0
  0
LINE
  5
A54
  8
0
 62
     0
 10
148.8489905664978
 20
220.3266994822535
 30
0.0
 11
168.1947285566709
 21
220.3266994822535
 31
0.0
  0
LINE
  5
A55
  8
0
 62
     0
 10
166.99472850898721
 20
127.12670248225351
 30
0.0
 11
166.99472850898721
 21
217.4266994822535
 31
0.0
  0
INSERT
  5
A56
  8
0
 62
     0
  2
_OPEN30
 10
166.99472850898721
 20
124.2267024822535
 30
0.0
 41
2.8999999999999999
 42
2.8999999999999999
 43
2.8999999999999999
 50
270.0
  0
INSERT
  5
A57
  8
0
 62
     0
  2
_OPEN30
 10
166.99472850898721
 20
220.3266994822535
 30
0.0
 41
2.8999999999999999
 42
2.8999999999999999
 43
2.8999999999999999
 50
90.0
  0
INSERT
  5
A58
  8
0
  2
*U39
 10
0.0
 20
0.0
 30
0.0
  0
POINT
  5
A59
  8
DEFPOINTS
 62
     0
 10
146.65398858557131
 20
124.2267024822536
 30
0.0
  0
POINT
  5
A5A
  8
DEFPOINTS
 62
     0
 10
147.57899058557129
 20
220.3266994822535
 30
0.0
  0
POINT
  5
A5B
  8
DEFPOINTS
 62
     0
 10
166.99472850898721
 20
220.3266994822535
 30
0.0
  0
ENDBLK
  5
8A9
  8
0
  0
BLOCK
  8
0
  2
*D12
 70
     1
 10
0.0
 20
0.0
 30
0.0
  3
*D12
  1

  0
LINE
  5
A5C
  8
0
 62
     0
 10
145.17398954468121
 20
226.7267014822535
 30
0.0
 11
184.75276993481759
 21
226.7267014822535
 31
0.0
  0
LINE
  5
A5D
  8
0
 62
     0
 10
147.92398854468121
 20
124.2267024822536
 30
0.0
 11
184.75276993481759
 21
124.2267024822535
 31
0.0
  0
LINE
  5
A5E
  8
0
 62
     0
 10
183.55276988713391
 20
223.8267014822535
 30
0.0
 11
183.55276988713379
 21
127.12670248225351
 31
0.0
  0
INSERT
  5
A5F
  8
0
 62
     0
  2
_OPEN30
 10
183.55276988713391
 20
226.7267014822535
 30
0.0
 41
2.8999999999999999
 42
2.8999999999999999
 43
2.8999999999999999
 50
90.0
  0
INSERT
  5
A60
  8
0
 62
     0
  2
_OPEN30
 10
183.55276988713379
 20
124.2267024822535
 30
0.0
 41
2.8999999999999999
 42
2.8999999999999999
 43
2.8999999999999999
 50
270.0
  0
INSERT
  5
A61
  8
0
  2
*U40
 10
0.0
 20
0.0
 30
0.0
  0
POINT
  5
A62
  8
DEFPOINTS
 62
     0
 10
143.90398956375469
 20
226.7267014822535
 30
0.0
  0
POINT
  5
A63
  8
DEFPOINTS
 62
     0
 10
146.65398856375469
 20
124.2267024822536
 30
0.0
  0
POINT
  5
A64
  8
DEFPOINTS
 62
     0
 10
183.55276988713379
 20
124.2267024822535
 30
0.0
  0
ENDBLK
  5
8B5
  8
0
  0
BLOCK
  8
0
  2
*D13
 70
     1
 10
0.0
 20
0.0
 30
0.0
  3
*D13
  1

  0
LINE
  5
A65
  8
0
 62
     0
 10
321.47676200294211
 20
124.3267014822535
 30
0.0
 11
331.40676206969931
 21
124.3267014822535
 31
0.0
  0
LINE
  5
A66
  8
0
 62
     0
 10
314.90176200294229
 20
220.3266994822535
 30
0.0
 11
331.40676206969931
 21
220.3266994822535
 31
0.0
  0
LINE
  5
A67
  8
0
 62
     0
 10
330.20676202201548
 20
127.2267014822535
 30
0.0
 11
330.2067620220156
 21
217.4266994822535
 31
0.0
  0
INSERT
  5
A68
  8
0
 62
     0
  2
_OPEN30
 10
330.20676202201548
 20
124.3267014822535
 30
0.0
 41
2.8999999999999999
 42
2.8999999999999999
 43
2.8999999999999999
 50
270.0
  0
INSERT
  5
A69
  8
0
 62
     0
  2
_OPEN30
 10
330.2067620220156
 20
220.3266994822535
 30
0.0
 41
2.8999999999999999
 42
2.8999999999999999
 43
2.8999999999999999
 50
90.0
  0
INSERT
  5
A6A
  8
0
  2
*U41
 10
0.0
 20
0.0
 30
0.0
  0
POINT
  5
A6B
  8
DEFPOINTS
 62
     0
 10
320.2067620220156
 20
124.3267014822535
 30
0.0
  0
POINT
  5
A6C
  8
DEFPOINTS
 62
     0
 10
313.63176202201578
 20
220.3266994822535
 30
0.0
  0
POINT
  5
A6D
  8
DEFPOINTS
 62
     0
 10
330.2067620220156
 20
220.3266994822535
 30
0.0
  0
ENDBLK
  5
8C1
  8
0
  0
BLOCK
  8
0
  2
*D14
 70
     1
 10
0.0
 20
0.0
 30
0.0
  3
*D14
  1

  0
LINE
  5
A6E
  8
0
 62
     0
 10
311.22676198112549
 20
226.72670148225359
 30
0.0
 11
341.40676204788321
 21
226.72670148225359
 31
0.0
  0
LINE
  5
A6F
  8
0
 62
     0
 10
321.47676198112549
 20
124.3267014822535
 30
0.0
 11
341.40676204788321
 21
124.3267014822535
 31
0.0
  0
LINE
  5
A70
  8
0
 62
     0
 10
340.20676200019949
 20
223.82670148225361
 30
0.0
 11
340.20676200019938
 21
127.2267014822535
 31
0.0
  0
INSERT
  5
A71
  8
0
 62
     0
  2
_OPEN30
 10
340.20676200019949
 20
226.72670148225359
 30
0.0
 41
2.8999999999999999
 42
2.8999999999999999
 43
2.8999999999999999
 50
90.0
  0
INSERT
  5
A72
  8
0
 62
     0
  2
_OPEN30
 10
340.20676200019938
 20
124.3267014822535
 30
0.0
 41
2.8999999999999999
 42
2.8999999999999999
 43
2.8999999999999999
 50
270.0
  0
INSERT
  5
A73
  8
0
  2
*U42
 10
0.0
 20
0.0
 30
0.0
  0
POINT
  5
A74
  8
DEFPOINTS
 62
     0
 10
309.95676200019898
 20
226.72670148225359
 30
0.0
  0
POINT
  5
A75
  8
DEFPOINTS
 62
     0
 10
320.20676200019898
 20
124.3267014822535
 30
0.0
  0
POINT
  5
A76
  8
DEFPOINTS
 62
     0
 10
340.20676200019938
 20
124.3267014822535
 30
0.0
  0
ENDBLK
  5
8CD
  8
0
  0
BLOCK
  8
0
  2
*D15
 70
     1
 10
0.0
 20
0.0
 30
0.0
  3
*D15
  1

  0
LINE
  5
A77
  8
0
 62
     0
 10
290.20676202201571
 20
123.0567015013269
 30
0.0
 11
290.20676202201571
 21
109.03201087371831
 31
0.0
  0
LINE
  5
A78
  8
0
 62
     0
 10
320.2067620220156
 20
123.0567015013269
 30
0.0
 11
320.2067620220156
 21
109.03201087371831
 31
0.0
  0
LINE
  5
A79
  8
0
 62
     0
 10
293.10676202201569
 20
110.23201092140209
 30
0.0
 11
317.30676202201562
 21
110.23201092140209
 31
0.0
  0
INSERT
  5
A7A
  8
0
 62
     0
  2
_OPEN30
 10
290.20676202201571
 20
110.23201092140209
 30
0.0
 41
2.8999999999999999
 42
2.8999999999999999
 43
2.8999999999999999
 50
180.0
  0
INSERT
  5
A7B
  8
0
 62
     0
  2
_OPEN30
 10
320.2067620220156
 20
110.23201092140209
 30
0.0
 41
2.8999999999999999
 42
2.8999999999999999
 43
2.8999999999999999
  0
INSERT
  5
A7C
  8
0
  2
*U43
 10
0.0
 20
0.0
 30
0.0
  0
POINT
  5
A7D
  8
DEFPOINTS
 62
     0
 10
290.20676202201571
 20
124.3267014822535
 30
0.0
  0
POINT
  5
A7E
  8
DEFPOINTS
 62
     0
 10
320.2067620220156
 20
124.3267014822535
 30
0.0
  0
POINT
  5
A7F
  8
DEFPOINTS
 62
     0
 10
320.2067620220156
 20
110.23201092140209
 30
0.0
  0
ENDBLK
  5
8D9
  8
0
  0
BLOCK
  8
0
  2
*D16
 70
     1
 10
0.0
 20
0.0
 30
0.0
  3
*D16
  1

  0
LINE
  5
A80
  8
0
 62
     0
 10
228.527278499593
 20
187.59669746317999
 30
0.0
 11
228.527278499593
 21
187.586184061848
 31
0.0
  0
LINE
  5
A81
  8
0
 62
     0
 10
246.527278499593
 20
187.59669746317999
 30
0.0
 11
246.527278499593
 21
187.586184061848
 31
0.0
  0
LINE
  5
A82
  8
0
 62
     0
 10
243.62727849959299
 20
186.38618401416429
 30
0.0
 11
231.427278499593
 21
186.38618401416429
 31
0.0
  0
LINE
  5
A83
  8
0
 62
     0
 10
228.527278499593
 20
186.38618401416429
 30
0.0
 11
214.5606118329263
 21
186.38618401416429
 31
0.0
  0
INSERT
  5
A84
  8
0
 62
     0
  2
_OPEN30
 10
246.527278499593
 20
186.38618401416429
 30
0.0
 41
2.8999999999999999
 42
2.8999999999999999
 43
2.8999999999999999
  0
INSERT
  5
A85
  8
0
 62
     0
  2
_OPEN30
 10
228.527278499593
 20
186.38618401416429
 30
0.0
 41
2.8999999999999999
 42
2.8999999999999999
 43
2.8999999999999999
 50
180.0
  0
INSERT
  5
A86
  8
0
  2
*U44
 10
0.0
 20
0.0
 30
0.0
  0
POINT
  5
A87
  8
DEFPOINTS
 62
     0
 10
228.527278499593
 20
186.32669748225351
 30
0.0
  0
POINT
  5
A88
  8
DEFPOINTS
 62
     0
 10
246.527278499593
 20
186.32669748225351
 30
0.0
  0
POINT
  5
A89
  8
DEFPOINTS
 62
     0
 10
246.527278499593
 20
186.38618401416429
 30
0.0
  0
ENDBLK
  5
8E5
  8
0
  0
BLOCK
  8
0
  2
*D17
 70
     1
 10
0.0
 20
0.0
 30
0.0
  3
*D17
  1

  0
LINE
  5
B00
  8
0
 62
     0
 10
246.8972784805195
 20
124.3266964822535
 30
0.0
 11
258.3319502398511
 21
124.3266964822535
 31
0.0
  0
LINE
  5
B01
  8
0
 62
     0
 10
247.39727854112559
 20
142.3266985428595
 30
0.0
 11
258.33195023985121
 21
142.3266985428595
 31
0.0
  0
LINE
  5
B02
  8
0
 62
     0
 10
257.13195019216738
 20
127.2266964822535
 30
0.0
 11
257.13195019216738
 21
139.4266985428595
 31
0.0
  0
INSERT
  5
B03
  8
0
 62
     0
  2
_OPEN30
 10
257.13195019216738
 20
124.3266964822535
 30
0.0
 41
2.8999999999999999
 42
2.8999999999999999
 43
2.8999999999999999
 50
270.0
  0
INSERT
  5
B04
  8
0
 62
     0
  2
_OPEN30
 10
257.13195019216738
 20
142.3266985428595
 30
0.0
 41
2.8999999999999999
 42
2.8999999999999999
 43
2.8999999999999999
 50
90.0
  0
INSERT
  5
B05
  8
0
  2
*U47
 10
0.0
 20
0.0
 30
0.0
  0
POINT
  5
B06
  8
DEFPOINTS
 62
     0
 10
245.62727849959299
 20
124.3266964822535
 30
0.0
  0
POINT
  5
B07
  8
DEFPOINTS
 62
     0
 10
246.1272785601991
 20
142.3266985428595
 30
0.0
  0
POINT
  5
B08
  8
DEFPOINTS
 62
     0
 10
257.13195019216738
 20
142.3266985428595
 30
0.0
  0
ENDBLK
  5
8F2
  8
0
  0
BLOCK
  8
0
  2
*D18
 70
     1
 10
0.0
 20
0.0
 30
0.0
  3
*D18
  1

  0
LINE
  5
B12
  8
0
 62
     0
 10
247.3972784805195
 20
142.32669648225351
 30
0.0
 11
258.28129669544512
 21
142.32669648225351
 31
0.0
  0
LINE
  5
B13
  8
0
 62
     0
 10
247.75838964718619
 20
155.32669848225351
 30
0.0
 11
258.28129669544512
 21
155.32669848225351
 31
0.0
  0
LINE
  5
B14
  8
0
 62
     0
 10
257.08129664776141
 20
145.22669648225349
 30
0.0
 11
257.08129664776141
 21
152.4266984822535
 31
0.0
  0
INSERT
  5
B15
  8
0
 62
     0
  2
_OPEN30
 10
257.08129664776141
 20
142.32669648225351
 30
0.0
 41
2.8999999999999999
 42
2.8999999999999999
 43
2.8999999999999999
 50
270.0
  0
INSERT
  5
B16
  8
0
 62
     0
  2
_OPEN30
 10
257.08129664776141
 20
155.32669848225351
 30
0.0
 41
2.8999999999999999
 42
2.8999999999999999
 43
2.8999999999999999
 50
90.0
  0
INSERT
  5
B17
  8
0
  2
*U48
 10
0.0
 20
0.0
 30
0.0
  0
POINT
  5
B18
  8
DEFPOINTS
 62
     0
 10
246.12727849959299
 20
142.32669648225351
 30
0.0
  0
POINT
  5
B19
  8
DEFPOINTS
 62
     0
 10
246.48838966625959
 20
155.32669848225351
 30
0.0
  0
POINT
  5
B1A
  8
DEFPOINTS
 62
     0
 10
257.08129664776141
 20
155.32669848225351
 30
0.0
  0
ENDBLK
  5
8FE
  8
0
  0
BLOCK
  8
0
  2
*D19
 70
     1
 10
0.0
 20
0.0
 30
0.0
  3
*D19
  1

  0
LINE
  5
A9C
  8
0
 62
     0
 10
247.79727848051951
 20
155.32669848225351
 30
0.0
 11
258.32728155727671
 21
155.32669848225351
 31
0.0
  0
LINE
  5
A9D
  8
0
 62
     0
 10
247.2222804189968
 20
220.52669048225351
 30
0.0
 11
258.32728155727671
 21
220.52669048225351
 31
0.0
  0
LINE
  5
A9E
  8
0
 62
     0
 10
257.12728150959299
 20
158.22669848225351
 30
0.0
 11
257.12728150959299
 21
217.62669048225351
 31
0.0
  0
INSERT
  5
A9F
  8
0
 62
     0
  2
_OPEN30
 10
257.12728150959299
 20
155.32669848225351
 30
0.0
 41
2.8999999999999999
 42
2.8999999999999999
 43
2.8999999999999999
 50
270.0
  0
INSERT
  5
AA0
  8
0
 62
     0
  2
_OPEN30
 10
257.12728150959299
 20
220.52669048225351
 30
0.0
 41
2.8999999999999999
 42
2.8999999999999999
 43
2.8999999999999999
 50
90.0
  0
INSERT
  5
AA1
  8
0
  2
*U45
 10
0.0
 20
0.0
 30
0.0
  0
POINT
  5
AA2
  8
DEFPOINTS
 62
     0
 10
246.527278499593
 20
155.32669848225351
 30
0.0
  0
POINT
  5
AA3
  8
DEFPOINTS
 62
     0
 10
245.95228043807029
 20
220.52669048225351
 30
0.0
  0
POINT
  5
AA4
  8
DEFPOINTS
 62
     0
 10
257.12728150959299
 20
220.52669048225351
 30
0.0
  0
ENDBLK
  5
90A
  8
0
  0
BLOCK
  8
0
  2
*D20
 70
     1
 10
0.0
 20
0.0
 30
0.0
  3
*D20
  1

  0
LINE
  5
AA5
  8
0
 62
     0
 10
243.54727848051951
 20
226.82669648225351
 30
0.0
 11
268.33195023985161
 21
226.82669648225351
 31
0.0
  0
LINE
  5
AA6
  8
0
 62
     0
 10
246.89727848051939
 20
124.3266964822535
 30
0.0
 11
268.33195023985161
 21
124.3266964822535
 31
0.0
  0
LINE
  5
AA7
  8
0
 62
     0
 10
267.13195019216789
 20
223.9266964822535
 30
0.0
 11
267.13195019216778
 21
127.2266964822535
 31
0.0
  0
INSERT
  5
AA8
  8
0
 62
     0
  2
_OPEN30
 10
267.13195019216789
 20
226.82669648225351
 30
0.0
 41
2.8999999999999999
 42
2.8999999999999999
 43
2.8999999999999999
 50
90.0
  0
INSERT
  5
AA9
  8
0
 62
     0
  2
_OPEN30
 10
267.13195019216778
 20
124.3266964822535
 30
0.0
 41
2.8999999999999999
 42
2.8999999999999999
 43
2.8999999999999999
 50
270.0
  0
INSERT
  5
AAA
  8
0
  2
*U46
 10
0.0
 20
0.0
 30
0.0
  0
POINT
  5
AAB
  8
DEFPOINTS
 62
     0
 10
242.277278499593
 20
226.82669648225351
 30
0.0
  0
POINT
  5
AAC
  8
DEFPOINTS
 62
     0
 10
245.6272784995929
 20
124.3266964822535
 30
0.0
  0
POINT
  5
AAD
  8
DEFPOINTS
 62
     0
 10
267.13195019216778
 20
124.3266964822535
 30
0.0
  0
ENDBLK
  5
916
  8
0
  0
BLOCK
  8
0
  2
*S22
 70
     1
 10
0.0
 20
0.0
 30
0.0
  3
*S22
  1

  0
LINE
  5
B25
  8
0
 62
     7
 10
198.27978515256629
 20
120.7876205044434
 30
0.0
 11
217.74645181923299
 21
120.7876205044434
 31
0.0
  0
LINE
  5
B26
  8
0
 62
     7
 10
217.74645181923299
 20
120.7876205044434
 30
0.0
 11
227.15662253623759
 21
130.197791221448
 31
0.0
  0
LINE
  5
B27
  8
0
  6
CONTINUOUS
 62
     7
 10
227.15662253623759
 20
130.197791221448
 30
0.0
 11
229.20723220167861
 21
132.24840088688899
 31
0.0
  0
LINE
  5
B28
  8
0
  6
CONTINUOUS
 62
     7
 10
227.70608173509871
 20
129.64833202258691
 30
0.0
 11
229.20723220167861
 21
132.24840088688899
 31
0.0
  0
LINE
  5
B29
  8
0
  6
CONTINUOUS
 62
     7
 10
229.20723220167861
 20
132.24840088688899
 30
0.0
 11
226.60716333737659
 21
130.74725042030909
 31
0.0
  0
INSERT
  5
B2A
  8
0
  2
*U49
 10
0.0
 20
0.0
 30
0.0
  0
ENDBLK
  5
B2C
  8
0
  0
BLOCK
  8
0
  2
*U23
 70
     1
 10
0.0
 20
0.0
 30
0.0
  3
*U23
  1

  0
TEXT
  5
B6C
  8
0
 62
     7
 10
291.94651443504267
 20
49.090660623521657
 30
0.0
 40
2.5
  1
TITLE
 41
0.7759999999999999
  7
MX_NOTE_STANDARD
  0
ENDBLK
  5
B6E
  8
0
  0
BLOCK
  8
0
  2
*U24
 70
     1
 10
0.0
 20
0.0
 30
0.0
  3
*U24
  1

  0
TEXT
  5
B70
  8
0
 62
     7
 10
291.11111643504279
 20
24.027706290188359
 30
0.0
 40
2.339710999999999
  1
DWG
 41
0.821
  7
MX_NOTE_STANDARD
  0
TEXT
  5
B71
  8
0
 62
     7
 10
291.11111643504279
 20
20.128187956855029
 30
0.0
 40
2.339710999999999
  1
NéÅ.
 41
0.821
  7
MX_NOTE_STANDARD
  0
ENDBLK
  5
B73
  8
0
  0
BLOCK
  8
0
  2
*U25
 70
     1
 10
0.0
 20
0.0
 30
0.0
  3
*U25
  1

  0
TEXT
  5
B75
  8
0
 62
     7
 10
304.67763010170938
 20
21.04844662352173
 30
0.0
 40
4.0
  1
GA0126-011-01B
 41
1.151
  7
MX_NOTE_STANDARD
  0
ENDBLK
  5
B77
  8
0
  0
BLOCK
  8
0
  2
*U26
 70
     1
 10
0.0
 20
0.0
 30
0.0
  3
*U26
  1

  0
TEXT
  5
B79
  8
0
 62
     7
 10
298.40023943504281
 20
38.737022623521732
 30
0.0
 40
4.0
  1
WP-01 Series
 41
1.0989999999999991
  7
MX_NOTE_STANDARD
  0
TEXT
  5
B7A
  8
0
 62
     7
 10
298.40023943504281
 20
32.07035595685506
 30
0.0
 40
4.0
  1
outline drawing
 41
1.0989999999999991
  7
MX_NOTE_STANDARD
  0
ENDBLK
  5
B7C
  8
0
  0
BLOCK
  8
0
  2
*U27
 70
     1
 10
0.0
 20
0.0
 30
0.0
  3
*U27
  1

  0
TEXT
  5
B7E
  8
0
 62
     7
 10
298.45024402201568
 20
104.0314524822534
 30
0.0
 40
4.1669999999999989
  1
NW16
  7
MX_NOTE_STANDARD
  0
ENDBLK
  5
B80
  8
0
  0
BLOCK
  8
0
  2
*U28
 70
     1
 10
0.0
 20
0.0
 30
0.0
  3
*U28
  1

  0
TEXT
  5
B82
  8
0
 10
50.33618003854631
 20
72.248279982741451
 30
0.0
 40
6.0
  1
WP-01
  0
ENDBLK
  5
B84
  8
0
  0
BLOCK
  8
0
  2
*U29
 70
     1
 10
0.0
 20
0.0
 30
0.0
  3
*U29
  1

  0
TEXT
  5
B86
  8
0
 10
130.3361800385463
 20
72.248279982741451
 30
0.0
 40
6.0
  1
WP-02
  0
ENDBLK
  5
B88
  8
0
  0
BLOCK
  8
0
  2
*U30
 70
     1
 10
0.0
 20
0.0
 30
0.0
  3
*U30
  1

  0
TEXT
  5
B8A
  8
0
 10
228.70946943055881
 20
72.248279982741451
 30
0.0
 40
6.0
  1
WP-03
  0
ENDBLK
  5
B8C
  8
0
  0
BLOCK
  8
0
  2
*U31
 70
     1
 10
0.0
 20
0.0
 30
0.0
  3
*U31
  1

  0
TEXT
  5
B8E
  8
0
 10
296.38895197499068
 20
72.455981982741363
 30
0.0
 40
6.0
  1
WP-16
  0
ENDBLK
  5
B90
  8
0
  0
BLOCK
  8
0
  2
*U32
 70
     1
 10
0.0
 20
0.0
 30
0.0
  3
*U32
  1

  0
TEXT
  5
B92
  8
0
 62
     0
 10
265.14018349959292
 20
262.7216238561104
 30
0.0
 40
4.1669999999999989
  1
19
 50
90.0
  7
MX_NOTE_STANDARD
  0
ENDBLK
  5
B94
  8
0
  0
BLOCK
  8
0
  2
*U33
 70
     1
 10
0.0
 20
0.0
 30
0.0
  3
*U33
  1

  0
TEXT
  5
B96
  8
0
 62
     0
 10
37.187322918904698
 20
184.55536712291419
 30
0.0
 40
4.0
  1
\U+220518
  7
ULVAC
  0
ENDBLK
  5
B98
  8
0
  0
BLOCK
  8
0
  2
*U34
 70
     1
 10
0.0
 20
0.0
 30
0.0
  3
*U34
  1

  0
TEXT
  5
B9A
  8
0
 62
     0
 10
87.153989563755189
 20
177.29336714892031
 30
0.0
 40
4.0
  1
93
 50
90.0
  7
ULVAC
  0
ENDBLK
  5
B9C
  8
0
  0
BLOCK
  8
0
  2
*U35
 70
     1
 10
0.0
 20
0.0
 30
0.0
  3
*U35
  1

  0
TEXT
  5
B9E
  8
0
 62
     0
 10
77.153989563755417
 20
170.7600313155869
 30
0.0
 40
4.0
  1
86.6
 50
90.0
  7
ULVAC
  0
ENDBLK
  5
BA0
  8
0
  0
BLOCK
  8
0
  2
*U36
 70
     1
 10
0.0
 20
0.0
 30
0.0
  3
*U36
  1

  0
TEXT
  5
BA2
  8
0
 62
     0
 10
117.1873229189047
 20
183.40143749982821
 30
0.0
 40
4.0
  1
\U+220518
  7
ULVAC
  0
ENDBLK
  5
BA4
  8
0
  0
BLOCK
  8
0
  2
*U37
 70
     1
 10
0.0
 20
0.0
 30
0.0
  3
*U37
  1

  0
TEXT
  5
BA6
  8
0
 62
     0
 10
118.6873239189047
 20
138.97052259188621
 30
0.0
 40
4.0
  1
\U+220515
  7
ULVAC
  0
ENDBLK
  5
BA8
  8
0
  0
BLOCK
  8
0
  2
*U38
 70
     1
 10
0.0
 20
0.0
 30
0.0
  3
*U38
  1

  0
TEXT
  5
BAA
  8
0
 62
     0
 10
155.65398858557131
 20
134.29336964892019
 30
0.0
 40
4.0
  1
26
 50
90.0
  7
ULVAC
  0
ENDBLK
  5
BAC
  8
0
  0
BLOCK
  8
0
  2
*U39
 70
     1
 10
0.0
 20
0.0
 30
0.0
  3
*U39
  1

  0
TEXT
  5
BAE
  8
0
 62
     0
 10
165.99472850898709
 20
169.34336764892021
 30
0.0
 40
4.0
  1
96
 50
90.0
  7
ULVAC
  0
ENDBLK
  5
BB0
  8
0
  0
BLOCK
  8
0
  2
*U40
 70
     1
 10
0.0
 20
0.0
 30
0.0
  3
*U40
  1

  0
TEXT
  5
BB2
  8
0
 62
     0
 10
182.55276988713379
 20
167.61003531558691
 30
0.0
 40
4.0
  1
102.5
 50
90.0
  7
ULVAC
  0
ENDBLK
  5
BB4
  8
0
  0
BLOCK
  8
0
  2
*U41
 70
     1
 10
0.0
 20
0.0
 30
0.0
  3
*U41
  1

  0
TEXT
  5
BB6
  8
0
 62
     0
 10
329.20676202201548
 20
169.39336714892019
 30
0.0
 40
4.0
  1
96
 50
90.0
  7
ULVAC
  0
ENDBLK
  5
BB8
  8
0
  0
BLOCK
  8
0
  2
*U42
 70
     1
 10
0.0
 20
0.0
 30
0.0
  3
*U42
  1

  0
TEXT
  5
BBA
  8
0
 62
     0
 10
339.20676200019949
 20
167.6600348155869
 30
0.0
 40
4.0
  1
102.4
 50
90.0
  7
ULVAC
  0
ENDBLK
  5
BBC
  8
0
  0
BLOCK
  8
0
  2
*U43
 70
     1
 10
0.0
 20
0.0
 30
0.0
  3
*U43
  1

  0
TEXT
  5
BBE
  8
0
 62
     0
 10
300.67342868868229
 20
111.23201092140209
 30
0.0
 40
4.0
  1
\U+220530
  7
ULVAC
  0
ENDBLK
  5
BC0
  8
0
  0
BLOCK
  8
0
  2
*U44
 70
     1
 10
0.0
 20
0.0
 30
0.0
  3
*U44
  1

  0
TEXT
  5
BC2
  8
0
 62
     0
 10
215.5606118329263
 20
187.38618401416429
 30
0.0
 40
4.0
  1
\U+220518
  7
ULVAC
  0
ENDBLK
  5
BC4
  8
0
  0
BLOCK
  8
0
  2
*U45
 70
     1
 10
0.0
 20
0.0
 30
0.0
  3
*U45
  1

  0
TEXT
  5
BC6
  8
0
 62
     0
 10
256.12728150959288
 20
184.9933611489202
 30
0.0
 40
4.0
  1
65
 50
90.0
  7
ULVAC
  0
ENDBLK
  5
BC8
  8
0
  0
BLOCK
  8
0
  2
*U46
 70
     1
 10
0.0
 20
0.0
 30
0.0
  3
*U46
  1

  0
TEXT
  5
BCA
  8
0
 62
     0
 10
266.13195019216778
 20
167.71002981558681
 30
0.0
 40
4.0
  1
102.5
 50
90.0
  7
ULVAC
  0
ENDBLK
  5
BCC
  8
0
  0
BLOCK
  8
0
  2
*U47
 70
     1
 10
0.0
 20
0.0
 30
0.0
  3
*U47
  1

  0
TEXT
  5
BD1
  8
0
 62
     0
 10
256.13195019216738
 20
130.3933641792232
 30
0.0
 40
4.0
  1
18
 50
90.0
  7
ULVAC
  0
ENDBLK
  5
BD3
  8
0
  0
BLOCK
  8
0
  2
*U48
 70
     1
 10
0.0
 20
0.0
 30
0.0
  3
*U48
  1

  0
TEXT
  5
BD5
  8
0
 62
     0
 10
256.08129664776129
 20
145.8933641489202
 30
0.0
 40
4.0
  1
13
 50
90.0
  7
ULVAC
  0
ENDBLK
  5
BD7
  8
0
  0
BLOCK
  8
0
  2
*U49
 70
     1
 10
0.0
 20
0.0
 30
0.0
  3
*U49
  1

  0
TEXT
  5
BD9
  8
0
 62
     7
 10
198.27978515256629
 20
122.7876205044434
 30
0.0
 40
4.0
  1
R 3/8
  7
ULVAC
  0
ENDBLK
  5
BDB
  8
0
  0
ENDSEC
  0
SECTION
  2
ENTITIES
  0
LINE
  5
6A4
  8
0
  6
CONTINUOUS
 62
     7
 10
68.153989585571367
 20
217.12670248225371
 30
0.0
 11
68.153989585571367
 21
133.72669948225359
 31
0.0
  0
LINE
  5
6A5
  8
0
  6
CONTINUOUS
 62
     7
 10
50.153989585571367
 20
217.12670248225371
 30
0.0
 11
50.153989585571367
 21
133.72669948225359
 31
0.0
  0
LINE
  5
6A6
  8
0
  6
CONTINUOUS
 62
     7
 10
50.153989585571367
 20
133.72669948225359
 30
0.0
 11
68.153989585571367
 21
133.72669948225359
 31
0.0
  0
LINE
  5
6A7
  8
0
  6
CENTER
 62
     7
 10
59.153989585571367
 20
231.7267014822537
 30
0.0
 11
59.153989585571367
 21
128.72669948225359
 31
0.0
  0
LINE
  5
6A8
  8
0
  6
CONTINUOUS
 62
     7
 10
49.553989585571337
 20
217.12670248225371
 30
0.0
 11
49.553989585571337
 21
219.15169648225361
 31
0.0
  0
LINE
  5
6A9
  8
0
  6
CONTINUOUS
 62
     7
 10
68.753989585571389
 20
217.12670248225371
 30
0.0
 11
68.753989585571389
 21
219.15169648225361
 31
0.0
  0
LINE
  5
6AA
  8
0
  6
CONTINUOUS
 62
     7
 10
63.403989585571367
 20
226.2267014822537
 30
0.0
 11
63.403989585571367
 21
220.32669948225359
 31
0.0
  0
LINE
  5
6AB
  8
0
  6
CONTINUOUS
 62
     7
 10
64.403989585571367
 20
226.2267014822537
 30
0.0
 11
64.403989585571367
 21
220.32669948225359
 31
0.0
  0
LINE
  5
6AC
  8
0
  6
CONTINUOUS
 62
     7
 10
62.012746585571328
 20
226.2267014822537
 30
0.0
 11
62.012746585571328
 21
220.32669948225359
 31
0.0
  0
LINE
  5
6AD
  8
0
  6
CONTINUOUS
 62
     7
 10
63.012746585571328
 20
226.2267014822537
 30
0.0
 11
63.012746585571328
 21
220.32669948225359
 31
0.0
  0
LINE
  5
6AE
  8
0
  6
CONTINUOUS
 62
     7
 10
58.65398958557136
 20
226.2267014822537
 30
0.0
 11
58.65398958557136
 21
220.32669948225359
 31
0.0
  0
LINE
  5
6AF
  8
0
  6
CONTINUOUS
 62
     7
 10
59.653989585571367
 20
226.2267014822537
 30
0.0
 11
59.653989585571367
 21
220.32669948225359
 31
0.0
  0
LINE
  5
6B0
  8
0
  6
CONTINUOUS
 62
     7
 10
67.578990585571319
 20
220.32669948225359
 30
0.0
 11
50.728989585571298
 21
220.32669948225359
 31
0.0
  0
LINE
  5
6B1
  8
0
  6
CONTINUOUS
 62
     7
 10
56.295232585571391
 20
226.2267014822537
 30
0.0
 11
56.295232585571391
 21
220.32669948225359
 31
0.0
  0
LINE
  5
6B2
  8
0
  6
CONTINUOUS
 62
     7
 10
55.295232585571398
 20
226.2267014822537
 30
0.0
 11
55.295232585571398
 21
220.32669948225359
 31
0.0
  0
LINE
  5
6B3
  8
0
  6
CONTINUOUS
 62
     7
 10
54.90398958557136
 20
226.2267014822537
 30
0.0
 11
54.90398958557136
 21
220.32669948225359
 31
0.0
  0
LINE
  5
6B4
  8
0
  6
CONTINUOUS
 62
     7
 10
53.903989585571367
 20
226.2267014822537
 30
0.0
 11
53.903989585571367
 21
220.32669948225359
 31
0.0
  0
LINE
  5
6B5
  8
0
  6
CONTINUOUS
 62
     7
 10
68.753989585571389
 20
217.12670248225371
 30
0.0
 11
49.553989585571337
 21
217.12670248225371
 31
0.0
  0
ARC
  5
6B6
  8
0
  6
CONTINUOUS
 62
     7
 10
67.578990585571319
 20
219.15169648225361
 30
0.0
 40
1.175
 50
359.9999949999995
 51
90.00000299999769
  0
ARC
  5
6B7
  8
0
  6
CONTINUOUS
 62
     7
 10
50.728989585571298
 20
219.15169648225361
 30
0.0
 40
1.175
 50
90.00000299999769
 51
180.0000050000005
  0
ARC
  5
6B8
  8
0
  6
CONTINUOUS
 62
     7
 10
63.903989585571367
 20
226.2267014822537
 30
0.0
 40
0.5
 50
359.9999949999995
 51
180.0000050000005
  0
ARC
  5
6B9
  8
0
  6
CONTINUOUS
 62
     7
 10
62.512746585571328
 20
226.2267014822537
 30
0.0
 40
0.5
 50
359.9999949999995
 51
180.0000050000005
  0
ARC
  5
6BA
  8
0
  6
CONTINUOUS
 62
     7
 10
59.153989585571367
 20
226.2267014822537
 30
0.0
 40
0.5
 50
359.9999949999995
 51
180.0000050000005
  0
ARC
  5
6BB
  8
0
  6
CONTINUOUS
 62
     7
 10
55.795232585571398
 20
226.2267014822537
 30
0.0
 40
0.5
 50
0.0000050000005032
 51
180.0000050000005
  0
ARC
  5
6BC
  8
0
  6
CONTINUOUS
 62
     7
 10
54.40398958557136
 20
226.2267014822537
 30
0.0
 40
0.5
 50
0.0000050000005032
 51
180.0000050000005
  0
LINE
  5
6BD
  8
0
  6
CENTER
 62
     7
 10
59.153989585571253
 20
278.56818285611041
 30
0.0
 11
59.153989585571253
 21
252.77994985611039
 31
0.0
  0
LINE
  5
6BE
  8
0
  6
CENTER
 62
     7
 10
43.829046585571291
 20
265.49962385611047
 30
0.0
 11
74.781039585571193
 21
265.49962385611047
 31
0.0
  0
CIRCLE
  5
6BF
  8
0
  6
CONTINUOUS
 62
     7
 10
55.795232585571277
 20
268.8583808561105
 30
0.0
 40
0.5
  0
CIRCLE
  5
6C0
  8
0
  6
CENTER
 62
     7
 10
59.153989585571253
 20
265.49962385611047
 30
0.0
 40
4.75
  0
CIRCLE
  5
6C1
  8
0
  6
CONTINUOUS
 62
     7
 10
54.403989585571253
 20
265.49962385611047
 30
0.0
 40
0.5
  0
CIRCLE
  5
6C2
  8
0
  6
CONTINUOUS
 62
     7
 10
55.795232585571277
 20
262.14086685611051
 30
0.0
 40
0.5
  0
CIRCLE
  5
6C3
  8
0
  6
CONTINUOUS
 62
     7
 10
62.512746585571222
 20
262.14086685611051
 30
0.0
 40
0.5
  0
CIRCLE
  5
6C4
  8
0
  6
CONTINUOUS
 62
     7
 10
63.903989585571253
 20
265.49962385611047
 30
0.0
 40
0.5
  0
CIRCLE
  5
6C5
  8
0
  6
CONTINUOUS
 62
     7
 10
62.512746585571222
 20
268.8583808561105
 30
0.0
 40
0.5
  0
CIRCLE
  5
6C6
  8
0
  6
CONTINUOUS
 62
     7
 10
59.153989585571253
 20
270.24962385611047
 30
0.0
 40
0.5
  0
CIRCLE
  5
6C7
  8
0
  6
CONTINUOUS
 62
     7
 10
59.153989585571253
 20
265.49962385611047
 30
0.0
 40
9.5999999999999996
  0
CIRCLE
  5
6C8
  8
0
  6
CONTINUOUS
 62
     7
 10
59.153989585571253
 20
265.49962385611047
 30
0.0
 40
8.5250000000000004
  0
LINE
  5
6C9
  8
0
  6
CONTINUOUS
 62
     7
 10
148.15398958557131
 20
217.12670248225359
 30
0.0
 11
148.15398958557131
 21
151.72670448225361
 31
0.0
  0
LINE
  5
6CA
  8
0
  6
CONTINUOUS
 62
     7
 10
130.15398958557131
 20
217.12670248225359
 30
0.0
 11
130.15398958557131
 21
151.72670448225361
 31
0.0
  0
LINE
  5
6CB
  8
0
  6
CENTER
 62
     7
 10
139.15398958557131
 20
231.7267014822535
 30
0.0
 11
139.15398958557131
 21
119.2267024822536
 31
0.0
  0
LINE
  5
6CC
  8
0
  6
CONTINUOUS
 62
     7
 10
131.65399058557131
 20
124.2267024822536
 30
0.0
 11
146.65398858557131
 21
124.2267024822536
 31
0.0
  0
LINE
  5
6CD
  8
0
  6
CONTINUOUS
 62
     7
 10
131.65399058557131
 20
150.22670448225361
 30
0.0
 11
131.65399058557131
 21
124.2267024822536
 31
0.0
  0
LINE
  5
6CE
  8
0
  6
CONTINUOUS
 62
     7
 10
146.65398858557131
 20
150.22670448225361
 30
0.0
 11
146.65398858557131
 21
124.2267024822536
 31
0.0
  0
LINE
  5
6CF
  8
0
  6
CONTINUOUS
 62
     7
 10
131.65399058557131
 20
150.22670448225361
 30
0.0
 11
146.65398858557131
 21
150.22670448225361
 31
0.0
  0
LINE
  5
6D0
  8
0
  6
CONTINUOUS
 62
     7
 10
131.65398958557131
 20
150.22670448225361
 30
0.0
 11
130.15398958557131
 21
151.72670448225361
 31
0.0
  0
LINE
  5
6D1
  8
0
  6
CONTINUOUS
 62
     7
 10
146.65398958557131
 20
150.22670448225361
 30
0.0
 11
148.15398958557131
 21
151.72670448225361
 31
0.0
  0
LINE
  5
6D2
  8
0
  6
CONTINUOUS
 62
     7
 10
130.15398958557131
 20
151.72670448225361
 30
0.0
 11
148.15398958557131
 21
151.72670448225361
 31
0.0
  0
LINE
  5
6D3
  8
0
  6
CONTINUOUS
 62
     7
 10
129.55398958557129
 20
217.12670248225359
 30
0.0
 11
129.55398958557129
 21
219.15169648225361
 31
0.0
  0
LINE
  5
6D4
  8
0
  6
CONTINUOUS
 62
     7
 10
148.75398958557139
 20
217.12670248225359
 30
0.0
 11
148.75398958557139
 21
219.15169648225361
 31
0.0
  0
LINE
  5
6D5
  8
0
  6
CONTINUOUS
 62
     7
 10
143.40398958557131
 20
226.2267014822535
 30
0.0
 11
143.40398958557131
 21
220.3266994822535
 31
0.0
  0
LINE
  5
6D6
  8
0
  6
CONTINUOUS
 62
     7
 10
144.40398958557131
 20
226.2267014822535
 30
0.0
 11
144.40398958557131
 21
220.3266994822535
 31
0.0
  0
LINE
  5
6D7
  8
0
  6
CONTINUOUS
 62
     7
 10
142.01274658557131
 20
226.2267014822535
 30
0.0
 11
142.01274658557131
 21
220.3266994822535
 31
0.0
  0
LINE
  5
6D8
  8
0
  6
CONTINUOUS
 62
     7
 10
143.01274658557131
 20
226.2267014822535
 30
0.0
 11
143.01274658557131
 21
220.3266994822535
 31
0.0
  0
LINE
  5
6D9
  8
0
  6
CONTINUOUS
 62
     7
 10
138.6539895855714
 20
226.2267014822535
 30
0.0
 11
138.6539895855714
 21
220.3266994822535
 31
0.0
  0
LINE
  5
6DA
  8
0
  6
CONTINUOUS
 62
     7
 10
139.65398958557131
 20
226.2267014822535
 30
0.0
 11
139.65398958557131
 21
220.3266994822535
 31
0.0
  0
LINE
  5
6DB
  8
0
  6
CONTINUOUS
 62
     7
 10
147.57899058557129
 20
220.3266994822535
 30
0.0
 11
130.72898958557141
 21
220.3266994822535
 31
0.0
  0
LINE
  5
6DC
  8
0
  6
CONTINUOUS
 62
     7
 10
136.2952325855714
 20
226.2267014822535
 30
0.0
 11
136.2952325855714
 21
220.3266994822535
 31
0.0
  0
LINE
  5
6DD
  8
0
  6
CONTINUOUS
 62
     7
 10
135.2952325855714
 20
226.2267014822535
 30
0.0
 11
135.2952325855714
 21
220.3266994822535
 31
0.0
  0
LINE
  5
6DE
  8
0
  6
CONTINUOUS
 62
     7
 10
134.90398958557131
 20
226.2267014822535
 30
0.0
 11
134.90398958557131
 21
220.3266994822535
 31
0.0
  0
LINE
  5
6DF
  8
0
  6
CONTINUOUS
 62
     7
 10
133.90398958557131
 20
226.2267014822535
 30
0.0
 11
133.90398958557131
 21
220.3266994822535
 31
0.0
  0
LINE
  5
6E0
  8
0
  6
CONTINUOUS
 62
     7
 10
148.75398958557139
 20
217.12670248225359
 30
0.0
 11
129.55398958557129
 21
217.12670248225359
 31
0.0
  0
ARC
  5
6E1
  8
0
  6
CONTINUOUS
 62
     7
 10
139.15398958557131
 20
226.2267014822535
 30
0.0
 40
0.5
 50
359.9999949999995
 51
180.0000050000005
  0
ARC
  5
6E2
  8
0
  6
CONTINUOUS
 62
     7
 10
135.7952325855714
 20
226.2267014822535
 30
0.0
 40
0.5
 50
0.0000050000005032
 51
180.0000050000005
  0
ARC
  5
6E3
  8
0
  6
CONTINUOUS
 62
     7
 10
134.40398958557131
 20
226.2267014822535
 30
0.0
 40
0.5
 50
0.0000050000005032
 51
180.0000050000005
  0
ARC
  5
6E4
  8
0
  6
CONTINUOUS
 62
     7
 10
143.9039895855714
 20
226.2267014822535
 30
0.0
 40
0.5
 50
359.9999949999995
 51
180.0000050000005
  0
ARC
  5
6E5
  8
0
  6
CONTINUOUS
 62
     7
 10
142.51274658557131
 20
226.2267014822535
 30
0.0
 40
0.5
 50
359.9999949999995
 51
180.0000050000005
  0
ARC
  5
6E6
  8
0
  6
CONTINUOUS
 62
     7
 10
130.72898958557141
 20
219.15169648225361
 30
0.0
 40
1.175
 50
90.00000299999769
 51
180.0000050000005
  0
ARC
  5
6E7
  8
0
  6
CONTINUOUS
 62
     7
 10
147.57899058557129
 20
219.15169648225361
 30
0.0
 40
1.175
 50
359.9999949999995
 51
90.00000299999769
  0
LINE
  5
6E8
  8
0
  6
CONTINUOUS
 62
     7
 10
228.527278499593
 20
217.32669648225351
 30
0.0
 11
228.527278499593
 21
155.32669848225351
 31
0.0
  0
LINE
  5
6E9
  8
0
  6
CONTINUOUS
 62
     7
 10
246.527278499593
 20
217.32669648225351
 30
0.0
 11
246.527278499593
 21
155.32669848225351
 31
0.0
  0
LINE
  5
6EA
  8
0
  6
CONTINUOUS
 62
     7
 10
228.527278499593
 20
155.32669848225351
 30
0.0
 11
246.527278499593
 21
155.32669848225351
 31
0.0
  0
LINE
  5
6EB
  8
0
  6
CONTINUOUS
 62
     7
 10
228.927279499593
 20
142.32669748225351
 30
0.0
 11
246.12727849959299
 21
142.32669748225351
 31
0.0
  0
LINE
  5
6EC
  8
0
  6
CENTER
 62
     7
 10
241.61835649959289
 20
261.4085428561105
 30
0.0
 11
240.1919644995929
 21
262.83493585611052
 31
0.0
  0
LINE
  5
6ED
  8
0
  6
CONTINUOUS
 62
     7
 10
248.49693249959299
 20
265.49962085611048
 30
0.0
 11
246.4455334995929
 21
269.0527488561105
 31
0.0
  0
LINE
  5
6EE
  8
0
  6
CONTINUOUS
 62
     7
 10
232.04244949959289
 20
255.99962085611051
 30
0.0
 11
229.99105049959289
 21
259.5527488561105
 31
0.0
  0
LINE
  5
6EF
  8
0
  6
CONTINUOUS
 62
     7
 10
232.04245149959289
 20
274.99962385611047
 30
0.0
 11
236.1452514995928
 21
274.99962385611047
 31
0.0
  0
LINE
  5
6F0
  8
0
  6
CONTINUOUS
 62
     7
 10
232.04245149959289
 20
255.9996238561105
 30
0.0
 11
236.1452514995928
 21
255.9996238561105
 31
0.0
  0
LINE
  5
6F1
  8
0
  6
CONTINUOUS
 62
     7
 10
226.55762449959289
 20
265.49961785611049
 30
0.0
 11
228.60902349959289
 21
269.0527458561105
 31
0.0
  0
LINE
  5
6F2
  8
0
  6
CENTER
 62
     7
 10
237.5272784995928
 20
279.1162848561105
 30
0.0
 11
237.5272784995928
 21
251.3382848561105
 31
0.0
  0
LINE
  5
6F3
  8
0
  6
CENTER
 62
     7
 10
237.52727847523059
 20
231.82669648225351
 30
0.0
 11
237.52727902338529
 21
119.3266964822535
 31
0.0
  0
LINE
  5
6F4
  8
0
  6
CONTINUOUS
 62
     7
 10
248.4969344995931
 20
153.35704248225349
 30
0.0
 11
248.4969344995931
 21
144.69635248225339
 31
0.0
  0
LINE
  5
6F5
  8
0
  6
CONTINUOUS
 62
     7
 10
246.527278499593
 20
155.32669748225351
 30
0.0
 11
248.49693349959301
 21
153.35704248225349
 31
0.0
  0
LINE
  5
6F6
  8
0
  6
CONTINUOUS
 62
     7
 10
228.527278499593
 20
155.32669748225351
 30
0.0
 11
226.55762349959301
 21
153.35704248225349
 31
0.0
  0
LINE
  5
6F7
  8
0
  6
CONTINUOUS
 62
     7
 10
226.55762349959301
 20
153.35704248225349
 30
0.0
 11
226.55762349959301
 21
144.69635248225339
 31
0.0
  0
LINE
  5
6F8
  8
0
  6
CONTINUOUS
 62
     7
 10
232.042451499593
 20
153.35704248225349
 30
0.0
 11
232.042451499593
 21
144.69635248225339
 31
0.0
  0
LINE
  5
6F9
  8
0
  6
CONTINUOUS
 62
     7
 10
243.01210649959299
 20
153.35704248225349
 30
0.0
 11
243.01210649959299
 21
144.69635248225339
 31
0.0
  0
LINE
  5
6FA
  8
0
  6
CONTINUOUS
 62
     7
 10
229.42727949959311
 20
124.3266964822535
 30
0.0
 11
245.62727849959299
 21
124.3266964822535
 31
0.0
  0
LINE
  5
6FB
  8
0
  6
CONTINUOUS
 62
     7
 10
228.927279499593
 20
142.32669648225351
 30
0.0
 11
229.42727949959311
 21
124.3266994822535
 31
0.0
  0
LINE
  5
6FC
  8
0
  6
CONTINUOUS
 62
     7
 10
246.12727849959299
 20
142.32669648225351
 30
0.0
 11
245.62727849959299
 21
124.3266964822535
 31
0.0
  0
LINE
  5
6FD
  8
0
  6
CONTINUOUS
 62
     7
 10
246.12727849959299
 20
142.32669848225351
 30
0.0
 11
248.49693349959301
 21
144.69635248225339
 31
0.0
  0
LINE
  5
6FE
  8
0
  6
CONTINUOUS
 62
     7
 10
228.927279499593
 20
142.32669748225351
 30
0.0
 11
226.557624499593
 21
144.69635248225339
 31
0.0
  0
LINE
  5
6FF
  8
0
  6
CONTINUOUS
 62
     7
 10
244.42654355858949
 20
142.32669748225351
 30
0.0
 11
243.92801349959299
 21
124.37667448225351
 31
0.0
  0
LINE
  5
700
  8
0
  6
CONTINUOUS
 62
     7
 10
230.626544499593
 20
142.32669748225351
 30
0.0
 11
231.126544499593
 21
124.3766784822535
 31
0.0
  0
LINE
  5
701
  8
0
  6
CENTER
 62
     7
 10
219.55327849959289
 20
265.49962385611047
 30
0.0
 11
257.95227849959292
 21
265.49962385611047
 31
0.0
  0
LINE
  5
702
  8
0
  6
CENTER
 62
     7
 10
233.35769049959291
 20
261.33002985611051
 30
0.0
 11
234.94069649959289
 21
262.91303585611053
 31
0.0
  0
LINE
  5
703
  8
0
  6
CENTER
 62
     7
 10
235.1617154995929
 20
267.86518385611049
 30
0.0
 11
232.91190249959291
 21
270.11499785611051
 31
0.0
  0
LINE
  5
704
  8
0
  6
CENTER
 62
     7
 10
240.10024749959291
 20
268.07258685611038
 30
0.0
 11
241.76597749959291
 21
269.73831685611049
 31
0.0
  0
LINE
  5
705
  8
0
  6
CONTINUOUS
 62
     7
 10
238.9093064995929
 20
274.99962385611047
 30
0.0
 11
243.01210649959279
 21
274.99962385611047
 31
0.0
  0
LINE
  5
706
  8
0
  6
CONTINUOUS
 62
     7
 10
229.99105049959289
 20
271.44648585611048
 30
0.0
 11
232.0424534995928
 21
274.99962085611048
 31
0.0
  0
LINE
  5
707
  8
0
  6
CONTINUOUS
 62
     7
 10
228.60902449959289
 20
261.94648885611048
 30
0.0
 11
226.55762449959289
 21
265.49961685611049
 31
0.0
  0
LINE
  5
708
  8
0
  6
CONTINUOUS
 62
     7
 10
238.9093064995929
 20
255.9996238561105
 30
0.0
 11
243.01210649959279
 21
255.9996238561105
 31
0.0
  0
LINE
  5
709
  8
0
  6
CONTINUOUS
 62
     7
 10
243.01211049959289
 20
255.9996248561105
 30
0.0
 11
245.06351349959289
 21
259.55275885611047
 31
0.0
  0
LINE
  5
70A
  8
0
  6
CONTINUOUS
 62
     7
 10
245.0635064995929
 20
271.44648885611048
 30
0.0
 11
243.01210749959299
 21
274.99961685611049
 31
0.0
  0
LINE
  5
70B
  8
0
  6
CONTINUOUS
 62
     7
 10
237.02727849959291
 20
226.52669648225361
 30
0.0
 11
237.02727849959291
 21
220.52669348225339
 31
0.0
  0
LINE
  5
70C
  8
0
  6
CONTINUOUS
 62
     7
 10
238.027278499593
 20
226.52669648225361
 30
0.0
 11
238.0272784995928
 21
220.52669348225339
 31
0.0
  0
LINE
  5
70D
  8
0
  6
CONTINUOUS
 62
     7
 10
237.32727849959301
 20
226.82669648225351
 30
0.0
 11
237.72727849959301
 21
226.82669648225351
 31
0.0
  0
LINE
  5
70E
  8
0
  6
CONTINUOUS
 62
     7
 10
242.777278499593
 20
226.52669648225361
 30
0.0
 11
242.77727849959311
 21
220.52669348225339
 31
0.0
  0
LINE
  5
70F
  8
0
  6
CONTINUOUS
 62
     7
 10
241.777278499593
 20
226.52669648225361
 30
0.0
 11
241.777278499593
 21
220.52669348225339
 31
0.0
  0
LINE
  5
710
  8
0
  6
CONTINUOUS
 62
     7
 10
241.38603649959299
 20
226.52669648225361
 30
0.0
 11
241.38603649959299
 21
220.52669348225339
 31
0.0
  0
LINE
  5
711
  8
0
  6
CONTINUOUS
 62
     7
 10
240.3860364995931
 20
226.52669648225361
 30
0.0
 11
240.3860364995931
 21
220.52669348225339
 31
0.0
  0
LINE
  5
712
  8
0
  6
CONTINUOUS
 62
     7
 10
241.08603649959301
 20
226.82669648225351
 30
0.0
 11
240.686036499593
 21
226.82669648225351
 31
0.0
  0
LINE
  5
713
  8
0
  6
CONTINUOUS
 62
     7
 10
242.47727849959301
 20
226.82669648225351
 30
0.0
 11
242.07727849959301
 21
226.82669648225351
 31
0.0
  0
LINE
  5
714
  8
0
  6
CONTINUOUS
 62
     7
 10
232.277278499593
 20
226.52669648225361
 30
0.0
 11
232.27727849959311
 21
220.52669348225339
 31
0.0
  0
LINE
  5
715
  8
0
  6
CONTINUOUS
 62
     7
 10
233.27727949959299
 20
226.52669648225361
 30
0.0
 11
233.27727949959299
 21
220.52669348225339
 31
0.0
  0
LINE
  5
716
  8
0
  6
CONTINUOUS
 62
     7
 10
233.668521499593
 20
226.52669648225361
 30
0.0
 11
233.66852149959291
 21
220.52669348225339
 31
0.0
  0
LINE
  5
717
  8
0
  6
CONTINUOUS
 62
     7
 10
234.668521499593
 20
226.52669648225361
 30
0.0
 11
234.668521499593
 21
220.52669348225339
 31
0.0
  0
LINE
  5
718
  8
0
  6
CONTINUOUS
 62
     7
 10
233.96852149959309
 20
226.82669648225351
 30
0.0
 11
234.3685214995931
 21
226.82669648225351
 31
0.0
  0
LINE
  5
719
  8
0
  6
CONTINUOUS
 62
     7
 10
232.57727849959301
 20
226.82669648225351
 30
0.0
 11
232.97727949959301
 21
226.82669648225351
 31
0.0
  0
LINE
  5
71A
  8
0
  6
CONTINUOUS
 62
     7
 10
246.44552849959291
 20
261.9464798561105
 30
0.0
 11
248.49693149959279
 21
265.4996138561105
 31
0.0
  0
LINE
  5
71B
  8
0
  6
CONTINUOUS
 62
     7
 10
227.92727949959311
 20
217.32669648225351
 30
0.0
 11
247.12727849959299
 21
217.32669648225351
 31
0.0
  0
CIRCLE
  5
71C
  8
0
  6
CONTINUOUS
 62
     7
 10
234.16852149959291
 20
268.85838085611061
 30
0.0
 40
0.5
  0
CIRCLE
  5
71D
  8
0
  6
CONTINUOUS
 62
     7
 10
237.5272784995928
 20
265.49962385611047
 30
0.0
 40
9.5999999999999996
  0
CIRCLE
  5
71E
  8
0
  6
CONTINUOUS
 62
     7
 10
237.5272784995928
 20
265.49962385611047
 30
0.0
 40
7.7000000000000002
  0
ARC
  5
71F
  8
0
  6
CONTINUOUS
 62
     7
 10
237.32727849959301
 20
226.52669648225361
 30
0.0
 40
0.3
 50
90.00000299999769
 51
180.0000050000005
  0
ARC
  5
720
  8
0
  6
CONTINUOUS
 62
     7
 10
237.72727849959301
 20
226.52669648225361
 30
0.0
 40
0.3
 50
0.0
 51
90.00000299999769
  0
ARC
  5
721
  8
0
  6
CONTINUOUS
 62
     7
 10
240.686036499593
 20
226.52669648225361
 30
0.0
 40
0.3
 50
90.00000299999769
 51
180.0000050000005
  0
ARC
  5
722
  8
0
  6
CONTINUOUS
 62
     7
 10
241.08603649959301
 20
226.52669648225361
 30
0.0
 40
0.3
 50
0.0
 51
90.00000299999769
  0
ARC
  5
723
  8
0
  6
CONTINUOUS
 62
     7
 10
242.07727849959301
 20
226.52669648225361
 30
0.0
 40
0.3
 50
90.00000299999769
 51
180.0000050000005
  0
ARC
  5
724
  8
0
  6
CONTINUOUS
 62
     7
 10
242.47727849959301
 20
226.52669648225361
 30
0.0
 40
0.3
 50
0.0
 51
90.00000299999769
  0
CIRCLE
  5
725
  8
0
  6
CENTER
 62
     7
 10
237.5272784995928
 20
265.49962385611047
 30
0.0
 40
4.75
  0
CIRCLE
  5
726
  8
0
  6
CONTINUOUS
 62
     7
 10
232.77727949959291
 20
265.49962385611047
 30
0.0
 40
0.5
  0
CIRCLE
  5
727
  8
0
  6
CONTINUOUS
 62
     7
 10
234.16852149959291
 20
262.14086685611051
 30
0.0
 40
0.5
  0
CIRCLE
  5
728
  8
0
  6
CONTINUOUS
 62
     7
 10
237.5272784995928
 20
260.74962385611047
 30
0.0
 40
0.5
  0
CIRCLE
  5
729
  8
0
  6
CONTINUOUS
 62
     7
 10
240.8860364995929
 20
262.14086685611051
 30
0.0
 40
0.5
  0
CIRCLE
  5
72A
  8
0
  6
CONTINUOUS
 62
     7
 10
242.2772784995928
 20
265.49962385611047
 30
0.0
 40
0.5
  0
CIRCLE
  5
72B
  8
0
  6
CONTINUOUS
 62
     7
 10
240.8860364995929
 20
268.85838085611061
 30
0.0
 40
0.5
  0
ARC
  5
72C
  8
0
  6
CONTINUOUS
 62
     7
 10
234.3685214995931
 20
226.52669648225361
 30
0.0
 40
0.3
 50
359.9999949999995
 51
89.999996000000905
  0
ARC
  5
72D
  8
0
  6
CONTINUOUS
 62
     7
 10
233.96852149959309
 20
226.52669648225361
 30
0.0
 40
0.3
 50
89.999996000000905
 51
180.0000050000005
  0
ARC
  5
72E
  8
0
  6
CONTINUOUS
 62
     7
 10
232.97727949959301
 20
226.52669648225361
 30
0.0
 40
0.3
 50
359.9999949999995
 51
89.999996000000905
  0
ARC
  5
72F
  8
0
  6
CONTINUOUS
 62
     7
 10
232.57727849959301
 20
226.52669648225361
 30
0.0
 40
0.3
 50
89.999996000000905
 51
180.0000050000005
  0
ARC
  5
730
  8
0
  6
CONTINUOUS
 62
     7
 10
237.527278499593
 20
145.18302748225341
 30
0.0
 40
9.8436710000000005
 50
56.138079999997579
 51
123.8619150000016
  0
ARC
  5
731
  8
0
  6
CONTINUOUS
 62
     7
 10
237.527278499593
 20
152.8703674822535
 30
0.0
 40
9.8436710000000005
 50
236.1380849999984
 51
303.86192000000233
  0
POLYLINE
  5
732
  8
0
  6
CONTINUOUS
 62
     7
 10
247.37667153739255
 20
154.47670008031363
 30
0.0
 66
     1
 70
     8
  0
VERTEX
  8
0
  5
BDC
 10
247.377
 20
154.477
 30
0.000000
  70
    32
  0
VERTEX
  8
0
  5
BDD
 10
247.343
 20
154.500
 30
0.000000
  70
    32
  0
VERTEX
  8
0
  5
BDE
 10
247.309
 20
154.523
 30
0.000000
  70
    32
  0
VERTEX
  8
0
  5
BDF
 10
247.275
 20
154.545
 30
0.000000
  70
    32
  0
VERTEX
  8
0
  5
BE0
 10
247.241
 20
154.567
 30
0.000000
  70
    32
  0
VERTEX
  8
0
  5
BE1
 10
247.207
 20
154.588
 30
0.000000
  70
    32
  0
VERTEX
  8
0
  5
BE2
 10
247.173
 20
154.609
 30
0.000000
  70
    32
  0
VERTEX
  8
0
  5
BE3
 10
247.139
 20
154.629
 30
0.000000
  70
    32
  0
VERTEX
  8
0
  5
BE4
 10
247.105
 20
154.649
 30
0.000000
  70
    32
  0
VERTEX
  8
0
  5
BE5
 10
247.070
 20
154.668
 30
0.000000
  70
    32
  0
VERTEX
  8
0
  5
BE6
 10
247.036
 20
154.687
 30
0.000000
  70
    32
  0
VERTEX
  8
0
  5
BE7
 10
247.002
 20
154.705
 30
0.000000
  70
    32
  0
VERTEX
  8
0
  5
BE8
 10
246.967
 20
154.723
 30
0.000000
  70
    32
  0
VERTEX
  8
0
  5
BE9
 10
246.933
 20
154.741
 30
0.000000
  70
    32
  0
VERTEX
  8
0
  5
BEA
 10
246.898
 20
154.757
 30
0.000000
  70
    32
  0
VERTEX
  8
0
  5
BEB
 10
246.863
 20
154.774
 30
0.000000
  70
    32
  0
VERTEX
  8
0
  5
BEC
 10
246.828
 20
154.790
 30
0.000000
  70
    32
  0
VERTEX
  8
0
  5
BED
 10
246.794
 20
154.805
 30
0.000000
  70
    32
  0
VERTEX
  8
0
  5
BEE
 10
246.759
 20
154.820
 30
0.000000
  70
    32
  0
VERTEX
  8
0
  5
BEF
 10
246.724
 20
154.834
 30
0.000000
  70
    32
  0
VERTEX
  8
0
  5
BF0
 10
246.689
 20
154.848
 30
0.000000
  70
    32
  0
VERTEX
  8
0
  5
BF1
 10
246.654
 20
154.861
 30
0.000000
  70
    32
  0
VERTEX
  8
0
  5
BF2
 10
246.619
 20
154.874
 30
0.000000
  70
    32
  0
VERTEX
  8
0
  5
BF3
 10
246.584
 20
154.886
 30
0.000000
  70
    32
  0
VERTEX
  8
0
  5
BF4
 10
246.548
 20
154.898
 30
0.000000
  70
    32
  0
VERTEX
  8
0
  5
BF5
 10
246.513
 20
154.909
 30
0.000000
  70
    32
  0
VERTEX
  8
0
  5
BF6
 10
246.478
 20
154.920
 30
0.000000
  70
    32
  0
VERTEX
  8
0
  5
BF7
 10
246.443
 20
154.930
 30
0.000000
  70
    32
  0
VERTEX
  8
0
  5
BF8
 10
246.407
 20
154.940
 30
0.000000
  70
    32
  0
VERTEX
  8
0
  5
BF9
 10
246.372
 20
154.949
 30
0.000000
  70
    32
  0
VERTEX
  8
0
  5
BFA
 10
246.337
 20
154.958
 30
0.000000
  70
    32
  0
VERTEX
  8
0
  5
BFB
 10
246.301
 20
154.966
 30
0.000000
  70
    32
  0
VERTEX
  8
0
  5
BFC
 10
246.266
 20
154.973
 30
0.000000
  70
    32
  0
VERTEX
  8
0
  5
BFD
 10
246.230
 20
154.981
 30
0.000000
  70
    32
  0
VERTEX
  8
0
  5
BFE
 10
246.195
 20
154.987
 30
0.000000
  70
    32
  0
VERTEX
  8
0
  5
BFF
 10
246.159
 20
154.993
 30
0.000000
  70
    32
  0
VERTEX
  8
0
  5
C00
 10
246.124
 20
154.999
 30
0.000000
  70
    32
  0
VERTEX
  8
0
  5
C01
 10
246.088
 20
155.004
 30
0.000000
  70
    32
  0
VERTEX
  8
0
  5
C02
 10
246.053
 20
155.009
 30
0.000000
  70
    32
  0
VERTEX
  8
0
  5
C03
 10
246.017
 20
155.013
 30
0.000000
  70
    32
  0
VERTEX
  8
0
  5
C04
 10
245.981
 20
155.016
 30
0.000000
  70
    32
  0
VERTEX
  8
0
  5
C05
 10
245.946
 20
155.019
 30
0.000000
  70
    32
  0
VERTEX
  8
0
  5
C06
 10
245.910
 20
155.022
 30
0.000000
  70
    32
  0
VERTEX
  8
0
  5
C07
 10
245.875
 20
155.024
 30
0.000000
  70
    32
  0
VERTEX
  8
0
  5
C08
 10
245.839
 20
155.025
 30
0.000000
  70
    32
  0
VERTEX
  8
0
  5
C09
 10
245.803
 20
155.026
 30
0.000000
  70
    32
  0
VERTEX
  8
0
  5
C0A
 10
245.768
 20
155.027
 30
0.000000
  70
    32
  0
VERTEX
  8
0
  5
C0B
 10
245.732
 20
155.027
 30
0.000000
  70
    32
  0
VERTEX
  8
0
  5
C0C
 10
245.696
 20
155.026
 30
0.000000
  70
    32
  0
VERTEX
  8
0
  5
C0D
 10
245.661
 20
155.025
 30
0.000000
  70
    32
  0
VERTEX
  8
0
  5
C0E
 10
245.625
 20
155.023
 30
0.000000
  70
    32
  0
VERTEX
  8
0
  5
C0F
 10
245.589
 20
155.021
 30
0.000000
  70
    32
  0
VERTEX
  8
0
  5
C10
 10
245.554
 20
155.019
 30
0.000000
  70
    32
  0
VERTEX
  8
0
  5
C11
 10
245.518
 20
155.015
 30
0.000000
  70
    32
  0
VERTEX
  8
0
  5
C12
 10
245.482
 20
155.012
 30
0.000000
  70
    32
  0
VERTEX
  8
0
  5
C13
 10
245.447
 20
155.007
 30
0.000000
  70
    32
  0
VERTEX
  8
0
  5
C14
 10
245.411
 20
155.003
 30
0.000000
  70
    32
  0
VERTEX
  8
0
  5
C15
 10
245.376
 20
154.998
 30
0.000000
  70
    32
  0
VERTEX
  8
0
  5
C16
 10
245.340
 20
154.992
 30
0.000000
  70
    32
  0
VERTEX
  8
0
  5
C17
 10
245.305
 20
154.986
 30
0.000000
  70
    32
  0
VERTEX
  8
0
  5
C18
 10
245.269
 20
154.979
 30
0.000000
  70
    32
  0
VERTEX
  8
0
  5
C19
 10
245.234
 20
154.971
 30
0.000000
  70
    32
  0
VERTEX
  8
0
  5
C1A
 10
245.198
 20
154.964
 30
0.000000
  70
    32
  0
VERTEX
  8
0
  5
C1B
 10
245.163
 20
154.955
 30
0.000000
  70
    32
  0
VERTEX
  8
0
  5
C1C
 10
245.128
 20
154.946
 30
0.000000
  70
    32
  0
VERTEX
  8
0
  5
C1D
 10
245.092
 20
154.937
 30
0.000000
  70
    32
  0
VERTEX
  8
0
  5
C1E
 10
245.057
 20
154.927
 30
0.000000
  70
    32
  0
VERTEX
  8
0
  5
C1F
 10
245.022
 20
154.917
 30
0.000000
  70
    32
  0
VERTEX
  8
0
  5
C20
 10
244.986
 20
154.906
 30
0.000000
  70
    32
  0
VERTEX
  8
0
  5
C21
 10
244.951
 20
154.895
 30
0.000000
  70
    32
  0
VERTEX
  8
0
  5
C22
 10
244.916
 20
154.883
 30
0.000000
  70
    32
  0
VERTEX
  8
0
  5
C23
 10
244.881
 20
154.870
 30
0.000000
  70
    32
  0
VERTEX
  8
0
  5
C24
 10
244.846
 20
154.857
 30
0.000000
  70
    32
  0
VERTEX
  8
0
  5
C25
 10
244.811
 20
154.844
 30
0.000000
  70
    32
  0
VERTEX
  8
0
  5
C26
 10
244.776
 20
154.830
 30
0.000000
  70
    32
  0
VERTEX
  8
0
  5
C27
 10
244.741
 20
154.816
 30
0.000000
  70
    32
  0
VERTEX
  8
0
  5
C28
 10
244.706
 20
154.801
 30
0.000000
  70
    32
  0
VERTEX
  8
0
  5
C29
 10
244.671
 20
154.785
 30
0.000000
  70
    32
  0
VERTEX
  8
0
  5
C2A
 10
244.637
 20
154.769
 30
0.000000
  70
    32
  0
VERTEX
  8
0
  5
C2B
 10
244.602
 20
154.753
 30
0.000000
  70
    32
  0
VERTEX
  8
0
  5
C2C
 10
244.567
 20
154.736
 30
0.000000
  70
    32
  0
VERTEX
  8
0
  5
C2D
 10
244.533
 20
154.719
 30
0.000000
  70
    32
  0
VERTEX
  8
0
  5
C2E
 10
244.498
 20
154.701
 30
0.000000
  70
    32
  0
VERTEX
  8
0
  5
C2F
 10
244.464
 20
154.682
 30
0.000000
  70
    32
  0
VERTEX
  8
0
  5
C30
 10
244.429
 20
154.663
 30
0.000000
  70
    32
  0
VERTEX
  8
0
  5
C31
 10
244.395
 20
154.644
 30
0.000000
  70
    32
  0
VERTEX
  8
0
  5
C32
 10
244.361
 20
154.624
 30
0.000000
  70
    32
  0
VERTEX
  8
0
  5
C33
 10
244.327
 20
154.603
 30
0.000000
  70
    32
  0
VERTEX
  8
0
  5
C34
 10
244.293
 20
154.582
 30
0.000000
  70
    32
  0
VERTEX
  8
0
  5
C35
 10
244.259
 20
154.561
 30
0.000000
  70
    32
  0
VERTEX
  8
0
  5
C36
 10
244.225
 20
154.539
 30
0.000000
  70
    32
  0
VERTEX
  8
0
  5
C37
 10
244.191
 20
154.517
 30
0.000000
  70
    32
  0
VERTEX
  8
0
  5
C38
 10
244.157
 20
154.494
 30
0.000000
  70
    32
  0
VERTEX
  8
0
  5
C39
 10
244.123
 20
154.470
 30
0.000000
  70
    32
  0
VERTEX
  8
0
  5
C3A
 10
244.090
 20
154.446
 30
0.000000
  70
    32
  0
VERTEX
  8
0
  5
C3B
 10
244.056
 20
154.422
 30
0.000000
  70
    32
  0
VERTEX
  8
0
  5
C3C
 10
244.023
 20
154.397
 30
0.000000
  70
    32
  0
VERTEX
  8
0
  5
C3D
 10
243.989
 20
154.372
 30
0.000000
  70
    32
  0
VERTEX
  8
0
  5
C3E
 10
243.956
 20
154.346
 30
0.000000
  70
    32
  0
VERTEX
  8
0
  5
C3F
 10
243.923
 20
154.320
 30
0.000000
  70
    32
  0
VERTEX
  8
0
  5
C40
 10
243.890
 20
154.293
 30
0.000000
  70
    32
  0
VERTEX
  8
0
  5
C41
 10
243.857
 20
154.266
 30
0.000000
  70
    32
  0
VERTEX
  8
0
  5
C42
 10
243.824
 20
154.238
 30
0.000000
  70
    32
  0
VERTEX
  8
0
  5
C43
 10
243.792
 20
154.210
 30
0.000000
  70
    32
  0
VERTEX
  8
0
  5
C44
 10
243.759
 20
154.181
 30
0.000000
  70
    32
  0
VERTEX
  8
0
  5
C45
 10
243.726
 20
154.152
 30
0.000000
  70
    32
  0
VERTEX
  8
0
  5
C46
 10
243.694
 20
154.122
 30
0.000000
  70
    32
  0
VERTEX
  8
0
  5
C47
 10
243.662
 20
154.092
 30
0.000000
  70
    32
  0
VERTEX
  8
0
  5
C48
 10
243.629
 20
154.062
 30
0.000000
  70
    32
  0
VERTEX
  8
0
  5
C49
 10
243.597
 20
154.031
 30
0.000000
  70
    32
  0
VERTEX
  8
0
  5
C4A
 10
243.565
 20
153.999
 30
0.000000
  70
    32
  0
VERTEX
  8
0
  5
C4B
 10
243.533
 20
153.967
 30
0.000000
  70
    32
  0
VERTEX
  8
0
  5
C4C
 10
243.502
 20
153.935
 30
0.000000
  70
    32
  0
VERTEX
  8
0
  5
C4D
 10
243.470
 20
153.902
 30
0.000000
  70
    32
  0
VERTEX
  8
0
  5
C4E
 10
243.439
 20
153.869
 30
0.000000
  70
    32
  0
VERTEX
  8
0
  5
C4F
 10
243.407
 20
153.835
 30
0.000000
  70
    32
  0
VERTEX
  8
0
  5
C50
 10
243.376
 20
153.801
 30
0.000000
  70
    32
  0
VERTEX
  8
0
  5
C51
 10
243.345
 20
153.766
 30
0.000000
  70
    32
  0
VERTEX
  8
0
  5
C52
 10
243.314
 20
153.731
 30
0.000000
  70
    32
  0
VERTEX
  8
0
  5
C53
 10
243.283
 20
153.695
 30
0.000000
  70
    32
  0
VERTEX
  8
0
  5
C54
 10
243.252
 20
153.659
 30
0.000000
  70
    32
  0
VERTEX
  8
0
  5
C55
 10
243.221
 20
153.623
 30
0.000000
  70
    32
  0
VERTEX
  8
0
  5
C56
 10
243.191
 20
153.586
 30
0.000000
  70
    32
  0
VERTEX
  8
0
  5
C57
 10
243.161
 20
153.549
 30
0.000000
  70
    32
  0
VERTEX
  8
0
  5
C58
 10
243.130
 20
153.511
 30
0.000000
  70
    32
  0
VERTEX
  8
0
  5
C59
 10
243.100
 20
153.473
 30
0.000000
  70
    32
  0
VERTEX
  8
0
  5
C5A
 10
243.070
 20
153.434
 30
0.000000
  70
    32
  0
VERTEX
  8
0
  5
C5B
 10
243.040
 20
153.395
 30
0.000000
  70
    32
  0
VERTEX
  8
0
  5
C5C
 10
243.011
 20
153.355
 30
0.000000
  70
    32
  0
SEQEND
  8
0
  5
C5D
  0
POLYLINE
  5
733
  8
0
  6
CONTINUOUS
 62
     7
 10
232.04381752806245
 20
153.35520778735932
 30
0.0
 66
     1
 70
     8
  0
VERTEX
  8
0
  5
C5E
 10
232.044
 20
153.355
 30
0.000000
  70
    32
  0
VERTEX
  8
0
  5
C5F
 10
232.014
 20
153.395
 30
0.000000
  70
    32
  0
VERTEX
  8
0
  5
C60
 10
231.984
 20
153.434
 30
0.000000
  70
    32
  0
VERTEX
  8
0
  5
C61
 10
231.954
 20
153.473
 30
0.000000
  70
    32
  0
VERTEX
  8
0
  5
C62
 10
231.924
 20
153.511
 30
0.000000
  70
    32
  0
VERTEX
  8
0
  5
C63
 10
231.894
 20
153.549
 30
0.000000
  70
    32
  0
VERTEX
  8
0
  5
C64
 10
231.864
 20
153.586
 30
0.000000
  70
    32
  0
VERTEX
  8
0
  5
C65
 10
231.833
 20
153.623
 30
0.000000
  70
    32
  0
VERTEX
  8
0
  5
C66
 10
231.803
 20
153.659
 30
0.000000
  70
    32
  0
VERTEX
  8
0
  5
C67
 10
231.772
 20
153.695
 30
0.000000
  70
    32
  0
VERTEX
  8
0
  5
C68
 10
231.741
 20
153.731
 30
0.000000
  70
    32
  0
VERTEX
  8
0
  5
C69
 10
231.710
 20
153.766
 30
0.000000
  70
    32
  0
VERTEX
  8
0
  5
C6A
 10
231.679
 20
153.801
 30
0.000000
  70
    32
  0
VERTEX
  8
0
  5
C6B
 10
231.647
 20
153.835
 30
0.000000
  70
    32
  0
VERTEX
  8
0
  5
C6C
 10
231.616
 20
153.869
 30
0.000000
  70
    32
  0
VERTEX
  8
0
  5
C6D
 10
231.585
 20
153.902
 30
0.000000
  70
    32
  0
VERTEX
  8
0
  5
C6E
 10
231.553
 20
153.935
 30
0.000000
  70
    32
  0
VERTEX
  8
0
  5
C6F
 10
231.521
 20
153.967
 30
0.000000
  70
    32
  0
VERTEX
  8
0
  5
C70
 10
231.489
 20
153.999
 30
0.000000
  70
    32
  0
VERTEX
  8
0
  5
C71
 10
231.457
 20
154.031
 30
0.000000
  70
    32
  0
VERTEX
  8
0
  5
C72
 10
231.425
 20
154.062
 30
0.000000
  70
    32
  0
VERTEX
  8
0
  5
C73
 10
231.393
 20
154.092
 30
0.000000
  70
    32
  0
VERTEX
  8
0
  5
C74
 10
231.361
 20
154.122
 30
0.000000
  70
    32
  0
VERTEX
  8
0
  5
C75
 10
231.328
 20
154.152
 30
0.000000
  70
    32
  0
VERTEX
  8
0
  5
C76
 10
231.296
 20
154.181
 30
0.000000
  70
    32
  0
VERTEX
  8
0
  5
C77
 10
231.263
 20
154.210
 30
0.000000
  70
    32
  0
VERTEX
  8
0
  5
C78
 10
231.230
 20
154.238
 30
0.000000
  70
    32
  0
VERTEX
  8
0
  5
C79
 10
231.197
 20
154.266
 30
0.000000
  70
    32
  0
VERTEX
  8
0
  5
C7A
 10
231.164
 20
154.293
 30
0.000000
  70
    32
  0
VERTEX
  8
0
  5
C7B
 10
231.131
 20
154.320
 30
0.000000
  70
    32
  0
VERTEX
  8
0
  5
C7C
 10
231.098
 20
154.346
 30
0.000000
  70
    32
  0
VERTEX
  8
0
  5
C7D
 10
231.065
 20
154.372
 30
0.000000
  70
    32
  0
VERTEX
  8
0
  5
C7E
 10
231.032
 20
154.397
 30
0.000000
  70
    32
  0
VERTEX
  8
0
  5
C7F
 10
230.998
 20
154.422
 30
0.000000
  70
    32
  0
VERTEX
  8
0
  5
C80
 10
230.965
 20
154.446
 30
0.000000
  70
    32
  0
VERTEX
  8
0
  5
C81
 10
230.931
 20
154.470
 30
0.000000
  70
    32
  0
VERTEX
  8
0
  5
C82
 10
230.898
 20
154.494
 30
0.000000
  70
    32
  0
VERTEX
  8
0
  5
C83
 10
230.864
 20
154.517
 30
0.000000
  70
    32
  0
VERTEX
  8
0
  5
C84
 10
230.830
 20
154.539
 30
0.000000
  70
    32
  0
VERTEX
  8
0
  5
C85
 10
230.796
 20
154.561
 30
0.000000
  70
    32
  0
VERTEX
  8
0
  5
C86
 10
230.762
 20
154.582
 30
0.000000
  70
    32
  0
VERTEX
  8
0
  5
C87
 10
230.728
 20
154.603
 30
0.000000
  70
    32
  0
VERTEX
  8
0
  5
C88
 10
230.694
 20
154.624
 30
0.000000
  70
    32
  0
VERTEX
  8
0
  5
C89
 10
230.660
 20
154.644
 30
0.000000
  70
    32
  0
VERTEX
  8
0
  5
C8A
 10
230.625
 20
154.663
 30
0.000000
  70
    32
  0
VERTEX
  8
0
  5
C8B
 10
230.591
 20
154.682
 30
0.000000
  70
    32
  0
VERTEX
  8
0
  5
C8C
 10
230.556
 20
154.701
 30
0.000000
  70
    32
  0
VERTEX
  8
0
  5
C8D
 10
230.522
 20
154.719
 30
0.000000
  70
    32
  0
VERTEX
  8
0
  5
C8E
 10
230.487
 20
154.736
 30
0.000000
  70
    32
  0
VERTEX
  8
0
  5
C8F
 10
230.453
 20
154.753
 30
0.000000
  70
    32
  0
VERTEX
  8
0
  5
C90
 10
230.418
 20
154.769
 30
0.000000
  70
    32
  0
VERTEX
  8
0
  5
C91
 10
230.383
 20
154.785
 30
0.000000
  70
    32
  0
VERTEX
  8
0
  5
C92
 10
230.348
 20
154.801
 30
0.000000
  70
    32
  0
VERTEX
  8
0
  5
C93
 10
230.314
 20
154.816
 30
0.000000
  70
    32
  0
VERTEX
  8
0
  5
C94
 10
230.279
 20
154.830
 30
0.000000
  70
    32
  0
VERTEX
  8
0
  5
C95
 10
230.244
 20
154.844
 30
0.000000
  70
    32
  0
VERTEX
  8
0
  5
C96
 10
230.209
 20
154.857
 30
0.000000
  70
    32
  0
VERTEX
  8
0
  5
C97
 10
230.174
 20
154.870
 30
0.000000
  70
    32
  0
VERTEX
  8
0
  5
C98
 10
230.139
 20
154.883
 30
0.000000
  70
    32
  0
VERTEX
  8
0
  5
C99
 10
230.103
 20
154.895
 30
0.000000
  70
    32
  0
VERTEX
  8
0
  5
C9A
 10
230.068
 20
154.906
 30
0.000000
  70
    32
  0
VERTEX
  8
0
  5
C9B
 10
230.033
 20
154.917
 30
0.000000
  70
    32
  0
VERTEX
  8
0
  5
C9C
 10
229.998
 20
154.927
 30
0.000000
  70
    32
  0
VERTEX
  8
0
  5
C9D
 10
229.962
 20
154.937
 30
0.000000
  70
    32
  0
VERTEX
  8
0
  5
C9E
 10
229.927
 20
154.946
 30
0.000000
  70
    32
  0
VERTEX
  8
0
  5
C9F
 10
229.892
 20
154.955
 30
0.000000
  70
    32
  0
VERTEX
  8
0
  5
CA0
 10
229.856
 20
154.964
 30
0.000000
  70
    32
  0
VERTEX
  8
0
  5
CA1
 10
229.821
 20
154.971
 30
0.000000
  70
    32
  0
VERTEX
  8
0
  5
CA2
 10
229.785
 20
154.979
 30
0.000000
  70
    32
  0
VERTEX
  8
0
  5
CA3
 10
229.750
 20
154.986
 30
0.000000
  70
    32
  0
VERTEX
  8
0
  5
CA4
 10
229.714
 20
154.992
 30
0.000000
  70
    32
  0
VERTEX
  8
0
  5
CA5
 10
229.679
 20
154.998
 30
0.000000
  70
    32
  0
VERTEX
  8
0
  5
CA6
 10
229.643
 20
155.003
 30
0.000000
  70
    32
  0
VERTEX
  8
0
  5
CA7
 10
229.608
 20
155.007
 30
0.000000
  70
    32
  0
VERTEX
  8
0
  5
CA8
 10
229.572
 20
155.012
 30
0.000000
  70
    32
  0
VERTEX
  8
0
  5
CA9
 10
229.536
 20
155.015
 30
0.000000
  70
    32
  0
VERTEX
  8
0
  5
CAA
 10
229.501
 20
155.019
 30
0.000000
  70
    32
  0
VERTEX
  8
0
  5
CAB
 10
229.465
 20
155.021
 30
0.000000
  70
    32
  0
VERTEX
  8
0
  5
CAC
 10
229.430
 20
155.023
 30
0.000000
  70
    32
  0
VERTEX
  8
0
  5
CAD
 10
229.394
 20
155.025
 30
0.000000
  70
    32
  0
VERTEX
  8
0
  5
CAE
 10
229.358
 20
155.026
 30
0.000000
  70
    32
  0
VERTEX
  8
0
  5
CAF
 10
229.323
 20
155.027
 30
0.000000
  70
    32
  0
VERTEX
  8
0
  5
CB0
 10
229.287
 20
155.027
 30
0.000000
  70
    32
  0
VERTEX
  8
0
  5
CB1
 10
229.251
 20
155.026
 30
0.000000
  70
    32
  0
VERTEX
  8
0
  5
CB2
 10
229.216
 20
155.025
 30
0.000000
  70
    32
  0
VERTEX
  8
0
  5
CB3
 10
229.180
 20
155.024
 30
0.000000
  70
    32
  0
VERTEX
  8
0
  5
CB4
 10
229.144
 20
155.022
 30
0.000000
  70
    32
  0
VERTEX
  8
0
  5
CB5
 10
229.109
 20
155.019
 30
0.000000
  70
    32
  0
VERTEX
  8
0
  5
CB6
 10
229.073
 20
155.016
 30
0.000000
  70
    32
  0
VERTEX
  8
0
  5
CB7
 10
229.038
 20
155.013
 30
0.000000
  70
    32
  0
VERTEX
  8
0
  5
CB8
 10
229.002
 20
155.009
 30
0.000000
  70
    32
  0
VERTEX
  8
0
  5
CB9
 10
228.966
 20
155.004
 30
0.000000
  70
    32
  0
VERTEX
  8
0
  5
CBA
 10
228.931
 20
154.999
 30
0.000000
  70
    32
  0
VERTEX
  8
0
  5
CBB
 10
228.895
 20
154.993
 30
0.000000
  70
    32
  0
VERTEX
  8
0
  5
CBC
 10
228.860
 20
154.987
 30
0.000000
  70
    32
  0
VERTEX
  8
0
  5
CBD
 10
228.824
 20
154.981
 30
0.000000
  70
    32
  0
VERTEX
  8
0
  5
CBE
 10
228.789
 20
154.973
 30
0.000000
  70
    32
  0
VERTEX
  8
0
  5
CBF
 10
228.753
 20
154.966
 30
0.000000
  70
    32
  0
VERTEX
  8
0
  5
CC0
 10
228.718
 20
154.958
 30
0.000000
  70
    32
  0
VERTEX
  8
0
  5
CC1
 10
228.683
 20
154.949
 30
0.000000
  70
    32
  0
VERTEX
  8
0
  5
CC2
 10
228.647
 20
154.940
 30
0.000000
  70
    32
  0
VERTEX
  8
0
  5
CC3
 10
228.612
 20
154.930
 30
0.000000
  70
    32
  0
VERTEX
  8
0
  5
CC4
 10
228.577
 20
154.920
 30
0.000000
  70
    32
  0
VERTEX
  8
0
  5
CC5
 10
228.541
 20
154.909
 30
0.000000
  70
    32
  0
VERTEX
  8
0
  5
CC6
 10
228.506
 20
154.898
 30
0.000000
  70
    32
  0
VERTEX
  8
0
  5
CC7
 10
228.471
 20
154.886
 30
0.000000
  70
    32
  0
VERTEX
  8
0
  5
CC8
 10
228.436
 20
154.874
 30
0.000000
  70
    32
  0
VERTEX
  8
0
  5
CC9
 10
228.401
 20
154.861
 30
0.000000
  70
    32
  0
VERTEX
  8
0
  5
CCA
 10
228.366
 20
154.848
 30
0.000000
  70
    32
  0
VERTEX
  8
0
  5
CCB
 10
228.331
 20
154.834
 30
0.000000
  70
    32
  0
VERTEX
  8
0
  5
CCC
 10
228.296
 20
154.820
 30
0.000000
  70
    32
  0
VERTEX
  8
0
  5
CCD
 10
228.261
 20
154.805
 30
0.000000
  70
    32
  0
VERTEX
  8
0
  5
CCE
 10
228.226
 20
154.790
 30
0.000000
  70
    32
  0
VERTEX
  8
0
  5
CCF
 10
228.191
 20
154.774
 30
0.000000
  70
    32
  0
VERTEX
  8
0
  5
CD0
 10
228.157
 20
154.757
 30
0.000000
  70
    32
  0
VERTEX
  8
0
  5
CD1
 10
228.122
 20
154.741
 30
0.000000
  70
    32
  0
VERTEX
  8
0
  5
CD2
 10
228.087
 20
154.723
 30
0.000000
  70
    32
  0
VERTEX
  8
0
  5
CD3
 10
228.053
 20
154.705
 30
0.000000
  70
    32
  0
VERTEX
  8
0
  5
CD4
 10
228.018
 20
154.687
 30
0.000000
  70
    32
  0
VERTEX
  8
0
  5
CD5
 10
227.984
 20
154.668
 30
0.000000
  70
    32
  0
VERTEX
  8
0
  5
CD6
 10
227.950
 20
154.649
 30
0.000000
  70
    32
  0
VERTEX
  8
0
  5
CD7
 10
227.915
 20
154.629
 30
0.000000
  70
    32
  0
VERTEX
  8
0
  5
CD8
 10
227.881
 20
154.609
 30
0.000000
  70
    32
  0
VERTEX
  8
0
  5
CD9
 10
227.847
 20
154.588
 30
0.000000
  70
    32
  0
VERTEX
  8
0
  5
CDA
 10
227.813
 20
154.567
 30
0.000000
  70
    32
  0
VERTEX
  8
0
  5
CDB
 10
227.779
 20
154.545
 30
0.000000
  70
    32
  0
VERTEX
  8
0
  5
CDC
 10
227.745
 20
154.523
 30
0.000000
  70
    32
  0
VERTEX
  8
0
  5
CDD
 10
227.712
 20
154.500
 30
0.000000
  70
    32
  0
VERTEX
  8
0
  5
CDE
 10
227.678
 20
154.477
 30
0.000000
  70
    32
  0
SEQEND
  8
0
  5
CDF
  0
POLYLINE
  5
734
  8
0
  6
CONTINUOUS
 62
     7
 10
227.67788593302004
 20
143.57669374831309
 30
0.0
 66
     1
 70
     8
  0
VERTEX
  8
0
  5
CE0
 10
227.678
 20
143.577
 30
0.000000
  70
    32
  0
VERTEX
  8
0
  5
CE1
 10
227.712
 20
143.553
 30
0.000000
  70
    32
  0
VERTEX
  8
0
  5
CE2
 10
227.745
 20
143.531
 30
0.000000
  70
    32
  0
VERTEX
  8
0
  5
CE3
 10
227.779
 20
143.508
 30
0.000000
  70
    32
  0
VERTEX
  8
0
  5
CE4
 10
227.813
 20
143.487
 30
0.000000
  70
    32
  0
VERTEX
  8
0
  5
CE5
 10
227.847
 20
143.465
 30
0.000000
  70
    32
  0
VERTEX
  8
0
  5
CE6
 10
227.881
 20
143.445
 30
0.000000
  70
    32
  0
VERTEX
  8
0
  5
CE7
 10
227.915
 20
143.424
 30
0.000000
  70
    32
  0
VERTEX
  8
0
  5
CE8
 10
227.950
 20
143.404
 30
0.000000
  70
    32
  0
VERTEX
  8
0
  5
CE9
 10
227.984
 20
143.385
 30
0.000000
  70
    32
  0
VERTEX
  8
0
  5
CEA
 10
228.018
 20
143.366
 30
0.000000
  70
    32
  0
VERTEX
  8
0
  5
CEB
 10
228.053
 20
143.348
 30
0.000000
  70
    32
  0
VERTEX
  8
0
  5
CEC
 10
228.087
 20
143.330
 30
0.000000
  70
    32
  0
VERTEX
  8
0
  5
CED
 10
228.122
 20
143.313
 30
0.000000
  70
    32
  0
VERTEX
  8
0
  5
CEE
 10
228.157
 20
143.296
 30
0.000000
  70
    32
  0
VERTEX
  8
0
  5
CEF
 10
228.191
 20
143.280
 30
0.000000
  70
    32
  0
VERTEX
  8
0
  5
CF0
 10
228.226
 20
143.264
 30
0.000000
  70
    32
  0
VERTEX
  8
0
  5
CF1
 10
228.261
 20
143.249
 30
0.000000
  70
    32
  0
VERTEX
  8
0
  5
CF2
 10
228.296
 20
143.234
 30
0.000000
  70
    32
  0
VERTEX
  8
0
  5
CF3
 10
228.331
 20
143.219
 30
0.000000
  70
    32
  0
VERTEX
  8
0
  5
CF4
 10
228.366
 20
143.206
 30
0.000000
  70
    32
  0
VERTEX
  8
0
  5
CF5
 10
228.401
 20
143.192
 30
0.000000
  70
    32
  0
VERTEX
  8
0
  5
CF6
 10
228.436
 20
143.180
 30
0.000000
  70
    32
  0
VERTEX
  8
0
  5
CF7
 10
228.471
 20
143.167
 30
0.000000
  70
    32
  0
VERTEX
  8
0
  5
CF8
 10
228.506
 20
143.156
 30
0.000000
  70
    32
  0
VERTEX
  8
0
  5
CF9
 10
228.541
 20
143.144
 30
0.000000
  70
    32
  0
VERTEX
  8
0
  5
CFA
 10
228.577
 20
143.134
 30
0.000000
  70
    32
  0
VERTEX
  8
0
  5
CFB
 10
228.612
 20
143.123
 30
0.000000
  70
    32
  0
VERTEX
  8
0
  5
CFC
 10
228.647
 20
143.114
 30
0.000000
  70
    32
  0
VERTEX
  8
0
  5
CFD
 10
228.683
 20
143.104
 30
0.000000
  70
    32
  0
VERTEX
  8
0
  5
CFE
 10
228.718
 20
143.096
 30
0.000000
  70
    32
  0
VERTEX
  8
0
  5
CFF
 10
228.753
 20
143.088
 30
0.000000
  70
    32
  0
VERTEX
  8
0
  5
D00
 10
228.789
 20
143.080
 30
0.000000
  70
    32
  0
VERTEX
  8
0
  5
D01
 10
228.824
 20
143.073
 30
0.000000
  70
    32
  0
VERTEX
  8
0
  5
D02
 10
228.860
 20
143.066
 30
0.000000
  70
    32
  0
VERTEX
  8
0
  5
D03
 10
228.895
 20
143.060
 30
0.000000
  70
    32
  0
VERTEX
  8
0
  5
D04
 10
228.931
 20
143.054
 30
0.000000
  70
    32
  0
VERTEX
  8
0
  5
D05
 10
228.966
 20
143.049
 30
0.000000
  70
    32
  0
VERTEX
  8
0
  5
D06
 10
229.002
 20
143.045
 30
0.000000
  70
    32
  0
VERTEX
  8
0
  5
D07
 10
229.038
 20
143.041
 30
0.000000
  70
    32
  0
VERTEX
  8
0
  5
D08
 10
229.073
 20
143.037
 30
0.000000
  70
    32
  0
VERTEX
  8
0
  5
D09
 10
229.109
 20
143.034
 30
0.000000
  70
    32
  0
VERTEX
  8
0
  5
D0A
 10
229.144
 20
143.032
 30
0.000000
  70
    32
  0
VERTEX
  8
0
  5
D0B
 10
229.180
 20
143.030
 30
0.000000
  70
    32
  0
VERTEX
  8
0
  5
D0C
 10
229.216
 20
143.028
 30
0.000000
  70
    32
  0
VERTEX
  8
0
  5
D0D
 10
229.251
 20
143.027
 30
0.000000
  70
    32
  0
VERTEX
  8
0
  5
D0E
 10
229.287
 20
143.027
 30
0.000000
  70
    32
  0
VERTEX
  8
0
  5
D0F
 10
229.323
 20
143.027
 30
0.000000
  70
    32
  0
VERTEX
  8
0
  5
D10
 10
229.358
 20
143.027
 30
0.000000
  70
    32
  0
VERTEX
  8
0
  5
D11
 10
229.394
 20
143.028
 30
0.000000
  70
    32
  0
VERTEX
  8
0
  5
D12
 10
229.430
 20
143.030
 30
0.000000
  70
    32
  0
VERTEX
  8
0
  5
D13
 10
229.465
 20
143.032
 30
0.000000
  70
    32
  0
VERTEX
  8
0
  5
D14
 10
229.501
 20
143.035
 30
0.000000
  70
    32
  0
VERTEX
  8
0
  5
D15
 10
229.536
 20
143.038
 30
0.000000
  70
    32
  0
VERTEX
  8
0
  5
D16
 10
229.572
 20
143.042
 30
0.000000
  70
    32
  0
VERTEX
  8
0
  5
D17
 10
229.608
 20
143.046
 30
0.000000
  70
    32
  0
VERTEX
  8
0
  5
D18
 10
229.643
 20
143.051
 30
0.000000
  70
    32
  0
VERTEX
  8
0
  5
D19
 10
229.679
 20
143.056
 30
0.000000
  70
    32
  0
VERTEX
  8
0
  5
D1A
 10
229.714
 20
143.062
 30
0.000000
  70
    32
  0
VERTEX
  8
0
  5
D1B
 10
229.750
 20
143.068
 30
0.000000
  70
    32
  0
VERTEX
  8
0
  5
D1C
 10
229.785
 20
143.075
 30
0.000000
  70
    32
  0
VERTEX
  8
0
  5
D1D
 10
229.821
 20
143.082
 30
0.000000
  70
    32
  0
VERTEX
  8
0
  5
D1E
 10
229.856
 20
143.090
 30
0.000000
  70
    32
  0
VERTEX
  8
0
  5
D1F
 10
229.892
 20
143.098
 30
0.000000
  70
    32
  0
VERTEX
  8
0
  5
D20
 10
229.927
 20
143.107
 30
0.000000
  70
    32
  0
VERTEX
  8
0
  5
D21
 10
229.962
 20
143.116
 30
0.000000
  70
    32
  0
VERTEX
  8
0
  5
D22
 10
229.998
 20
143.126
 30
0.000000
  70
    32
  0
VERTEX
  8
0
  5
D23
 10
230.033
 20
143.136
 30
0.000000
  70
    32
  0
VERTEX
  8
0
  5
D24
 10
230.068
 20
143.147
 30
0.000000
  70
    32
  0
VERTEX
  8
0
  5
D25
 10
230.103
 20
143.159
 30
0.000000
  70
    32
  0
VERTEX
  8
0
  5
D26
 10
230.139
 20
143.171
 30
0.000000
  70
    32
  0
VERTEX
  8
0
  5
D27
 10
230.174
 20
143.183
 30
0.000000
  70
    32
  0
VERTEX
  8
0
  5
D28
 10
230.209
 20
143.196
 30
0.000000
  70
    32
  0
VERTEX
  8
0
  5
D29
 10
230.244
 20
143.209
 30
0.000000
  70
    32
  0
VERTEX
  8
0
  5
D2A
 10
230.279
 20
143.223
 30
0.000000
  70
    32
  0
VERTEX
  8
0
  5
D2B
 10
230.314
 20
143.238
 30
0.000000
  70
    32
  0
VERTEX
  8
0
  5
D2C
 10
230.348
 20
143.253
 30
0.000000
  70
    32
  0
VERTEX
  8
0
  5
D2D
 10
230.383
 20
143.268
 30
0.000000
  70
    32
  0
VERTEX
  8
0
  5
D2E
 10
230.418
 20
143.284
 30
0.000000
  70
    32
  0
VERTEX
  8
0
  5
D2F
 10
230.453
 20
143.300
 30
0.000000
  70
    32
  0
VERTEX
  8
0
  5
D30
 10
230.487
 20
143.317
 30
0.000000
  70
    32
  0
VERTEX
  8
0
  5
D31
 10
230.522
 20
143.335
 30
0.000000
  70
    32
  0
VERTEX
  8
0
  5
D32
 10
230.556
 20
143.353
 30
0.000000
  70
    32
  0
VERTEX
  8
0
  5
D33
 10
230.591
 20
143.371
 30
0.000000
  70
    32
  0
VERTEX
  8
0
  5
D34
 10
230.625
 20
143.390
 30
0.000000
  70
    32
  0
VERTEX
  8
0
  5
D35
 10
230.660
 20
143.410
 30
0.000000
  70
    32
  0
VERTEX
  8
0
  5
D36
 10
230.694
 20
143.430
 30
0.000000
  70
    32
  0
VERTEX
  8
0
  5
D37
 10
230.728
 20
143.450
 30
0.000000
  70
    32
  0
VERTEX
  8
0
  5
D38
 10
230.762
 20
143.471
 30
0.000000
  70
    32
  0
VERTEX
  8
0
  5
D39
 10
230.796
 20
143.492
 30
0.000000
  70
    32
  0
VERTEX
  8
0
  5
D3A
 10
230.830
 20
143.514
 30
0.000000
  70
    32
  0
VERTEX
  8
0
  5
D3B
 10
230.864
 20
143.537
 30
0.000000
  70
    32
  0
VERTEX
  8
0
  5
D3C
 10
230.898
 20
143.560
 30
0.000000
  70
    32
  0
VERTEX
  8
0
  5
D3D
 10
230.931
 20
143.583
 30
0.000000
  70
    32
  0
VERTEX
  8
0
  5
D3E
 10
230.965
 20
143.607
 30
0.000000
  70
    32
  0
VERTEX
  8
0
  5
D3F
 10
230.998
 20
143.631
 30
0.000000
  70
    32
  0
VERTEX
  8
0
  5
D40
 10
231.032
 20
143.656
 30
0.000000
  70
    32
  0
VERTEX
  8
0
  5
D41
 10
231.065
 20
143.681
 30
0.000000
  70
    32
  0
VERTEX
  8
0
  5
D42
 10
231.098
 20
143.707
 30
0.000000
  70
    32
  0
VERTEX
  8
0
  5
D43
 10
231.131
 20
143.734
 30
0.000000
  70
    32
  0
VERTEX
  8
0
  5
D44
 10
231.164
 20
143.760
 30
0.000000
  70
    32
  0
VERTEX
  8
0
  5
D45
 10
231.197
 20
143.788
 30
0.000000
  70
    32
  0
VERTEX
  8
0
  5
D46
 10
231.230
 20
143.815
 30
0.000000
  70
    32
  0
VERTEX
  8
0
  5
D47
 10
231.263
 20
143.843
 30
0.000000
  70
    32
  0
VERTEX
  8
0
  5
D48
 10
231.296
 20
143.872
 30
0.000000
  70
    32
  0
VERTEX
  8
0
  5
D49
 10
231.328
 20
143.901
 30
0.000000
  70
    32
  0
VERTEX
  8
0
  5
D4A
 10
231.361
 20
143.931
 30
0.000000
  70
    32
  0
VERTEX
  8
0
  5
D4B
 10
231.393
 20
143.961
 30
0.000000
  70
    32
  0
VERTEX
  8
0
  5
D4C
 10
231.425
 20
143.992
 30
0.000000
  70
    32
  0
VERTEX
  8
0
  5
D4D
 10
231.457
 20
144.023
 30
0.000000
  70
    32
  0
VERTEX
  8
0
  5
D4E
 10
231.489
 20
144.054
 30
0.000000
  70
    32
  0
VERTEX
  8
0
  5
D4F
 10
231.521
 20
144.086
 30
0.000000
  70
    32
  0
VERTEX
  8
0
  5
D50
 10
231.553
 20
144.118
 30
0.000000
  70
    32
  0
VERTEX
  8
0
  5
D51
 10
231.585
 20
144.151
 30
0.000000
  70
    32
  0
VERTEX
  8
0
  5
D52
 10
231.616
 20
144.185
 30
0.000000
  70
    32
  0
VERTEX
  8
0
  5
D53
 10
231.647
 20
144.218
 30
0.000000
  70
    32
  0
VERTEX
  8
0
  5
D54
 10
231.679
 20
144.253
 30
0.000000
  70
    32
  0
VERTEX
  8
0
  5
D55
 10
231.710
 20
144.287
 30
0.000000
  70
    32
  0
VERTEX
  8
0
  5
D56
 10
231.741
 20
144.322
 30
0.000000
  70
    32
  0
VERTEX
  8
0
  5
D57
 10
231.772
 20
144.358
 30
0.000000
  70
    32
  0
VERTEX
  8
0
  5
D58
 10
231.803
 20
144.394
 30
0.000000
  70
    32
  0
VERTEX
  8
0
  5
D59
 10
231.833
 20
144.431
 30
0.000000
  70
    32
  0
VERTEX
  8
0
  5
D5A
 10
231.864
 20
144.467
 30
0.000000
  70
    32
  0
VERTEX
  8
0
  5
D5B
 10
231.894
 20
144.505
 30
0.000000
  70
    32
  0
VERTEX
  8
0
  5
D5C
 10
231.924
 20
144.543
 30
0.000000
  70
    32
  0
VERTEX
  8
0
  5
D5D
 10
231.954
 20
144.581
 30
0.000000
  70
    32
  0
VERTEX
  8
0
  5
D5E
 10
231.984
 20
144.620
 30
0.000000
  70
    32
  0
VERTEX
  8
0
  5
D5F
 10
232.014
 20
144.659
 30
0.000000
  70
    32
  0
VERTEX
  8
0
  5
D60
 10
232.044
 20
144.698
 30
0.000000
  70
    32
  0
SEQEND
  8
0
  5
D61
  0
POLYLINE
  5
735
  8
0
  6
CONTINUOUS
 62
     7
 10
243.01074033821214
 20
144.69818578127905
 30
0.0
 66
     1
 70
     8
  0
VERTEX
  8
0
  5
D62
 10
243.011
 20
144.698
 30
0.000000
  70
    32
  0
VERTEX
  8
0
  5
D63
 10
243.040
 20
144.659
 30
0.000000
  70
    32
  0
VERTEX
  8
0
  5
D64
 10
243.070
 20
144.620
 30
0.000000
  70
    32
  0
VERTEX
  8
0
  5
D65
 10
243.100
 20
144.581
 30
0.000000
  70
    32
  0
VERTEX
  8
0
  5
D66
 10
243.130
 20
144.543
 30
0.000000
  70
    32
  0
VERTEX
  8
0
  5
D67
 10
243.161
 20
144.505
 30
0.000000
  70
    32
  0
VERTEX
  8
0
  5
D68
 10
243.191
 20
144.467
 30
0.000000
  70
    32
  0
VERTEX
  8
0
  5
D69
 10
243.221
 20
144.431
 30
0.000000
  70
    32
  0
VERTEX
  8
0
  5
D6A
 10
243.252
 20
144.394
 30
0.000000
  70
    32
  0
VERTEX
  8
0
  5
D6B
 10
243.283
 20
144.358
 30
0.000000
  70
    32
  0
VERTEX
  8
0
  5
D6C
 10
243.314
 20
144.322
 30
0.000000
  70
    32
  0
VERTEX
  8
0
  5
D6D
 10
243.345
 20
144.287
 30
0.000000
  70
    32
  0
VERTEX
  8
0
  5
D6E
 10
243.376
 20
144.253
 30
0.000000
  70
    32
  0
VERTEX
  8
0
  5
D6F
 10
243.407
 20
144.218
 30
0.000000
  70
    32
  0
VERTEX
  8
0
  5
D70
 10
243.439
 20
144.185
 30
0.000000
  70
    32
  0
VERTEX
  8
0
  5
D71
 10
243.470
 20
144.151
 30
0.000000
  70
    32
  0
VERTEX
  8
0
  5
D72
 10
243.502
 20
144.118
 30
0.000000
  70
    32
  0
VERTEX
  8
0
  5
D73
 10
243.533
 20
144.086
 30
0.000000
  70
    32
  0
VERTEX
  8
0
  5
D74
 10
243.565
 20
144.054
 30
0.000000
  70
    32
  0
VERTEX
  8
0
  5
D75
 10
243.597
 20
144.023
 30
0.000000
  70
    32
  0
VERTEX
  8
0
  5
D76
 10
243.629
 20
143.992
 30
0.000000
  70
    32
  0
VERTEX
  8
0
  5
D77
 10
243.662
 20
143.961
 30
0.000000
  70
    32
  0
VERTEX
  8
0
  5
D78
 10
243.694
 20
143.931
 30
0.000000
  70
    32
  0
VERTEX
  8
0
  5
D79
 10
243.726
 20
143.901
 30
0.000000
  70
    32
  0
VERTEX
  8
0
  5
D7A
 10
243.759
 20
143.872
 30
0.000000
  70
    32
  0
VERTEX
  8
0
  5
D7B
 10
243.792
 20
143.843
 30
0.000000
  70
    32
  0
VERTEX
  8
0
  5
D7C
 10
243.824
 20
143.815
 30
0.000000
  70
    32
  0
VERTEX
  8
0
  5
D7D
 10
243.857
 20
143.788
 30
0.000000
  70
    32
  0
VERTEX
  8
0
  5
D7E
 10
243.890
 20
143.760
 30
0.000000
  70
    32
  0
VERTEX
  8
0
  5
D7F
 10
243.923
 20
143.734
 30
0.000000
  70
    32
  0
VERTEX
  8
0
  5
D80
 10
243.956
 20
143.707
 30
0.000000
  70
    32
  0
VERTEX
  8
0
  5
D81
 10
243.989
 20
143.681
 30
0.000000
  70
    32
  0
VERTEX
  8
0
  5
D82
 10
244.023
 20
143.656
 30
0.000000
  70
    32
  0
VERTEX
  8
0
  5
D83
 10
244.056
 20
143.631
 30
0.000000
  70
    32
  0
VERTEX
  8
0
  5
D84
 10
244.090
 20
143.607
 30
0.000000
  70
    32
  0
VERTEX
  8
0
  5
D85
 10
244.123
 20
143.583
 30
0.000000
  70
    32
  0
VERTEX
  8
0
  5
D86
 10
244.157
 20
143.560
 30
0.000000
  70
    32
  0
VERTEX
  8
0
  5
D87
 10
244.191
 20
143.537
 30
0.000000
  70
    32
  0
VERTEX
  8
0
  5
D88
 10
244.225
 20
143.514
 30
0.000000
  70
    32
  0
VERTEX
  8
0
  5
D89
 10
244.259
 20
143.492
 30
0.000000
  70
    32
  0
VERTEX
  8
0
  5
D8A
 10
244.293
 20
143.471
 30
0.000000
  70
    32
  0
VERTEX
  8
0
  5
D8B
 10
244.327
 20
143.450
 30
0.000000
  70
    32
  0
VERTEX
  8
0
  5
D8C
 10
244.361
 20
143.430
 30
0.000000
  70
    32
  0
VERTEX
  8
0
  5
D8D
 10
244.395
 20
143.410
 30
0.000000
  70
    32
  0
VERTEX
  8
0
  5
D8E
 10
244.429
 20
143.390
 30
0.000000
  70
    32
  0
VERTEX
  8
0
  5
D8F
 10
244.464
 20
143.371
 30
0.000000
  70
    32
  0
VERTEX
  8
0
  5
D90
 10
244.498
 20
143.353
 30
0.000000
  70
    32
  0
VERTEX
  8
0
  5
D91
 10
244.533
 20
143.335
 30
0.000000
  70
    32
  0
VERTEX
  8
0
  5
D92
 10
244.567
 20
143.317
 30
0.000000
  70
    32
  0
VERTEX
  8
0
  5
D93
 10
244.602
 20
143.300
 30
0.000000
  70
    32
  0
VERTEX
  8
0
  5
D94
 10
244.637
 20
143.284
 30
0.000000
  70
    32
  0
VERTEX
  8
0
  5
D95
 10
244.671
 20
143.268
 30
0.000000
  70
    32
  0
VERTEX
  8
0
  5
D96
 10
244.706
 20
143.253
 30
0.000000
  70
    32
  0
VERTEX
  8
0
  5
D97
 10
244.741
 20
143.238
 30
0.000000
  70
    32
  0
VERTEX
  8
0
  5
D98
 10
244.776
 20
143.223
 30
0.000000
  70
    32
  0
VERTEX
  8
0
  5
D99
 10
244.811
 20
143.209
 30
0.000000
  70
    32
  0
VERTEX
  8
0
  5
D9A
 10
244.846
 20
143.196
 30
0.000000
  70
    32
  0
VERTEX
  8
0
  5
D9B
 10
244.881
 20
143.183
 30
0.000000
  70
    32
  0
VERTEX
  8
0
  5
D9C
 10
244.916
 20
143.171
 30
0.000000
  70
    32
  0
VERTEX
  8
0
  5
D9D
 10
244.951
 20
143.159
 30
0.000000
  70
    32
  0
VERTEX
  8
0
  5
D9E
 10
244.986
 20
143.147
 30
0.000000
  70
    32
  0
VERTEX
  8
0
  5
D9F
 10
245.022
 20
143.136
 30
0.000000
  70
    32
  0
VERTEX
  8
0
  5
DA0
 10
245.057
 20
143.126
 30
0.000000
  70
    32
  0
VERTEX
  8
0
  5
DA1
 10
245.092
 20
143.116
 30
0.000000
  70
    32
  0
VERTEX
  8
0
  5
DA2
 10
245.128
 20
143.107
 30
0.000000
  70
    32
  0
VERTEX
  8
0
  5
DA3
 10
245.163
 20
143.098
 30
0.000000
  70
    32
  0
VERTEX
  8
0
  5
DA4
 10
245.198
 20
143.090
 30
0.000000
  70
    32
  0
VERTEX
  8
0
  5
DA5
 10
245.234
 20
143.082
 30
0.000000
  70
    32
  0
VERTEX
  8
0
  5
DA6
 10
245.269
 20
143.075
 30
0.000000
  70
    32
  0
VERTEX
  8
0
  5
DA7
 10
245.305
 20
143.068
 30
0.000000
  70
    32
  0
VERTEX
  8
0
  5
DA8
 10
245.340
 20
143.062
 30
0.000000
  70
    32
  0
VERTEX
  8
0
  5
DA9
 10
245.376
 20
143.056
 30
0.000000
  70
    32
  0
VERTEX
  8
0
  5
DAA
 10
245.411
 20
143.051
 30
0.000000
  70
    32
  0
VERTEX
  8
0
  5
DAB
 10
245.447
 20
143.046
 30
0.000000
  70
    32
  0
VERTEX
  8
0
  5
DAC
 10
245.482
 20
143.042
 30
0.000000
  70
    32
  0
VERTEX
  8
0
  5
DAD
 10
245.518
 20
143.038
 30
0.000000
  70
    32
  0
VERTEX
  8
0
  5
DAE
 10
245.554
 20
143.035
 30
0.000000
  70
    32
  0
VERTEX
  8
0
  5
DAF
 10
245.589
 20
143.032
 30
0.000000
  70
    32
  0
VERTEX
  8
0
  5
DB0
 10
245.625
 20
143.030
 30
0.000000
  70
    32
  0
VERTEX
  8
0
  5
DB1
 10
245.661
 20
143.028
 30
0.000000
  70
    32
  0
VERTEX
  8
0
  5
DB2
 10
245.696
 20
143.027
 30
0.000000
  70
    32
  0
VERTEX
  8
0
  5
DB3
 10
245.732
 20
143.027
 30
0.000000
  70
    32
  0
VERTEX
  8
0
  5
DB4
 10
245.768
 20
143.027
 30
0.000000
  70
    32
  0
VERTEX
  8
0
  5
DB5
 10
245.803
 20
143.027
 30
0.000000
  70
    32
  0
VERTEX
  8
0
  5
DB6
 10
245.839
 20
143.028
 30
0.000000
  70
    32
  0
VERTEX
  8
0
  5
DB7
 10
245.875
 20
143.030
 30
0.000000
  70
    32
  0
VERTEX
  8
0
  5
DB8
 10
245.910
 20
143.032
 30
0.000000
  70
    32
  0
VERTEX
  8
0
  5
DB9
 10
245.946
 20
143.034
 30
0.000000
  70
    32
  0
VERTEX
  8
0
  5
DBA
 10
245.981
 20
143.037
 30
0.000000
  70
    32
  0
VERTEX
  8
0
  5
DBB
 10
246.017
 20
143.041
 30
0.000000
  70
    32
  0
VERTEX
  8
0
  5
DBC
 10
246.053
 20
143.045
 30
0.000000
  70
    32
  0
VERTEX
  8
0
  5
DBD
 10
246.088
 20
143.049
 30
0.000000
  70
    32
  0
VERTEX
  8
0
  5
DBE
 10
246.124
 20
143.054
 30
0.000000
  70
    32
  0
VERTEX
  8
0
  5
DBF
 10
246.159
 20
143.060
 30
0.000000
  70
    32
  0
VERTEX
  8
0
  5
DC0
 10
246.195
 20
143.066
 30
0.000000
  70
    32
  0
VERTEX
  8
0
  5
DC1
 10
246.230
 20
143.073
 30
0.000000
  70
    32
  0
VERTEX
  8
0
  5
DC2
 10
246.266
 20
143.080
 30
0.000000
  70
    32
  0
VERTEX
  8
0
  5
DC3
 10
246.301
 20
143.088
 30
0.000000
  70
    32
  0
VERTEX
  8
0
  5
DC4
 10
246.337
 20
143.096
 30
0.000000
  70
    32
  0
VERTEX
  8
0
  5
DC5
 10
246.372
 20
143.104
 30
0.000000
  70
    32
  0
VERTEX
  8
0
  5
DC6
 10
246.407
 20
143.114
 30
0.000000
  70
    32
  0
VERTEX
  8
0
  5
DC7
 10
246.443
 20
143.123
 30
0.000000
  70
    32
  0
VERTEX
  8
0
  5
DC8
 10
246.478
 20
143.134
 30
0.000000
  70
    32
  0
VERTEX
  8
0
  5
DC9
 10
246.513
 20
143.144
 30
0.000000
  70
    32
  0
VERTEX
  8
0
  5
DCA
 10
246.548
 20
143.156
 30
0.000000
  70
    32
  0
VERTEX
  8
0
  5
DCB
 10
246.584
 20
143.167
 30
0.000000
  70
    32
  0
VERTEX
  8
0
  5
DCC
 10
246.619
 20
143.180
 30
0.000000
  70
    32
  0
VERTEX
  8
0
  5
DCD
 10
246.654
 20
143.192
 30
0.000000
  70
    32
  0
VERTEX
  8
0
  5
DCE
 10
246.689
 20
143.206
 30
0.000000
  70
    32
  0
VERTEX
  8
0
  5
DCF
 10
246.724
 20
143.219
 30
0.000000
  70
    32
  0
VERTEX
  8
0
  5
DD0
 10
246.759
 20
143.234
 30
0.000000
  70
    32
  0
VERTEX
  8
0
  5
DD1
 10
246.794
 20
143.249
 30
0.000000
  70
    32
  0
VERTEX
  8
0
  5
DD2
 10
246.828
 20
143.264
 30
0.000000
  70
    32
  0
VERTEX
  8
0
  5
DD3
 10
246.863
 20
143.280
 30
0.000000
  70
    32
  0
VERTEX
  8
0
  5
DD4
 10
246.898
 20
143.296
 30
0.000000
  70
    32
  0
VERTEX
  8
0
  5
DD5
 10
246.933
 20
143.313
 30
0.000000
  70
    32
  0
VERTEX
  8
0
  5
DD6
 10
246.967
 20
143.330
 30
0.000000
  70
    32
  0
VERTEX
  8
0
  5
DD7
 10
247.002
 20
143.348
 30
0.000000
  70
    32
  0
VERTEX
  8
0
  5
DD8
 10
247.036
 20
143.366
 30
0.000000
  70
    32
  0
VERTEX
  8
0
  5
DD9
 10
247.070
 20
143.385
 30
0.000000
  70
    32
  0
VERTEX
  8
0
  5
DDA
 10
247.105
 20
143.404
 30
0.000000
  70
    32
  0
VERTEX
  8
0
  5
DDB
 10
247.139
 20
143.424
 30
0.000000
  70
    32
  0
VERTEX
  8
0
  5
DDC
 10
247.173
 20
143.445
 30
0.000000
  70
    32
  0
VERTEX
  8
0
  5
DDD
 10
247.207
 20
143.465
 30
0.000000
  70
    32
  0
VERTEX
  8
0
  5
DDE
 10
247.241
 20
143.487
 30
0.000000
  70
    32
  0
VERTEX
  8
0
  5
DDF
 10
247.275
 20
143.508
 30
0.000000
  70
    32
  0
VERTEX
  8
0
  5
DE0
 10
247.309
 20
143.531
 30
0.000000
  70
    32
  0
VERTEX
  8
0
  5
DE1
 10
247.343
 20
143.553
 30
0.000000
  70
    32
  0
VERTEX
  8
0
  5
DE2
 10
247.377
 20
143.577
 30
0.000000
  70
    32
  0
SEQEND
  8
0
  5
DE3
  0
DIMENSION
  5
737
  8
0
  6
CONTINUOUS
 62
     7
  2
*D4
 10
266.14018349959298
 20
255.9996238561105
 30
0.0
 11
266.14018349959292
 21
265.49962385611047
 31
0.0
 70
   128
  1
19
 13
243.01210649959279
 23
274.99962385611047
 33
0.0
 14
243.01210649959279
 24
255.9996238561105
 34
0.0
 50
90.0
1001
ACAD
1000
DSTYLE
1002
{
1070
     6
1000
_OPEN30
1070
     7
1000
_OPEN30
1070
    41
1040
2.77
1070
    78
1070
     0
1070
   173
1070
     1
1070
   271
1070
     0
1070
   341
1005
426
1002
}
  0
LINE
  5
738
  8
0
  6
NON_PLOTING
 62
     7
 10
373.2062574350428
 20
304.71782762352171
 30
0.0
 11
373.2062574350428
 21
7.7178096235217017
 31
0.0
  0
LINE
  5
739
  8
0
  6
NON_PLOTING
 62
     7
 10
3.439570214131435
 20
7.7178096235217017
 30
0.0
 11
373.2062574350428
 21
7.7178096235217017
 31
0.0
  0
LINE
  5
73A
  8
0
  6
CONTINUOUS
 62
     7
 10
262.03390643504281
 20
50.17991062352165
 30
0.0
 11
264.6865584350428
 21
50.17991062352165
 31
0.0
  0
LINE
  5
73B
  8
0
  6
CONTINUOUS
 62
     7
 10
274.2313764350427
 20
47.02717662352164
 30
0.0
 11
277.36337643504271
 21
47.02717662352164
 31
0.0
  0
LINE
  5
73C
  8
0
  6
CONTINUOUS
 62
     7
 10
274.53032743504292
 20
47.531870623521719
 30
0.0
 11
277.07595143504273
 21
47.531870623521719
 31
0.0
  0
LINE
  5
73D
  8
0
  6
CONTINUOUS
 62
     7
 10
255.0995394350428
 20
46.780655623521717
 30
0.0
 11
255.0995394350428
 21
49.516179623521658
 31
0.0
  0
LINE
  5
73E
  8
0
  6
CONTINUOUS
 62
     7
 10
256.72975743504281
 20
46.821581623521617
 30
0.0
 11
256.72975743504281
 21
49.516220623521683
 31
0.0
  0
LINE
  5
73F
  8
0
  6
CONTINUOUS
 62
     7
 10
279.65933943504268
 20
46.277537623521631
 30
0.0
 11
277.28398143504268
 21
50.17991062352165
 31
0.0
  0
LINE
  5
740
  8
0
  6
CONTINUOUS
 62
     7
 10
273.18663343504272
 20
46.269408623521699
 30
0.0
 11
275.50297943504279
 21
50.17991062352165
 31
0.0
  0
LINE
  5
741
  8
0
  6
CONTINUOUS
 62
     7
 10
277.66153043504278
 20
46.503643623521711
 30
0.0
 11
277.36337643504271
 21
47.02717662352164
 31
0.0
  0
LINE
  5
742
  8
0
  6
CONTINUOUS
 62
     7
 10
273.92956043504267
 20
46.517644623521711
 30
0.0
 11
274.2313764350427
 21
47.02717662352164
 31
0.0
  0
LINE
  5
743
  8
0
  6
CONTINUOUS
 62
     7
 10
272.48183743504268
 20
45.67337362352167
 30
0.0
 11
274.23458343504291
 21
45.67337362352167
 31
0.0
  0
LINE
  5
744
  8
0
  6
CONTINUOUS
 62
     7
 10
277.37574543504269
 20
45.67337362352167
 30
0.0
 11
280.45903343504278
 21
45.67337362352167
 31
0.0
  0
LINE
  5
745
  8
0
  6
CONTINUOUS
 62
     7
 10
275.50297943504279
 20
50.17991062352165
 30
0.0
 11
277.28398143504268
 21
50.17991062352165
 31
0.0
  0
LINE
  5
746
  8
0
  6
CONTINUOUS
 62
     7
 10
266.37901943504289
 20
50.17991062352165
 30
0.0
 11
269.34578643504278
 21
50.17991062352165
 31
0.0
  0
LINE
  5
747
  8
0
  6
CONTINUOUS
 62
     7
 10
272.52462443504282
 20
50.17991062352165
 30
0.0
 11
274.24401643504279
 21
50.17991062352165
 31
0.0
  0
LINE
  5
748
  8
0
  6
CONTINUOUS
 62
     7
 10
274.53032743504292
 20
47.531870623521719
 30
0.0
 11
275.82815743504278
 21
49.722892623521702
 31
0.0
  0
LINE
  5
749
  8
0
  6
CONTINUOUS
 62
     7
 10
277.07595143504273
 20
47.531870623521719
 30
0.0
 11
275.82815743504278
 21
49.722892623521702
 31
0.0
  0
LINE
  5
74A
  8
0
  6
CONTINUOUS
 62
     7
 10
271.24833943504268
 20
45.67337362352167
 30
0.0
 11
273.55212943504279
 21
49.649692623521659
 31
0.0
  0
LINE
  5
74B
  8
0
  6
CONTINUOUS
 62
     7
 10
270.90459543504289
 20
46.139023623521652
 30
0.0
 11
272.79433043504258
 21
49.400687623521648
 31
0.0
  0
LINE
  5
74C
  8
0
  6
CONTINUOUS
 62
     7
 10
270.90459543504289
 20
46.139023623521652
 30
0.0
 11
268.99059343504291
 21
49.365836623521638
 31
0.0
  0
LINE
  5
74D
  8
0
  6
CONTINUOUS
 62
     7
 10
269.49684243504271
 20
45.67337362352167
 30
0.0
 11
267.14161943504291
 21
49.644039623521721
 31
0.0
  0
LINE
  5
74E
  8
0
  6
CONTINUOUS
 62
     7
 10
269.49684243504271
 20
45.67337362352167
 30
0.0
 11
271.24833943504268
 21
45.67337362352167
 31
0.0
  0
LINE
  5
74F
  8
0
  6
CONTINUOUS
 62
     7
 10
264.17712743504279
 20
46.951550623521698
 30
0.0
 11
264.17712743504279
 21
49.617902623521658
 31
0.0
  0
LINE
  5
750
  8
0
  6
CONTINUOUS
 62
     7
 10
262.54690943504278
 20
46.52997762352161
 30
0.0
 11
262.54690943504278
 21
49.617340623521713
 31
0.0
  0
LINE
  5
751
  8
0
  6
CONTINUOUS
 62
     7
 10
260.30656343504279
 20
46.821581623521617
 30
0.0
 11
260.30656343504279
 21
49.527587623521619
 31
0.0
  0
LINE
  5
752
  8
0
  6
CONTINUOUS
 62
     7
 10
264.95493843504278
 20
46.173739623521648
 30
0.0
 11
266.74382143504272
 21
46.173739623521648
 31
0.0
  0
LINE
  5
753
  8
0
  6
CONTINUOUS
 62
     7
 10
267.60198643504282
 20
45.67337362352167
 30
0.0
 11
267.83962143504277
 21
47.057910623521693
 31
0.0
  0
LINE
  5
754
  8
0
  6
CONTINUOUS
 62
     7
 10
261.97252243504272
 20
45.67337362352167
 30
0.0
 11
267.60198643504282
 21
45.67337362352167
 31
0.0
  0
LINE
  5
755
  8
0
  6
CONTINUOUS
 62
     7
 10
254.59077243504271
 20
50.17991062352165
 30
0.0
 11
257.23840543504281
 21
50.17991062352165
 31
0.0
  0
ARC
  5
756
  8
0
  6
CONTINUOUS
 62
     7
 10
258.15557943504268
 20
54.79095162352165
 30
0.0
 40
8.6593029999999995
 50
275.65153399999912
 51
277.9658519999968
  0
ARC
  5
757
  8
0
  6
CONTINUOUS
 62
     7
 10
258.15557943504268
 20
54.79095162352165
 30
0.0
 40
9.3113910000000004
 50
261.60641899999638
 51
284.46884200000289
  0
LINE
  5
758
  8
0
  6
CONTINUOUS
 62
     7
 10
259.84623643504278
 20
50.179554623521639
 30
0.0
 11
261.58649543504271
 21
50.179554623521639
 31
0.0
  0
LINE
  5
759
  8
0
  6
CONTINUOUS
 62
     7
 10
264.70486043504269
 20
50.155689623521639
 30
0.0
 11
264.70486043504269
 21
50.161609623521699
 31
0.0
  0
LINE
  5
75A
  8
0
  6
CONTINUOUS
 62
     7
 10
262.01560543504269
 20
50.155762623521682
 30
0.0
 11
262.01560543504269
 21
50.161609623521699
 31
0.0
  0
ARC
  5
75B
  8
0
  6
CONTINUOUS
 62
     7
 10
264.65910643504282
 20
50.155689623521639
 30
0.0
 40
0.045754
 50
289.39587399999732
 51
0.0
  0
ARC
  5
75C
  8
0
  6
CONTINUOUS
 62
     7
 10
264.6865584350428
 20
50.161609623521699
 30
0.0
 40
0.018302
 50
0.0
 51
90.0
  0
ARC
  5
75D
  8
0
  6
CONTINUOUS
 62
     7
 10
262.03390643504281
 20
50.161609623521699
 30
0.0
 40
0.018302
 50
90.0
 51
180.0
  0
ARC
  5
75E
  8
0
  6
CONTINUOUS
 62
     7
 10
262.06135843504291
 20
50.155762623521682
 30
0.0
 40
0.045754
 50
180.0
 51
250.724866000003
  0
LINE
  5
75F
  8
0
  6
CONTINUOUS
 62
     7
 10
262.04625543504272
 20
50.112573623521698
 30
0.0
 11
262.43053843504282
 21
49.84172962352168
 31
0.0
  0
LINE
  5
760
  8
0
  6
CONTINUOUS
 62
     7
 10
264.67430143504271
 20
50.112533623521678
 30
0.0
 11
264.29277343504282
 21
49.841779623521667
 31
0.0
  0
ARC
  5
761
  8
0
  6
CONTINUOUS
 62
     7
 10
264.45164843504273
 20
49.617902623521658
 30
0.0
 40
0.274522
 50
125.361677999999
 51
180.0
  0
ARC
  5
762
  8
0
  6
CONTINUOUS
 62
     7
 10
262.27238843504279
 20
49.617340623521713
 30
0.0
 40
0.274522
 50
0.0
 51
54.823662000005463
  0
LINE
  5
763
  8
0
  6
CONTINUOUS
 62
     7
 10
258.02799043504268
 20
46.173739623521648
 30
0.0
 11
259.0083294350427
 21
46.173739623521648
 31
0.0
  0
LINE
  5
764
  8
0
  6
CONTINUOUS
 62
     7
 10
262.2555804350427
 20
45.968721623521652
 30
0.0
 11
261.99306543504281
 21
45.783981623521619
 31
0.0
  0
LINE
  5
765
  8
0
  6
CONTINUOUS
 62
     7
 10
261.95422143504288
 20
45.709146623521612
 30
0.0
 11
261.95422143504288
 21
45.691674623521621
 31
0.0
  0
ARC
  5
766
  8
0
  6
CONTINUOUS
 62
     7
 10
261.97252243504272
 20
45.691674623521621
 30
0.0
 40
0.018302
 50
180.0
 51
270.0
  0
ARC
  5
767
  8
0
  6
CONTINUOUS
 62
     7
 10
261.86060543504283
 20
46.52997762352161
 30
0.0
 40
0.686304
 50
305.13530900000598
 51
0.0
  0
ARC
  5
768
  8
0
  6
CONTINUOUS
 62
     7
 10
262.0457284350428
 20
45.709146623521612
 30
0.0
 40
0.091507
 50
125.135309000006
 51
180.0
  0
ARC
  5
769
  8
0
  6
CONTINUOUS
 62
     7
 10
264.95493843504278
 20
46.951550623521698
 30
0.0
 40
0.7778109999999999
 50
180.0
 51
270.0
  0
LINE
  5
76A
  8
0
  6
CONTINUOUS
 62
     7
 10
261.08904743504291
 20
46.522275623521729
 30
0.0
 11
261.08904743504291
 21
49.624394623521638
 31
0.0
  0
ARC
  5
76B
  8
0
  6
CONTINUOUS
 62
     7
 10
260.40274343504279
 20
46.522275623521729
 30
0.0
 40
0.686304
 50
305.13530900000598
 51
0.0
  0
LINE
  5
76C
  8
0
  6
CONTINUOUS
 62
     7
 10
260.79771743504278
 20
45.961019623521658
 30
0.0
 11
260.63106143504268
 21
45.84373862352161
 31
0.0
  0
LINE
  5
76D
  8
0
  6
CONTINUOUS
 62
     7
 10
261.60479643504277
 20
50.137151623521717
 30
0.0
 11
261.60479643504277
 21
50.161253623521688
 31
0.0
  0
LINE
  5
76E
  8
0
  6
CONTINUOUS
 62
     7
 10
259.82793443504278
 20
50.133221623521642
 30
0.0
 11
259.82793443504278
 21
50.161253623521688
 31
0.0
  0
ARC
  5
76F
  8
0
  6
CONTINUOUS
 62
     7
 10
261.36356843504268
 20
49.624394623521638
 30
0.0
 40
0.274522
 50
127.52121799999711
 51
180.0
  0
LINE
  5
770
  8
0
  6
CONTINUOUS
 62
     7
 10
261.19637043504281
 20
49.84212562352171
 30
0.0
 11
261.58430343504278
 21
50.099003623521739
 31
0.0
  0
ARC
  5
771
  8
0
  6
CONTINUOUS
 62
     7
 10
261.58649543504271
 20
50.161253623521688
 30
0.0
 40
0.018302
 50
0.0
 51
90.0
  0
ARC
  5
772
  8
0
  6
CONTINUOUS
 62
     7
 10
261.55904343504272
 20
50.137151623521717
 30
0.0
 40
0.045754
 50
303.51137500000391
 51
0.0
  0
LINE
  5
773
  8
0
  6
CONTINUOUS
 62
     7
 10
259.84666643504289
 20
50.096299623521631
 30
0.0
 11
260.11924843504289
 21
49.89680262352168
 31
0.0
  0
ARC
  5
774
  8
0
  6
CONTINUOUS
 62
     7
 10
259.87368843504282
 20
50.133221623521642
 30
0.0
 40
0.045754
 50
180.0
 51
233.80036399999739
  0
ARC
  5
775
  8
0
  6
CONTINUOUS
 62
     7
 10
259.84623643504278
 20
50.161253623521688
 30
0.0
 40
0.018302
 50
90.0
 51
180.0
  0
ARC
  5
776
  8
0
  6
CONTINUOUS
 62
     7
 10
259.84902743504267
 20
49.527587623521619
 30
0.0
 40
0.457536
 50
0.0
 51
53.80036399999743
  0
LINE
  5
777
  8
0
  6
CONTINUOUS
 62
     7
 10
254.5724714350429
 20
50.129170623521631
 30
0.0
 11
254.5724714350429
 21
50.161609623521699
 31
0.0
  0
LINE
  5
778
  8
0
  6
CONTINUOUS
 62
     7
 10
257.2567074350427
 20
50.12919362352168
 30
0.0
 11
257.2567074350427
 21
50.161609623521699
 31
0.0
  0
LINE
  5
779
  8
0
  6
CONTINUOUS
 62
     7
 10
254.5845914350428
 20
50.106397623521708
 30
0.0
 11
254.89752543504281
 21
49.895715623521689
 31
0.0
  0
LINE
  5
77A
  8
0
  6
CONTINUOUS
 62
     7
 10
256.9317184350428
 20
49.89572162352168
 30
0.0
 11
257.24458943504283
 21
50.106423623521643
 31
0.0
  0
ARC
  5
77B
  8
0
  6
CONTINUOUS
 62
     7
 10
257.18729343504287
 20
49.516220623521683
 30
0.0
 40
0.457536
 50
123.958256999998
 51
180.0
  0
ARC
  5
77C
  8
0
  6
CONTINUOUS
 62
     7
 10
254.64200343504291
 20
49.516179623521658
 30
0.0
 40
0.457536
 50
0.0
 51
56.049669000003412
  0
ARC
  5
77D
  8
0
  6
CONTINUOUS
 62
     7
 10
257.2292554350426
 20
50.12919362352168
 30
0.0
 40
0.027452
 50
303.95825699999813
 51
0.0
  0
ARC
  5
77E
  8
0
  6
CONTINUOUS
 62
     7
 10
254.59992343504271
 20
50.129170623521631
 30
0.0
 40
0.027452
 50
180.0
 51
236.04966900000341
  0
ARC
  5
77F
  8
0
  6
CONTINUOUS
 62
     7
 10
257.23840543504281
 20
50.161609623521699
 30
0.0
 40
0.018302
 50
0.0
 51
90.0
  0
ARC
  5
780
  8
0
  6
CONTINUOUS
 62
     7
 10
254.59077243504271
 20
50.161609623521699
 30
0.0
 40
0.018302
 50
90.0
 51
180.0
  0
LINE
  5
781
  8
0
  6
CONTINUOUS
 62
     7
 10
260.18338543504268
 20
46.50598562352171
 30
0.0
 11
260.21111143504282
 21
46.54187862352169
 31
0.0
  0
LINE
  5
782
  8
0
  6
CONTINUOUS
 62
     7
 10
259.35561043504282
 20
46.215203623521667
 30
0.0
 11
259.91927243504279
 21
46.33876562352166
 31
0.0
  0
ARC
  5
783
  8
0
  6
CONTINUOUS
 62
     7
 10
259.84902743504267
 20
46.821581623521617
 30
0.0
 40
0.457536
 50
322.31462499999878
 51
0.0
  0
ARC
  5
784
  8
0
  6
CONTINUOUS
 62
     7
 10
259.82130143504293
 20
46.785689623521627
 30
0.0
 40
0.457536
 50
282.36435499999652
 51
322.31462499999878
  0
ARC
  5
785
  8
0
  6
CONTINUOUS
 62
     7
 10
258.88074143504292
 20
54.79095162352165
 30
0.0
 40
8.6593029999999995
 50
262.0341480000032
 51
264.34846600000088
  0
LINE
  5
786
  8
0
  6
CONTINUOUS
 62
     7
 10
257.68071043504278
 20
46.215203623521667
 30
0.0
 11
257.11704843504282
 21
46.33876562352166
 31
0.0
  0
ARC
  5
787
  8
0
  6
CONTINUOUS
 62
     7
 10
257.21501943504268
 20
46.785689623521627
 30
0.0
 40
0.457536
 50
217.68537500000119
 51
257.63564500000348
  0
ARC
  5
788
  8
0
  6
CONTINUOUS
 62
     7
 10
257.18729343504287
 20
46.821581623521617
 30
0.0
 40
0.457536
 50
180.0
 51
217.68537500000119
  0
LINE
  5
789
  8
0
  6
CONTINUOUS
 62
     7
 10
256.8529344350427
 20
46.50598562352171
 30
0.0
 11
256.82520843504273
 21
46.54187862352169
 31
0.0
  0
LINE
  5
78A
  8
0
  6
CONTINUOUS
 62
     7
 10
266.36071743504272
 20
50.13282262352174
 30
0.0
 11
266.36071743504272
 21
50.161609623521699
 31
0.0
  0
LINE
  5
78B
  8
0
  6
CONTINUOUS
 62
     7
 10
269.36408743504279
 20
50.134736623521682
 30
0.0
 11
269.36408743504279
 21
50.161609623521699
 31
0.0
  0
LINE
  5
78C
  8
0
  6
CONTINUOUS
 62
     7
 10
266.37589243504272
 20
50.108268623521653
 30
0.0
 11
266.9527184350427
 21
49.819855623521661
 31
0.0
  0
LINE
  5
78D
  8
0
  6
CONTINUOUS
 62
     7
 10
269.15105043504292
 20
49.992981623521679
 30
0.0
 11
269.35061943504269
 21
50.111112623521628
 31
0.0
  0
ARC
  5
78E
  8
0
  6
CONTINUOUS
 62
     7
 10
266.74810243504271
 20
49.410622623521682
 30
0.0
 40
0.457536
 50
30.67454100000019
 51
63.43496300000119
  0
ARC
  5
78F
  8
0
  6
CONTINUOUS
 62
     7
 10
269.38411043504289
 20
49.599253623521669
 30
0.0
 40
0.457536
 50
120.6225969999969
 51
210.6745410000002
  0
ARC
  5
790
  8
0
  6
CONTINUOUS
 62
     7
 10
266.38816943504281
 20
50.13282262352174
 30
0.0
 40
0.027452
 50
180.0
 51
243.4349630000012
  0
ARC
  5
791
  8
0
  6
CONTINUOUS
 62
     7
 10
266.37901943504289
 20
50.161609623521699
 30
0.0
 40
0.018302
 50
90.0
 51
180.0
  0
ARC
  5
792
  8
0
  6
CONTINUOUS
 62
     7
 10
269.34578643504278
 20
50.161609623521699
 30
0.0
 40
0.018302
 50
0.0
 51
90.0
  0
ARC
  5
793
  8
0
  6
CONTINUOUS
 62
     7
 10
269.33663543504281
 20
50.134736623521682
 30
0.0
 40
0.027452
 50
300.62259699999692
 51
0.0
  0
LINE
  5
794
  8
0
  6
CONTINUOUS
 62
     7
 10
274.26231743504269
 20
50.132074623521689
 30
0.0
 11
274.26231743504269
 21
50.161609623521699
 31
0.0
  0
LINE
  5
795
  8
0
  6
CONTINUOUS
 62
     7
 10
272.5063234350427
 20
50.12994062352162
 30
0.0
 11
272.5063234350427
 21
50.161609623521699
 31
0.0
  0
LINE
  5
796
  8
0
  6
CONTINUOUS
 62
     7
 10
273.72723843504292
 20
49.821065623521683
 30
0.0
 11
274.24811243504269
 21
50.108029623521688
 31
0.0
  0
LINE
  5
797
  8
0
  6
CONTINUOUS
 62
     7
 10
272.51776443504258
 20
50.107640623521647
 30
0.0
 11
272.66529343504271
 21
50.001713623521688
 31
0.0
  0
ARC
  5
798
  8
0
  6
CONTINUOUS
 62
     7
 10
274.23486543504282
 20
50.132074623521689
 30
0.0
 40
0.027452
 50
298.85159999999729
 51
0.0
  0
ARC
  5
799
  8
0
  6
CONTINUOUS
 62
     7
 10
272.5337754350428
 20
50.12994062352162
 30
0.0
 40
0.027452
 50
180.0
 51
234.3212409999918
  0
ARC
  5
79A
  8
0
  6
CONTINUOUS
 62
     7
 10
274.24401643504279
 20
50.161609623521699
 30
0.0
 40
0.018302
 50
0.0
 51
90.0
  0
ARC
  5
79B
  8
0
  6
CONTINUOUS
 62
     7
 10
272.52462443504282
 20
50.161609623521699
 30
0.0
 40
0.018302
 50
90.0
 51
180.0
  0
ARC
  5
79C
  8
0
  6
CONTINUOUS
 62
     7
 10
273.9480194350428
 20
49.420322623521642
 30
0.0
 40
0.457536
 50
118.8515999999973
 51
149.91296200000031
  0
ARC
  5
79D
  8
0
  6
CONTINUOUS
 62
     7
 10
272.3984404350428
 20
49.630056623521661
 30
0.0
 40
0.457536
 50
329.91296200000028
 51
54.321240999991808
  0
LINE
  5
79E
  8
0
  6
CONTINUOUS
 62
     7
 10
274.25288443504292
 20
45.691674623521621
 30
0.0
 11
274.25288443504292
 21
45.743362623521627
 31
0.0
  0
LINE
  5
79F
  8
0
  6
CONTINUOUS
 62
     7
 10
272.46353643504273
 20
45.691674623521621
 30
0.0
 11
272.46353643504273
 21
45.741441623521709
 31
0.0
  0
LINE
  5
7A0
  8
0
  6
CONTINUOUS
 62
     7
 10
272.47642443504287
 20
45.76471162352162
 30
0.0
 11
273.0357104350428
 21
46.114749623521661
 31
0.0
  0
LINE
  5
7A1
  8
0
  6
CONTINUOUS
 62
     7
 10
274.03928343504282
 20
45.92568962352162
 30
0.0
 11
274.24246843504278
 21
45.764888623521628
 31
0.0
  0
ARC
  5
7A2
  8
0
  6
CONTINUOUS
 62
     7
 10
274.32321843504292
 20
46.284465623521662
 30
0.0
 40
0.457536
 50
149.3600439999999
 51
231.6418719999977
  0
ARC
  5
7A3
  8
0
  6
CONTINUOUS
 62
     7
 10
272.79297543504271
 20
46.502587623521649
 30
0.0
 40
0.457536
 50
302.04103199999662
 51
329.36004400000002
  0
ARC
  5
7A4
  8
0
  6
CONTINUOUS
 62
     7
 10
274.22543243504259
 20
45.743362623521627
 30
0.0
 40
0.027452
 50
0.0
 51
51.641871999997683
  0
ARC
  5
7A5
  8
0
  6
CONTINUOUS
 62
     7
 10
272.49098843504271
 20
45.741441623521709
 30
0.0
 40
0.027452
 50
122.0410319999966
 51
180.0
  0
ARC
  5
7A6
  8
0
  6
CONTINUOUS
 62
     7
 10
274.23458343504291
 20
45.691674623521621
 30
0.0
 40
0.018302
 50
270.0
 51
0.0
  0
ARC
  5
7A7
  8
0
  6
CONTINUOUS
 62
     7
 10
272.48183743504268
 20
45.691674623521621
 30
0.0
 40
0.018302
 50
180.0
 51
270.0
  0
LINE
  5
7A8
  8
0
  6
CONTINUOUS
 62
     7
 10
277.3574434350428
 20
45.691674623521621
 30
0.0
 11
277.3574434350428
 21
45.74392962352168
 31
0.0
  0
LINE
  5
7A9
  8
0
  6
CONTINUOUS
 62
     7
 10
279.82887843504272
 20
46.114968623521683
 30
0.0
 11
280.46316043504271
 21
45.764478623521633
 31
0.0
  0
LINE
  5
7AA
  8
0
  6
CONTINUOUS
 62
     7
 10
277.36714343504292
 20
45.764868623521679
 30
0.0
 11
277.55982643504291
 21
45.928227623521693
 31
0.0
  0
ARC
  5
7AB
  8
0
  6
CONTINUOUS
 62
     7
 10
277.37574543504269
 20
45.691674623521621
 30
0.0
 40
0.018302
 50
180.0
 51
270.0
  0
LINE
  5
7AC
  8
0
  6
CONTINUOUS
 62
     7
 10
280.47733543504268
 20
45.691674623521621
 30
0.0
 11
280.47733543504268
 21
45.74045062352171
 31
0.0
  0
ARC
  5
7AD
  8
0
  6
CONTINUOUS
 62
     7
 10
280.45903343504278
 20
45.691674623521621
 30
0.0
 40
0.018302
 50
270.0
 51
0.0
  0
ARC
  5
7AE
  8
0
  6
CONTINUOUS
 62
     7
 10
280.44988343504269
 20
45.74045062352171
 30
0.0
 40
0.027452
 50
0.0
 51
61.075906999997869
  0
ARC
  5
7AF
  8
0
  6
CONTINUOUS
 62
     7
 10
277.38489643504272
 20
45.74392962352168
 30
0.0
 40
0.027452
 50
130.29155500000579
 51
180.0
  0
ARC
  5
7B0
  8
0
  6
CONTINUOUS
 62
     7
 10
280.0501654350428
 20
46.515432623521619
 30
0.0
 40
0.457536
 50
211.32869300000129
 51
241.07590699999781
  0
ARC
  5
7B1
  8
0
  6
CONTINUOUS
 62
     7
 10
277.26394843504272
 20
46.277219623521638
 30
0.0
 40
0.457536
 50
310.29155500000581
 51
29.661659000002459
  0
ARC
  5
7B2
  8
0
  6
CONTINUOUS
 62
     7
 10
260.36774543504271
 20
46.217908623521659
 30
0.0
 40
0.457536
 50
284.46884200000289
 51
305.13530900000598
  0
LINE
  5
7B3
  8
0
  6
CONTINUOUS
 62
     7
 10
255.1780874350427
 20
46.501007623521659
 30
0.0
 11
255.13496043504281
 21
46.604139623521611
 31
0.0
  0
LINE
  5
7B4
  8
0
  6
CONTINUOUS
 62
     7
 10
256.11637843504258
 20
45.771059623521623
 30
0.0
 11
256.73641743504282
 21
45.592303623521708
 31
0.0
  0
LINE
  5
7B5
  8
0
  6
CONTINUOUS
 62
     7
 10
255.33137343504291
 20
46.307294623521649
 30
0.0
 11
255.97429443504279
 21
45.840460623521707
 31
0.0
  0
ARC
  5
7B6
  8
0
  6
CONTINUOUS
 62
     7
 10
256.8631624350428
 20
46.031933623521667
 30
0.0
 40
0.457536
 50
253.91780799999759
 51
261.60641899999638
  0
ARC
  5
7B7
  8
0
  6
CONTINUOUS
 62
     7
 10
256.24312343504272
 20
46.210689623521702
 30
0.0
 40
0.457536
 50
234.01604899999819
 51
253.91780799999759
  0
ARC
  5
7B8
  8
0
  6
CONTINUOUS
 62
     7
 10
255.55707543504261
 20
46.780655623521717
 30
0.0
 40
0.457536
 50
180.0
 51
202.69327800000039
  0
ARC
  5
7B9
  8
0
  6
CONTINUOUS
 62
     7
 10
255.6002024350428
 20
46.677524623521641
 30
0.0
 40
0.457536
 50
202.69327800000039
 51
234.01604899999819
  0
LINE
  5
7BA
  8
0
  6
CONTINUOUS
 62
     7
 10
267.50843943504259
 20
46.58610462352167
 30
0.0
 11
267.8229564350429
 21
47.064485623521691
 31
0.0
  0
ARC
  5
7BB
  8
0
  6
CONTINUOUS
 62
     7
 10
266.74382143504272
 20
47.088811623521657
 30
0.0
 40
0.9150719999999999
 50
270.0
 51
326.676654000003
  0
ARC
  5
7BC
  8
0
  6
CONTINUOUS
 62
     7
 10
267.83060243504269
 20
47.05945862352165
 30
0.0
 40
0.00915
 50
350.2609199999975
 51
146.676654000003
  0
POLYLINE
  5
7BD
  8
0
  6
CONTINUOUS
 62
     7
 10
285.90790422041732
 20
49.929202963700774
 30
0.0
 66
     1
 70
     8
  0
VERTEX
  8
0
  5
DE4
 10
285.908
 20
49.9292
 30
0.000000
  70
    32
  0
VERTEX
  8
0
  5
DE5
 10
285.816
 20
50.0017
 30
0.000000
  70
    32
  0
VERTEX
  8
0
  5
DE6
 10
285.721
 20
50.0712
 30
0.000000
  70
    32
  0
VERTEX
  8
0
  5
DE7
 10
285.622
 20
50.1375
 30
0.000000
  70
    32
  0
VERTEX
  8
0
  5
DE8
 10
285.520
 20
50.2006
 30
0.000000
  70
    32
  0
VERTEX
  8
0
  5
DE9
 10
285.415
 20
50.2603
 30
0.000000
  70
    32
  0
VERTEX
  8
0
  5
DEA
 10
285.307
 20
50.3165
 30
0.000000
  70
    32
  0
VERTEX
  8
0
  5
DEB
 10
285.196
 20
50.3692
 30
0.000000
  70
    32
  0
VERTEX
  8
0
  5
DEC
 10
285.083
 20
50.4182
 30
0.000000
  70
    32
  0
VERTEX
  8
0
  5
DED
 10
284.967
 20
50.4635
 30
0.000000
  70
    32
  0
VERTEX
  8
0
  5
DEE
 10
284.849
 20
50.5050
 30
0.000000
  70
    32
  0
VERTEX
  8
0
  5
DEF
 10
284.729
 20
50.5427
 30
0.000000
  70
    32
  0
VERTEX
  8
0
  5
DF0
 10
284.607
 20
50.5764
 30
0.000000
  70
    32
  0
VERTEX
  8
0
  5
DF1
 10
284.484
 20
50.6061
 30
0.000000
  70
    32
  0
VERTEX
  8
0
  5
DF2
 10
284.359
 20
50.6318
 30
0.000000
  70
    32
  0
VERTEX
  8
0
  5
DF3
 10
284.233
 20
50.6534
 30
0.000000
  70
    32
  0
VERTEX
  8
0
  5
DF4
 10
284.106
 20
50.6709
 30
0.000000
  70
    32
  0
VERTEX
  8
0
  5
DF5
 10
283.978
 20
50.6842
 30
0.000000
  70
    32
  0
VERTEX
  8
0
  5
DF6
 10
283.850
 20
50.6934
 30
0.000000
  70
    32
  0
VERTEX
  8
0
  5
DF7
 10
283.721
 20
50.6985
 30
0.000000
  70
    32
  0
VERTEX
  8
0
  5
DF8
 10
283.592
 20
50.6993
 30
0.000000
  70
    32
  0
VERTEX
  8
0
  5
DF9
 10
283.463
 20
50.6959
 30
0.000000
  70
    32
  0
VERTEX
  8
0
  5
DFA
 10
283.335
 20
50.6884
 30
0.000000
  70
    32
  0
VERTEX
  8
0
  5
DFB
 10
283.206
 20
50.6766
 30
0.000000
  70
    32
  0
VERTEX
  8
0
  5
DFC
 10
283.079
 20
50.6608
 30
0.000000
  70
    32
  0
VERTEX
  8
0
  5
DFD
 10
282.953
 20
50.6408
 30
0.000000
  70
    32
  0
VERTEX
  8
0
  5
DFE
 10
282.827
 20
50.6167
 30
0.000000
  70
    32
  0
VERTEX
  8
0
  5
DFF
 10
282.703
 20
50.5886
 30
0.000000
  70
    32
  0
VERTEX
  8
0
  5
E00
 10
282.581
 20
50.5564
 30
0.000000
  70
    32
  0
VERTEX
  8
0
  5
E01
 10
282.460
 20
50.5203
 30
0.000000
  70
    32
  0
VERTEX
  8
0
  5
E02
 10
282.341
 20
50.4803
 30
0.000000
  70
    32
  0
VERTEX
  8
0
  5
E03
 10
282.225
 20
50.4365
 30
0.000000
  70
    32
  0
VERTEX
  8
0
  5
E04
 10
282.110
 20
50.3889
 30
0.000000
  70
    32
  0
VERTEX
  8
0
  5
E05
 10
281.998
 20
50.3377
 30
0.000000
  70
    32
  0
VERTEX
  8
0
  5
E06
 10
281.889
 20
50.2828
 30
0.000000
  70
    32
  0
VERTEX
  8
0
  5
E07
 10
281.783
 20
50.2245
 30
0.000000
  70
    32
  0
VERTEX
  8
0
  5
E08
 10
281.680
 20
50.1627
 30
0.000000
  70
    32
  0
VERTEX
  8
0
  5
E09
 10
281.580
 20
50.0977
 30
0.000000
  70
    32
  0
VERTEX
  8
0
  5
E0A
 10
281.483
 20
50.0294
 30
0.000000
  70
    32
  0
VERTEX
  8
0
  5
E0B
 10
281.390
 20
49.9581
 30
0.000000
  70
    32
  0
VERTEX
  8
0
  5
E0C
 10
281.300
 20
49.8838
 30
0.000000
  70
    32
  0
VERTEX
  8
0
  5
E0D
 10
281.215
 20
49.8067
 30
0.000000
  70
    32
  0
VERTEX
  8
0
  5
E0E
 10
281.133
 20
49.7268
 30
0.000000
  70
    32
  0
VERTEX
  8
0
  5
E0F
 10
281.056
 20
49.6444
 30
0.000000
  70
    32
  0
VERTEX
  8
0
  5
E10
 10
280.983
 20
49.5595
 30
0.000000
  70
    32
  0
VERTEX
  8
0
  5
E11
 10
280.914
 20
49.4723
 30
0.000000
  70
    32
  0
VERTEX
  8
0
  5
E12
 10
280.850
 20
49.3829
 30
0.000000
  70
    32
  0
VERTEX
  8
0
  5
E13
 10
280.790
 20
49.2916
 30
0.000000
  70
    32
  0
VERTEX
  8
0
  5
E14
 10
280.735
 20
49.1983
 30
0.000000
  70
    32
  0
VERTEX
  8
0
  5
E15
 10
280.685
 20
49.1034
 30
0.000000
  70
    32
  0
VERTEX
  8
0
  5
E16
 10
280.639
 20
49.0069
 30
0.000000
  70
    32
  0
VERTEX
  8
0
  5
E17
 10
280.599
 20
48.9090
 30
0.000000
  70
    32
  0
VERTEX
  8
0
  5
E18
 10
280.563
 20
48.8099
 30
0.000000
  70
    32
  0
VERTEX
  8
0
  5
E19
 10
280.533
 20
48.7096
 30
0.000000
  70
    32
  0
VERTEX
  8
0
  5
E1A
 10
280.508
 20
48.6085
 30
0.000000
  70
    32
  0
VERTEX
  8
0
  5
E1B
 10
280.488
 20
48.5067
 30
0.000000
  70
    32
  0
VERTEX
  8
0
  5
E1C
 10
280.473
 20
48.4043
 30
0.000000
  70
    32
  0
VERTEX
  8
0
  5
E1D
 10
280.463
 20
48.3015
 30
0.000000
  70
    32
  0
VERTEX
  8
0
  5
E1E
 10
280.458
 20
48.1984
 30
0.000000
  70
    32
  0
VERTEX
  8
0
  5
E1F
 10
280.459
 20
48.0953
 30
0.000000
  70
    32
  0
VERTEX
  8
0
  5
E20
 10
280.465
 20
47.9923
 30
0.000000
  70
    32
  0
VERTEX
  8
0
  5
E21
 10
280.476
 20
47.8896
 30
0.000000
  70
    32
  0
VERTEX
  8
0
  5
E22
 10
280.493
 20
47.7874
 30
0.000000
  70
    32
  0
VERTEX
  8
0
  5
E23
 10
280.514
 20
47.6857
 30
0.000000
  70
    32
  0
VERTEX
  8
0
  5
E24
 10
280.541
 20
47.5848
 30
0.000000
  70
    32
  0
VERTEX
  8
0
  5
E25
 10
280.573
 20
47.4849
 30
0.000000
  70
    32
  0
VERTEX
  8
0
  5
E26
 10
280.610
 20
47.3861
 30
0.000000
  70
    32
  0
VERTEX
  8
0
  5
E27
 10
280.652
 20
47.2886
 30
0.000000
  70
    32
  0
VERTEX
  8
0
  5
E28
 10
280.699
 20
47.1926
 30
0.000000
  70
    32
  0
VERTEX
  8
0
  5
E29
 10
280.750
 20
47.0981
 30
0.000000
  70
    32
  0
VERTEX
  8
0
  5
E2A
 10
280.807
 20
47.0054
 30
0.000000
  70
    32
  0
VERTEX
  8
0
  5
E2B
 10
280.868
 20
46.9146
 30
0.000000
  70
    32
  0
VERTEX
  8
0
  5
E2C
 10
280.933
 20
46.8258
 30
0.000000
  70
    32
  0
VERTEX
  8
0
  5
E2D
 10
281.003
 20
46.7393
 30
0.000000
  70
    32
  0
VERTEX
  8
0
  5
E2E
 10
281.078
 20
46.6551
 30
0.000000
  70
    32
  0
VERTEX
  8
0
  5
E2F
 10
281.156
 20
46.5734
 30
0.000000
  70
    32
  0
VERTEX
  8
0
  5
E30
 10
281.239
 20
46.4943
 30
0.000000
  70
    32
  0
VERTEX
  8
0
  5
E31
 10
281.326
 20
46.4180
 30
0.000000
  70
    32
  0
VERTEX
  8
0
  5
E32
 10
281.416
 20
46.3445
 30
0.000000
  70
    32
  0
VERTEX
  8
0
  5
E33
 10
281.510
 20
46.2740
 30
0.000000
  70
    32
  0
VERTEX
  8
0
  5
E34
 10
281.608
 20
46.2067
 30
0.000000
  70
    32
  0
VERTEX
  8
0
  5
E35
 10
281.709
 20
46.1426
 30
0.000000
  70
    32
  0
VERTEX
  8
0
  5
E36
 10
281.813
 20
46.0818
 30
0.000000
  70
    32
  0
VERTEX
  8
0
  5
E37
 10
281.920
 20
46.0245
 30
0.000000
  70
    32
  0
VERTEX
  8
0
  5
E38
 10
282.030
 20
45.9707
 30
0.000000
  70
    32
  0
VERTEX
  8
0
  5
E39
 10
282.143
 20
45.9205
 30
0.000000
  70
    32
  0
VERTEX
  8
0
  5
E3A
 10
282.258
 20
45.8740
 30
0.000000
  70
    32
  0
VERTEX
  8
0
  5
E3B
 10
282.375
 20
45.8312
 30
0.000000
  70
    32
  0
VERTEX
  8
0
  5
E3C
 10
282.495
 20
45.7924
 30
0.000000
  70
    32
  0
VERTEX
  8
0
  5
E3D
 10
282.616
 20
45.7574
 30
0.000000
  70
    32
  0
VERTEX
  8
0
  5
E3E
 10
282.739
 20
45.7264
 30
0.000000
  70
    32
  0
VERTEX
  8
0
  5
E3F
 10
282.863
 20
45.6994
 30
0.000000
  70
    32
  0
VERTEX
  8
0
  5
E40
 10
282.989
 20
45.6765
 30
0.000000
  70
    32
  0
VERTEX
  8
0
  5
E41
 10
283.116
 20
45.6577
 30
0.000000
  70
    32
  0
VERTEX
  8
0
  5
E42
 10
283.243
 20
45.6430
 30
0.000000
  70
    32
  0
VERTEX
  8
0
  5
E43
 10
283.372
 20
45.6325
 30
0.000000
  70
    32
  0
VERTEX
  8
0
  5
E44
 10
283.500
 20
45.6262
 30
0.000000
  70
    32
  0
VERTEX
  8
0
  5
E45
 10
283.629
 20
45.6240
 30
0.000000
  70
    32
  0
VERTEX
  8
0
  5
E46
 10
283.758
 20
45.6260
 30
0.000000
  70
    32
  0
VERTEX
  8
0
  5
E47
 10
283.887
 20
45.6323
 30
0.000000
  70
    32
  0
VERTEX
  8
0
  5
E48
 10
284.015
 20
45.6426
 30
0.000000
  70
    32
  0
VERTEX
  8
0
  5
E49
 10
284.143
 20
45.6572
 30
0.000000
  70
    32
  0
VERTEX
  8
0
  5
E4A
 10
284.269
 20
45.6759
 30
0.000000
  70
    32
  0
VERTEX
  8
0
  5
E4B
 10
284.395
 20
45.6987
 30
0.000000
  70
    32
  0
VERTEX
  8
0
  5
E4C
 10
284.520
 20
45.7255
 30
0.000000
  70
    32
  0
VERTEX
  8
0
  5
E4D
 10
284.643
 20
45.7564
 30
0.000000
  70
    32
  0
VERTEX
  8
0
  5
E4E
 10
284.764
 20
45.7913
 30
0.000000
  70
    32
  0
VERTEX
  8
0
  5
E4F
 10
284.883
 20
45.8300
 30
0.000000
  70
    32
  0
VERTEX
  8
0
  5
E50
 10
285.001
 20
45.8726
 30
0.000000
  70
    32
  0
VERTEX
  8
0
  5
E51
 10
285.116
 20
45.9190
 30
0.000000
  70
    32
  0
VERTEX
  8
0
  5
E52
 10
285.229
 20
45.9691
 30
0.000000
  70
    32
  0
VERTEX
  8
0
  5
E53
 10
285.339
 20
46.0228
 30
0.000000
  70
    32
  0
VERTEX
  8
0
  5
E54
 10
285.446
 20
46.0801
 30
0.000000
  70
    32
  0
VERTEX
  8
0
  5
E55
 10
285.550
 20
46.1407
 30
0.000000
  70
    32
  0
VERTEX
  8
0
  5
E56
 10
285.651
 20
46.2047
 30
0.000000
  70
    32
  0
VERTEX
  8
0
  5
E57
 10
285.749
 20
46.2720
 30
0.000000
  70
    32
  0
VERTEX
  8
0
  5
E58
 10
285.843
 20
46.3424
 30
0.000000
  70
    32
  0
VERTEX
  8
0
  5
E59
 10
285.934
 20
46.4157
 30
0.000000
  70
    32
  0
VERTEX
  8
0
  5
E5A
 10
286.020
 20
46.4920
 30
0.000000
  70
    32
  0
VERTEX
  8
0
  5
E5B
 10
286.103
 20
46.5710
 30
0.000000
  70
    32
  0
VERTEX
  8
0
  5
E5C
 10
286.182
 20
46.6526
 30
0.000000
  70
    32
  0
VERTEX
  8
0
  5
E5D
 10
286.257
 20
46.7367
 30
0.000000
  70
    32
  0
VERTEX
  8
0
  5
E5E
 10
286.327
 20
46.8232
 30
0.000000
  70
    32
  0
VERTEX
  8
0
  5
E5F
 10
286.392
 20
46.9119
 30
0.000000
  70
    32
  0
VERTEX
  8
0
  5
E60
 10
286.454
 20
47.0026
 30
0.000000
  70
    32
  0
VERTEX
  8
0
  5
E61
 10
286.510
 20
47.0953
 30
0.000000
  70
    32
  0
VERTEX
  8
0
  5
E62
 10
286.562
 20
47.1897
 30
0.000000
  70
    32
  0
VERTEX
  8
0
  5
E63
 10
286.609
 20
47.2857
 30
0.000000
  70
    32
  0
VERTEX
  8
0
  5
E64
 10
286.651
 20
47.3832
 30
0.000000
  70
    32
  0
SEQEND
  8
0
  5
E65
  0
POLYLINE
  5
7BE
  8
0
  6
CONTINUOUS
 62
     7
 10
286.10420772554545
 20
48.868913094380567
 30
0.0
 66
     1
 70
     8
  0
VERTEX
  8
0
  5
E66
 10
286.104
 20
48.8689
 30
0.000000
  70
    32
  0
VERTEX
  8
0
  5
E67
 10
286.061
 20
48.9306
 30
0.000000
  70
    32
  0
VERTEX
  8
0
  5
E68
 10
286.015
 20
48.9910
 30
0.000000
  70
    32
  0
VERTEX
  8
0
  5
E69
 10
285.965
 20
49.0499
 30
0.000000
  70
    32
  0
VERTEX
  8
0
  5
E6A
 10
285.912
 20
49.1073
 30
0.000000
  70
    32
  0
VERTEX
  8
0
  5
E6B
 10
285.856
 20
49.1630
 30
0.000000
  70
    32
  0
VERTEX
  8
0
  5
E6C
 10
285.796
 20
49.2170
 30
0.000000
  70
    32
  0
VERTEX
  8
0
  5
E6D
 10
285.734
 20
49.2691
 30
0.000000
  70
    32
  0
VERTEX
  8
0
  5
E6E
 10
285.668
 20
49.3193
 30
0.000000
  70
    32
  0
VERTEX
  8
0
  5
E6F
 10
285.600
 20
49.3674
 30
0.000000
  70
    32
  0
VERTEX
  8
0
  5
E70
 10
285.529
 20
49.4135
 30
0.000000
  70
    32
  0
VERTEX
  8
0
  5
E71
 10
285.455
 20
49.4574
 30
0.000000
  70
    32
  0
VERTEX
  8
0
  5
E72
 10
285.379
 20
49.4990
 30
0.000000
  70
    32
  0
VERTEX
  8
0
  5
E73
 10
285.300
 20
49.5383
 30
0.000000
  70
    32
  0
VERTEX
  8
0
  5
E74
 10
285.219
 20
49.5752
 30
0.000000
  70
    32
  0
VERTEX
  8
0
  5
E75
 10
285.136
 20
49.6096
 30
0.000000
  70
    32
  0
VERTEX
  8
0
  5
E76
 10
285.052
 20
49.6414
 30
0.000000
  70
    32
  0
VERTEX
  8
0
  5
E77
 10
284.965
 20
49.6707
 30
0.000000
  70
    32
  0
VERTEX
  8
0
  5
E78
 10
284.877
 20
49.6974
 30
0.000000
  70
    32
  0
VERTEX
  8
0
  5
E79
 10
284.787
 20
49.7214
 30
0.000000
  70
    32
  0
VERTEX
  8
0
  5
E7A
 10
284.696
 20
49.7426
 30
0.000000
  70
    32
  0
VERTEX
  8
0
  5
E7B
 10
284.604
 20
49.7611
 30
0.000000
  70
    32
  0
VERTEX
  8
0
  5
E7C
 10
284.511
 20
49.7768
 30
0.000000
  70
    32
  0
VERTEX
  8
0
  5
E7D
 10
284.417
 20
49.7897
 30
0.000000
  70
    32
  0
VERTEX
  8
0
  5
E7E
 10
284.322
 20
49.7997
 30
0.000000
  70
    32
  0
VERTEX
  8
0
  5
E7F
 10
284.227
 20
49.8069
 30
0.000000
  70
    32
  0
VERTEX
  8
0
  5
E80
 10
284.132
 20
49.8112
 30
0.000000
  70
    32
  0
VERTEX
  8
0
  5
E81
 10
284.036
 20
49.8126
 30
0.000000
  70
    32
  0
VERTEX
  8
0
  5
E82
 10
283.941
 20
49.8112
 30
0.000000
  70
    32
  0
VERTEX
  8
0
  5
E83
 10
283.845
 20
49.8068
 30
0.000000
  70
    32
  0
VERTEX
  8
0
  5
E84
 10
283.750
 20
49.7996
 30
0.000000
  70
    32
  0
VERTEX
  8
0
  5
E85
 10
283.656
 20
49.7896
 30
0.000000
  70
    32
  0
VERTEX
  8
0
  5
E86
 10
283.562
 20
49.7766
 30
0.000000
  70
    32
  0
VERTEX
  8
0
  5
E87
 10
283.469
 20
49.7609
 30
0.000000
  70
    32
  0
VERTEX
  8
0
  5
E88
 10
283.377
 20
49.7424
 30
0.000000
  70
    32
  0
VERTEX
  8
0
  5
E89
 10
283.286
 20
49.7211
 30
0.000000
  70
    32
  0
VERTEX
  8
0
  5
E8A
 10
283.196
 20
49.6971
 30
0.000000
  70
    32
  0
VERTEX
  8
0
  5
E8B
 10
283.108
 20
49.6704
 30
0.000000
  70
    32
  0
VERTEX
  8
0
  5
E8C
 10
283.021
 20
49.6410
 30
0.000000
  70
    32
  0
VERTEX
  8
0
  5
E8D
 10
282.937
 20
49.6091
 30
0.000000
  70
    32
  0
VERTEX
  8
0
  5
E8E
 10
282.854
 20
49.5747
 30
0.000000
  70
    32
  0
VERTEX
  8
0
  5
E8F
 10
282.773
 20
49.5378
 30
0.000000
  70
    32
  0
VERTEX
  8
0
  5
E90
 10
282.695
 20
49.4985
 30
0.000000
  70
    32
  0
VERTEX
  8
0
  5
E91
 10
282.618
 20
49.4568
 30
0.000000
  70
    32
  0
VERTEX
  8
0
  5
E92
 10
282.545
 20
49.4129
 30
0.000000
  70
    32
  0
VERTEX
  8
0
  5
E93
 10
282.473
 20
49.3668
 30
0.000000
  70
    32
  0
VERTEX
  8
0
  5
E94
 10
282.405
 20
49.3186
 30
0.000000
  70
    32
  0
VERTEX
  8
0
  5
E95
 10
282.339
 20
49.2684
 30
0.000000
  70
    32
  0
VERTEX
  8
0
  5
E96
 10
282.277
 20
49.2163
 30
0.000000
  70
    32
  0
VERTEX
  8
0
  5
E97
 10
282.217
 20
49.1623
 30
0.000000
  70
    32
  0
VERTEX
  8
0
  5
E98
 10
282.161
 20
49.1065
 30
0.000000
  70
    32
  0
VERTEX
  8
0
  5
E99
 10
282.108
 20
49.0491
 30
0.000000
  70
    32
  0
VERTEX
  8
0
  5
E9A
 10
282.058
 20
48.9902
 30
0.000000
  70
    32
  0
VERTEX
  8
0
  5
E9B
 10
282.012
 20
48.9298
 30
0.000000
  70
    32
  0
VERTEX
  8
0
  5
E9C
 10
281.969
 20
48.8681
 30
0.000000
  70
    32
  0
VERTEX
  8
0
  5
E9D
 10
281.930
 20
48.8051
 30
0.000000
  70
    32
  0
VERTEX
  8
0
  5
E9E
 10
281.895
 20
48.7411
 30
0.000000
  70
    32
  0
VERTEX
  8
0
  5
E9F
 10
281.863
 20
48.6760
 30
0.000000
  70
    32
  0
VERTEX
  8
0
  5
EA0
 10
281.835
 20
48.6100
 30
0.000000
  70
    32
  0
VERTEX
  8
0
  5
EA1
 10
281.811
 20
48.5432
 30
0.000000
  70
    32
  0
VERTEX
  8
0
  5
EA2
 10
281.791
 20
48.4757
 30
0.000000
  70
    32
  0
VERTEX
  8
0
  5
EA3
 10
281.775
 20
48.4078
 30
0.000000
  70
    32
  0
VERTEX
  8
0
  5
EA4
 10
281.763
 20
48.3393
 30
0.000000
  70
    32
  0
VERTEX
  8
0
  5
EA5
 10
281.754
 20
48.2706
 30
0.000000
  70
    32
  0
VERTEX
  8
0
  5
EA6
 10
281.750
 20
48.2017
 30
0.000000
  70
    32
  0
VERTEX
  8
0
  5
EA7
 10
281.750
 20
48.1327
 30
0.000000
  70
    32
  0
VERTEX
  8
0
  5
EA8
 10
281.753
 20
48.0638
 30
0.000000
  70
    32
  0
VERTEX
  8
0
  5
EA9
 10
281.761
 20
47.9950
 30
0.000000
  70
    32
  0
VERTEX
  8
0
  5
EAA
 10
281.773
 20
47.9265
 30
0.000000
  70
    32
  0
VERTEX
  8
0
  5
EAB
 10
281.788
 20
47.8584
 30
0.000000
  70
    32
  0
VERTEX
  8
0
  5
EAC
 10
281.808
 20
47.7909
 30
0.000000
  70
    32
  0
VERTEX
  8
0
  5
EAD
 10
281.831
 20
47.7240
 30
0.000000
  70
    32
  0
VERTEX
  8
0
  5
EAE
 10
281.859
 20
47.6579
 30
0.000000
  70
    32
  0
VERTEX
  8
0
  5
EAF
 10
281.890
 20
47.5927
 30
0.000000
  70
    32
  0
VERTEX
  8
0
  5
EB0
 10
281.924
 20
47.5284
 30
0.000000
  70
    32
  0
VERTEX
  8
0
  5
EB1
 10
281.963
 20
47.4653
 30
0.000000
  70
    32
  0
VERTEX
  8
0
  5
EB2
 10
282.005
 20
47.4033
 30
0.000000
  70
    32
  0
VERTEX
  8
0
  5
EB3
 10
282.051
 20
47.3427
 30
0.000000
  70
    32
  0
VERTEX
  8
0
  5
EB4
 10
282.100
 20
47.2835
 30
0.000000
  70
    32
  0
VERTEX
  8
0
  5
EB5
 10
282.152
 20
47.2259
 30
0.000000
  70
    32
  0
VERTEX
  8
0
  5
EB6
 10
282.208
 20
47.1699
 30
0.000000
  70
    32
  0
VERTEX
  8
0
  5
EB7
 10
282.267
 20
47.1156
 30
0.000000
  70
    32
  0
VERTEX
  8
0
  5
EB8
 10
282.329
 20
47.0632
 30
0.000000
  70
    32
  0
VERTEX
  8
0
  5
EB9
 10
282.394
 20
47.0127
 30
0.000000
  70
    32
  0
VERTEX
  8
0
  5
EBA
 10
282.462
 20
46.9641
 30
0.000000
  70
    32
  0
VERTEX
  8
0
  5
EBB
 10
282.533
 20
46.9177
 30
0.000000
  70
    32
  0
VERTEX
  8
0
  5
EBC
 10
282.606
 20
46.8734
 30
0.000000
  70
    32
  0
VERTEX
  8
0
  5
EBD
 10
282.682
 20
46.8314
 30
0.000000
  70
    32
  0
VERTEX
  8
0
  5
EBE
 10
282.761
 20
46.7918
 30
0.000000
  70
    32
  0
VERTEX
  8
0
  5
EBF
 10
282.841
 20
46.7545
 30
0.000000
  70
    32
  0
VERTEX
  8
0
  5
EC0
 10
282.923
 20
46.7196
 30
0.000000
  70
    32
  0
VERTEX
  8
0
  5
EC1
 10
283.008
 20
46.6873
 30
0.000000
  70
    32
  0
VERTEX
  8
0
  5
EC2
 10
283.094
 20
46.6576
 30
0.000000
  70
    32
  0
VERTEX
  8
0
  5
EC3
 10
283.182
 20
46.6305
 30
0.000000
  70
    32
  0
VERTEX
  8
0
  5
EC4
 10
283.271
 20
46.6060
 30
0.000000
  70
    32
  0
VERTEX
  8
0
  5
EC5
 10
283.362
 20
46.5843
 30
0.000000
  70
    32
  0
VERTEX
  8
0
  5
EC6
 10
283.454
 20
46.5653
 30
0.000000
  70
    32
  0
VERTEX
  8
0
  5
EC7
 10
283.547
 20
46.5491
 30
0.000000
  70
    32
  0
VERTEX
  8
0
  5
EC8
 10
283.641
 20
46.5358
 30
0.000000
  70
    32
  0
VERTEX
  8
0
  5
EC9
 10
283.735
 20
46.5252
 30
0.000000
  70
    32
  0
VERTEX
  8
0
  5
ECA
 10
283.830
 20
46.5176
 30
0.000000
  70
    32
  0
VERTEX
  8
0
  5
ECB
 10
283.926
 20
46.5128
 30
0.000000
  70
    32
  0
VERTEX
  8
0
  5
ECC
 10
284.021
 20
46.5109
 30
0.000000
  70
    32
  0
VERTEX
  8
0
  5
ECD
 10
284.117
 20
46.5118
 30
0.000000
  70
    32
  0
VERTEX
  8
0
  5
ECE
 10
284.212
 20
46.5157
 30
0.000000
  70
    32
  0
VERTEX
  8
0
  5
ECF
 10
284.307
 20
46.5224
 30
0.000000
  70
    32
  0
VERTEX
  8
0
  5
ED0
 10
284.402
 20
46.5320
 30
0.000000
  70
    32
  0
VERTEX
  8
0
  5
ED1
 10
284.496
 20
46.5444
 30
0.000000
  70
    32
  0
VERTEX
  8
0
  5
ED2
 10
284.589
 20
46.5597
 30
0.000000
  70
    32
  0
VERTEX
  8
0
  5
ED3
 10
284.682
 20
46.5777
 30
0.000000
  70
    32
  0
VERTEX
  8
0
  5
ED4
 10
284.773
 20
46.5986
 30
0.000000
  70
    32
  0
VERTEX
  8
0
  5
ED5
 10
284.863
 20
46.6221
 30
0.000000
  70
    32
  0
VERTEX
  8
0
  5
ED6
 10
284.951
 20
46.6483
 30
0.000000
  70
    32
  0
VERTEX
  8
0
  5
ED7
 10
285.038
 20
46.6772
 30
0.000000
  70
    32
  0
VERTEX
  8
0
  5
ED8
 10
285.123
 20
46.7087
 30
0.000000
  70
    32
  0
VERTEX
  8
0
  5
ED9
 10
285.206
 20
46.7427
 30
0.000000
  70
    32
  0
VERTEX
  8
0
  5
EDA
 10
285.287
 20
46.7792
 30
0.000000
  70
    32
  0
VERTEX
  8
0
  5
EDB
 10
285.366
 20
46.8181
 30
0.000000
  70
    32
  0
VERTEX
  8
0
  5
EDC
 10
285.443
 20
46.8594
 30
0.000000
  70
    32
  0
VERTEX
  8
0
  5
EDD
 10
285.517
 20
46.9029
 30
0.000000
  70
    32
  0
VERTEX
  8
0
  5
EDE
 10
285.589
 20
46.9486
 30
0.000000
  70
    32
  0
VERTEX
  8
0
  5
EDF
 10
285.658
 20
46.9964
 30
0.000000
  70
    32
  0
VERTEX
  8
0
  5
EE0
 10
285.724
 20
47.0463
 30
0.000000
  70
    32
  0
VERTEX
  8
0
  5
EE1
 10
285.787
 20
47.0981
 30
0.000000
  70
    32
  0
VERTEX
  8
0
  5
EE2
 10
285.847
 20
47.1518
 30
0.000000
  70
    32
  0
VERTEX
  8
0
  5
EE3
 10
285.904
 20
47.2073
 30
0.000000
  70
    32
  0
VERTEX
  8
0
  5
EE4
 10
285.957
 20
47.2644
 30
0.000000
  70
    32
  0
VERTEX
  8
0
  5
EE5
 10
286.008
 20
47.3231
 30
0.000000
  70
    32
  0
VERTEX
  8
0
  5
EE6
 10
286.054
 20
47.3832
 30
0.000000
  70
    32
  0
SEQEND
  8
0
  5
EE7
  0
LINE
  5
7BF
  8
0
  6
CONTINUOUS
 62
     7
 10
286.75754143504292
 20
50.681167623521659
 30
0.0
 11
286.75754143504292
 21
48.868913623521721
 31
0.0
  0
LINE
  5
7C0
  8
0
  6
CONTINUOUS
 62
     7
 10
286.70094443504257
 20
50.699468623521717
 30
0.0
 11
286.73923943504269
 21
50.699468623521717
 31
0.0
  0
ARC
  5
7C1
  8
0
  6
CONTINUOUS
 62
     7
 10
286.73923943504269
 20
50.681167623521659
 30
0.0
 40
0.018302
 50
0.0
 51
90.0
  0
ARC
  5
7C2
  8
0
  6
CONTINUOUS
 62
     7
 10
286.70094443504257
 20
50.681167623521659
 30
0.0
 40
0.018302
 50
90.0
 51
150.0004400000021
  0
LINE
  5
7C3
  8
0
  6
CONTINUOUS
 62
     7
 10
286.48809043504281
 20
50.096435623521629
 30
0.0
 11
286.68813043504292
 21
50.699468623521717
 31
0.0
  0
ARC
  5
7C4
  8
0
  6
CONTINUOUS
 62
     7
 10
286.14067843504267
 20
50.211679623521697
 30
0.0
 40
0.366029
 50
230.50994399999581
 51
341.64815300000021
  0
LINE
  5
7C5
  8
0
  6
CONTINUOUS
 62
     7
 10
286.10420843504261
 20
48.868913623521721
 30
0.0
 11
286.75530943504282
 21
48.868913623521721
 31
0.0
  0
LINE
  5
7C6
  8
0
  6
CONTINUOUS
 62
     7
 10
286.05437443504269
 20
47.383210623521663
 30
0.0
 11
286.65100143504259
 21
47.383210623521663
 31
0.0
  0
LINE
  5
7C7
  8
0
  6
CONTINUOUS
 62
     7
 10
300.2062534350427
 20
17.7178106235217
 30
0.0
 11
300.2062534350427
 21
28.7178106235217
 31
0.0
  0
LINE
  5
7C8
  8
0
  6
CONTINUOUS
 62
     7
 10
289.20625243504281
 20
17.7178106235217
 30
0.0
 11
289.20625243504281
 21
28.7178106235217
 31
0.0
  0
POINT
  5
7C9
  8
0
  6
CONTINUOUS
 62
     7
 10
373.2062574350428
 20
7.7178096235217017
 30
0.0
  0
POINT
  5
7CA
  8
0
  6
CONTINUOUS
 62
     7
 10
373.2062574350428
 20
7.7178096235217017
 30
0.0
  0
LINE
  5
7CB
  8
0
  6
CONTINUOUS
 62
     7
 10
289.20625243504281
 20
17.7178106235217
 30
0.0
 11
363.2062564350428
 21
17.7178106235217
 31
0.0
  0
LINE
  5
7CC
  8
0
  6
CONTINUOUS
 62
     7
 10
363.2062564350428
 20
17.7178106235217
 30
0.0
 11
363.2062564350428
 21
53.717812623521681
 31
0.0
  0
LINE
  5
7CD
  8
0
  6
CONTINUOUS
 62
     7
 10
289.20625243504281
 20
28.7178106235217
 30
0.0
 11
363.2062564350428
 21
28.7178106235217
 31
0.0
  0
LINE
  5
7CE
  8
0
  6
CONTINUOUS
 62
     7
 10
252.2062504350427
 20
53.717812623521681
 30
0.0
 11
363.2062564350428
 21
53.717812623521681
 31
0.0
  0
LINE
  5
7CF
  8
0
  6
CONTINUOUS
 62
     7
 10
289.20625243504281
 20
53.717812623521681
 30
0.0
 11
289.20625243504281
 21
17.7178106235217
 31
0.0
  0
LINE
  5
7D0
  8
0
  6
CONTINUOUS
 62
     7
 10
252.2062504350427
 20
53.717812623521681
 30
0.0
 11
252.2062504350427
 21
42.717811623521683
 31
0.0
  0
LINE
  5
7D1
  8
0
  6
CONTINUOUS
 62
     7
 10
252.2062504350427
 20
42.717811623521683
 30
0.0
 11
289.20625243504281
 21
42.717811623521683
 31
0.0
  0
INSERT
  5
7D2
  8
0
  2
*U23
 10
0.0
 20
0.0
 30
0.0
  0
INSERT
  5
7D3
  8
0
  2
*U24
 10
0.0
 20
0.0
 30
0.0
  0
INSERT
  5
7D4
  8
0
  2
*U25
 10
0.0
 20
0.0
 30
0.0
  0
INSERT
  5
7D5
  8
0
  2
*U26
 10
0.0
 20
0.0
 30
0.0
  0
ARC
  5
7D6
  8
0
  6
CONTINUOUS
 62
     7
 10
300.45676202201571
 20
226.22670148225359
 30
0.0
 40
0.5
 50
0.0000050000005032
 51
180.0000050000005
  0
ARC
  5
7D7
  8
0
  6
CONTINUOUS
 62
     7
 10
301.8480040220158
 20
226.22670148225359
 30
0.0
 40
0.5
 50
0.0000050000005032
 51
180.0000050000005
  0
ARC
  5
7D8
  8
0
  6
CONTINUOUS
 62
     7
 10
305.20676202201571
 20
226.22670148225359
 30
0.0
 40
0.5
 50
359.9999949999995
 51
180.0000050000005
  0
ARC
  5
7D9
  8
0
  6
CONTINUOUS
 62
     7
 10
308.56551902201568
 20
226.22670148225359
 30
0.0
 40
0.5
 50
359.9999949999995
 51
180.0000050000005
  0
ARC
  5
7DA
  8
0
  6
CONTINUOUS
 62
     7
 10
309.9567620220156
 20
226.22670148225359
 30
0.0
 40
0.5
 50
359.9999949999995
 51
180.0000050000005
  0
ARC
  5
7DB
  8
0
  6
CONTINUOUS
 62
     7
 10
296.78176202201558
 20
219.15169648225341
 30
0.0
 40
1.175
 50
90.00000299999769
 51
180.0000050000005
  0
ARC
  5
7DC
  8
0
  6
CONTINUOUS
 62
     7
 10
313.63176202201578
 20
219.15169648225341
 30
0.0
 40
1.175
 50
359.9999949999995
 51
90.00000299999769
  0
LINE
  5
7DD
  8
0
  6
CONTINUOUS
 62
     7
 10
314.80676202201568
 20
217.12670248225359
 30
0.0
 11
295.60676202201569
 21
217.12670248225359
 31
0.0
  0
LINE
  5
7DE
  8
0
  6
CONTINUOUS
 62
     7
 10
299.95676202201571
 20
226.22670148225359
 30
0.0
 11
299.95676202201571
 21
220.3266994822535
 31
0.0
  0
LINE
  5
7DF
  8
0
  6
CONTINUOUS
 62
     7
 10
300.95676202201571
 20
226.22670148225359
 30
0.0
 11
300.95676202201571
 21
220.3266994822535
 31
0.0
  0
LINE
  5
7E0
  8
0
  6
CONTINUOUS
 62
     7
 10
301.34800402201569
 20
226.22670148225359
 30
0.0
 11
301.34800402201569
 21
220.3266994822535
 31
0.0
  0
LINE
  5
7E1
  8
0
  6
CONTINUOUS
 62
     7
 10
302.3480040220158
 20
226.22670148225359
 30
0.0
 11
302.3480040220158
 21
220.3266994822535
 31
0.0
  0
LINE
  5
7E2
  8
0
  6
CONTINUOUS
 62
     7
 10
313.63176202201578
 20
220.3266994822535
 30
0.0
 11
296.78176202201558
 21
220.3266994822535
 31
0.0
  0
LINE
  5
7E3
  8
0
  6
CONTINUOUS
 62
     7
 10
305.70676202201571
 20
226.22670148225359
 30
0.0
 11
305.70676202201571
 21
220.3266994822535
 31
0.0
  0
LINE
  5
7E4
  8
0
  6
CONTINUOUS
 62
     7
 10
304.70676202201571
 20
226.22670148225359
 30
0.0
 11
304.70676202201571
 21
220.3266994822535
 31
0.0
  0
LINE
  5
7E5
  8
0
  6
CONTINUOUS
 62
     7
 10
309.06551902201568
 20
226.22670148225359
 30
0.0
 11
309.06551902201568
 21
220.3266994822535
 31
0.0
  0
LINE
  5
7E6
  8
0
  6
CONTINUOUS
 62
     7
 10
308.06551902201568
 20
226.22670148225359
 30
0.0
 11
308.06551902201568
 21
220.3266994822535
 31
0.0
  0
LINE
  5
7E7
  8
0
  6
CONTINUOUS
 62
     7
 10
310.45676102201571
 20
226.22670148225359
 30
0.0
 11
310.45676102201571
 21
220.3266994822535
 31
0.0
  0
LINE
  5
7E8
  8
0
  6
CONTINUOUS
 62
     7
 10
309.45676202201571
 20
226.22670148225359
 30
0.0
 11
309.45676202201571
 21
220.3266994822535
 31
0.0
  0
LINE
  5
7E9
  8
0
  6
CONTINUOUS
 62
     7
 10
314.80676202201568
 20
217.12670248225359
 30
0.0
 11
314.80676202201568
 21
219.15169648225341
 31
0.0
  0
LINE
  5
7EA
  8
0
  6
CONTINUOUS
 62
     7
 10
295.60676202201569
 20
217.12670248225359
 30
0.0
 11
295.60676202201569
 21
219.15169648225341
 31
0.0
  0
LINE
  5
7EB
  8
0
  6
CENTER
 62
     7
 10
305.20676202201571
 20
231.72670148225359
 30
0.0
 11
305.20676202201571
 21
119.3267014822535
 31
0.0
  0
LINE
  5
7EC
  8
0
  6
CONTINUOUS
 62
     7
 10
296.20676202201571
 20
217.12670248225359
 30
0.0
 11
296.20676202201571
 21
128.93440148225349
 31
0.0
  0
LINE
  5
7ED
  8
0
  6
CONTINUOUS
 62
     7
 10
314.20676102201571
 20
217.12670248225359
 30
0.0
 11
314.20676102201571
 21
128.93440048225349
 31
0.0
  0
LINE
  5
7EE
  8
0
  6
CONTINUOUS
 62
     7
 10
314.20675802201561
 20
128.93440048225349
 30
0.0
 11
320.20676302201571
 21
127.32670348225351
 31
0.0
  0
LINE
  5
7EF
  8
0
  6
CONTINUOUS
 62
     7
 10
290.20676102201571
 20
127.3267054822534
 30
0.0
 11
296.20676102201571
 21
128.93440148225349
 31
0.0
  0
LINE
  5
7F0
  8
0
  6
CONTINUOUS
 62
     7
 10
290.20676202201571
 20
127.3267014822535
 30
0.0
 11
290.20676202201571
 21
124.3267014822535
 31
0.0
  0
LINE
  5
7F1
  8
0
  6
CONTINUOUS
 62
     7
 10
320.2067620220156
 20
127.3267014822535
 30
0.0
 11
320.2067620220156
 21
124.3267014822535
 31
0.0
  0
LINE
  5
7F2
  8
0
  6
CONTINUOUS
 62
     7
 10
290.20676202201571
 20
124.3267014822535
 30
0.0
 11
320.2067620220156
 21
124.3267014822535
 31
0.0
  0
LINE
  5
7F3
  8
0
  6
CONTINUOUS
 62
     7
 10
290.20676202201571
 20
127.3267014822535
 30
0.0
 11
320.2067620220156
 21
127.3267014822535
 31
0.0
  0
LINE
  5
7F4
  8
0
  6
CONTINUOUS
 62
     7
 10
296.20676202201571
 20
128.93440148225349
 30
0.0
 11
314.20676102201571
 21
128.93440148225349
 31
0.0
  0
INSERT
  5
7F5
  8
0
  2
*U27
 10
0.0
 20
0.0
 30
0.0
  0
LINE
  5
7F6
  8
0
  6
CONTINUOUS
 62
     7
 10
227.92727949959311
 20
217.32669648225351
 30
0.0
 11
227.92727949959311
 21
219.3516904822535
 31
0.0
  0
LINE
  5
7F7
  8
0
  6
CONTINUOUS
 62
     7
 10
247.1272794995931
 20
217.32669648225351
 30
0.0
 11
247.1272794995931
 21
219.3516904822535
 31
0.0
  0
LINE
  5
7F8
  8
0
  6
CONTINUOUS
 62
     7
 10
245.95228049959309
 20
220.52669348225339
 30
0.0
 11
229.1022794995931
 21
220.52669348225339
 31
0.0
  0
ARC
  5
7F9
  8
0
  6
CONTINUOUS
 62
     7
 10
229.1022794995931
 20
219.3516904822535
 30
0.0
 40
1.175
 50
90.00000299999769
 51
180.0000050000005
  0
ARC
  5
7FA
  8
0
  6
CONTINUOUS
 62
     7
 10
245.95228049959309
 20
219.3516904822535
 30
0.0
 40
1.175
 50
359.9999949999995
 51
90.00000299999769
  0
LINE
  5
7FB
  8
0
  6
CENTER
 62
     7
 10
139.1539895855712
 20
278.56818285611041
 30
0.0
 11
139.1539895855712
 21
252.77994985611039
 31
0.0
  0
LINE
  5
7FC
  8
0
  6
CENTER
 62
     7
 10
123.82904658557131
 20
265.49962385611047
 30
0.0
 11
154.78103958557119
 21
265.49962385611047
 31
0.0
  0
CIRCLE
  5
7FD
  8
0
  6
CONTINUOUS
 62
     7
 10
135.79523258557131
 20
268.8583808561105
 30
0.0
 40
0.5
  0
CIRCLE
  5
7FE
  8
0
  6
CENTER
 62
     7
 10
139.1539895855712
 20
265.49962385611047
 30
0.0
 40
4.75
  0
CIRCLE
  5
7FF
  8
0
  6
CONTINUOUS
 62
     7
 10
134.4039895855712
 20
265.49962385611047
 30
0.0
 40
0.5
  0
CIRCLE
  5
800
  8
0
  6
CONTINUOUS
 62
     7
 10
135.79523258557131
 20
262.14086685611051
 30
0.0
 40
0.5
  0
CIRCLE
  5
801
  8
0
  6
CONTINUOUS
 62
     7
 10
142.51274658557119
 20
262.14086685611051
 30
0.0
 40
0.5
  0
CIRCLE
  5
802
  8
0
  6
CONTINUOUS
 62
     7
 10
143.9039895855712
 20
265.49962385611047
 30
0.0
 40
0.5
  0
CIRCLE
  5
803
  8
0
  6
CONTINUOUS
 62
     7
 10
142.51274658557119
 20
268.8583808561105
 30
0.0
 40
0.5
  0
CIRCLE
  5
804
  8
0
  6
CONTINUOUS
 62
     7
 10
139.1539895855712
 20
270.24962385611047
 30
0.0
 40
0.5
  0
CIRCLE
  5
805
  8
0
  6
CONTINUOUS
 62
     7
 10
139.1539895855712
 20
265.49962385611047
 30
0.0
 40
9.5999999999999996
  0
CIRCLE
  5
806
  8
0
  6
CONTINUOUS
 62
     7
 10
139.1539895855712
 20
265.49962385611047
 30
0.0
 40
8.5250000000000004
  0
DIMENSION
  5
807
  8
0
 62
     7
  2
*D5
 10
68.153989585571367
 20
183.55536712291419
 30
0.0
 11
41.72065625223803
 21
183.55536712291419
 31
0.0
 70
   128
  1
%%c<>
 13
50.153989585571367
 23
175.42670098225361
 33
0.0
 14
68.153989585571367
 24
175.42670098225361
 34
0.0
1001
ACAD_DSTYLE_DIMINSPECT
1070
   396
1000
100%
1070
   395
1000

1070
   394
1070
    33
1070
   393
1070
     0
  0
DIMENSION
  5
80A
  8
0
 62
     7
  2
*D6
 10
88.153989563755204
 20
133.72669948225359
 30
0.0
 11
85.153989563755175
 21
180.22670048225359
 31
0.0
 70
     0
 13
63.903989563754749
 23
226.7267014822537
 33
0.0
 14
68.153989563754735
 24
133.72669948225359
 34
0.0
 50
90.0
1001
ACAD_DSTYLE_DIMINSPECT
1070
   396
1000
100%
1070
   395
1000

1070
   394
1070
    33
1070
   393
1070
     0
  0
DIMENSION
  5
80D
  8
0
 62
     7
  2
*D7
 10
78.153989563755431
 20
133.72669948225359
 30
0.0
 11
75.153989563755417
 21
177.02669798225361
 31
0.0
 70
     0
 13
67.57899052404855
 23
220.3266964822536
 33
0.0
 14
68.153989585571367
 24
133.72669948225359
 34
0.0
 50
90.0
1001
ACAD_DSTYLE_DIMINSPECT
1070
   396
1000
100%
1070
   395
1000

1070
   394
1070
    33
1070
   393
1070
     0
  0
DIMENSION
  5
810
  8
0
 62
     7
  2
*D8
 10
148.15398958557131
 20
182.40143749982821
 30
0.0
 11
121.720656252238
 21
182.40143749982821
 31
0.0
 70
   128
  1
%%c<>
 13
130.15398958557131
 23
184.4267034822536
 33
0.0
 14
148.15398958557131
 24
184.4267034822536
 34
0.0
1001
ACAD_DSTYLE_DIMINSPECT
1070
   396
1000
100%
1070
   395
1000

1070
   394
1070
    33
1070
   393
1070
     0
  0
DIMENSION
  5
813
  8
0
 62
     7
  2
*D9
 10
146.65398858557131
 20
137.97052259188621
 30
0.0
 11
123.220657252238
 21
137.97052259188621
 31
0.0
 70
   128
  1
%%c<>
 13
131.65399058557131
 23
137.22670348225361
 33
0.0
 14
146.65398858557131
 24
137.22670348225361
 34
0.0
1001
ACAD_DSTYLE_DIMINSPECT
1070
   396
1000
100%
1070
   395
1000

1070
   394
1070
    33
1070
   393
1070
     0
  0
DIMENSION
  5
816
  8
0
 62
     7
  2
*D10
 10
156.65398858557131
 20
150.2267034822535
 30
0.0
 11
153.65398858557131
 21
137.22670298225361
 31
0.0
 70
     0
 13
146.65398858557131
 23
124.2267024822536
 33
0.0
 14
146.65398858557131
 24
150.2267034822535
 34
0.0
 50
90.0
1001
ACAD_DSTYLE_DIMINSPECT
1070
   396
1000
100%
1070
   395
1000

1070
   394
1070
    33
1070
   393
1070
     0
  0
DIMENSION
  5
819
  8
0
 62
     7
  2
*D11
 10
166.99472850898721
 20
220.3266994822535
 30
0.0
 11
163.99472850898709
 21
172.2767009822536
 31
0.0
 70
     0
 13
146.65398858557131
 23
124.2267024822536
 33
0.0
 14
147.57899058557129
 24
220.3266994822535
 34
0.0
 50
90.0
1001
ACAD_DSTYLE_DIMINSPECT
1070
   396
1000
100%
1070
   395
1000

1070
   394
1070
    33
1070
   393
1070
     0
1001
ACAD
1000
DSTYLE
1002
{
1070
   271
1070
     0
1002
}
  0
DIMENSION
  5
81C
  8
0
 62
     7
  2
*D12
 10
183.55276988713379
 20
124.2267024822535
 30
0.0
 11
180.55276988713379
 21
175.4767019822535
 31
0.0
 70
     0
 13
143.90398956375469
 23
226.7267014822535
 33
0.0
 14
146.65398856375469
 24
124.2267024822536
 34
0.0
 50
90.0
1001
ACAD_DSTYLE_DIMINSPECT
1070
   396
1000
100%
1070
   395
1000

1070
   394
1070
    33
1070
   393
1070
     0
  0
DIMENSION
  5
81F
  8
0
 62
     7
  2
*D13
 10
330.2067620220156
 20
220.3266994822535
 30
0.0
 11
327.20676202201548
 21
172.3267004822535
 31
0.0
 70
     0
 13
320.2067620220156
 23
124.3267014822535
 33
0.0
 14
313.63176202201578
 24
220.3266994822535
 34
0.0
 50
90.0
1001
ACAD_DSTYLE_DIMINSPECT
1070
   396
1000
100%
1070
   395
1000

1070
   394
1070
    33
1070
   393
1070
     0
  0
DIMENSION
  5
822
  8
0
 62
     7
  2
*D14
 10
340.20676200019938
 20
124.3267014822535
 30
0.0
 11
337.20676200019949
 21
175.52670148225349
 31
0.0
 70
     0
 13
309.95676200019898
 23
226.72670148225359
 33
0.0
 14
320.20676200019898
 24
124.3267014822535
 34
0.0
 50
90.0
1001
ACAD_DSTYLE_DIMINSPECT
1070
   396
1000
100%
1070
   395
1000

1070
   394
1070
    33
1070
   393
1070
     0
  0
DIMENSION
  5
825
  8
0
 62
     7
  2
*D15
 10
320.2067620220156
 20
110.23201092140209
 30
0.0
 11
305.20676202201571
 21
110.23201092140209
 31
0.0
 70
   128
  1
%%c<>
 13
290.20676202201571
 23
124.3267014822535
 33
0.0
 14
320.2067620220156
 24
124.3267014822535
 34
0.0
1001
ACAD_DSTYLE_DIMINSPECT
1070
   396
1000
100%
1070
   395
1000

1070
   394
1070
    33
1070
   393
1070
     0
  0
DIMENSION
  5
828
  8
0
 62
     7
  2
*D16
 10
246.527278499593
 20
186.38618401416429
 30
0.0
 11
220.0939451662596
 21
186.38618401416429
 31
0.0
 70
   128
  1
%%c<>
 13
228.527278499593
 23
186.32669748225351
 33
0.0
 14
246.527278499593
 24
186.32669748225351
 34
0.0
1001
ACAD_DSTYLE_DIMINSPECT
1070
   396
1000
100%
1070
   395
1000

1070
   394
1070
    33
1070
   393
1070
     0
  0
INSERT
  5
82B
  8
0
 62
     7
  2
*S22
 10
0.0
 20
0.0
 30
0.0
  0
DIMENSION
  5
82D
  8
0
 62
     7
  2
*D17
 10
257.13195019216738
 20
142.3266985428595
 30
0.0
 11
254.13195019216741
 21
133.32669751255651
 31
0.0
 70
     0
 13
245.62727849959299
 23
124.3266964822535
 33
0.0
 14
246.1272785601991
 24
142.3266985428595
 34
0.0
 50
90.0
1001
ACAD_DSTYLE_DIMINSPECT
1070
   396
1000
100%
1070
   395
1000

1070
   394
1070
    33
1070
   393
1070
     0
  0
DIMENSION
  5
830
  8
0
 62
     7
  2
*D18
 10
257.08129664776141
 20
155.32669848225351
 30
0.0
 11
254.08129664776129
 21
148.82669748225351
 31
0.0
 70
     0
 13
246.12727849959299
 23
142.32669648225351
 33
0.0
 14
246.48838966625959
 24
155.32669848225351
 34
0.0
 50
90.0
1001
ACAD_DSTYLE_DIMINSPECT
1070
   396
1000
100%
1070
   395
1000

1070
   394
1070
    33
1070
   393
1070
     0
  0
DIMENSION
  5
833
  8
0
 62
     7
  2
*D19
 10
257.12728150959299
 20
220.52669048225351
 30
0.0
 11
254.1272815095929
 21
187.92669448225351
 31
0.0
 70
     0
 13
246.527278499593
 23
155.32669848225351
 33
0.0
 14
245.95228043807029
 24
220.52669048225351
 34
0.0
 50
90.0
1001
ACAD_DSTYLE_DIMINSPECT
1070
   396
1000
100%
1070
   395
1000

1070
   394
1070
    33
1070
   393
1070
     0
1001
ACAD
1000
DSTYLE
1002
{
1070
   271
1070
     0
1002
}
  0
DIMENSION
  5
836
  8
0
 62
     7
  2
*D20
 10
267.13195019216778
 20
124.3266964822535
 30
0.0
 11
264.13195019216778
 21
175.57669648225351
 31
0.0
 70
     0
 13
242.277278499593
 23
226.82669648225351
 33
0.0
 14
245.6272784995929
 24
124.3266964822535
 34
0.0
 50
90.0
1001
ACAD_DSTYLE_DIMINSPECT
1070
   396
1000
100%
1070
   395
1000

1070
   394
1070
    33
1070
   393
1070
     0
  0
LINE
  5
839
  8
0
  6
CENTER
 62
     7
 10
305.2067620220156
 20
278.56818285611041
 30
0.0
 11
305.2067620220156
 21
252.77994985611039
 31
0.0
  0
LINE
  5
83A
  8
0
  6
CENTER
 62
     7
 10
289.88181902201558
 20
265.49962385611047
 30
0.0
 11
320.83381202201548
 21
265.49962385611047
 31
0.0
  0
CIRCLE
  5
83B
  8
0
  6
CONTINUOUS
 62
     7
 10
301.84800502201563
 20
268.8583808561105
 30
0.0
 40
0.5
  0
CIRCLE
  5
83C
  8
0
  6
CENTER
 62
     7
 10
305.2067620220156
 20
265.49962385611047
 30
0.0
 40
4.75
  0
CIRCLE
  5
83D
  8
0
  6
CONTINUOUS
 62
     7
 10
300.4567620220156
 20
265.49962385611047
 30
0.0
 40
0.5
  0
CIRCLE
  5
83E
  8
0
  6
CONTINUOUS
 62
     7
 10
301.84800502201563
 20
262.14086685611051
 30
0.0
 40
0.5
  0
CIRCLE
  5
83F
  8
0
  6
CONTINUOUS
 62
     7
 10
308.56551902201562
 20
262.14086685611051
 30
0.0
 40
0.5
  0
CIRCLE
  5
840
  8
0
  6
CONTINUOUS
 62
     7
 10
309.9567620220156
 20
265.49962385611047
 30
0.0
 40
0.5
  0
CIRCLE
  5
841
  8
0
  6
CONTINUOUS
 62
     7
 10
308.56551902201562
 20
268.8583808561105
 30
0.0
 40
0.5
  0
CIRCLE
  5
842
  8
0
  6
CONTINUOUS
 62
     7
 10
305.2067620220156
 20
270.24962385611047
 30
0.0
 40
0.5
  0
CIRCLE
  5
843
  8
0
  6
CONTINUOUS
 62
     7
 10
305.2067620220156
 20
265.49962385611047
 30
0.0
 40
9.5999999999999996
  0
CIRCLE
  5
844
  8
0
  6
CONTINUOUS
 62
     7
 10
305.2067620220156
 20
265.49962385611047
 30
0.0
 40
8.5250000000000004
  0
INSERT
  5
A0D
  8
0
  2
*U28
 10
0.0
 20
0.0
 30
0.0
  0
INSERT
  5
A0E
  8
0
  2
*U29
 10
0.0
 20
0.0
 30
0.0
  0
INSERT
  5
A0F
  8
0
  2
*U30
 10
0.0
 20
0.0
 30
0.0
  0
INSERT
  5
A10
  8
0
  2
*U31
 10
0.0
 20
0.0
 30
0.0
  0
ENDSEC
  0
EOF
