  0
SECTION
  2
HEADER
  9
$ACADVER
  1
AC1009
  9
$INSBASE
 10
0.0
 20
0.0
 30
0.0
  9
$EXTMIN
 10
-217.51282940570161
 20
-148.50907202975591
 30
-0.0015258207003583
  9
$EXTMAX
 10
202.51283036147899
 20
148.50907341277011
 30
0.0000000349246037
  9
$LIMMIN
 10
-217.500013
 20
-148.50000900000001
  9
$LIMMAX
 10
202.500012
 20
148.50000900000001
  9
$ORTHOMODE
 70
     0
  9
$REGENMODE
 70
     1
  9
$FILLMODE
 70
     1
  9
$QTEXTMODE
 70
     0
  9
$MIRRTEXT
 70
     1
  9
$DRAGMODE
 70
     2
  9
$LTSCALE
 40
1.0
  9
$OSMODE
 70
    39
  9
$ATTMODE
 70
     1
  9
$TEXTSIZE
 40
4.1669999999999989
  9
$TRACEWID
 40
0.05
  9
$TEXTSTYLE
  7
MX_NOTE_STANDARD
  9
$CLAYER
  8
0
  9
$CELTYPE
  6
CONTINUOUS
  9
$CECOLOR
 62
   256
  9
$DIMSCALE
 40
1.0
  9
$DIMASZ
 40
2.5
  9
$DIMEXO
 40
1.27
  9
$DIMDLI
 40
3.75
  9
$DIMRND
 40
0.0
  9
$DIMDLE
 40
0.0
  9
$DIMEXE
 40
1.1999999999999991
  9
$DIMTP
 40
0.0
  9
$DIMTM
 40
0.0
  9
$DIMTXT
 40
4.1669999999999989
  9
$DIMCEN
 40
2.5
  9
$DIMTSZ
 40
0.0
  9
$DIMTOL
 70
     0
  9
$DIMLIM
 70
     0
  9
$DIMTIH
 70
     0
  9
$DIMTOH
 70
     0
  9
$DIMSE1
 70
     0
  9
$DIMSE2
 70
     0
  9
$DIMTAD
 70
     1
  9
$DIMZIN
 70
     8
  9
$DIMBLK
  1

  9
$DIMASO
 70
     1
  9
$DIMSHO
 70
     1
  9
$DIMPOST
  1

  9
$DIMAPOST
  1

  9
$DIMALT
 70
     0
  9
$DIMALTD
 70
     4
  9
$DIMALTF
 40
0.03937
  9
$DIMLFAC
 40
1.0
  9
$DIMTOFL
 70
     1
  9
$DIMTVP
 40
0.0
  9
$DIMTIX
 70
     0
  9
$DIMSOXD
 70
     0
  9
$DIMSAH
 70
     0
  9
$DIMBLK1
  1

  9
$DIMBLK2
  1

  9
$DIMSTYLE
  2
MXDIMSTYLE
  9
$DIMCLRD
 70
     0
  9
$DIMCLRE
 70
     0
  9
$DIMCLRT
 70
     0
  9
$DIMTFAC
 40
1.0
  9
$DIMGAP
 40
1.0
  9
$LUNITS
 70
     2
  9
$LUPREC
 70
     2
  9
$SKETCHINC
 40
0.1
  9
$FILLETRAD
 40
0.0
  9
$AUNITS
 70
     0
  9
$AUPREC
 70
     0
  9
$MENU
  1
acad
  9
$ELEVATION
 40
0.0
  9
$PELEVATION
 40
0.0
  9
$THICKNESS
 40
0.0
  9
$LIMCHECK
 70
     0
  9
$BLIPMODE
 70
     0
  9
$CHAMFERA
 40
0.0
  9
$CHAMFERB
 40
0.0
  9
$SKPOLY
 70
     0
  9
$TDCREATE
 40
2453606.4289236111
  9
$TDUPDATE
 40
2456958.4742339929
  9
$TDINDWG
 40
0.0085809606
  9
$TDUSRTIMER
 40
0.008580787
  9
$USRTIMER
 70
     1
  9
$ANGBASE
 50
0.0
  9
$ANGDIR
 70
     0
  9
$PDMODE
 70
     0
  9
$PDSIZE
 40
0.0
  9
$PLINEWID
 40
0.0
  9
$COORDS
 70
     1
  9
$SPLFRAME
 70
     0
  9
$SPLINETYPE
 70
     6
  9
$SPLINESEGS
 70
     8
  9
$ATTDIA
 70
     1
  9
$ATTREQ
 70
     1
  9
$HANDLING
 70
     1
  9
$HANDSEED
  5
8A2
  9
$SURFTAB1
 70
     6
  9
$SURFTAB2
 70
     6
  9
$SURFTYPE
 70
     6
  9
$SURFU
 70
     6
  9
$SURFV
 70
     6
  9
$UCSNAME
  2

  9
$UCSORG
 10
0.0
 20
0.0
 30
0.0
  9
$UCSXDIR
 10
1.0
 20
0.0
 30
0.0
  9
$UCSYDIR
 10
0.0
 20
1.0
 30
0.0
  9
$PUCSNAME
  2

  9
$PUCSORG
 10
0.0
 20
0.0
 30
0.0
  9
$PUCSXDIR
 10
1.0
 20
0.0
 30
0.0
  9
$PUCSYDIR
 10
0.0
 20
1.0
 30
0.0
  9
$USERI1
 70
     0
  9
$USERI2
 70
     0
  9
$USERI3
 70
     0
  9
$USERI4
 70
     0
  9
$USERI5
 70
     0
  9
$USERR1
 40
0.0
  9
$USERR2
 40
0.0
  9
$USERR3
 40
0.0
  9
$USERR4
 40
0.0
  9
$USERR5
 40
0.0
  9
$WORLDVIEW
 70
     1
  9
$SHADEDGE
 70
     3
  9
$SHADEDIF
 70
    70
  9
$TILEMODE
 70
     1
  9
$MAXACTVP
 70
    16
  9
$PLIMCHECK
 70
     0
  9
$PEXTMIN
 10
1.0000000000000000E+020
 20
1.0000000000000000E+020
 30
1.0000000000000000E+020
  9
$PEXTMAX
 10
-1.0000000000000000E+020
 20
-1.0000000000000000E+020
 30
-1.0000000000000000E+020
  9
$PLIMMIN
 10
0.0
 20
0.0
  9
$PLIMMAX
 10
12.0
 20
9.0
  9
$UNITMODE
 70
     0
  9
$VISRETAIN
 70
     0
  9
$PLINEGEN
 70
     1
  9
$PSLTSCALE
 70
     0
  0
ENDSEC
  0
SECTION
  2
TABLES
  0
TABLE
  2
VPORT
 70
     1
  0
VPORT
  2
*ACTIVE
 70
     0
 10
0.0
 20
0.0
 11
1.0
 21
1.0
 12
-13.53886055199507
 22
7.5970290375578307
 13
0.0
 23
0.0
 14
1.0
 24
1.0
 15
0.0
 25
0.0
 16
0.0
 26
0.0
 36
1.0
 17
0.0
 27
0.0
 37
0.0
 40
380.92684377512961
 41
2.0880713489409142
 42
50.0
 43
0.0
 44
0.0
 50
0.0
 51
0.0
 71
     0
 72
   100
 73
     1
 74
     1
 75
     0
 76
     0
 77
     0
 78
     0
  0
ENDTAB
  0
TABLE
  2
LTYPE
 70
    22
  0
LTYPE
  2
CONTINUOUS
 70
     0
  3
Solid line
 72
    65
 73
     0
 40
0.0
  0
LTYPE
  2
NON_PLOTING
 70
     0
  3
Solid line
 72
    65
 73
     0
 40
0.0
  0
LTYPE
  2
CENTER
 70
     0
  3
Center ____ _ ____ _ ____ _ ____ _ ____ _ ____
 72
    65
 73
     4
 40
50.799999999999997
 49
31.75
 49
-6.3499999999999988
 49
6.3499999999999988
 49
-6.3499999999999988
  0
LTYPE
  2
HIDDEN
 70
     0
  3
Hidden __ __ __ __ __ __ __ __ __ __ __ __ __ _
 72
    65
 73
     2
 40
9.5249999999999986
 49
6.3499999999999988
 49
-3.1749999999999989
  0
LTYPE
  2
PHANTOM2
 70
     0
  3
Phantom (.5x) ___ _ _ ___ _ _ ___ _ _ ___ _ _
 72
    65
 73
     6
 40
31.75
 49
15.875
 49
-3.1749999999999989
 49
3.1749999999999989
 49
-3.1749999999999989
 49
3.1749999999999989
 49
-3.1749999999999989
  0
LTYPE
  2
AM_ISO02W050
 70
     0
  3
__ __ __ __ __ __ __ __ __ __ __ __ __ __ __
 72
    65
 73
     2
 40
7.5
 49
6.0
 49
-1.5
  0
LTYPE
  2
AM_ISO08W050
 70
     0
  3
____ . ____ . ____ . ____ . ____ . ____ . ____
 72
    65
 73
     4
 40
18.0
 49
12.0
 49
-1.5
 49
3.0
 49
-1.5
  0
LTYPE
  2
AM_ISO09W050
 70
     0
  3
_____ . . _____ . . _____ . . ____ .. ____
 72
    65
 73
     6
 40
22.5
 49
12.0
 49
-1.5
 49
3.0
 49
-1.5
 49
3.0
 49
-1.5
  0
LTYPE
  2
AMCONSTR
 70
     0
  3
_______________________
 72
    65
 73
     2
 40
9999.0
 49
9999.0
 49
0.0
  0
LTYPE
  2
AM_ISO08W050X2
 70
     0
  3
__ . __ . __ . __ . __ . __
 72
    65
 73
     4
 40
9.0
 49
6.0
 49
-0.75
 49
1.5
 49
-0.75
  0
LTYPE
  2
AM_ISO02W050X2
 70
     0
  3
 _ _ _ _ _ _ _ _ _ _ _ _
 72
    65
 73
     2
 40
3.75
 49
3.0
 49
-0.75
  0
LTYPE
  2
AMZIGZAG
 70
     0
  3
/\/-/\/-/\/-/\/-/\/-/\/
 72
    65
 73
     2
 40
11.0001
 49
0.0001
 49
-11.0
  0
LTYPE
  2
ACISOWELD
 70
     0
  3
_ _ _ _ _
 72
    65
 73
     2
 40
2.0
 49
2.0
 49
-1.0
  0
LTYPE
  2
ACISOTGB
 70
     0
  3
__ . . __ . .
 72
    65
 73
     6
 40
9.0
 49
4.0
 49
-1.0
 49
1.0
 49
-1.0
 49
1.0
 49
-1.0
  0
LTYPE
  2
ACISOTGL
 70
     0
  3
_ _ _ _ _
 72
    65
 73
     2
 40
3.0
 49
2.0
 49
-1.0
  0
LTYPE
  2
CENTER2
 70
     0
  3
Center (.5x) ___ _ ___ _ ___ _ ___ _ ___ _ ___
 72
    65
 73
     4
 40
1.125
 49
0.75
 49
-0.125
 49
0.125
 49
-0.125
  0
LTYPE
  2
HIDDEN2
 70
     0
  3
Hidden (.5x) _ _ _ _ _ _ _ _ _ _ _ _ _ _ _ _ _
 72
    65
 73
     2
 40
0.1875
 49
0.125
 49
-0.0625
  0
LTYPE
  2
AMZIGZAG2
 70
     0
  3
/\/-/\/-/\/-/\/-/\/-/\/
 72
    65
 73
     2
 40
0.4401
 49
0.0001
 49
-0.4400000000000002
  0
LTYPE
  2
ACANSTGB
 70
     0
  3
__ . . __ . .
 72
    65
 73
     6
 40
0.35433070866
 49
0.15748031496
 49
-0.03937007874
 49
0.03937007874
 49
-0.03937007874
 49
0.03937007874
 49
-0.03937007874
  0
LTYPE
  2
ACANSTGL
 70
     0
  3
_ _ _ _ _
 72
    65
 73
     2
 40
0.11811023622
 49
0.07874015748
 49
-0.03937007874
  0
ENDTAB
  0
TABLE
  2
LAYER
 70
     5
  0
LAYER
  2
0
 70
     0
 62
     7
  6
CONTINUOUS
  0
LAYER
  2
DEFPOINTS
 70
     0
 62
     7
  6
CONTINUOUS
  0
LAYER
  2
FV
 70
     0
 62
     7
  6
CONTINUOUS
  0
LAYER
  2
PV
 70
     0
 62
     7
  6
CONTINUOUS
  0
LAYER
  2
AM_5
 70
     0
 62
     3
  6
CONTINUOUS
  0
ENDTAB
  0
TABLE
  2
STYLE
 70
     8
  0
STYLE
  2
MX_NOTE_STANDARD
 70
     0
 40
0.0
 41
1.0
 50
0.0
 71
     0
 42
4.1669999999999989
  3
txt.shx
  4
extfont.shx
  0
STYLE
  2
STANDARD
 70
     0
 40
0.0
 41
1.0
 50
0.0
 71
     0
 42
0.2
  3
txt
  4

  0
STYLE
  2

 70
     1
 40
0.0
 41
1.0
 50
0.0
 71
     0
 42
4.1669999999999989
  3
genltshp.shx
  4

  0
STYLE
  2
ACISOTS
 70
     0
 40
1.0
 41
1.0
 50
0.0
 71
     0
 42
4.1669999999999989
  3
isocp.shx
  4
extfont.shx
  0
STYLE
  2
ACISOGDT
 70
     0
 40
0.0
 41
1.0
 50
0.0
 71
     0
 42
4.1669999999999989
  3
amgdt.shx
  4

  0
STYLE
  2
ACANSGDT
 70
     0
 40
0.0
 41
1.0
 50
0.0
 71
     0
 42
0.2
  3
amgdt.shx
  4
extfont.shx
  0
STYLE
  2
ULVAC
 70
     0
 40
0.0
 41
1.0
 50
0.0
 71
     0
 42
4.0
  3
extslim2.shx
  4
extfont2.shx
  0
ENDTAB
  0
TABLE
  2
VIEW
 70
     2
  0
ENDTAB
  0
TABLE
  2
UCS
 70
     0
  0
ENDTAB
  0
TABLE
  2
APPID
 70
    18
  0
APPID
  2
ACAD
 70
     0
  0
APPID
  2
MCAD_NO_VIS
 70
     0
  0
APPID
  2
ACAD_TEMP_GRAPHIC
 70
     0
  0
APPID
  2
AD_DRAW
 70
     0
  0
APPID
  2
ACATTRIBSERVICES
 70
     0
  0
APPID
  2
DESIGNERASSEMBLIES
 70
     0
  0
APPID
  2
ACADM_DIM_EDIT
 70
     0
  0
APPID
  2
AMDT_DM_ADJ
 70
     0
  0
APPID
  2
ACAD_DSTYLE_DIMJAG
 70
     0
  0
APPID
  2
ACAD_DSTYLE_DIMBREAK
 70
     0
  0
APPID
  2
ACAD_EXEMPT_FROM_CAD_STANDARDS
 70
     0
  0
APPID
  2
GENIUS_GENDTOL_13
 70
     0
  0
APPID
  2
ACAD_DSTYLE_DIMINSPECT
 70
     0
  0
APPID
  2
DCO15
 70
     0
  0
APPID
  2
ACAECLAYERSTANDARD
 70
     0
  0
APPID
  2
ACAD_DSTYLE_DIMRADIAL_EXTENSION
 70
     0
  0
APPID
  2
ACAD_PSEXT
 70
     0
  0
APPID
  2
ACAD_MLEADERVER
 70
     0
  0
ENDTAB
  0
TABLE
  2
DIMSTYLE
 70
    20
  0
DIMSTYLE
  2
MXDIMSTYLE
 70
     0
  3

  4

  5

  6

  7

 40
1.0
 41
2.5
 42
1.27
 43
3.75
 44
1.1999999999999991
 45
0.0
 46
0.0
 47
0.0
 48
0.0
140
4.1669999999999989
141
2.5
142
0.0
143
0.03937
144
1.0
145
0.0
146
1.0
147
1.0
 71
     0
 72
     0
 73
     0
 74
     0
 75
     0
 76
     0
 77
     1
 78
     8
170
     0
171
     4
172
     1
173
     0
174
     0
175
     0
176
     0
177
     0
178
     0
  0
DIMSTYLE
  2
AM_ISO
 70
     0
  3

  4
"
  5

  6

  7

 40
1.0
 41
3.5
 42
1.0
 43
10.0
 44
1.0
 45
0.0
 46
0.0
 47
0.1
 48
0.1
140
3.5
141
0.0
142
0.0
143
0.0393701
144
1.0
145
0.0
146
0.71
147
1.5
 71
     0
 72
     0
 73
     0
 74
     0
 75
     0
 76
     0
 77
     1
 78
     8
170
     0
171
     2
172
     1
173
     0
174
     0
175
     0
176
   256
177
   256
178
     2
  0
DIMSTYLE
  2
AM_ISO$3
 70
     0
  3

  4
"
  5

  6

  7

 40
1.0
 41
3.5
 42
1.0
 43
10.0
 44
1.0
 45
0.0
 46
0.0
 47
0.1
 48
0.1
140
3.5
141
0.0
142
0.0
143
0.0393701
144
1.0
145
0.0
146
0.71
147
1.5
 71
     0
 72
     0
 73
     0
 74
     1
 75
     0
 76
     0
 77
     1
 78
     8
170
     0
171
     2
172
     0
173
     0
174
     0
175
     0
176
   256
177
   256
178
     2
  0
DIMSTYLE
  2
AM_ISO$4
 70
     0
  3

  4
"
  5

  6

  7

 40
1.0
 41
3.5
 42
1.0
 43
10.0
 44
1.0
 45
0.0
 46
0.0
 47
0.1
 48
0.1
140
3.5
141
0.0
142
0.0
143
0.0393701
144
1.0
145
0.0
146
0.71
147
1.5
 71
     0
 72
     0
 73
     0
 74
     1
 75
     0
 76
     0
 77
     1
 78
     8
170
     0
171
     2
172
     0
173
     0
174
     0
175
     0
176
   256
177
   256
178
     2
  0
DIMSTYLE
  2
AM_ISO$6
 70
     0
  3

  4
"
  5

  6

  7

 40
1.0
 41
3.5
 42
1.0
 43
10.0
 44
1.0
 45
0.0
 46
0.0
 47
0.1
 48
0.1
140
3.5
141
0.0
142
0.0
143
0.0393701
144
1.0
145
0.0
146
0.71
147
1.5
 71
     0
 72
     0
 73
     0
 74
     0
 75
     0
 76
     0
 77
     0
 78
     8
170
     0
171
     2
172
     1
173
     0
174
     0
175
     0
176
   256
177
   256
178
     2
  0
DIMSTYLE
  2
AM_ISO$7
 70
     0
  3

  4
"
  5

  6

  7

 40
1.0
 41
3.5
 42
1.0
 43
10.0
 44
1.0
 45
0.0
 46
0.0
 47
0.1
 48
0.1
140
3.5
141
0.0
142
0.0
143
0.0393701
144
1.0
145
0.0
146
0.71
147
1.5
 71
     0
 72
     0
 73
     0
 74
     0
 75
     0
 76
     0
 77
     1
 78
     8
170
     0
171
     2
172
     1
173
     0
174
     0
175
     0
176
   256
177
   256
178
     2
  0
DIMSTYLE
  2
AM_ISO$SF
 70
     0
  3

  4
"
  5

  6

  7

 40
1.0
 41
3.5
 42
1.0
 43
10.0
 44
1.0
 45
0.0
 46
0.0
 47
0.1
 48
0.1
140
3.5
141
0.0
142
0.0
143
0.0393701
144
1.0
145
0.0
146
0.71
147
1.5
 71
     0
 72
     0
 73
     0
 74
     0
 75
     1
 76
     1
 77
     1
 78
     8
170
     0
171
     2
172
     1
173
     0
174
     0
175
     0
176
   256
177
   256
178
     2
  0
DIMSTYLE
  2
AM_ISO$SH
 70
     0
  3

  4
"
  5

  6
GENAXEH
  7

 40
1.0
 41
3.5
 42
1.0
 43
10.0
 44
1.0
 45
0.0
 46
0.0
 47
0.1
 48
0.1
140
3.5
141
0.0
142
0.0
143
0.0393701
144
2.0
145
0.0
146
0.71
147
1.5
 71
     0
 72
     0
 73
     0
 74
     0
 75
     1
 76
     1
 77
     1
 78
     8
170
     0
171
     2
172
     1
173
     1
174
     0
175
     0
176
   256
177
   256
178
     2
  0
DIMSTYLE
  2
STANDARD
 70
     0
  3

  4

  5

  6

  7

 40
1.0
 41
0.18
 42
0.0625
 43
0.38
 44
0.18
 45
0.0
 46
0.0
 47
0.0
 48
0.0
140
0.18
141
0.09
142
0.0
143
25.399999999999999
144
1.0
145
0.0
146
1.0
147
0.09
 71
     0
 72
     0
 73
     1
 74
     1
 75
     0
 76
     0
 77
     0
 78
     0
170
     0
171
     2
172
     0
173
     0
174
     0
175
     0
176
     0
177
     0
178
     0
  0
DIMSTYLE
  2
AM_ANSI
 70
     0
  3

  4
mm
  5

  6

  7

 40
1.0
 41
0.12
 42
0.05
 43
0.5
 44
0.1
 45
0.0
 46
0.0
 47
0.1
 48
0.1
140
0.12
141
0.0
142
0.0
143
25.399999999999999
144
1.0
145
0.0
146
0.71
147
0.06
 71
     0
 72
     0
 73
     1
 74
     1
 75
     0
 76
     0
 77
     0
 78
     7
170
     0
171
     2
172
     0
173
     0
174
     0
175
     0
176
   256
177
   256
178
   140
  0
DIMSTYLE
  2
AM_ANSI$3
 70
     0
  3

  4
mm
  5

  6

  7

 40
1.0
 41
0.12
 42
0.05
 43
0.5
 44
0.1
 45
0.0
 46
0.0
 47
0.1
 48
0.1
140
0.12
141
0.0
142
0.0
143
25.399999999999999
144
1.0
145
0.0
146
0.71
147
0.06
 71
     0
 72
     0
 73
     1
 74
     1
 75
     0
 76
     0
 77
     0
 78
     7
170
     0
171
     2
172
     0
173
     0
174
     0
175
     0
176
   256
177
   256
178
   140
  0
DIMSTYLE
  2
AM_ANSI$4
 70
     0
  3

  4
mm
  5

  6

  7

 40
1.0
 41
0.12
 42
0.05
 43
0.5
 44
0.1
 45
0.0
 46
0.0
 47
0.1
 48
0.1
140
0.12
141
0.0
142
0.0
143
25.399999999999999
144
1.0
145
0.0
146
0.71
147
0.06
 71
     0
 72
     0
 73
     1
 74
     1
 75
     0
 76
     0
 77
     0
 78
     7
170
     0
171
     2
172
     0
173
     0
174
     0
175
     0
176
   256
177
   256
178
   140
  0
DIMSTYLE
  2
AM_ANSI$7
 70
     0
  3

  4
mm
  5

  6

  7

 40
1.0
 41
0.12
 42
0.05
 43
0.5
 44
0.1
 45
0.0
 46
0.0
 47
0.1
 48
0.1
140
0.12
141
0.0
142
0.0
143
25.399999999999999
144
1.0
145
0.0
146
0.71
147
0.06
 71
     0
 72
     0
 73
     1
 74
     1
 75
     0
 76
     0
 77
     0
 78
     7
170
     0
171
     2
172
     0
173
     0
174
     0
175
     0
176
   256
177
   256
178
   140
  0
DIMSTYLE
  2
AM_ANSI$SF
 70
     0
  3

  4
mm
  5

  6

  7

 40
1.0
 41
0.12
 42
0.05
 43
0.5
 44
0.1
 45
0.0
 46
0.0
 47
0.1
 48
0.1
140
0.12
141
0.0
142
0.0
143
25.399999999999999
144
1.0
145
0.0
146
0.71
147
0.06
 71
     0
 72
     0
 73
     1
 74
     1
 75
     1
 76
     1
 77
     0
 78
     7
170
     0
171
     2
172
     0
173
     0
174
     0
175
     0
176
   256
177
   256
178
   140
  0
DIMSTYLE
  2
AM_ANSI$SH
 70
     0
  3

  4
mm
  5

  6

  7

 40
1.0
 41
0.12
 42
0.05
 43
0.5
 44
0.1
 45
0.0
 46
0.0
 47
0.1
 48
0.1
140
0.12
141
0.0
142
0.0
143
25.399999999999999
144
1.0
145
0.0
146
0.71
147
0.06
 71
     0
 72
     0
 73
     1
 74
     1
 75
     1
 76
     1
 77
     0
 78
     7
170
     0
171
     2
172
     0
173
     1
174
     0
175
     0
176
   256
177
   256
178
   140
  0
DIMSTYLE
  2
AM_ANSI$0
 70
     0
  3

  4
mm
  5

  6

  7

 40
1.0
 41
0.12
 42
0.05
 43
0.5
 44
0.1
 45
0.0
 46
0.0
 47
0.1
 48
0.1
140
0.12
141
0.0
142
0.0
143
25.399999999999999
144
1.0
145
0.0
146
0.71
147
0.06
 71
     0
 72
     0
 73
     1
 74
     1
 75
     0
 76
     0
 77
     0
 78
     7
170
     0
171
     2
172
     0
173
     0
174
     0
175
     0
176
   256
177
   256
178
   140
  0
DIMSTYLE
  2
MXDIMSTYLE$0
 70
     0
  3

  4

  5

  6

  7

 40
1.0
 41
2.5
 42
1.27
 43
3.75
 44
1.1999999999999991
 45
0.0
 46
0.0
 47
0.0
 48
0.0
140
4.1669999999999989
141
2.5
142
0.0
143
0.03937
144
1.0
145
0.0
146
1.0
147
1.0
 71
     0
 72
     0
 73
     0
 74
     0
 75
     0
 76
     0
 77
     1
 78
     8
170
     0
171
     4
172
     1
173
     0
174
     0
175
     0
176
     0
177
     0
178
     0
  0
DIMSTYLE
  2
MXDIMSTYLE$4
 70
     0
  3

  4

  5

  6

  7

 40
1.0
 41
2.5
 42
1.27
 43
3.75
 44
1.1999999999999991
 45
0.0
 46
0.0
 47
0.0
 48
0.0
140
4.1669999999999989
141
2.5
142
0.0
143
0.03937
144
1.0
145
0.0
146
1.0
147
1.0
 71
     0
 72
     0
 73
     0
 74
     0
 75
     0
 76
     0
 77
     1
 78
     8
170
     0
171
     4
172
     1
173
     0
174
     0
175
     0
176
     0
177
     0
178
     0
  0
ENDTAB
  0
ENDSEC
  0
SECTION
  2
BLOCKS
  0
BLOCK
  8
0
  2
$MODEL_SPACE
 70
     0
 10
0.0
 20
0.0
 30
0.0
  3
$MODEL_SPACE
  1

  0
ENDBLK
  5
E
  8
0
  0
BLOCK
 67
     1
  8
0
  2
$PAPER_SPACE
 70
     0
 10
0.0
 20
0.0
 30
0.0
  3
$PAPER_SPACE
  1

  0
ENDBLK
  5
10
 67
     1
  8
0
  0
BLOCK
  8
0
  6
BYBLOCK
 62
     0
  2
*D0
 70
     1
 10
0.0
 20
0.0
 30
0.0
  3
*D0
  1

  0
LINE
  5
129
  8
0
  6
CONTINUOUS
 62
   255
 10
-59.815056000000013
 20
50.282519000000001
 30
0.0
 11
55.184939999999997
 21
50.282519000000001
 31
0.0
  0
LINE
  5
12A
  8
0
  6
CONTINUOUS
 62
   255
 10
-59.815056000000013
 20
26.516597999999998
 30
0.0
 11
-59.815056000000013
 21
52.568514999999998
 31
0.0
  0
LINE
  5
12B
  8
0
  6
CONTINUOUS
 62
   255
 10
55.184939999999997
 20
16.566603000000001
 30
0.0
 11
55.184939999999997
 21
52.568514999999998
 31
0.0
  0
INSERT
  5
132
  8
0
  6
CONTINUOUS
 62
   255
  2
_OPEN30
 10
-59.815056000000013
 20
50.282519000000001
 30
0.0
 41
2.77
 42
2.77
 43
2.77
 50
180.0
  0
INSERT
  5
133
  8
0
  6
CONTINUOUS
 62
   255
  2
_OPEN30
 10
55.184939999999997
 20
50.282519000000001
 30
0.0
 41
2.77
 42
2.77
 43
2.77
  0
INSERT
  5
134
  8
0
  6
CONTINUOUS
  2
*U30
 10
0.0
 20
0.0
 30
0.0
  0
POINT
  5
135
  8
DEFPOINTS
  6
CONTINUOUS
 62
     0
 10
-59.815056000000013
 20
25.246597999999999
 30
0.0
  0
POINT
  5
136
  8
DEFPOINTS
  6
CONTINUOUS
 62
     0
 10
55.184939999999997
 20
15.296602999999999
 30
0.0
  0
POINT
  5
137
  8
DEFPOINTS
  6
CONTINUOUS
 62
     0
 10
55.184939999999997
 20
50.282519000000001
 30
0.0
  0
ENDBLK
  5
138
  8
0
  6
BYBLOCK
 62
     0
  0
BLOCK
  8
0
  6
BYBLOCK
 62
     0
  2
_OPEN30
 70
     2
 10
0.0
 20
0.0
 30
0.0
  3
_OPEN30
  1

  0
LINE
  5
12E
  8
0
  6
BYBLOCK
 62
     0
 10
-1.0
 20
0.267949
 30
0.0
 11
0.0
 21
0.0
 31
0.0
  0
LINE
  5
12F
  8
0
  6
BYBLOCK
 62
     0
 10
0.0
 20
0.0
 30
0.0
 11
-1.0
 21
-0.267949
 31
0.0
  0
LINE
  5
130
  8
0
  6
BYBLOCK
 62
     0
 10
0.0
 20
0.0
 30
0.0
 11
-1.0
 21
0.0
 31
0.0
  0
ENDBLK
  5
131
  8
0
  6
BYBLOCK
 62
     0
  0
BLOCK
  8
0
  6
BYBLOCK
 62
     0
  2
*D2
 70
     1
 10
0.0
 20
0.0
 30
0.0
  3
*D2
  1

  0
LINE
  5
13C
  8
0
  6
CONTINUOUS
 62
   255
 10
25.984939000000001
 20
35.531556999999999
 30
0.0
 11
55.184939999999997
 21
35.531556999999999
 31
0.0
  0
LINE
  5
13D
  8
0
  6
CONTINUOUS
 62
   255
 10
25.984939000000001
 20
26.516597999999998
 30
0.0
 11
25.984939000000001
 21
37.817551999999999
 31
0.0
  0
LINE
  5
13E
  8
0
  6
CONTINUOUS
 62
   255
 10
55.184939999999997
 20
16.566604000000002
 30
0.0
 11
55.184939999999997
 21
37.817551999999999
 31
0.0
  0
INSERT
  5
13F
  8
0
  6
CONTINUOUS
 62
   255
  2
_OPEN30
 10
25.984939000000001
 20
35.531556999999999
 30
0.0
 41
2.77
 42
2.77
 43
2.77
 50
180.0
  0
INSERT
  5
140
  8
0
  6
CONTINUOUS
 62
   255
  2
_OPEN30
 10
55.184939999999997
 20
35.531556999999999
 30
0.0
 41
2.77
 42
2.77
 43
2.77
  0
INSERT
  5
141
  8
0
  6
CONTINUOUS
  2
*U31
 10
0.0
 20
0.0
 30
0.0
  0
POINT
  5
142
  8
DEFPOINTS
  6
CONTINUOUS
 62
     0
 10
25.984939000000001
 20
25.246597999999999
 30
0.0
  0
POINT
  5
143
  8
DEFPOINTS
  6
CONTINUOUS
 62
     0
 10
55.184939999999997
 20
15.296604
 30
0.0
  0
POINT
  5
144
  8
DEFPOINTS
  6
CONTINUOUS
 62
     0
 10
55.184939999999997
 20
35.531556999999999
 30
0.0
  0
ENDBLK
  5
145
  8
0
  6
BYBLOCK
 62
     0
  0
BLOCK
  8
0
  6
BYBLOCK
 62
     0
  2
*D3
 70
     1
 10
0.0
 20
0.0
 30
0.0
  3
*D3
  1

  0
LINE
  5
149
  8
0
  6
CONTINUOUS
 62
   255
 10
72.073063000000005
 20
16.296603000000001
 30
0.0
 11
72.073063000000005
 21
0.396605
 31
0.0
  0
LINE
  5
14A
  8
0
  6
CONTINUOUS
 62
   255
 10
54.377594000000002
 20
16.296603000000001
 30
0.0
 11
74.359059000000002
 21
16.296603000000001
 31
0.0
  0
LINE
  5
14B
  8
0
  6
CONTINUOUS
 62
   255
 10
54.377594000000002
 20
0.396605
 30
0.0
 11
74.359059000000002
 21
0.396605
 31
0.0
  0
INSERT
  5
14C
  8
0
  6
CONTINUOUS
 62
   255
  2
_OPEN30
 10
72.073063000000005
 20
16.296603000000001
 30
0.0
 41
2.77
 42
2.77
 43
2.77
 50
90.0
  0
INSERT
  5
14D
  8
0
  6
CONTINUOUS
 62
   255
  2
_OPEN30
 10
72.073063000000005
 20
0.396605
 30
0.0
 41
2.77
 42
2.77
 43
2.77
 50
270.0
  0
INSERT
  5
14E
  8
0
  6
CONTINUOUS
  2
*U32
 10
0.0
 20
0.0
 30
0.0
  0
POINT
  5
14F
  8
DEFPOINTS
  6
CONTINUOUS
 62
     0
 10
53.107593999999992
 20
16.296603000000001
 30
0.0
  0
POINT
  5
150
  8
DEFPOINTS
  6
CONTINUOUS
 62
     0
 10
53.107593999999992
 20
0.396605
 30
0.0
  0
POINT
  5
151
  8
DEFPOINTS
  6
CONTINUOUS
 62
     0
 10
72.073063000000005
 20
0.396605
 30
0.0
  0
ENDBLK
  5
152
  8
0
  6
BYBLOCK
 62
     0
  0
BLOCK
  8
0
  6
BYBLOCK
 62
     0
  2
*D4
 70
     1
 10
0.0
 20
0.0
 30
0.0
  3
*D4
  1

  0
LINE
  5
156
  8
0
  6
CONTINUOUS
 62
   255
 10
-74.170307999999991
 20
-8.5533900000000003
 30
0.0
 11
-74.170307999999991
 21
25.246599
 31
0.0
  0
LINE
  5
157
  8
0
  6
CONTINUOUS
 62
   255
 10
-61.085054999999997
 20
-8.5533900000000003
 30
0.0
 11
-76.456303000000005
 21
-8.5533900000000003
 31
0.0
  0
LINE
  5
158
  8
0
  6
CONTINUOUS
 62
   255
 10
-61.085054999999997
 20
25.246599
 30
0.0
 11
-76.456303000000005
 21
25.246599
 31
0.0
  0
INSERT
  5
159
  8
0
  6
CONTINUOUS
 62
   255
  2
_OPEN30
 10
-74.170307999999991
 20
-8.5533900000000003
 30
0.0
 41
2.77
 42
2.77
 43
2.77
 50
270.0
  0
INSERT
  5
15A
  8
0
  6
CONTINUOUS
 62
   255
  2
_OPEN30
 10
-74.170307999999991
 20
25.246599
 30
0.0
 41
2.77
 42
2.77
 43
2.77
 50
90.0
  0
INSERT
  5
15B
  8
0
  6
CONTINUOUS
  2
*U33
 10
0.0
 20
0.0
 30
0.0
  0
POINT
  5
15C
  8
DEFPOINTS
  6
CONTINUOUS
 62
     0
 10
-59.815055000000001
 20
-8.5533900000000003
 30
0.0
  0
POINT
  5
15D
  8
DEFPOINTS
  6
CONTINUOUS
 62
     0
 10
-59.815055000000001
 20
25.246599
 30
0.0
  0
POINT
  5
15E
  8
DEFPOINTS
  6
CONTINUOUS
 62
     0
 10
-74.170307999999991
 20
25.246599
 30
0.0
  0
ENDBLK
  5
15F
  8
0
  6
BYBLOCK
 62
     0
  0
BLOCK
  8
0
  6
BYBLOCK
 62
     0
  2
*D5
 70
     1
 10
0.0
 20
0.0
 30
0.0
  3
*D5
  1

  0
LINE
  5
163
  8
0
  6
CONTINUOUS
 62
   255
 10
-116.58261899999999
 20
-2.5747330000000002
 30
0.0
 11
-132.45390399999999
 21
19.267923
 31
0.0
  0
LINE
  5
164
  8
0
  6
CONTINUOUS
 62
   255
 10
-132.45390399999999
 20
19.267923
 30
0.0
 11
-143.014545
 21
33.801872000000003
 31
0.0
  0
INSERT
  5
165
  8
0
  6
CONTINUOUS
 62
   255
  2
_OPEN30
 10
-116.58261899999999
 20
-2.5747330000000002
 30
0.0
 41
2.77
 42
2.77
 43
2.77
 50
306.002861
  0
INSERT
  5
166
  8
0
  6
CONTINUOUS
 62
   255
  2
_OPEN30
 10
-132.45390399999999
 20
19.267923
 30
0.0
 41
2.77
 42
2.77
 43
2.77
 50
126.002861
  0
INSERT
  5
167
  8
0
  6
CONTINUOUS
  2
*U34
 10
0.0
 20
0.0
 30
0.0
  0
POINT
  5
168
  8
DEFPOINTS
  6
CONTINUOUS
 62
     0
 10
-132.45390399999999
 20
19.267923
 30
0.0
  0
POINT
  5
169
  8
DEFPOINTS
  6
CONTINUOUS
 62
     0
 10
-116.58261899999999
 20
-2.5747330000000002
 30
0.0
  0
ENDBLK
  5
16A
  8
0
  6
BYBLOCK
 62
     0
  0
BLOCK
  8
0
  2
GENAXEH
 70
     0
 10
0.0
 20
0.0
 30
0.0
  3
GENAXEH
  1

  0
LINE
  5
246
  8
0
 10
-1.0
 20
0.0
 30
0.0
 11
1.0
 21
0.0
 31
0.0
  0
ENDBLK
  5
248
  8
0
  0
BLOCK
  8
0
  2
*D8
 70
     1
 10
0.0
 20
0.0
 30
0.0
  3
*D8
  1

  0
LINE
  5
708
  8
0
  6
CONTINUOUS
 62
     0
 10
-59.815056000000013
 20
67.362719418616464
 30
0.0
 11
-59.815056000000013
 21
93.414636418616467
 31
0.0
  0
LINE
  5
709
  8
0
  6
CONTINUOUS
 62
     0
 10
55.184939999999997
 20
57.412724418616463
 30
0.0
 11
55.184939999999997
 21
93.414636418616467
 31
0.0
  0
LINE
  5
70A
  8
0
  6
CONTINUOUS
 62
     0
 10
-57.045056000000002
 20
91.128640418616456
 30
0.0
 11
52.414940000000001
 21
91.128640418616456
 31
0.0
  0
INSERT
  5
70B
  8
0
  6
CONTINUOUS
 62
     0
  2
_OPEN30
 10
-59.815056000000013
 20
91.128640418616456
 30
0.0
 41
2.77
 42
2.77
 43
2.77
 50
180.0
  0
INSERT
  5
70C
  8
0
  6
CONTINUOUS
 62
     0
  2
_OPEN30
 10
55.184939999999997
 20
91.128640418616456
 30
0.0
 41
2.77
 42
2.77
 43
2.77
  0
TEXT
  8
0
  40
4.16719
  5
79D
  62
0
  72
0
  71
0
 10
-13.2448
 20
86.8363
 30
0.000000
  1
(115)
  0
POINT
  5
70E
  8
DEFPOINTS
  6
CONTINUOUS
 62
     0
 10
-59.815056000000013
 20
66.092719418616468
 30
0.0
  0
POINT
  5
70F
  8
DEFPOINTS
  6
CONTINUOUS
 62
     0
 10
55.184939999999997
 20
56.14272441861646
 30
0.0
  0
POINT
  5
710
  8
DEFPOINTS
  6
CONTINUOUS
 62
     0
 10
55.184939999999997
 20
91.128640418616456
 30
0.0
  0
ENDBLK
  5
264
  8
0
  0
BLOCK
  8
0
  2
*D9
 70
     1
 10
0.0
 20
0.0
 30
0.0
  3
*D9
  1

  0
LINE
  5
6D1
  8
0
  6
CONTINUOUS
 62
     0
 10
25.984939000000001
 20
67.362719418616464
 30
0.0
 11
25.984939000000001
 21
78.663673418616455
 31
0.0
  0
LINE
  5
6D2
  8
0
  6
CONTINUOUS
 62
     0
 10
55.184939999999997
 20
57.412725418616468
 30
0.0
 11
55.184939999999997
 21
78.663673418616455
 31
0.0
  0
LINE
  5
6D3
  8
0
  6
CONTINUOUS
 62
     0
 10
28.754939
 20
76.377678418616455
 30
0.0
 11
52.414940000000001
 21
76.377678418616455
 31
0.0
  0
INSERT
  5
6D4
  8
0
  6
CONTINUOUS
 62
     0
  2
_OPEN30
 10
25.984939000000001
 20
76.377678418616455
 30
0.0
 41
2.77
 42
2.77
 43
2.77
 50
180.0
  0
INSERT
  5
6D5
  8
0
  6
CONTINUOUS
 62
     0
  2
_OPEN30
 10
55.184939999999997
 20
76.377678418616455
 30
0.0
 41
2.77
 42
2.77
 43
2.77
  0
INSERT
  5
6D6
  8
0
  6
CONTINUOUS
  2
*U50
 10
0.0
 20
0.0
 30
0.0
  0
POINT
  5
6D7
  8
DEFPOINTS
  6
CONTINUOUS
 62
     0
 10
25.984939000000001
 20
66.092719418616468
 30
0.0
  0
POINT
  5
6D8
  8
DEFPOINTS
  6
CONTINUOUS
 62
     0
 10
55.184939999999997
 20
56.142725418616457
 30
0.0
  0
POINT
  5
6D9
  8
DEFPOINTS
  6
CONTINUOUS
 62
     0
 10
55.184939999999997
 20
76.377678418616455
 30
0.0
  0
ENDBLK
  5
270
  8
0
  0
BLOCK
  8
0
  2
*D10
 70
     1
 10
0.0
 20
0.0
 30
0.0
  3
*D10
  1

  0
LINE
  5
6C7
  8
0
  6
CONTINUOUS
 62
     0
 10
54.377594000000002
 20
57.142724418616467
 30
0.0
 11
74.359059000000016
 21
57.142724418616467
 31
0.0
  0
LINE
  5
6C8
  8
0
  6
CONTINUOUS
 62
     0
 10
54.377594000000002
 20
41.242726418616463
 30
0.0
 11
74.359059000000016
 21
41.242726418616463
 31
0.0
  0
LINE
  5
6C9
  8
0
  6
CONTINUOUS
 62
     0
 10
72.073063000000019
 20
44.012726418616467
 30
0.0
 11
72.073063000000019
 21
54.372724418616457
 31
0.0
  0
LINE
  5
6CA
  8
0
  6
CONTINUOUS
 62
     0
 10
72.073063000000019
 20
57.142724418616467
 30
0.0
 11
72.073063000000019
 21
77.192406418616471
 31
0.0
  0
INSERT
  5
6CB
  8
0
  6
CONTINUOUS
 62
     0
  2
_OPEN30
 10
72.073063000000019
 20
41.242726418616463
 30
0.0
 41
2.77
 42
2.77
 43
2.77
 50
270.0
  0
INSERT
  5
6CC
  8
0
  6
CONTINUOUS
 62
     0
  2
_OPEN30
 10
72.073063000000019
 20
57.142724418616467
 30
0.0
 41
2.77
 42
2.77
 43
2.77
 50
90.0
  0
INSERT
  5
6CD
  8
0
  6
CONTINUOUS
  2
*U49
 10
0.0
 20
0.0
 30
0.0
  0
POINT
  5
6CE
  8
DEFPOINTS
  6
CONTINUOUS
 62
     0
 10
53.107593999999992
 20
57.142724418616467
 30
0.0
  0
POINT
  5
6CF
  8
DEFPOINTS
  6
CONTINUOUS
 62
     0
 10
53.107593999999992
 20
41.242726418616463
 30
0.0
  0
POINT
  5
6D0
  8
DEFPOINTS
  6
CONTINUOUS
 62
     0
 10
72.073063000000019
 20
41.242726418616463
 30
0.0
  0
ENDBLK
  5
27C
  8
0
  0
BLOCK
  8
0
  2
*D11
 70
     1
 10
0.0
 20
0.0
 30
0.0
  3
*D11
  1

  0
LINE
  5
6BE
  8
0
  6
CONTINUOUS
 62
     0
 10
-61.085055000000011
 20
32.292731418616462
 30
0.0
 11
-76.456302999999977
 21
32.292731418616462
 31
0.0
  0
LINE
  5
6BF
  8
0
  6
CONTINUOUS
 62
     0
 10
-61.085055000000011
 20
66.092720418616466
 30
0.0
 11
-76.456302999999977
 21
66.092720418616466
 31
0.0
  0
LINE
  5
6C0
  8
0
  6
CONTINUOUS
 62
     0
 10
-74.170307999999977
 20
35.062731418616472
 30
0.0
 11
-74.170307999999977
 21
63.322720418616463
 31
0.0
  0
INSERT
  5
6C1
  8
0
  6
CONTINUOUS
 62
     0
  2
_OPEN30
 10
-74.170307999999977
 20
32.292731418616462
 30
0.0
 41
2.77
 42
2.77
 43
2.77
 50
270.0
  0
INSERT
  5
6C2
  8
0
  6
CONTINUOUS
 62
     0
  2
_OPEN30
 10
-74.170307999999977
 20
66.092720418616466
 30
0.0
 41
2.77
 42
2.77
 43
2.77
 50
90.0
  0
INSERT
  5
6C3
  8
0
  6
CONTINUOUS
  2
*U48
 10
0.0
 20
0.0
 30
0.0
  0
POINT
  5
6C4
  8
DEFPOINTS
  6
CONTINUOUS
 62
     0
 10
-59.815055000000001
 20
32.292731418616462
 30
0.0
  0
POINT
  5
6C5
  8
DEFPOINTS
  6
CONTINUOUS
 62
     0
 10
-59.815055000000001
 20
66.092720418616466
 30
0.0
  0
POINT
  5
6C6
  8
DEFPOINTS
  6
CONTINUOUS
 62
     0
 10
-74.170307999999977
 20
66.092720418616466
 30
0.0
  0
ENDBLK
  5
288
  8
0
  0
BLOCK
  8
0
  2
*D12
 70
     1
 10
0.0
 20
0.0
 30
0.0
  3
*D12
  1

  0
LINE
  5
6B6
  8
0
  6
CONTINUOUS
 62
     0
 10
-143.4183195683388
 20
75.203683190793384
 30
0.0
 11
-134.0821810479778
 21
62.354940189291327
 31
0.0
  0
LINE
  5
6B7
  8
0
  6
CONTINUOUS
 62
     0
 10
-114.95434195202211
 20
36.0304926479416
 30
0.0
 11
-113.3260649040443
 21
33.789596877266717
 31
0.0
  0
INSERT
  5
6B8
  8
0
  6
CONTINUOUS
  2
*U47
 10
0.0
 20
0.0
 30
0.0
  0
LINE
  5
6B9
  8
0
  6
CONTINUOUS
 62
     0
 10
-116.58261899999999
 20
38.271388418616468
 30
0.0
 11
-132.45390399999999
 21
60.114044418616452
 31
0.0
  0
INSERT
  5
6BA
  8
0
  6
CONTINUOUS
 62
     0
  2
_OPEN30
 10
-116.58261899999999
 20
38.271388418616468
 30
0.0
 41
2.77
 42
2.77
 43
2.77
 50
126.0028610127812
  0
INSERT
  5
6BB
  8
0
  6
CONTINUOUS
 62
     0
  2
_OPEN30
 10
-132.45390399999999
 20
60.114044418616452
 30
0.0
 41
2.77
 42
2.77
 43
2.77
 50
306.00286101278118
  0
POINT
  5
6BC
  8
DEFPOINTS
  6
CONTINUOUS
 62
     0
 10
-132.45390399999999
 20
60.114044418616452
 30
0.0
  0
POINT
  5
6BD
  8
DEFPOINTS
  6
CONTINUOUS
 62
     0
 10
-116.58261899999999
 20
38.271388418616468
 30
0.0
  0
ENDBLK
  5
294
  8
0
  0
BLOCK
  8
0
  2
*D13
 70
     1
 10
0.0
 20
0.0
 30
0.0
  3
*D13
  1

  0
LINE
  5
327
  8
PV
  6
CONTINUOUS
 62
     0
 10
-59.81505600000002
 20
-35.773738036417548
 30
0.0
 11
-59.81505600000002
 21
-9.7218210364175484
 31
0.0
  0
LINE
  5
328
  8
PV
  6
CONTINUOUS
 62
     0
 10
55.184939999999983
 20
-45.723733036417549
 30
0.0
 11
55.184939999999983
 21
-9.7218210364175501
 31
0.0
  0
LINE
  5
329
  8
PV
  6
CONTINUOUS
 62
     0
 10
-57.045056000000017
 20
-12.007817036417549
 30
0.0
 11
52.41493999999998
 21
-12.007817036417549
 31
0.0
  0
INSERT
  5
32A
  8
PV
  6
CONTINUOUS
 62
     0
  2
_OPEN30
 10
-59.81505600000002
 20
-12.007817036417549
 30
0.0
 41
2.77
 42
2.77
 43
2.77
 50
180.0
  0
INSERT
  5
32B
  8
PV
  6
CONTINUOUS
 62
     0
  2
_OPEN30
 10
55.184939999999983
 20
-12.007817036417549
 30
0.0
 41
2.77
 42
2.77
 43
2.77
  0
INSERT
  5
32C
  8
0
  6
CONTINUOUS
  2
*U39
 10
0.0
 20
0.0
 30
0.0
  0
POINT
  5
32D
  8
DEFPOINTS
  6
CONTINUOUS
 62
     0
 10
-59.81505600000002
 20
-37.043738036417551
 30
0.0
  0
POINT
  5
32E
  8
DEFPOINTS
  6
CONTINUOUS
 62
     0
 10
55.184939999999983
 20
-46.993733036417552
 30
0.0
  0
POINT
  5
32F
  8
DEFPOINTS
  6
CONTINUOUS
 62
     0
 10
55.184939999999983
 20
-12.007817036417549
 30
0.0
  0
ENDBLK
  5
2F9
  8
0
  0
BLOCK
  8
0
  2
*D14
 70
     1
 10
0.0
 20
0.0
 30
0.0
  3
*D14
  1

  0
LINE
  5
330
  8
PV
  6
CONTINUOUS
 62
     0
 10
25.984938999999979
 20
-35.773738036417548
 30
0.0
 11
25.984938999999979
 21
-24.472784036417568
 31
0.0
  0
LINE
  5
331
  8
PV
  6
CONTINUOUS
 62
     0
 10
55.184939999999983
 20
-45.723732036417552
 30
0.0
 11
55.184939999999983
 21
-24.472784036417568
 31
0.0
  0
LINE
  5
332
  8
PV
  6
CONTINUOUS
 62
     0
 10
28.754938999999979
 20
-26.758779036417572
 30
0.0
 11
52.41493999999998
 21
-26.758779036417572
 31
0.0
  0
INSERT
  5
333
  8
PV
  6
CONTINUOUS
 62
     0
  2
_OPEN30
 10
25.984938999999979
 20
-26.758779036417572
 30
0.0
 41
2.77
 42
2.77
 43
2.77
 50
180.0
  0
INSERT
  5
334
  8
PV
  6
CONTINUOUS
 62
     0
  2
_OPEN30
 10
55.184939999999983
 20
-26.758779036417572
 30
0.0
 41
2.77
 42
2.77
 43
2.77
  0
INSERT
  5
335
  8
0
  6
CONTINUOUS
  2
*U40
 10
0.0
 20
0.0
 30
0.0
  0
POINT
  5
336
  8
DEFPOINTS
  6
CONTINUOUS
 62
     0
 10
25.984938999999979
 20
-37.043738036417551
 30
0.0
  0
POINT
  5
337
  8
DEFPOINTS
  6
CONTINUOUS
 62
     0
 10
55.184939999999983
 20
-46.993732036417548
 30
0.0
  0
POINT
  5
338
  8
DEFPOINTS
  6
CONTINUOUS
 62
     0
 10
55.184939999999983
 20
-26.758779036417572
 30
0.0
  0
ENDBLK
  5
305
  8
0
  0
BLOCK
  8
0
  2
*D15
 70
     1
 10
0.0
 20
0.0
 30
0.0
  3
*D15
  1

  0
LINE
  5
339
  8
PV
  6
CONTINUOUS
 62
     0
 10
54.377593999999966
 20
-45.993733036417552
 30
0.0
 11
74.359058999999974
 21
-45.993733036417552
 31
0.0
  0
LINE
  5
33A
  8
PV
  6
CONTINUOUS
 62
     0
 10
54.377593999999966
 20
-61.893731036417563
 30
0.0
 11
74.359058999999974
 21
-61.893731036417563
 31
0.0
  0
LINE
  5
33B
  8
PV
  6
CONTINUOUS
 62
     0
 10
72.073062999999976
 20
-48.763733036417563
 30
0.0
 11
72.073062999999976
 21
-59.123731036417553
 31
0.0
  0
INSERT
  5
33C
  8
PV
  6
CONTINUOUS
 62
     0
  2
_OPEN30
 10
72.073062999999976
 20
-45.993733036417552
 30
0.0
 41
2.77
 42
2.77
 43
2.77
 50
90.0
  0
INSERT
  5
33D
  8
PV
  6
CONTINUOUS
 62
     0
  2
_OPEN30
 10
72.073062999999976
 20
-61.893731036417563
 30
0.0
 41
2.77
 42
2.77
 43
2.77
 50
270.0
  0
INSERT
  5
33E
  8
0
  6
CONTINUOUS
  2
*U41
 10
0.0
 20
0.0
 30
0.0
  0
POINT
  5
33F
  8
DEFPOINTS
  6
CONTINUOUS
 62
     0
 10
53.10759399999997
 20
-45.993733036417552
 30
0.0
  0
POINT
  5
340
  8
DEFPOINTS
  6
CONTINUOUS
 62
     0
 10
53.10759399999997
 20
-61.893731036417563
 30
0.0
  0
POINT
  5
341
  8
DEFPOINTS
  6
CONTINUOUS
 62
     0
 10
72.073062999999976
 20
-61.893731036417563
 30
0.0
  0
ENDBLK
  5
311
  8
0
  0
BLOCK
  8
0
  2
*D16
 70
     1
 10
0.0
 20
0.0
 30
0.0
  3
*D16
  1

  0
LINE
  5
342
  8
PV
  6
CONTINUOUS
 62
     0
 10
-61.085055000000033
 20
-70.843726036417564
 30
0.0
 11
-76.45630300000002
 21
-70.843726036417564
 31
0.0
  0
LINE
  5
343
  8
PV
  6
CONTINUOUS
 62
     0
 10
-61.085055000000033
 20
-37.043737036417546
 30
0.0
 11
-76.45630300000002
 21
-37.043737036417546
 31
0.0
  0
LINE
  5
344
  8
PV
  6
CONTINUOUS
 62
     0
 10
-74.17030800000002
 20
-68.073726036417568
 30
0.0
 11
-74.17030800000002
 21
-39.813737036417557
 31
0.0
  0
INSERT
  5
345
  8
PV
  6
CONTINUOUS
 62
     0
  2
_OPEN30
 10
-74.17030800000002
 20
-70.843726036417564
 30
0.0
 41
2.77
 42
2.77
 43
2.77
 50
270.0
  0
INSERT
  5
346
  8
PV
  6
CONTINUOUS
 62
     0
  2
_OPEN30
 10
-74.17030800000002
 20
-37.043737036417546
 30
0.0
 41
2.77
 42
2.77
 43
2.77
 50
90.0
  0
INSERT
  5
347
  8
0
  6
CONTINUOUS
  2
*U42
 10
0.0
 20
0.0
 30
0.0
  0
POINT
  5
348
  8
DEFPOINTS
  6
CONTINUOUS
 62
     0
 10
-59.815055000000029
 20
-70.843726036417564
 30
0.0
  0
POINT
  5
349
  8
DEFPOINTS
  6
CONTINUOUS
 62
     0
 10
-59.815055000000029
 20
-37.043737036417546
 30
0.0
  0
POINT
  5
34A
  8
DEFPOINTS
  6
CONTINUOUS
 62
     0
 10
-74.17030800000002
 20
-37.043737036417546
 30
0.0
  0
ENDBLK
  5
31D
  8
0
  0
BLOCK
  8
0
  2
*D17
 70
     1
 10
0.0
 20
0.0
 30
0.0
  3
*D17
  1

  0
LINE
  5
358
  8
0
 62
     0
 10
89.304112299262897
 20
148.739737601895
 30
0.0
 11
89.304112299262897
 21
117.2457333235063
 31
0.0
  0
LINE
  5
359
  8
0
 62
     0
 10
283.58629931867608
 20
151.45528455663791
 30
0.0
 11
283.58629931867608
 21
117.2457333235063
 31
0.0
  0
LINE
  5
35A
  8
0
 62
     0
 10
92.204112299262931
 20
118.44573337119
 30
0.0
 11
280.68629931867611
 21
118.44573337119
 31
0.0
  0
INSERT
  5
35B
  8
0
 62
     0
  2
_OPEN30
 10
89.304112299262897
 20
118.44573337119
 30
0.0
 41
2.8999999999999999
 42
2.8999999999999999
 43
2.8999999999999999
 50
180.0
  0
INSERT
  5
35C
  8
0
 62
     0
  2
_OPEN30
 10
283.58629931867608
 20
118.44573337119
 30
0.0
 41
2.8999999999999999
 42
2.8999999999999999
 43
2.8999999999999999
  0
INSERT
  5
35D
  8
0
  2
*U18
 10
0.0
 20
0.0
 30
0.0
  0
ENDBLK
  5
35E
  8
0
  0
BLOCK
  8
0
  2
*U18
 70
     1
 10
0.0
 20
0.0
 30
0.0
  3
*U18
  1

  0
TEXT
  5
361
  8
0
 62
     0
 10
180.31187247563611
 20
119.44573337119
 30
0.0
 40
4.0
  1
2000
  7
ULVAC
  0
ENDBLK
  5
362
  8
0
  0
BLOCK
  8
0
  2
*D20
 70
     1
 10
0.0
 20
0.0
 30
0.0
  3
*D20
  1

  0
LINE
  5
478
  8
0
 62
     0
 10
-311.56608199555171
 20
-57.725166330355357
 30
0.0
 11
-311.56608199555171
 21
-89.406670541986841
 31
0.0
  0
LINE
  5
479
  8
0
 62
     0
 10
-117.2838949761385
 20
-55.009619375612402
 30
0.0
 11
-117.2838949761385
 21
-89.406670541986841
 31
0.0
  0
LINE
  5
47A
  8
0
 62
     0
 10
-311.38608199555171
 20
-89.226670541986834
 30
0.0
 11
-214.79098848584511
 21
-89.226670541986834
 31
0.0
  0
LINE
  5
47B
  8
0
 62
     0
 10
-117.4638949761385
 20
-89.226670541986834
 30
0.0
 11
-214.05898848584511
 21
-89.226670541986834
 31
0.0
  0
SOLID
  5
47C
  8
0
 62
     0
 10
-311.38608199555171
 20
-89.196670541986833
 30
0.0
 11
-311.38608199555171
 21
-89.256670541986836
 31
0.0
 12
-311.56608199555171
 22
-89.226670541986834
 32
0.0
 13
-311.56608199555171
 23
-89.226670541986834
 33
0.0
  0
SOLID
  5
47D
  8
0
 62
     0
 10
-117.4638949761385
 20
-89.196670541986833
 30
0.0
 11
-117.4638949761385
 21
-89.256670541986836
 31
0.0
 12
-117.2838949761385
 22
-89.226670541986834
 32
0.0
 13
-117.2838949761385
 23
-89.226670541986834
 33
0.0
  0
INSERT
  5
47E
  8
0
  6
CONTINUOUS
  2
*U43
 10
0.0
 20
0.0
 30
0.0
  0
POINT
  5
47F
  8
DEFPOINTS
 62
     0
 10
-311.56608199555171
 20
-57.662666330355357
 30
0.0
  0
POINT
  5
480
  8
DEFPOINTS
 62
     0
 10
-117.2838949761385
 20
-54.947119375612402
 30
0.0
  0
POINT
  5
481
  8
DEFPOINTS
 62
     0
 10
-117.2838949761385
 20
-89.226670541986834
 30
0.0
  0
ENDBLK
  5
46D
  8
0
  0
BLOCK
  8
0
  2
*D21
 70
     1
 10
0.0
 20
0.0
 30
0.0
  3
*D21
  1

  0
LINE
  5
593
  8
0
 62
     0
 10
33.184949999999979
 20
-35.77373703641755
 30
0.0
 11
33.184949999999979
 21
-23.84373703641754
 31
0.0
  0
LINE
  5
594
  8
0
 62
     0
 10
90.634977999999975
 20
-44.423732036417562
 30
0.0
 11
90.634977999999975
 21
-23.84373703641754
 31
0.0
  0
LINE
  5
595
  8
0
 62
     0
 10
35.684949999999979
 20
-25.043737036417539
 30
0.0
 11
88.134977999999975
 21
-25.043737036417539
 31
0.0
  0
SOLID
  5
596
  8
0
 62
     0
 10
35.684949999999979
 20
-24.627070369750879
 30
0.0
 11
35.684949999999979
 21
-25.460403703084211
 31
0.0
 12
33.184949999999979
 22
-25.043737036417539
 32
0.0
 13
33.184949999999979
 23
-25.043737036417539
 33
0.0
  0
SOLID
  5
597
  8
0
 62
     0
 10
88.134977999999975
 20
-24.627070369750879
 30
0.0
 11
88.134977999999975
 21
-25.460403703084211
 31
0.0
 12
90.634977999999975
 22
-25.043737036417539
 32
0.0
 13
90.634977999999975
 23
-25.043737036417539
 33
0.0
  0
INSERT
  5
598
  8
0
  6
CONTINUOUS
  2
*U46
 10
0.0
 20
0.0
 30
0.0
  0
POINT
  5
599
  8
DEFPOINTS
 62
     0
 10
33.184949999999979
 20
-37.043737036417546
 30
0.0
  0
POINT
  5
59A
  8
DEFPOINTS
 62
     0
 10
90.634977999999975
 20
-45.693732036417558
 30
0.0
  0
POINT
  5
59B
  8
DEFPOINTS
 62
     0
 10
90.634977999999975
 20
-25.043737036417539
 30
0.0
  0
ENDBLK
  5
489
  8
0
  0
BLOCK
  8
0
  2
*D23
 70
     1
 10
0.0
 20
0.0
 30
0.0
  3
*D23
  1

  0
LINE
  5
58A
  8
0
 62
     0
 10
90.634977999999975
 20
-44.423732036417562
 30
0.0
 11
90.634977999999975
 21
-24.01953506164789
 31
0.0
  0
LINE
  5
58B
  8
0
 62
     0
 10
140.63497799999999
 20
-69.67373203641759
 30
0.0
 11
140.63497799999999
 21
-24.01953506164789
 31
0.0
  0
LINE
  5
58C
  8
0
 62
     0
 10
93.134977999999975
 20
-25.219535061647889
 30
0.0
 11
138.13497799999999
 21
-25.219535061647889
 31
0.0
  0
SOLID
  5
58D
  8
0
 62
     0
 10
93.134977999999975
 20
-24.802868394981221
 30
0.0
 11
93.134977999999975
 21
-25.63620172831456
 31
0.0
 12
90.634977999999975
 22
-25.219535061647889
 32
0.0
 13
90.634977999999975
 23
-25.219535061647889
 33
0.0
  0
SOLID
  5
58E
  8
0
 62
     0
 10
138.13497799999999
 20
-24.802868394981221
 30
0.0
 11
138.13497799999999
 21
-25.63620172831456
 31
0.0
 12
140.63497799999999
 22
-25.219535061647889
 32
0.0
 13
140.63497799999999
 23
-25.219535061647889
 33
0.0
  0
INSERT
  5
58F
  8
0
  6
CONTINUOUS
  2
*U45
 10
0.0
 20
0.0
 30
0.0
  0
POINT
  5
590
  8
DEFPOINTS
 62
     0
 10
90.634977999999975
 20
-45.693732036417558
 30
0.0
  0
POINT
  5
591
  8
DEFPOINTS
 62
     0
 10
140.63497799999999
 20
-70.943732036417586
 30
0.0
  0
POINT
  5
592
  8
DEFPOINTS
 62
     0
 10
140.63497799999999
 20
-25.219535061647889
 30
0.0
  0
ENDBLK
  5
4CF
  8
0
  0
BLOCK
  8
0
  2
*D24
 70
     1
 10
0.0
 20
0.0
 30
0.0
  3
*D24
  1

  0
LINE
  5
584
  8
0
 62
     0
 10
172.92239771320439
 20
-68.539465134710682
 30
0.0
 11
143.11122954043549
 21
-69.910234725792748
 31
0.0
  0
INSERT
  5
585
  8
0
  6
CONTINUOUS
  2
*U44
 10
0.0
 20
0.0
 30
0.0
  0
LINE
  5
586
  8
0
 62
     0
 10
120.634978
 20
-70.943732036417572
 30
0.0
 11
140.6138682581649
 21
-70.025067760306626
 31
0.0
  0
SOLID
  5
587
  8
0
 62
     0
 10
143.09209070134989
 20
-69.494007845414316
 30
0.0
 11
143.1303683795212
 21
-70.326461606171193
 31
0.0
 12
140.6138682581649
 22
-70.025067760306626
 32
0.0
 13
140.6138682581649
 23
-70.025067760306626
 33
0.0
  0
POINT
  5
588
  8
DEFPOINTS
 62
     0
 10
140.6138682581649
 20
-70.025067760306626
 30
0.0
  0
POINT
  5
589
  8
DEFPOINTS
 62
     0
 10
120.634978
 20
-70.943732036417572
 30
0.0
  0
ENDBLK
  5
516
  8
0
  0
BLOCK
  8
0
  2
*U26
 70
     1
 10
0.0
 20
0.0
 30
0.0
  3
*U26
  1

  0
TEXT
  5
6F4
  8
0
  6
CONTINUOUS
 62
     7
 10
121.240269
 20
-107.12715799999999
 30
0.0
 40
2.5
  1
TITLE
 41
0.7759999999999999
  0
ENDBLK
  5
6F6
  8
0
  0
BLOCK
  8
0
  2
*U27
 70
     1
 10
0.0
 20
0.0
 30
0.0
  3
*U27
  1

  0
TEXT
  5
6F8
  8
0
  6
CONTINUOUS
 62
     7
 10
120.962181
 20
-132.56909433333331
 30
0.0
 40
2.339710999999999
  1
DWG
 41
0.821
  0
TEXT
  5
6F9
  8
0
  6
CONTINUOUS
 62
     7
 10
120.962181
 20
-136.46861266666659
 30
0.0
 40
2.339710999999999
  1
Nｏ.
 41
0.821
  0
ENDBLK
  5
6FB
  8
0
  0
BLOCK
  8
0
  2
*U28
 70
     1
 10
0.0
 20
0.0
 30
0.0
  3
*U28
  1

  0
TEXT
  5
6FD
  8
0
  6
CONTINUOUS
 62
     7
 10
133.82061866666669
 20
-135.41826499999999
 30
0.0
 40
4.0
  1
GA0015-010-01C
 41
1.151
  0
ENDBLK
  5
6FF
  8
0
  0
BLOCK
  8
0
  2
*U29
 70
     1
 10
0.0
 20
0.0
 30
0.0
  3
*U29
  1

  0
TEXT
  5
701
  8
0
  6
CONTINUOUS
 62
     7
 10
131.10853297378731
 20
-120.4097173071206
 30
0.0
 40
5.0
  1
ＷＰＢ－１０－０３４
 41
0.7900000000000002
  0
ENDBLK
  5
703
  8
0
  0
BLOCK
  8
0
  2
*U30
 70
     1
 10
0.0
 20
0.0
 30
0.0
  3
*U30
  1

  0
TEXT
  5
705
  8
0
  6
CONTINUOUS
 62
   255
 10
-9.077636
 20
51.282519000000001
 30
0.0
 40
4.1671860000000001
  1
115
  0
ENDBLK
  5
707
  8
0
  0
BLOCK
  8
0
  2
*U31
 70
     1
 10
0.0
 20
0.0
 30
0.0
  3
*U31
  1

  0
TEXT
  5
712
  8
0
  6
CONTINUOUS
 62
   255
 10
34.334164999999999
 20
36.531556999999999
 30
0.0
 40
4.1671860000000001
  1
29.2
  0
ENDBLK
  5
714
  8
0
  0
BLOCK
  8
0
  2
*U32
 70
     1
 10
0.0
 20
0.0
 30
0.0
  3
*U32
  1

  0
TEXT
  5
716
  8
0
  6
CONTINUOUS
 62
   255
 10
71.073063000000005
 20
0.79556
 30
0.0
 40
4.1671860000000001
  1
\U+220515.9
 50
90.0
  0
ENDBLK
  5
718
  8
0
  0
BLOCK
  8
0
  2
*U33
 70
     1
 10
0.0
 20
0.0
 30
0.0
  3
*U33
  1

  0
TEXT
  5
71A
  8
0
  6
CONTINUOUS
 62
   255
 10
-75.170307999999991
 20
2.8177109999999979
 30
0.0
 40
4.1671860000000001
  1
33.8
 50
90.0
  0
ENDBLK
  5
71C
  8
0
  0
BLOCK
  8
0
  2
*U34
 70
     1
 10
0.0
 20
0.0
 30
0.0
  3
*U34
  1

  0
TEXT
  5
71E
  8
0
  6
CONTINUOUS
 62
   255
 10
-141.62232431859809
 20
33.587030198797308
 30
0.0
 40
4.1671860000000001
  1
\U+220527
 50
306.00286524901043
  0
ENDBLK
  5
720
  8
0
  0
BLOCK
  8
0
  2
*U35
 70
     1
 10
0.0
 20
0.0
 30
0.0
  3
*U35
  1

  0
TEXT
  5
722
  8
0
  6
CONTINUOUS
 62
     7
 10
-110.438699
 20
9.1539274186164636
 30
0.0
 40
4.1669999999999989
  1
\U+22056-\U+22054.4
 41
1.0569999999999991
  0
ENDBLK
  5
724
  8
0
  0
BLOCK
  8
0
  2
*U36
 70
     1
 10
0.0
 20
0.0
 30
0.0
  3
*U36
  1

  0
INSERT
  5
726
  8
0
  6
CONTINUOUS
 62
     7
  2
_OPEN30
 10
-124.17858099999999
 20
35.281718418616471
 30
0.0
 41
2.77
 42
2.77
 43
2.77
 50
110.32313517355639
  0
POLYLINE
  5
727
  8
0
  6
CONTINUOUS
 62
     7
 66
     1
 10
0.0
 20
0.0
 30
0.0
  0
VERTEX
  5
728
  8
0
  6
CONTINUOUS
 62
     7
 10
-123.21652030945
 20
32.68415432360392
 30
0.0
  0
VERTEX
  5
729
  8
0
  6
CONTINUOUS
 62
     7
 10
-113.74532600000001
 20
7.1119274186164603
 30
0.0
  0
VERTEX
  5
72A
  8
0
  6
CONTINUOUS
 62
     7
 10
-80.506716999999995
 20
7.1119274186164603
 30
0.0
  0
SEQEND
  5
72B
  8
0
  6
CONTINUOUS
 62
     7
  0
ENDBLK
  5
72D
  8
0
  0
BLOCK
  8
0
  2
*U37
 70
     1
 10
0.0
 20
0.0
 30
0.0
  3
*U37
  1

  0
TEXT
  5
72F
  8
0
  6
CONTINUOUS
 62
     7
 10
-101.366848
 20
84.273370418616466
 30
0.0
 40
4.1669999999999989
  1
UFC034
 41
1.028
  0
ENDBLK
  5
731
  8
0
  0
BLOCK
  8
0
  2
*U38
 70
     1
 10
0.0
 20
0.0
 30
0.0
  3
*U38
  1

  0
INSERT
  5
733
  8
0
  6
CONTINUOUS
 62
     7
  2
_OPEN30
 10
-59.815053000000013
 20
58.234880418616463
 30
0.0
 41
2.77
 42
2.77
 43
2.77
 50
306.50799161025589
  0
POLYLINE
  5
734
  8
0
  6
CONTINUOUS
 62
     7
 66
     1
 10
0.0
 20
0.0
 30
0.0
  0
VERTEX
  5
735
  8
0
  6
CONTINUOUS
 62
     7
 10
-61.463022680890973
 20
60.461334085519077
 30
0.0
  0
VERTEX
  5
736
  8
0
  6
CONTINUOUS
 62
     7
 10
-77.576701
 20
82.231369418616438
 30
0.0
  0
VERTEX
  5
737
  8
0
  6
CONTINUOUS
 62
     7
 10
-101.34713000000001
 20
82.231369418616438
 30
0.0
  0
SEQEND
  5
738
  8
0
  6
CONTINUOUS
 62
     7
  0
ENDBLK
  5
73A
  8
0
  0
BLOCK
  8
0
  2
*U39
 70
     1
 10
0.0
 20
0.0
 30
0.0
  3
*U39
  1

  0
TEXT
  5
76A
  8
PV
  6
CONTINUOUS
 62
     0
 10
-11.855760000000011
 20
-11.007817036417549
 30
0.0
 40
4.1671860000000001
  1
(115)
  0
ENDBLK
  5
76C
  8
0
  0
BLOCK
  8
0
  2
*U40
 70
     1
 10
0.0
 20
0.0
 30
0.0
  3
*U40
  1

  0
TEXT
  5
76E
  8
PV
  6
CONTINUOUS
 62
     0
 10
34.334164999999977
 20
-25.758779036417572
 30
0.0
 40
4.1671860000000001
  1
29.2
  0
ENDBLK
  5
770
  8
0
  0
BLOCK
  8
0
  2
*U41
 70
     1
 10
0.0
 20
0.0
 30
0.0
  3
*U41
  1

  0
TEXT
  5
772
  8
PV
  6
CONTINUOUS
 62
     0
 10
71.073062999999976
 20
-61.58357303641754
 30
0.0
 40
4.1671860000000001
  1
\U+220515.9
 50
90.0
  0
ENDBLK
  5
774
  8
0
  0
BLOCK
  8
0
  2
*U42
 70
     1
 10
0.0
 20
0.0
 30
0.0
  3
*U42
  1

  0
TEXT
  5
776
  8
PV
  6
CONTINUOUS
 62
     0
 10
-75.17030800000002
 20
-59.472625036417561
 30
0.0
 40
4.1671860000000001
  1
33.8
 50
90.0
  0
ENDBLK
  5
778
  8
0
  0
BLOCK
  8
0
  2
*U43
 70
     1
 10
0.0
 20
0.0
 30
0.0
  3
*U43
  1

  0
TEXT
  5
77A
  8
0
  6
CONTINUOUS
 62
     0
 10
-214.70998848584509
 20
-89.316670541986824
 30
0.0
 40
0.18
  1
2000
  7
STANDARD
  0
ENDBLK
  5
77C
  8
0
  0
BLOCK
  8
0
  2
*U44
 70
     1
 10
0.0
 20
0.0
 30
0.0
  3
*U44
  1

  0
TEXT
  5
781
  8
0
  6
CONTINUOUS
 62
     0
 10
153.5205727470269
 20
-61.478200235146979
 30
0.0
 40
4.1669999999999989
  1
Miniam
 50
2.6327056179888708
  0
TEXT
  5
782
  8
0
  6
CONTINUOUS
 62
     0
 10
157.65529722008759
 20
-68.240416483861026
 30
0.0
 40
4.1669999999999989
  1
R20
 50
2.6327056179888708
  0
ENDBLK
  5
784
  8
0
  0
BLOCK
  8
0
  2
*U45
 70
     1
 10
0.0
 20
0.0
 30
0.0
  3
*U45
  1

  0
TEXT
  5
786
  8
0
  6
CONTINUOUS
 62
     0
 10
97.508527999999984
 20
-24.219535061647889
 30
0.0
 40
4.1669999999999989
  1
50 or more
  0
ENDBLK
  5
788
  8
0
  0
BLOCK
  8
0
  2
*U46
 70
     1
 10
0.0
 20
0.0
 30
0.0
  3
*U46
  1

  0
TEXT
  5
78A
  8
0
  6
CONTINUOUS
 62
     0
 10
55.659463999999979
 20
-24.043737036417539
 30
0.0
 40
4.1669999999999989
  1
(57)
  0
ENDBLK
  5
78C
  8
0
  0
BLOCK
  8
0
  2
*U47
 70
     1
 10
0.0
 20
0.0
 30
0.0
  3
*U47
  1

  0
TEXT
  5
78E
  8
0
  6
CONTINUOUS
 62
     0
 10
-142.0215062764064
 20
74.982521197039915
 30
0.0
 40
4.1671860000000001
  1
\U+220527
 50
306.00286101278118
  0
ENDBLK
  5
790
  8
0
  0
BLOCK
  8
0
  2
*U48
 70
     1
 10
0.0
 20
0.0
 30
0.0
  3
*U48
  1

  0
TEXT
  5
792
  8
0
  6
CONTINUOUS
 62
     0
 10
-75.170307999999991
 20
43.663832418616458
 30
0.0
 40
4.1671860000000001
  1
33.8
 50
90.0
  0
ENDBLK
  5
794
  8
0
  0
BLOCK
  8
0
  2
*U49
 70
     1
 10
0.0
 20
0.0
 30
0.0
  3
*U49
  1

  0
TEXT
  5
796
  8
0
  6
CONTINUOUS
 62
     0
 10
71.073063000000005
 20
60.912724418616477
 30
0.0
 40
4.1671860000000001
  1
\U+220515.9
 50
90.0
  0
ENDBLK
  5
798
  8
0
  0
BLOCK
  8
0
  2
*U50
 70
     1
 10
0.0
 20
0.0
 30
0.0
  3
*U50
  1

  0
TEXT
  5
79A
  8
0
  6
CONTINUOUS
 62
     0
 10
34.334164999999999
 20
77.377678418616455
 30
0.0
 40
4.1671860000000001
  1
29.2
  0
ENDBLK
  5
79C
  8
0
  0
ENDSEC
  0
SECTION
  2
ENTITIES
  0
LINE
  5
21
  8
0
  6
NON_PLOTING
 62
     7
 10
202.500012
 20
148.50000900000001
 30
0.0
 11
202.500012
 21
-148.50000900000001
 31
0.0
  0
LINE
  5
22
  8
0
  6
NON_PLOTING
 62
     7
 10
-217.500013
 20
-148.50000900000001
 30
0.0
 11
202.500012
 21
-148.50000900000001
 31
0.0
  0
LINE
  5
24
  8
0
  6
CONTINUOUS
 62
     7
 10
91.327660999999992
 20
-106.037908
 30
0.0
 11
93.980312999999995
 21
-106.037908
 31
0.0
  0
LINE
  5
25
  8
0
  6
CONTINUOUS
 62
     7
 10
103.525131
 20
-109.190642
 30
0.0
 11
106.65713100000001
 21
-109.190642
 31
0.0
  0
LINE
  5
26
  8
0
  6
CONTINUOUS
 62
     7
 10
103.824082
 20
-108.685948
 30
0.0
 11
106.36970599999999
 21
-108.685948
 31
0.0
  0
LINE
  5
27
  8
0
  6
CONTINUOUS
 62
     7
 10
84.393293999999997
 20
-109.437163
 30
0.0
 11
84.393293999999997
 21
-106.701639
 31
0.0
  0
LINE
  5
28
  8
0
  6
CONTINUOUS
 62
     7
 10
86.023511999999997
 20
-109.396237
 30
0.0
 11
86.023511999999997
 21
-106.701598
 31
0.0
  0
LINE
  5
29
  8
0
  6
CONTINUOUS
 62
     7
 10
108.95309399999999
 20
-109.940281
 30
0.0
 11
106.577736
 21
-106.037908
 31
0.0
  0
LINE
  5
2A
  8
0
  6
CONTINUOUS
 62
     7
 10
102.480388
 20
-109.94841
 30
0.0
 11
104.796734
 21
-106.037908
 31
0.0
  0
LINE
  5
2B
  8
0
  6
CONTINUOUS
 62
     7
 10
106.955285
 20
-109.714175
 30
0.0
 11
106.65713100000001
 21
-109.190642
 31
0.0
  0
LINE
  5
2C
  8
0
  6
CONTINUOUS
 62
     7
 10
103.223315
 20
-109.700174
 30
0.0
 11
103.525131
 21
-109.190642
 31
0.0
  0
LINE
  5
2D
  8
0
  6
CONTINUOUS
 62
     7
 10
101.775592
 20
-110.544445
 30
0.0
 11
103.52833800000001
 21
-110.544445
 31
0.0
  0
LINE
  5
2E
  8
0
  6
CONTINUOUS
 62
     7
 10
106.6695
 20
-110.544445
 30
0.0
 11
109.752788
 21
-110.544445
 31
0.0
  0
LINE
  5
2F
  8
0
  6
CONTINUOUS
 62
     7
 10
104.796734
 20
-106.037908
 30
0.0
 11
106.577736
 21
-106.037908
 31
0.0
  0
LINE
  5
30
  8
0
  6
CONTINUOUS
 62
     7
 10
95.672774000000004
 20
-106.037908
 30
0.0
 11
98.639540999999994
 21
-106.037908
 31
0.0
  0
LINE
  5
31
  8
0
  6
CONTINUOUS
 62
     7
 10
101.81837899999999
 20
-106.037908
 30
0.0
 11
103.53777100000001
 21
-106.037908
 31
0.0
  0
LINE
  5
32
  8
0
  6
CONTINUOUS
 62
     7
 10
103.824082
 20
-108.685948
 30
0.0
 11
105.12191199999999
 21
-106.49492600000001
 31
0.0
  0
LINE
  5
33
  8
0
  6
CONTINUOUS
 62
     7
 10
106.36970599999999
 20
-108.685948
 30
0.0
 11
105.12191199999999
 21
-106.49492600000001
 31
0.0
  0
LINE
  5
34
  8
0
  6
CONTINUOUS
 62
     7
 10
100.54209400000001
 20
-110.544445
 30
0.0
 11
102.845884
 21
-106.56812600000001
 31
0.0
  0
LINE
  5
35
  8
0
  6
CONTINUOUS
 62
     7
 10
100.19835
 20
-110.078795
 30
0.0
 11
102.08808500000001
 21
-106.817131
 31
0.0
  0
LINE
  5
36
  8
0
  6
CONTINUOUS
 62
     7
 10
100.19835
 20
-110.078795
 30
0.0
 11
98.284347999999994
 21
-106.85198200000001
 31
0.0
  0
LINE
  5
37
  8
0
  6
CONTINUOUS
 62
     7
 10
98.790596999999991
 20
-110.544445
 30
0.0
 11
96.435373999999996
 21
-106.573779
 31
0.0
  0
LINE
  5
38
  8
0
  6
CONTINUOUS
 62
     7
 10
98.790596999999991
 20
-110.544445
 30
0.0
 11
100.54209400000001
 21
-110.544445
 31
0.0
  0
LINE
  5
39
  8
0
  6
CONTINUOUS
 62
     7
 10
93.470881999999989
 20
-109.266268
 30
0.0
 11
93.470881999999989
 21
-106.59991599999999
 31
0.0
  0
LINE
  5
3A
  8
0
  6
CONTINUOUS
 62
     7
 10
91.840664000000004
 20
-109.68784100000001
 30
0.0
 11
91.840664000000004
 21
-106.600478
 31
0.0
  0
LINE
  5
3B
  8
0
  6
CONTINUOUS
 62
     7
 10
89.600318000000016
 20
-109.396237
 30
0.0
 11
89.600318000000016
 21
-106.690231
 31
0.0
  0
LINE
  5
3C
  8
0
  6
CONTINUOUS
 62
     7
 10
94.248693000000003
 20
-110.044079
 30
0.0
 11
96.037576000000016
 21
-110.044079
 31
0.0
  0
LINE
  5
3D
  8
0
  6
CONTINUOUS
 62
     7
 10
96.895741000000015
 20
-110.544445
 30
0.0
 11
97.133375999999998
 21
-109.159908
 31
0.0
  0
LINE
  5
3E
  8
0
  6
CONTINUOUS
 62
     7
 10
91.266277000000002
 20
-110.544445
 30
0.0
 11
96.895741000000015
 21
-110.544445
 31
0.0
  0
LINE
  5
3F
  8
0
  6
CONTINUOUS
 62
     7
 10
83.884527000000006
 20
-106.037908
 30
0.0
 11
86.532160000000005
 21
-106.037908
 31
0.0
  0
ARC
  5
40
  8
0
  6
CONTINUOUS
 62
     7
 10
87.449333999999979
 20
-101.426867
 30
0.0
 40
8.6593029999999995
 50
275.65153399999991
 51
277.96585199999998
  0
ARC
  5
41
  8
0
  6
CONTINUOUS
 62
     7
 10
87.449333999999979
 20
-101.426867
 30
0.0
 40
9.3113910000000004
 50
261.60641900000002
 51
284.468842
  0
LINE
  5
42
  8
0
  6
CONTINUOUS
 62
     7
 10
89.139991000000009
 20
-106.038264
 30
0.0
 11
90.880250000000004
 21
-106.038264
 31
0.0
  0
LINE
  5
43
  8
0
  6
CONTINUOUS
 62
     7
 10
93.998615000000001
 20
-106.062129
 30
0.0
 11
93.998615000000001
 21
-106.056209
 31
0.0
  0
LINE
  5
44
  8
0
  6
CONTINUOUS
 62
     7
 10
91.309359999999998
 20
-106.062056
 30
0.0
 11
91.309359999999998
 21
-106.056209
 31
0.0
  0
ARC
  5
45
  8
0
  6
CONTINUOUS
 62
     7
 10
93.952860999999984
 20
-106.062129
 30
0.0
 40
0.045754
 50
289.39587399999999
 51
0.0
  0
ARC
  5
46
  8
0
  6
CONTINUOUS
 62
     7
 10
93.980312999999995
 20
-106.056209
 30
0.0
 40
0.018302
 50
0.0
 51
90.0
  0
ARC
  5
47
  8
0
  6
CONTINUOUS
 62
     7
 10
91.327660999999992
 20
-106.056209
 30
0.0
 40
0.018302
 50
90.0
 51
180.0
  0
ARC
  5
48
  8
0
  6
CONTINUOUS
 62
     7
 10
91.355113000000003
 20
-106.062056
 30
0.0
 40
0.045754
 50
180.0
 51
250.72486599999999
  0
LINE
  5
49
  8
0
  6
CONTINUOUS
 62
     7
 10
91.340009999999992
 20
-106.105245
 30
0.0
 11
91.724293000000003
 21
-106.37608899999999
 31
0.0
  0
LINE
  5
4A
  8
0
  6
CONTINUOUS
 62
     7
 10
93.968056000000004
 20
-106.10528499999999
 30
0.0
 11
93.586527999999987
 21
-106.37603900000001
 31
0.0
  0
ARC
  5
4B
  8
0
  6
CONTINUOUS
 62
     7
 10
93.745402999999996
 20
-106.59991599999999
 30
0.0
 40
0.274522
 50
125.361678
 51
180.0
  0
ARC
  5
4C
  8
0
  6
CONTINUOUS
 62
     7
 10
91.566143000000011
 20
-106.600478
 30
0.0
 40
0.274522
 50
0.0
 51
54.823661999999999
  0
LINE
  5
4D
  8
0
  6
CONTINUOUS
 62
     7
 10
87.321744999999993
 20
-110.044079
 30
0.0
 11
88.302083999999994
 21
-110.044079
 31
0.0
  0
LINE
  5
4E
  8
0
  6
CONTINUOUS
 62
     7
 10
91.549334999999999
 20
-110.24909700000001
 30
0.0
 11
91.286819999999992
 21
-110.433837
 31
0.0
  0
LINE
  5
4F
  8
0
  6
CONTINUOUS
 62
     7
 10
91.247975999999994
 20
-110.508672
 30
0.0
 11
91.247975999999994
 21
-110.526144
 31
0.0
  0
ARC
  5
50
  8
0
  6
CONTINUOUS
 62
     7
 10
91.266277000000002
 20
-110.526144
 30
0.0
 40
0.018302
 50
180.0
 51
270.0
  0
ARC
  5
51
  8
0
  6
CONTINUOUS
 62
     7
 10
91.154359999999997
 20
-109.68784100000001
 30
0.0
 40
0.686304
 50
305.13530900000001
 51
0.0
  0
ARC
  5
52
  8
0
  6
CONTINUOUS
 62
     7
 10
91.339483000000001
 20
-110.508672
 30
0.0
 40
0.091507
 50
125.13530900000001
 51
180.0
  0
ARC
  5
53
  8
0
  6
CONTINUOUS
 62
     7
 10
94.248693000000003
 20
-109.266268
 30
0.0
 40
0.7778109999999999
 50
180.0
 51
270.0
  0
LINE
  5
54
  8
0
  6
CONTINUOUS
 62
     7
 10
90.382801999999998
 20
-109.695543
 30
0.0
 11
90.382801999999998
 21
-106.593424
 31
0.0
  0
ARC
  5
55
  8
0
  6
CONTINUOUS
 62
     7
 10
89.696497999999991
 20
-109.695543
 30
0.0
 40
0.686304
 50
305.13530900000001
 51
0.0
  0
LINE
  5
56
  8
0
  6
CONTINUOUS
 62
     7
 10
90.091471999999996
 20
-110.256799
 30
0.0
 11
89.924816000000007
 21
-110.37408000000001
 31
0.0
  0
LINE
  5
57
  8
0
  6
CONTINUOUS
 62
     7
 10
90.898550999999983
 20
-106.08066700000001
 30
0.0
 11
90.898550999999983
 21
-106.05656500000001
 31
0.0
  0
LINE
  5
58
  8
0
  6
CONTINUOUS
 62
     7
 10
89.121689000000003
 20
-106.084597
 30
0.0
 11
89.121689000000003
 21
-106.05656500000001
 31
0.0
  0
ARC
  5
59
  8
0
  6
CONTINUOUS
 62
     7
 10
90.657323000000005
 20
-106.593424
 30
0.0
 40
0.274522
 50
127.521218
 51
180.0
  0
LINE
  5
5A
  8
0
  6
CONTINUOUS
 62
     7
 10
90.490125000000006
 20
-106.375693
 30
0.0
 11
90.878057999999996
 21
-106.1188149999999
 31
0.0
  0
ARC
  5
5B
  8
0
  6
CONTINUOUS
 62
     7
 10
90.880250000000004
 20
-106.05656500000001
 30
0.0
 40
0.018302
 50
0.0
 51
90.0
  0
ARC
  5
5C
  8
0
  6
CONTINUOUS
 62
     7
 10
90.852798000000007
 20
-106.08066700000001
 30
0.0
 40
0.045754
 50
303.51137499999999
 51
0.0
  0
LINE
  5
5D
  8
0
  6
CONTINUOUS
 62
     7
 10
89.140420999999989
 20
-106.12151900000001
 30
0.0
 11
89.413002999999989
 21
-106.321016
 31
0.0
  0
ARC
  5
5E
  8
0
  6
CONTINUOUS
 62
     7
 10
89.167443000000006
 20
-106.084597
 30
0.0
 40
0.045754
 50
180.0
 51
233.800364
  0
ARC
  5
5F
  8
0
  6
CONTINUOUS
 62
     7
 10
89.139991000000009
 20
-106.05656500000001
 30
0.0
 40
0.018302
 50
90.0
 51
180.0
  0
ARC
  5
60
  8
0
  6
CONTINUOUS
 62
     7
 10
89.142781999999997
 20
-106.690231
 30
0.0
 40
0.457536
 50
0.0
 51
53.800364000000002
  0
LINE
  5
61
  8
0
  6
CONTINUOUS
 62
     7
 10
83.866225999999997
 20
-106.08864800000001
 30
0.0
 11
83.866225999999997
 21
-106.056209
 31
0.0
  0
LINE
  5
62
  8
0
  6
CONTINUOUS
 62
     7
 10
86.550461999999996
 20
-106.08862499999999
 30
0.0
 11
86.550461999999996
 21
-106.056209
 31
0.0
  0
LINE
  5
63
  8
0
  6
CONTINUOUS
 62
     7
 10
83.878345999999993
 20
-106.11142100000001
 30
0.0
 11
84.191280000000006
 21
-106.322103
 31
0.0
  0
LINE
  5
64
  8
0
  6
CONTINUOUS
 62
     7
 10
86.225472999999994
 20
-106.322097
 30
0.0
 11
86.538343999999995
 21
-106.111395
 31
0.0
  0
ARC
  5
65
  8
0
  6
CONTINUOUS
 62
     7
 10
86.481048000000001
 20
-106.701598
 30
0.0
 40
0.457536
 50
123.958257
 51
180.0
  0
ARC
  5
66
  8
0
  6
CONTINUOUS
 62
     7
 10
83.935757999999979
 20
-106.701639
 30
0.0
 40
0.457536
 50
0.0
 51
56.049668999999987
  0
ARC
  5
67
  8
0
  6
CONTINUOUS
 62
     7
 10
86.523009999999985
 20
-106.08862499999999
 30
0.0
 40
0.027452
 50
303.958257
 51
0.0
  0
ARC
  5
68
  8
0
  6
CONTINUOUS
 62
     7
 10
83.893677999999994
 20
-106.08864800000001
 30
0.0
 40
0.027452
 50
180.0
 51
236.04966899999999
  0
ARC
  5
69
  8
0
  6
CONTINUOUS
 62
     7
 10
86.532160000000005
 20
-106.056209
 30
0.0
 40
0.018302
 50
0.0
 51
90.0
  0
ARC
  5
6A
  8
0
  6
CONTINUOUS
 62
     7
 10
83.884527000000006
 20
-106.056209
 30
0.0
 40
0.018302
 50
90.0
 51
180.0
  0
LINE
  5
6B
  8
0
  6
CONTINUOUS
 62
     7
 10
89.477140000000006
 20
-109.711833
 30
0.0
 11
89.504866000000007
 21
-109.67594
 31
0.0
  0
LINE
  5
6C
  8
0
  6
CONTINUOUS
 62
     7
 10
88.649365000000003
 20
-110.00261500000001
 30
0.0
 11
89.213026999999997
 21
-109.879053
 31
0.0
  0
ARC
  5
6D
  8
0
  6
CONTINUOUS
 62
     7
 10
89.142781999999997
 20
-109.396237
 30
0.0
 40
0.457536
 50
322.31462499999998
 51
0.0
  0
ARC
  5
6E
  8
0
  6
CONTINUOUS
 62
     7
 10
89.11505600000001
 20
-109.432129
 30
0.0
 40
0.457536
 50
282.36435499999999
 51
322.31462499999998
  0
ARC
  5
6F
  8
0
  6
CONTINUOUS
 62
     7
 10
88.174495999999991
 20
-101.426867
 30
0.0
 40
8.6593029999999995
 50
262.03414800000002
 51
264.34846599999997
  0
LINE
  5
70
  8
0
  6
CONTINUOUS
 62
     7
 10
86.974465000000009
 20
-110.00261500000001
 30
0.0
 11
86.410803000000001
 21
-109.879053
 31
0.0
  0
ARC
  5
71
  8
0
  6
CONTINUOUS
 62
     7
 10
86.508774000000003
 20
-109.432129
 30
0.0
 40
0.457536
 50
217.68537499999999
 51
257.63564500000001
  0
ARC
  5
72
  8
0
  6
CONTINUOUS
 62
     7
 10
86.481048000000001
 20
-109.396237
 30
0.0
 40
0.457536
 50
180.0
 51
217.68537499999999
  0
LINE
  5
73
  8
0
  6
CONTINUOUS
 62
     7
 10
86.146688999999995
 20
-109.711833
 30
0.0
 11
86.118962999999994
 21
-109.67594
 31
0.0
  0
LINE
  5
74
  8
0
  6
CONTINUOUS
 62
     7
 10
95.654471999999984
 20
-106.084996
 30
0.0
 11
95.654471999999984
 21
-106.056209
 31
0.0
  0
LINE
  5
75
  8
0
  6
CONTINUOUS
 62
     7
 10
98.657842000000002
 20
-106.083082
 30
0.0
 11
98.657842000000002
 21
-106.056209
 31
0.0
  0
LINE
  5
76
  8
0
  6
CONTINUOUS
 62
     7
 10
95.669646999999983
 20
-106.10955
 30
0.0
 11
96.246472999999995
 21
-106.397963
 31
0.0
  0
LINE
  5
77
  8
0
  6
CONTINUOUS
 62
     7
 10
98.444805000000017
 20
-106.22483699999999
 30
0.0
 11
98.644373999999985
 21
-106.106706
 31
0.0
  0
ARC
  5
78
  8
0
  6
CONTINUOUS
 62
     7
 10
96.041856999999993
 20
-106.807196
 30
0.0
 40
0.457536
 50
30.674541000000001
 51
63.434963000000003
  0
ARC
  5
79
  8
0
  6
CONTINUOUS
 62
     7
 10
98.677865000000011
 20
-106.618565
 30
0.0
 40
0.457536
 50
120.622597
 51
210.674541
  0
ARC
  5
7A
  8
0
  6
CONTINUOUS
 62
     7
 10
95.681923999999995
 20
-106.084996
 30
0.0
 40
0.027452
 50
180.0
 51
243.43496300000001
  0
ARC
  5
7B
  8
0
  6
CONTINUOUS
 62
     7
 10
95.672774000000004
 20
-106.056209
 30
0.0
 40
0.018302
 50
90.0
 51
180.0
  0
ARC
  5
7C
  8
0
  6
CONTINUOUS
 62
     7
 10
98.639540999999994
 20
-106.056209
 30
0.0
 40
0.018302
 50
0.0
 51
90.0
  0
ARC
  5
7D
  8
0
  6
CONTINUOUS
 62
     7
 10
98.630390000000006
 20
-106.083082
 30
0.0
 40
0.027452
 50
300.62259699999998
 51
0.0
  0
LINE
  5
7E
  8
0
  6
CONTINUOUS
 62
     7
 10
103.556072
 20
-106.08574400000001
 30
0.0
 11
103.556072
 21
-106.056209
 31
0.0
  0
LINE
  5
7F
  8
0
  6
CONTINUOUS
 62
     7
 10
101.800078
 20
-106.087878
 30
0.0
 11
101.800078
 21
-106.056209
 31
0.0
  0
LINE
  5
80
  8
0
  6
CONTINUOUS
 62
     7
 10
103.020993
 20
-106.396753
 30
0.0
 11
103.541867
 21
-106.10978900000001
 31
0.0
  0
LINE
  5
81
  8
0
  6
CONTINUOUS
 62
     7
 10
101.811519
 20
-106.110178
 30
0.0
 11
101.959048
 21
-106.216105
 31
0.0
  0
ARC
  5
82
  8
0
  6
CONTINUOUS
 62
     7
 10
103.52862
 20
-106.08574400000001
 30
0.0
 40
0.027452
 50
298.85160000000002
 51
0.0
  0
ARC
  5
83
  8
0
  6
CONTINUOUS
 62
     7
 10
101.82753
 20
-106.087878
 30
0.0
 40
0.027452
 50
180.0
 51
234.32124099999999
  0
ARC
  5
84
  8
0
  6
CONTINUOUS
 62
     7
 10
103.53777100000001
 20
-106.056209
 30
0.0
 40
0.018302
 50
0.0
 51
90.0
  0
ARC
  5
85
  8
0
  6
CONTINUOUS
 62
     7
 10
101.81837899999999
 20
-106.056209
 30
0.0
 40
0.018302
 50
90.0
 51
180.0
  0
ARC
  5
86
  8
0
  6
CONTINUOUS
 62
     7
 10
103.24177400000001
 20
-106.797496
 30
0.0
 40
0.457536
 50
118.8516
 51
149.91296199999999
  0
ARC
  5
87
  8
0
  6
CONTINUOUS
 62
     7
 10
101.692195
 20
-106.587762
 30
0.0
 40
0.457536
 50
329.91296199999999
 51
54.321241000000001
  0
LINE
  5
88
  8
0
  6
CONTINUOUS
 62
     7
 10
103.546639
 20
-110.526144
 30
0.0
 11
103.546639
 21
-110.474456
 31
0.0
  0
LINE
  5
89
  8
0
  6
CONTINUOUS
 62
     7
 10
101.757291
 20
-110.526144
 30
0.0
 11
101.757291
 21
-110.476377
 31
0.0
  0
LINE
  5
8A
  8
0
  6
CONTINUOUS
 62
     7
 10
101.770179
 20
-110.453107
 30
0.0
 11
102.329465
 21
-110.103069
 31
0.0
  0
LINE
  5
8B
  8
0
  6
CONTINUOUS
 62
     7
 10
103.333038
 20
-110.292129
 30
0.0
 11
103.53622300000001
 21
-110.45292999999999
 31
0.0
  0
ARC
  5
8C
  8
0
  6
CONTINUOUS
 62
     7
 10
103.616973
 20
-109.933353
 30
0.0
 40
0.457536
 50
149.3600439999999
 51
231.64187200000001
  0
ARC
  5
8D
  8
0
  6
CONTINUOUS
 62
     7
 10
102.08673
 20
-109.715231
 30
0.0
 40
0.457536
 50
302.04103199999997
 51
329.36004400000002
  0
ARC
  5
8E
  8
0
  6
CONTINUOUS
 62
     7
 10
103.519187
 20
-110.474456
 30
0.0
 40
0.027452
 50
0.0
 51
51.641871999999999
  0
ARC
  5
8F
  8
0
  6
CONTINUOUS
 62
     7
 10
101.78474300000001
 20
-110.476377
 30
0.0
 40
0.027452
 50
122.041032
 51
180.0
  0
ARC
  5
90
  8
0
  6
CONTINUOUS
 62
     7
 10
103.52833800000001
 20
-110.526144
 30
0.0
 40
0.018302
 50
270.0
 51
0.0
  0
ARC
  5
91
  8
0
  6
CONTINUOUS
 62
     7
 10
101.775592
 20
-110.526144
 30
0.0
 40
0.018302
 50
180.0
 51
270.0
  0
LINE
  5
92
  8
0
  6
CONTINUOUS
 62
     7
 10
106.65119799999999
 20
-110.526144
 30
0.0
 11
106.65119799999999
 21
-110.473889
 31
0.0
  0
LINE
  5
93
  8
0
  6
CONTINUOUS
 62
     7
 10
109.12263299999999
 20
-110.10285
 30
0.0
 11
109.75691500000001
 21
-110.45334
 31
0.0
  0
LINE
  5
94
  8
0
  6
CONTINUOUS
 62
     7
 10
106.660898
 20
-110.45295
 30
0.0
 11
106.85358100000001
 21
-110.289591
 31
0.0
  0
ARC
  5
95
  8
0
  6
CONTINUOUS
 62
     7
 10
106.6695
 20
-110.526144
 30
0.0
 40
0.018302
 50
180.0
 51
270.0
  0
LINE
  5
96
  8
0
  6
CONTINUOUS
 62
     7
 10
109.77109
 20
-110.526144
 30
0.0
 11
109.77109
 21
-110.477368
 31
0.0
  0
ARC
  5
97
  8
0
  6
CONTINUOUS
 62
     7
 10
109.752788
 20
-110.526144
 30
0.0
 40
0.018302
 50
270.0
 51
0.0
  0
ARC
  5
98
  8
0
  6
CONTINUOUS
 62
     7
 10
109.743638
 20
-110.477368
 30
0.0
 40
0.027452
 50
0.0
 51
61.075906999999987
  0
ARC
  5
99
  8
0
  6
CONTINUOUS
 62
     7
 10
106.678651
 20
-110.473889
 30
0.0
 40
0.027452
 50
130.29155499999999
 51
180.0
  0
ARC
  5
9A
  8
0
  6
CONTINUOUS
 62
     7
 10
109.34392
 20
-109.702386
 30
0.0
 40
0.457536
 50
211.32869299999999
 51
241.075907
  0
ARC
  5
9B
  8
0
  6
CONTINUOUS
 62
     7
 10
106.557703
 20
-109.94059900000001
 30
0.0
 40
0.457536
 50
310.29155500000002
 51
29.661659
  0
ARC
  5
9C
  8
0
  6
CONTINUOUS
 62
     7
 10
89.661500000000004
 20
-109.99991
 30
0.0
 40
0.457536
 50
284.468842
 51
305.13530900000001
  0
LINE
  5
9D
  8
0
  6
CONTINUOUS
 62
     7
 10
84.471841999999995
 20
-109.71681100000001
 30
0.0
 11
84.428714999999997
 21
-109.613679
 31
0.0
  0
LINE
  5
9E
  8
0
  6
CONTINUOUS
 62
     7
 10
85.410133000000016
 20
-110.446759
 30
0.0
 11
86.030171999999993
 21
-110.62551499999999
 31
0.0
  0
LINE
  5
9F
  8
0
  6
CONTINUOUS
 62
     7
 10
84.625128000000004
 20
-109.910524
 30
0.0
 11
85.268049000000005
 21
-110.377358
 31
0.0
  0
ARC
  5
A0
  8
0
  6
CONTINUOUS
 62
     7
 10
86.156917000000007
 20
-110.185885
 30
0.0
 40
0.457536
 50
253.91780800000001
 51
261.60641900000002
  0
ARC
  5
A1
  8
0
  6
CONTINUOUS
 62
     7
 10
85.536878000000002
 20
-110.00712900000001
 30
0.0
 40
0.457536
 50
234.01604900000009
 51
253.91780800000001
  0
ARC
  5
A2
  8
0
  6
CONTINUOUS
 62
     7
 10
84.850830000000016
 20
-109.437163
 30
0.0
 40
0.457536
 50
180.0
 51
202.69327799999999
  0
ARC
  5
A3
  8
0
  6
CONTINUOUS
 62
     7
 10
84.893957000000015
 20
-109.540294
 30
0.0
 40
0.457536
 50
202.69327799999999
 51
234.01604900000009
  0
LINE
  5
A4
  8
0
  6
CONTINUOUS
 62
     7
 10
96.802194
 20
-109.631714
 30
0.0
 11
97.116710999999995
 21
-109.153333
 31
0.0
  0
ARC
  5
A5
  8
0
  6
CONTINUOUS
 62
     7
 10
96.037576000000016
 20
-109.129007
 30
0.0
 40
0.9150719999999999
 50
270.0
 51
326.67665399999998
  0
ARC
  5
A6
  8
0
  6
CONTINUOUS
 62
     7
 10
97.124357000000003
 20
-109.15836
 30
0.0
 40
0.00915
 50
350.26092
 51
146.67665400000001
  0
POLYLINE
  5
A7
  8
0
  6
CONTINUOUS
 62
     7
 10
115.20165878537455
 20
-106.28861565982095
 30
0.0
 66
     1
 70
     8
  0
VERTEX
  8
0
  5
79E
 10
115.202
 20
-106.289
 30
0.000000
  70
    32
  0
VERTEX
  8
0
  5
79F
 10
115.110
 20
-106.216
 30
0.000000
  70
    32
  0
VERTEX
  8
0
  5
7A0
 10
115.015
 20
-106.147
 30
0.000000
  70
    32
  0
VERTEX
  8
0
  5
7A1
 10
114.916
 20
-106.080
 30
0.000000
  70
    32
  0
VERTEX
  8
0
  5
7A2
 10
114.814
 20
-106.017
 30
0.000000
  70
    32
  0
VERTEX
  8
0
  5
7A3
 10
114.709
 20
-105.958
 30
0.000000
  70
    32
  0
VERTEX
  8
0
  5
7A4
 10
114.601
 20
-105.901
 30
0.000000
  70
    32
  0
VERTEX
  8
0
  5
7A5
 10
114.490
 20
-105.849
 30
0.000000
  70
    32
  0
VERTEX
  8
0
  5
7A6
 10
114.377
 20
-105.800
 30
0.000000
  70
    32
  0
VERTEX
  8
0
  5
7A7
 10
114.261
 20
-105.754
 30
0.000000
  70
    32
  0
VERTEX
  8
0
  5
7A8
 10
114.143
 20
-105.713
 30
0.000000
  70
    32
  0
VERTEX
  8
0
  5
7A9
 10
114.023
 20
-105.675
 30
0.000000
  70
    32
  0
VERTEX
  8
0
  5
7AA
 10
113.901
 20
-105.641
 30
0.000000
  70
    32
  0
VERTEX
  8
0
  5
7AB
 10
113.778
 20
-105.612
 30
0.000000
  70
    32
  0
VERTEX
  8
0
  5
7AC
 10
113.653
 20
-105.586
 30
0.000000
  70
    32
  0
VERTEX
  8
0
  5
7AD
 10
113.527
 20
-105.564
 30
0.000000
  70
    32
  0
VERTEX
  8
0
  5
7AE
 10
113.400
 20
-105.547
 30
0.000000
  70
    32
  0
VERTEX
  8
0
  5
7AF
 10
113.272
 20
-105.534
 30
0.000000
  70
    32
  0
VERTEX
  8
0
  5
7B0
 10
113.143
 20
-105.524
 30
0.000000
  70
    32
  0
VERTEX
  8
0
  5
7B1
 10
113.015
 20
-105.519
 30
0.000000
  70
    32
  0
VERTEX
  8
0
  5
7B2
 10
112.886
 20
-105.519
 30
0.000000
  70
    32
  0
VERTEX
  8
0
  5
7B3
 10
112.757
 20
-105.522
 30
0.000000
  70
    32
  0
VERTEX
  8
0
  5
7B4
 10
112.628
 20
-105.529
 30
0.000000
  70
    32
  0
VERTEX
  8
0
  5
7B5
 10
112.500
 20
-105.541
 30
0.000000
  70
    32
  0
VERTEX
  8
0
  5
7B6
 10
112.373
 20
-105.557
 30
0.000000
  70
    32
  0
VERTEX
  8
0
  5
7B7
 10
112.246
 20
-105.577
 30
0.000000
  70
    32
  0
VERTEX
  8
0
  5
7B8
 10
112.121
 20
-105.601
 30
0.000000
  70
    32
  0
VERTEX
  8
0
  5
7B9
 10
111.997
 20
-105.629
 30
0.000000
  70
    32
  0
VERTEX
  8
0
  5
7BA
 10
111.875
 20
-105.661
 30
0.000000
  70
    32
  0
VERTEX
  8
0
  5
7BB
 10
111.754
 20
-105.698
 30
0.000000
  70
    32
  0
VERTEX
  8
0
  5
7BC
 10
111.635
 20
-105.738
 30
0.000000
  70
    32
  0
VERTEX
  8
0
  5
7BD
 10
111.518
 20
-105.781
 30
0.000000
  70
    32
  0
VERTEX
  8
0
  5
7BE
 10
111.404
 20
-105.829
 30
0.000000
  70
    32
  0
VERTEX
  8
0
  5
7BF
 10
111.292
 20
-105.880
 30
0.000000
  70
    32
  0
VERTEX
  8
0
  5
7C0
 10
111.183
 20
-105.935
 30
0.000000
  70
    32
  0
VERTEX
  8
0
  5
7C1
 10
111.077
 20
-105.993
 30
0.000000
  70
    32
  0
VERTEX
  8
0
  5
7C2
 10
110.973
 20
-106.055
 30
0.000000
  70
    32
  0
VERTEX
  8
0
  5
7C3
 10
110.873
 20
-106.120
 30
0.000000
  70
    32
  0
VERTEX
  8
0
  5
7C4
 10
110.777
 20
-106.188
 30
0.000000
  70
    32
  0
VERTEX
  8
0
  5
7C5
 10
110.684
 20
-106.260
 30
0.000000
  70
    32
  0
VERTEX
  8
0
  5
7C6
 10
110.594
 20
-106.334
 30
0.000000
  70
    32
  0
VERTEX
  8
0
  5
7C7
 10
110.509
 20
-106.411
 30
0.000000
  70
    32
  0
VERTEX
  8
0
  5
7C8
 10
110.427
 20
-106.491
 30
0.000000
  70
    32
  0
VERTEX
  8
0
  5
7C9
 10
110.350
 20
-106.573
 30
0.000000
  70
    32
  0
VERTEX
  8
0
  5
7CA
 10
110.277
 20
-106.658
 30
0.000000
  70
    32
  0
VERTEX
  8
0
  5
7CB
 10
110.208
 20
-106.746
 30
0.000000
  70
    32
  0
VERTEX
  8
0
  5
7CC
 10
110.143
 20
-106.835
 30
0.000000
  70
    32
  0
VERTEX
  8
0
  5
7CD
 10
110.084
 20
-106.926
 30
0.000000
  70
    32
  0
VERTEX
  8
0
  5
7CE
 10
110.029
 20
-107.019
 30
0.000000
  70
    32
  0
VERTEX
  8
0
  5
7CF
 10
109.978
 20
-107.114
 30
0.000000
  70
    32
  0
VERTEX
  8
0
  5
7D0
 10
109.933
 20
-107.211
 30
0.000000
  70
    32
  0
VERTEX
  8
0
  5
7D1
 10
109.893
 20
-107.309
 30
0.000000
  70
    32
  0
VERTEX
  8
0
  5
7D2
 10
109.857
 20
-107.408
 30
0.000000
  70
    32
  0
VERTEX
  8
0
  5
7D3
 10
109.827
 20
-107.508
 30
0.000000
  70
    32
  0
VERTEX
  8
0
  5
7D4
 10
109.801
 20
-107.609
 30
0.000000
  70
    32
  0
VERTEX
  8
0
  5
7D5
 10
109.781
 20
-107.711
 30
0.000000
  70
    32
  0
VERTEX
  8
0
  5
7D6
 10
109.766
 20
-107.814
 30
0.000000
  70
    32
  0
VERTEX
  8
0
  5
7D7
 10
109.757
 20
-107.916
 30
0.000000
  70
    32
  0
VERTEX
  8
0
  5
7D8
 10
109.752
 20
-108.019
 30
0.000000
  70
    32
  0
VERTEX
  8
0
  5
7D9
 10
109.753
 20
-108.122
 30
0.000000
  70
    32
  0
VERTEX
  8
0
  5
7DA
 10
109.759
 20
-108.225
 30
0.000000
  70
    32
  0
VERTEX
  8
0
  5
7DB
 10
109.770
 20
-108.328
 30
0.000000
  70
    32
  0
VERTEX
  8
0
  5
7DC
 10
109.787
 20
-108.430
 30
0.000000
  70
    32
  0
VERTEX
  8
0
  5
7DD
 10
109.808
 20
-108.532
 30
0.000000
  70
    32
  0
VERTEX
  8
0
  5
7DE
 10
109.835
 20
-108.633
 30
0.000000
  70
    32
  0
VERTEX
  8
0
  5
7DF
 10
109.867
 20
-108.733
 30
0.000000
  70
    32
  0
VERTEX
  8
0
  5
7E0
 10
109.904
 20
-108.832
 30
0.000000
  70
    32
  0
VERTEX
  8
0
  5
7E1
 10
109.946
 20
-108.929
 30
0.000000
  70
    32
  0
VERTEX
  8
0
  5
7E2
 10
109.992
 20
-109.025
 30
0.000000
  70
    32
  0
VERTEX
  8
0
  5
7E3
 10
110.044
 20
-109.120
 30
0.000000
  70
    32
  0
VERTEX
  8
0
  5
7E4
 10
110.100
 20
-109.212
 30
0.000000
  70
    32
  0
VERTEX
  8
0
  5
7E5
 10
110.162
 20
-109.303
 30
0.000000
  70
    32
  0
VERTEX
  8
0
  5
7E6
 10
110.227
 20
-109.392
 30
0.000000
  70
    32
  0
VERTEX
  8
0
  5
7E7
 10
110.297
 20
-109.479
 30
0.000000
  70
    32
  0
VERTEX
  8
0
  5
7E8
 10
110.372
 20
-109.563
 30
0.000000
  70
    32
  0
VERTEX
  8
0
  5
7E9
 10
110.450
 20
-109.644
 30
0.000000
  70
    32
  0
VERTEX
  8
0
  5
7EA
 10
110.533
 20
-109.724
 30
0.000000
  70
    32
  0
VERTEX
  8
0
  5
7EB
 10
110.620
 20
-109.800
 30
0.000000
  70
    32
  0
VERTEX
  8
0
  5
7EC
 10
110.710
 20
-109.873
 30
0.000000
  70
    32
  0
VERTEX
  8
0
  5
7ED
 10
110.804
 20
-109.944
 30
0.000000
  70
    32
  0
VERTEX
  8
0
  5
7EE
 10
110.902
 20
-110.011
 30
0.000000
  70
    32
  0
VERTEX
  8
0
  5
7EF
 10
111.003
 20
-110.075
 30
0.000000
  70
    32
  0
VERTEX
  8
0
  5
7F0
 10
111.107
 20
-110.136
 30
0.000000
  70
    32
  0
VERTEX
  8
0
  5
7F1
 10
111.214
 20
-110.193
 30
0.000000
  70
    32
  0
VERTEX
  8
0
  5
7F2
 10
111.324
 20
-110.247
 30
0.000000
  70
    32
  0
VERTEX
  8
0
  5
7F3
 10
111.437
 20
-110.297
 30
0.000000
  70
    32
  0
VERTEX
  8
0
  5
7F4
 10
111.552
 20
-110.344
 30
0.000000
  70
    32
  0
VERTEX
  8
0
  5
7F5
 10
111.669
 20
-110.387
 30
0.000000
  70
    32
  0
VERTEX
  8
0
  5
7F6
 10
111.788
 20
-110.425
 30
0.000000
  70
    32
  0
VERTEX
  8
0
  5
7F7
 10
111.910
 20
-110.460
 30
0.000000
  70
    32
  0
VERTEX
  8
0
  5
7F8
 10
112.033
 20
-110.491
 30
0.000000
  70
    32
  0
VERTEX
  8
0
  5
7F9
 10
112.157
 20
-110.518
 30
0.000000
  70
    32
  0
VERTEX
  8
0
  5
7FA
 10
112.283
 20
-110.541
 30
0.000000
  70
    32
  0
VERTEX
  8
0
  5
7FB
 10
112.410
 20
-110.560
 30
0.000000
  70
    32
  0
VERTEX
  8
0
  5
7FC
 10
112.537
 20
-110.575
 30
0.000000
  70
    32
  0
VERTEX
  8
0
  5
7FD
 10
112.665
 20
-110.585
 30
0.000000
  70
    32
  0
VERTEX
  8
0
  5
7FE
 10
112.794
 20
-110.592
 30
0.000000
  70
    32
  0
VERTEX
  8
0
  5
7FF
 10
112.923
 20
-110.594
 30
0.000000
  70
    32
  0
VERTEX
  8
0
  5
800
 10
113.052
 20
-110.592
 30
0.000000
  70
    32
  0
VERTEX
  8
0
  5
801
 10
113.180
 20
-110.586
 30
0.000000
  70
    32
  0
VERTEX
  8
0
  5
802
 10
113.309
 20
-110.575
 30
0.000000
  70
    32
  0
VERTEX
  8
0
  5
803
 10
113.436
 20
-110.561
 30
0.000000
  70
    32
  0
VERTEX
  8
0
  5
804
 10
113.563
 20
-110.542
 30
0.000000
  70
    32
  0
VERTEX
  8
0
  5
805
 10
113.689
 20
-110.519
 30
0.000000
  70
    32
  0
VERTEX
  8
0
  5
806
 10
113.813
 20
-110.492
 30
0.000000
  70
    32
  0
VERTEX
  8
0
  5
807
 10
113.936
 20
-110.461
 30
0.000000
  70
    32
  0
VERTEX
  8
0
  5
808
 10
114.058
 20
-110.427
 30
0.000000
  70
    32
  0
VERTEX
  8
0
  5
809
 10
114.177
 20
-110.388
 30
0.000000
  70
    32
  0
VERTEX
  8
0
  5
80A
 10
114.294
 20
-110.345
 30
0.000000
  70
    32
  0
VERTEX
  8
0
  5
80B
 10
114.410
 20
-110.299
 30
0.000000
  70
    32
  0
VERTEX
  8
0
  5
80C
 10
114.522
 20
-110.249
 30
0.000000
  70
    32
  0
VERTEX
  8
0
  5
80D
 10
114.632
 20
-110.195
 30
0.000000
  70
    32
  0
VERTEX
  8
0
  5
80E
 10
114.740
 20
-110.138
 30
0.000000
  70
    32
  0
VERTEX
  8
0
  5
80F
 10
114.844
 20
-110.077
 30
0.000000
  70
    32
  0
VERTEX
  8
0
  5
810
 10
114.945
 20
-110.013
 30
0.000000
  70
    32
  0
VERTEX
  8
0
  5
811
 10
115.043
 20
-109.946
 30
0.000000
  70
    32
  0
VERTEX
  8
0
  5
812
 10
115.137
 20
-109.875
 30
0.000000
  70
    32
  0
VERTEX
  8
0
  5
813
 10
115.227
 20
-109.802
 30
0.000000
  70
    32
  0
VERTEX
  8
0
  5
814
 10
115.314
 20
-109.726
 30
0.000000
  70
    32
  0
VERTEX
  8
0
  5
815
 10
115.397
 20
-109.647
 30
0.000000
  70
    32
  0
VERTEX
  8
0
  5
816
 10
115.476
 20
-109.565
 30
0.000000
  70
    32
  0
VERTEX
  8
0
  5
817
 10
115.550
 20
-109.481
 30
0.000000
  70
    32
  0
VERTEX
  8
0
  5
818
 10
115.620
 20
-109.395
 30
0.000000
  70
    32
  0
VERTEX
  8
0
  5
819
 10
115.686
 20
-109.306
 30
0.000000
  70
    32
  0
VERTEX
  8
0
  5
81A
 10
115.747
 20
-109.215
 30
0.000000
  70
    32
  0
VERTEX
  8
0
  5
81B
 10
115.804
 20
-109.123
 30
0.000000
  70
    32
  0
VERTEX
  8
0
  5
81C
 10
115.856
 20
-109.028
 30
0.000000
  70
    32
  0
VERTEX
  8
0
  5
81D
 10
115.903
 20
-108.932
 30
0.000000
  70
    32
  0
VERTEX
  8
0
  5
81E
 10
115.945
 20
-108.835
 30
0.000000
  70
    32
  0
SEQEND
  8
0
  5
81F
  0
POLYLINE
  5
A8
  8
0
  6
CONTINUOUS
 62
     7
 10
115.39796229050266
 20
-107.34890552914115
 30
0.0
 66
     1
 70
     8
  0
VERTEX
  8
0
  5
820
 10
115.398
 20
-107.349
 30
0.000000
  70
    32
  0
VERTEX
  8
0
  5
821
 10
115.355
 20
-107.287
 30
0.000000
  70
    32
  0
VERTEX
  8
0
  5
822
 10
115.309
 20
-107.227
 30
0.000000
  70
    32
  0
VERTEX
  8
0
  5
823
 10
115.259
 20
-107.168
 30
0.000000
  70
    32
  0
VERTEX
  8
0
  5
824
 10
115.206
 20
-107.111
 30
0.000000
  70
    32
  0
VERTEX
  8
0
  5
825
 10
115.150
 20
-107.055
 30
0.000000
  70
    32
  0
VERTEX
  8
0
  5
826
 10
115.090
 20
-107.001
 30
0.000000
  70
    32
  0
VERTEX
  8
0
  5
827
 10
115.028
 20
-106.949
 30
0.000000
  70
    32
  0
VERTEX
  8
0
  5
828
 10
114.962
 20
-106.899
 30
0.000000
  70
    32
  0
VERTEX
  8
0
  5
829
 10
114.893
 20
-106.850
 30
0.000000
  70
    32
  0
VERTEX
  8
0
  5
82A
 10
114.822
 20
-106.804
 30
0.000000
  70
    32
  0
VERTEX
  8
0
  5
82B
 10
114.749
 20
-106.760
 30
0.000000
  70
    32
  0
VERTEX
  8
0
  5
82C
 10
114.672
 20
-106.719
 30
0.000000
  70
    32
  0
VERTEX
  8
0
  5
82D
 10
114.594
 20
-106.680
 30
0.000000
  70
    32
  0
VERTEX
  8
0
  5
82E
 10
114.513
 20
-106.643
 30
0.000000
  70
    32
  0
VERTEX
  8
0
  5
82F
 10
114.430
 20
-106.608
 30
0.000000
  70
    32
  0
VERTEX
  8
0
  5
830
 10
114.345
 20
-106.576
 30
0.000000
  70
    32
  0
VERTEX
  8
0
  5
831
 10
114.259
 20
-106.547
 30
0.000000
  70
    32
  0
VERTEX
  8
0
  5
832
 10
114.171
 20
-106.520
 30
0.000000
  70
    32
  0
VERTEX
  8
0
  5
833
 10
114.081
 20
-106.496
 30
0.000000
  70
    32
  0
VERTEX
  8
0
  5
834
 10
113.990
 20
-106.475
 30
0.000000
  70
    32
  0
VERTEX
  8
0
  5
835
 10
113.898
 20
-106.457
 30
0.000000
  70
    32
  0
VERTEX
  8
0
  5
836
 10
113.805
 20
-106.441
 30
0.000000
  70
    32
  0
VERTEX
  8
0
  5
837
 10
113.711
 20
-106.428
 30
0.000000
  70
    32
  0
VERTEX
  8
0
  5
838
 10
113.616
 20
-106.418
 30
0.000000
  70
    32
  0
VERTEX
  8
0
  5
839
 10
113.521
 20
-106.411
 30
0.000000
  70
    32
  0
VERTEX
  8
0
  5
83A
 10
113.426
 20
-106.407
 30
0.000000
  70
    32
  0
VERTEX
  8
0
  5
83B
 10
113.330
 20
-106.405
 30
0.000000
  70
    32
  0
VERTEX
  8
0
  5
83C
 10
113.235
 20
-106.407
 30
0.000000
  70
    32
  0
VERTEX
  8
0
  5
83D
 10
113.139
 20
-106.411
 30
0.000000
  70
    32
  0
VERTEX
  8
0
  5
83E
 10
113.044
 20
-106.418
 30
0.000000
  70
    32
  0
VERTEX
  8
0
  5
83F
 10
112.950
 20
-106.428
 30
0.000000
  70
    32
  0
VERTEX
  8
0
  5
840
 10
112.856
 20
-106.441
 30
0.000000
  70
    32
  0
VERTEX
  8
0
  5
841
 10
112.763
 20
-106.457
 30
0.000000
  70
    32
  0
VERTEX
  8
0
  5
842
 10
112.670
 20
-106.475
 30
0.000000
  70
    32
  0
VERTEX
  8
0
  5
843
 10
112.580
 20
-106.497
 30
0.000000
  70
    32
  0
VERTEX
  8
0
  5
844
 10
112.490
 20
-106.521
 30
0.000000
  70
    32
  0
VERTEX
  8
0
  5
845
 10
112.402
 20
-106.547
 30
0.000000
  70
    32
  0
VERTEX
  8
0
  5
846
 10
112.315
 20
-106.577
 30
0.000000
  70
    32
  0
VERTEX
  8
0
  5
847
 10
112.230
 20
-106.609
 30
0.000000
  70
    32
  0
VERTEX
  8
0
  5
848
 10
112.148
 20
-106.643
 30
0.000000
  70
    32
  0
VERTEX
  8
0
  5
849
 10
112.067
 20
-106.680
 30
0.000000
  70
    32
  0
VERTEX
  8
0
  5
84A
 10
111.988
 20
-106.719
 30
0.000000
  70
    32
  0
VERTEX
  8
0
  5
84B
 10
111.912
 20
-106.761
 30
0.000000
  70
    32
  0
VERTEX
  8
0
  5
84C
 10
111.838
 20
-106.805
 30
0.000000
  70
    32
  0
VERTEX
  8
0
  5
84D
 10
111.767
 20
-106.851
 30
0.000000
  70
    32
  0
VERTEX
  8
0
  5
84E
 10
111.699
 20
-106.899
 30
0.000000
  70
    32
  0
VERTEX
  8
0
  5
84F
 10
111.633
 20
-106.949
 30
0.000000
  70
    32
  0
VERTEX
  8
0
  5
850
 10
111.571
 20
-107.002
 30
0.000000
  70
    32
  0
VERTEX
  8
0
  5
851
 10
111.511
 20
-107.056
 30
0.000000
  70
    32
  0
VERTEX
  8
0
  5
852
 10
111.455
 20
-107.111
 30
0.000000
  70
    32
  0
VERTEX
  8
0
  5
853
 10
111.402
 20
-107.169
 30
0.000000
  70
    32
  0
VERTEX
  8
0
  5
854
 10
111.352
 20
-107.228
 30
0.000000
  70
    32
  0
VERTEX
  8
0
  5
855
 10
111.306
 20
-107.288
 30
0.000000
  70
    32
  0
VERTEX
  8
0
  5
856
 10
111.263
 20
-107.350
 30
0.000000
  70
    32
  0
VERTEX
  8
0
  5
857
 10
111.224
 20
-107.413
 30
0.000000
  70
    32
  0
VERTEX
  8
0
  5
858
 10
111.189
 20
-107.477
 30
0.000000
  70
    32
  0
VERTEX
  8
0
  5
859
 10
111.157
 20
-107.542
 30
0.000000
  70
    32
  0
VERTEX
  8
0
  5
85A
 10
111.129
 20
-107.608
 30
0.000000
  70
    32
  0
VERTEX
  8
0
  5
85B
 10
111.105
 20
-107.675
 30
0.000000
  70
    32
  0
VERTEX
  8
0
  5
85C
 10
111.085
 20
-107.742
 30
0.000000
  70
    32
  0
VERTEX
  8
0
  5
85D
 10
111.069
 20
-107.810
 30
0.000000
  70
    32
  0
VERTEX
  8
0
  5
85E
 10
111.056
 20
-107.878
 30
0.000000
  70
    32
  0
VERTEX
  8
0
  5
85F
 10
111.048
 20
-107.947
 30
0.000000
  70
    32
  0
VERTEX
  8
0
  5
860
 10
111.044
 20
-108.016
 30
0.000000
  70
    32
  0
VERTEX
  8
0
  5
861
 10
111.043
 20
-108.085
 30
0.000000
  70
    32
  0
VERTEX
  8
0
  5
862
 10
111.047
 20
-108.154
 30
0.000000
  70
    32
  0
VERTEX
  8
0
  5
863
 10
111.055
 20
-108.223
 30
0.000000
  70
    32
  0
VERTEX
  8
0
  5
864
 10
111.066
 20
-108.291
 30
0.000000
  70
    32
  0
VERTEX
  8
0
  5
865
 10
111.082
 20
-108.359
 30
0.000000
  70
    32
  0
VERTEX
  8
0
  5
866
 10
111.102
 20
-108.427
 30
0.000000
  70
    32
  0
VERTEX
  8
0
  5
867
 10
111.125
 20
-108.494
 30
0.000000
  70
    32
  0
VERTEX
  8
0
  5
868
 10
111.152
 20
-108.560
 30
0.000000
  70
    32
  0
VERTEX
  8
0
  5
869
 10
111.183
 20
-108.625
 30
0.000000
  70
    32
  0
VERTEX
  8
0
  5
86A
 10
111.218
 20
-108.689
 30
0.000000
  70
    32
  0
VERTEX
  8
0
  5
86B
 10
111.257
 20
-108.753
 30
0.000000
  70
    32
  0
VERTEX
  8
0
  5
86C
 10
111.299
 20
-108.814
 30
0.000000
  70
    32
  0
VERTEX
  8
0
  5
86D
 10
111.344
 20
-108.875
 30
0.000000
  70
    32
  0
VERTEX
  8
0
  5
86E
 10
111.394
 20
-108.934
 30
0.000000
  70
    32
  0
VERTEX
  8
0
  5
86F
 10
111.446
 20
-108.992
 30
0.000000
  70
    32
  0
VERTEX
  8
0
  5
870
 10
111.502
 20
-109.048
 30
0.000000
  70
    32
  0
VERTEX
  8
0
  5
871
 10
111.561
 20
-109.102
 30
0.000000
  70
    32
  0
VERTEX
  8
0
  5
872
 10
111.623
 20
-109.155
 30
0.000000
  70
    32
  0
VERTEX
  8
0
  5
873
 10
111.688
 20
-109.205
 30
0.000000
  70
    32
  0
VERTEX
  8
0
  5
874
 10
111.756
 20
-109.254
 30
0.000000
  70
    32
  0
VERTEX
  8
0
  5
875
 10
111.827
 20
-109.300
 30
0.000000
  70
    32
  0
VERTEX
  8
0
  5
876
 10
111.900
 20
-109.344
 30
0.000000
  70
    32
  0
VERTEX
  8
0
  5
877
 10
111.976
 20
-109.386
 30
0.000000
  70
    32
  0
VERTEX
  8
0
  5
878
 10
112.054
 20
-109.426
 30
0.000000
  70
    32
  0
VERTEX
  8
0
  5
879
 10
112.135
 20
-109.463
 30
0.000000
  70
    32
  0
VERTEX
  8
0
  5
87A
 10
112.217
 20
-109.498
 30
0.000000
  70
    32
  0
VERTEX
  8
0
  5
87B
 10
112.302
 20
-109.531
 30
0.000000
  70
    32
  0
VERTEX
  8
0
  5
87C
 10
112.388
 20
-109.560
 30
0.000000
  70
    32
  0
VERTEX
  8
0
  5
87D
 10
112.476
 20
-109.587
 30
0.000000
  70
    32
  0
VERTEX
  8
0
  5
87E
 10
112.565
 20
-109.612
 30
0.000000
  70
    32
  0
VERTEX
  8
0
  5
87F
 10
112.656
 20
-109.634
 30
0.000000
  70
    32
  0
VERTEX
  8
0
  5
880
 10
112.748
 20
-109.652
 30
0.000000
  70
    32
  0
VERTEX
  8
0
  5
881
 10
112.841
 20
-109.669
 30
0.000000
  70
    32
  0
VERTEX
  8
0
  5
882
 10
112.935
 20
-109.682
 30
0.000000
  70
    32
  0
VERTEX
  8
0
  5
883
 10
113.029
 20
-109.693
 30
0.000000
  70
    32
  0
VERTEX
  8
0
  5
884
 10
113.124
 20
-109.700
 30
0.000000
  70
    32
  0
VERTEX
  8
0
  5
885
 10
113.219
 20
-109.705
 30
0.000000
  70
    32
  0
VERTEX
  8
0
  5
886
 10
113.315
 20
-109.707
 30
0.000000
  70
    32
  0
VERTEX
  8
0
  5
887
 10
113.411
 20
-109.706
 30
0.000000
  70
    32
  0
VERTEX
  8
0
  5
888
 10
113.506
 20
-109.702
 30
0.000000
  70
    32
  0
VERTEX
  8
0
  5
889
 10
113.601
 20
-109.695
 30
0.000000
  70
    32
  0
VERTEX
  8
0
  5
88A
 10
113.696
 20
-109.686
 30
0.000000
  70
    32
  0
VERTEX
  8
0
  5
88B
 10
113.790
 20
-109.673
 30
0.000000
  70
    32
  0
VERTEX
  8
0
  5
88C
 10
113.883
 20
-109.658
 30
0.000000
  70
    32
  0
VERTEX
  8
0
  5
88D
 10
113.975
 20
-109.640
 30
0.000000
  70
    32
  0
VERTEX
  8
0
  5
88E
 10
114.067
 20
-109.619
 30
0.000000
  70
    32
  0
VERTEX
  8
0
  5
88F
 10
114.156
 20
-109.596
 30
0.000000
  70
    32
  0
VERTEX
  8
0
  5
890
 10
114.245
 20
-109.569
 30
0.000000
  70
    32
  0
VERTEX
  8
0
  5
891
 10
114.332
 20
-109.541
 30
0.000000
  70
    32
  0
VERTEX
  8
0
  5
892
 10
114.417
 20
-109.509
 30
0.000000
  70
    32
  0
VERTEX
  8
0
  5
893
 10
114.500
 20
-109.475
 30
0.000000
  70
    32
  0
VERTEX
  8
0
  5
894
 10
114.581
 20
-109.439
 30
0.000000
  70
    32
  0
VERTEX
  8
0
  5
895
 10
114.660
 20
-109.400
 30
0.000000
  70
    32
  0
VERTEX
  8
0
  5
896
 10
114.737
 20
-109.358
 30
0.000000
  70
    32
  0
VERTEX
  8
0
  5
897
 10
114.811
 20
-109.315
 30
0.000000
  70
    32
  0
VERTEX
  8
0
  5
898
 10
114.882
 20
-109.269
 30
0.000000
  70
    32
  0
VERTEX
  8
0
  5
899
 10
114.951
 20
-109.221
 30
0.000000
  70
    32
  0
VERTEX
  8
0
  5
89A
 10
115.017
 20
-109.171
 30
0.000000
  70
    32
  0
VERTEX
  8
0
  5
89B
 10
115.080
 20
-109.120
 30
0.000000
  70
    32
  0
VERTEX
  8
0
  5
89C
 10
115.140
 20
-109.066
 30
0.000000
  70
    32
  0
VERTEX
  8
0
  5
89D
 10
115.197
 20
-109.011
 30
0.000000
  70
    32
  0
VERTEX
  8
0
  5
89E
 10
115.251
 20
-108.953
 30
0.000000
  70
    32
  0
VERTEX
  8
0
  5
89F
 10
115.301
 20
-108.895
 30
0.000000
  70
    32
  0
VERTEX
  8
0
  5
8A0
 10
115.348
 20
-108.835
 30
0.000000
  70
    32
  0
SEQEND
  8
0
  5
8A1
  0
LINE
  5
A9
  8
0
  6
CONTINUOUS
 62
     7
 10
116.05129599999999
 20
-105.53665100000001
 30
0.0
 11
116.05129599999999
 21
-107.348905
 31
0.0
  0
LINE
  5
AA
  8
0
  6
CONTINUOUS
 62
     7
 10
115.994699
 20
-105.51835
 30
0.0
 11
116.032994
 21
-105.51835
 31
0.0
  0
ARC
  5
AB
  8
0
  6
CONTINUOUS
 62
     7
 10
116.032994
 20
-105.53665100000001
 30
0.0
 40
0.018302
 50
0.0
 51
90.0
  0
ARC
  5
AC
  8
0
  6
CONTINUOUS
 62
     7
 10
115.994699
 20
-105.53665100000001
 30
0.0
 40
0.018302
 50
90.0
 51
150.00044
  0
LINE
  5
AD
  8
0
  6
CONTINUOUS
 62
     7
 10
115.781845
 20
-106.12138299999999
 30
0.0
 11
115.98188500000001
 21
-105.51835
 31
0.0
  0
ARC
  5
AE
  8
0
  6
CONTINUOUS
 62
     7
 10
115.434433
 20
-106.006139
 30
0.0
 40
0.366029
 50
230.50994399999999
 51
341.64815299999998
  0
LINE
  5
AF
  8
0
  6
CONTINUOUS
 62
     7
 10
115.397963
 20
-107.348905
 30
0.0
 11
116.049064
 21
-107.348905
 31
0.0
  0
LINE
  5
B0
  8
0
  6
CONTINUOUS
 62
     7
 10
115.348129
 20
-108.834608
 30
0.0
 11
115.944756
 21
-108.834608
 31
0.0
  0
LINE
  5
B1
  8
0
  6
CONTINUOUS
 62
     7
 10
129.50000800000001
 20
-138.50000800000001
 30
0.0
 11
129.50000800000001
 21
-127.50000799999999
 31
0.0
  0
LINE
  5
B2
  8
0
  6
CONTINUOUS
 62
     7
 10
118.500007
 20
-138.50000800000001
 30
0.0
 11
192.500011
 21
-138.50000800000001
 31
0.0
  0
LINE
  5
B3
  8
0
  6
CONTINUOUS
 62
     7
 10
192.500011
 20
-138.50000800000001
 30
0.0
 11
192.500011
 21
-102.500006
 31
0.0
  0
LINE
  5
B4
  8
0
  6
CONTINUOUS
 62
     7
 10
118.500007
 20
-127.50000799999999
 30
0.0
 11
192.500011
 21
-127.50000799999999
 31
0.0
  0
LINE
  5
B5
  8
0
  6
CONTINUOUS
 62
     7
 10
81.500005000000002
 20
-102.500006
 30
0.0
 11
192.500011
 21
-102.500006
 31
0.0
  0
LINE
  5
B6
  8
0
  6
CONTINUOUS
 62
     7
 10
118.500007
 20
-102.500006
 30
0.0
 11
118.500007
 21
-138.50000800000001
 31
0.0
  0
LINE
  5
B7
  8
0
  6
CONTINUOUS
 62
     7
 10
118.500007
 20
-138.50000800000001
 30
0.0
 11
118.500007
 21
-127.50000799999999
 31
0.0
  0
LINE
  5
B8
  8
0
  6
CONTINUOUS
 62
     7
 10
81.500005000000002
 20
-102.500006
 30
0.0
 11
81.500005000000002
 21
-113.500007
 31
0.0
  0
LINE
  5
B9
  8
0
  6
CONTINUOUS
 62
     7
 10
81.500005000000002
 20
-113.500007
 30
0.0
 11
118.500007
 21
-113.500007
 31
0.0
  0
INSERT
  5
BA
  8
0
  6
CONTINUOUS
  2
*U26
 10
0.0
 20
0.0
 30
0.0
  0
INSERT
  5
BB
  8
0
  6
CONTINUOUS
  2
*U27
 10
0.0
 20
0.0
 30
0.0
  0
INSERT
  5
BC
  8
0
  6
CONTINUOUS
  2
*U28
 10
0.0
 20
0.0
 30
0.0
  0
INSERT
  5
BD
  8
0
  6
CONTINUOUS
  2
*U29
 10
0.0
 20
0.0
 30
0.0
  0
LINE
  5
BE
  8
0
  6
CONTINUOUS
 62
     7
 10
25.984939000000001
 20
66.092720418616466
 30
0.0
 11
25.984939000000001
 21
32.292731418616462
 31
0.0
  0
LINE
  5
BF
  8
0
  6
CONTINUOUS
 62
     7
 10
33.184950000000001
 20
66.092720418616466
 30
0.0
 11
33.184950000000001
 21
32.292731418616462
 31
0.0
  0
LINE
  5
C0
  8
0
  6
CONTINUOUS
 62
     7
 10
-52.615043000000007
 20
58.192725418616462
 30
0.0
 11
18.784955
 21
58.192725418616462
 31
0.0
  0
LINE
  5
C1
  8
0
  6
CONTINUOUS
 62
     7
 10
-52.615043000000007
 20
40.192726418616459
 30
0.0
 11
18.784955
 21
40.192726418616459
 31
0.0
  0
LINE
  5
C2
  8
0
  6
CONTINUOUS
 62
     7
 10
55.184939999999997
 20
56.142725418616457
 30
0.0
 11
55.184939999999997
 21
42.242726418616463
 31
0.0
  0
LINE
  5
C3
  8
0
  6
CONTINUOUS
 62
     7
 10
42.634977999999997
 20
57.142724418616467
 30
0.0
 11
53.107593000000001
 21
57.142724418616467
 31
0.0
  0
LINE
  5
C4
  8
0
  6
CONTINUOUS
 62
     7
 10
42.634977999999997
 20
41.242726418616463
 30
0.0
 11
53.107593000000001
 21
41.242726418616463
 31
0.0
  0
LINE
  5
C5
  8
0
  6
CONTINUOUS
 62
     7
 10
33.184950000000001
 20
64.892725418616465
 30
0.0
 11
34.184950000000001
 21
64.892725418616465
 31
0.0
  0
LINE
  5
C6
  8
0
  6
CONTINUOUS
 62
     7
 10
33.184950000000001
 20
60.492725418616459
 30
0.0
 11
34.184950000000001
 21
60.492725418616459
 31
0.0
  0
LINE
  5
C7
  8
0
  6
CONTINUOUS
 62
     7
 10
33.184950000000001
 20
37.89272741861646
 30
0.0
 11
34.184950000000001
 21
37.89272741861646
 31
0.0
  0
LINE
  5
C8
  8
0
  6
CONTINUOUS
 62
     7
 10
33.184950000000001
 20
33.492726418616463
 30
0.0
 11
34.184950000000001
 21
33.492726418616463
 31
0.0
  0
LINE
  5
C9
  8
0
  6
CONTINUOUS
 62
     7
 10
34.184950000000001
 20
65.442711418616454
 30
0.0
 11
36.184950000000001
 21
65.442711418616454
 31
0.0
  0
LINE
  5
CA
  8
0
  6
CONTINUOUS
 62
     7
 10
34.184950000000001
 20
59.942726418616459
 30
0.0
 11
36.184950000000001
 21
59.942726418616459
 31
0.0
  0
LINE
  5
CB
  8
0
  6
CONTINUOUS
 62
     7
 10
34.184950000000001
 20
38.442726418616459
 30
0.0
 11
36.184950000000001
 21
38.442726418616459
 31
0.0
  0
LINE
  5
CC
  8
0
  6
CONTINUOUS
 62
     7
 10
34.184950000000001
 20
32.942740418616467
 30
0.0
 11
36.184950000000001
 21
32.942740418616467
 31
0.0
  0
LINE
  5
CD
  8
0
  6
CONTINUOUS
 62
     7
 10
34.184950000000001
 20
65.442711418616454
 30
0.0
 11
34.184950000000001
 21
59.942726418616459
 31
0.0
  0
LINE
  5
CE
  8
0
  6
CONTINUOUS
 62
     7
 10
36.184950000000001
 20
65.442711418616454
 30
0.0
 11
36.184950000000001
 21
59.942726418616459
 31
0.0
  0
LINE
  5
CF
  8
0
  6
CONTINUOUS
 62
     7
 10
36.184950000000001
 20
38.442726418616459
 30
0.0
 11
36.184950000000001
 21
32.942740418616467
 31
0.0
  0
LINE
  5
D0
  8
0
  6
CONTINUOUS
 62
     7
 10
34.184950000000001
 20
38.442726418616459
 30
0.0
 11
34.184950000000001
 21
32.942740418616467
 31
0.0
  0
LINE
  5
D1
  8
0
  6
CONTINUOUS
 62
     7
 10
34.184950000000001
 20
64.942711418616454
 30
0.0
 11
36.184950000000001
 21
64.942711418616454
 31
0.0
  0
LINE
  5
D2
  8
0
  6
CONTINUOUS
 62
     7
 10
34.184950000000001
 20
64.442711418616454
 30
0.0
 11
36.184950000000001
 21
64.442711418616454
 31
0.0
  0
LINE
  5
D3
  8
0
  6
CONTINUOUS
 62
     7
 10
34.184950000000001
 20
63.942711418616462
 30
0.0
 11
36.184950000000001
 21
63.942711418616462
 31
0.0
  0
LINE
  5
D4
  8
0
  6
CONTINUOUS
 62
     7
 10
34.184950000000001
 20
63.442710418616457
 30
0.0
 11
36.184950000000001
 21
63.442710418616457
 31
0.0
  0
LINE
  5
D5
  8
0
  6
CONTINUOUS
 62
     7
 10
34.184950000000001
 20
62.942710418616457
 30
0.0
 11
36.184950000000001
 21
62.942710418616457
 31
0.0
  0
LINE
  5
D6
  8
0
  6
CONTINUOUS
 62
     7
 10
34.184950000000001
 20
62.442710418616457
 30
0.0
 11
36.184950000000001
 21
62.442710418616457
 31
0.0
  0
LINE
  5
D7
  8
0
  6
CONTINUOUS
 62
     7
 10
34.184950000000001
 20
61.942710418616471
 30
0.0
 11
36.184950000000001
 21
61.942710418616471
 31
0.0
  0
LINE
  5
D8
  8
0
  6
CONTINUOUS
 62
     7
 10
34.184950000000001
 20
61.442710418616457
 30
0.0
 11
36.184950000000001
 21
61.442710418616457
 31
0.0
  0
LINE
  5
D9
  8
0
  6
CONTINUOUS
 62
     7
 10
34.184950000000001
 20
60.942710418616457
 30
0.0
 11
36.184950000000001
 21
60.942710418616457
 31
0.0
  0
LINE
  5
DA
  8
0
  6
CONTINUOUS
 62
     7
 10
34.184950000000001
 20
60.442710418616457
 30
0.0
 11
36.184950000000001
 21
60.442710418616457
 31
0.0
  0
LINE
  5
DB
  8
0
  6
CONTINUOUS
 62
     7
 10
34.184950000000001
 20
59.942710418616457
 30
0.0
 11
36.184950000000001
 21
59.942710418616457
 31
0.0
  0
LINE
  5
DC
  8
0
  6
CONTINUOUS
 62
     7
 10
34.184950000000001
 20
37.942727418616471
 30
0.0
 11
36.184950000000001
 21
37.942727418616471
 31
0.0
  0
LINE
  5
DD
  8
0
  6
CONTINUOUS
 62
     7
 10
34.184950000000001
 20
37.442728418616461
 30
0.0
 11
36.184950000000001
 21
37.442728418616461
 31
0.0
  0
LINE
  5
DE
  8
0
  6
CONTINUOUS
 62
     7
 10
34.184950000000001
 20
36.942729418616473
 30
0.0
 11
36.184950000000001
 21
36.942729418616473
 31
0.0
  0
LINE
  5
DF
  8
0
  6
CONTINUOUS
 62
     7
 10
34.184950000000001
 20
36.44273041861647
 30
0.0
 11
36.184950000000001
 21
36.44273041861647
 31
0.0
  0
LINE
  5
E0
  8
0
  6
CONTINUOUS
 62
     7
 10
34.184950000000001
 20
35.942731418616461
 30
0.0
 11
36.184950000000001
 21
35.942731418616461
 31
0.0
  0
LINE
  5
E1
  8
0
  6
CONTINUOUS
 62
     7
 10
34.184950000000001
 20
35.442732418616473
 30
0.0
 11
36.184950000000001
 21
35.442732418616473
 31
0.0
  0
LINE
  5
E2
  8
0
  6
CONTINUOUS
 62
     7
 10
34.184950000000001
 20
34.942733418616463
 30
0.0
 11
36.184950000000001
 21
34.942733418616463
 31
0.0
  0
LINE
  5
E3
  8
0
  6
CONTINUOUS
 62
     7
 10
34.184950000000001
 20
34.44273441861646
 30
0.0
 11
36.184950000000001
 21
34.44273441861646
 31
0.0
  0
LINE
  5
E4
  8
0
  6
CONTINUOUS
 62
     7
 10
34.184950000000001
 20
33.94273441861646
 30
0.0
 11
36.184950000000001
 21
33.94273441861646
 31
0.0
  0
LINE
  5
E5
  8
0
  6
CONTINUOUS
 62
     7
 10
34.184950000000001
 20
33.442735418616458
 30
0.0
 11
36.184950000000001
 21
33.442735418616458
 31
0.0
  0
LINE
  5
E6
  8
0
  6
CONTINUOUS
 62
     7
 10
40.684950000000001
 20
55.192725418616462
 30
0.0
 11
40.684950000000001
 21
43.192726418616459
 31
0.0
  0
LINE
  5
E7
  8
0
  6
CONTINUOUS
 62
     7
 10
33.184950000000001
 20
55.192725418616462
 30
0.0
 11
40.684950000000001
 21
55.192725418616462
 31
0.0
  0
LINE
  5
E8
  8
0
  6
CONTINUOUS
 62
     7
 10
33.184950000000001
 20
43.192726418616459
 30
0.0
 11
40.684950000000001
 21
43.192726418616459
 31
0.0
  0
LINE
  5
E9
  8
0
  6
CONTINUOUS
 62
     7
 10
40.684967999999998
 20
55.192725418616462
 30
0.0
 11
42.634968999999991
 21
57.142726418616462
 31
0.0
  0
LINE
  5
EA
  8
0
  6
CONTINUOUS
 62
     7
 10
40.684967999999998
 20
43.192725418616448
 30
0.0
 11
42.634967000000003
 21
41.242726418616463
 31
0.0
  0
LINE
  5
EB
  8
0
  6
CONTINUOUS
 62
     7
 10
42.634977999999997
 20
57.142724418616467
 30
0.0
 11
42.634977999999997
 21
41.242726418616463
 31
0.0
  0
LINE
  5
EC
  8
0
  6
CONTINUOUS
 62
     7
 10
42.634977999999997
 20
56.142725418616457
 30
0.0
 11
55.184939999999997
 21
56.142725418616457
 31
0.0
  0
LINE
  5
ED
  8
0
  6
CONTINUOUS
 62
     7
 10
42.634977999999997
 20
42.242726418616463
 30
0.0
 11
55.184939999999997
 21
42.242726418616463
 31
0.0
  0
LINE
  5
EE
  8
0
  6
CONTINUOUS
 62
     7
 10
53.684939999999997
 20
56.142725418616457
 30
0.0
 11
53.684939999999997
 21
42.242726418616463
 31
0.0
  0
LINE
  5
EF
  8
0
  6
CONTINUOUS
 62
     7
 10
53.107591999999997
 20
57.142725418616457
 30
0.0
 11
53.684941999999999
 21
56.142726418616462
 31
0.0
  0
LINE
  5
F0
  8
0
  6
CONTINUOUS
 62
     7
 10
53.107588999999997
 20
41.242727418616461
 30
0.0
 11
53.684939
 21
42.242726418616463
 31
0.0
  0
LINE
  5
F1
  8
0
  6
CONTINUOUS
 62
     7
 10
130.10378399999999
 20
55.171856418616457
 30
0.0
 11
130.10378399999999
 21
54.191647418616462
 31
0.0
  0
LINE
  5
F2
  8
0
  6
CONTINUOUS
 62
     7
 10
129.10379900000001
 20
55.17185541861646
 30
0.0
 11
129.10379900000001
 21
54.191647418616462
 31
0.0
  0
LINE
  5
F3
  8
0
  6
CONTINUOUS
 62
     7
 10
129.10379900000001
 20
54.191647418616462
 30
0.0
 11
130.10378399999999
 21
54.191647418616462
 31
0.0
  0
LINE
  5
F5
  8
0
  6
CENTER
 62
     7
 10
113.814939
 20
58.308418418616462
 30
0.0
 11
120.458133
 21
54.472969418616472
 31
0.0
  0
LINE
  5
F6
  8
0
  6
CENTER
 62
     7
 10
129.60379900000001
 20
74.380287418616462
 30
0.0
 11
129.60379900000001
 21
23.754415418616471
 31
0.0
  0
LINE
  5
F7
  8
0
  6
CENTER
 62
     7
 10
103.995552
 20
49.192726418616452
 30
0.0
 11
152.53261800000001
 21
49.192726418616452
 31
0.0
  0
LINE
  5
F8
  8
0
  6
CENTER
 62
     7
 10
113.923202
 20
40.139546418616462
 30
0.0
 11
120.526528
 21
43.951978418616463
 31
0.0
  0
LINE
  5
F9
  8
0
  6
CENTER
 62
     7
 10
138.336073
 20
54.234323418616462
 30
0.0
 11
146.20125200000001
 21
58.775285418616463
 31
0.0
  0
LINE
  5
FA
  8
0
  6
CENTER
 62
     7
 10
138.42918599999999
 20
44.097378418616458
 30
0.0
 11
145.098174
 21
40.24703641861646
 31
0.0
  0
LINE
  5
FB
  8
0
  6
CENTER
 62
     7
 10
12.394636999999999
 20
62.692726418616459
 30
0.0
 11
41.023145999999997
 21
62.692726418616459
 31
0.0
  0
LINE
  5
FC
  8
0
  6
CENTER
 62
     7
 10
13.288436000000001
 20
35.692726418616459
 30
0.0
 11
41.897230999999998
 21
35.692726418616459
 31
0.0
  0
LINE
  5
FD
  8
0
  6
CONTINUOUS
 62
     7
 10
25.984953999999998
 20
66.092720418616466
 30
0.0
 11
25.984953999999998
 21
32.292731418616462
 31
0.0
  0
LINE
  5
FE
  8
0
  6
CONTINUOUS
 62
     7
 10
25.984953999999998
 20
66.092720418616466
 30
0.0
 11
25.984953999999998
 21
32.292731418616462
 31
0.0
  0
LINE
  5
FF
  8
0
  6
CONTINUOUS
 62
     7
 10
25.984953999999998
 20
66.092720418616466
 30
0.0
 11
25.984953999999998
 21
32.292731418616462
 31
0.0
  0
LINE
  5
100
  8
0
  6
CONTINUOUS
 62
     7
 10
-59.815056000000013
 20
66.092720418616466
 30
0.0
 11
-59.815056000000013
 21
32.292731418616462
 31
0.0
  0
LINE
  5
101
  8
0
  6
CONTINUOUS
 62
     7
 10
-52.615043000000007
 20
66.092720418616466
 30
0.0
 11
-52.615043000000007
 21
32.292731418616462
 31
0.0
  0
LINE
  5
102
  8
0
  6
CONTINUOUS
 62
     7
 10
-59.815056000000013
 20
66.092720418616466
 30
0.0
 11
-52.615043000000007
 21
66.092720418616466
 31
0.0
  0
LINE
  5
103
  8
0
  6
CONTINUOUS
 62
     7
 10
-59.815056000000013
 20
32.292731418616462
 30
0.0
 11
-52.662009999999988
 21
32.292731418616462
 31
0.0
  0
LINE
  5
104
  8
0
  6
CENTER
 62
     7
 10
-73.268956000000003
 20
49.192726418616452
 30
0.0
 11
65.468211999999994
 21
49.192726418616452
 31
0.0
  0
LINE
  5
105
  8
0
  6
CENTER
 62
     7
 10
-108.729457
 20
58.308417418616457
 30
0.0
 11
-115.372651
 21
54.47296841861646
 31
0.0
  0
LINE
  5
106
  8
0
  6
CENTER
 62
     7
 10
-124.51831799999999
 20
74.380287418616462
 30
0.0
 11
-124.51831799999999
 21
23.754415418616471
 31
0.0
  0
LINE
  5
107
  8
0
  6
CENTER
 62
     7
 10
-98.910071000000016
 20
49.192726418616452
 30
0.0
 11
-147.447137
 21
49.192726418616452
 31
0.0
  0
LINE
  5
108
  8
0
  6
CENTER
 62
     7
 10
-108.837722
 20
40.139544418616453
 30
0.0
 11
-115.44104799999999
 21
43.951976418616461
 31
0.0
  0
LINE
  5
109
  8
0
  6
CENTER
 62
     7
 10
-133.250587
 20
54.234317418616463
 30
0.0
 11
-141.1157649999999
 21
58.775279418616471
 31
0.0
  0
LINE
  5
10A
  8
0
  6
CENTER
 62
     7
 10
-133.34369699999999
 20
44.09738041861646
 30
0.0
 11
-140.012686
 21
40.24703941861646
 31
0.0
  0
LINE
  5
10B
  8
0
  6
CONTINUOUS
 62
     7
 10
18.784955
 20
32.292731418616462
 30
0.0
 11
33.184950000000001
 21
32.292731418616462
 31
0.0
  0
LINE
  5
10C
  8
0
  6
CONTINUOUS
 62
     7
 10
18.784955
 20
66.092720418616466
 30
0.0
 11
33.184950000000001
 21
66.092720418616466
 31
0.0
  0
LINE
  5
10D
  8
0
  6
CONTINUOUS
 62
     7
 10
18.784955
 20
66.092720418616466
 30
0.0
 11
18.784955
 21
32.292731418616462
 31
0.0
  0
CIRCLE
  5
10E
  8
0
  6
CONTINUOUS
 62
     7
 10
129.60379900000001
 20
49.192726418616452
 30
0.0
 40
16.899995000000001
  0
CIRCLE
  5
10F
  8
0
  6
CENTER
 62
     7
 10
129.60379900000001
 20
49.192726418616452
 30
0.0
 40
13.5
  0
CIRCLE
  5
110
  8
0
  6
CONTINUOUS
 62
     7
 10
141.29513
 20
42.442719418616463
 30
0.0
 40
2.2000000000000002
  0
CIRCLE
  5
111
  8
0
  6
CONTINUOUS
 62
     7
 10
141.29513
 20
55.942733418616463
 30
0.0
 40
2.2000000000000002
  0
CIRCLE
  5
112
  8
0
  6
CONTINUOUS
 62
     7
 10
129.60379900000001
 20
62.692726418616459
 30
0.0
 40
2.2000000000000002
  0
CIRCLE
  5
113
  8
0
  6
CONTINUOUS
 62
     7
 10
117.91243799999999
 20
55.942716418616463
 30
0.0
 40
2.2000000000000002
  0
CIRCLE
  5
114
  8
0
  6
CONTINUOUS
 62
     7
 10
117.91243799999999
 20
42.442736418616462
 30
0.0
 40
2.2000000000000002
  0
CIRCLE
  5
115
  8
0
  6
CONTINUOUS
 62
     7
 10
129.60379900000001
 20
35.692726418616459
 30
0.0
 40
2.2000000000000002
  0
CIRCLE
  5
116
  8
0
  6
CONTINUOUS
 62
     7
 10
129.60379900000001
 20
49.192726418616452
 30
0.0
 40
5.999998999999999
  0
CIRCLE
  5
117
  8
0
  6
CONTINUOUS
 62
     7
 10
129.60379900000001
 20
49.192726418616452
 30
0.0
 40
6.9999989999999999
  0
ARC
  5
118
  8
0
  6
CONTINUOUS
 62
     7
 10
129.60379900000001
 20
49.192726418616452
 30
0.0
 40
8.0
 50
0.0
 51
28.29145000000009
  0
CIRCLE
  5
119
  8
0
  6
CONTINUOUS
 62
     7
 10
129.60379900000001
 20
46.192727418616457
 30
0.0
 40
0.5
  0
CIRCLE
  5
11A
  8
0
  6
CONTINUOUS
 62
     7
 10
132.20186799999999
 20
50.69273441861646
 30
0.0
 40
0.5
  0
CIRCLE
  5
11B
  8
0
  6
CONTINUOUS
 62
     7
 10
127.00571600000001
 20
50.69271641861647
 30
0.0
 40
0.5
  0
ARC
  5
11C
  8
0
  6
CONTINUOUS
 62
     7
 10
129.60379900000001
 20
49.192726418616452
 30
0.0
 40
8.0
 50
213.50550199999989
 51
359.99998300000021
  0
ARC
  5
11D
  8
0
  6
CONTINUOUS
 62
     7
 10
129.60379900000001
 20
49.192726418616452
 30
0.0
 40
8.0
 50
35.89676600000012
 51
205.90015100000011
  0
CIRCLE
  5
11E
  8
0
  6
CONTINUOUS
 62
     7
 10
-124.51831799999999
 20
49.192726418616452
 30
0.0
 40
16.899995000000001
  0
CIRCLE
  5
11F
  8
0
  6
CENTER
 62
     7
 10
-124.51831799999999
 20
49.192726418616452
 30
0.0
 40
13.5
  0
CIRCLE
  5
120
  8
0
  6
CONTINUOUS
 62
     7
 10
-136.20964900000001
 20
42.442719418616463
 30
0.0
 40
2.2000000000000002
  0
CIRCLE
  5
121
  8
0
  6
CONTINUOUS
 62
     7
 10
-136.20964900000001
 20
55.942733418616463
 30
0.0
 40
2.2000000000000002
  0
CIRCLE
  5
122
  8
0
  6
CONTINUOUS
 62
     7
 10
-124.51831799999999
 20
62.692726418616459
 30
0.0
 40
2.2000000000000002
  0
CIRCLE
  5
123
  8
0
  6
CONTINUOUS
 62
     7
 10
-112.82695699999999
 20
55.942716418616463
 30
0.0
 40
2.2000000000000002
  0
CIRCLE
  5
124
  8
0
  6
CONTINUOUS
 62
     7
 10
-112.82695699999999
 20
42.442736418616462
 30
0.0
 40
2.2000000000000002
  0
CIRCLE
  5
125
  8
0
  6
CONTINUOUS
 62
     7
 10
-124.51831799999999
 20
35.692726418616459
 30
0.0
 40
2.2000000000000002
  0
CIRCLE
  5
126
  8
0
  6
CONTINUOUS
 62
     7
 10
-124.51831799999999
 20
49.192726418616452
 30
0.0
 40
8.0
  0
DIMENSION
  5
139
  8
0
  6
CONTINUOUS
 62
     7
  2
*D8
 10
55.184939999999997
 20
91.128640418616456
 30
0.0
 11
-4.9104499999999991
 21
91.128640418616456
 31
0.0
 70
   128
  1
(<>)
 13
-59.815056000000013
 23
66.092719418616468
 33
0.0
 14
55.184939999999997
 24
56.14272441861646
 34
0.0
1001
ACAD_DSTYLE_DIMINSPECT
1070
   396
1000
100%
1070
   395
1000

1070
   394
1070
    33
1070
   393
1070
     0
1001
ACAD
1000
DSTYLE
1002
{
1070
    41
1040
2.77
1070
    44
1040
2.285995999999999
1070
   140
1040
4.1671860000000001
1070
   173
1070
     1
1070
   271
1070
     0
1070
   341
1005
12C
1070
     6
1000
OPEN30
1070
     7
1000
OPEN30
1002
}
  0
DIMENSION
  5
146
  8
0
  6
CONTINUOUS
 62
     7
  2
*D9
 10
55.184939999999997
 20
76.377678418616455
 30
0.0
 11
40.584943999999993
 21
76.377678418616455
 31
0.0
 70
   128
  1
29.2
 13
25.984939000000001
 23
66.092719418616468
 33
0.0
 14
55.184939999999997
 24
56.142725418616457
 34
0.0
1001
ACAD
1000
DSTYLE
1002
{
1070
     6
1000
_OPEN30
1070
     7
1000
_OPEN30
1070
    41
1040
2.77
1070
    44
1040
2.2859950000000002
1070
    78
1070
     0
1070
   140
1040
4.1671860000000001
1070
   173
1070
     1
1070
   271
1070
     0
1070
   341
1005
12C
1002
}
  0
DIMENSION
  5
153
  8
0
  6
CONTINUOUS
 62
     7
  2
*D10
 10
72.073063000000019
 20
41.242726418616463
 30
0.0
 11
72.073063000000005
 21
68.552565418616481
 31
0.0
 70
   128
  1
\U+220515.9
 13
53.107593999999992
 23
57.142724418616467
 33
0.0
 14
53.107593999999992
 24
41.242726418616463
 34
0.0
 50
90.0
1001
ACAD
1000
DSTYLE
1002
{
1070
     6
1000
_OPEN30
1070
     7
1000
_OPEN30
1070
    41
1040
2.77
1070
    44
1040
2.285995999999999
1070
    78
1070
     0
1070
   140
1040
4.1671860000000001
1070
   173
1070
     1
1070
   271
1070
     0
1070
   341
1005
12C
1002
}
  0
DIMENSION
  5
160
  8
0
  6
CONTINUOUS
 62
     7
  2
*D11
 10
-74.170307999999977
 20
66.092720418616466
 30
0.0
 11
-74.170307999999991
 21
49.91461141861646
 31
0.0
 70
   128
  1
33.8
 13
-59.815055000000001
 23
32.292731418616462
 33
0.0
 14
-59.815055000000001
 24
66.092720418616466
 34
0.0
 50
90.0
1001
ACAD
1000
DSTYLE
1002
{
1070
     6
1000
_OPEN30
1070
     7
1000
_OPEN30
1070
    41
1040
2.77
1070
    44
1040
2.2859950000000002
1070
    78
1070
     0
1070
   140
1040
4.1671860000000001
1070
   173
1070
     1
1070
   271
1070
     0
1070
   341
1005
12C
1002
}
  0
DIMENSION
  5
16B
  8
0
  6
CONTINUOUS
 62
     7
  2
*D12
 10
-116.58261899999999
 20
38.271388418616468
 30
0.0
 11
-137.0698001995903
 21
71.712374632132537
 31
0.0
 70
     3
  1
<>
 15
-132.45390399999999
 25
60.114044418616452
 35
0.0
 40
0.0
1001
ACAD
1000
DSTYLE
1002
{
1070
     6
1000
_OPEN30
1070
     7
1000
_OPEN30
1070
    41
1040
2.77
1070
   140
1040
4.1671860000000001
1070
   173
1070
     1
1070
   271
1070
     0
1070
   284
1070
     8
1070
   287
1070
     2
1070
   341
1005
12C
1002
}
  0
INSERT
  5
16C
  8
0
  6
CONTINUOUS
  2
*U35
 10
0.0
 20
0.0
 30
0.0
  0
INSERT
  5
16D
  8
0
  6
CONTINUOUS
  2
*U36
 10
0.0
 20
0.0
 30
0.0
1001
ACAD
1000
DSTYLE
1002
{
1070
     6
1000
_OPEN30
1070
     7
1000
_OPEN30
1070
    41
1040
2.77
1070
   173
1070
     1
1070
   341
1005
12C
1002
}
  0
INSERT
  5
16E
  8
0
  6
CONTINUOUS
  2
*U37
 10
0.0
 20
0.0
 30
0.0
  0
INSERT
  5
16F
  8
0
  6
CONTINUOUS
  2
*U38
 10
0.0
 20
0.0
 30
0.0
1001
ACAD
1000
DSTYLE
1002
{
1070
     6
1000
_OPEN30
1070
     7
1000
_OPEN30
1070
    41
1040
2.77
1070
   173
1070
     1
1070
   341
1005
12C
1002
}
  0
LINE
  5
2B1
  8
0
  6
CONTINUOUS
 62
     7
 10
25.984938999999979
 20
-37.043737036417546
 30
0.0
 11
25.984938999999979
 21
-70.843726036417564
 31
0.0
  0
LINE
  5
2B2
  8
0
  6
CONTINUOUS
 62
     7
 10
33.184949999999979
 20
-37.043737036417546
 30
0.0
 11
33.184949999999979
 21
-70.843726036417564
 31
0.0
  0
LINE
  5
2B3
  8
0
  6
CONTINUOUS
 62
     7
 10
-52.615043000000028
 20
-44.943732036417558
 30
0.0
 11
18.784954999999979
 21
-44.943732036417558
 31
0.0
  0
LINE
  5
2B4
  8
0
  6
CONTINUOUS
 62
     7
 10
-52.615043000000028
 20
-62.94373103641756
 30
0.0
 11
18.784954999999979
 21
-62.94373103641756
 31
0.0
  0
LINE
  5
2B8
  8
0
  6
CONTINUOUS
 62
     7
 10
33.184949999999979
 20
-38.243732036417548
 30
0.0
 11
34.184949999999979
 21
-38.243732036417548
 31
0.0
  0
LINE
  5
2B9
  8
0
  6
CONTINUOUS
 62
     7
 10
33.184949999999979
 20
-42.643732036417553
 30
0.0
 11
34.184949999999979
 21
-42.643732036417553
 31
0.0
  0
LINE
  5
2BA
  8
0
  6
CONTINUOUS
 62
     7
 10
33.184949999999979
 20
-65.243730036417546
 30
0.0
 11
34.184949999999979
 21
-65.243730036417546
 31
0.0
  0
LINE
  5
2BB
  8
0
  6
CONTINUOUS
 62
     7
 10
33.184949999999979
 20
-69.643731036417563
 30
0.0
 11
34.184949999999979
 21
-69.643731036417563
 31
0.0
  0
LINE
  5
2BC
  8
0
  6
CONTINUOUS
 62
     7
 10
34.184949999999979
 20
-37.693746036417572
 30
0.0
 11
36.184949999999979
 21
-37.693746036417572
 31
0.0
  0
LINE
  5
2BD
  8
0
  6
CONTINUOUS
 62
     7
 10
34.184949999999979
 20
-43.19373103641756
 30
0.0
 11
36.184949999999979
 21
-43.19373103641756
 31
0.0
  0
LINE
  5
2BE
  8
0
  6
CONTINUOUS
 62
     7
 10
34.184949999999979
 20
-64.69373103641756
 30
0.0
 11
36.184949999999979
 21
-64.69373103641756
 31
0.0
  0
LINE
  5
2BF
  8
0
  6
CONTINUOUS
 62
     7
 10
34.184949999999979
 20
-70.193717036417553
 30
0.0
 11
36.184949999999979
 21
-70.193717036417553
 31
0.0
  0
LINE
  5
2C0
  8
0
  6
CONTINUOUS
 62
     7
 10
34.184949999999979
 20
-37.693746036417572
 30
0.0
 11
34.184949999999979
 21
-43.19373103641756
 31
0.0
  0
LINE
  5
2C1
  8
0
  6
CONTINUOUS
 62
     7
 10
36.184949999999979
 20
-37.693746036417572
 30
0.0
 11
36.184949999999979
 21
-43.19373103641756
 31
0.0
  0
LINE
  5
2C2
  8
0
  6
CONTINUOUS
 62
     7
 10
36.184949999999979
 20
-64.69373103641756
 30
0.0
 11
36.184949999999979
 21
-70.193717036417553
 31
0.0
  0
LINE
  5
2C3
  8
0
  6
CONTINUOUS
 62
     7
 10
34.184949999999979
 20
-64.69373103641756
 30
0.0
 11
34.184949999999979
 21
-70.193717036417553
 31
0.0
  0
LINE
  5
2C4
  8
0
  6
CONTINUOUS
 62
     7
 10
34.184949999999979
 20
-38.193746036417572
 30
0.0
 11
36.184949999999979
 21
-38.193746036417572
 31
0.0
  0
LINE
  5
2C5
  8
0
  6
CONTINUOUS
 62
     7
 10
34.184949999999979
 20
-38.693746036417572
 30
0.0
 11
36.184949999999979
 21
-38.693746036417572
 31
0.0
  0
LINE
  5
2C6
  8
0
  6
CONTINUOUS
 62
     7
 10
34.184949999999979
 20
-39.193746036417558
 30
0.0
 11
36.184949999999979
 21
-39.193746036417558
 31
0.0
  0
LINE
  5
2C7
  8
0
  6
CONTINUOUS
 62
     7
 10
34.184949999999979
 20
-39.693747036417562
 30
0.0
 11
36.184949999999979
 21
-39.693747036417562
 31
0.0
  0
LINE
  5
2C8
  8
0
  6
CONTINUOUS
 62
     7
 10
34.184949999999979
 20
-40.193747036417548
 30
0.0
 11
36.184949999999979
 21
-40.193747036417548
 31
0.0
  0
LINE
  5
2C9
  8
0
  6
CONTINUOUS
 62
     7
 10
34.184949999999979
 20
-40.693747036417548
 30
0.0
 11
36.184949999999979
 21
-40.693747036417548
 31
0.0
  0
LINE
  5
2CA
  8
0
  6
CONTINUOUS
 62
     7
 10
34.184949999999979
 20
-41.193747036417562
 30
0.0
 11
36.184949999999979
 21
-41.193747036417562
 31
0.0
  0
LINE
  5
2CB
  8
0
  6
CONTINUOUS
 62
     7
 10
34.184949999999979
 20
-41.693747036417548
 30
0.0
 11
36.184949999999979
 21
-41.693747036417548
 31
0.0
  0
LINE
  5
2CC
  8
0
  6
CONTINUOUS
 62
     7
 10
34.184949999999979
 20
-42.193747036417548
 30
0.0
 11
36.184949999999979
 21
-42.193747036417548
 31
0.0
  0
LINE
  5
2CD
  8
0
  6
CONTINUOUS
 62
     7
 10
34.184949999999979
 20
-42.693747036417548
 30
0.0
 11
36.184949999999979
 21
-42.693747036417548
 31
0.0
  0
LINE
  5
2CE
  8
0
  6
CONTINUOUS
 62
     7
 10
34.184949999999979
 20
-43.193747036417548
 30
0.0
 11
36.184949999999979
 21
-43.193747036417548
 31
0.0
  0
LINE
  5
2CF
  8
0
  6
CONTINUOUS
 62
     7
 10
34.184949999999979
 20
-65.193730036417548
 30
0.0
 11
36.184949999999979
 21
-65.193730036417548
 31
0.0
  0
LINE
  5
2D0
  8
0
  6
CONTINUOUS
 62
     7
 10
34.184949999999979
 20
-65.693729036417551
 30
0.0
 11
36.184949999999979
 21
-65.693729036417551
 31
0.0
  0
LINE
  5
2D1
  8
0
  6
CONTINUOUS
 62
     7
 10
34.184949999999979
 20
-66.193728036417554
 30
0.0
 11
36.184949999999979
 21
-66.193728036417554
 31
0.0
  0
LINE
  5
2D2
  8
0
  6
CONTINUOUS
 62
     7
 10
34.184949999999979
 20
-66.693727036417556
 30
0.0
 11
36.184949999999979
 21
-66.693727036417556
 31
0.0
  0
LINE
  5
2D3
  8
0
  6
CONTINUOUS
 62
     7
 10
34.184949999999979
 20
-67.193726036417559
 30
0.0
 11
36.184949999999979
 21
-67.193726036417559
 31
0.0
  0
LINE
  5
2D4
  8
0
  6
CONTINUOUS
 62
     7
 10
34.184949999999979
 20
-67.693725036417561
 30
0.0
 11
36.184949999999979
 21
-67.693725036417561
 31
0.0
  0
LINE
  5
2D5
  8
0
  6
CONTINUOUS
 62
     7
 10
34.184949999999979
 20
-68.193724036417564
 30
0.0
 11
36.184949999999979
 21
-68.193724036417564
 31
0.0
  0
LINE
  5
2D6
  8
0
  6
CONTINUOUS
 62
     7
 10
34.184949999999979
 20
-68.693723036417566
 30
0.0
 11
36.184949999999979
 21
-68.693723036417566
 31
0.0
  0
LINE
  5
2D7
  8
0
  6
CONTINUOUS
 62
     7
 10
34.184949999999979
 20
-69.193723036417566
 30
0.0
 11
36.184949999999979
 21
-69.193723036417566
 31
0.0
  0
LINE
  5
2D8
  8
0
  6
CONTINUOUS
 62
     7
 10
34.184949999999979
 20
-69.693722036417554
 30
0.0
 11
36.184949999999979
 21
-69.693722036417554
 31
0.0
  0
LINE
  5
2D9
  8
0
  6
CONTINUOUS
 62
     7
 10
40.684949999999972
 20
-47.943732036417558
 30
0.0
 11
40.684949999999972
 21
-59.94373103641756
 31
0.0
  0
LINE
  5
2DA
  8
0
  6
CONTINUOUS
 62
     7
 10
33.184949999999979
 20
-47.943732036417558
 30
0.0
 11
40.684949999999972
 21
-47.943732036417558
 31
0.0
  0
LINE
  5
2DB
  8
0
  6
CONTINUOUS
 62
     7
 10
33.184949999999979
 20
-59.94373103641756
 30
0.0
 11
40.684949999999972
 21
-59.94373103641756
 31
0.0
  0
LINE
  5
2DC
  8
0
  6
CONTINUOUS
 62
     7
 10
40.684967999999969
 20
-47.943732036417558
 30
0.0
 11
42.634968999999977
 21
-45.99373103641755
 31
0.0
  0
LINE
  5
2DD
  8
0
  6
CONTINUOUS
 62
     7
 10
40.684967999999969
 20
-59.943732036417558
 30
0.0
 11
42.634966999999968
 21
-61.893731036417563
 31
0.0
  0
LINE
  5
2DE
  8
0
  6
CONTINUOUS
 62
     7
 10
42.634977999999983
 20
-45.993733036417552
 30
0.0
 11
42.634977999999983
 21
-61.893731036417563
 31
0.0
  0
LINE
  5
2E6
  8
0
  6
CONTINUOUS
 62
     7
 10
25.984953999999991
 20
-37.043737036417546
 30
0.0
 11
25.984953999999991
 21
-70.843726036417564
 31
0.0
  0
LINE
  5
2E7
  8
0
  6
CONTINUOUS
 62
     7
 10
25.984953999999991
 20
-37.043737036417546
 30
0.0
 11
25.984953999999991
 21
-70.843726036417564
 31
0.0
  0
LINE
  5
2E8
  8
0
  6
CONTINUOUS
 62
     7
 10
25.984953999999991
 20
-37.043737036417546
 30
0.0
 11
25.984953999999991
 21
-70.843726036417564
 31
0.0
  0
LINE
  5
2E9
  8
0
  6
CONTINUOUS
 62
     7
 10
-59.81505600000002
 20
-37.043737036417546
 30
0.0
 11
-59.81505600000002
 21
-70.843726036417564
 31
0.0
  0
LINE
  5
2EA
  8
0
  6
CONTINUOUS
 62
     7
 10
-52.615043000000028
 20
-37.043737036417546
 30
0.0
 11
-52.615043000000028
 21
-70.843726036417564
 31
0.0
  0
LINE
  5
2EB
  8
0
  6
CONTINUOUS
 62
     7
 10
-59.81505600000002
 20
-37.043737036417546
 30
0.0
 11
-52.615043000000028
 21
-37.043737036417546
 31
0.0
  0
LINE
  5
2EC
  8
0
  6
CONTINUOUS
 62
     7
 10
-59.81505600000002
 20
-70.843726036417564
 30
0.0
 11
-52.662010000000024
 21
-70.843726036417564
 31
0.0
  0
LINE
  5
2EE
  8
0
  6
CONTINUOUS
 62
     7
 10
18.784954999999979
 20
-70.843726036417564
 30
0.0
 11
33.184949999999979
 21
-70.843726036417564
 31
0.0
  0
LINE
  5
2EF
  8
0
  6
CONTINUOUS
 62
     7
 10
18.784954999999979
 20
-37.043737036417546
 30
0.0
 11
33.184949999999979
 21
-37.043737036417546
 31
0.0
  0
LINE
  5
2F0
  8
0
  6
CONTINUOUS
 62
     7
 10
18.784954999999979
 20
-37.043737036417546
 30
0.0
 11
18.784954999999979
 21
-70.843726036417564
 31
0.0
  0
LINE
  5
3FE
  8
0
 62
     7
 10
120.634978
 20
-56.943732036417572
 30
0.0
 11
90.634977999999975
 21
-56.943732036417558
 31
0.0
  0
LINE
  5
3FF
  8
0
 62
     7
 10
120.634978
 20
-50.943732036417551
 30
0.0
 11
90.634977999999975
 21
-50.943732036417558
 31
0.0
  0
LINE
  5
400
  8
0
 62
     7
 10
70.63497799999999
 20
-61.543732036417467
 30
0.0
 11
60.634977999999983
 21
-61.54373203641746
 31
0.0
  0
LINE
  5
401
  8
0
 62
     7
 10
70.449792814814259
 20
-46.343732036417563
 30
0.0
 11
60.634977999999983
 21
-46.343732036417563
 31
0.0
  0
LINE
  5
403
  8
0
 62
     7
 10
42.634977999999983
 20
-59.443732036417558
 30
0.0
 11
42.634977999999983
 21
-59.443732036417558
 31
0.0
  0
LINE
  5
404
  8
0
 62
     7
 10
42.634977999999983
 20
-48.443732036417551
 30
0.0
 11
42.634977999999983
 21
-48.443732036417551
 31
0.0
  0
LINE
  5
405
  8
0
 62
     7
 10
80.634977999999975
 20
-57.693732036417558
 30
0.0
 11
70.63497799999999
 21
-57.693732036417558
 31
0.0
  0
LINE
  5
406
  8
0
 62
     7
 10
80.634977999999975
 20
-50.193732036417558
 30
0.0
 11
70.449792814814259
 21
-50.193732036417558
 31
0.0
  0
LINE
  5
407
  8
0
 62
     7
 10
80.634977999999975
 20
-59.693732036417558
 30
0.0
 11
70.63497799999999
 21
-59.693732036417558
 31
0.0
  0
LINE
  5
408
  8
0
 62
     7
 10
80.634977999999975
 20
-57.693732036417558
 30
0.0
 11
80.634977999999975
 21
-50.193732036417558
 31
0.0
  0
LINE
  5
409
  8
0
 62
     7
 10
80.634977999999975
 20
-48.193732036417558
 30
0.0
 11
70.55327724594639
 21
-48.193732036417558
 31
0.0
  0
LINE
  5
40A
  8
0
 62
     7
 10
50.634977999999983
 20
-64.943732036417558
 30
0.0
 11
50.634977999999983
 21
-42.943732036417558
 31
0.0
  0
LINE
  5
40B
  8
0
 62
     7
 10
45.634977999999983
 20
-64.943732036417558
 30
0.0
 11
45.634977999999983
 21
-42.943732036417558
 31
0.0
  0
LINE
  5
40C
  8
0
 62
     7
 10
53.551778982239618
 20
-63.643732036417369
 30
0.0
 11
51.962854553517779
 21
-63.643732036417369
 31
0.0
  0
CIRCLE
  5
40D
  8
0
 62
     7
 10
52.634977999999983
 20
-63.643732036417369
 30
0.0
 40
1.0
  0
LINE
  5
40E
  8
0
 62
     7
 10
51.434977999999937
 20
-63.443732036417551
 30
0.0
 11
51.434977999999937
 21
-64.943732036417558
 31
0.0
  0
ARC
  5
40F
  8
0
 62
     7
 10
52.43497799999993
 20
-63.443732036417551
 30
0.0
 40
1.0
 50
90.0
 51
180.0
  0
LINE
  5
410
  8
0
 62
     7
 10
54.634977999999983
 20
-62.443732036417558
 30
0.0
 11
52.425784017398357
 21
-62.443732036417558
 31
0.0
  0
LINE
  5
411
  8
0
 62
     7
 10
53.551778982239618
 20
-44.24373203641742
 30
0.0
 11
51.962854553517779
 21
-44.24373203641742
 31
0.0
  0
CIRCLE
  5
412
  8
0
 62
     7
 10
52.634977999999983
 20
-44.24373203641742
 30
0.0
 40
1.0
  0
LINE
  5
413
  8
0
 62
     7
 10
51.434977999999937
 20
-44.443732036417551
 30
0.0
 11
51.434977999999937
 21
-42.943732036417558
 31
0.0
  0
ARC
  5
414
  8
0
 62
     7
 10
52.43497799999993
 20
-44.443732036417551
 30
0.0
 40
1.0
 50
180.0
 51
270.0
  0
LINE
  5
415
  8
0
 62
     7
 10
54.634977999999983
 20
-45.443732036417558
 30
0.0
 11
52.425784017398357
 21
-45.443732036417558
 31
0.0
  0
LINE
  5
416
  8
0
 62
     7
 10
52.634977999999983
 20
-43.497967041720138
 30
0.0
 11
52.634977999999983
 21
-44.640719505188777
 31
0.0
  0
LINE
  5
417
  8
0
 62
     7
 10
52.634977999999983
 20
-64.159363214525783
 30
0.0
 11
52.634977999999983
 21
-63.246744567646267
 31
0.0
  0
ARC
  5
418
  8
0
 62
     7
 10
87.63497799999999
 20
-62.193732036417558
 30
0.0
 40
3.0
 50
270.0
 51
0.0
  0
LINE
  5
419
  8
0
 62
     7
 10
87.63497799999999
 20
-65.193732036417572
 30
0.0
 11
85.634977999999975
 21
-65.193732036417572
 31
0.0
  0
ARC
  5
41A
  8
0
 62
     7
 10
85.634977999999975
 20
-62.193732036417558
 30
0.0
 40
3.0
 50
180.0
 51
270.0
  0
LINE
  5
41B
  8
0
 62
     7
 10
82.63497799999999
 20
-62.193732036417558
 30
0.0
 11
82.63497799999999
 21
-45.693732036417558
 31
0.0
  0
ARC
  5
41C
  8
0
 62
     7
 10
85.634977999999975
 20
-45.693732036417558
 30
0.0
 40
3.0
 50
90.0
 51
180.0
  0
LINE
  5
41D
  8
0
 62
     7
 10
90.634977999999975
 20
-62.193732036417558
 30
0.0
 11
90.634977999999975
 21
-45.693732036417558
 31
0.0
  0
LINE
  5
41E
  8
0
 62
     7
 10
87.63497799999999
 20
-42.693732036417558
 30
0.0
 11
85.634977999999975
 21
-42.693732036417558
 31
0.0
  0
ARC
  5
41F
  8
0
 62
     7
 10
87.63497799999999
 20
-45.693732036417558
 30
0.0
 40
3.0
 50
0.0
 51
90.0
  0
LINE
  5
420
  8
0
 62
     7
 10
86.634978000000004
 20
-65.193732036417572
 30
0.0
 11
80.634977999999975
 21
-65.193732036417572
 31
0.0
  0
LINE
  5
421
  8
0
 62
     7
 10
80.634977999999975
 20
-65.193732036417572
 30
0.0
 11
80.634977999999975
 21
-59.693732036417558
 31
0.0
  0
LINE
  5
422
  8
0
 62
     7
 10
80.634977999999975
 20
-48.193732036417558
 30
0.0
 11
80.634977999999975
 21
-42.693732036417558
 31
0.0
  0
LINE
  5
423
  8
0
 62
     7
 10
86.634978000000004
 20
-42.693732036417558
 30
0.0
 11
80.634977999999975
 21
-42.693732036417558
 31
0.0
  0
LINE
  5
424
  8
0
 62
     7
 10
82.792889881889664
 20
-64.193732036417572
 30
0.0
 11
81.239171414582813
 21
-64.193732036417572
 31
0.0
  0
LINE
  5
425
  8
0
 62
     7
 10
81.722151937677097
 20
-43.693732036417558
 30
0.0
 11
82.425866195130709
 21
-43.693732036417558
 31
0.0
  0
CIRCLE
  5
426
  8
0
 62
     7
 10
82.134977999999975
 20
-64.193732036417572
 30
0.0
 40
0.5
  0
CIRCLE
  5
427
  8
0
 62
     7
 10
82.134977999999975
 20
-43.693732036417558
 30
0.0
 40
0.5
  0
LINE
  5
428
  8
0
 62
     7
 10
87.63497799999999
 20
-45.693732036417558
 30
0.0
 11
84.606834979780956
 21
-45.693732036417558
 31
0.0
  0
CIRCLE
  5
429
  8
0
 62
     7
 10
86.634978000000004
 20
-62.193732036417558
 30
0.0
 40
2.25
  0
LINE
  5
42A
  8
0
 62
     7
 10
88.865994837435608
 20
-62.443732036417572
 30
0.0
 11
84.398910022500047
 21
-62.443732036417572
 31
0.0
  0
LINE
  5
42B
  8
0
 62
     7
 10
88.871045977499648
 20
-61.943732036417558
 30
0.0
 11
84.398910022500047
 21
-61.943732036417558
 31
0.0
  0
CIRCLE
  5
42C
  8
0
 62
     7
 10
86.634978000000004
 20
-45.693732036417558
 30
0.0
 40
1.3500000000000001
  0
LINE
  5
42D
  8
0
 62
     7
 10
105.634978
 20
-56.943732036417558
 30
0.0
 11
105.634978
 21
-50.943732036417558
 31
0.0
  0
LINE
  5
42E
  8
0
 62
     7
 10
80.634977999999975
 20
-64.193732036417572
 30
0.0
 11
71.63497799999999
 21
-64.193732036417572
 31
0.0
  0
ARC
  5
42F
  8
0
 62
     7
 10
71.63497799999999
 20
-63.193732036417558
 30
0.0
 40
1.0
 50
180.0
 51
270.0
  0
ARC
  5
430
  8
0
 62
     7
 10
53.634977999999983
 20
-63.943732036417551
 30
0.0
 40
1.0
 50
270.0
 51
0.0
  0
LINE
  5
431
  8
0
 62
     7
 10
53.634977999999983
 20
-64.943732036417558
 30
0.0
 11
43.634977999999983
 21
-64.943732036417558
 31
0.0
  0
ARC
  5
432
  8
0
 62
     7
 10
43.634977999999983
 20
-63.943732036417551
 30
0.0
 40
1.0
 50
180.0
 51
270.0
  0
LINE
  5
433
  8
0
 62
     7
 10
42.634977999999983
 20
-63.943732036417551
 30
0.0
 11
42.634977999999983
 21
-43.943732036417551
 31
0.0
  0
ARC
  5
434
  8
0
 62
     7
 10
43.634977999999983
 20
-43.943732036417551
 30
0.0
 40
1.0
 50
90.0
 51
180.0
  0
LINE
  5
435
  8
0
 62
     7
 10
53.634977999999983
 20
-42.943732036417558
 30
0.0
 11
43.634977999999983
 21
-42.943732036417558
 31
0.0
  0
LINE
  5
436
  8
0
 62
     7
 10
54.634977999999983
 20
-63.943732036417551
 30
0.0
 11
54.634977999999983
 21
-43.943732036417551
 31
0.0
  0
ARC
  5
437
  8
0
 62
     7
 10
53.634977999999983
 20
-43.943732036417551
 30
0.0
 40
1.0
 50
0.0
 51
90.0
  0
LINE
  5
438
  8
0
 62
     7
 10
70.63497799999999
 20
-63.193732036417558
 30
0.0
 11
70.63497799999999
 21
-44.693732036417558
 31
0.0
  0
LINE
  5
439
  8
0
 62
     7
 10
80.634977999999975
 20
-43.693732036417558
 30
0.0
 11
71.63497799999999
 21
-43.693732036417558
 31
0.0
  0
ARC
  5
43A
  8
0
 62
     7
 10
71.63497799999999
 20
-44.693732036417558
 30
0.0
 40
1.0
 50
90.0
 51
180.0
  0
ARC
  5
43B
  8
0
 62
     7
 10
60.134977999999983
 20
-63.943732036417551
 30
0.0
 40
0.5
 50
270.0
 51
0.0
  0
LINE
  5
43C
  8
0
 62
     7
 10
60.634977999999983
 20
-63.943732036417551
 30
0.0
 11
60.634977999999983
 21
-43.943732036417551
 31
0.0
  0
ARC
  5
43D
  8
0
 62
     7
 10
60.134977999999983
 20
-43.943732036417551
 30
0.0
 40
0.5
 50
0.0
 51
90.0
  0
LINE
  5
43E
  8
0
 62
     7
 10
60.134977999999983
 20
-64.443732036417558
 30
0.0
 11
54.501003403784338
 21
-64.443732036417558
 31
0.0
  0
LINE
  5
43F
  8
0
 62
     7
 10
60.134977999999983
 20
-43.443732036417551
 30
0.0
 11
54.501003403784338
 21
-43.443732036417551
 31
0.0
  0
LINE
  5
441
  8
0
 62
     7
 10
50.634977999999983
 20
-53.943732036417551
 30
0.0
 11
45.634977999999983
 21
-53.943732036417551
 31
0.0
  0
LINE
  5
442
  8
0
 62
     7
 10
50.634977999999983
 20
-54.943732036417558
 30
0.0
 11
45.634977999999983
 21
-54.943732036417558
 31
0.0
  0
LINE
  5
443
  8
0
 62
     7
 10
50.634977999999983
 20
-55.943732036417551
 30
0.0
 11
45.634977999999983
 21
-55.943732036417551
 31
0.0
  0
LINE
  5
444
  8
0
 62
     7
 10
50.634977999999983
 20
-56.943732036417558
 30
0.0
 11
45.634977999999983
 21
-56.943732036417558
 31
0.0
  0
LINE
  5
445
  8
0
 62
     7
 10
50.634977999999983
 20
-57.943732036417558
 30
0.0
 11
45.634977999999983
 21
-57.943732036417558
 31
0.0
  0
LINE
  5
446
  8
0
 62
     7
 10
50.634977999999983
 20
-58.943732036417551
 30
0.0
 11
45.634977999999983
 21
-58.943732036417551
 31
0.0
  0
LINE
  5
447
  8
0
 62
     7
 10
50.634977999999983
 20
-59.943732036417558
 30
0.0
 11
45.634977999999983
 21
-59.943732036417558
 31
0.0
  0
LINE
  5
448
  8
0
 62
     7
 10
50.634977999999983
 20
-60.943732036417551
 30
0.0
 11
45.634977999999983
 21
-60.943732036417551
 31
0.0
  0
LINE
  5
449
  8
0
 62
     7
 10
50.634977999999983
 20
-61.943732036417558
 30
0.0
 11
45.634977999999983
 21
-61.943732036417558
 31
0.0
  0
LINE
  5
44A
  8
0
 62
     7
 10
50.634977999999983
 20
-62.943732036417558
 30
0.0
 11
45.634977999999983
 21
-62.943732036417558
 31
0.0
  0
LINE
  5
44B
  8
0
 62
     7
 10
50.634977999999983
 20
-63.943732036417551
 30
0.0
 11
45.634977999999983
 21
-63.943732036417551
 31
0.0
  0
LINE
  5
44C
  8
0
 62
     7
 10
50.634977999999983
 20
-45.943732036417551
 30
0.0
 11
45.634977999999983
 21
-45.943732036417551
 31
0.0
  0
LINE
  5
44D
  8
0
 62
     7
 10
50.634977999999983
 20
-46.943732036417551
 30
0.0
 11
45.634977999999983
 21
-46.943732036417551
 31
0.0
  0
LINE
  5
44E
  8
0
 62
     7
 10
50.634977999999983
 20
-47.943732036417558
 30
0.0
 11
45.634977999999983
 21
-47.943732036417558
 31
0.0
  0
LINE
  5
44F
  8
0
 62
     7
 10
50.634977999999983
 20
-48.943732036417551
 30
0.0
 11
45.634977999999983
 21
-48.943732036417551
 31
0.0
  0
LINE
  5
450
  8
0
 62
     7
 10
50.634977999999983
 20
-49.943732036417558
 30
0.0
 11
45.634977999999983
 21
-49.943732036417558
 31
0.0
  0
LINE
  5
451
  8
0
 62
     7
 10
50.634977999999983
 20
-50.943732036417551
 30
0.0
 11
45.634977999999983
 21
-50.943732036417551
 31
0.0
  0
LINE
  5
452
  8
0
 62
     7
 10
50.634977999999983
 20
-51.943732036417558
 30
0.0
 11
45.634977999999983
 21
-51.943732036417558
 31
0.0
  0
LINE
  5
453
  8
0
 62
     7
 10
50.634977999999983
 20
-52.943732036417558
 30
0.0
 11
45.634977999999983
 21
-52.943732036417558
 31
0.0
  0
LINE
  5
454
  8
0
 62
     7
 10
50.634977999999983
 20
-44.943732036417558
 30
0.0
 11
45.634977999999983
 21
-44.943732036417558
 31
0.0
  0
LINE
  5
455
  8
0
 62
     7
 10
50.634977999999983
 20
-43.943732036417551
 30
0.0
 11
45.634977999999983
 21
-43.943732036417551
 31
0.0
  0
LINE
  5
456
  8
0
 62
     7
 10
60.634977999999983
 20
-53.943732036417551
 30
0.0
 11
54.634977999999983
 21
-53.943732036417551
 31
0.0
  0
LINE
  5
457
  8
0
 62
     7
 10
60.634977999999983
 20
-54.943732036417558
 30
0.0
 11
54.634977999999983
 21
-54.943732036417558
 31
0.0
  0
LINE
  5
458
  8
0
 62
     7
 10
60.634977999999983
 20
-55.943732036417551
 30
0.0
 11
54.634977999999983
 21
-55.943732036417551
 31
0.0
  0
LINE
  5
459
  8
0
 62
     7
 10
60.634977999999983
 20
-56.943732036417558
 30
0.0
 11
54.634977999999983
 21
-56.943732036417558
 31
0.0
  0
LINE
  5
45A
  8
0
 62
     7
 10
60.634977999999983
 20
-57.943732036417558
 30
0.0
 11
54.634977999999983
 21
-57.943732036417558
 31
0.0
  0
LINE
  5
45B
  8
0
 62
     7
 10
60.634977999999983
 20
-58.943732036417551
 30
0.0
 11
54.634977999999983
 21
-58.943732036417551
 31
0.0
  0
LINE
  5
45C
  8
0
 62
     7
 10
60.634977999999983
 20
-59.943732036417558
 30
0.0
 11
54.634977999999983
 21
-59.943732036417558
 31
0.0
  0
LINE
  5
45D
  8
0
 62
     7
 10
60.634977999999983
 20
-60.943732036417551
 30
0.0
 11
54.634977999999983
 21
-60.943732036417551
 31
0.0
  0
LINE
  5
45E
  8
0
 62
     7
 10
60.634977999999983
 20
-61.943732036417558
 30
0.0
 11
54.634977999999983
 21
-61.943732036417558
 31
0.0
  0
LINE
  5
45F
  8
0
 62
     7
 10
60.634977999999983
 20
-62.943732036417558
 30
0.0
 11
54.634977999999983
 21
-62.943732036417558
 31
0.0
  0
LINE
  5
460
  8
0
 62
     7
 10
60.634977999999983
 20
-63.943732036417551
 30
0.0
 11
54.634977999999983
 21
-63.943732036417551
 31
0.0
  0
LINE
  5
461
  8
0
 62
     7
 10
60.634977999999983
 20
-45.943732036417551
 30
0.0
 11
54.634977999999983
 21
-45.943732036417551
 31
0.0
  0
LINE
  5
462
  8
0
 62
     7
 10
60.634977999999983
 20
-46.943732036417551
 30
0.0
 11
54.634977999999983
 21
-46.943732036417551
 31
0.0
  0
LINE
  5
463
  8
0
 62
     7
 10
60.634977999999983
 20
-47.943732036417558
 30
0.0
 11
54.634977999999983
 21
-47.943732036417558
 31
0.0
  0
LINE
  5
464
  8
0
 62
     7
 10
60.634977999999983
 20
-48.943732036417551
 30
0.0
 11
54.634977999999983
 21
-48.943732036417551
 31
0.0
  0
LINE
  5
465
  8
0
 62
     7
 10
60.634977999999983
 20
-49.943732036417558
 30
0.0
 11
54.634977999999983
 21
-49.943732036417558
 31
0.0
  0
LINE
  5
466
  8
0
 62
     7
 10
60.634977999999983
 20
-50.943732036417551
 30
0.0
 11
54.634977999999983
 21
-50.943732036417551
 31
0.0
  0
LINE
  5
467
  8
0
 62
     7
 10
60.634977999999983
 20
-51.943732036417558
 30
0.0
 11
54.634977999999983
 21
-51.943732036417558
 31
0.0
  0
LINE
  5
468
  8
0
 62
     7
 10
60.634977999999983
 20
-52.943732036417558
 30
0.0
 11
54.634977999999983
 21
-52.943732036417558
 31
0.0
  0
LINE
  5
469
  8
0
 62
     7
 10
60.634977999999983
 20
-44.943732036417558
 30
0.0
 11
54.634977999999983
 21
-44.943732036417558
 31
0.0
  0
LINE
  5
46A
  8
0
 62
     7
 10
60.634977999999983
 20
-43.943732036417551
 30
0.0
 11
54.634977999999983
 21
-43.943732036417551
 31
0.0
  0
DIMENSION
  5
486
  8
0
 62
     7
  2
*D21
 10
90.634977999999975
 20
-25.043737036417539
 30
0.0
 11
61.909963999999988
 21
-21.960237036417539
 31
0.0
 70
     0
  1
(<>)
 13
33.184949999999979
 23
-37.043737036417546
 33
0.0
 14
90.634977999999975
 24
-45.693732036417558
 34
0.0
 50
0.0000000000000114
1001
ACAD_DSTYLE_DIMINSPECT
1070
   396
1000
100%
1070
   395
1000

1070
   394
1070
    33
1070
   393
1070
     0
1001
ACAD
1000
DSTYLE
1002
{
1070
   271
1070
     0
1002
}
  0
ARC
  5
4CA
  8
0
  6
CONTINUOUS
 62
     7
 10
120.634978
 20
-70.943732036417572
 30
0.0
 40
20.000000000000011
 50
314.99999999999989
 51
90.0
  0
ARC
  5
4CB
  8
0
  6
CONTINUOUS
 62
     7
 10
120.634978
 20
-70.943732036417586
 30
0.0
 40
14.000000000000011
 50
315.00000000000011
 51
89.999999999999943
  0
DIMENSION
  5
4CC
  8
0
 62
     7
  2
*D23
 10
140.63497799999999
 20
-25.219535061647889
 30
0.0
 11
115.634978
 21
-22.136035061647888
 31
0.0
 70
     0
  1
<> or more
 13
90.634977999999975
 23
-45.693732036417558
 33
0.0
 14
140.63497799999999
 24
-70.943732036417586
 34
0.0
1001
ACAD
1000
DSTYLE
1002
{
1070
   271
1070
     0
1002
}
1001
ACAD_DSTYLE_DIMINSPECT
1070
   396
1000
100%
1070
   395
1000

1070
   394
1070
    33
1070
   393
1070
     0
  0
DIMENSION
  5
513
  8
0
 62
     7
  2
*D24
 10
120.634978
 20
-70.943732036417572
 30
0.0
 11
162.90448266550399
 21
-69.000106369359614
 31
0.0
 70
   132
  1
Miniam\P<>
 15
140.6138682581649
 25
-70.025067760306626
 35
0.0
 40
0.0
1001
ACAD
1000
DSTYLE
1002
{
1070
   271
1070
     0
1002
}
1001
ACAD_DSTYLE_DIMRADIAL_EXTENSION
1070
   387
1070
     1
1070
   388
1040
5.4977871437821371
1070
   390
1040
1.5707963267948959
1001
ACAD_DSTYLE_DIMINSPECT
1070
   396
1000
100%
1070
   395
1000

1070
   394
1070
    33
1070
   393
1070
     0
  0
ENDSEC
  0
EOF
