  0
SECTION
  2
HEADER
  9
$ACADVER
  1
AC1018
  9
$ACADMAINTVER
 70
    77
  9
$DWGCODEPAGE
  3
ANSI_932
  9
$INSBASE
 10
0.0
 20
0.0
 30
0.0
  9
$EXTMIN
 10
-304.5434393251
 20
-210.0339751894044
 30
-0.0000000349181948
  9
$EXTMAX
 10
289.5367622108915
 20
210.0434051412662
 30
0.0000000814935747
  9
$LIMMIN
 10
-304.5
 20
-210.0
  9
$LIMMAX
 10
289.5
 20
210.0
  9
$ORTHOMODE
 70
     0
  9
$REGENMODE
 70
     1
  9
$FILLMODE
 70
     1
  9
$QTEXTMODE
 70
     0
  9
$MIRRTEXT
 70
     1
  9
$LTSCALE
 40
1.0
  9
$ATTMODE
 70
     1
  9
$TEXTSIZE
 40
0.2
  9
$TRACEWID
 40
0.05
  9
$TEXTSTYLE
  7
Standard
  9
$CLAYER
  8
DEFPOINTS
  9
$CELTYPE
  6
CONTINUOUS
  9
$CECOLOR
 62
   256
  9
$CELTSCALE
 40
1.0
  9
$DISPSILH
 70
     0
  9
$DIMSCALE
 40
1.0
  9
$DIMASZ
 40
2.5
  9
$DIMEXO
 40
1.27
  9
$DIMDLI
 40
3.75
  9
$DIMRND
 40
0.0
  9
$DIMDLE
 40
0.0
  9
$DIMEXE
 40
1.199999999999999
  9
$DIMTP
 40
0.0
  9
$DIMTM
 40
0.0
  9
$DIMTXT
 40
4.166999999999998
  9
$DIMCEN
 40
2.5
  9
$DIMTSZ
 40
0.0
  9
$DIMTOL
 70
     0
  9
$DIMLIM
 70
     0
  9
$DIMTIH
 70
     0
  9
$DIMTOH
 70
     0
  9
$DIMSE1
 70
     0
  9
$DIMSE2
 70
     0
  9
$DIMTAD
 70
     1
  9
$DIMZIN
 70
     8
  9
$DIMBLK
  1

  9
$DIMASO
 70
     1
  9
$DIMSHO
 70
     1
  9
$DIMPOST
  1

  9
$DIMAPOST
  1

  9
$DIMALT
 70
     0
  9
$DIMALTD
 70
     4
  9
$DIMALTF
 40
0.03937
  9
$DIMLFAC
 40
1.0
  9
$DIMTOFL
 70
     1
  9
$DIMTVP
 40
0.0
  9
$DIMTIX
 70
     0
  9
$DIMSOXD
 70
     0
  9
$DIMSAH
 70
     0
  9
$DIMBLK1
  1

  9
$DIMBLK2
  1

  9
$DIMSTYLE
  2
MXDIMSTYLE
  9
$DIMCLRD
 70
     0
  9
$DIMCLRE
 70
     0
  9
$DIMCLRT
 70
     0
  9
$DIMTFAC
 40
1.0
  9
$DIMGAP
 40
1.0
  9
$DIMJUST
 70
     0
  9
$DIMSD1
 70
     0
  9
$DIMSD2
 70
     0
  9
$DIMTOLJ
 70
     1
  9
$DIMTZIN
 70
     0
  9
$DIMALTZ
 70
     0
  9
$DIMALTTZ
 70
     0
  9
$DIMUPT
 70
     1
  9
$DIMDEC
 70
     4
  9
$DIMTDEC
 70
     4
  9
$DIMALTU
 70
     2
  9
$DIMALTTD
 70
     4
  9
$DIMTXSTY
  7
MX_NOTE_STANDARD
  9
$DIMAUNIT
 70
     0
  9
$DIMADEC
 70
     0
  9
$DIMALTRND
 40
0.0
  9
$DIMAZIN
 70
     0
  9
$DIMDSEP
 70
    46
  9
$DIMATFIT
 70
     3
  9
$DIMFRAC
 70
     0
  9
$DIMLDRBLK
  1

  9
$DIMLUNIT
 70
     2
  9
$DIMLWD
 70
    -2
  9
$DIMLWE
 70
    -2
  9
$DIMTMOVE
 70
     0
  9
$LUNITS
 70
     2
  9
$LUPREC
 70
     2
  9
$SKETCHINC
 40
0.1
  9
$FILLETRAD
 40
0.0
  9
$AUNITS
 70
     0
  9
$AUPREC
 70
     0
  9
$MENU
  1
acad
  9
$ELEVATION
 40
0.0
  9
$PELEVATION
 40
0.0
  9
$THICKNESS
 40
0.0
  9
$LIMCHECK
 70
     0
  9
$CHAMFERA
 40
0.0
  9
$CHAMFERB
 40
0.0
  9
$CHAMFERC
 40
0.0
  9
$CHAMFERD
 40
0.0
  9
$SKPOLY
 70
     0
  9
$TDCREATE
 40
2453606.433113426
  9
$TDUCREATE
 40
2453606.058113426
  9
$TDUPDATE
 40
2453976.407431296
  9
$TDUUPDATE
 40
2453976.032431296
  9
$TDINDWG
 40
0.0066948727
  9
$TDUSRTIMER
 40
0.0066948727
  9
$USRTIMER
 70
     1
  9
$ANGBASE
 50
0.0
  9
$ANGDIR
 70
     0
  9
$PDMODE
 70
     0
  9
$PDSIZE
 40
0.0
  9
$PLINEWID
 40
0.0
  9
$SPLFRAME
 70
     0
  9
$SPLINETYPE
 70
     6
  9
$SPLINESEGS
 70
     8
  9
$HANDSEED
  5
6B1
  9
$SURFTAB1
 70
     6
  9
$SURFTAB2
 70
     6
  9
$SURFTYPE
 70
     6
  9
$SURFU
 70
     6
  9
$SURFV
 70
     6
  9
$UCSBASE
  2

  9
$UCSNAME
  2

  9
$UCSORG
 10
0.0
 20
0.0
 30
0.0
  9
$UCSXDIR
 10
1.0
 20
0.0
 30
0.0
  9
$UCSYDIR
 10
0.0
 20
1.0
 30
0.0
  9
$UCSORTHOREF
  2

  9
$UCSORTHOVIEW
 70
     0
  9
$UCSORGTOP
 10
0.0
 20
0.0
 30
0.0
  9
$UCSORGBOTTOM
 10
0.0
 20
0.0
 30
0.0
  9
$UCSORGLEFT
 10
0.0
 20
0.0
 30
0.0
  9
$UCSORGRIGHT
 10
0.0
 20
0.0
 30
0.0
  9
$UCSORGFRONT
 10
0.0
 20
0.0
 30
0.0
  9
$UCSORGBACK
 10
0.0
 20
0.0
 30
0.0
  9
$PUCSBASE
  2

  9
$PUCSNAME
  2

  9
$PUCSORG
 10
0.0
 20
0.0
 30
0.0
  9
$PUCSXDIR
 10
1.0
 20
0.0
 30
0.0
  9
$PUCSYDIR
 10
0.0
 20
1.0
 30
0.0
  9
$PUCSORTHOREF
  2

  9
$PUCSORTHOVIEW
 70
     0
  9
$PUCSORGTOP
 10
0.0
 20
0.0
 30
0.0
  9
$PUCSORGBOTTOM
 10
0.0
 20
0.0
 30
0.0
  9
$PUCSORGLEFT
 10
0.0
 20
0.0
 30
0.0
  9
$PUCSORGRIGHT
 10
0.0
 20
0.0
 30
0.0
  9
$PUCSORGFRONT
 10
0.0
 20
0.0
 30
0.0
  9
$PUCSORGBACK
 10
0.0
 20
0.0
 30
0.0
  9
$USERI1
 70
     0
  9
$USERI2
 70
     0
  9
$USERI3
 70
     0
  9
$USERI4
 70
     0
  9
$USERI5
 70
     0
  9
$USERR1
 40
0.0
  9
$USERR2
 40
0.0
  9
$USERR3
 40
0.0
  9
$USERR4
 40
0.0
  9
$USERR5
 40
0.0
  9
$WORLDVIEW
 70
     1
  9
$SHADEDGE
 70
     3
  9
$SHADEDIF
 70
    70
  9
$TILEMODE
 70
     1
  9
$MAXACTVP
 70
    16
  9
$PINSBASE
 10
0.0
 20
0.0
 30
0.0
  9
$PLIMCHECK
 70
     0
  9
$PEXTMIN
 10
1.000000000000000E+20
 20
1.000000000000000E+20
 30
1.000000000000000E+20
  9
$PEXTMAX
 10
-1.000000000000000E+20
 20
-1.000000000000000E+20
 30
-1.000000000000000E+20
  9
$PLIMMIN
 10
0.0
 20
0.0
  9
$PLIMMAX
 10
12.0
 20
9.0
  9
$UNITMODE
 70
     0
  9
$VISRETAIN
 70
     0
  9
$PLINEGEN
 70
     1
  9
$PSLTSCALE
 70
     0
  9
$TREEDEPTH
 70
  3020
  9
$CMLSTYLE
  2
STANDARD
  9
$CMLJUST
 70
     0
  9
$CMLSCALE
 40
1.0
  9
$PROXYGRAPHICS
 70
     0
  9
$MEASUREMENT
 70
     1
  9
$CELWEIGHT
370
    -1
  9
$ENDCAPS
280
     0
  9
$JOINSTYLE
280
     0
  9
$LWDISPLAY
290
     0
  9
$INSUNITS
 70
     0
  9
$HYPERLINKBASE
  1

  9
$STYLESHEET
  1

  9
$XEDIT
290
     1
  9
$CEPSNTYPE
380
     0
  9
$PSTYLEMODE
290
     1
  9
$FINGERPRINTGUID
  2
{D1001427-905F-42E9-8C93-6AA6050E20C5}
  9
$VERSIONGUID
  2
{C735E45B-3AD5-4D0A-9AAF-891B290F3316}
  9
$EXTNAMES
290
     1
  9
$PSVPSCALE
 40
0.0
  9
$OLESTARTUP
290
     0
  9
$SORTENTS
280
   127
  9
$INDEXCTL
280
     0
  9
$HIDETEXT
280
     0
  9
$XCLIPFRAME
290
     0
  9
$HALOGAP
280
     0
  9
$OBSCOLOR
 70
   257
  9
$OBSLTYPE
280
     0
  9
$INTERSECTIONDISPLAY
280
     0
  9
$INTERSECTIONCOLOR
 70
   257
  9
$DIMASSOC
280
     1
  9
$PROJECTNAME
  1

  0
ENDSEC
  0
SECTION
  2
CLASSES
  0
CLASS
  1
IMAGE
  2
AcDbRasterImage
  3
ISM
 90
      127
 91
        0
280
     0
281
     1
  0
CLASS
  1
DICTIONARYVAR
  2
AcDbDictionaryVar
  3
ObjectDBX Classes
 90
        0
 91
        1
280
     0
281
     0
  0
CLASS
  1
RASTERVARIABLES
  2
AcDbRasterVariables
  3
ISM
 90
        0
 91
        0
280
     0
281
     0
  0
CLASS
  1
IMAGEDEF
  2
AcDbRasterImageDef
  3
ISM
 90
        0
 91
        0
280
     0
281
     0
  0
CLASS
  1
IMAGEDEF_REACTOR
  2
AcDbRasterImageDefReactor
  3
ISM
 90
        1
 91
        0
280
     0
281
     0
  0
CLASS
  1
IDBUFFER
  2
AcDbIdBuffer
  3
ObjectDBX Classes
 90
        0
 91
        0
280
     0
281
     0
  0
CLASS
  1
SPATIAL_FILTER
  2
AcDbSpatialFilter
  3
ObjectDBX Classes
 90
        0
 91
        0
280
     0
281
     0
  0
CLASS
  1
SORTENTSTABLE
  2
AcDbSortentsTable
  3
ObjectDBX Classes
 90
        0
 91
        0
280
     0
281
     0
  0
CLASS
  1
LAYER_INDEX
  2
AcDbLayerIndex
  3
ObjectDBX Classes
 90
        0
 91
        0
280
     0
281
     0
  0
CLASS
  1
SPATIAL_INDEX
  2
AcDbSpatialIndex
  3
ObjectDBX Classes
 90
        0
 91
        0
280
     0
281
     0
  0
CLASS
  1
OBJECT_PTR
  2
CAseDLPNTableRecord
  3
ASE-LPNTableRecord
 90
        1
 91
        0
280
     0
281
     0
  0
CLASS
  1
PLOTSETTINGS
  2
AcDbPlotSettings
  3
ObjectDBX Classes
 90
        0
 91
        0
280
     0
281
     0
  0
CLASS
  1
ACDBDICTIONARYWDFLT
  2
AcDbDictionaryWithDefault
  3
ObjectDBX Classes
 90
        0
 91
        1
280
     0
281
     0
  0
CLASS
  1
TABLESTYLE
  2
AcDbTableStyle
  3
ObjectDBX Classes
 90
     2047
 91
        1
280
     0
281
     0
  0
CLASS
  1
AMGSETTINGSOBJ
  2
AmgSettingsObj
  3
"AcadM|Product Description: AutoCAD Mechanical 2000|Company: Autodesk"
 90
        0
 91
        0
280
     0
281
     0
  0
CLASS
  1
ACME_DOCUMENT
  2
AcMeDbDoc
  3
AcMeServices
 90
        0
 91
        0
280
     0
281
     0
  0
CLASS
  1
ACMESCOPE
  2
AcMeScope
  3
AcMeServices
 90
        0
 91
        0
280
     0
281
     0
  0
CLASS
  1
ACMECOMMANDHISTORY
  2
AcMeCommandHistory
  3
AcMeServices
 90
        0
 91
        0
280
     0
281
     0
  0
CLASS
  1
ACIMSYSVARMAN
  2
AcImSysVarManager
  3
AcMeServices
 90
        0
 91
        0
280
     0
281
     0
  0
CLASS
  1
ACIMINTSYSVAR
  2
AcImIntSysVar
  3
AcMeServices
 90
        0
 91
        0
280
     0
281
     0
  0
CLASS
  1
ACMEDRAWINGMAN
  2
AcMeDrawingMan
  3
AcMeServices
 90
        0
 91
        0
280
     0
281
     0
  0
CLASS
  1
ACMEVIEW
  2
AcMeView
  3
AcMeServices
 90
        0
 91
        0
280
     0
281
     0
  0
CLASS
  1
ACDBENTITYCACHE
  2
AcMeEntityCache
  3
AcMeServices
 90
        0
 91
        0
280
     0
281
     0
  0
CLASS
  1
GSMANAGER
  2
AcMeGSManager
  3
AcMeServices
 90
        0
 91
        0
280
     0
281
     0
  0
CLASS
  1
AMDTINTERNALREACTOR
  2
AmdtInternalReactor
  3
AcMeServices
 90
        0
 91
        0
280
     0
281
     0
  0
CLASS
  1
ACMESTATEMGR
  2
AcMeStateMgr
  3
AcMeServices
 90
        0
 91
        0
280
     0
281
     0
  0
CLASS
  1
ACGREFMASTER
  2
AcGrefMaster
  3
AcAttribServices
 90
        0
 91
        0
280
     0
281
     0
  0
CLASS
  1
AM_DRAWING_MGR
  2
AcDmDwgMgr
  3
AcMechDwgViewMgmt
 90
        0
 91
        0
280
     0
281
     0
  0
CLASS
  1
AM_DWG_DOCUMENT
  2
AcDmDwgDocument
  3
AcMechDwgViewMgmt
 90
        0
 91
        0
280
     0
281
     0
  0
CLASS
  1
AM_DWG_SHEET
  2
AcDmSheet
  3
AcMechDwgViewMgmt
 90
        0
 91
        0
280
     0
281
     0
  0
CLASS
  1
AM_VIEWDIMPARMAP
  2
AcDmViewDimParMap
  3
AcMechDwgViewMgmt
 90
        0
 91
        0
280
     0
281
     0
  0
CLASS
  1
ACIMREALSYSVAR
  2
AcImRealSysVar
  3
AcMeServices
 90
        0
 91
        0
280
     0
281
     0
  0
CLASS
  1
AM_DWGMGR_NAME
  2
AcDmDwgMgrName
  3
AcMechDwgViewMgmt
 90
        0
 91
        0
280
     0
281
     0
  0
CLASS
  1
ACME_DATABASE
  2
AcMeDbDatabase
  3
AcMeServices
 90
        0
 91
        0
280
     0
281
     0
  0
CLASS
  1
ACRFINSADJUSTERMGR
  2
AcRfInsAdjusterMgr
  3
AcMeServices
 90
        0
 91
        0
280
     0
281
     0
  0
CLASS
  1
ACGREFACADMASTER
  2
AcGrefacadMaster
  3
AcGrefServices
 90
        0
 91
        0
280
     0
281
     0
  0
CLASS
  1
AMDTMENUSTATEMGR
  2
AmdtMenuStateMgr
  3
McadcomServices
 90
        0
 91
        0
280
     0
281
     0
  0
CLASS
  1
AMDTMCOMMENUSTATE
  2
AmdtMcomMenuState
  3
McadcomServices
 90
        0
 91
        0
280
     0
281
     0
  0
CLASS
  1
AMIMASTER
  2
AmiMaster
  3
AmiServices
 90
        0
 91
        0
280
     0
281
     0
  0
CLASS
  1
MAPIAMMOUDLE
  2
MApiAmModule
  3
MApiAmServices
 90
        0
 91
        0
280
     0
281
     0
  0
CLASS
  1
AMDTADMENUSTATE
  2
AmdtAdMenuState
  3
DesignerServices
 90
        0
 91
        0
280
     0
281
     0
  0
CLASS
  1
ADAPPL
  2
AcAdAppl
  3
DesignerServices
 90
        0
 91
        0
280
     0
281
     0
  0
CLASS
  1
DEPMGR
  2
AcAdDepMgr
  3
DesignerServices
 90
        0
 91
        0
280
     0
281
     0
  0
CLASS
  1
PARAMMGR
  2
AcAdParamMgr
  3
DesignerServices
 90
        0
 91
        0
280
     0
281
     0
  0
CLASS
  1
PARAMSCOPE
  2
AcAdParamScope
  3
DesignerServices
 90
        0
 91
        0
280
     0
281
     0
  0
CLASS
  1
NAMEDAPPL
  2
AcAdNamedAppl
  3
DesignerServices
 90
        0
 91
        0
280
     0
281
     0
  0
CLASS
  1
AMDTDMMENUSTATE
  2
AmdtDmMenuState
  3
AcMechDwgViewMgmt
 90
        0
 91
        0
280
     0
281
     0
  0
CLASS
  1
AMDTAMMENUSTATE
  2
AmdtAmMenuState
  3
DesignerAssemblies
 90
        0
 91
        0
280
     0
281
     0
  0
CLASS
  1
ACIMSTRSYSVAR
  2
AcImStrSysVar
  3
AcMeServices
 90
        0
 91
        0
280
     0
281
     0
  0
CLASS
  1
ACAMPROJECT
  2
AcAmProject
  3
DesignerAssemblies
 90
        0
 91
        0
280
     0
281
     0
  0
CLASS
  1
ACAMGRCOMPDEF
  2
AcAmGrCompDef
  3
DesignerAssemblies
 90
        0
 91
        0
280
     0
281
     0
  0
CLASS
  1
ACCMCONTEXT
  2
AcCmContext
  3
DesignerAssemblies
 90
        0
 91
        0
280
     0
281
     0
  0
CLASS
  1
ACAMCOMPDEF
  2
AcAmCompDef
  3
DesignerAssemblies
 90
        0
 91
        0
280
     0
281
     0
  0
CLASS
  1
ACAMCOMPDEFMGR
  2
AcAmCompDefMgr
  3
DesignerAssemblies
 90
        0
 91
        0
280
     0
281
     0
  0
CLASS
  1
AMCONTEXTMGR
  2
AcAmContextMgr
  3
DesignerAssemblies
 90
        0
 91
        0
280
     0
281
     0
  0
CLASS
  1
ACAMCONTEXTMODELER
  2
AcAmContextModeler
  3
DesignerAssemblies
 90
        0
 91
        0
280
     0
281
     0
  0
CLASS
  1
ACMDATADICTIONARY
  2
AcmDataDictionary
  3
"AcmSymBB|Product Description: AutoCAD Mechanical 2004 DX|Company: Autodesk"
 90
        0
 91
        0
280
     0
281
     0
  0
CLASS
  1
CATALOGSTATE
  2
AcAmCatalogState
  3
DesignerAssemblies
 90
        0
 91
        0
280
     0
281
     0
  0
CLASS
  1
ACAMGRCOMPDEFSET
  2
AcAmGrCompDefSet
  3
DesignerAssemblies
 90
        0
 91
        0
280
     0
281
     0
  0
CLASS
  1
AMDTBROWSERDBTAB
  2
AmdtBrowserDbTab
  3
McadcomServices
 90
        0
 91
        0
280
     0
281
     0
  0
CLASS
  1
CBROWSERAPPOBJECT
  2
CBrowserAppObject
  3
McadcomServices
 90
        0
 91
        0
280
     0
281
     0
  0
CLASS
  1
DM_PLACEHOLDER
  2
AcDmSelsetPlaceholder
  3
AcMechDwgViewMgmt
 90
        0
 91
        0
280
     0
281
     0
  0
CLASS
  1
VAACXREFPANELOBJECT
  2
VaAcXREFPanelObject
  3
VAAC_ADDIN
 90
        0
 91
        0
280
     0
281
     0
  0
CLASS
  1
ACMSTANDARDISO
  2
AcmStandardISO
  3
"Amdt_StdImp|Product Description: AutoCAD Mechanical 2004 DX|Company: Autodesk"
 90
        0
 91
        0
280
     0
281
     0
  0
CLASS
  1
AMGOBJPROPCFG
  2
AmgObjPropCfg
  3
"AmgLay|Product Description: AutoCAD Mechanical 2000|Company: Autodesk"
 90
        1
 91
        0
280
     0
281
     0
  0
CLASS
  1
AMDTEDGESTANDARDISO13715
  2
AmdtEdgeStdISO13715
  3
"Amdt_StdImp|Product Description: AutoCAD Mechanical 2004 DX|Company: Autodesk"
 90
        0
 91
        0
280
     0
281
     0
  0
CLASS
  1
ACMSURFSTANDARDISO
  2
AcmSurfTextStdISO
  3
"Amdt_StdImp|Product Description: AutoCAD Mechanical 2004 DX|Company: Autodesk"
 90
        0
 91
        0
280
     0
281
     0
  0
CLASS
  1
ACMFCFSTANDARDISO
  2
AcmFCFStdISO
  3
"Amdt_StdImp|Product Description: AutoCAD Mechanical 2004 DX|Company: Autodesk"
 90
        0
 91
        0
280
     0
281
     0
  0
CLASS
  1
ACMWELDSTANDARDISO
  2
AcmWeldingStdISO
  3
"Amdt_StdImp|Product Description: AutoCAD Mechanical 2004 DX|Company: Autodesk"
 90
        0
 91
        0
280
     0
281
     0
  0
CLASS
  1
ACMIDSTANDARDISO
  2
AcmIdStdISO
  3
"Amdt_StdImp|Product Description: AutoCAD Mechanical 2004 DX|Company: Autodesk"
 90
        0
 91
        0
280
     0
281
     0
  0
CLASS
  1
ACMDATUMSTANDARDISO
  2
AcmDatumStdISO
  3
"Amdt_StdImp|Product Description: AutoCAD Mechanical 2004 DX|Company: Autodesk"
 90
        0
 91
        0
280
     0
281
     0
  0
CLASS
  1
ACMBOMSTANDARDISO
  2
AcmBOMStdISO
  3
"Amdt_StdImp|Product Description: AutoCAD Mechanical 2004 DX|Company: Autodesk"
 90
        0
 91
        0
280
     0
281
     0
  0
CLASS
  1
ACMDETAILSTANDARDISO
  2
AmdtDetailSymStdISO
  3
"Amdt_StdImp|Product Description: AutoCAD Mechanical 2004 DX|Company: Autodesk"
 90
        0
 91
        0
280
     0
281
     0
  0
CLASS
  1
ACMSECTIONSTANDARDISO
  2
AmdtSectionSymStdISO
  3
"Amdt_StdImp|Product Description: AutoCAD Mechanical 2004 DX|Company: Autodesk"
 90
        0
 91
        0
280
     0
281
     0
  0
CLASS
  1
ACMCENTERLINESTANDARDISO
  2
AmdtCenterLineStdISO
  3
"Amdt_StdImp|Product Description: AutoCAD Mechanical 2004 DX|Company: Autodesk"
 90
        0
 91
        0
280
     0
281
     0
  0
CLASS
  1
ACMTHREADLINESTANDARDISO
  2
AmdtThreadLineStdISO
  3
"Amdt_StdImp|Product Description: AutoCAD Mechanical 2004 DX|Company: Autodesk"
 90
        0
 91
        0
280
     0
281
     0
  0
CLASS
  1
ACMNOTESTANDARDISO
  2
AmdtNoteStdISO
  3
"Amdt_StdImp|Product Description: AutoCAD Mechanical 2004 DX|Company: Autodesk"
 90
        0
 91
        0
280
     0
281
     0
  0
CLASS
  1
AMDTNOTETEMPLATEDB
  2
AmdtNoteTemplateDB
  3
AMDT_STDIMP_MODULE_NAME
 90
        0
 91
        0
280
     0
281
     0
  0
CLASS
  1
ACAMGLAYSTD
  2
AcAmgLayStd
  3
"AcAmgLayStd|Product Description: AutoCAD Mechanical 2000|Company: Autodesk"
 90
        0
 91
        0
280
     0
281
     0
  0
CLASS
  1
ACAMGDIMSTD
  2
AcAmgDimStd
  3
"AcAmgDimStd|Product Description: AutoCAD Mechanical 2000|Company: Autodesk"
 90
        0
 91
        0
280
     0
281
     0
  0
CLASS
  1
ACAMGHOLECHARTSTDISO
  2
AcAmgHoleChartStdISO
  3
ACMSYMBB_MODULE_NAME
 90
        0
 91
        0
280
     0
281
     0
  0
CLASS
  1
ACAMGTITLESTD
  2
AcAmgTitleStd
  3
"TITLEAPP"
 90
        0
 91
        0
280
     0
281
     0
  0
CLASS
  1
VAACIMAGEINVENTORY
  2
VaAcImageInventory
  3
VAAC_ADDIN
 90
        0
 91
        0
280
     0
281
     0
  0
CLASS
  1
ACAMGFILTERDAT
  2
AcAmgFilterDat
  3
"AcadM|Product Description: AutoCAD Mechanical 2000|Company: Autodesk"
 90
        0
 91
        0
280
     0
281
     0
  0
CLASS
  1
DIMASSOC
  2
AcDbDimAssoc
  3
"AcDbDimAssoc|Product Desc:     AcDim ARX App For Dimension|Company:          Autodesk, Inc.|WEB Address:      www.autodesk.com"
 90
        0
 91
       14
280
     0
281
     0
  0
CLASS
  1
ACMDATAENTRYBLOCK
  2
AcmDataEntryBlock
  3
"AcmSymBB|Product Description: AutoCAD Mechanical 2004 DX|Company: Autodesk"
 90
        0
 91
        0
280
     0
281
     0
  0
CLASS
  1
ACRFATTGENMGR
  2
AcRfAttGeneralMgr
  3
AcAttribServices
 90
        0
 91
        0
280
     0
281
     0
  0
ENDSEC
  0
SECTION
  2
TABLES
  0
TABLE
  2
VPORT
  5
7
330
0
100
AcDbSymbolTable
 70
     2
  0
VPORT
  5
6B0
330
7
100
AcDbSymbolTableRecord
100
AcDbViewportTableRecord
  2
*Active
 70
     0
 10
0.0
 20
0.0
 11
1.0
 21
1.0
 12
-7.503338557104276
 22
0.0047149759309377
 13
0.0
 23
0.0
 14
1.0
 24
1.0
 15
0.0
 25
0.0
 16
0.0
 26
0.0
 36
1.0
 17
0.0
 27
0.0
 37
0.0
 40
423.154870296463
 41
1.474327628361858
 42
50.0
 43
0.0
 44
0.0
 50
0.0
 51
0.0
 71
     0
 72
   100
 73
     1
 74
     1
 75
     0
 76
     0
 77
     0
 78
     0
281
     0
 65
     0
110
0.0
120
0.0
130
0.0
111
1.0
121
0.0
131
0.0
112
0.0
122
1.0
132
0.0
 79
     0
146
0.0
  0
ENDTAB
  0
TABLE
  2
LTYPE
  5
4
330
0
100
AcDbSymbolTable
 70
    16
  0
LTYPE
  5
11
330
4
100
AcDbSymbolTableRecord
100
AcDbLinetypeTableRecord
  2
BYBLOCK
 70
     0
  3

 72
    65
 73
     0
 40
0.0
  0
LTYPE
  5
12
330
4
100
AcDbSymbolTableRecord
100
AcDbLinetypeTableRecord
  2
BYLAYER
 70
     0
  3

 72
    65
 73
     0
 40
0.0
  0
LTYPE
  5
13
330
4
100
AcDbSymbolTableRecord
100
AcDbLinetypeTableRecord
  2
CONTINUOUS
 70
     0
  3
Solid line
 72
    65
 73
     0
 40
0.0
  0
LTYPE
  5
20
330
4
100
AcDbSymbolTableRecord
100
AcDbLinetypeTableRecord
  2
NON_PLOTING
 70
     0
  3
Solid line
 72
    65
 73
     0
 40
0.0
  0
LTYPE
  5
E5
330
4
100
AcDbSymbolTableRecord
100
AcDbLinetypeTableRecord
  2
CENTER
 70
     0
  3
Center ____ _ ____ _ ____ _ ____ _ ____ _ ____
 72
    65
 73
     4
 40
50.8
 49
31.75
 74
     0
 49
-6.349999999999998
 74
     0
 49
6.349999999999998
 74
     0
 49
-6.349999999999998
 74
     0
  0
LTYPE
  5
21C
330
4
100
AcDbSymbolTableRecord
100
AcDbLinetypeTableRecord
  2
HIDDEN
 70
     0
  3
Hidden __ __ __ __ __ __ __ __ __ __ __ __ __ _
 72
    65
 73
     2
 40
9.524999999999996
 49
6.349999999999998
 74
     0
 49
-3.174999999999998
 74
     0
  0
LTYPE
  5
21D
330
4
100
AcDbSymbolTableRecord
100
AcDbLinetypeTableRecord
  2
PHANTOM2
 70
     0
  3
Phantom (.5x) ___ _ _ ___ _ _ ___ _ _ ___ _ _
 72
    65
 73
     6
 40
31.75
 49
15.875
 74
     0
 49
-3.174999999999998
 74
     0
 49
3.174999999999998
 74
     0
 49
-3.174999999999998
 74
     0
 49
3.174999999999998
 74
     0
 49
-3.174999999999998
 74
     0
  0
LTYPE
  5
252
330
4
100
AcDbSymbolTableRecord
100
AcDbLinetypeTableRecord
  2
AM_ISO02W050
 70
     0
  3
__ __ __ __ __ __ __ __ __ __ __ __ __ __ __
 72
    65
 73
     2
 40
7.5
 49
6.0
 74
     0
 49
-1.5
 74
     0
  0
LTYPE
  5
253
330
4
100
AcDbSymbolTableRecord
100
AcDbLinetypeTableRecord
  2
AM_ISO08W050
 70
     0
  3
____ . ____ . ____ . ____ . ____ . ____ . ____
 72
    65
 73
     4
 40
18.0
 49
12.0
 74
     0
 49
-1.5
 74
     0
 49
3.0
 74
     0
 49
-1.5
 74
     0
  0
LTYPE
  5
254
330
4
100
AcDbSymbolTableRecord
100
AcDbLinetypeTableRecord
  2
AM_ISO09W050
 70
     0
  3
_____ . . _____ . . _____ . . ____ .. ____
 72
    65
 73
     6
 40
22.5
 49
12.0
 74
     0
 49
-1.5
 74
     0
 49
3.0
 74
     0
 49
-1.5
 74
     0
 49
3.0
 74
     0
 49
-1.5
 74
     0
  0
LTYPE
  5
255
330
4
100
AcDbSymbolTableRecord
100
AcDbLinetypeTableRecord
  2
Amconstr
 70
     0
  3
_______________________
 72
    65
 73
     2
 40
9999.0
 49
9999.0
 74
     0
 49
0.0
 74
     0
  0
LTYPE
  5
256
330
4
100
AcDbSymbolTableRecord
100
AcDbLinetypeTableRecord
  2
AM_ISO08W050x2
 70
     0
  3
__ . __ . __ . __ . __ . __
 72
    65
 73
     4
 40
9.0
 49
6.0
 74
     0
 49
-0.75
 74
     0
 49
1.5
 74
     0
 49
-0.75
 74
     0
  0
LTYPE
  5
257
330
4
100
AcDbSymbolTableRecord
100
AcDbLinetypeTableRecord
  2
AM_ISO02W050x2
 70
     0
  3
 _ _ _ _ _ _ _ _ _ _ _ _
 72
    65
 73
     2
 40
3.75
 49
3.0
 74
     0
 49
-0.75
 74
     0
  0
LTYPE
  5
25A
330
4
100
AcDbSymbolTableRecord
100
AcDbLinetypeTableRecord
  2
Amzigzag
 70
     0
  3
/\/-/\/-/\/-/\/-/\/-/\/
 72
    65
 73
     2
 40
11.0001
 49
0.0001
 74
     4
 75
   135
340
259
 46
0.04
 50
0.0
 44
0.0
 45
0.0
 49
-11.0
 74
     0
  0
LTYPE
  5
269
330
4
100
AcDbSymbolTableRecord
100
AcDbLinetypeTableRecord
  2
ACISOWELD
 70
     0
  3
_ _ _ _ _
 72
    65
 73
     2
 40
2.0
 49
2.0
 74
     0
 49
-1.0
 74
     0
  0
LTYPE
  5
26A
330
4
100
AcDbSymbolTableRecord
100
AcDbLinetypeTableRecord
  2
ACISOTGB
 70
     0
  3
__ . . __ . .
 72
    65
 73
     6
 40
9.0
 49
4.0
 74
     0
 49
-1.0
 74
     0
 49
1.0
 74
     0
 49
-1.0
 74
     0
 49
1.0
 74
     0
 49
-1.0
 74
     0
  0
LTYPE
  5
26B
330
4
100
AcDbSymbolTableRecord
100
AcDbLinetypeTableRecord
  2
ACISOTGL
 70
     0
  3
_ _ _ _ _
 72
    65
 73
     2
 40
3.0
 49
2.0
 74
     0
 49
-1.0
 74
     0
  0
LTYPE
  5
37B
330
4
100
AcDbSymbolTableRecord
100
AcDbLinetypeTableRecord
  2
DASHDOT2
 70
     0
  3
Dash dot (.5x) _._._._._._._._._._._._._._._.
 72
    65
 73
     4
 40
12.7
 49
6.349999999999997
 74
     0
 49
-3.174999999999998
 74
     0
 49
0.0
 74
     0
 49
-3.174999999999998
 74
     0
  0
ENDTAB
  0
TABLE
  2
LAYER
  5
2
102
{ACAD_XDICTIONARY
360
386
102
}
330
0
100
AcDbSymbolTable
 70
     8
  0
LAYER
  5
14
330
2
100
AcDbSymbolTableRecord
100
AcDbLayerTableRecord
  2
0
 70
     0
 62
     7
  6
CONTINUOUS
370
    -3
390
1DE
  0
LAYER
  5
1D
330
2
100
AcDbSymbolTableRecord
100
AcDbLayerTableRecord
  2
DEFPOINTS
 70
     0
 62
     7
  6
CONTINUOUS
290
     0
370
    -3
390
1DE
  0
LAYER
  5
1E
330
2
100
AcDbSymbolTableRecord
100
AcDbLayerTableRecord
  2
FV
 70
     0
 62
     7
  6
CONTINUOUS
370
    -3
390
1DE
  0
LAYER
  5
1F
330
2
100
AcDbSymbolTableRecord
100
AcDbLayerTableRecord
  2
PV
 70
     0
 62
     7
  6
CONTINUOUS
370
    -3
390
1DE
  0
LAYER
  5
37C
330
2
100
AcDbSymbolTableRecord
100
AcDbLayerTableRecord
  2
1
 70
     0
 62
     7
  6
CONTINUOUS
370
    -3
390
1DE
  0
LAYER
  5
37D
330
2
100
AcDbSymbolTableRecord
100
AcDbLayerTableRecord
  2
SCALE
 70
     0
 62
     7
  6
CONTINUOUS
370
    -3
390
1DE
  0
LAYER
  5
37E
330
2
100
AcDbSymbolTableRecord
100
AcDbLayerTableRecord
  2
TXT1
 70
     0
 62
     7
  6
CONTINUOUS
370
    -3
390
1DE
  0
LAYER
  5
37F
330
2
100
AcDbSymbolTableRecord
100
AcDbLayerTableRecord
  2
25
 70
     0
 62
     7
  6
CONTINUOUS
370
    -3
390
1DE
  0
ENDTAB
  0
TABLE
  2
STYLE
  5
3
330
0
100
AcDbSymbolTable
 70
     9
  0
STYLE
  5
17
330
3
100
AcDbSymbolTableRecord
100
AcDbTextStyleTableRecord
  2
MX_NOTE_STANDARD
 70
     0
 40
0.0
 41
1.0
 50
0.0
 71
     0
 42
4.166999999999998
  3
txt.shx
  4
extfont.shx
  0
STYLE
  5
11D
330
3
100
AcDbSymbolTableRecord
100
AcDbTextStyleTableRecord
  2
MX_DIMTXSTY_2
 70
     0
 40
0.0
 41
1.199999999999999
 50
0.0
 71
     0
 42
4.166999999999998
  3
txt.shx
  4
extfont.shx
  0
STYLE
  5
1A0
330
3
100
AcDbSymbolTableRecord
100
AcDbTextStyleTableRecord
  2
MX_DIMTXSTY_3
 70
     0
 40
0.0
 41
1.5
 50
0.0
 71
     0
 42
4.166999999999998
  3
txt.shx
  4
extfont.shx
  0
STYLE
  5
1AE
330
3
100
AcDbSymbolTableRecord
100
AcDbTextStyleTableRecord
  2
MX_DIMTXSTY_4
 70
     0
 40
0.0
 41
1.35
 50
0.0
 71
     0
 42
4.166999999999998
  3
txt.shx
  4
extfont.shx
  0
STYLE
  5
1C6
330
3
100
AcDbSymbolTableRecord
100
AcDbTextStyleTableRecord
  2
MX_DIMTXSTY_5
 70
     0
 40
0.0
 41
0.85
 50
0.0
 71
     0
 42
4.166999999999998
  3
txt.shx
  4
extfont.shx
  0
STYLE
  5
1DC
330
3
100
AcDbSymbolTableRecord
100
AcDbTextStyleTableRecord
  2
Standard
 70
     0
 40
0.0
 41
1.0
 50
0.0
 71
     0
 42
0.2
  3
romans.shx
  4
@extfont2.shx
  0
STYLE
  5
259
330
3
100
AcDbSymbolTableRecord
100
AcDbTextStyleTableRecord
  2

 70
     1
 40
0.0
 41
1.0
 50
0.0
 71
     0
 42
4.166999999999998
  3
ltypeshp.shx
  4

  0
STYLE
  5
25B
330
3
100
AcDbSymbolTableRecord
100
AcDbTextStyleTableRecord
  2
ACISOTS
 70
     0
 40
1.0
 41
1.0
 50
0.0
 71
     0
 42
4.166999999999998
  3
isocp.shx
  4
extfont.shx
  0
STYLE
  5
268
330
3
100
AcDbSymbolTableRecord
100
AcDbTextStyleTableRecord
  2
ACISOGDT
 70
     0
 40
0.0
 41
1.0
 50
0.0
 71
     0
 42
4.166999999999998
  3
amgdt.shx
  4

  0
ENDTAB
  0
TABLE
  2
VIEW
  5
5
330
0
100
AcDbSymbolTable
 70
     0
  0
ENDTAB
  0
TABLE
  2
UCS
  5
6
330
0
100
AcDbSymbolTable
 70
     0
  0
ENDTAB
  0
TABLE
  2
APPID
  5
8
330
0
100
AcDbSymbolTable
 70
    13
  0
APPID
  5
16
330
8
100
AcDbSymbolTableRecord
100
AcDbRegAppTableRecord
  2
ACAD
 70
     0
  0
APPID
  5
1EF
330
8
100
AcDbSymbolTableRecord
100
AcDbRegAppTableRecord
  2
MCAD_NO_VIS
 70
     0
  0
APPID
  5
1F0
330
8
100
AcDbSymbolTableRecord
100
AcDbRegAppTableRecord
  2
ACAD_TEMP_GRAPHIC
 70
     0
  0
APPID
  5
21F
330
8
100
AcDbSymbolTableRecord
100
AcDbRegAppTableRecord
  2
AD_DRAW
 70
     0
  0
APPID
  5
222
330
8
100
AcDbSymbolTableRecord
100
AcDbRegAppTableRecord
  2
ACATTRIBSERVICES
 70
     0
  0
APPID
  5
240
330
8
100
AcDbSymbolTableRecord
100
AcDbRegAppTableRecord
  2
DESIGNERASSEMBLIES
 70
     0
  0
APPID
  5
246
330
8
100
AcDbSymbolTableRecord
100
AcDbRegAppTableRecord
  2
ACADM_DIM_EDIT
 70
     0
  0
APPID
  5
247
330
8
100
AcDbSymbolTableRecord
100
AcDbRegAppTableRecord
  2
AMDT_DM_ADJ
 70
     0
  0
APPID
  5
381
330
8
100
AcDbSymbolTableRecord
100
AcDbRegAppTableRecord
  2
ACAD_DSTYLE_DIMEXT_LENGTH
 70
     0
  0
APPID
  5
382
330
8
100
AcDbSymbolTableRecord
100
AcDbRegAppTableRecord
  2
ACAD_DSTYLE_DIMEXT_ENABLED
 70
     0
  0
APPID
  5
383
330
8
100
AcDbSymbolTableRecord
100
AcDbRegAppTableRecord
  2
ACAD_DSTYLE_DIMJOGGED_JOGANGLE_SYMBOL
 70
     0
  0
APPID
  5
384
330
8
100
AcDbSymbolTableRecord
100
AcDbRegAppTableRecord
  2
ACAD_DSTYLE_DIMARC_LENGTH_SYMBOL
 70
     0
  0
APPID
  5
385
330
8
100
AcDbSymbolTableRecord
100
AcDbRegAppTableRecord
  2
DCO15
 70
     0
  0
ENDTAB
  0
TABLE
  2
DIMSTYLE
  5
9
330
0
100
AcDbSymbolTable
 70
     9
100
AcDbDimStyleTable
 71
     0
  0
DIMSTYLE
105
18
330
9
100
AcDbSymbolTableRecord
100
AcDbDimStyleTableRecord
  2
MXDIMSTYLE
 70
     0
 41
2.5
 42
1.27
 43
3.75
 44
1.199999999999999
 73
     0
 74
     0
 77
     1
 78
     8
140
4.166999999999998
141
2.5
143
0.03937
147
1.0
171
     4
172
     1
274
     4
288
     1
340
17
  0
DIMSTYLE
105
275
330
9
100
AcDbSymbolTableRecord
100
AcDbDimStyleTableRecord
  2
AM_ISO
 70
     0
  4
"
 41
2.5
 42
1.0
 43
10.0
 44
1.0
 47
0.1
 48
0.1
 73
     0
 74
     0
 77
     1
 78
     8
 79
     2
140
3.5
141
0.0
143
0.0393701
146
0.71
147
1.5
172
     1
176
   256
177
   256
178
     2
271
     2
272
     3
274
     4
283
     0
284
     8
340
1DC
371
    -1
372
    -1
  0
DIMSTYLE
105
276
330
9
100
AcDbSymbolTableRecord
100
AcDbDimStyleTableRecord
  2
AM_ISO$3
 70
     0
  4
"
 41
2.5
 42
1.0
 43
10.0
 44
1.0
 47
0.1
 48
0.1
 73
     0
 77
     1
 78
     8
 79
     2
140
3.5
141
0.0
143
0.0393701
146
0.71
147
1.5
176
   256
177
   256
178
     2
271
     2
272
     3
274
     4
283
     0
284
     8
288
     1
289
     0
340
1DC
371
    -1
372
    -1
  0
DIMSTYLE
105
277
330
9
100
AcDbSymbolTableRecord
100
AcDbDimStyleTableRecord
  2
AM_ISO$4
 70
     0
  4
"
 41
2.5
 42
1.0
 43
10.0
 44
1.0
 47
0.1
 48
0.1
 73
     0
 77
     1
 78
     8
 79
     2
140
3.5
141
0.0
143
0.0393701
146
0.71
147
1.5
176
   256
177
   256
178
     2
271
     2
272
     3
274
     4
283
     0
284
     8
288
     1
289
     0
340
1DC
371
    -1
372
    -1
  0
DIMSTYLE
105
278
330
9
100
AcDbSymbolTableRecord
100
AcDbDimStyleTableRecord
  2
AM_ISO$6
 70
     0
  4
"
 41
2.5
 42
1.0
 43
10.0
 44
1.0
 47
0.1
 48
0.1
 73
     0
 74
     0
 78
     8
 79
     2
140
3.5
141
0.0
143
0.0393701
146
0.71
147
1.5
172
     1
176
   256
177
   256
178
     2
271
     2
272
     3
274
     4
283
     0
284
     8
340
1DC
371
    -1
372
    -1
  0
DIMSTYLE
105
279
330
9
100
AcDbSymbolTableRecord
100
AcDbDimStyleTableRecord
  2
AM_ISO$7
 70
     0
  4
"
 41
2.5
 42
1.0
 43
10.0
 44
1.0
 47
0.1
 48
0.1
 73
     0
 74
     0
 77
     1
 78
     8
 79
     2
140
5.0
141
0.0
143
0.0393701
146
0.71
147
1.5
172
     1
176
   256
177
   256
178
     2
271
     2
272
     3
274
     4
283
     0
284
     8
340
1DC
371
    -1
372
    -1
  0
DIMSTYLE
105
27A
330
9
100
AcDbSymbolTableRecord
100
AcDbDimStyleTableRecord
  2
AM_ISO$SF
 70
     0
  4
"
 41
2.5
 42
1.0
 43
10.0
 44
1.0
 47
0.1
 48
0.1
 73
     0
 74
     0
 75
     1
 76
     1
 77
     1
 78
     8
 79
     2
140
3.5
141
0.0
143
0.0393701
146
0.71
147
1.5
172
     1
176
   256
177
   256
178
     2
271
     2
272
     3
274
     4
283
     0
284
     8
340
1DC
371
    -1
372
    -1
  0
DIMSTYLE
105
27F
330
9
100
AcDbSymbolTableRecord
100
AcDbDimStyleTableRecord
  2
AM_ISO$SH
 70
     0
  4
"
 41
2.5
 42
1.0
 43
10.0
 44
1.0
 47
0.1
 48
0.1
 73
     0
 74
     0
 75
     1
 76
     1
 77
     1
 78
     8
 79
     2
140
3.5
141
0.0
143
0.0393701
144
2.0
146
0.71
147
1.5
172
     1
173
     1
176
   256
177
   256
178
     2
271
     2
272
     3
274
     4
283
     0
284
     8
340
1DC
343
27B
371
    -1
372
    -1
  0
DIMSTYLE
105
380
102
{ACAD_REACTORS
330
4FB
330
4FE
330
501
330
4D4
330
4D7
330
4DA
330
4DD
330
4E0
330
4E3
330
4E6
330
4E9
330
4EE
330
4EF
330
4F0
330
4F5
330
4F8
102
}
330
9
100
AcDbSymbolTableRecord
100
AcDbDimStyleTableRecord
  2
ISO-25
 70
     0
 41
2.5
 42
0.625
 43
3.75
 44
1.25
 47
0.2
 48
0.000000001
 73
     0
 74
     0
 77
     1
 78
     8
140
4.0
141
2.5
143
0.03937007874016
147
0.625
171
     3
172
     1
271
     2
272
     2
274
     3
284
     8
340
1DC
341
115
342
115
1001
ACAD_DSTYLE_DIMEXT_LENGTH
1070
   378
1040
1.25
1001
ACAD_DSTYLE_DIMEXT_ENABLED
1070
   383
1070
     0
1001
ACAD_DSTYLE_DIMARC_LENGTH_SYMBOL
1070
   379
1070
     0
1001
ACAD_DSTYLE_DIMJOGGED_JOGANGLE_SYMBOL
1070
   384
1040
1.570796326794896
  0
ENDTAB
  0
TABLE
  2
BLOCK_RECORD
  5
1
330
0
100
AcDbSymbolTable
 70
    51
  0
BLOCK_RECORD
  5
A
330
1
100
AcDbSymbolTableRecord
100
AcDbBlockTableRecord
  2
*MODEL_SPACE
340
1E5
  0
BLOCK_RECORD
  5
B
330
1
100
AcDbSymbolTableRecord
100
AcDbBlockTableRecord
  2
*PAPER_SPACE
340
1E6
  0
BLOCK_RECORD
  5
110
330
1
100
AcDbSymbolTableRecord
100
AcDbBlockTableRecord
  2
*D0
340
0
  0
BLOCK_RECORD
  5
115
330
1
100
AcDbSymbolTableRecord
100
AcDbBlockTableRecord
  2
_OPEN30
340
0
102
{BLKREFS
331
11B
331
11C
331
129
331
12A
331
138
331
139
331
144
331
145
331
151
331
152
331
15E
331
15F
331
16B
331
16C
331
178
331
179
331
185
331
186
331
192
331
193
331
19E
331
19F
331
1AC
331
1AD
331
1B8
331
1B9
331
1C4
331
1C5
331
1D2
331
1D3
331
2D9
331
2DA
331
2E5
331
2E6
331
2F1
331
2F2
331
2FD
331
2FE
331
309
331
30A
331
317
331
318
331
323
331
324
331
32F
331
330
331
2C1
331
2C2
331
2CD
331
2CE
331
33B
331
33C
331
347
331
348
331
353
331
354
331
35D
331
35E
331
368
331
369
331
374
331
375
331
5F2
331
5F3
331
5FB
331
5FC
331
60D
331
60E
331
616
331
617
331
621
331
622
331
62A
331
62B
331
633
331
634
331
63C
331
63D
331
645
331
646
331
64E
331
64F
331
657
331
658
331
66F
331
670
331
678
331
679
331
67F
331
680
331
687
331
688
331
690
331
691
102
}
  0
BLOCK_RECORD
  5
124
330
1
100
AcDbSymbolTableRecord
100
AcDbBlockTableRecord
  2
*D2
340
0
  0
BLOCK_RECORD
  5
131
330
1
100
AcDbSymbolTableRecord
100
AcDbBlockTableRecord
  2
*D3
340
0
  0
BLOCK_RECORD
  5
140
330
1
100
AcDbSymbolTableRecord
100
AcDbBlockTableRecord
  2
*D4
340
0
  0
BLOCK_RECORD
  5
14C
330
1
100
AcDbSymbolTableRecord
100
AcDbBlockTableRecord
  2
*D5
340
0
  0
BLOCK_RECORD
  5
159
330
1
100
AcDbSymbolTableRecord
100
AcDbBlockTableRecord
  2
*D6
340
0
  0
BLOCK_RECORD
  5
166
330
1
100
AcDbSymbolTableRecord
100
AcDbBlockTableRecord
  2
*D7
340
0
  0
BLOCK_RECORD
  5
173
330
1
100
AcDbSymbolTableRecord
100
AcDbBlockTableRecord
  2
*D8
340
0
  0
BLOCK_RECORD
  5
180
330
1
100
AcDbSymbolTableRecord
100
AcDbBlockTableRecord
  2
*D9
340
0
  0
BLOCK_RECORD
  5
18D
330
1
100
AcDbSymbolTableRecord
100
AcDbBlockTableRecord
  2
*D10
340
0
  0
BLOCK_RECORD
  5
19A
330
1
100
AcDbSymbolTableRecord
100
AcDbBlockTableRecord
  2
*D11
340
0
  0
BLOCK_RECORD
  5
1A7
330
1
100
AcDbSymbolTableRecord
100
AcDbBlockTableRecord
  2
*D12
340
0
  0
BLOCK_RECORD
  5
1B5
330
1
100
AcDbSymbolTableRecord
100
AcDbBlockTableRecord
  2
*D13
340
0
  0
BLOCK_RECORD
  5
1BF
330
1
100
AcDbSymbolTableRecord
100
AcDbBlockTableRecord
  2
*D14
340
0
  0
BLOCK_RECORD
  5
1CD
330
1
100
AcDbSymbolTableRecord
100
AcDbBlockTableRecord
  2
*D15
340
0
  0
BLOCK_RECORD
  5
27B
330
1
100
AcDbSymbolTableRecord
100
AcDbBlockTableRecord
  2
GENAXEH
340
0
  0
BLOCK_RECORD
  5
28C
330
1
100
AcDbSymbolTableRecord
100
AcDbBlockTableRecord
  2
*G341817
340
0
102
{BLKREFS
331
4CD
102
}
  0
BLOCK_RECORD
  5
2A4
330
1
100
AcDbSymbolTableRecord
100
AcDbBlockTableRecord
  2
*G351918
340
0
102
{BLKREFS
331
4D0
102
}
  0
BLOCK_RECORD
  5
2BC
330
1
100
AcDbSymbolTableRecord
100
AcDbBlockTableRecord
  2
*D19
340
0
  0
BLOCK_RECORD
  5
2C8
330
1
100
AcDbSymbolTableRecord
100
AcDbBlockTableRecord
  2
*D20
340
0
  0
BLOCK_RECORD
  5
2D4
330
1
100
AcDbSymbolTableRecord
100
AcDbBlockTableRecord
  2
*D21
340
0
  0
BLOCK_RECORD
  5
2E0
330
1
100
AcDbSymbolTableRecord
100
AcDbBlockTableRecord
  2
*D22
340
0
  0
BLOCK_RECORD
  5
2EC
330
1
100
AcDbSymbolTableRecord
100
AcDbBlockTableRecord
  2
*D23
340
0
  0
BLOCK_RECORD
  5
2F8
330
1
100
AcDbSymbolTableRecord
100
AcDbBlockTableRecord
  2
*D24
340
0
  0
BLOCK_RECORD
  5
304
330
1
100
AcDbSymbolTableRecord
100
AcDbBlockTableRecord
  2
*D25
340
0
  0
BLOCK_RECORD
  5
310
330
1
100
AcDbSymbolTableRecord
100
AcDbBlockTableRecord
  2
*D26
340
0
  0
BLOCK_RECORD
  5
31E
330
1
100
AcDbSymbolTableRecord
100
AcDbBlockTableRecord
  2
*D27
340
0
  0
BLOCK_RECORD
  5
32A
330
1
100
AcDbSymbolTableRecord
100
AcDbBlockTableRecord
  2
*D28
340
0
  0
BLOCK_RECORD
  5
336
330
1
100
AcDbSymbolTableRecord
100
AcDbBlockTableRecord
  2
*D29
340
0
  0
BLOCK_RECORD
  5
342
330
1
100
AcDbSymbolTableRecord
100
AcDbBlockTableRecord
  2
*D30
340
0
  0
BLOCK_RECORD
  5
34E
330
1
100
AcDbSymbolTableRecord
100
AcDbBlockTableRecord
  2
*D31
340
0
  0
BLOCK_RECORD
  5
35A
330
1
100
AcDbSymbolTableRecord
100
AcDbBlockTableRecord
  2
*D32
340
0
  0
BLOCK_RECORD
  5
363
330
1
100
AcDbSymbolTableRecord
100
AcDbBlockTableRecord
  2
*D33
340
0
  0
BLOCK_RECORD
  5
36F
330
1
100
AcDbSymbolTableRecord
100
AcDbBlockTableRecord
  2
*D34
340
0
  0
BLOCK_RECORD
  5
506
330
1
100
AcDbSymbolTableRecord
100
AcDbBlockTableRecord
  2
*D35
340
0
  0
BLOCK_RECORD
  5
510
330
1
100
AcDbSymbolTableRecord
100
AcDbBlockTableRecord
  2
*D36
340
0
  0
BLOCK_RECORD
  5
51A
330
1
100
AcDbSymbolTableRecord
100
AcDbBlockTableRecord
  2
*D37
340
0
  0
BLOCK_RECORD
  5
521
330
1
100
AcDbSymbolTableRecord
100
AcDbBlockTableRecord
  2
*D38
340
0
  0
BLOCK_RECORD
  5
52B
330
1
100
AcDbSymbolTableRecord
100
AcDbBlockTableRecord
  2
*D39
340
0
  0
BLOCK_RECORD
  5
535
330
1
100
AcDbSymbolTableRecord
100
AcDbBlockTableRecord
  2
*D40
340
0
  0
BLOCK_RECORD
  5
53F
330
1
100
AcDbSymbolTableRecord
100
AcDbBlockTableRecord
  2
*D41
340
0
  0
BLOCK_RECORD
  5
549
330
1
100
AcDbSymbolTableRecord
100
AcDbBlockTableRecord
  2
*D42
340
0
  0
BLOCK_RECORD
  5
553
330
1
100
AcDbSymbolTableRecord
100
AcDbBlockTableRecord
  2
*D43
340
0
  0
BLOCK_RECORD
  5
55D
330
1
100
AcDbSymbolTableRecord
100
AcDbBlockTableRecord
  2
*D44
340
0
  0
BLOCK_RECORD
  5
567
330
1
100
AcDbSymbolTableRecord
100
AcDbBlockTableRecord
  2
*D45
340
0
  0
BLOCK_RECORD
  5
573
330
1
100
AcDbSymbolTableRecord
100
AcDbBlockTableRecord
  2
*D46
340
0
  0
BLOCK_RECORD
  5
57D
330
1
100
AcDbSymbolTableRecord
100
AcDbBlockTableRecord
  2
*D47
340
0
  0
BLOCK_RECORD
  5
599
330
1
100
AcDbSymbolTableRecord
100
AcDbBlockTableRecord
  2
*D48
340
0
  0
BLOCK_RECORD
  5
5A3
330
1
100
AcDbSymbolTableRecord
100
AcDbBlockTableRecord
  2
*D49
340
0
  0
BLOCK_RECORD
  5
5AD
330
1
100
AcDbSymbolTableRecord
100
AcDbBlockTableRecord
  2
*D50
340
0
  0
ENDTAB
  0
ENDSEC
  0
SECTION
  2
BLOCKS
  0
BLOCK
  5
D
330
A
100
AcDbEntity
  8
0
100
AcDbBlockBegin
  2
*MODEL_SPACE
 70
     0
 10
0.0
 20
0.0
 30
0.0
  3
*MODEL_SPACE
  1

  0
ENDBLK
  5
E
330
A
100
AcDbEntity
  8
0
100
AcDbBlockEnd
  0
BLOCK
  5
F
330
B
100
AcDbEntity
 67
     1
  8
0
100
AcDbBlockBegin
  2
*PAPER_SPACE
 70
     0
 10
0.0
 20
0.0
 30
0.0
  3
*PAPER_SPACE
  1

  0
ENDBLK
  5
10
330
B
100
AcDbEntity
 67
     1
  8
0
100
AcDbBlockEnd
  0
BLOCK
  5
111
330
110
100
AcDbEntity
  8
0
  6
ByBlock
 62
     0
100
AcDbBlockBegin
  2
*D0
 70
     1
 10
0.0
 20
0.0
 30
0.0
  3
*D0
  1

  0
LINE
  5
112
330
110
100
AcDbEntity
  8
0
  6
Continuous
 62
   255
100
AcDbLine
 10
-142.255173
 20
50.0
 30
0.0
 11
-202.255157
 21
50.0
 31
0.0
  0
LINE
  5
113
330
110
100
AcDbEntity
  8
0
  6
Continuous
 62
   255
100
AcDbLine
 10
-142.255173
 20
69.21982199999999
 30
0.0
 11
-142.255173
 21
48.800003
 31
0.0
  0
LINE
  5
114
330
110
100
AcDbEntity
  8
0
  6
Continuous
 62
   255
100
AcDbLine
 10
-202.255157
 20
69.21982199999999
 30
0.0
 11
-202.255157
 21
48.800003
 31
0.0
  0
INSERT
  5
11B
330
110
100
AcDbEntity
  8
0
  6
Continuous
 62
   255
100
AcDbBlockReference
  2
_OPEN30
 10
-142.255173
 20
50.0
 30
0.0
 41
2.77
 42
2.77
 43
2.77
  0
INSERT
  5
11C
330
110
100
AcDbEntity
  8
0
  6
Continuous
 62
   255
100
AcDbBlockReference
  2
_OPEN30
 10
-202.255157
 20
50.0
 30
0.0
 41
2.77
 42
2.77
 43
2.77
 50
180.0
  0
MTEXT
  5
11E
330
110
100
AcDbEntity
  8
0
  6
Continuous
 62
   255
100
AcDbMText
 10
-172.255158
 20
53.08359300000001
 30
0.0
 40
4.167186
 41
0.0
 71
     5
 72
     1
  1
\A1;61
  7
MX_DIMTXSTY_2
 73
     1
 44
1.0
  0
POINT
  5
11F
330
110
100
AcDbEntity
  8
DEFPOINTS
  6
Continuous
 62
     0
100
AcDbPoint
 10
-142.255173
 20
70.48982200000001
 30
0.0
  0
POINT
  5
120
330
110
100
AcDbEntity
  8
DEFPOINTS
  6
Continuous
 62
     0
100
AcDbPoint
 10
-202.255157
 20
70.48982200000001
 30
0.0
  0
POINT
  5
121
330
110
100
AcDbEntity
  8
DEFPOINTS
  6
Continuous
 62
     0
100
AcDbPoint
 10
-202.255157
 20
50.0
 30
0.0
  0
ENDBLK
  5
122
330
110
100
AcDbEntity
  8
0
  6
ByBlock
 62
     0
100
AcDbBlockEnd
  0
BLOCK
  5
116
330
115
100
AcDbEntity
  8
0
  6
ByBlock
 62
     0
100
AcDbBlockBegin
  2
_OPEN30
 70
     2
 10
0.0
 20
0.0
 30
0.0
  3
_OPEN30
  1

  0
LINE
  5
117
330
115
100
AcDbEntity
  8
0
  6
ByBlock
 62
     0
100
AcDbLine
 10
-1.0
 20
0.267949
 30
0.0
 11
0.0
 21
0.0
 31
0.0
  0
LINE
  5
118
330
115
100
AcDbEntity
  8
0
  6
ByBlock
 62
     0
100
AcDbLine
 10
0.0
 20
0.0
 30
0.0
 11
-1.0
 21
-0.267949
 31
0.0
  0
LINE
  5
119
330
115
100
AcDbEntity
  8
0
  6
ByBlock
 62
     0
100
AcDbLine
 10
0.0
 20
0.0
 30
0.0
 11
-1.0
 21
0.0
 31
0.0
  0
ENDBLK
  5
11A
330
115
100
AcDbEntity
  8
0
  6
ByBlock
 62
     0
100
AcDbBlockEnd
  0
BLOCK
  5
125
330
124
100
AcDbEntity
  8
0
  6
ByBlock
 62
     0
100
AcDbBlockBegin
  2
*D2
 70
     1
 10
0.0
 20
0.0
 30
0.0
  3
*D2
  1

  0
LINE
  5
126
330
124
100
AcDbEntity
  8
0
  6
Continuous
 62
   255
100
AcDbLine
 10
-230.0
 20
68.489822
 30
0.0
 11
-230.0
 21
129.489777
 31
0.0
  0
LINE
  5
127
330
124
100
AcDbEntity
  8
0
  6
Continuous
 62
   255
100
AcDbLine
 10
-201.525157
 20
68.489822
 30
0.0
 11
-231.2
 21
68.489822
 31
0.0
  0
LINE
  5
128
330
124
100
AcDbEntity
  8
0
  6
Continuous
 62
   255
100
AcDbLine
 10
-201.525157
 20
129.489777
 30
0.0
 11
-231.199997
 21
129.489777
 31
0.0
  0
INSERT
  5
129
330
124
100
AcDbEntity
  8
0
  6
Continuous
 62
   255
100
AcDbBlockReference
  2
_OPEN30
 10
-230.0
 20
68.489822
 30
0.0
 41
2.77
 42
2.77
 43
2.77
 50
270.0
  0
INSERT
  5
12A
330
124
100
AcDbEntity
  8
0
  6
Continuous
 62
   255
100
AcDbBlockReference
  2
_OPEN30
 10
-230.0
 20
129.489777
 30
0.0
 41
2.77
 42
2.77
 43
2.77
 50
90.0
  0
MTEXT
  5
12B
330
124
100
AcDbEntity
  8
0
  6
Continuous
 62
   255
100
AcDbMText
 10
-233.083593
 20
98.989799
 30
0.0
 40
4.167186
 41
0.0
 71
     5
 72
     1
  1
\A1;61
  7
MX_DIMTXSTY_2
 11
0.0
 21
1.0
 31
0.0
 73
     1
 44
1.0
  0
POINT
  5
12C
330
124
100
AcDbEntity
  8
DEFPOINTS
  6
Continuous
 62
     0
100
AcDbPoint
 10
-200.255157
 20
68.489822
 30
0.0
  0
POINT
  5
12D
330
124
100
AcDbEntity
  8
DEFPOINTS
  6
Continuous
 62
     0
100
AcDbPoint
 10
-200.255157
 20
129.489777
 30
0.0
  0
POINT
  5
12E
330
124
100
AcDbEntity
  8
DEFPOINTS
  6
Continuous
 62
     0
100
AcDbPoint
 10
-230.0
 20
129.489777
 30
0.0
  0
ENDBLK
  5
12F
330
124
100
AcDbEntity
  8
0
  6
ByBlock
 62
     0
100
AcDbBlockEnd
  0
BLOCK
  5
132
330
131
100
AcDbEntity
  8
0
  6
ByBlock
 62
     0
100
AcDbBlockBegin
  2
*D3
 70
     1
 10
0.0
 20
0.0
 30
0.0
  3
*D3
  1

  0
LINE
  5
133
330
131
100
AcDbEntity
  8
0
  6
Continuous
 62
   255
100
AcDbLine
 10
-84.255173
 20
50.0
 30
0.0
 11
-92.25518800000001
 21
50.0
 31
0.0
  0
LINE
  5
134
330
131
100
AcDbEntity
  8
0
  6
Continuous
 62
   255
100
AcDbLine
 10
-84.255173
 20
69.14021700000001
 30
0.0
 11
-84.255173
 21
48.79999999999999
 31
0.0
  0
LINE
  5
135
330
131
100
AcDbEntity
  8
0
  6
Continuous
 62
   255
100
AcDbLine
 10
-92.25518800000001
 20
85.98537900000001
 30
0.0
 11
-92.25518800000001
 21
48.800003
 31
0.0
  0
LINE
  5
136
330
131
100
AcDbEntity
  8
0
  6
Continuous
 62
   255
100
AcDbLine
 10
-84.255173
 20
50.0
 30
0.0
 11
-77.90517300000002
 21
50.0
 31
0.0
  0
LINE
  5
137
330
131
100
AcDbEntity
  8
0
  6
Continuous
 62
   255
100
AcDbLine
 10
-92.25518800000001
 20
50.0
 30
0.0
 11
-98.60518800000001
 21
50.0
 31
0.0
  0
INSERT
  5
138
330
131
100
AcDbEntity
  8
0
  6
Continuous
 62
   255
100
AcDbBlockReference
  2
_OPEN30
 10
-84.255173
 20
50.0
 30
0.0
 41
2.77
 42
2.77
 43
2.77
 50
180.0
  0
INSERT
  5
139
330
131
100
AcDbEntity
  8
0
  6
Continuous
 62
   255
100
AcDbBlockReference
  2
_OPEN30
 10
-92.25518800000001
 20
50.0
 30
0.0
 41
2.77
 42
2.77
 43
2.77
  0
MTEXT
  5
13A
330
131
100
AcDbEntity
  8
0
  6
Continuous
 62
   255
100
AcDbMText
 10
-88.312363
 20
53.08359300000001
 30
0.0
 40
4.167186
 41
0.0
 71
     5
 72
     1
  1
\A1;8
 73
     1
 44
1.0
  0
POINT
  5
13B
330
131
100
AcDbEntity
  8
DEFPOINTS
  6
Continuous
 62
     0
100
AcDbPoint
 10
-84.255173
 20
70.410217
 30
0.0
  0
POINT
  5
13C
330
131
100
AcDbEntity
  8
DEFPOINTS
  6
Continuous
 62
     0
100
AcDbPoint
 10
-92.25518800000001
 20
87.255379
 30
0.0
  0
POINT
  5
13D
330
131
100
AcDbEntity
  8
DEFPOINTS
  6
Continuous
 62
     0
100
AcDbPoint
 10
-92.25518800000001
 20
50.0
 30
0.0
  0
ENDBLK
  5
13E
330
131
100
AcDbEntity
  8
0
  6
ByBlock
 62
     0
100
AcDbBlockEnd
  0
BLOCK
  5
141
330
140
100
AcDbEntity
  8
0
  6
ByBlock
 62
     0
100
AcDbBlockBegin
  2
*D4
 70
     1
 10
0.0
 20
0.0
 30
0.0
  3
*D4
  1

  0
LINE
  5
142
330
140
100
AcDbEntity
  8
0
  6
Continuous
 62
   255
100
AcDbLine
 10
-72.25515699999998
 20
50.0
 30
0.0
 11
-84.255173
 21
50.0
 31
0.0
  0
LINE
  5
143
330
140
100
AcDbEntity
  8
0
  6
Continuous
 62
   255
100
AcDbLine
 10
-84.255173
 20
69.14021700000001
 30
0.0
 11
-84.255173
 21
48.800003
 31
0.0
  0
INSERT
  5
144
330
140
100
AcDbEntity
  8
0
  6
Continuous
 62
   255
100
AcDbBlockReference
  2
_OPEN30
 10
-72.25515699999998
 20
50.0
 30
0.0
 41
2.77
 42
2.77
 43
2.77
  0
INSERT
  5
145
330
140
100
AcDbEntity
  8
0
  6
Continuous
 62
   255
100
AcDbBlockReference
  2
_OPEN30
 10
-84.255173
 20
50.0
 30
0.0
 41
2.77
 42
2.77
 43
2.77
 50
180.0
  0
MTEXT
  5
146
330
140
100
AcDbEntity
  8
0
  6
Continuous
 62
   255
100
AcDbMText
 10
-78.255157
 20
53.08359300000001
 30
0.0
 40
4.167186
 41
0.0
 71
     5
 72
     1
  1
\A1;12
  7
MX_DIMTXSTY_2
 73
     1
 44
1.0
  0
POINT
  5
147
330
140
100
AcDbEntity
  8
DEFPOINTS
  6
Continuous
 62
     0
100
AcDbPoint
 10
-72.25515699999998
 20
68.49006700000001
 30
0.0
  0
POINT
  5
148
330
140
100
AcDbEntity
  8
DEFPOINTS
  6
Continuous
 62
     0
100
AcDbPoint
 10
-84.255173
 20
70.410217
 30
0.0
  0
POINT
  5
149
330
140
100
AcDbEntity
  8
DEFPOINTS
  6
Continuous
 62
     0
100
AcDbPoint
 10
-84.255173
 20
50.0
 30
0.0
  0
ENDBLK
  5
14A
330
140
100
AcDbEntity
  8
0
  6
ByBlock
 62
     0
100
AcDbBlockEnd
  0
BLOCK
  5
14D
330
14C
100
AcDbEntity
  8
0
  6
ByBlock
 62
     0
100
AcDbBlockBegin
  2
*D5
 70
     1
 10
0.0
 20
0.0
 30
0.0
  3
*D5
  1

  0
LINE
  5
14E
330
14C
100
AcDbEntity
  8
0
  6
Continuous
 62
   255
100
AcDbLine
 10
17.244293
 20
50.0
 30
0.0
 11
-72.25515699999998
 21
50.0
 31
0.0
  0
LINE
  5
14F
330
14C
100
AcDbEntity
  8
0
  6
Continuous
 62
   255
100
AcDbLine
 10
17.244293
 20
73.220051
 30
0.0
 11
17.244293
 21
48.79999999999999
 31
0.0
  0
LINE
  5
150
330
14C
100
AcDbEntity
  8
0
  6
Continuous
 62
   255
100
AcDbLine
 10
-72.25515699999998
 20
67.220067
 30
0.0
 11
-72.25515699999998
 21
48.800003
 31
0.0
  0
INSERT
  5
151
330
14C
100
AcDbEntity
  8
0
  6
Continuous
 62
   255
100
AcDbBlockReference
  2
_OPEN30
 10
17.244293
 20
50.0
 30
0.0
 41
2.77
 42
2.77
 43
2.77
  0
INSERT
  5
152
330
14C
100
AcDbEntity
  8
0
  6
Continuous
 62
   255
100
AcDbBlockReference
  2
_OPEN30
 10
-72.25515699999998
 20
50.0
 30
0.0
 41
2.77
 42
2.77
 43
2.77
 50
180.0
  0
MTEXT
  5
153
330
14C
100
AcDbEntity
  8
0
  6
Continuous
 62
   255
100
AcDbMText
 10
-27.505432
 20
53.08359300000001
 30
0.0
 40
4.167186
 41
0.0
 71
     5
 72
     1
  1
\A1;89.5
  7
MX_DIMTXSTY_2
 73
     1
 44
1.0
  0
POINT
  5
154
330
14C
100
AcDbEntity
  8
DEFPOINTS
  6
Continuous
 62
     0
100
AcDbPoint
 10
17.244293
 20
74.49005099999998
 30
0.0
  0
POINT
  5
155
330
14C
100
AcDbEntity
  8
DEFPOINTS
  6
Continuous
 62
     0
100
AcDbPoint
 10
-72.25515699999998
 20
68.49006700000001
 30
0.0
  0
POINT
  5
156
330
14C
100
AcDbEntity
  8
DEFPOINTS
  6
Continuous
 62
     0
100
AcDbPoint
 10
-72.25515699999998
 20
50.0
 30
0.0
  0
ENDBLK
  5
157
330
14C
100
AcDbEntity
  8
0
  6
ByBlock
 62
     0
100
AcDbBlockEnd
  0
BLOCK
  5
15A
330
159
100
AcDbEntity
  8
0
  6
ByBlock
 62
     0
100
AcDbBlockBegin
  2
*D6
 70
     1
 10
0.0
 20
0.0
 30
0.0
  3
*D6
  1

  0
LINE
  5
15B
330
159
100
AcDbEntity
  8
0
  6
Continuous
 62
   255
100
AcDbLine
 10
141.744705
 20
50.0
 30
0.0
 11
93.74472
 21
50.0
 31
0.0
  0
LINE
  5
15C
330
159
100
AcDbEntity
  8
0
  6
Continuous
 62
   255
100
AcDbLine
 10
141.744705
 20
73.71982199999997
 30
0.0
 11
141.744705
 21
48.79999999999999
 31
0.0
  0
LINE
  5
15D
330
159
100
AcDbEntity
  8
0
  6
Continuous
 62
   255
100
AcDbLine
 10
93.74472
 20
73.71982199999997
 30
0.0
 11
93.74472
 21
48.800003
 31
0.0
  0
INSERT
  5
15E
330
159
100
AcDbEntity
  8
0
  6
Continuous
 62
   255
100
AcDbBlockReference
  2
_OPEN30
 10
141.744705
 20
50.0
 30
0.0
 41
2.77
 42
2.77
 43
2.77
  0
INSERT
  5
15F
330
159
100
AcDbEntity
  8
0
  6
Continuous
 62
   255
100
AcDbBlockReference
  2
_OPEN30
 10
93.74472
 20
50.0
 30
0.0
 41
2.77
 42
2.77
 43
2.77
 50
180.0
  0
MTEXT
  5
160
330
159
100
AcDbEntity
  8
0
  6
Continuous
 62
   255
100
AcDbMText
 10
117.744713
 20
53.08359300000001
 30
0.0
 40
4.167186
 41
0.0
 71
     5
 72
     1
  1
\A1;48
 73
     1
 44
1.0
  0
POINT
  5
161
330
159
100
AcDbEntity
  8
DEFPOINTS
  6
Continuous
 62
     0
100
AcDbPoint
 10
141.744705
 20
74.989822
 30
0.0
  0
POINT
  5
162
330
159
100
AcDbEntity
  8
DEFPOINTS
  6
Continuous
 62
     0
100
AcDbPoint
 10
93.74472
 20
74.989822
 30
0.0
  0
POINT
  5
163
330
159
100
AcDbEntity
  8
DEFPOINTS
  6
Continuous
 62
     0
100
AcDbPoint
 10
93.74472
 20
50.0
 30
0.0
  0
ENDBLK
  5
164
330
159
100
AcDbEntity
  8
0
  6
ByBlock
 62
     0
100
AcDbBlockEnd
  0
BLOCK
  5
167
330
166
100
AcDbEntity
  8
0
  6
ByBlock
 62
     0
100
AcDbBlockBegin
  2
*D7
 70
     1
 10
0.0
 20
0.0
 30
0.0
  3
*D7
  1

  0
LINE
  5
168
330
166
100
AcDbEntity
  8
0
  6
Continuous
 62
   255
100
AcDbLine
 10
170.0
 20
122.989777
 30
0.0
 11
170.0
 21
74.989822
 31
0.0
  0
LINE
  5
169
330
166
100
AcDbEntity
  8
0
  6
Continuous
 62
   255
100
AcDbLine
 10
143.014705
 20
122.989777
 30
0.0
 11
171.2
 21
122.989777
 31
0.0
  0
LINE
  5
16A
330
166
100
AcDbEntity
  8
0
  6
Continuous
 62
   255
100
AcDbLine
 10
143.014705
 20
74.989822
 30
0.0
 11
171.199997
 21
74.989822
 31
0.0
  0
INSERT
  5
16B
330
166
100
AcDbEntity
  8
0
  6
Continuous
 62
   255
100
AcDbBlockReference
  2
_OPEN30
 10
170.0
 20
122.989777
 30
0.0
 41
2.77
 42
2.77
 43
2.77
 50
90.0
  0
INSERT
  5
16C
330
166
100
AcDbEntity
  8
0
  6
Continuous
 62
   255
100
AcDbBlockReference
  2
_OPEN30
 10
170.0
 20
74.989822
 30
0.0
 41
2.77
 42
2.77
 43
2.77
 50
270.0
  0
MTEXT
  5
16D
330
166
100
AcDbEntity
  8
0
  6
Continuous
 62
   255
100
AcDbMText
 10
166.916407
 20
100.0
 30
0.0
 40
4.167186
 41
0.0
 71
     5
 72
     1
  1
\A1;48
 11
0.0
 21
1.0
 31
0.0
 73
     1
 44
1.0
  0
POINT
  5
16E
330
166
100
AcDbEntity
  8
DEFPOINTS
  6
Continuous
 62
     0
100
AcDbPoint
 10
141.744705
 20
122.989777
 30
0.0
  0
POINT
  5
16F
330
166
100
AcDbEntity
  8
DEFPOINTS
  6
Continuous
 62
     0
100
AcDbPoint
 10
141.744705
 20
74.989822
 30
0.0
  0
POINT
  5
170
330
166
100
AcDbEntity
  8
DEFPOINTS
  6
Continuous
 62
     0
100
AcDbPoint
 10
170.0
 20
74.989822
 30
0.0
  0
ENDBLK
  5
171
330
166
100
AcDbEntity
  8
0
  6
ByBlock
 62
     0
100
AcDbBlockEnd
  0
BLOCK
  5
174
330
173
100
AcDbEntity
  8
0
  6
ByBlock
 62
     0
100
AcDbBlockBegin
  2
*D8
 70
     1
 10
0.0
 20
0.0
 30
0.0
  3
*D8
  1

  0
LINE
  5
175
330
173
100
AcDbEntity
  8
0
  6
Continuous
 62
   255
100
AcDbLine
 10
-59.255173
 20
60.0
 30
0.0
 11
-72.25515699999998
 21
60.0
 31
0.0
  0
LINE
  5
176
330
173
100
AcDbEntity
  8
0
  6
Continuous
 62
   255
100
AcDbLine
 10
-59.255173
 20
72.220051
 30
0.0
 11
-59.255173
 21
58.79999999999999
 31
0.0
  0
LINE
  5
177
330
173
100
AcDbEntity
  8
0
  6
Continuous
 62
   255
100
AcDbLine
 10
-72.25515699999998
 20
67.220067
 30
0.0
 11
-72.25515699999998
 21
58.800003
 31
0.0
  0
INSERT
  5
178
330
173
100
AcDbEntity
  8
0
  6
Continuous
 62
   255
100
AcDbBlockReference
  2
_OPEN30
 10
-59.255173
 20
60.0
 30
0.0
 41
2.77
 42
2.77
 43
2.77
  0
INSERT
  5
179
330
173
100
AcDbEntity
  8
0
  6
Continuous
 62
   255
100
AcDbBlockReference
  2
_OPEN30
 10
-72.25515699999998
 20
60.0
 30
0.0
 41
2.77
 42
2.77
 43
2.77
 50
180.0
  0
MTEXT
  5
17A
330
173
100
AcDbEntity
  8
0
  6
Continuous
 62
   255
100
AcDbMText
 10
-65.755165
 20
63.08359300000001
 30
0.0
 40
4.167186
 41
0.0
 71
     5
 72
     1
  1
\A1;13
  7
MX_DIMTXSTY_2
 73
     1
 44
1.0
  0
POINT
  5
17B
330
173
100
AcDbEntity
  8
DEFPOINTS
  6
Continuous
 62
     0
100
AcDbPoint
 10
-59.255173
 20
73.49005099999998
 30
0.0
  0
POINT
  5
17C
330
173
100
AcDbEntity
  8
DEFPOINTS
  6
Continuous
 62
     0
100
AcDbPoint
 10
-72.25515699999998
 20
68.49006700000001
 30
0.0
  0
POINT
  5
17D
330
173
100
AcDbEntity
  8
DEFPOINTS
  6
Continuous
 62
     0
100
AcDbPoint
 10
-72.25515699999998
 20
60.0
 30
0.0
  0
ENDBLK
  5
17E
330
173
100
AcDbEntity
  8
0
  6
ByBlock
 62
     0
100
AcDbBlockEnd
  0
BLOCK
  5
181
330
180
100
AcDbEntity
  8
0
  6
ByBlock
 62
     0
100
AcDbBlockBegin
  2
*D9
 70
     1
 10
0.0
 20
0.0
 30
0.0
  3
*D9
  1

  0
LINE
  5
182
330
180
100
AcDbEntity
  8
0
  6
Continuous
 62
   255
100
AcDbLine
 10
-24.629292
 20
70.99005099999998
 30
0.0
 11
-24.629292
 21
126.989777
 31
0.0
  0
LINE
  5
183
330
180
100
AcDbEntity
  8
0
  6
Continuous
 62
   255
100
AcDbLine
 10
10.974293
 20
70.99005099999998
 30
0.0
 11
-26.91529
 21
70.99005099999998
 31
0.0
  0
LINE
  5
184
330
180
100
AcDbEntity
  8
0
  6
Continuous
 62
   255
100
AcDbLine
 10
10.974293
 20
126.989777
 30
0.0
 11
-26.91529
 21
126.989777
 31
0.0
  0
INSERT
  5
185
330
180
100
AcDbEntity
  8
0
  6
Continuous
 62
   255
100
AcDbBlockReference
  2
_OPEN30
 10
-24.629292
 20
70.99005099999998
 30
0.0
 41
2.77
 42
2.77
 43
2.77
 50
270.0
  0
INSERT
  5
186
330
180
100
AcDbEntity
  8
0
  6
Continuous
 62
   255
100
AcDbBlockReference
  2
_OPEN30
 10
-24.629292
 20
126.989777
 30
0.0
 41
2.77
 42
2.77
 43
2.77
 50
90.0
  0
MTEXT
  5
187
330
180
100
AcDbEntity
  8
0
  6
Continuous
 62
   255
100
AcDbMText
 10
-27.712885
 20
98.98991399999999
 30
0.0
 40
4.167186
 41
0.0
 71
     5
 72
     1
  1
\A1;\U+220556
 11
0.0
 21
1.0
 31
0.0
 73
     1
 44
1.0
  0
POINT
  5
188
330
180
100
AcDbEntity
  8
DEFPOINTS
  6
Continuous
 62
     0
100
AcDbPoint
 10
12.244293
 20
70.99005099999998
 30
0.0
  0
POINT
  5
189
330
180
100
AcDbEntity
  8
DEFPOINTS
  6
Continuous
 62
     0
100
AcDbPoint
 10
12.244293
 20
126.989777
 30
0.0
  0
POINT
  5
18A
330
180
100
AcDbEntity
  8
DEFPOINTS
  6
Continuous
 62
     0
100
AcDbPoint
 10
-24.629292
 20
126.989777
 30
0.0
  0
ENDBLK
  5
18B
330
180
100
AcDbEntity
  8
0
  6
ByBlock
 62
     0
100
AcDbBlockEnd
  0
BLOCK
  5
18E
330
18D
100
AcDbEntity
  8
0
  6
ByBlock
 62
     0
100
AcDbBlockBegin
  2
*D10
 70
     1
 10
0.0
 20
0.0
 30
0.0
  3
*D10
  1

  0
LINE
  5
18F
330
18D
100
AcDbEntity
  8
0
  6
Continuous
 62
   255
100
AcDbLine
 10
-153.255157
 20
60.0
 30
0.0
 11
-192.255142
 21
60.0
 31
0.0
  0
LINE
  5
190
330
18D
100
AcDbEntity
  8
0
  6
Continuous
 62
   255
100
AcDbLine
 10
-153.255157
 20
88.21981499999997
 30
0.0
 11
-153.255157
 21
58.79999999999999
 31
0.0
  0
LINE
  5
191
330
18D
100
AcDbEntity
  8
0
  6
Continuous
 62
   255
100
AcDbLine
 10
-192.255142
 20
88.21981499999997
 30
0.0
 11
-192.255142
 21
58.800003
 31
0.0
  0
INSERT
  5
192
330
18D
100
AcDbEntity
  8
0
  6
Continuous
 62
   255
100
AcDbBlockReference
  2
_OPEN30
 10
-153.255157
 20
60.0
 30
0.0
 41
2.77
 42
2.77
 43
2.77
  0
INSERT
  5
193
330
18D
100
AcDbEntity
  8
0
  6
Continuous
 62
   255
100
AcDbBlockReference
  2
_OPEN30
 10
-192.255142
 20
60.0
 30
0.0
 41
2.77
 42
2.77
 43
2.77
 50
180.0
  0
MTEXT
  5
194
330
18D
100
AcDbEntity
  8
0
  6
Continuous
 62
   255
100
AcDbMText
 10
-172.755157
 20
63.08359300000001
 30
0.0
 40
4.167186
 41
0.0
 71
     5
 72
     1
  1
\A1;39
 73
     1
 44
1.0
  0
POINT
  5
195
330
18D
100
AcDbEntity
  8
DEFPOINTS
  6
Continuous
 62
     0
100
AcDbPoint
 10
-153.255157
 20
89.489815
 30
0.0
  0
POINT
  5
196
330
18D
100
AcDbEntity
  8
DEFPOINTS
  6
Continuous
 62
     0
100
AcDbPoint
 10
-192.255142
 20
89.489815
 30
0.0
  0
POINT
  5
197
330
18D
100
AcDbEntity
  8
DEFPOINTS
  6
Continuous
 62
     0
100
AcDbPoint
 10
-192.255142
 20
60.0
 30
0.0
  0
ENDBLK
  5
198
330
18D
100
AcDbEntity
  8
0
  6
ByBlock
 62
     0
100
AcDbBlockEnd
  0
BLOCK
  5
19B
330
19A
100
AcDbEntity
  8
0
  6
ByBlock
 62
     0
100
AcDbBlockBegin
  2
*D11
 70
     1
 10
0.0
 20
0.0
 30
0.0
  3
*D11
  1

  0
LINE
  5
19C
330
19A
100
AcDbEntity
  8
0
  6
Continuous
 62
   255
100
AcDbLine
 10
-220.0
 20
78.489838
 30
0.0
 11
-220.0
 21
89.489815
 31
0.0
  0
LINE
  5
19D
330
19A
100
AcDbEntity
  8
0
  6
Continuous
 62
   255
100
AcDbLine
 10
-193.525142
 20
89.489815
 30
0.0
 11
-221.199997
 21
89.489815
 31
0.0
  0
INSERT
  5
19E
330
19A
100
AcDbEntity
  8
0
  6
Continuous
 62
   255
100
AcDbBlockReference
  2
_OPEN30
 10
-220.0
 20
78.489838
 30
0.0
 41
2.77
 42
2.77
 43
2.77
 50
270.0
  0
INSERT
  5
19F
330
19A
100
AcDbEntity
  8
0
  6
Continuous
 62
   255
100
AcDbBlockReference
  2
_OPEN30
 10
-220.0
 20
89.489815
 30
0.0
 41
2.77
 42
2.77
 43
2.77
 50
90.0
  0
MTEXT
  5
1A1
330
19A
100
AcDbEntity
  8
0
  6
Continuous
 62
   255
100
AcDbMText
 10
-223.083593
 20
83.989822
 30
0.0
 40
4.167186
 41
0.0
 71
     5
 72
     1
  1
\A1;11
  7
MX_DIMTXSTY_3
 11
0.0
 21
1.0
 31
0.0
 73
     1
 44
1.0
  0
POINT
  5
1A2
330
19A
100
AcDbEntity
  8
DEFPOINTS
  6
Continuous
 62
     0
100
AcDbPoint
 10
-172.755157
 20
78.489838
 30
0.0
  0
POINT
  5
1A3
330
19A
100
AcDbEntity
  8
DEFPOINTS
  6
Continuous
 62
     0
100
AcDbPoint
 10
-192.255142
 20
89.489815
 30
0.0
  0
POINT
  5
1A4
330
19A
100
AcDbEntity
  8
DEFPOINTS
  6
Continuous
 62
     0
100
AcDbPoint
 10
-220.0
 20
89.489815
 30
0.0
  0
ENDBLK
  5
1A5
330
19A
100
AcDbEntity
  8
0
  6
ByBlock
 62
     0
100
AcDbBlockEnd
  0
BLOCK
  5
1A8
330
1A7
100
AcDbEntity
  8
0
  6
ByBlock
 62
     0
100
AcDbBlockBegin
  2
*D12
 70
     1
 10
0.0
 20
0.0
 30
0.0
  3
*D12
  1

  0
LINE
  5
1A9
330
1A7
100
AcDbEntity
  8
0
  6
Continuous
 62
   255
100
AcDbLine
 10
-220.0
 20
68.489822
 30
0.0
 11
-220.0
 21
78.489838
 31
0.0
  0
LINE
  5
1AA
330
1A7
100
AcDbEntity
  8
0
  6
Continuous
 62
   255
100
AcDbLine
 10
-203.525157
 20
68.489822
 30
0.0
 11
-221.199997
 21
68.489822
 31
0.0
  0
LINE
  5
1AB
330
1A7
100
AcDbEntity
  8
0
  6
Continuous
 62
   255
100
AcDbLine
 10
-174.025157
 20
78.489838
 30
0.0
 11
-221.199997
 21
78.489838
 31
0.0
  0
INSERT
  5
1AC
330
1A7
100
AcDbEntity
  8
0
  6
Continuous
 62
   255
100
AcDbBlockReference
  2
_OPEN30
 10
-220.0
 20
68.489822
 30
0.0
 41
2.77
 42
2.77
 43
2.77
 50
270.0
  0
INSERT
  5
1AD
330
1A7
100
AcDbEntity
  8
0
  6
Continuous
 62
   255
100
AcDbBlockReference
  2
_OPEN30
 10
-220.0
 20
78.489838
 30
0.0
 41
2.77
 42
2.77
 43
2.77
 50
90.0
  0
MTEXT
  5
1AF
330
1A7
100
AcDbEntity
  8
0
  6
Continuous
 62
   255
100
AcDbMText
 10
-223.083593
 20
73.48983
 30
0.0
 40
4.167186
 41
0.0
 71
     5
 72
     1
  1
\A1;10
  7
MX_DIMTXSTY_4
 11
0.0
 21
1.0
 31
0.0
 73
     1
 44
1.0
  0
POINT
  5
1B0
330
1A7
100
AcDbEntity
  8
DEFPOINTS
  6
Continuous
 62
     0
100
AcDbPoint
 10
-202.255157
 20
68.489822
 30
0.0
  0
POINT
  5
1B1
330
1A7
100
AcDbEntity
  8
DEFPOINTS
  6
Continuous
 62
     0
100
AcDbPoint
 10
-172.755157
 20
78.489838
 30
0.0
  0
POINT
  5
1B2
330
1A7
100
AcDbEntity
  8
DEFPOINTS
  6
Continuous
 62
     0
100
AcDbPoint
 10
-220.0
 20
78.489838
 30
0.0
  0
ENDBLK
  5
1B3
330
1A7
100
AcDbEntity
  8
0
  6
ByBlock
 62
     0
100
AcDbBlockEnd
  0
BLOCK
  5
1B6
330
1B5
100
AcDbEntity
  8
0
  6
ByBlock
 62
     0
100
AcDbBlockBegin
  2
*D13
 70
     1
 10
0.0
 20
0.0
 30
0.0
  3
*D13
  1

  0
LINE
  5
1B7
330
1B5
100
AcDbEntity
  8
0
  6
Continuous
 62
   255
100
AcDbLine
 10
-192.584476
 20
-36.839496
 30
0.0
 11
-151.925837
 21
3.819144
 31
0.0
  0
INSERT
  5
1B8
330
1B5
100
AcDbEntity
  8
0
  6
Continuous
 62
   255
100
AcDbBlockReference
  2
_OPEN30
 10
-192.584476
 20
-36.839496
 30
0.0
 41
2.77
 42
2.77
 43
2.77
 50
225.000001
  0
INSERT
  5
1B9
330
1B5
100
AcDbEntity
  8
0
  6
Continuous
 62
   255
100
AcDbBlockReference
  2
_OPEN30
 10
-151.925837
 20
3.819144
 30
0.0
 41
2.77
 42
2.77
 43
2.77
 50
45.000001
  0
MTEXT
  5
1BA
330
1B5
100
AcDbEntity
  8
0
  6
Continuous
 62
   255
100
AcDbMText
 10
-161.901557
 20
-1.795849
 30
0.0
 40
4.166999999999998
 41
0.0
 71
     5
 72
     1
  1
\A1;\U+220557.5
 11
0.7071067811865476
 21
0.7071067811865476
 31
0.0
 73
     1
 44
1.0
  0
POINT
  5
1BB
330
1B5
100
AcDbEntity
  8
DEFPOINTS
  6
Continuous
 62
     0
100
AcDbPoint
 10
-151.925837
 20
3.819144
 30
0.0
  0
POINT
  5
1BC
330
1B5
100
AcDbEntity
  8
DEFPOINTS
  6
Continuous
 62
     0
100
AcDbPoint
 10
-192.584476
 20
-36.839496
 30
0.0
  0
ENDBLK
  5
1BD
330
1B5
100
AcDbEntity
  8
0
  6
ByBlock
 62
     0
100
AcDbBlockEnd
  0
BLOCK
  5
1C0
330
1BF
100
AcDbEntity
  8
0
  6
ByBlock
 62
     0
100
AcDbBlockBegin
  2
*D14
 70
     1
 10
0.0
 20
0.0
 30
0.0
  3
*D14
  1

  0
LINE
  5
1C1
330
1BF
100
AcDbEntity
  8
0
  6
Continuous
 62
   255
100
AcDbLine
 10
-130.0
 20
7.489822
 30
0.0
 11
-130.0
 21
-40.510178
 31
0.0
  0
LINE
  5
1C2
330
1BF
100
AcDbEntity
  8
0
  6
Continuous
 62
   255
100
AcDbLine
 10
-146.985157
 20
7.489822
 30
0.0
 11
-128.800003
 21
7.489822
 31
0.0
  0
LINE
  5
1C3
330
1BF
100
AcDbEntity
  8
0
  6
Continuous
 62
   255
100
AcDbLine
 10
-146.985157
 20
-40.510178
 30
0.0
 11
-128.8
 21
-40.510178
 31
0.0
  0
INSERT
  5
1C4
330
1BF
100
AcDbEntity
  8
0
  6
Continuous
 62
   255
100
AcDbBlockReference
  2
_OPEN30
 10
-130.0
 20
7.489822
 30
0.0
 41
2.77
 42
2.77
 43
2.77
 50
90.0
  0
INSERT
  5
1C5
330
1BF
100
AcDbEntity
  8
0
  6
Continuous
 62
   255
100
AcDbBlockReference
  2
_OPEN30
 10
-130.0
 20
-40.510178
 30
0.0
 41
2.77
 42
2.77
 43
2.77
 50
270.0
  0
MTEXT
  5
1C7
330
1BF
100
AcDbEntity
  8
0
  6
Continuous
 62
   255
100
AcDbMText
 10
-133.0835
 20
-16.510178
 30
0.0
 40
4.166999999999998
 41
0.0
 71
     5
 72
     1
  1
\A1;48
  7
MX_DIMTXSTY_5
 11
0.0
 21
1.0
 31
0.0
 73
     1
 44
1.0
  0
POINT
  5
1C8
330
1BF
100
AcDbEntity
  8
DEFPOINTS
  6
Continuous
 62
     0
100
AcDbPoint
 10
-148.255157
 20
7.489822
 30
0.0
  0
POINT
  5
1C9
330
1BF
100
AcDbEntity
  8
DEFPOINTS
  6
Continuous
 62
     0
100
AcDbPoint
 10
-148.255157
 20
-40.510178
 30
0.0
  0
POINT
  5
1CA
330
1BF
100
AcDbEntity
  8
DEFPOINTS
  6
Continuous
 62
     0
100
AcDbPoint
 10
-130.0
 20
-40.510178
 30
0.0
  0
ENDBLK
  5
1CB
330
1BF
100
AcDbEntity
  8
0
  6
ByBlock
 62
     0
100
AcDbBlockEnd
  0
BLOCK
  5
1CE
330
1CD
100
AcDbEntity
  8
0
  6
ByBlock
 62
     0
100
AcDbBlockBegin
  2
*D15
 70
     1
 10
0.0
 20
0.0
 30
0.0
  3
*D15
  1

  0
LINE
  5
1CF
330
1CD
100
AcDbEntity
  8
0
  6
Continuous
 62
   255
100
AcDbLine
 10
-148.255157
 20
-60.0
 30
0.0
 11
-196.255157
 21
-60.0
 31
0.0
  0
LINE
  5
1D0
330
1CD
100
AcDbEntity
  8
0
  6
Continuous
 62
   255
100
AcDbLine
 10
-148.255157
 20
-41.780178
 30
0.0
 11
-148.255157
 21
-61.199997
 31
0.0
  0
LINE
  5
1D1
330
1CD
100
AcDbEntity
  8
0
  6
Continuous
 62
   255
100
AcDbLine
 10
-196.255157
 20
-41.780178
 30
0.0
 11
-196.255157
 21
-61.2
 31
0.0
  0
INSERT
  5
1D2
330
1CD
100
AcDbEntity
  8
0
  6
Continuous
 62
   255
100
AcDbBlockReference
  2
_OPEN30
 10
-148.255157
 20
-60.0
 30
0.0
 41
2.77
 42
2.77
 43
2.77
  0
INSERT
  5
1D3
330
1CD
100
AcDbEntity
  8
0
  6
Continuous
 62
   255
100
AcDbBlockReference
  2
_OPEN30
 10
-196.255157
 20
-60.0
 30
0.0
 41
2.77
 42
2.77
 43
2.77
 50
180.0
  0
MTEXT
  5
1D4
330
1CD
100
AcDbEntity
  8
0
  6
Continuous
 62
   255
100
AcDbMText
 10
-172.255157
 20
-56.9165
 30
0.0
 40
4.166999999999998
 41
0.0
 71
     5
 72
     1
  1
\A1;48
  7
MX_DIMTXSTY_5
 73
     1
 44
1.0
  0
POINT
  5
1D5
330
1CD
100
AcDbEntity
  8
DEFPOINTS
  6
Continuous
 62
     0
100
AcDbPoint
 10
-148.255157
 20
-40.510178
 30
0.0
  0
POINT
  5
1D6
330
1CD
100
AcDbEntity
  8
DEFPOINTS
  6
Continuous
 62
     0
100
AcDbPoint
 10
-196.255157
 20
-40.510178
 30
0.0
  0
POINT
  5
1D7
330
1CD
100
AcDbEntity
  8
DEFPOINTS
  6
Continuous
 62
     0
100
AcDbPoint
 10
-196.255157
 20
-60.0
 30
0.0
  0
ENDBLK
  5
1D8
330
1CD
100
AcDbEntity
  8
0
  6
ByBlock
 62
     0
100
AcDbBlockEnd
  0
BLOCK
  5
27D
330
27B
100
AcDbEntity
  8
0
100
AcDbBlockBegin
  2
GENAXEH
 70
     0
 10
0.0
 20
0.0
 30
0.0
  3
GENAXEH
  1

  0
LINE
  5
27C
330
27B
100
AcDbEntity
  8
0
100
AcDbLine
 10
-1.0
 20
0.0
 30
0.0
 11
1.0
 21
0.0
 31
0.0
  0
ENDBLK
  5
27E
330
27B
100
AcDbEntity
  8
0
100
AcDbBlockEnd
  0
BLOCK
  5
28D
330
28C
100
AcDbEntity
  8
0
100
AcDbBlockBegin
  2
*G341817
 70
     1
 10
0.0
 20
0.0
 30
0.0
  3
*G341817
  1

  0
LINE
  5
28E
330
28C
100
AcDbEntity
  8
1
  6
Continuous
 62
     7
370
     9
100
AcDbLine
 10
402.5718766298323
 20
310.7026159049387
 30
0.0
 11
402.5968766298324
 21
309.9866159049387
 31
0.0
  0
LINE
  5
28F
330
28C
100
AcDbEntity
  8
1
  6
Continuous
 62
     7
370
     9
100
AcDbLine
 10
402.7908766298323
 20
309.5296159049387
 30
0.0
 11
402.5968766298324
 21
309.9866159049387
 31
0.0
  0
LINE
  5
290
330
28C
100
AcDbEntity
  8
1
  6
Continuous
 62
     7
370
     9
100
AcDbLine
 10
401.7348766298324
 20
309.5296159049387
 30
0.0
 11
401.9288766298321
 21
309.9866159049387
 31
0.0
  0
LINE
  5
291
330
28C
100
AcDbEntity
  8
1
  6
Continuous
 62
     7
370
     9
100
AcDbLine
 10
401.9538766298324
 20
310.7026159049387
 30
0.0
 11
401.9288766298321
 21
309.9866159049387
 31
0.0
  0
LINE
  5
292
330
28C
100
AcDbEntity
  8
1
  6
Continuous
 62
     7
370
     9
100
AcDbLine
 10
401.9538766298324
 20
310.7026159049387
 30
0.0
 11
402.5718766298323
 21
310.7026159049387
 31
0.0
  0
LINE
  5
293
330
28C
100
AcDbEntity
  8
1
  6
Continuous
 62
     7
370
     9
100
AcDbLine
 10
400.5628766298324
 20
308.6936159049387
 30
0.0
 11
400.5628766298324
 21
309.3116159049387
 31
0.0
  0
LINE
  5
294
330
28C
100
AcDbEntity
  8
1
  6
Continuous
 62
     7
370
     9
100
AcDbLine
 10
400.5628766298324
 20
308.6936159049387
 30
0.0
 11
401.2788766298323
 21
308.6686159049387
 31
0.0
  0
LINE
  5
295
330
28C
100
AcDbEntity
  8
1
  6
Continuous
 62
     7
370
     9
100
AcDbLine
 10
401.7348766298324
 20
308.4746159049387
 30
0.0
 11
401.2788766298323
 21
308.6686159049387
 31
0.0
  0
LINE
  5
296
330
28C
100
AcDbEntity
  8
1
  6
Continuous
 62
     7
370
     9
100
AcDbLine
 10
401.7348766298324
 20
309.5296159049387
 30
0.0
 11
401.2788766298323
 21
309.3366159049387
 31
0.0
  0
LINE
  5
297
330
28C
100
AcDbEntity
  8
1
  6
Continuous
 62
     7
370
     9
100
AcDbLine
 10
400.5628766298324
 20
309.3116159049387
 30
0.0
 11
401.2788766298323
 21
309.3366159049387
 31
0.0
  0
LINE
  5
298
330
28C
100
AcDbEntity
  8
1
  6
Continuous
 62
     7
370
     9
100
AcDbLine
 10
402.5718766298323
 20
307.3026159049387
 30
0.0
 11
401.9538766298324
 21
307.3026159049387
 31
0.0
  0
LINE
  5
299
330
28C
100
AcDbEntity
  8
1
  6
Continuous
 62
     7
370
     9
100
AcDbLine
 10
402.5718766298323
 20
307.3026159049387
 30
0.0
 11
402.5968766298324
 21
308.0176159049387
 31
0.0
  0
LINE
  5
29A
330
28C
100
AcDbEntity
  8
1
  6
Continuous
 62
     7
370
     9
100
AcDbLine
 10
402.7908766298323
 20
308.4746159049387
 30
0.0
 11
402.5968766298324
 21
308.0176159049387
 31
0.0
  0
LINE
  5
29B
330
28C
100
AcDbEntity
  8
1
  6
Continuous
 62
     7
370
     9
100
AcDbLine
 10
401.7348766298324
 20
308.4746159049387
 30
0.0
 11
401.9288766298321
 21
308.0176159049387
 31
0.0
  0
LINE
  5
29C
330
28C
100
AcDbEntity
  8
1
  6
Continuous
 62
     7
370
     9
100
AcDbLine
 10
401.9538766298324
 20
307.3026159049387
 30
0.0
 11
401.9288766298321
 21
308.0176159049387
 31
0.0
  0
LINE
  5
29D
330
28C
100
AcDbEntity
  8
1
  6
Continuous
 62
     7
370
     9
100
AcDbLine
 10
403.9628766298323
 20
309.3116159049387
 30
0.0
 11
403.9628766298323
 21
308.6936159049387
 31
0.0
  0
LINE
  5
29E
330
28C
100
AcDbEntity
  8
1
  6
Continuous
 62
     7
370
     9
100
AcDbLine
 10
403.9628766298323
 20
309.3116159049387
 30
0.0
 11
403.2468766298324
 21
309.3366159049387
 31
0.0
  0
LINE
  5
29F
330
28C
100
AcDbEntity
  8
1
  6
Continuous
 62
     7
370
     9
100
AcDbLine
 10
402.7908766298323
 20
309.5296159049387
 30
0.0
 11
403.2468766298324
 21
309.3366159049387
 31
0.0
  0
LINE
  5
2A0
330
28C
100
AcDbEntity
  8
1
  6
Continuous
 62
     7
370
     9
100
AcDbLine
 10
402.7908766298323
 20
308.4746159049387
 30
0.0
 11
403.2468766298324
 21
308.6686159049387
 31
0.0
  0
LINE
  5
2A1
330
28C
100
AcDbEntity
  8
1
  6
Continuous
 62
     7
370
     9
100
AcDbLine
 10
403.9628766298323
 20
308.6936159049387
 30
0.0
 11
403.2468766298324
 21
308.6686159049387
 31
0.0
  0
CIRCLE
  5
2A2
330
28C
100
AcDbEntity
  8
1
  6
Continuous
 62
     7
370
     9
100
AcDbCircle
 10
402.2628766298323
 20
309.0026159049387
 30
0.0
 40
2.75
  0
ENDBLK
  5
2A3
330
28C
100
AcDbEntity
  8
0
100
AcDbBlockEnd
  0
BLOCK
  5
2A5
330
2A4
100
AcDbEntity
  8
0
100
AcDbBlockBegin
  2
*G351918
 70
     1
 10
0.0
 20
0.0
 30
0.0
  3
*G351918
  1

  0
LINE
  5
2A6
330
2A4
100
AcDbEntity
  8
1
  6
Continuous
 62
     7
370
     9
100
AcDbLine
 10
441.9538314869943
 20
310.7026159049387
 30
0.0
 11
441.9288314869943
 21
309.9866159049387
 31
0.0
  0
LINE
  5
2A7
330
2A4
100
AcDbEntity
  8
1
  6
Continuous
 62
     7
370
     9
100
AcDbLine
 10
441.7348314869943
 20
309.5296159049387
 30
0.0
 11
441.9288314869943
 21
309.9866159049387
 31
0.0
  0
LINE
  5
2A8
330
2A4
100
AcDbEntity
  8
1
  6
Continuous
 62
     7
370
     9
100
AcDbLine
 10
442.7908314869942
 20
309.5296159049387
 30
0.0
 11
442.5968314869943
 21
309.9866159049387
 31
0.0
  0
LINE
  5
2A9
330
2A4
100
AcDbEntity
  8
1
  6
Continuous
 62
     7
370
     9
100
AcDbLine
 10
442.5718314869944
 20
310.7026159049387
 30
0.0
 11
442.5968314869943
 21
309.9866159049387
 31
0.0
  0
LINE
  5
2AA
330
2A4
100
AcDbEntity
  8
1
  6
Continuous
 62
     7
370
     9
100
AcDbLine
 10
442.5718314869944
 20
310.7026159049387
 30
0.0
 11
441.9538314869943
 21
310.7026159049387
 31
0.0
  0
LINE
  5
2AB
330
2A4
100
AcDbEntity
  8
1
  6
Continuous
 62
     7
370
     9
100
AcDbLine
 10
443.9628314869943
 20
308.6936159049387
 30
0.0
 11
443.9628314869943
 21
309.3116159049387
 31
0.0
  0
LINE
  5
2AC
330
2A4
100
AcDbEntity
  8
1
  6
Continuous
 62
     7
370
     9
100
AcDbLine
 10
443.9628314869943
 20
308.6936159049387
 30
0.0
 11
443.2468314869943
 21
308.6686159049387
 31
0.0
  0
LINE
  5
2AD
330
2A4
100
AcDbEntity
  8
1
  6
Continuous
 62
     7
370
     9
100
AcDbLine
 10
442.7908314869942
 20
308.4746159049387
 30
0.0
 11
443.2468314869943
 21
308.6686159049387
 31
0.0
  0
LINE
  5
2AE
330
2A4
100
AcDbEntity
  8
1
  6
Continuous
 62
     7
370
     9
100
AcDbLine
 10
442.7908314869942
 20
309.5296159049387
 30
0.0
 11
443.2468314869943
 21
309.3366159049387
 31
0.0
  0
LINE
  5
2AF
330
2A4
100
AcDbEntity
  8
1
  6
Continuous
 62
     7
370
     9
100
AcDbLine
 10
443.9628314869943
 20
309.3116159049387
 30
0.0
 11
443.2468314869943
 21
309.3366159049387
 31
0.0
  0
LINE
  5
2B0
330
2A4
100
AcDbEntity
  8
1
  6
Continuous
 62
     7
370
     9
100
AcDbLine
 10
441.9538314869943
 20
307.3026159049387
 30
0.0
 11
442.5718314869944
 21
307.3026159049387
 31
0.0
  0
LINE
  5
2B1
330
2A4
100
AcDbEntity
  8
1
  6
Continuous
 62
     7
370
     9
100
AcDbLine
 10
441.9538314869943
 20
307.3026159049387
 30
0.0
 11
441.9288314869943
 21
308.0176159049387
 31
0.0
  0
LINE
  5
2B2
330
2A4
100
AcDbEntity
  8
1
  6
Continuous
 62
     7
370
     9
100
AcDbLine
 10
441.7348314869943
 20
308.4746159049387
 30
0.0
 11
441.9288314869943
 21
308.0176159049387
 31
0.0
  0
LINE
  5
2B3
330
2A4
100
AcDbEntity
  8
1
  6
Continuous
 62
     7
370
     9
100
AcDbLine
 10
442.7908314869942
 20
308.4746159049387
 30
0.0
 11
442.5968314869943
 21
308.0176159049387
 31
0.0
  0
LINE
  5
2B4
330
2A4
100
AcDbEntity
  8
1
  6
Continuous
 62
     7
370
     9
100
AcDbLine
 10
442.5718314869944
 20
307.3026159049387
 30
0.0
 11
442.5968314869943
 21
308.0176159049387
 31
0.0
  0
LINE
  5
2B5
330
2A4
100
AcDbEntity
  8
1
  6
Continuous
 62
     7
370
     9
100
AcDbLine
 10
440.5628314869941
 20
309.3116159049387
 30
0.0
 11
440.5628314869941
 21
308.6936159049387
 31
0.0
  0
LINE
  5
2B6
330
2A4
100
AcDbEntity
  8
1
  6
Continuous
 62
     7
370
     9
100
AcDbLine
 10
440.5628314869941
 20
309.3116159049387
 30
0.0
 11
441.2788314869943
 21
309.3366159049387
 31
0.0
  0
LINE
  5
2B7
330
2A4
100
AcDbEntity
  8
1
  6
Continuous
 62
     7
370
     9
100
AcDbLine
 10
441.7348314869943
 20
309.5296159049387
 30
0.0
 11
441.2788314869943
 21
309.3366159049387
 31
0.0
  0
LINE
  5
2B8
330
2A4
100
AcDbEntity
  8
1
  6
Continuous
 62
     7
370
     9
100
AcDbLine
 10
441.7348314869943
 20
308.4746159049387
 30
0.0
 11
441.2788314869943
 21
308.6686159049387
 31
0.0
  0
LINE
  5
2B9
330
2A4
100
AcDbEntity
  8
1
  6
Continuous
 62
     7
370
     9
100
AcDbLine
 10
440.5628314869941
 20
308.6936159049387
 30
0.0
 11
441.2788314869943
 21
308.6686159049387
 31
0.0
  0
CIRCLE
  5
2BA
330
2A4
100
AcDbEntity
  8
1
  6
Continuous
 62
     7
370
     9
100
AcDbCircle
 10
442.2628314869943
 20
309.0026159049387
 30
0.0
 40
2.75
  0
ENDBLK
  5
2BB
330
2A4
100
AcDbEntity
  8
0
100
AcDbBlockEnd
  0
BLOCK
  5
2BD
330
2BC
100
AcDbEntity
  8
0
100
AcDbBlockBegin
  2
*D19
 70
     1
 10
0.0
 20
0.0
 30
0.0
  3
*D19
  1

  0
LINE
  5
2BE
330
2BC
100
AcDbEntity
  8
SCALE
 62
     0
 48
0.5
370
    -2
100
AcDbLine
 10
-167.7660638921441
 20
60.06280927872275
 30
0.0
 11
-184.2845057472534
 21
60.06280927872275
 31
0.0
  0
LINE
  5
2BF
330
2BC
100
AcDbEntity
  8
SCALE
 62
     0
 48
0.5
370
    -2
100
AcDbLine
 10
-148.2660788921441
 20
49.06283227872279
 30
0.0
 11
-184.2845057472534
 21
49.0628322787228
 31
0.0
  0
LINE
  5
2C0
330
2BC
100
AcDbEntity
  8
SCALE
 62
     0
 48
0.5
370
    -2
100
AcDbLine
 10
-183.0345057472534
 20
57.56280927872275
 30
0.0
 11
-183.0345057472534
 21
51.5628322787228
 31
0.0
  0
INSERT
  5
2C1
330
2BC
100
AcDbEntity
  8
SCALE
 62
     0
 48
0.5
370
    -2
100
AcDbBlockReference
  2
_OPEN30
 10
-183.0345057472534
 20
60.06280927872275
 30
0.0
 41
2.5
 42
2.5
 43
2.5
 50
90.0
  0
INSERT
  5
2C2
330
2BC
100
AcDbEntity
  8
SCALE
 62
     0
 48
0.5
370
    -2
100
AcDbBlockReference
  2
_OPEN30
 10
-183.0345057472534
 20
49.0628322787228
 30
0.0
 41
2.5
 42
2.5
 43
2.5
 50
270.0
  0
MTEXT
  5
2C3
330
2BC
100
AcDbEntity
  8
SCALE
 62
     0
 48
0.5
100
AcDbMText
 10
-186.1595057472534
 20
54.56282077872274
 30
0.0
 40
5.0
 41
0.0
 71
     5
 72
     1
  1
\A1;11
  7
Standard
 11
0.0000000000000001
 21
1.0
 31
0.0
 73
     1
 44
1.0
  0
POINT
  5
2C4
330
2BC
100
AcDbEntity
  8
DEFPOINTS
 62
     0
 48
0.5
100
AcDbPoint
 10
-167.141063892144
 20
60.06280927872275
 30
0.0
  0
POINT
  5
2C5
330
2BC
100
AcDbEntity
  8
DEFPOINTS
 62
     0
 48
0.5
100
AcDbPoint
 10
-147.6410788921441
 20
49.06283227872279
 30
0.0
  0
POINT
  5
2C6
330
2BC
100
AcDbEntity
  8
DEFPOINTS
 62
     0
 48
0.5
100
AcDbPoint
 10
-183.0345057472534
 20
49.0628322787228
 30
0.0
  0
ENDBLK
  5
2C7
330
2BC
100
AcDbEntity
  8
0
100
AcDbBlockEnd
  0
BLOCK
  5
2C9
330
2C8
100
AcDbEntity
  8
0
100
AcDbBlockBegin
  2
*D20
 70
     1
 10
0.0
 20
0.0
 30
0.0
  3
*D20
  1

  0
LINE
  5
2CA
330
2C8
100
AcDbEntity
  8
SCALE
 62
     0
 48
0.5
370
    -2
100
AcDbLine
 10
-183.6595057472534
 20
49.06283227872279
 30
0.0
 11
-184.2845057472534
 21
49.06283227872279
 31
0.0
  0
LINE
  5
2CB
330
2C8
100
AcDbEntity
  8
SCALE
 62
     0
 48
0.5
370
    -2
100
AcDbLine
 10
-175.7660788921441
 20
39.06281627872284
 30
0.0
 11
-184.2845057472534
 21
39.06281627872284
 31
0.0
  0
LINE
  5
2CC
330
2C8
100
AcDbEntity
  8
SCALE
 62
     0
 48
0.5
370
    -2
100
AcDbLine
 10
-183.0345057472534
 20
46.56283227872279
 30
0.0
 11
-183.0345057472534
 21
41.56281627872284
 31
0.0
  0
INSERT
  5
2CD
330
2C8
100
AcDbEntity
  8
SCALE
 62
     0
 48
0.5
370
    -2
100
AcDbBlockReference
  2
_OPEN30
 10
-183.0345057472534
 20
49.06283227872279
 30
0.0
 41
2.5
 42
2.5
 43
2.5
 50
90.0
  0
INSERT
  5
2CE
330
2C8
100
AcDbEntity
  8
SCALE
 62
     0
 48
0.5
370
    -2
100
AcDbBlockReference
  2
_OPEN30
 10
-183.0345057472534
 20
39.06281627872284
 30
0.0
 41
2.5
 42
2.5
 43
2.5
 50
270.0
  0
MTEXT
  5
2CF
330
2C8
100
AcDbEntity
  8
SCALE
 62
     0
 48
0.5
100
AcDbMText
 10
-186.1595057472534
 20
44.06282427872278
 30
0.0
 40
5.0
 41
0.0
 71
     5
 72
     1
  1
\A1;10
  7
Standard
 11
0.0000000000000001
 21
1.0
 31
0.0
 73
     1
 44
1.0
  0
POINT
  5
2D0
330
2C8
100
AcDbEntity
  8
DEFPOINTS
 62
     0
 48
0.5
100
AcDbPoint
 10
-183.0345057472534
 20
49.06283227872279
 30
0.0
  0
POINT
  5
2D1
330
2C8
100
AcDbEntity
  8
DEFPOINTS
 62
     0
 48
0.5
100
AcDbPoint
 10
-175.1410788921441
 20
39.06281627872284
 30
0.0
  0
POINT
  5
2D2
330
2C8
100
AcDbEntity
  8
DEFPOINTS
 62
     0
 48
0.5
100
AcDbPoint
 10
-183.0345057472534
 20
39.06281627872284
 30
0.0
  0
ENDBLK
  5
2D3
330
2C8
100
AcDbEntity
  8
0
100
AcDbBlockEnd
  0
BLOCK
  5
2D5
330
2D4
100
AcDbEntity
  8
0
100
AcDbBlockBegin
  2
*D21
 70
     1
 10
0.0
 20
0.0
 30
0.0
  3
*D21
  1

  0
LINE
  5
2D6
330
2D4
100
AcDbEntity
  8
SCALE
 62
     0
 48
0.5
370
    -2
100
AcDbLine
 10
167.9837831078559
 20
93.56277127872283
 30
0.0
 11
192.0973227894172
 21
93.56277127872283
 31
0.0
  0
LINE
  5
2D7
330
2D4
100
AcDbEntity
  8
SCALE
 62
     0
 48
0.5
370
    -2
100
AcDbLine
 10
167.9837831078559
 20
45.56281627872283
 30
0.0
 11
192.097322789417
 21
45.56281627872283
 31
0.0
  0
LINE
  5
2D8
330
2D4
100
AcDbEntity
  8
SCALE
 62
     0
 48
0.5
370
    -2
100
AcDbLine
 10
190.8473227894172
 20
91.06277127872283
 30
0.0
 11
190.847322789417
 21
48.06281627872283
 31
0.0
  0
INSERT
  5
2D9
330
2D4
100
AcDbEntity
  8
SCALE
 62
     0
 48
0.5
370
    -2
100
AcDbBlockReference
  2
_OPEN30
 10
190.8473227894172
 20
93.56277127872283
 30
0.0
 41
2.5
 42
2.5
 43
2.5
 50
90.0
  0
INSERT
  5
2DA
330
2D4
100
AcDbEntity
  8
SCALE
 62
     0
 48
0.5
370
    -2
100
AcDbBlockReference
  2
_OPEN30
 10
190.847322789417
 20
45.56281627872283
 30
0.0
 41
2.5
 42
2.5
 43
2.5
 50
270.0
  0
MTEXT
  5
2DB
330
2D4
100
AcDbEntity
  8
SCALE
 62
     0
 48
0.5
100
AcDbMText
 10
187.222322789417
 20
69.56279377872286
 30
0.0
 40
6.0
 41
0.0
 71
     5
 72
     1
  1
\A1;48
  7
Standard
 11
0.0000000000000001
 21
1.0
 31
0.0
 73
     1
 44
1.0
  0
POINT
  5
2DC
330
2D4
100
AcDbEntity
  8
DEFPOINTS
 62
     0
 48
0.5
100
AcDbPoint
 10
167.3587831078559
 20
93.56277127872283
 30
0.0
  0
POINT
  5
2DD
330
2D4
100
AcDbEntity
  8
DEFPOINTS
 62
     0
 48
0.5
100
AcDbPoint
 10
167.3587831078559
 20
45.56281627872283
 30
0.0
  0
POINT
  5
2DE
330
2D4
100
AcDbEntity
  8
DEFPOINTS
 62
     0
 48
0.5
100
AcDbPoint
 10
190.847322789417
 20
45.56281627872283
 30
0.0
  0
ENDBLK
  5
2DF
330
2D4
100
AcDbEntity
  8
0
100
AcDbBlockEnd
  0
BLOCK
  5
2E1
330
2E0
100
AcDbEntity
  8
0
100
AcDbBlockBegin
  2
*D22
 70
     1
 10
0.0
 20
0.0
 30
0.0
  3
*D22
  1

  0
LINE
  5
2E2
330
2E0
100
AcDbEntity
  8
SCALE
 62
     0
 48
0.5
370
    -2
100
AcDbLine
 10
167.3587831078559
 20
44.93781627872283
 30
0.0
 11
167.3587831078559
 21
23.44718469873146
 31
0.0
  0
LINE
  5
2E3
330
2E0
100
AcDbEntity
  8
SCALE
 62
     0
 48
0.5
370
    -2
100
AcDbLine
 10
119.358798107856
 20
44.93781627872283
 30
0.0
 11
119.358798107856
 21
23.44718469873146
 31
0.0
  0
LINE
  5
2E4
330
2E0
100
AcDbEntity
  8
SCALE
 62
     0
 48
0.5
370
    -2
100
AcDbLine
 10
164.8587831078559
 20
24.69718469873146
 30
0.0
 11
121.858798107856
 21
24.69718469873146
 31
0.0
  0
INSERT
  5
2E5
330
2E0
100
AcDbEntity
  8
SCALE
 62
     0
 48
0.5
370
    -2
100
AcDbBlockReference
  2
_OPEN30
 10
167.3587831078559
 20
24.69718469873146
 30
0.0
 41
2.5
 42
2.5
 43
2.5
  0
INSERT
  5
2E6
330
2E0
100
AcDbEntity
  8
SCALE
 62
     0
 48
0.5
370
    -2
100
AcDbBlockReference
  2
_OPEN30
 10
119.358798107856
 20
24.69718469873146
 30
0.0
 41
2.5
 42
2.5
 43
2.5
 50
180.0
  0
MTEXT
  5
2E7
330
2E0
100
AcDbEntity
  8
SCALE
 62
     0
 48
0.5
100
AcDbMText
 10
143.358790607856
 20
28.32218469873146
 30
0.0
 40
6.0
 41
0.0
 71
     5
 72
     1
  1
\A1;48
  7
Standard
 73
     1
 44
1.0
  0
POINT
  5
2E8
330
2E0
100
AcDbEntity
  8
DEFPOINTS
 62
     0
 48
0.5
100
AcDbPoint
 10
167.3587831078559
 20
45.56281627872283
 30
0.0
  0
POINT
  5
2E9
330
2E0
100
AcDbEntity
  8
DEFPOINTS
 62
     0
 48
0.5
100
AcDbPoint
 10
119.358798107856
 20
45.56281627872283
 30
0.0
  0
POINT
  5
2EA
330
2E0
100
AcDbEntity
  8
DEFPOINTS
 62
     0
 48
0.5
100
AcDbPoint
 10
119.358798107856
 20
24.69718469873146
 30
0.0
  0
ENDBLK
  5
2EB
330
2E0
100
AcDbEntity
  8
0
100
AcDbBlockEnd
  0
BLOCK
  5
2ED
330
2EC
100
AcDbEntity
  8
0
100
AcDbBlockBegin
  2
*D23
 70
     1
 10
0.0
 20
0.0
 30
0.0
  3
*D23
  1

  0
LINE
  5
2EE
330
2EC
100
AcDbEntity
  8
SCALE
 62
     0
 48
0.5
370
    -2
100
AcDbLine
 10
-66.64110889214384
 20
57.20337453535933
 30
0.0
 11
-66.64110889214384
 21
22.05271637135843
 31
0.0
  0
LINE
  5
2EF
330
2EC
100
AcDbEntity
  8
SCALE
 62
     0
 48
0.5
370
    -2
100
AcDbLine
 10
-58.6410948921382
 20
40.35821476938122
 30
0.0
 11
-58.6410948921382
 21
22.05271637135843
 31
0.0
  0
LINE
  5
2F0
330
2EC
100
AcDbEntity
  8
SCALE
 62
     0
 48
0.5
370
    -2
100
AcDbLine
 10
-64.14110889214384
 20
23.30271637135843
 30
0.0
 11
-61.1410948921382
 21
23.30271637135843
 31
0.0
  0
INSERT
  5
2F1
330
2EC
100
AcDbEntity
  8
SCALE
 62
     0
 48
0.5
370
    -2
100
AcDbBlockReference
  2
_OPEN30
 10
-66.64110889214384
 20
23.30271637135843
 30
0.0
 41
2.5
 42
2.5
 43
2.5
 50
180.0
  0
INSERT
  5
2F2
330
2EC
100
AcDbEntity
  8
SCALE
 62
     0
 48
0.5
370
    -2
100
AcDbBlockReference
  2
_OPEN30
 10
-58.6410948921382
 20
23.30271637135843
 30
0.0
 41
2.5
 42
2.5
 43
2.5
  0
MTEXT
  5
2F3
330
2EC
100
AcDbEntity
  8
SCALE
 62
     0
 48
0.5
100
AcDbMText
 10
-62.64110189214103
 20
26.92771637135843
 30
0.0
 40
6.0
 41
0.0
 71
     5
 72
     1
  1
\A1;8
  7
Standard
 73
     1
 44
1.0
  0
POINT
  5
2F4
330
2EC
100
AcDbEntity
  8
DEFPOINTS
 62
     0
 48
0.5
100
AcDbPoint
 10
-66.64110889214384
 20
57.82837453535933
 30
0.0
  0
POINT
  5
2F5
330
2EC
100
AcDbEntity
  8
DEFPOINTS
 62
     0
 48
0.5
100
AcDbPoint
 10
-58.6410948921382
 20
40.98321476938122
 30
0.0
  0
POINT
  5
2F6
330
2EC
100
AcDbEntity
  8
DEFPOINTS
 62
     0
 48
0.5
100
AcDbPoint
 10
-58.6410948921382
 20
23.30271637135843
 30
0.0
  0
ENDBLK
  5
2F7
330
2EC
100
AcDbEntity
  8
0
100
AcDbBlockEnd
  0
BLOCK
  5
2F9
330
2F8
100
AcDbEntity
  8
0
100
AcDbBlockBegin
  2
*D24
 70
     1
 10
0.0
 20
0.0
 30
0.0
  3
*D24
  1

  0
LINE
  5
2FA
330
2F8
100
AcDbEntity
  8
SCALE
 62
     0
 48
0.5
370
    -2
100
AcDbLine
 10
-58.6410948921382
 20
23.92771637135843
 30
0.0
 11
-58.6410948921382
 21
24.55271637135843
 31
0.0
  0
LINE
  5
2FB
330
2F8
100
AcDbEntity
  8
SCALE
 62
     0
 48
0.5
370
    -2
100
AcDbLine
 10
-46.64108889214435
 20
38.4380502787227
 30
0.0
 11
-46.64108889214435
 21
22.05271637135843
 31
0.0
  0
LINE
  5
2FC
330
2F8
100
AcDbEntity
  8
SCALE
 62
     0
 48
0.5
370
    -2
100
AcDbLine
 10
-56.1410948921382
 20
23.30271637135843
 30
0.0
 11
-49.14108889214436
 21
23.30271637135843
 31
0.0
  0
INSERT
  5
2FD
330
2F8
100
AcDbEntity
  8
SCALE
 62
     0
 48
0.5
370
    -2
100
AcDbBlockReference
  2
_OPEN30
 10
-58.6410948921382
 20
23.30271637135843
 30
0.0
 41
2.5
 42
2.5
 43
2.5
 50
180.0
  0
INSERT
  5
2FE
330
2F8
100
AcDbEntity
  8
SCALE
 62
     0
 48
0.5
370
    -2
100
AcDbBlockReference
  2
_OPEN30
 10
-46.64108889214435
 20
23.30271637135843
 30
0.0
 41
2.5
 42
2.5
 43
2.5
  0
MTEXT
  5
2FF
330
2F8
100
AcDbEntity
  8
SCALE
 62
     0
 48
0.5
100
AcDbMText
 10
-52.64109189214128
 20
26.92771637135843
 30
0.0
 40
6.0
 41
0.0
 71
     5
 72
     1
  1
\A1;12
  7
Standard
 73
     1
 44
1.0
  0
POINT
  5
300
330
2F8
100
AcDbEntity
  8
DEFPOINTS
 62
     0
 48
0.5
100
AcDbPoint
 10
-58.6410948921382
 20
23.30271637135843
 30
0.0
  0
POINT
  5
301
330
2F8
100
AcDbEntity
  8
DEFPOINTS
 62
     0
 48
0.5
100
AcDbPoint
 10
-46.64108889214435
 20
39.0630502787227
 30
0.0
  0
POINT
  5
302
330
2F8
100
AcDbEntity
  8
DEFPOINTS
 62
     0
 48
0.5
100
AcDbPoint
 10
-46.64108889214435
 20
23.30271637135843
 30
0.0
  0
ENDBLK
  5
303
330
2F8
100
AcDbEntity
  8
0
100
AcDbBlockEnd
  0
BLOCK
  5
305
330
304
100
AcDbEntity
  8
0
100
AcDbBlockBegin
  2
*D25
 70
     1
 10
0.0
 20
0.0
 30
0.0
  3
*D25
  1

  0
LINE
  5
306
330
304
100
AcDbEntity
  8
SCALE
 62
     0
 48
0.5
370
    -2
100
AcDbLine
 10
-46.64108889214435
 20
23.92771637135843
 30
0.0
 11
-46.64108889214435
 21
24.55271637135843
 31
0.0
  0
LINE
  5
307
330
304
100
AcDbEntity
  8
SCALE
 62
     0
 48
0.5
370
    -2
100
AcDbLine
 10
42.85837110785563
 20
44.43804527872281
 30
0.0
 11
42.85837110785563
 21
22.05271637135843
 31
0.0
  0
LINE
  5
308
330
304
100
AcDbEntity
  8
SCALE
 62
     0
 48
0.5
370
    -2
100
AcDbLine
 10
-44.14108889214435
 20
23.30271637135843
 30
0.0
 11
40.35837110785563
 21
23.30271637135843
 31
0.0
  0
INSERT
  5
309
330
304
100
AcDbEntity
  8
SCALE
 62
     0
 48
0.5
370
    -2
100
AcDbBlockReference
  2
_OPEN30
 10
-46.64108889214435
 20
23.30271637135843
 30
0.0
 41
2.5
 42
2.5
 43
2.5
 50
180.0
  0
INSERT
  5
30A
330
304
100
AcDbEntity
  8
SCALE
 62
     0
 48
0.5
370
    -2
100
AcDbBlockReference
  2
_OPEN30
 10
42.85837110785563
 20
23.30271637135843
 30
0.0
 41
2.5
 42
2.5
 43
2.5
  0
MTEXT
  5
30B
330
304
100
AcDbEntity
  8
SCALE
 62
     0
 48
0.5
100
AcDbMText
 10
-1.891358892144353
 20
26.92771637135843
 30
0.0
 40
6.0
 41
0.0
 71
     5
 72
     1
  1
\A1;89.5
  7
Standard
 73
     1
 44
1.0
  0
POINT
  5
30C
330
304
100
AcDbEntity
  8
DEFPOINTS
 62
     0
 48
0.5
100
AcDbPoint
 10
-46.64108889214435
 20
23.30271637135843
 30
0.0
  0
POINT
  5
30D
330
304
100
AcDbEntity
  8
DEFPOINTS
 62
     0
 48
0.5
100
AcDbPoint
 10
42.85837110785563
 20
45.06304527872281
 30
0.0
  0
POINT
  5
30E
330
304
100
AcDbEntity
  8
DEFPOINTS
 62
     0
 48
0.5
100
AcDbPoint
 10
42.85837110785563
 20
23.30271637135843
 30
0.0
  0
ENDBLK
  5
30F
330
304
100
AcDbEntity
  8
0
100
AcDbBlockEnd
  0
BLOCK
  5
311
330
310
100
AcDbEntity
  8
0
100
AcDbBlockBegin
  2
*D26
 70
     1
 10
0.0
 20
0.0
 30
0.0
  3
*D26
  1

  0
LINE
  5
312
330
310
100
AcDbEntity
  8
SCALE
 62
     0
 48
0.5
370
    -2
100
AcDbLine
 10
42.85837110785563
 20
23.92771637135843
 30
0.0
 11
42.85837110785563
 21
24.55271637135843
 31
0.0
  0
LINE
  5
313
330
310
100
AcDbEntity
  8
SCALE
 62
     0
 48
0.5
370
    -2
100
AcDbLine
 10
48.55937110785568
 20
71.18804527872271
 30
0.0
 11
48.55937110785568
 21
22.05271637135843
 31
0.0
  0
LINE
  5
314
330
310
100
AcDbEntity
  8
SCALE
 62
     0
 48
0.5
370
    -2
100
AcDbLine
 10
40.35837110785563
 20
23.30271637135843
 30
0.0
 11
37.85837110785565
 21
23.30271637135843
 31
0.0
  0
LINE
  5
315
330
310
100
AcDbEntity
  8
SCALE
 62
     0
 48
0.5
370
    -2
100
AcDbLine
 10
51.05937110785568
 20
23.30271637135843
 30
0.0
 11
67.38079967928424
 21
23.30271637135843
 31
0.0
  0
LINE
  5
316
330
310
100
AcDbEntity
  8
SCALE
 62
     0
 48
0.5
370
    -2
100
AcDbLine
 10
42.85837110785563
 20
23.30271637135843
 30
0.0
 11
48.55937110785568
 21
23.30271637135843
 31
0.0
  0
INSERT
  5
317
330
310
100
AcDbEntity
  8
SCALE
 62
     0
 48
0.5
370
    -2
100
AcDbBlockReference
  2
_OPEN30
 10
42.85837110785563
 20
23.30271637135843
 30
0.0
 41
2.5
 42
2.5
 43
2.5
  0
INSERT
  5
318
330
310
100
AcDbEntity
  8
SCALE
 62
     0
 48
0.5
370
    -2
100
AcDbBlockReference
  2
_OPEN30
 10
48.55937110785568
 20
23.30271637135843
 30
0.0
 41
2.5
 42
2.5
 43
2.5
 50
180.0
  0
MTEXT
  5
319
330
310
100
AcDbEntity
  8
SCALE
 62
     0
 48
0.5
100
AcDbMText
 10
60.47008539356995
 20
26.92771637135843
 30
0.0
 40
6.0
 41
0.0
 71
     5
 72
     1
  1
\A1;5.7
  7
Standard
 73
     1
 44
1.0
  0
POINT
  5
31A
330
310
100
AcDbEntity
  8
DEFPOINTS
 62
     0
 48
0.5
100
AcDbPoint
 10
42.85837110785563
 20
23.30271637135843
 30
0.0
  0
POINT
  5
31B
330
310
100
AcDbEntity
  8
DEFPOINTS
 62
     0
 48
0.5
100
AcDbPoint
 10
48.55937110785568
 20
71.81304527872271
 30
0.0
  0
POINT
  5
31C
330
310
100
AcDbEntity
  8
DEFPOINTS
 62
     0
 48
0.5
100
AcDbPoint
 10
48.55937110785568
 20
23.30271637135843
 30
0.0
  0
ENDBLK
  5
31D
330
310
100
AcDbEntity
  8
0
100
AcDbBlockEnd
  0
BLOCK
  5
31F
330
31E
100
AcDbEntity
  8
0
100
AcDbBlockBegin
  2
*D27
 70
     1
 10
0.0
 20
0.0
 30
0.0
  3
*D27
  1

  0
LINE
  5
320
330
31E
100
AcDbEntity
  8
SCALE
 62
     0
 48
0.5
370
    -2
100
AcDbLine
 10
37.2333711078561
 20
97.56277127872284
 30
0.0
 11
18.25703549958394
 21
97.56277127872284
 31
0.0
  0
LINE
  5
321
330
31E
100
AcDbEntity
  8
SCALE
 62
     0
 48
0.5
370
    -2
100
AcDbLine
 10
37.2333711078561
 20
41.56304527872282
 30
0.0
 11
18.25703549958393
 21
41.56304527872282
 31
0.0
  0
LINE
  5
322
330
31E
100
AcDbEntity
  8
SCALE
 62
     0
 48
0.5
370
    -2
100
AcDbLine
 10
19.50703549958394
 20
95.06277127872284
 30
0.0
 11
19.50703549958393
 21
44.06304527872282
 31
0.0
  0
INSERT
  5
323
330
31E
100
AcDbEntity
  8
SCALE
 62
     0
 48
0.5
370
    -2
100
AcDbBlockReference
  2
_OPEN30
 10
19.50703549958394
 20
97.56277127872284
 30
0.0
 41
2.5
 42
2.5
 43
2.5
 50
90.0
  0
INSERT
  5
324
330
31E
100
AcDbEntity
  8
SCALE
 62
     0
 48
0.5
370
    -2
100
AcDbBlockReference
  2
_OPEN30
 10
19.50703549958393
 20
41.56304527872282
 30
0.0
 41
2.5
 42
2.5
 43
2.5
 50
270.0
  0
MTEXT
  5
325
330
31E
100
AcDbEntity
  8
SCALE
 62
     0
 48
0.5
100
AcDbMText
 10
14.31060692815536
 20
69.56290827872284
 30
0.0
 40
6.0
 41
0.0
 71
     5
 72
     1
  1
\A1;Φ56
  7
Standard
 11
0.0000000000000001
 21
1.0
 31
0.0
 73
     1
 44
1.0
  0
POINT
  5
326
330
31E
100
AcDbEntity
  8
DEFPOINTS
 62
     0
 48
0.5
100
AcDbPoint
 10
37.8583711078561
 20
97.56277127872284
 30
0.0
  0
POINT
  5
327
330
31E
100
AcDbEntity
  8
DEFPOINTS
 62
     0
 48
0.5
100
AcDbPoint
 10
37.8583711078561
 20
41.56304527872282
 30
0.0
  0
POINT
  5
328
330
31E
100
AcDbEntity
  8
DEFPOINTS
 62
     0
 48
0.5
100
AcDbPoint
 10
19.50703549958393
 20
41.56304527872282
 30
0.0
  0
ENDBLK
  5
329
330
31E
100
AcDbEntity
  8
0
100
AcDbBlockEnd
  0
BLOCK
  5
32B
330
32A
100
AcDbEntity
  8
0
100
AcDbBlockBegin
  2
*D28
 70
     1
 10
0.0
 20
0.0
 30
0.0
  3
*D28
  1

  0
LINE
  5
32C
330
32A
100
AcDbEntity
  8
SCALE
 62
     0
 48
0.5
370
    -2
100
AcDbLine
 10
-33.64109489214411
 20
95.68777127872284
 30
0.0
 11
-33.64109489214411
 21
107.1319615143791
 31
0.0
  0
LINE
  5
32D
330
32A
100
AcDbEntity
  8
SCALE
 62
     0
 48
0.5
370
    -2
100
AcDbLine
 10
-46.64101989214418
 20
100.6879232787227
 30
0.0
 11
-46.64101989214418
 21
107.1319615143791
 31
0.0
  0
LINE
  5
32E
330
32A
100
AcDbEntity
  8
SCALE
 62
     0
 48
0.5
370
    -2
100
AcDbLine
 10
-36.14109489214411
 20
105.8819615143791
 30
0.0
 11
-44.14101989214418
 21
105.8819615143791
 31
0.0
  0
INSERT
  5
32F
330
32A
100
AcDbEntity
  8
SCALE
 62
     0
 48
0.5
370
    -2
100
AcDbBlockReference
  2
_OPEN30
 10
-33.64109489214411
 20
105.8819615143791
 30
0.0
 41
2.5
 42
2.5
 43
2.5
  0
INSERT
  5
330
330
32A
100
AcDbEntity
  8
SCALE
 62
     0
 48
0.5
370
    -2
100
AcDbBlockReference
  2
_OPEN30
 10
-46.64101989214418
 20
105.8819615143791
 30
0.0
 41
2.5
 42
2.5
 43
2.5
 50
180.0
  0
MTEXT
  5
331
330
32A
100
AcDbEntity
  8
SCALE
 62
     0
 48
0.5
100
AcDbMText
 10
-40.14105739214413
 20
109.5069615143791
 30
0.0
 40
6.0
 41
0.0
 71
     5
 72
     1
  1
\A1;13
  7
Standard
 73
     1
 44
1.0
  0
POINT
  5
332
330
32A
100
AcDbEntity
  8
DEFPOINTS
 62
     0
 48
0.5
100
AcDbPoint
 10
-33.64109489214411
 20
95.06277127872284
 30
0.0
  0
POINT
  5
333
330
32A
100
AcDbEntity
  8
DEFPOINTS
 62
     0
 48
0.5
100
AcDbPoint
 10
-46.64101989214418
 20
100.0629232787227
 30
0.0
  0
POINT
  5
334
330
32A
100
AcDbEntity
  8
DEFPOINTS
 62
     0
 48
0.5
100
AcDbPoint
 10
-46.64101989214418
 20
105.8819615143791
 30
0.0
  0
ENDBLK
  5
335
330
32A
100
AcDbEntity
  8
0
100
AcDbBlockEnd
  0
BLOCK
  5
337
330
336
100
AcDbEntity
  8
0
100
AcDbBlockBegin
  2
*D29
 70
     1
 10
0.0
 20
0.0
 30
0.0
  3
*D29
  1

  0
LINE
  5
338
330
336
100
AcDbEntity
  8
SCALE
 62
     0
 48
0.5
370
    -2
100
AcDbLine
 10
-127.6410788921441
 20
59.43780927872275
 30
0.0
 11
-127.6410788921441
 21
26.55093205342633
 31
0.0
  0
LINE
  5
339
330
336
100
AcDbEntity
  8
SCALE
 62
     0
 48
0.5
370
    -2
100
AcDbLine
 10
-166.6410638921441
 20
59.43780927872275
 30
0.0
 11
-166.6410638921441
 21
26.55093205342633
 31
0.0
  0
LINE
  5
33A
330
336
100
AcDbEntity
  8
SCALE
 62
     0
 48
0.5
370
    -2
100
AcDbLine
 10
-130.1410788921441
 20
27.80093205342633
 30
0.0
 11
-164.141063892144
 21
27.80093205342633
 31
0.0
  0
INSERT
  5
33B
330
336
100
AcDbEntity
  8
SCALE
 62
     0
 48
0.5
370
    -2
100
AcDbBlockReference
  2
_OPEN30
 10
-127.6410788921441
 20
27.80093205342633
 30
0.0
 41
2.5
 42
2.5
 43
2.5
  0
INSERT
  5
33C
330
336
100
AcDbEntity
  8
SCALE
 62
     0
 48
0.5
370
    -2
100
AcDbBlockReference
  2
_OPEN30
 10
-166.6410638921441
 20
27.80093205342633
 30
0.0
 41
2.5
 42
2.5
 43
2.5
 50
180.0
  0
MTEXT
  5
33D
330
336
100
AcDbEntity
  8
SCALE
 62
     0
 48
0.5
100
AcDbMText
 10
-147.1410713921441
 20
31.42593205342632
 30
0.0
 40
6.0
 41
0.0
 71
     5
 72
     1
  1
\A1;39
  7
Standard
 73
     1
 44
1.0
  0
POINT
  5
33E
330
336
100
AcDbEntity
  8
DEFPOINTS
 62
     0
 48
0.5
100
AcDbPoint
 10
-127.6410788921441
 20
60.06280927872275
 30
0.0
  0
POINT
  5
33F
330
336
100
AcDbEntity
  8
DEFPOINTS
 62
     0
 48
0.5
100
AcDbPoint
 10
-166.6410638921441
 20
60.06280927872275
 30
0.0
  0
POINT
  5
340
330
336
100
AcDbEntity
  8
DEFPOINTS
 62
     0
 48
0.5
100
AcDbPoint
 10
-166.6410638921441
 20
27.80093205342633
 30
0.0
  0
ENDBLK
  5
341
330
336
100
AcDbEntity
  8
0
100
AcDbBlockEnd
  0
BLOCK
  5
343
330
342
100
AcDbEntity
  8
0
100
AcDbBlockBegin
  2
*D30
 70
     1
 10
0.0
 20
0.0
 30
0.0
  3
*D30
  1

  0
LINE
  5
344
330
342
100
AcDbEntity
  8
SCALE
 62
     0
 48
0.5
370
    -2
100
AcDbLine
 10
-175.7660782638256
 20
100.0627702787227
 30
0.0
 11
-192.3738574024575
 21
100.0627702787227
 31
0.0
  0
LINE
  5
345
330
342
100
AcDbEntity
  8
SCALE
 62
     0
 48
0.5
370
    -2
100
AcDbLine
 10
-175.7660788572377
 20
39.06281727872283
 30
0.0
 11
-192.3738574024575
 21
39.06281727872285
 31
0.0
  0
LINE
  5
346
330
342
100
AcDbEntity
  8
SCALE
 62
     0
 48
0.5
370
    -2
100
AcDbLine
 10
-191.1238574024575
 20
97.56277027872272
 30
0.0
 11
-191.1238574024576
 21
41.56281727872285
 31
0.0
  0
INSERT
  5
347
330
342
100
AcDbEntity
  8
SCALE
 62
     0
 48
0.5
370
    -2
100
AcDbBlockReference
  2
_OPEN30
 10
-191.1238574024575
 20
100.0627702787227
 30
0.0
 41
2.5
 42
2.5
 43
2.5
 50
90.0
  0
INSERT
  5
348
330
342
100
AcDbEntity
  8
SCALE
 62
     0
 48
0.5
370
    -2
100
AcDbBlockReference
  2
_OPEN30
 10
-191.1238574024576
 20
39.06281727872285
 30
0.0
 41
2.5
 42
2.5
 43
2.5
 50
270.0
  0
MTEXT
  5
349
330
342
100
AcDbEntity
  8
SCALE
 62
     0
 48
0.5
100
AcDbMText
 10
-194.7488574024576
 20
69.56279377872275
 30
0.0
 40
6.0
 41
0.0
 71
     5
 72
     1
  1
\A1;61
  7
Standard
 11
0.0000000000000001
 21
1.0
 31
0.0
 73
     1
 44
1.0
  0
POINT
  5
34A
330
342
100
AcDbEntity
  8
DEFPOINTS
 62
     0
 48
0.5
100
AcDbPoint
 10
-175.1410782638256
 20
100.0627702787227
 30
0.0
  0
POINT
  5
34B
330
342
100
AcDbEntity
  8
DEFPOINTS
 62
     0
 48
0.5
100
AcDbPoint
 10
-175.1410788572377
 20
39.06281727872283
 30
0.0
  0
POINT
  5
34C
330
342
100
AcDbEntity
  8
DEFPOINTS
 62
     0
 48
0.5
100
AcDbPoint
 10
-191.1238574024576
 20
39.06281727872285
 30
0.0
  0
ENDBLK
  5
34D
330
342
100
AcDbEntity
  8
0
100
AcDbBlockEnd
  0
BLOCK
  5
34F
330
34E
100
AcDbEntity
  8
0
100
AcDbBlockBegin
  2
*D31
 70
     1
 10
0.0
 20
0.0
 30
0.0
  3
*D31
  1

  0
LINE
  5
350
330
34E
100
AcDbEntity
  8
SCALE
 62
     0
 48
0.5
370
    -2
100
AcDbLine
 10
-177.1410778921438
 20
40.43781753535938
 30
0.0
 11
-177.1410778921438
 21
16.85867953537558
 31
0.0
  0
LINE
  5
351
330
34E
100
AcDbEntity
  8
SCALE
 62
     0
 48
0.5
370
    -2
100
AcDbLine
 10
-116.141079892144
 20
40.43781627872284
 30
0.0
 11
-116.141079892144
 21
16.85867953537558
 31
0.0
  0
LINE
  5
352
330
34E
100
AcDbEntity
  8
SCALE
 62
     0
 48
0.5
370
    -2
100
AcDbLine
 10
-174.6410778921438
 20
18.10867953537558
 30
0.0
 11
-118.641079892144
 21
18.10867953537558
 31
0.0
  0
INSERT
  5
353
330
34E
100
AcDbEntity
  8
SCALE
 62
     0
 48
0.5
370
    -2
100
AcDbBlockReference
  2
_OPEN30
 10
-177.1410778921438
 20
18.10867953537558
 30
0.0
 41
2.5
 42
2.5
 43
2.5
 50
180.0
  0
INSERT
  5
354
330
34E
100
AcDbEntity
  8
SCALE
 62
     0
 48
0.5
370
    -2
100
AcDbBlockReference
  2
_OPEN30
 10
-116.141079892144
 20
18.10867953537558
 30
0.0
 41
2.5
 42
2.5
 43
2.5
  0
MTEXT
  5
355
330
34E
100
AcDbEntity
  8
SCALE
 62
     0
 48
0.5
100
AcDbMText
 10
-146.6410788921439
 20
21.73367953537558
 30
0.0
 40
6.0
 41
0.0
 71
     5
 72
     1
  1
\A1;61
  7
Standard
 73
     1
 44
1.0
  0
POINT
  5
356
330
34E
100
AcDbEntity
  8
DEFPOINTS
 62
     0
 48
0.5
100
AcDbPoint
 10
-177.1410778921438
 20
41.06281753535938
 30
0.0
  0
POINT
  5
357
330
34E
100
AcDbEntity
  8
DEFPOINTS
 62
     0
 48
0.5
100
AcDbPoint
 10
-116.141079892144
 20
41.06281627872284
 30
0.0
  0
POINT
  5
358
330
34E
100
AcDbEntity
  8
DEFPOINTS
 62
     0
 48
0.5
100
AcDbPoint
 10
-116.141079892144
 20
18.10867953537558
 30
0.0
  0
ENDBLK
  5
359
330
34E
100
AcDbEntity
  8
0
100
AcDbBlockEnd
  0
BLOCK
  5
35B
330
35A
100
AcDbEntity
  8
0
100
AcDbBlockBegin
  2
*D32
 70
     1
 10
0.0
 20
0.0
 30
0.0
  3
*D32
  1

  0
LINE
  5
35C
330
35A
100
AcDbEntity
  8
SCALE
 62
     0
 48
0.5
370
    -2
100
AcDbLine
 10
-172.3339783403794
 20
-51.31653479207209
 30
0.0
 11
-120.9481794439079
 21
-40.55783265048208
 31
0.0
  0
INSERT
  5
35D
330
35A
100
AcDbEntity
  8
SCALE
 62
     0
 48
0.5
370
    -2
100
AcDbBlockReference
  2
_OPEN30
 10
-174.7809211449732
 20
-51.82885394167161
 30
0.0
 41
2.5
 42
2.5
 43
2.5
 50
191.8252643584225
  0
INSERT
  5
35E
330
35A
100
AcDbEntity
  8
SCALE
 62
     0
 48
0.5
370
    -2
100
AcDbBlockReference
  2
_OPEN30
 10
-118.5012366393141
 20
-40.04551350088252
 30
0.0
 41
2.5
 42
2.5
 43
2.5
 50
11.82526435842248
  0
MTEXT
  5
35F
330
35A
100
AcDbEntity
  8
SCALE
 62
     0
 48
0.5
100
AcDbMText
 10
-134.6414680826211
 20
-40.74289377645365
 30
0.0
 40
4.0
 41
0.0
 71
     5
 72
     1
  1
\A1;\U+220557.5
  7
Standard
 11
0.9787771218375407
 21
0.2049276598398076
 31
0.0
 73
     1
 44
1.0
  0
POINT
  5
360
330
35A
100
AcDbEntity
  8
DEFPOINTS
 62
     0
 48
0.5
100
AcDbPoint
 10
-118.5012366393141
 20
-40.04551350088252
 30
0.0
  0
POINT
  5
361
330
35A
100
AcDbEntity
  8
DEFPOINTS
 62
     0
 48
0.5
100
AcDbPoint
 10
-174.7809211449732
 20
-51.82885394167161
 30
0.0
  0
ENDBLK
  5
362
330
35A
100
AcDbEntity
  8
0
100
AcDbBlockEnd
  0
BLOCK
  5
364
330
363
100
AcDbEntity
  8
0
100
AcDbBlockBegin
  2
*D33
 70
     1
 10
0.0
 20
0.0
 30
0.0
  3
*D33
  1

  0
LINE
  5
365
330
363
100
AcDbEntity
  8
SCALE
 62
     0
 48
0.5
370
    -2
100
AcDbLine
 10
-122.0160788921441
 20
-21.93718372127717
 30
0.0
 11
-101.3581850711982
 21
-21.93718372127717
 31
0.0
  0
LINE
  5
366
330
363
100
AcDbEntity
  8
SCALE
 62
     0
 48
0.5
370
    -2
100
AcDbLine
 10
-122.0160788921441
 20
-69.93718372127716
 30
0.0
 11
-101.3581850711982
 21
-69.93718372127716
 31
0.0
  0
LINE
  5
367
330
363
100
AcDbEntity
  8
SCALE
 62
     0
 48
0.5
370
    -2
100
AcDbLine
 10
-102.6081850711982
 20
-24.43718372127718
 30
0.0
 11
-102.6081850711982
 21
-67.43718372127716
 31
0.0
  0
INSERT
  5
368
330
363
100
AcDbEntity
  8
SCALE
 62
     0
 48
0.5
370
    -2
100
AcDbBlockReference
  2
_OPEN30
 10
-102.6081850711982
 20
-21.93718372127717
 30
0.0
 41
2.5
 42
2.5
 43
2.5
 50
90.0
  0
INSERT
  5
369
330
363
100
AcDbEntity
  8
SCALE
 62
     0
 48
0.5
370
    -2
100
AcDbBlockReference
  2
_OPEN30
 10
-102.6081850711982
 20
-69.93718372127716
 30
0.0
 41
2.5
 42
2.5
 43
2.5
 50
270.0
  0
MTEXT
  5
36A
330
363
100
AcDbEntity
  8
SCALE
 62
     0
 48
0.5
100
AcDbMText
 10
-106.2331850711982
 20
-45.93718372127717
 30
0.0
 40
6.0
 41
0.0
 71
     5
 72
     1
  1
\A1;48
  7
Standard
 11
0.0000000000000001
 21
1.0
 31
0.0
 73
     1
 44
1.0
  0
POINT
  5
36B
330
363
100
AcDbEntity
  8
DEFPOINTS
 62
     0
 48
0.5
100
AcDbPoint
 10
-122.6410788921441
 20
-21.93718372127717
 30
0.0
  0
POINT
  5
36C
330
363
100
AcDbEntity
  8
DEFPOINTS
 62
     0
 48
0.5
100
AcDbPoint
 10
-122.6410788921441
 20
-69.93718372127716
 30
0.0
  0
POINT
  5
36D
330
363
100
AcDbEntity
  8
DEFPOINTS
 62
     0
 48
0.5
100
AcDbPoint
 10
-102.6081850711982
 20
-69.93718372127716
 30
0.0
  0
ENDBLK
  5
36E
330
363
100
AcDbEntity
  8
0
100
AcDbBlockEnd
  0
BLOCK
  5
370
330
36F
100
AcDbEntity
  8
0
100
AcDbBlockBegin
  2
*D34
 70
     1
 10
0.0
 20
0.0
 30
0.0
  3
*D34
  1

  0
LINE
  5
371
330
36F
100
AcDbEntity
  8
SCALE
 62
     0
 48
0.5
370
    -2
100
AcDbLine
 10
-122.6410788921441
 20
-70.56218372127716
 30
0.0
 11
-122.6410788921441
 21
-91.21020830375096
 31
0.0
  0
LINE
  5
372
330
36F
100
AcDbEntity
  8
SCALE
 62
     0
 48
0.5
370
    -2
100
AcDbLine
 10
-170.6410788921441
 20
-70.56218372127716
 30
0.0
 11
-170.6410788921441
 21
-91.21020830375096
 31
0.0
  0
LINE
  5
373
330
36F
100
AcDbEntity
  8
SCALE
 62
     0
 48
0.5
370
    -2
100
AcDbLine
 10
-125.1410788921441
 20
-89.96020830375096
 30
0.0
 11
-168.1410788921441
 21
-89.96020830375096
 31
0.0
  0
INSERT
  5
374
330
36F
100
AcDbEntity
  8
SCALE
 62
     0
 48
0.5
370
    -2
100
AcDbBlockReference
  2
_OPEN30
 10
-122.6410788921441
 20
-89.96020830375096
 30
0.0
 41
2.5
 42
2.5
 43
2.5
  0
INSERT
  5
375
330
36F
100
AcDbEntity
  8
SCALE
 62
     0
 48
0.5
370
    -2
100
AcDbBlockReference
  2
_OPEN30
 10
-170.6410788921441
 20
-89.96020830375096
 30
0.0
 41
2.5
 42
2.5
 43
2.5
 50
180.0
  0
MTEXT
  5
376
330
36F
100
AcDbEntity
  8
SCALE
 62
     0
 48
0.5
100
AcDbMText
 10
-146.6410788921441
 20
-86.33520830375095
 30
0.0
 40
6.0
 41
0.0
 71
     5
 72
     1
  1
\A1;48
  7
Standard
 73
     1
 44
1.0
  0
POINT
  5
377
330
36F
100
AcDbEntity
  8
DEFPOINTS
 62
     0
 48
0.5
100
AcDbPoint
 10
-122.6410788921441
 20
-69.93718372127716
 30
0.0
  0
POINT
  5
378
330
36F
100
AcDbEntity
  8
DEFPOINTS
 62
     0
 48
0.5
100
AcDbPoint
 10
-170.6410788921441
 20
-69.93718372127716
 30
0.0
  0
POINT
  5
379
330
36F
100
AcDbEntity
  8
DEFPOINTS
 62
     0
 48
0.5
100
AcDbPoint
 10
-170.6410788921441
 20
-89.96020830375096
 30
0.0
  0
ENDBLK
  5
37A
330
36F
100
AcDbEntity
  8
0
100
AcDbBlockEnd
  0
BLOCK
  5
5B7
330
506
100
AcDbEntity
  8
0
100
AcDbBlockBegin
  2
*D35
 70
     1
 10
0.0
 20
0.0
 30
0.0
  3
*D35
  1

  0
LINE
  5
639
330
506
100
AcDbEntity
  8
SCALE
 62
     0
 48
0.5
370
    -2
100
AcDbLine
 10
-187.8435619800784
 20
50.49328236341989
 30
0.0
 11
-204.3620038351878
 21
50.49328236341989
 31
0.0
  0
LINE
  5
63A
330
506
100
AcDbEntity
  8
SCALE
 62
     0
 48
0.5
370
    -2
100
AcDbLine
 10
-168.3435769800785
 20
39.49330536341995
 30
0.0
 11
-204.3620038351878
 21
39.49330536341996
 31
0.0
  0
LINE
  5
63B
330
506
100
AcDbEntity
  8
SCALE
 62
     0
 48
0.5
370
    -2
100
AcDbLine
 10
-203.1120038351879
 20
47.99328236341989
 30
0.0
 11
-203.1120038351879
 21
41.99330536341995
 31
0.0
  0
INSERT
  5
63C
330
506
100
AcDbEntity
  8
SCALE
 62
     0
 48
0.5
370
    -2
100
AcDbBlockReference
  2
_OPEN30
 10
-203.1120038351879
 20
50.49328236341989
 30
0.0
 41
2.5
 42
2.5
 43
2.5
 50
90.0
  0
INSERT
  5
63D
330
506
100
AcDbEntity
  8
SCALE
 62
     0
 48
0.5
370
    -2
100
AcDbBlockReference
  2
_OPEN30
 10
-203.1120038351879
 20
39.49330536341996
 30
0.0
 41
2.5
 42
2.5
 43
2.5
 50
270.0
  0
MTEXT
  5
63E
330
506
100
AcDbEntity
  8
SCALE
 62
     0
 48
0.5
100
AcDbMText
 10
-206.2370038351879
 20
44.99329386341989
 30
0.0
 40
5.0
 41
0.0
 71
     5
 72
     1
  1
\A1;11
  7
Standard
 11
0.0000000000000001
 21
1.0
 31
0.0
 73
     1
 44
1.0
  0
POINT
  5
63F
330
506
100
AcDbEntity
  8
DEFPOINTS
 62
     0
 48
0.5
100
AcDbPoint
 10
-187.2185619800784
 20
50.49328236341989
 30
0.0
  0
POINT
  5
640
330
506
100
AcDbEntity
  8
DEFPOINTS
 62
     0
 48
0.5
100
AcDbPoint
 10
-167.7185769800785
 20
39.49330536341995
 30
0.0
  0
POINT
  5
641
330
506
100
AcDbEntity
  8
DEFPOINTS
 62
     0
 48
0.5
100
AcDbPoint
 10
-203.1120038351879
 20
39.49330536341996
 30
0.0
  0
ENDBLK
  5
5B8
330
506
100
AcDbEntity
  8
0
100
AcDbBlockEnd
  0
BLOCK
  5
5B9
330
510
100
AcDbEntity
  8
0
100
AcDbBlockBegin
  2
*D36
 70
     1
 10
0.0
 20
0.0
 30
0.0
  3
*D36
  1

  0
LINE
  5
642
330
510
100
AcDbEntity
  8
SCALE
 62
     0
 48
0.5
370
    -2
100
AcDbLine
 10
-203.7370038351878
 20
39.49330536341995
 30
0.0
 11
-204.3620038351878
 21
39.49330536341995
 31
0.0
  0
LINE
  5
643
330
510
100
AcDbEntity
  8
SCALE
 62
     0
 48
0.5
370
    -2
100
AcDbLine
 10
-195.8435769800785
 20
29.49328936341999
 30
0.0
 11
-204.3620038351878
 21
29.49328936341999
 31
0.0
  0
LINE
  5
644
330
510
100
AcDbEntity
  8
SCALE
 62
     0
 48
0.5
370
    -2
100
AcDbLine
 10
-203.1120038351879
 20
36.99330536341995
 30
0.0
 11
-203.1120038351879
 21
31.99328936341999
 31
0.0
  0
INSERT
  5
645
330
510
100
AcDbEntity
  8
SCALE
 62
     0
 48
0.5
370
    -2
100
AcDbBlockReference
  2
_OPEN30
 10
-203.1120038351879
 20
39.49330536341995
 30
0.0
 41
2.5
 42
2.5
 43
2.5
 50
90.0
  0
INSERT
  5
646
330
510
100
AcDbEntity
  8
SCALE
 62
     0
 48
0.5
370
    -2
100
AcDbBlockReference
  2
_OPEN30
 10
-203.1120038351879
 20
29.49328936341999
 30
0.0
 41
2.5
 42
2.5
 43
2.5
 50
270.0
  0
MTEXT
  5
647
330
510
100
AcDbEntity
  8
SCALE
 62
     0
 48
0.5
100
AcDbMText
 10
-206.2370038351879
 20
34.49329736341994
 30
0.0
 40
5.0
 41
0.0
 71
     5
 72
     1
  1
\A1;10
  7
Standard
 11
0.0000000000000001
 21
1.0
 31
0.0
 73
     1
 44
1.0
  0
POINT
  5
648
330
510
100
AcDbEntity
  8
DEFPOINTS
 62
     0
 48
0.5
100
AcDbPoint
 10
-203.1120038351879
 20
39.49330536341995
 30
0.0
  0
POINT
  5
649
330
510
100
AcDbEntity
  8
DEFPOINTS
 62
     0
 48
0.5
100
AcDbPoint
 10
-195.2185769800785
 20
29.49328936341999
 30
0.0
  0
POINT
  5
64A
330
510
100
AcDbEntity
  8
DEFPOINTS
 62
     0
 48
0.5
100
AcDbPoint
 10
-203.1120038351879
 20
29.49328936341999
 30
0.0
  0
ENDBLK
  5
5BA
330
510
100
AcDbEntity
  8
0
100
AcDbBlockEnd
  0
BLOCK
  5
5BB
330
51A
100
AcDbEntity
  8
0
100
AcDbBlockBegin
  2
*D37
 70
     1
 10
0.0
 20
0.0
 30
0.0
  3
*D37
  1

  0
LINE
  5
67E
330
51A
100
AcDbEntity
  8
SCALE
 62
     0
 48
0.5
370
    -2
100
AcDbLine
 10
-192.4114764283144
 20
-60.88606170737526
 30
0.0
 11
-141.0256775318431
 21
-50.12735956578481
 31
0.0
  0
INSERT
  5
67F
330
51A
100
AcDbEntity
  8
SCALE
 62
     0
 48
0.5
370
    -2
100
AcDbBlockReference
  2
_OPEN30
 10
-194.8584192329082
 20
-61.39838085697479
 30
0.0
 41
2.5
 42
2.5
 43
2.5
 50
191.825264358423
  0
INSERT
  5
680
330
51A
100
AcDbEntity
  8
SCALE
 62
     0
 48
0.5
370
    -2
100
AcDbBlockReference
  2
_OPEN30
 10
-138.5787347272492
 20
-49.61504041618532
 30
0.0
 41
2.5
 42
2.5
 43
2.5
 50
11.82526435842299
  0
MTEXT
  5
681
330
51A
100
AcDbEntity
  8
SCALE
 62
     0
 48
0.5
100
AcDbMText
 10
-154.7189661705562
 20
-50.31242069175657
 30
0.0
 40
4.0
 41
0.0
 71
     5
 72
     1
  1
\A1;\U+220557.5
  7
Standard
 11
0.9787771218375389
 21
0.2049276598398164
 31
0.0
 73
     1
 44
1.0
  0
POINT
  5
682
330
51A
100
AcDbEntity
  8
DEFPOINTS
 62
     0
 48
0.5
100
AcDbPoint
 10
-138.5787347272492
 20
-49.61504041618532
 30
0.0
  0
POINT
  5
683
330
51A
100
AcDbEntity
  8
DEFPOINTS
 62
     0
 48
0.5
100
AcDbPoint
 10
-194.8584192329082
 20
-61.39838085697479
 30
0.0
  0
ENDBLK
  5
5BC
330
51A
100
AcDbEntity
  8
0
100
AcDbBlockEnd
  0
BLOCK
  5
5BD
330
521
100
AcDbEntity
  8
0
100
AcDbBlockBegin
  2
*D38
 70
     1
 10
0.0
 20
0.0
 30
0.0
  3
*D38
  1

  0
LINE
  5
66C
330
521
100
AcDbEntity
  8
SCALE
 62
     0
 48
0.5
370
    -2
100
AcDbLine
 10
-142.0935769800785
 20
-31.50671063658001
 30
0.0
 11
-121.4356831591326
 21
-31.50671063658001
 31
0.0
  0
LINE
  5
66D
330
521
100
AcDbEntity
  8
SCALE
 62
     0
 48
0.5
370
    -2
100
AcDbLine
 10
-142.0935769800785
 20
-79.50671063658003
 30
0.0
 11
-121.4356831591326
 21
-79.50671063658003
 31
0.0
  0
LINE
  5
66E
330
521
100
AcDbEntity
  8
SCALE
 62
     0
 48
0.5
370
    -2
100
AcDbLine
 10
-122.6856831591326
 20
-34.00671063658001
 30
0.0
 11
-122.6856831591326
 21
-77.00671063658003
 31
0.0
  0
INSERT
  5
66F
330
521
100
AcDbEntity
  8
SCALE
 62
     0
 48
0.5
370
    -2
100
AcDbBlockReference
  2
_OPEN30
 10
-122.6856831591326
 20
-31.50671063658001
 30
0.0
 41
2.5
 42
2.5
 43
2.5
 50
90.0
  0
INSERT
  5
670
330
521
100
AcDbEntity
  8
SCALE
 62
     0
 48
0.5
370
    -2
100
AcDbBlockReference
  2
_OPEN30
 10
-122.6856831591326
 20
-79.50671063658003
 30
0.0
 41
2.5
 42
2.5
 43
2.5
 50
270.0
  0
MTEXT
  5
671
330
521
100
AcDbEntity
  8
SCALE
 62
     0
 48
0.5
100
AcDbMText
 10
-126.3106831591326
 20
-55.50671063658003
 30
0.0
 40
6.0
 41
0.0
 71
     5
 72
     1
  1
\A1;48
  7
Standard
 11
0.0000000000000001
 21
1.0
 31
0.0
 73
     1
 44
1.0
  0
POINT
  5
672
330
521
100
AcDbEntity
  8
DEFPOINTS
 62
     0
 48
0.5
100
AcDbPoint
 10
-142.7185769800785
 20
-31.50671063658001
 30
0.0
  0
POINT
  5
673
330
521
100
AcDbEntity
  8
DEFPOINTS
 62
     0
 48
0.5
100
AcDbPoint
 10
-142.7185769800785
 20
-79.50671063658003
 30
0.0
  0
POINT
  5
674
330
521
100
AcDbEntity
  8
DEFPOINTS
 62
     0
 48
0.5
100
AcDbPoint
 10
-122.6856831591326
 20
-79.50671063658003
 30
0.0
  0
ENDBLK
  5
5BE
330
521
100
AcDbEntity
  8
0
100
AcDbBlockEnd
  0
BLOCK
  5
5BF
330
52B
100
AcDbEntity
  8
0
100
AcDbBlockBegin
  2
*D39
 70
     1
 10
0.0
 20
0.0
 30
0.0
  3
*D39
  1

  0
LINE
  5
675
330
52B
100
AcDbEntity
  8
SCALE
 62
     0
 48
0.5
370
    -2
100
AcDbLine
 10
-142.7185769800785
 20
-80.13171063658003
 30
0.0
 11
-142.7185769800785
 21
-100.7797352190538
 31
0.0
  0
LINE
  5
676
330
52B
100
AcDbEntity
  8
SCALE
 62
     0
 48
0.5
370
    -2
100
AcDbLine
 10
-190.7185769800785
 20
-80.13171063658003
 30
0.0
 11
-190.7185769800785
 21
-100.7797352190538
 31
0.0
  0
LINE
  5
677
330
52B
100
AcDbEntity
  8
SCALE
 62
     0
 48
0.5
370
    -2
100
AcDbLine
 10
-145.2185769800785
 20
-99.52973521905381
 30
0.0
 11
-188.2185769800785
 21
-99.52973521905381
 31
0.0
  0
INSERT
  5
678
330
52B
100
AcDbEntity
  8
SCALE
 62
     0
 48
0.5
370
    -2
100
AcDbBlockReference
  2
_OPEN30
 10
-142.7185769800785
 20
-99.52973521905381
 30
0.0
 41
2.5
 42
2.5
 43
2.5
  0
INSERT
  5
679
330
52B
100
AcDbEntity
  8
SCALE
 62
     0
 48
0.5
370
    -2
100
AcDbBlockReference
  2
_OPEN30
 10
-190.7185769800785
 20
-99.52973521905381
 30
0.0
 41
2.5
 42
2.5
 43
2.5
 50
180.0
  0
MTEXT
  5
67A
330
52B
100
AcDbEntity
  8
SCALE
 62
     0
 48
0.5
100
AcDbMText
 10
-166.7185769800785
 20
-95.9047352190538
 30
0.0
 40
6.0
 41
0.0
 71
     5
 72
     1
  1
\A1;48
  7
Standard
 73
     1
 44
1.0
  0
POINT
  5
67B
330
52B
100
AcDbEntity
  8
DEFPOINTS
 62
     0
 48
0.5
100
AcDbPoint
 10
-142.7185769800785
 20
-79.50671063658003
 30
0.0
  0
POINT
  5
67C
330
52B
100
AcDbEntity
  8
DEFPOINTS
 62
     0
 48
0.5
100
AcDbPoint
 10
-190.7185769800785
 20
-79.50671063658003
 30
0.0
  0
POINT
  5
67D
330
52B
100
AcDbEntity
  8
DEFPOINTS
 62
     0
 48
0.5
100
AcDbPoint
 10
-190.7185769800785
 20
-99.52973521905381
 30
0.0
  0
ENDBLK
  5
5C0
330
52B
100
AcDbEntity
  8
0
100
AcDbBlockEnd
  0
BLOCK
  5
5C1
330
535
100
AcDbEntity
  8
0
100
AcDbBlockBegin
  2
*D40
 70
     1
 10
0.0
 20
0.0
 30
0.0
  3
*D40
  1

  0
LINE
  5
5EF
330
535
100
AcDbEntity
  8
SCALE
 62
     0
 48
0.5
370
    -2
100
AcDbLine
 10
147.9062850199215
 20
83.99324436341997
 30
0.0
 11
172.0198247014826
 21
83.99324436341997
 31
0.0
  0
LINE
  5
5F0
330
535
100
AcDbEntity
  8
SCALE
 62
     0
 48
0.5
370
    -2
100
AcDbLine
 10
147.9062850199215
 20
35.99328936341999
 30
0.0
 11
172.0198247014826
 21
35.99328936341999
 31
0.0
  0
LINE
  5
5F1
330
535
100
AcDbEntity
  8
SCALE
 62
     0
 48
0.5
370
    -2
100
AcDbLine
 10
170.7698247014826
 20
81.49324436341997
 30
0.0
 11
170.7698247014826
 21
38.49328936341999
 31
0.0
  0
INSERT
  5
5F2
330
535
100
AcDbEntity
  8
SCALE
 62
     0
 48
0.5
370
    -2
100
AcDbBlockReference
  2
_OPEN30
 10
170.7698247014826
 20
83.99324436341997
 30
0.0
 41
2.5
 42
2.5
 43
2.5
 50
90.0
  0
INSERT
  5
5F3
330
535
100
AcDbEntity
  8
SCALE
 62
     0
 48
0.5
370
    -2
100
AcDbBlockReference
  2
_OPEN30
 10
170.7698247014826
 20
35.99328936341999
 30
0.0
 41
2.5
 42
2.5
 43
2.5
 50
270.0
  0
MTEXT
  5
5F4
330
535
100
AcDbEntity
  8
SCALE
 62
     0
 48
0.5
100
AcDbMText
 10
167.1448247014826
 20
59.99326686342001
 30
0.0
 40
6.0
 41
0.0
 71
     5
 72
     1
  1
\A1;48
  7
Standard
 11
0.0000000000000001
 21
1.0
 31
0.0
 73
     1
 44
1.0
  0
POINT
  5
5F5
330
535
100
AcDbEntity
  8
DEFPOINTS
 62
     0
 48
0.5
100
AcDbPoint
 10
147.2812850199215
 20
83.99324436341997
 30
0.0
  0
POINT
  5
5F6
330
535
100
AcDbEntity
  8
DEFPOINTS
 62
     0
 48
0.5
100
AcDbPoint
 10
147.2812850199215
 20
35.99328936341999
 30
0.0
  0
POINT
  5
5F7
330
535
100
AcDbEntity
  8
DEFPOINTS
 62
     0
 48
0.5
100
AcDbPoint
 10
170.7698247014826
 20
35.99328936341999
 30
0.0
  0
ENDBLK
  5
5C2
330
535
100
AcDbEntity
  8
0
100
AcDbBlockEnd
  0
BLOCK
  5
5C3
330
53F
100
AcDbEntity
  8
0
100
AcDbBlockBegin
  2
*D41
 70
     1
 10
0.0
 20
0.0
 30
0.0
  3
*D41
  1

  0
LINE
  5
5F8
330
53F
100
AcDbEntity
  8
SCALE
 62
     0
 48
0.5
370
    -2
100
AcDbLine
 10
147.2812850199215
 20
35.36828936341999
 30
0.0
 11
147.2812850199215
 21
13.87765778342862
 31
0.0
  0
LINE
  5
5F9
330
53F
100
AcDbEntity
  8
SCALE
 62
     0
 48
0.5
370
    -2
100
AcDbLine
 10
99.28130001992158
 20
35.36828936341999
 30
0.0
 11
99.28130001992158
 21
13.87765778342862
 31
0.0
  0
LINE
  5
5FA
330
53F
100
AcDbEntity
  8
SCALE
 62
     0
 48
0.5
370
    -2
100
AcDbLine
 10
144.7812850199215
 20
15.12765778342862
 30
0.0
 11
101.7813000199215
 21
15.12765778342862
 31
0.0
  0
INSERT
  5
5FB
330
53F
100
AcDbEntity
  8
SCALE
 62
     0
 48
0.5
370
    -2
100
AcDbBlockReference
  2
_OPEN30
 10
147.2812850199215
 20
15.12765778342862
 30
0.0
 41
2.5
 42
2.5
 43
2.5
  0
INSERT
  5
5FC
330
53F
100
AcDbEntity
  8
SCALE
 62
     0
 48
0.5
370
    -2
100
AcDbBlockReference
  2
_OPEN30
 10
99.28130001992158
 20
15.12765778342862
 30
0.0
 41
2.5
 42
2.5
 43
2.5
 50
180.0
  0
MTEXT
  5
5FD
330
53F
100
AcDbEntity
  8
SCALE
 62
     0
 48
0.5
100
AcDbMText
 10
123.2812925199215
 20
18.75265778342862
 30
0.0
 40
6.0
 41
0.0
 71
     5
 72
     1
  1
\A1;48
  7
Standard
 73
     1
 44
1.0
  0
POINT
  5
5FE
330
53F
100
AcDbEntity
  8
DEFPOINTS
 62
     0
 48
0.5
100
AcDbPoint
 10
147.2812850199215
 20
35.99328936341999
 30
0.0
  0
POINT
  5
5FF
330
53F
100
AcDbEntity
  8
DEFPOINTS
 62
     0
 48
0.5
100
AcDbPoint
 10
99.28130001992158
 20
35.99328936341999
 30
0.0
  0
POINT
  5
600
330
53F
100
AcDbEntity
  8
DEFPOINTS
 62
     0
 48
0.5
100
AcDbPoint
 10
99.28130001992158
 20
15.12765778342862
 30
0.0
  0
ENDBLK
  5
5C4
330
53F
100
AcDbEntity
  8
0
100
AcDbBlockEnd
  0
BLOCK
  5
5C5
330
549
100
AcDbEntity
  8
0
100
AcDbBlockBegin
  2
*D42
 70
     1
 10
0.0
 20
0.0
 30
0.0
  3
*D42
  1

  0
LINE
  5
684
330
549
100
AcDbEntity
  8
SCALE
 62
     0
 48
0.5
370
    -2
100
AcDbLine
 10
-86.71860698007822
 20
47.63384762005654
 30
0.0
 11
-86.71860698007822
 21
12.48318945605564
 31
0.0
  0
LINE
  5
685
330
549
100
AcDbEntity
  8
SCALE
 62
     0
 48
0.5
370
    -2
100
AcDbLine
 10
-78.71859298007257
 20
30.78868785407844
 30
0.0
 11
-78.71859298007257
 21
12.48318945605564
 31
0.0
  0
LINE
  5
686
330
549
100
AcDbEntity
  8
SCALE
 62
     0
 48
0.5
370
    -2
100
AcDbLine
 10
-84.21860698007822
 20
13.73318945605564
 30
0.0
 11
-81.21859298007256
 21
13.73318945605564
 31
0.0
  0
INSERT
  5
687
330
549
100
AcDbEntity
  8
SCALE
 62
     0
 48
0.5
370
    -2
100
AcDbBlockReference
  2
_OPEN30
 10
-86.71860698007822
 20
13.73318945605564
 30
0.0
 41
2.5
 42
2.5
 43
2.5
 50
180.0
  0
INSERT
  5
688
330
549
100
AcDbEntity
  8
SCALE
 62
     0
 48
0.5
370
    -2
100
AcDbBlockReference
  2
_OPEN30
 10
-78.71859298007257
 20
13.73318945605564
 30
0.0
 41
2.5
 42
2.5
 43
2.5
  0
MTEXT
  5
689
330
549
100
AcDbEntity
  8
SCALE
 62
     0
 48
0.5
100
AcDbMText
 10
-82.7185999800754
 20
17.35818945605564
 30
0.0
 40
6.0
 41
0.0
 71
     5
 72
     1
  1
\A1;8
  7
Standard
 73
     1
 44
1.0
  0
POINT
  5
68A
330
549
100
AcDbEntity
  8
DEFPOINTS
 62
     0
 48
0.5
100
AcDbPoint
 10
-86.71860698007822
 20
48.25884762005654
 30
0.0
  0
POINT
  5
68B
330
549
100
AcDbEntity
  8
DEFPOINTS
 62
     0
 48
0.5
100
AcDbPoint
 10
-78.71859298007257
 20
31.41368785407844
 30
0.0
  0
POINT
  5
68C
330
549
100
AcDbEntity
  8
DEFPOINTS
 62
     0
 48
0.5
100
AcDbPoint
 10
-78.71859298007257
 20
13.73318945605564
 30
0.0
  0
ENDBLK
  5
5C6
330
549
100
AcDbEntity
  8
0
100
AcDbBlockEnd
  0
BLOCK
  5
5C7
330
553
100
AcDbEntity
  8
0
100
AcDbBlockBegin
  2
*D43
 70
     1
 10
0.0
 20
0.0
 30
0.0
  3
*D43
  1

  0
LINE
  5
60A
330
553
100
AcDbEntity
  8
SCALE
 62
     0
 48
0.5
370
    -2
100
AcDbLine
 10
-78.71859298007263
 20
14.35818945605558
 30
0.0
 11
-78.71859298007263
 21
14.98318945605558
 31
0.0
  0
LINE
  5
60B
330
553
100
AcDbEntity
  8
SCALE
 62
     0
 48
0.5
370
    -2
100
AcDbLine
 10
-66.71858698007878
 20
28.86852336341986
 30
0.0
 11
-66.71858698007878
 21
12.48318945605558
 31
0.0
  0
LINE
  5
60C
330
553
100
AcDbEntity
  8
SCALE
 62
     0
 48
0.5
370
    -2
100
AcDbLine
 10
-76.21859298007263
 20
13.73318945605558
 30
0.0
 11
-69.21858698007878
 21
13.73318945605558
 31
0.0
  0
INSERT
  5
60D
330
553
100
AcDbEntity
  8
SCALE
 62
     0
 48
0.5
370
    -2
100
AcDbBlockReference
  2
_OPEN30
 10
-78.71859298007263
 20
13.73318945605558
 30
0.0
 41
2.5
 42
2.5
 43
2.5
 50
180.0
  0
INSERT
  5
60E
330
553
100
AcDbEntity
  8
SCALE
 62
     0
 48
0.5
370
    -2
100
AcDbBlockReference
  2
_OPEN30
 10
-66.71858698007878
 20
13.73318945605558
 30
0.0
 41
2.5
 42
2.5
 43
2.5
  0
MTEXT
  5
60F
330
553
100
AcDbEntity
  8
SCALE
 62
     0
 48
0.5
100
AcDbMText
 10
-72.7185899800757
 20
17.35818945605558
 30
0.0
 40
6.0
 41
0.0
 71
     5
 72
     1
  1
\A1;12
  7
Standard
 73
     1
 44
1.0
  0
POINT
  5
610
330
553
100
AcDbEntity
  8
DEFPOINTS
 62
     0
 48
0.5
100
AcDbPoint
 10
-78.71859298007263
 20
13.73318945605558
 30
0.0
  0
POINT
  5
611
330
553
100
AcDbEntity
  8
DEFPOINTS
 62
     0
 48
0.5
100
AcDbPoint
 10
-66.71858698007878
 20
29.49352336341986
 30
0.0
  0
POINT
  5
612
330
553
100
AcDbEntity
  8
DEFPOINTS
 62
     0
 48
0.5
100
AcDbPoint
 10
-66.71858698007878
 20
13.73318945605558
 30
0.0
  0
ENDBLK
  5
5C8
330
553
100
AcDbEntity
  8
0
100
AcDbBlockEnd
  0
BLOCK
  5
5C9
330
55D
100
AcDbEntity
  8
0
100
AcDbBlockBegin
  2
*D44
 70
     1
 10
0.0
 20
0.0
 30
0.0
  3
*D44
  1

  0
LINE
  5
613
330
55D
100
AcDbEntity
  8
SCALE
 62
     0
 48
0.5
370
    -2
100
AcDbLine
 10
-66.71858698007878
 20
14.35818945605558
 30
0.0
 11
-66.71858698007878
 21
14.98318945605558
 31
0.0
  0
LINE
  5
614
330
55D
100
AcDbEntity
  8
SCALE
 62
     0
 48
0.5
370
    -2
100
AcDbLine
 10
22.78087301992122
 20
34.86851836341998
 30
0.0
 11
22.78087301992122
 21
12.48318945605558
 31
0.0
  0
LINE
  5
615
330
55D
100
AcDbEntity
  8
SCALE
 62
     0
 48
0.5
370
    -2
100
AcDbLine
 10
-64.21858698007878
 20
13.73318945605558
 30
0.0
 11
20.28087301992122
 21
13.73318945605558
 31
0.0
  0
INSERT
  5
616
330
55D
100
AcDbEntity
  8
SCALE
 62
     0
 48
0.5
370
    -2
100
AcDbBlockReference
  2
_OPEN30
 10
-66.71858698007878
 20
13.73318945605558
 30
0.0
 41
2.5
 42
2.5
 43
2.5
 50
180.0
  0
INSERT
  5
617
330
55D
100
AcDbEntity
  8
SCALE
 62
     0
 48
0.5
370
    -2
100
AcDbBlockReference
  2
_OPEN30
 10
22.78087301992122
 20
13.73318945605558
 30
0.0
 41
2.5
 42
2.5
 43
2.5
  0
MTEXT
  5
618
330
55D
100
AcDbEntity
  8
SCALE
 62
     0
 48
0.5
100
AcDbMText
 10
-21.96885698007879
 20
17.35818945605558
 30
0.0
 40
6.0
 41
0.0
 71
     5
 72
     1
  1
\A1;89.5
  7
Standard
 73
     1
 44
1.0
  0
POINT
  5
619
330
55D
100
AcDbEntity
  8
DEFPOINTS
 62
     0
 48
0.5
100
AcDbPoint
 10
-66.71858698007878
 20
13.73318945605558
 30
0.0
  0
POINT
  5
61A
330
55D
100
AcDbEntity
  8
DEFPOINTS
 62
     0
 48
0.5
100
AcDbPoint
 10
22.78087301992122
 20
35.49351836341998
 30
0.0
  0
POINT
  5
61B
330
55D
100
AcDbEntity
  8
DEFPOINTS
 62
     0
 48
0.5
100
AcDbPoint
 10
22.78087301992122
 20
13.73318945605558
 30
0.0
  0
ENDBLK
  5
5CA
330
55D
100
AcDbEntity
  8
0
100
AcDbBlockEnd
  0
BLOCK
  5
5CB
330
567
100
AcDbEntity
  8
0
100
AcDbBlockBegin
  2
*D45
 70
     1
 10
0.0
 20
0.0
 30
0.0
  3
*D45
  1

  0
LINE
  5
61C
330
567
100
AcDbEntity
  8
SCALE
 62
     0
 48
0.5
370
    -2
100
AcDbLine
 10
22.78087301992122
 20
14.35818945605558
 30
0.0
 11
22.78087301992122
 21
14.98318945605558
 31
0.0
  0
LINE
  5
61D
330
567
100
AcDbEntity
  8
SCALE
 62
     0
 48
0.5
370
    -2
100
AcDbLine
 10
28.48187301992123
 20
61.61851836341987
 30
0.0
 11
28.48187301992123
 21
12.48318945605558
 31
0.0
  0
LINE
  5
61E
330
567
100
AcDbEntity
  8
SCALE
 62
     0
 48
0.5
370
    -2
100
AcDbLine
 10
20.28087301992122
 20
13.73318945605558
 30
0.0
 11
17.78087301992121
 21
13.73318945605558
 31
0.0
  0
LINE
  5
61F
330
567
100
AcDbEntity
  8
SCALE
 62
     0
 48
0.5
370
    -2
100
AcDbLine
 10
30.98187301992123
 20
13.73318945605558
 30
0.0
 11
46.73187301992125
 21
13.73318945605558
 31
0.0
  0
LINE
  5
620
330
567
100
AcDbEntity
  8
SCALE
 62
     0
 48
0.5
370
    -2
100
AcDbLine
 10
22.78087301992122
 20
13.73318945605558
 30
0.0
 11
28.48187301992123
 21
13.73318945605558
 31
0.0
  0
INSERT
  5
621
330
567
100
AcDbEntity
  8
SCALE
 62
     0
 48
0.5
370
    -2
100
AcDbBlockReference
  2
_OPEN30
 10
22.78087301992122
 20
13.73318945605558
 30
0.0
 41
2.5
 42
2.5
 43
2.5
  0
INSERT
  5
622
330
567
100
AcDbEntity
  8
SCALE
 62
     0
 48
0.5
370
    -2
100
AcDbBlockReference
  2
_OPEN30
 10
28.48187301992123
 20
13.73318945605558
 30
0.0
 41
2.5
 42
2.5
 43
2.5
 50
180.0
  0
MTEXT
  5
623
330
567
100
AcDbEntity
  8
SCALE
 62
     0
 48
0.5
100
AcDbMText
 10
40.10687301992122
 20
17.35818945605558
 30
0.0
 40
6.0
 41
0.0
 71
     5
 72
     1
  1
\A1;5.7
  7
Standard
 73
     1
 44
1.0
  0
POINT
  5
624
330
567
100
AcDbEntity
  8
DEFPOINTS
 62
     0
 48
0.5
100
AcDbPoint
 10
22.78087301992122
 20
13.73318945605558
 30
0.0
  0
POINT
  5
625
330
567
100
AcDbEntity
  8
DEFPOINTS
 62
     0
 48
0.5
100
AcDbPoint
 10
28.48187301992123
 20
62.24351836341987
 30
0.0
  0
POINT
  5
626
330
567
100
AcDbEntity
  8
DEFPOINTS
 62
     0
 48
0.5
100
AcDbPoint
 10
28.48187301992123
 20
13.73318945605558
 30
0.0
  0
ENDBLK
  5
5CC
330
567
100
AcDbEntity
  8
0
100
AcDbBlockEnd
  0
BLOCK
  5
5CD
330
573
100
AcDbEntity
  8
0
100
AcDbBlockBegin
  2
*D46
 70
     1
 10
0.0
 20
0.0
 30
0.0
  3
*D46
  1

  0
LINE
  5
627
330
573
100
AcDbEntity
  8
SCALE
 62
     0
 48
0.5
370
    -2
100
AcDbLine
 10
17.15587301992167
 20
87.99324436341999
 30
0.0
 11
-1.820462588350481
 21
87.99324436341999
 31
0.0
  0
LINE
  5
628
330
573
100
AcDbEntity
  8
SCALE
 62
     0
 48
0.5
370
    -2
100
AcDbLine
 10
17.15587301992167
 20
31.99351836341998
 30
0.0
 11
-1.820462588350494
 21
31.99351836341998
 31
0.0
  0
LINE
  5
629
330
573
100
AcDbEntity
  8
SCALE
 62
     0
 48
0.5
370
    -2
100
AcDbLine
 10
-0.5704625883504827
 20
85.49324436341997
 30
0.0
 11
-0.5704625883504942
 21
34.49351836341998
 31
0.0
  0
INSERT
  5
62A
330
573
100
AcDbEntity
  8
SCALE
 62
     0
 48
0.5
370
    -2
100
AcDbBlockReference
  2
_OPEN30
 10
-0.5704625883504823
 20
87.99324436341999
 30
0.0
 41
2.5
 42
2.5
 43
2.5
 50
90.0
  0
INSERT
  5
62B
330
573
100
AcDbEntity
  8
SCALE
 62
     0
 48
0.5
370
    -2
100
AcDbBlockReference
  2
_OPEN30
 10
-0.5704625883504946
 20
31.99351836341998
 30
0.0
 41
2.5
 42
2.5
 43
2.5
 50
270.0
  0
MTEXT
  5
62C
330
573
100
AcDbEntity
  8
SCALE
 62
     0
 48
0.5
100
AcDbMText
 10
-4.195462588350498
 20
59.99338136341997
 30
0.0
 40
6.0
 41
0.0
 71
     5
 72
     1
  1
\A1;Φ56
  7
Standard
 11
0.0000000000000001
 21
1.0
 31
0.0
 73
     1
 44
1.0
  0
POINT
  5
62D
330
573
100
AcDbEntity
  8
DEFPOINTS
 62
     0
 48
0.5
100
AcDbPoint
 10
17.78087301992167
 20
87.99324436341999
 30
0.0
  0
POINT
  5
62E
330
573
100
AcDbEntity
  8
DEFPOINTS
 62
     0
 48
0.5
100
AcDbPoint
 10
17.78087301992167
 20
31.99351836341998
 30
0.0
  0
POINT
  5
62F
330
573
100
AcDbEntity
  8
DEFPOINTS
 62
     0
 48
0.5
100
AcDbPoint
 10
-0.5704625883504946
 20
31.99351836341998
 30
0.0
  0
ENDBLK
  5
5CE
330
573
100
AcDbEntity
  8
0
100
AcDbBlockEnd
  0
BLOCK
  5
5CF
330
57D
100
AcDbEntity
  8
0
100
AcDbBlockBegin
  2
*D47
 70
     1
 10
0.0
 20
0.0
 30
0.0
  3
*D47
  1

  0
LINE
  5
630
330
57D
100
AcDbEntity
  8
SCALE
 62
     0
 48
0.5
370
    -2
100
AcDbLine
 10
-53.71859298007853
 20
86.11824436341999
 30
0.0
 11
-53.71859298007853
 21
97.56243459907627
 31
0.0
  0
LINE
  5
631
330
57D
100
AcDbEntity
  8
SCALE
 62
     0
 48
0.5
370
    -2
100
AcDbLine
 10
-66.71851798007861
 20
91.11839636341983
 30
0.0
 11
-66.71851798007861
 21
97.56243459907627
 31
0.0
  0
LINE
  5
632
330
57D
100
AcDbEntity
  8
SCALE
 62
     0
 48
0.5
370
    -2
100
AcDbLine
 10
-56.21859298007853
 20
96.31243459907627
 30
0.0
 11
-64.21851798007861
 21
96.31243459907627
 31
0.0
  0
INSERT
  5
633
330
57D
100
AcDbEntity
  8
SCALE
 62
     0
 48
0.5
370
    -2
100
AcDbBlockReference
  2
_OPEN30
 10
-53.71859298007853
 20
96.31243459907627
 30
0.0
 41
2.5
 42
2.5
 43
2.5
  0
INSERT
  5
634
330
57D
100
AcDbEntity
  8
SCALE
 62
     0
 48
0.5
370
    -2
100
AcDbBlockReference
  2
_OPEN30
 10
-66.71851798007861
 20
96.31243459907627
 30
0.0
 41
2.5
 42
2.5
 43
2.5
 50
180.0
  0
MTEXT
  5
635
330
57D
100
AcDbEntity
  8
SCALE
 62
     0
 48
0.5
100
AcDbMText
 10
-60.21855548007859
 20
99.93743459907626
 30
0.0
 40
6.0
 41
0.0
 71
     5
 72
     1
  1
\A1;13
  7
Standard
 73
     1
 44
1.0
  0
POINT
  5
636
330
57D
100
AcDbEntity
  8
DEFPOINTS
 62
     0
 48
0.5
100
AcDbPoint
 10
-53.71859298007853
 20
85.49324436341997
 30
0.0
  0
POINT
  5
637
330
57D
100
AcDbEntity
  8
DEFPOINTS
 62
     0
 48
0.5
100
AcDbPoint
 10
-66.71851798007861
 20
90.49339636341983
 30
0.0
  0
POINT
  5
638
330
57D
100
AcDbEntity
  8
DEFPOINTS
 62
     0
 48
0.5
100
AcDbPoint
 10
-66.71851798007861
 20
96.31243459907627
 30
0.0
  0
ENDBLK
  5
5D0
330
57D
100
AcDbEntity
  8
0
100
AcDbBlockEnd
  0
BLOCK
  5
5D1
330
599
100
AcDbEntity
  8
0
100
AcDbBlockBegin
  2
*D48
 70
     1
 10
0.0
 20
0.0
 30
0.0
  3
*D48
  1

  0
LINE
  5
64B
330
599
100
AcDbEntity
  8
SCALE
 62
     0
 48
0.5
370
    -2
100
AcDbLine
 10
-147.7185769800785
 20
49.86828236341989
 30
0.0
 11
-147.7185769800785
 21
16.98140513812347
 31
0.0
  0
LINE
  5
64C
330
599
100
AcDbEntity
  8
SCALE
 62
     0
 48
0.5
370
    -2
100
AcDbLine
 10
-186.7185619800785
 20
49.86828236341989
 30
0.0
 11
-186.7185619800785
 21
16.98140513812347
 31
0.0
  0
LINE
  5
64D
330
599
100
AcDbEntity
  8
SCALE
 62
     0
 48
0.5
370
    -2
100
AcDbLine
 10
-150.2185769800785
 20
18.23140513812347
 30
0.0
 11
-184.2185619800785
 21
18.23140513812347
 31
0.0
  0
INSERT
  5
64E
330
599
100
AcDbEntity
  8
SCALE
 62
     0
 48
0.5
370
    -2
100
AcDbBlockReference
  2
_OPEN30
 10
-147.7185769800785
 20
18.23140513812347
 30
0.0
 41
2.5
 42
2.5
 43
2.5
  0
INSERT
  5
64F
330
599
100
AcDbEntity
  8
SCALE
 62
     0
 48
0.5
370
    -2
100
AcDbBlockReference
  2
_OPEN30
 10
-186.7185619800785
 20
18.23140513812347
 30
0.0
 41
2.5
 42
2.5
 43
2.5
 50
180.0
  0
MTEXT
  5
650
330
599
100
AcDbEntity
  8
SCALE
 62
     0
 48
0.5
100
AcDbMText
 10
-167.2185694800785
 20
21.85640513812348
 30
0.0
 40
6.0
 41
0.0
 71
     5
 72
     1
  1
\A1;39
  7
Standard
 73
     1
 44
1.0
  0
POINT
  5
651
330
599
100
AcDbEntity
  8
DEFPOINTS
 62
     0
 48
0.5
100
AcDbPoint
 10
-147.7185769800785
 20
50.49328236341989
 30
0.0
  0
POINT
  5
652
330
599
100
AcDbEntity
  8
DEFPOINTS
 62
     0
 48
0.5
100
AcDbPoint
 10
-186.7185619800785
 20
50.49328236341989
 30
0.0
  0
POINT
  5
653
330
599
100
AcDbEntity
  8
DEFPOINTS
 62
     0
 48
0.5
100
AcDbPoint
 10
-186.7185619800785
 20
18.23140513812347
 30
0.0
  0
ENDBLK
  5
5D2
330
599
100
AcDbEntity
  8
0
100
AcDbBlockEnd
  0
BLOCK
  5
5D3
330
5A3
100
AcDbEntity
  8
0
100
AcDbBlockBegin
  2
*D49
 70
     1
 10
0.0
 20
0.0
 30
0.0
  3
*D49
  1

  0
LINE
  5
654
330
5A3
100
AcDbEntity
  8
SCALE
 62
     0
 48
0.5
370
    -2
100
AcDbLine
 10
-195.84357635176
 20
90.49324336341987
 30
0.0
 11
-212.451355490392
 21
90.49324336341987
 31
0.0
  0
LINE
  5
655
330
5A3
100
AcDbEntity
  8
SCALE
 62
     0
 48
0.5
370
    -2
100
AcDbLine
 10
-195.8435769451721
 20
29.49329036341999
 30
0.0
 11
-212.451355490392
 21
29.49329036341999
 31
0.0
  0
LINE
  5
656
330
5A3
100
AcDbEntity
  8
SCALE
 62
     0
 48
0.5
370
    -2
100
AcDbLine
 10
-211.201355490392
 20
87.99324336341987
 30
0.0
 11
-211.201355490392
 21
31.99329036341999
 31
0.0
  0
INSERT
  5
657
330
5A3
100
AcDbEntity
  8
SCALE
 62
     0
 48
0.5
370
    -2
100
AcDbBlockReference
  2
_OPEN30
 10
-211.201355490392
 20
90.49324336341987
 30
0.0
 41
2.5
 42
2.5
 43
2.5
 50
90.0
  0
INSERT
  5
658
330
5A3
100
AcDbEntity
  8
SCALE
 62
     0
 48
0.5
370
    -2
100
AcDbBlockReference
  2
_OPEN30
 10
-211.201355490392
 20
29.49329036341999
 30
0.0
 41
2.5
 42
2.5
 43
2.5
 50
270.0
  0
MTEXT
  5
659
330
5A3
100
AcDbEntity
  8
SCALE
 62
     0
 48
0.5
100
AcDbMText
 10
-214.826355490392
 20
59.99326686341991
 30
0.0
 40
6.0
 41
0.0
 71
     5
 72
     1
  1
\A1;61
  7
Standard
 11
0.0000000000000001
 21
1.0
 31
0.0
 73
     1
 44
1.0
  0
POINT
  5
65A
330
5A3
100
AcDbEntity
  8
DEFPOINTS
 62
     0
 48
0.5
100
AcDbPoint
 10
-195.21857635176
 20
90.49324336341987
 30
0.0
  0
POINT
  5
65B
330
5A3
100
AcDbEntity
  8
DEFPOINTS
 62
     0
 48
0.5
100
AcDbPoint
 10
-195.2185769451721
 20
29.49329036341999
 30
0.0
  0
POINT
  5
65C
330
5A3
100
AcDbEntity
  8
DEFPOINTS
 62
     0
 48
0.5
100
AcDbPoint
 10
-211.201355490392
 20
29.49329036341999
 30
0.0
  0
ENDBLK
  5
5D4
330
5A3
100
AcDbEntity
  8
0
100
AcDbBlockEnd
  0
BLOCK
  5
5D5
330
5AD
100
AcDbEntity
  8
0
100
AcDbBlockBegin
  2
*D50
 70
     1
 10
0.0
 20
0.0
 30
0.0
  3
*D50
  1

  0
LINE
  5
68D
330
5AD
100
AcDbEntity
  8
SCALE
 62
     0
 48
0.5
370
    -2
100
AcDbLine
 10
-197.2185759800781
 20
30.86829062005659
 30
0.0
 11
-197.2185759800781
 21
7.289152620072793
 31
0.0
  0
LINE
  5
68E
330
5AD
100
AcDbEntity
  8
SCALE
 62
     0
 48
0.5
370
    -2
100
AcDbLine
 10
-136.2185779800783
 20
30.86828936342004
 30
0.0
 11
-136.2185779800783
 21
7.289152620072793
 31
0.0
  0
LINE
  5
68F
330
5AD
100
AcDbEntity
  8
SCALE
 62
     0
 48
0.5
370
    -2
100
AcDbLine
 10
-194.7185759800781
 20
8.539152620072794
 30
0.0
 11
-138.7185779800783
 21
8.539152620072794
 31
0.0
  0
INSERT
  5
690
330
5AD
100
AcDbEntity
  8
SCALE
 62
     0
 48
0.5
370
    -2
100
AcDbBlockReference
  2
_OPEN30
 10
-197.2185759800781
 20
8.539152620072794
 30
0.0
 41
2.5
 42
2.5
 43
2.5
 50
180.0
  0
INSERT
  5
691
330
5AD
100
AcDbEntity
  8
SCALE
 62
     0
 48
0.5
370
    -2
100
AcDbBlockReference
  2
_OPEN30
 10
-136.2185779800783
 20
8.539152620072794
 30
0.0
 41
2.5
 42
2.5
 43
2.5
  0
MTEXT
  5
692
330
5AD
100
AcDbEntity
  8
SCALE
 62
     0
 48
0.5
100
AcDbMText
 10
-166.7185769800782
 20
12.16415262007279
 30
0.0
 40
6.0
 41
0.0
 71
     5
 72
     1
  1
\A1;61
  7
Standard
 73
     1
 44
1.0
  0
POINT
  5
693
330
5AD
100
AcDbEntity
  8
DEFPOINTS
 62
     0
 48
0.5
100
AcDbPoint
 10
-197.2185759800781
 20
31.49329062005659
 30
0.0
  0
POINT
  5
694
330
5AD
100
AcDbEntity
  8
DEFPOINTS
 62
     0
 48
0.5
100
AcDbPoint
 10
-136.2185779800783
 20
31.49328936342004
 30
0.0
  0
POINT
  5
695
330
5AD
100
AcDbEntity
  8
DEFPOINTS
 62
     0
 48
0.5
100
AcDbPoint
 10
-136.2185779800783
 20
8.539152620072794
 30
0.0
  0
ENDBLK
  5
5D6
330
5AD
100
AcDbEntity
  8
0
100
AcDbBlockEnd
  0
ENDSEC
  0
SECTION
  2
ENTITIES
  0
LINE
  5
21
330
A
100
AcDbEntity
  8
DEFPOINTS
  6
NON_PLOTING
 62
   254
100
AcDbLine
 10
-304.5
 20
-210.0
 30
0.0
 11
289.5
 21
-210.0
 31
0.0
  0
LINE
  5
22
330
A
100
AcDbEntity
  8
DEFPOINTS
  6
NON_PLOTING
 62
   254
100
AcDbLine
 10
289.5
 20
210.0
 30
0.0
 11
289.5
 21
-210.0
 31
0.0
  0
LINE
  5
24
330
A
100
AcDbEntity
  8
FV
  6
Continuous
 62
     7
100
AcDbLine
 10
178.327657
 20
-167.537901
 30
0.0
 11
180.980309
 21
-167.537901
 31
0.0
  0
LINE
  5
25
330
A
100
AcDbEntity
  8
FV
  6
Continuous
 62
     7
100
AcDbLine
 10
190.525127
 20
-170.690635
 30
0.0
 11
193.657127
 21
-170.690635
 31
0.0
  0
LINE
  5
26
330
A
100
AcDbEntity
  8
FV
  6
Continuous
 62
     7
100
AcDbLine
 10
190.824077
 20
-170.185941
 30
0.0
 11
193.369701
 21
-170.185941
 31
0.0
  0
LINE
  5
27
330
A
100
AcDbEntity
  8
FV
  6
Continuous
 62
     7
100
AcDbLine
 10
171.39329
 20
-170.937156
 30
0.0
 11
171.39329
 21
-168.201632
 31
0.0
  0
LINE
  5
28
330
A
100
AcDbEntity
  8
FV
  6
Continuous
 62
     7
100
AcDbLine
 10
173.023508
 20
-170.89623
 30
0.0
 11
173.023508
 21
-168.201591
 31
0.0
  0
LINE
  5
29
330
A
100
AcDbEntity
  8
FV
  6
Continuous
 62
     7
100
AcDbLine
 10
195.953089
 20
-171.440274
 30
0.0
 11
193.577732
 21
-167.537901
 31
0.0
  0
LINE
  5
2A
330
A
100
AcDbEntity
  8
FV
  6
Continuous
 62
     7
100
AcDbLine
 10
189.480383
 20
-171.448403
 30
0.0
 11
191.79673
 21
-167.537901
 31
0.0
  0
LINE
  5
2B
330
A
100
AcDbEntity
  8
FV
  6
Continuous
 62
     7
100
AcDbLine
 10
193.955281
 20
-171.214168
 30
0.0
 11
193.657127
 21
-170.690635
 31
0.0
  0
LINE
  5
2C
330
A
100
AcDbEntity
  8
FV
  6
Continuous
 62
     7
100
AcDbLine
 10
190.223311
 20
-171.200167
 30
0.0
 11
190.525127
 21
-170.690635
 31
0.0
  0
LINE
  5
2D
330
A
100
AcDbEntity
  8
FV
  6
Continuous
 62
     7
100
AcDbLine
 10
188.775588
 20
-172.044438
 30
0.0
 11
190.528333
 21
-172.044438
 31
0.0
  0
LINE
  5
2E
330
A
100
AcDbEntity
  8
FV
  6
Continuous
 62
     7
100
AcDbLine
 10
193.669495
 20
-172.044438
 30
0.0
 11
196.752784
 21
-172.044438
 31
0.0
  0
LINE
  5
2F
330
A
100
AcDbEntity
  8
FV
  6
Continuous
 62
     7
100
AcDbLine
 10
191.79673
 20
-167.537901
 30
0.0
 11
193.577732
 21
-167.537901
 31
0.0
  0
LINE
  5
30
330
A
100
AcDbEntity
  8
FV
  6
Continuous
 62
     7
100
AcDbLine
 10
182.672769
 20
-167.537901
 30
0.0
 11
185.639537
 21
-167.537901
 31
0.0
  0
LINE
  5
31
330
A
100
AcDbEntity
  8
FV
  6
Continuous
 62
     7
100
AcDbLine
 10
188.818375
 20
-167.537901
 30
0.0
 11
190.537767
 21
-167.537901
 31
0.0
  0
LINE
  5
32
330
A
100
AcDbEntity
  8
FV
  6
Continuous
 62
     7
100
AcDbLine
 10
190.824077
 20
-170.185941
 30
0.0
 11
192.121907
 21
-167.994919
 31
0.0
  0
LINE
  5
33
330
A
100
AcDbEntity
  8
FV
  6
Continuous
 62
     7
100
AcDbLine
 10
193.369701
 20
-170.185941
 30
0.0
 11
192.121907
 21
-167.994919
 31
0.0
  0
LINE
  5
34
330
A
100
AcDbEntity
  8
FV
  6
Continuous
 62
     7
100
AcDbLine
 10
187.54209
 20
-172.044438
 30
0.0
 11
189.84588
 21
-168.068119
 31
0.0
  0
LINE
  5
35
330
A
100
AcDbEntity
  8
FV
  6
Continuous
 62
     7
100
AcDbLine
 10
187.198346
 20
-171.578788
 30
0.0
 11
189.08808
 21
-168.317124
 31
0.0
  0
LINE
  5
36
330
A
100
AcDbEntity
  8
FV
  6
Continuous
 62
     7
100
AcDbLine
 10
187.198346
 20
-171.578788
 30
0.0
 11
185.284343
 21
-168.351975
 31
0.0
  0
LINE
  5
37
330
A
100
AcDbEntity
  8
FV
  6
Continuous
 62
     7
100
AcDbLine
 10
185.790593
 20
-172.044438
 30
0.0
 11
183.43537
 21
-168.073772
 31
0.0
  0
LINE
  5
38
330
A
100
AcDbEntity
  8
FV
  6
Continuous
 62
     7
100
AcDbLine
 10
185.790593
 20
-172.044438
 30
0.0
 11
187.54209
 21
-172.044438
 31
0.0
  0
LINE
  5
39
330
A
100
AcDbEntity
  8
FV
  6
Continuous
 62
     7
100
AcDbLine
 10
180.470877
 20
-170.766261
 30
0.0
 11
180.470877
 21
-168.099909
 31
0.0
  0
LINE
  5
3A
330
A
100
AcDbEntity
  8
FV
  6
Continuous
 62
     7
100
AcDbLine
 10
178.84066
 20
-171.187834
 30
0.0
 11
178.84066
 21
-168.100471
 31
0.0
  0
LINE
  5
3B
330
A
100
AcDbEntity
  8
FV
  6
Continuous
 62
     7
100
AcDbLine
 10
176.600313
 20
-170.89623
 30
0.0
 11
176.600313
 21
-168.190224
 31
0.0
  0
LINE
  5
3C
330
A
100
AcDbEntity
  8
FV
  6
Continuous
 62
     7
100
AcDbLine
 10
181.2486879999999
 20
-171.544072
 30
0.0
 11
183.037571
 21
-171.544072
 31
0.0
  0
LINE
  5
3D
330
A
100
AcDbEntity
  8
FV
  6
Continuous
 62
     7
100
AcDbLine
 10
183.895736
 20
-172.044438
 30
0.0
 11
184.133372
 21
-170.659901
 31
0.0
  0
LINE
  5
3E
330
A
100
AcDbEntity
  8
FV
  6
Continuous
 62
     7
100
AcDbLine
 10
178.266273
 20
-172.044438
 30
0.0
 11
183.895736
 21
-172.044438
 31
0.0
  0
LINE
  5
3F
330
A
100
AcDbEntity
  8
FV
  6
Continuous
 62
     7
100
AcDbLine
 10
170.884523
 20
-167.537901
 30
0.0
 11
173.532156
 21
-167.537901
 31
0.0
  0
ARC
  5
40
330
A
100
AcDbEntity
  8
FV
  6
Continuous
 62
     7
100
AcDbCircle
 10
174.449329
 20
-162.92686
 30
0.0
 40
8.659302999999999
100
AcDbArc
 50
275.6515339999999
 51
277.965852
  0
ARC
  5
41
330
A
100
AcDbEntity
  8
FV
  6
Continuous
 62
     7
100
AcDbCircle
 10
174.449329
 20
-162.92686
 30
0.0
 40
9.311391
100
AcDbArc
 50
261.606419
 51
284.468842
  0
LINE
  5
42
330
A
100
AcDbEntity
  8
FV
  6
Continuous
 62
     7
100
AcDbLine
 10
176.139986
 20
-167.538257
 30
0.0
 11
177.880245
 21
-167.538257
 31
0.0
  0
LINE
  5
43
330
A
100
AcDbEntity
  8
FV
  6
Continuous
 62
     7
100
AcDbLine
 10
180.99861
 20
-167.562122
 30
0.0
 11
180.99861
 21
-167.556202
 31
0.0
  0
LINE
  5
44
330
A
100
AcDbEntity
  8
FV
  6
Continuous
 62
     7
100
AcDbLine
 10
178.309355
 20
-167.562049
 30
0.0
 11
178.309355
 21
-167.556202
 31
0.0
  0
ARC
  5
45
330
A
100
AcDbEntity
  8
FV
  6
Continuous
 62
     7
100
AcDbCircle
 10
180.952857
 20
-167.562122
 30
0.0
 40
0.045754
100
AcDbArc
 50
289.395874
 51
0.0
  0
ARC
  5
46
330
A
100
AcDbEntity
  8
FV
  6
Continuous
 62
     7
100
AcDbCircle
 10
180.980309
 20
-167.556202
 30
0.0
 40
0.018302
100
AcDbArc
 50
0.0
 51
90.0
  0
ARC
  5
47
330
A
100
AcDbEntity
  8
FV
  6
Continuous
 62
     7
100
AcDbCircle
 10
178.327657
 20
-167.556202
 30
0.0
 40
0.018302
100
AcDbArc
 50
90.0
 51
180.0
  0
ARC
  5
48
330
A
100
AcDbEntity
  8
FV
  6
Continuous
 62
     7
100
AcDbCircle
 10
178.355109
 20
-167.562049
 30
0.0
 40
0.045754
100
AcDbArc
 50
180.0
 51
250.724866
  0
LINE
  5
49
330
A
100
AcDbEntity
  8
FV
  6
Continuous
 62
     7
100
AcDbLine
 10
178.340005
 20
-167.6052379999999
 30
0.0
 11
178.724289
 21
-167.876082
 31
0.0
  0
LINE
  5
4A
330
A
100
AcDbEntity
  8
FV
  6
Continuous
 62
     7
100
AcDbLine
 10
180.968051
 20
-167.605278
 30
0.0
 11
180.586524
 21
-167.876032
 31
0.0
  0
ARC
  5
4B
330
A
100
AcDbEntity
  8
FV
  6
Continuous
 62
     7
100
AcDbCircle
 10
180.745399
 20
-168.099909
 30
0.0
 40
0.274522
100
AcDbArc
 50
125.361678
 51
180.0
  0
ARC
  5
4C
330
A
100
AcDbEntity
  8
FV
  6
Continuous
 62
     7
100
AcDbCircle
 10
178.566138
 20
-168.100471
 30
0.0
 40
0.274522
100
AcDbArc
 50
0.0
 51
54.823662
  0
LINE
  5
4D
330
A
100
AcDbEntity
  8
FV
  6
Continuous
 62
     7
100
AcDbLine
 10
174.321741
 20
-171.544072
 30
0.0
 11
175.30208
 21
-171.544072
 31
0.0
  0
LINE
  5
4E
330
A
100
AcDbEntity
  8
FV
  6
Continuous
 62
     7
100
AcDbLine
 10
178.54933
 20
-171.74909
 30
0.0
 11
178.286815
 21
-171.93383
 31
0.0
  0
LINE
  5
4F
330
A
100
AcDbEntity
  8
FV
  6
Continuous
 62
     7
100
AcDbLine
 10
178.247971
 20
-172.008665
 30
0.0
 11
178.247971
 21
-172.026137
 31
0.0
  0
ARC
  5
50
330
A
100
AcDbEntity
  8
FV
  6
Continuous
 62
     7
100
AcDbCircle
 10
178.266273
 20
-172.026137
 30
0.0
 40
0.018302
100
AcDbArc
 50
180.0
 51
270.0
  0
ARC
  5
51
330
A
100
AcDbEntity
  8
FV
  6
Continuous
 62
     7
100
AcDbCircle
 10
178.154356
 20
-171.187834
 30
0.0
 40
0.686304
100
AcDbArc
 50
305.135309
 51
0.0
  0
ARC
  5
52
330
A
100
AcDbEntity
  8
FV
  6
Continuous
 62
     7
100
AcDbCircle
 10
178.339478
 20
-172.008665
 30
0.0
 40
0.091507
100
AcDbArc
 50
125.135309
 51
180.0
  0
ARC
  5
53
330
A
100
AcDbEntity
  8
FV
  6
Continuous
 62
     7
100
AcDbCircle
 10
181.2486879999999
 20
-170.766261
 30
0.0
 40
0.7778109999999999
100
AcDbArc
 50
180.0
 51
270.0
  0
LINE
  5
54
330
A
100
AcDbEntity
  8
FV
  6
Continuous
 62
     7
100
AcDbLine
 10
177.382797
 20
-171.195536
 30
0.0
 11
177.382797
 21
-168.093417
 31
0.0
  0
ARC
  5
55
330
A
100
AcDbEntity
  8
FV
  6
Continuous
 62
     7
100
AcDbCircle
 10
176.696494
 20
-171.195536
 30
0.0
 40
0.686304
100
AcDbArc
 50
305.135309
 51
0.0
  0
LINE
  5
56
330
A
100
AcDbEntity
  8
FV
  6
Continuous
 62
     7
100
AcDbLine
 10
177.091468
 20
-171.756792
 30
0.0
 11
176.924812
 21
-171.874073
 31
0.0
  0
LINE
  5
57
330
A
100
AcDbEntity
  8
FV
  6
Continuous
 62
     7
100
AcDbLine
 10
177.898547
 20
-167.58066
 30
0.0
 11
177.898547
 21
-167.556558
 31
0.0
  0
LINE
  5
58
330
A
100
AcDbEntity
  8
FV
  6
Continuous
 62
     7
100
AcDbLine
 10
176.121685
 20
-167.58459
 30
0.0
 11
176.121685
 21
-167.556558
 31
0.0
  0
ARC
  5
59
330
A
100
AcDbEntity
  8
FV
  6
Continuous
 62
     7
100
AcDbCircle
 10
177.657319
 20
-168.093417
 30
0.0
 40
0.274522
100
AcDbArc
 50
127.521218
 51
180.0
  0
LINE
  5
5A
330
A
100
AcDbEntity
  8
FV
  6
Continuous
 62
     7
100
AcDbLine
 10
177.49012
 20
-167.875686
 30
0.0
 11
177.878054
 21
-167.618808
 31
0.0
  0
ARC
  5
5B
330
A
100
AcDbEntity
  8
FV
  6
Continuous
 62
     7
100
AcDbCircle
 10
177.880245
 20
-167.556558
 30
0.0
 40
0.018302
100
AcDbArc
 50
0.0
 51
90.0
  0
ARC
  5
5C
330
A
100
AcDbEntity
  8
FV
  6
Continuous
 62
     7
100
AcDbCircle
 10
177.852793
 20
-167.58066
 30
0.0
 40
0.045754
100
AcDbArc
 50
303.511375
 51
0.0
  0
LINE
  5
5D
330
A
100
AcDbEntity
  8
FV
  6
Continuous
 62
     7
100
AcDbLine
 10
176.140416
 20
-167.621512
 30
0.0
 11
176.412998
 21
-167.821009
 31
0.0
  0
ARC
  5
5E
330
A
100
AcDbEntity
  8
FV
  6
Continuous
 62
     7
100
AcDbCircle
 10
176.167438
 20
-167.58459
 30
0.0
 40
0.045754
100
AcDbArc
 50
180.0
 51
233.800364
  0
ARC
  5
5F
330
A
100
AcDbEntity
  8
FV
  6
Continuous
 62
     7
100
AcDbCircle
 10
176.139986
 20
-167.556558
 30
0.0
 40
0.018302
100
AcDbArc
 50
90.0
 51
180.0
  0
ARC
  5
60
330
A
100
AcDbEntity
  8
FV
  6
Continuous
 62
     7
100
AcDbCircle
 10
176.142777
 20
-168.190224
 30
0.0
 40
0.457536
100
AcDbArc
 50
0.0
 51
53.800364
  0
LINE
  5
61
330
A
100
AcDbEntity
  8
FV
  6
Continuous
 62
     7
100
AcDbLine
 10
170.866221
 20
-167.588641
 30
0.0
 11
170.866221
 21
-167.556202
 31
0.0
  0
LINE
  5
62
330
A
100
AcDbEntity
  8
FV
  6
Continuous
 62
     7
100
AcDbLine
 10
173.550457
 20
-167.588618
 30
0.0
 11
173.550457
 21
-167.556202
 31
0.0
  0
LINE
  5
63
330
A
100
AcDbEntity
  8
FV
  6
Continuous
 62
     7
100
AcDbLine
 10
170.878342
 20
-167.611414
 30
0.0
 11
171.191276
 21
-167.822096
 31
0.0
  0
LINE
  5
64
330
A
100
AcDbEntity
  8
FV
  6
Continuous
 62
     7
100
AcDbLine
 10
173.225469
 20
-167.82209
 30
0.0
 11
173.53834
 21
-167.6113879999999
 31
0.0
  0
ARC
  5
65
330
A
100
AcDbEntity
  8
FV
  6
Continuous
 62
     7
100
AcDbCircle
 10
173.481043
 20
-168.201591
 30
0.0
 40
0.457536
100
AcDbArc
 50
123.958257
 51
180.0
  0
ARC
  5
66
330
A
100
AcDbEntity
  8
FV
  6
Continuous
 62
     7
100
AcDbCircle
 10
170.935754
 20
-168.201632
 30
0.0
 40
0.457536
100
AcDbArc
 50
0.0
 51
56.04966899999999
  0
ARC
  5
67
330
A
100
AcDbEntity
  8
FV
  6
Continuous
 62
     7
100
AcDbCircle
 10
173.523005
 20
-167.588618
 30
0.0
 40
0.027452
100
AcDbArc
 50
303.958257
 51
0.0
  0
ARC
  5
68
330
A
100
AcDbEntity
  8
FV
  6
Continuous
 62
     7
100
AcDbCircle
 10
170.893673
 20
-167.588641
 30
0.0
 40
0.027452
100
AcDbArc
 50
180.0
 51
236.049669
  0
ARC
  5
69
330
A
100
AcDbEntity
  8
FV
  6
Continuous
 62
     7
100
AcDbCircle
 10
173.532156
 20
-167.556202
 30
0.0
 40
0.018302
100
AcDbArc
 50
0.0
 51
90.0
  0
ARC
  5
6A
330
A
100
AcDbEntity
  8
FV
  6
Continuous
 62
     7
100
AcDbCircle
 10
170.884523
 20
-167.556202
 30
0.0
 40
0.018302
100
AcDbArc
 50
90.0
 51
180.0
  0
LINE
  5
6B
330
A
100
AcDbEntity
  8
FV
  6
Continuous
 62
     7
100
AcDbLine
 10
176.477136
 20
-171.211826
 30
0.0
 11
176.504862
 21
-171.175933
 31
0.0
  0
LINE
  5
6C
330
A
100
AcDbEntity
  8
FV
  6
Continuous
 62
     7
100
AcDbLine
 10
175.64936
 20
-171.502608
 30
0.0
 11
176.213022
 21
-171.379046
 31
0.0
  0
ARC
  5
6D
330
A
100
AcDbEntity
  8
FV
  6
Continuous
 62
     7
100
AcDbCircle
 10
176.142777
 20
-170.89623
 30
0.0
 40
0.457536
100
AcDbArc
 50
322.314625
 51
0.0
  0
ARC
  5
6E
330
A
100
AcDbEntity
  8
FV
  6
Continuous
 62
     7
100
AcDbCircle
 10
176.115051
 20
-170.932122
 30
0.0
 40
0.457536
100
AcDbArc
 50
282.364355
 51
322.314625
  0
ARC
  5
6F
330
A
100
AcDbEntity
  8
FV
  6
Continuous
 62
     7
100
AcDbCircle
 10
175.174492
 20
-162.92686
 30
0.0
 40
8.659302999999999
100
AcDbArc
 50
262.034148
 51
264.348466
  0
LINE
  5
70
330
A
100
AcDbEntity
  8
FV
  6
Continuous
 62
     7
100
AcDbLine
 10
173.97446
 20
-171.502608
 30
0.0
 11
173.410798
 21
-171.379046
 31
0.0
  0
ARC
  5
71
330
A
100
AcDbEntity
  8
FV
  6
Continuous
 62
     7
100
AcDbCircle
 10
173.508769
 20
-170.932122
 30
0.0
 40
0.457536
100
AcDbArc
 50
217.685375
 51
257.635645
  0
ARC
  5
72
330
A
100
AcDbEntity
  8
FV
  6
Continuous
 62
     7
100
AcDbCircle
 10
173.481043
 20
-170.89623
 30
0.0
 40
0.457536
100
AcDbArc
 50
180.0
 51
217.685375
  0
LINE
  5
73
330
A
100
AcDbEntity
  8
FV
  6
Continuous
 62
     7
100
AcDbLine
 10
173.146685
 20
-171.211826
 30
0.0
 11
173.118959
 21
-171.175933
 31
0.0
  0
LINE
  5
74
330
A
100
AcDbEntity
  8
FV
  6
Continuous
 62
     7
100
AcDbLine
 10
182.6544679999999
 20
-167.584989
 30
0.0
 11
182.6544679999999
 21
-167.556202
 31
0.0
  0
LINE
  5
75
330
A
100
AcDbEntity
  8
FV
  6
Continuous
 62
     7
100
AcDbLine
 10
185.657838
 20
-167.583075
 30
0.0
 11
185.657838
 21
-167.556202
 31
0.0
  0
LINE
  5
76
330
A
100
AcDbEntity
  8
FV
  6
Continuous
 62
     7
100
AcDbLine
 10
182.669643
 20
-167.609543
 30
0.0
 11
183.246469
 21
-167.897956
 31
0.0
  0
LINE
  5
77
330
A
100
AcDbEntity
  8
FV
  6
Continuous
 62
     7
100
AcDbLine
 10
185.4448
 20
-167.72483
 30
0.0
 11
185.644369
 21
-167.606699
 31
0.0
  0
ARC
  5
78
330
A
100
AcDbEntity
  8
FV
  6
Continuous
 62
     7
100
AcDbCircle
 10
183.041853
 20
-168.307189
 30
0.0
 40
0.457536
100
AcDbArc
 50
30.674541
 51
63.434963
  0
ARC
  5
79
330
A
100
AcDbEntity
  8
FV
  6
Continuous
 62
     7
100
AcDbCircle
 10
185.67786
 20
-168.118558
 30
0.0
 40
0.457536
100
AcDbArc
 50
120.622597
 51
210.674541
  0
ARC
  5
7A
330
A
100
AcDbEntity
  8
FV
  6
Continuous
 62
     7
100
AcDbCircle
 10
182.68192
 20
-167.584989
 30
0.0
 40
0.027452
100
AcDbArc
 50
180.0
 51
243.434963
  0
ARC
  5
7B
330
A
100
AcDbEntity
  8
FV
  6
Continuous
 62
     7
100
AcDbCircle
 10
182.672769
 20
-167.556202
 30
0.0
 40
0.018302
100
AcDbArc
 50
90.0
 51
180.0
  0
ARC
  5
7C
330
A
100
AcDbEntity
  8
FV
  6
Continuous
 62
     7
100
AcDbCircle
 10
185.639537
 20
-167.556202
 30
0.0
 40
0.018302
100
AcDbArc
 50
0.0
 51
90.0
  0
ARC
  5
7D
330
A
100
AcDbEntity
  8
FV
  6
Continuous
 62
     7
100
AcDbCircle
 10
185.630386
 20
-167.583075
 30
0.0
 40
0.027452
100
AcDbArc
 50
300.622597
 51
0.0
  0
LINE
  5
7E
330
A
100
AcDbEntity
  8
FV
  6
Continuous
 62
     7
100
AcDbLine
 10
190.5560679999999
 20
-167.585737
 30
0.0
 11
190.5560679999999
 21
-167.556202
 31
0.0
  0
LINE
  5
7F
330
A
100
AcDbEntity
  8
FV
  6
Continuous
 62
     7
100
AcDbLine
 10
188.800073
 20
-167.587871
 30
0.0
 11
188.800073
 21
-167.556202
 31
0.0
  0
LINE
  5
80
330
A
100
AcDbEntity
  8
FV
  6
Continuous
 62
     7
100
AcDbLine
 10
190.020989
 20
-167.896746
 30
0.0
 11
190.5418629999999
 21
-167.609782
 31
0.0
  0
LINE
  5
81
330
A
100
AcDbEntity
  8
FV
  6
Continuous
 62
     7
100
AcDbLine
 10
188.811514
 20
-167.610171
 30
0.0
 11
188.959044
 21
-167.716098
 31
0.0
  0
ARC
  5
82
330
A
100
AcDbEntity
  8
FV
  6
Continuous
 62
     7
100
AcDbCircle
 10
190.528616
 20
-167.585737
 30
0.0
 40
0.027452
100
AcDbArc
 50
298.8516
 51
0.0
  0
ARC
  5
83
330
A
100
AcDbEntity
  8
FV
  6
Continuous
 62
     7
100
AcDbCircle
 10
188.827525
 20
-167.587871
 30
0.0
 40
0.027452
100
AcDbArc
 50
180.0
 51
234.321241
  0
ARC
  5
84
330
A
100
AcDbEntity
  8
FV
  6
Continuous
 62
     7
100
AcDbCircle
 10
190.537767
 20
-167.556202
 30
0.0
 40
0.018302
100
AcDbArc
 50
0.0
 51
90.0
  0
ARC
  5
85
330
A
100
AcDbEntity
  8
FV
  6
Continuous
 62
     7
100
AcDbCircle
 10
188.818375
 20
-167.556202
 30
0.0
 40
0.018302
100
AcDbArc
 50
90.0
 51
180.0
  0
ARC
  5
86
330
A
100
AcDbEntity
  8
FV
  6
Continuous
 62
     7
100
AcDbCircle
 10
190.241769
 20
-168.297489
 30
0.0
 40
0.457536
100
AcDbArc
 50
118.8516
 51
149.912962
  0
ARC
  5
87
330
A
100
AcDbEntity
  8
FV
  6
Continuous
 62
     7
100
AcDbCircle
 10
188.69219
 20
-168.087755
 30
0.0
 40
0.457536
100
AcDbArc
 50
329.912962
 51
54.321241
  0
LINE
  5
88
330
A
100
AcDbEntity
  8
FV
  6
Continuous
 62
     7
100
AcDbLine
 10
190.546635
 20
-172.026137
 30
0.0
 11
190.546635
 21
-171.974449
 31
0.0
  0
LINE
  5
89
330
A
100
AcDbEntity
  8
FV
  6
Continuous
 62
     7
100
AcDbLine
 10
188.757287
 20
-172.026137
 30
0.0
 11
188.757287
 21
-171.97637
 31
0.0
  0
LINE
  5
8A
330
A
100
AcDbEntity
  8
FV
  6
Continuous
 62
     7
100
AcDbLine
 10
188.770175
 20
-171.9531
 30
0.0
 11
189.32946
 21
-171.603062
 31
0.0
  0
LINE
  5
8B
330
A
100
AcDbEntity
  8
FV
  6
Continuous
 62
     7
100
AcDbLine
 10
190.333033
 20
-171.792122
 30
0.0
 11
190.536219
 21
-171.952923
 31
0.0
  0
ARC
  5
8C
330
A
100
AcDbEntity
  8
FV
  6
Continuous
 62
     7
100
AcDbCircle
 10
190.6169679999999
 20
-171.433346
 30
0.0
 40
0.457536
100
AcDbArc
 50
149.3600439999999
 51
231.641872
  0
ARC
  5
8D
330
A
100
AcDbEntity
  8
FV
  6
Continuous
 62
     7
100
AcDbCircle
 10
189.086725
 20
-171.215224
 30
0.0
 40
0.457536
100
AcDbArc
 50
302.041032
 51
329.360044
  0
ARC
  5
8E
330
A
100
AcDbEntity
  8
FV
  6
Continuous
 62
     7
100
AcDbCircle
 10
190.519183
 20
-171.974449
 30
0.0
 40
0.027452
100
AcDbArc
 50
0.0
 51
51.641872
  0
ARC
  5
8F
330
A
100
AcDbEntity
  8
FV
  6
Continuous
 62
     7
100
AcDbCircle
 10
188.784739
 20
-171.97637
 30
0.0
 40
0.027452
100
AcDbArc
 50
122.041032
 51
180.0
  0
ARC
  5
90
330
A
100
AcDbEntity
  8
FV
  6
Continuous
 62
     7
100
AcDbCircle
 10
190.528333
 20
-172.026137
 30
0.0
 40
0.018302
100
AcDbArc
 50
270.0
 51
0.0
  0
ARC
  5
91
330
A
100
AcDbEntity
  8
FV
  6
Continuous
 62
     7
100
AcDbCircle
 10
188.775588
 20
-172.026137
 30
0.0
 40
0.018302
100
AcDbArc
 50
180.0
 51
270.0
  0
LINE
  5
92
330
A
100
AcDbEntity
  8
FV
  6
Continuous
 62
     7
100
AcDbLine
 10
193.651194
 20
-172.026137
 30
0.0
 11
193.651194
 21
-171.973882
 31
0.0
  0
LINE
  5
93
330
A
100
AcDbEntity
  8
FV
  6
Continuous
 62
     7
100
AcDbLine
 10
196.122628
 20
-171.602843
 30
0.0
 11
196.75691
 21
-171.953333
 31
0.0
  0
LINE
  5
94
330
A
100
AcDbEntity
  8
FV
  6
Continuous
 62
     7
100
AcDbLine
 10
193.660893
 20
-171.952943
 30
0.0
 11
193.853577
 21
-171.789584
 31
0.0
  0
ARC
  5
95
330
A
100
AcDbEntity
  8
FV
  6
Continuous
 62
     7
100
AcDbCircle
 10
193.669495
 20
-172.026137
 30
0.0
 40
0.018302
100
AcDbArc
 50
180.0
 51
270.0
  0
LINE
  5
96
330
A
100
AcDbEntity
  8
FV
  6
Continuous
 62
     7
100
AcDbLine
 10
196.771085
 20
-172.026137
 30
0.0
 11
196.771085
 21
-171.977361
 31
0.0
  0
ARC
  5
97
330
A
100
AcDbEntity
  8
FV
  6
Continuous
 62
     7
100
AcDbCircle
 10
196.752784
 20
-172.026137
 30
0.0
 40
0.018302
100
AcDbArc
 50
270.0
 51
0.0
  0
ARC
  5
98
330
A
100
AcDbEntity
  8
FV
  6
Continuous
 62
     7
100
AcDbCircle
 10
196.743633
 20
-171.977361
 30
0.0
 40
0.027452
100
AcDbArc
 50
0.0
 51
61.07590699999999
  0
ARC
  5
99
330
A
100
AcDbEntity
  8
FV
  6
Continuous
 62
     7
100
AcDbCircle
 10
193.678646
 20
-171.973882
 30
0.0
 40
0.027452
100
AcDbArc
 50
130.291555
 51
180.0
  0
ARC
  5
9A
330
A
100
AcDbEntity
  8
FV
  6
Continuous
 62
     7
100
AcDbCircle
 10
196.343916
 20
-171.202379
 30
0.0
 40
0.457536
100
AcDbArc
 50
211.328693
 51
241.075907
  0
ARC
  5
9B
330
A
100
AcDbEntity
  8
FV
  6
Continuous
 62
     7
100
AcDbCircle
 10
193.557699
 20
-171.440592
 30
0.0
 40
0.457536
100
AcDbArc
 50
310.291555
 51
29.661659
  0
ARC
  5
9C
330
A
100
AcDbEntity
  8
FV
  6
Continuous
 62
     7
100
AcDbCircle
 10
176.661496
 20
-171.499903
 30
0.0
 40
0.457536
100
AcDbArc
 50
284.468842
 51
305.135309
  0
LINE
  5
9D
330
A
100
AcDbEntity
  8
FV
  6
Continuous
 62
     7
100
AcDbLine
 10
171.471837
 20
-171.216804
 30
0.0
 11
171.428711
 21
-171.113672
 31
0.0
  0
LINE
  5
9E
330
A
100
AcDbEntity
  8
FV
  6
Continuous
 62
     7
100
AcDbLine
 10
172.410129
 20
-171.946752
 30
0.0
 11
173.030168
 21
-172.125508
 31
0.0
  0
LINE
  5
9F
330
A
100
AcDbEntity
  8
FV
  6
Continuous
 62
     7
100
AcDbLine
 10
171.625123
 20
-171.410517
 30
0.0
 11
172.268044
 21
-171.877351
 31
0.0
  0
ARC
  5
A0
330
A
100
AcDbEntity
  8
FV
  6
Continuous
 62
     7
100
AcDbCircle
 10
173.156912
 20
-171.685878
 30
0.0
 40
0.457536
100
AcDbArc
 50
253.917808
 51
261.606419
  0
ARC
  5
A1
330
A
100
AcDbEntity
  8
FV
  6
Continuous
 62
     7
100
AcDbCircle
 10
172.536873
 20
-171.507122
 30
0.0
 40
0.457536
100
AcDbArc
 50
234.0160490000001
 51
253.917808
  0
ARC
  5
A2
330
A
100
AcDbEntity
  8
FV
  6
Continuous
 62
     7
100
AcDbCircle
 10
171.850826
 20
-170.937156
 30
0.0
 40
0.457536
100
AcDbArc
 50
180.0
 51
202.693278
  0
ARC
  5
A3
330
A
100
AcDbEntity
  8
FV
  6
Continuous
 62
     7
100
AcDbCircle
 10
171.893952
 20
-171.040287
 30
0.0
 40
0.457536
100
AcDbArc
 50
202.693278
 51
234.0160490000001
  0
LINE
  5
A4
330
A
100
AcDbEntity
  8
FV
  6
Continuous
 62
     7
100
AcDbLine
 10
183.80219
 20
-171.131707
 30
0.0
 11
184.116706
 21
-170.653326
 31
0.0
  0
ARC
  5
A5
330
A
100
AcDbEntity
  8
FV
  6
Continuous
 62
     7
100
AcDbCircle
 10
183.037571
 20
-170.629
 30
0.0
 40
0.9150719999999999
100
AcDbArc
 50
270.0
 51
326.676654
  0
ARC
  5
A6
330
A
100
AcDbEntity
  8
FV
  6
Continuous
 62
     7
100
AcDbCircle
 10
184.124353
 20
-170.658353
 30
0.0
 40
0.00915
100
AcDbArc
 50
350.26092
 51
146.676654
  0
ELLIPSE
  5
A7
330
A
100
AcDbEntity
  8
FV
  6
Continuous
 62
     7
100
AcDbEllipse
 10
199.924818
 20
-169.556075
 30
0.0
 11
3.172930735277038
 21
-0.0000001920919516
 31
0.0
210
0.0
220
0.0
230
1.0
 40
0.799807
 41
0.7704730626730815
 42
5.971377141295467
  0
ELLIPSE
  5
A8
330
A
100
AcDbEntity
  8
FV
  6
Continuous
 62
     7
100
AcDbEllipse
 10
200.330789
 20
-169.556075
 30
0.0
 11
2.287679245496093
 21
-0.0000001615248652
 31
0.0
210
0.0
220
0.0
230
0.9999999999999998
 40
0.7216510000000002
 41
0.4426733724477124
 42
5.79210961745623
  0
LINE
  5
A9
330
A
100
AcDbEntity
  8
FV
  6
Continuous
 62
     7
100
AcDbLine
 10
203.051291
 20
-167.036644
 30
0.0
 11
203.051291
 21
-168.848898
 31
0.0
  0
LINE
  5
AA
330
A
100
AcDbEntity
  8
FV
  6
Continuous
 62
     7
100
AcDbLine
 10
202.994695
 20
-167.0183429999999
 30
0.0
 11
203.03299
 21
-167.0183429999999
 31
0.0
  0
ARC
  5
AB
330
A
100
AcDbEntity
  8
FV
  6
Continuous
 62
     7
100
AcDbCircle
 10
203.03299
 20
-167.036644
 30
0.0
 40
0.018302
100
AcDbArc
 50
0.0
 51
90.0
  0
ARC
  5
AC
330
A
100
AcDbEntity
  8
FV
  6
Continuous
 62
     7
100
AcDbCircle
 10
202.994695
 20
-167.036644
 30
0.0
 40
0.018302
100
AcDbArc
 50
90.0
 51
150.00044
  0
LINE
  5
AD
330
A
100
AcDbEntity
  8
FV
  6
Continuous
 62
     7
100
AcDbLine
 10
202.781841
 20
-167.621376
 30
0.0
 11
202.981881
 21
-167.0183429999999
 31
0.0
  0
ARC
  5
AE
330
A
100
AcDbEntity
  8
FV
  6
Continuous
 62
     7
100
AcDbCircle
 10
202.434428
 20
-167.506132
 30
0.0
 40
0.366029
100
AcDbArc
 50
230.509944
 51
341.648153
  0
LINE
  5
AF
330
A
100
AcDbEntity
  8
FV
  6
Continuous
 62
     7
100
AcDbLine
 10
202.397958
 20
-168.848898
 30
0.0
 11
203.049059
 21
-168.848898
 31
0.0
  0
LINE
  5
B0
330
A
100
AcDbEntity
  8
FV
  6
Continuous
 62
     7
100
AcDbLine
 10
202.348124
 20
-170.334601
 30
0.0
 11
202.944752
 21
-170.334601
 31
0.0
  0
LINE
  5
B1
330
A
100
AcDbEntity
  8
FV
  6
Continuous
 62
     7
100
AcDbLine
 10
205.5
 20
-200.0
 30
0.0
 11
279.5
 21
-200.0
 31
0.0
  0
LINE
  5
B2
330
A
100
AcDbEntity
  8
FV
  6
Continuous
 62
     7
100
AcDbLine
 10
279.5
 20
-200.0
 30
0.0
 11
279.5
 21
-164.0
 31
0.0
  0
LINE
  5
B3
330
A
100
AcDbEntity
  8
FV
  6
Continuous
 62
     7
100
AcDbLine
 10
205.5
 20
-189.0
 30
0.0
 11
279.5
 21
-189.0
 31
0.0
  0
LINE
  5
B4
330
A
100
AcDbEntity
  8
FV
  6
Continuous
 62
     7
100
AcDbLine
 10
168.5
 20
-164.0
 30
0.0
 11
279.5
 21
-164.0
 31
0.0
  0
LINE
  5
B5
330
A
100
AcDbEntity
  8
FV
  6
Continuous
 62
     7
100
AcDbLine
 10
205.5
 20
-164.0
 30
0.0
 11
205.5
 21
-200.0
 31
0.0
  0
LINE
  5
B6
330
A
100
AcDbEntity
  8
FV
  6
Continuous
 62
     7
100
AcDbLine
 10
168.5
 20
-164.0
 30
0.0
 11
168.5
 21
-175.0
 31
0.0
  0
LINE
  5
B7
330
A
100
AcDbEntity
  8
FV
  6
Continuous
 62
     7
100
AcDbLine
 10
168.5
 20
-175.0
 30
0.0
 11
205.5
 21
-175.0
 31
0.0
  0
LINE
  5
B8
330
A
100
AcDbEntity
  8
FV
  6
Continuous
 62
     7
100
AcDbLine
 10
216.5
 20
-200.0
 30
0.0
 11
216.5
 21
-189.0
 31
0.0
  0
LINE
  5
B9
330
A
100
AcDbEntity
  8
FV
  6
Continuous
 62
     7
100
AcDbLine
 10
205.5
 20
-189.0
 30
0.0
 11
205.5
 21
-200.0
 31
0.0
  0
MTEXT
  5
BA
330
A
100
AcDbEntity
  8
FV
  6
Continuous
 62
     7
100
AcDbMText
 10
208.240261
 20
-166.127151
 30
0.0
 40
2.5
 41
0.0
 71
     1
 72
     1
  1
\W0.776;\A1;TITLE
 73
     1
 44
1.0
  0
MTEXT
  5
BB
330
A
100
AcDbEntity
  8
FV
  6
Continuous
 62
     7
100
AcDbMText
 10
245.412105
 20
-194.488754
 30
0.0
 40
3.5
 41
0.0
 71
     5
 72
     1
  1
GA0122-101-03A
 73
     1
 44
1.0
  0
MTEXT
  5
BC
330
A
100
AcDbEntity
  8
FV
  6
Continuous
 62
     7
100
AcDbMText
 10
207.507029
 20
-194.66095
 30
0.0
 40
2.339710999999998
 41
0.0
 71
     4
 72
     1
  1
\W0.821;\A1;DWG\PNｏ.
 73
     1
 44
1.0
  0
MTEXT
  5
BD
330
A
100
AcDbEntity
  8
FV
  6
Continuous
 62
     7
100
AcDbMText
 10
215.116509
 20
-174.926708
 30
0.0
 40
3.5
 41
0.0
 71
     1
 72
     1
  1
GP-1GRY CTYPE
 73
     1
 44
1.0
1001
ACAD
1000
ACAD_MTEXT_DEFINED_HEIGHT_BEGIN
1070
    46
1040
0.0
1000
ACAD_MTEXT_DEFINED_HEIGHT_END
  0
CIRCLE
  5
46D
330
A
100
AcDbEntity
  8
25
100
AcDbCircle
 10
-190.7185769800785
 20
-31.50671063658001
 30
0.0
 40
1.75
  0
CIRCLE
  5
46E
102
{ACAD_REACTORS
330
503
102
}
330
A
100
AcDbEntity
  8
25
100
AcDbCircle
 10
-190.7185769800785
 20
-79.50671063658003
 30
0.0
 40
1.75
  0
CIRCLE
  5
46F
102
{ACAD_REACTORS
330
500
330
503
102
}
330
A
100
AcDbEntity
  8
25
100
AcDbCircle
 10
-142.7185769800785
 20
-79.50671063658003
 30
0.0
 40
1.75
  0
CIRCLE
  5
470
102
{ACAD_REACTORS
330
500
102
}
330
A
100
AcDbEntity
  8
25
100
AcDbCircle
 10
-142.7185769800785
 20
-31.50671063658001
 30
0.0
 40
1.75
  0
CIRCLE
  5
471
102
{ACAD_REACTORS
330
4FD
102
}
330
A
100
AcDbEntity
  8
25
100
AcDbCircle
 10
-166.7185769800785
 20
-55.50671063658001
 30
0.0
 40
28.75
  0
CIRCLE
  5
472
330
A
100
AcDbEntity
  8
25
100
AcDbCircle
 10
99.28130001992158
 20
83.99324436341997
 30
0.0
 40
3.499999000000001
  0
ARC
  5
473
330
A
100
AcDbEntity
  8
25
100
AcDbCircle
 10
96.78128501992159
 20
86.49324436341998
 30
0.0
 40
1.999999000000002
100
AcDbArc
 50
89.99998199998776
 51
179.999963999995
  0
ARC
  5
474
102
{ACAD_REACTORS
330
4DC
102
}
330
A
100
AcDbEntity
  8
25
100
AcDbCircle
 10
-77.71859298007854
 20
31.41368436341986
 30
0.0
 40
1.0
100
AcDbArc
 50
179.9997999999994
 51
265.2363540000084
  0
ARC
  5
475
330
A
100
AcDbEntity
  8
25
100
AcDbCircle
 10
17.78087301992167
 20
33.99351836341998
 30
0.0
 40
1.999999
100
AcDbArc
 50
270.0000180000122
 51
0.0
  0
ARC
  5
476
330
A
100
AcDbEntity
  8
25
100
AcDbCircle
 10
17.78087301992167
 20
85.99324436342
 30
0.0
 40
1.999999
100
AcDbArc
 50
0.0
 51
89.99998199998776
  0
ARC
  5
477
330
A
100
AcDbEntity
  8
25
100
AcDbCircle
 10
-84.71860798007861
 20
52.72771836341984
 30
0.0
 40
1.999999000000002
100
AcDbArc
 50
97.12496200000039
 51
179.999963999995
  0
ARC
  5
478
102
{ACAD_REACTORS
330
4DC
102
}
330
A
100
AcDbEntity
  8
25
100
AcDbCircle
 10
-84.71860798007861
 20
48.25884636341993
 30
0.0
 40
1.999999000000002
100
AcDbArc
 50
179.999963999995
 51
262.8750209999999
  0
CIRCLE
  5
479
102
{ACAD_REACTORS
330
4D9
102
}
330
A
100
AcDbEntity
  8
25
100
AcDbCircle
 10
99.28130001992158
 20
35.99328936341999
 30
0.0
 40
1.499999000000002
  0
CIRCLE
  5
47A
330
A
100
AcDbEntity
  8
25
100
AcDbCircle
 10
99.28130001992158
 20
83.99324436341997
 30
0.0
 40
1.499999000000002
  0
CIRCLE
  5
47B
102
{ACAD_REACTORS
330
4D6
102
}
330
A
100
AcDbEntity
  8
25
100
AcDbCircle
 10
147.2812850199215
 20
83.99324436341997
 30
0.0
 40
1.499999000000002
  0
CIRCLE
  5
47C
102
{ACAD_REACTORS
330
4D6
330
4D9
102
}
330
A
100
AcDbEntity
  8
25
100
AcDbCircle
 10
147.2812850199215
 20
35.99328936341999
 30
0.0
 40
1.499999000000002
  0
CIRCLE
  5
47D
330
A
100
AcDbEntity
  8
25
100
AcDbCircle
 10
147.2812850199215
 20
35.99328936341999
 30
0.0
 40
3.499999000000001
  0
CIRCLE
  5
47E
330
A
100
AcDbEntity
  8
25
100
AcDbCircle
 10
99.28130001992158
 20
35.99328936341999
 30
0.0
 40
3.499999000000001
  0
CIRCLE
  5
47F
330
A
100
AcDbEntity
  8
25
100
AcDbCircle
 10
147.2812850199215
 20
83.99324436341997
 30
0.0
 40
3.499999000000001
  0
ARC
  5
480
330
A
100
AcDbEntity
  8
25
100
AcDbCircle
 10
151.7813000199215
 20
31.49328936341999
 30
0.0
 40
1.999999000000002
100
AcDbArc
 50
270.0000179999863
 51
0.0
  0
ARC
  5
481
330
A
100
AcDbEntity
  8
25
100
AcDbCircle
 10
149.7813000199216
 20
33.49328936341999
 30
0.0
 40
1.999999000000002
100
AcDbArc
 50
270.0000179999863
 51
0.0
  0
ARC
  5
482
330
A
100
AcDbEntity
  8
25
100
AcDbCircle
 10
94.78130001992157
 20
31.49328936341999
 30
0.0
 40
1.999999000000002
100
AcDbArc
 50
179.999963999995
 51
270.0000009999949
  0
ARC
  5
483
330
A
100
AcDbEntity
  8
25
100
AcDbCircle
 10
96.78128501992159
 20
33.49328936341999
 30
0.0
 40
1.999999000000002
100
AcDbArc
 50
179.999963999995
 51
270.0000009999949
  0
ARC
  5
484
330
A
100
AcDbEntity
  8
25
100
AcDbCircle
 10
149.7813000199216
 20
86.49324436341998
 30
0.0
 40
1.999999000000002
100
AcDbArc
 50
0.0
 51
89.99998199998776
  0
ARC
  5
485
330
A
100
AcDbEntity
  8
25
100
AcDbCircle
 10
151.7813000199215
 20
88.49324436342
 30
0.0
 40
1.999999000000002
100
AcDbArc
 50
0.0
 51
89.99998199998776
  0
ARC
  5
486
330
A
100
AcDbEntity
  8
25
100
AcDbCircle
 10
94.78130001992157
 20
88.49324436342
 30
0.0
 40
1.999999000000002
100
AcDbArc
 50
89.99998199998776
 51
179.999963999995
  0
CIRCLE
  5
487
330
A
100
AcDbEntity
  8
25
100
AcDbCircle
 10
123.2813000199216
 20
59.99326636341994
 30
0.0
 40
24.99998500000001
  0
CIRCLE
  5
488
330
A
100
AcDbEntity
  8
25
100
AcDbCircle
 10
123.2813000199216
 20
59.99326636341994
 30
0.0
 40
27.49998500000001
  0
ARC
  5
489
330
A
100
AcDbEntity
  8
25
100
AcDbCircle
 10
-167.2185769800785
 20
39.49330536341995
 30
0.0
 40
34.99998500000001
100
AcDbArc
 50
59.99993300000814
 51
119.999975999985
  0
CIRCLE
  5
48A
330
A
100
AcDbEntity
  8
25
100
AcDbCircle
 10
-167.2185769800785
 20
39.49330536341995
 30
0.0
 40
2.999999000000001
  0
CIRCLE
  5
48B
102
{ACAD_REACTORS
330
4F2
102
}
330
A
100
AcDbEntity
  8
25
100
AcDbCircle
 10
-186.7185619800785
 20
50.49328236341989
 30
0.0
 40
4.999999
  0
CIRCLE
  5
48C
102
{ACAD_REACTORS
330
4F2
102
}
330
A
100
AcDbEntity
  8
25
100
AcDbCircle
 10
-147.7185769800785
 20
50.49328236341989
 30
0.0
 40
4.999999
  0
ARC
  5
48D
102
{ACAD_REACTORS
330
4FA
102
}
330
A
100
AcDbEntity
  8
25
100
AcDbCircle
 10
-138.2185769800785
 20
31.49328936341999
 30
0.0
 40
1.999999000000002
100
AcDbArc
 50
270.0000180000122
 51
0.0
  0
ARC
  5
48E
330
A
100
AcDbEntity
  8
25
100
AcDbCircle
 10
-140.7185619800785
 20
33.49328936341999
 30
0.0
 40
1.999999000000002
100
AcDbArc
 50
270.0000180000122
 51
0.0
  0
ARC
  5
48F
330
A
100
AcDbEntity
  8
25
100
AcDbCircle
 10
-140.7185619800785
 20
86.49324436341998
 30
0.0
 40
1.999999000000002
100
AcDbArc
 50
0.0
 51
89.99998199998776
  0
ARC
  5
490
330
A
100
AcDbEntity
  8
25
100
AcDbCircle
 10
-138.2185769800785
 20
88.49324436342
 30
0.0
 40
1.999999000000002
100
AcDbArc
 50
0.0
 51
89.99998199998776
  0
ARC
  5
491
102
{ACAD_REACTORS
330
4FA
102
}
330
A
100
AcDbEntity
  8
25
100
AcDbCircle
 10
-195.2185769800785
 20
31.49328936341999
 30
0.0
 40
1.999999000000002
100
AcDbArc
 50
179.999963999995
 51
270.0000009999949
  0
ARC
  5
492
330
A
100
AcDbEntity
  8
25
100
AcDbCircle
 10
-192.7185769800785
 20
33.49328936341999
 30
0.0
 40
1.999999000000002
100
AcDbArc
 50
179.999963999995
 51
270.0000009999949
  0
ARC
  5
493
330
A
100
AcDbEntity
  8
25
100
AcDbCircle
 10
-195.2185769800785
 20
88.49324436342
 30
0.0
 40
1.999999000000002
100
AcDbArc
 50
89.99998199998776
 51
179.999963999995
  0
ARC
  5
494
330
A
100
AcDbEntity
  8
25
100
AcDbCircle
 10
-192.7185769800785
 20
86.49324436341998
 30
0.0
 40
1.999999000000002
100
AcDbArc
 50
89.99998199998776
 51
179.999963999995
  0
LINE
  5
495
330
A
100
AcDbEntity
  8
25
  6
DASHDOT2
100
AcDbLine
 10
-166.7185769800785
 20
-20.50671063658001
 30
0.0
 11
-166.7185769800785
 21
-90.50671063658001
 31
0.0
  0
LINE
  5
496
330
A
100
AcDbEntity
  8
25
  6
DASHDOT2
100
AcDbLine
 10
-131.7185769800785
 20
-55.50671063658001
 30
0.0
 11
-201.7185769800785
 21
-55.50671063658001
 31
0.0
  0
LINE
  5
497
102
{ACAD_REACTORS
330
4DF
102
}
330
A
100
AcDbEntity
  8
25
100
AcDbLine
 10
-66.7186019800784
 20
90.49322636341988
 30
0.0
 11
-66.71858698007878
 21
29.49352336341986
 31
0.0
  0
LINE
  5
498
330
A
100
AcDbEntity
  8
25
100
AcDbLine
 10
19.78087301992167
 20
35.49351836341998
 30
0.0
 11
22.78087301992122
 21
35.49351836341998
 31
0.0
  0
LINE
  5
499
330
A
100
AcDbEntity
  8
25
100
AcDbLine
 10
19.78087301992167
 20
84.49324436341997
 30
0.0
 11
22.78087301992122
 21
84.49324436341997
 31
0.0
  0
LINE
  5
49A
330
A
100
AcDbEntity
  8
25
100
AcDbLine
 10
-53.71859298007853
 20
37.49351836341997
 30
0.0
 11
-53.71859298007853
 21
34.49351836341998
 31
0.0
  0
LINE
  5
49B
330
A
100
AcDbEntity
  8
25
100
AcDbLine
 10
-53.71859298007853
 20
85.49324436341997
 30
0.0
 11
-53.71859298007853
 21
82.49324436341998
 31
0.0
  0
LINE
  5
49C
330
A
100
AcDbEntity
  8
25
100
AcDbLine
 10
-66.71859298007854
 20
34.49351836341998
 30
0.0
 11
-53.71859298007853
 21
34.49351836341998
 31
0.0
  0
LINE
  5
49D
330
A
100
AcDbEntity
  8
25
100
AcDbLine
 10
-66.71859298007854
 20
37.49351836341997
 30
0.0
 11
-53.71859298007853
 21
37.49351836341997
 31
0.0
  0
LINE
  5
49E
330
A
100
AcDbEntity
  8
25
100
AcDbLine
 10
-66.71859298007854
 20
82.49324436341998
 30
0.0
 11
-53.71859298007853
 21
82.49324436341998
 31
0.0
  0
LINE
  5
49F
102
{ACAD_REACTORS
330
4EB
102
}
330
A
100
AcDbEntity
  8
25
100
AcDbLine
 10
-66.71859298007854
 20
85.49324436341997
 30
0.0
 11
-53.71859298007853
 21
85.49324436341997
 31
0.0
  0
LINE
  5
4A0
330
A
100
AcDbEntity
  8
25
100
AcDbLine
 10
-84.96665098007865
 20
46.27428936341993
 30
0.0
 11
-78.71858298007879
 21
45.49328136342
 31
0.0
  0
LINE
  5
4A1
330
A
100
AcDbEntity
  8
25
100
AcDbLine
 10
-84.96665198007853
 20
54.71227636341996
 30
0.0
 11
-78.71858398007869
 21
55.4932843634199
 31
0.0
  0
LINE
  5
4A2
330
A
100
AcDbEntity
  8
25
100
AcDbLine
 10
19.78087301992167
 20
85.99324436342
 30
0.0
 11
19.78087301992167
 21
33.99351836341998
 31
0.0
  0
LINE
  5
4A3
102
{ACAD_REACTORS
330
4EB
102
}
330
A
100
AcDbEntity
  8
25
100
AcDbLine
 10
-77.80144398007866
 20
89.56981936341994
 30
0.0
 11
-66.71851798007861
 21
90.49339636341983
 31
0.0
  0
LINE
  5
4A4
330
A
100
AcDbEntity
  8
25
100
AcDbLine
 10
-77.80147698007844
 20
30.41761836341994
 30
0.0
 11
-66.7185549800784
 21
29.49404236342002
 31
0.0
  0
LINE
  5
4A5
102
{ACAD_REACTORS
330
4E8
102
}
330
A
100
AcDbEntity
  8
25
100
AcDbLine
 10
-66.71859298007854
 20
31.99351836341998
 30
0.0
 11
17.78087301992167
 21
31.99351836341998
 31
0.0
  0
LINE
  5
4A6
102
{ACAD_REACTORS
330
4E8
102
}
330
A
100
AcDbEntity
  8
25
100
AcDbLine
 10
-66.71859298007854
 20
87.99324436341999
 30
0.0
 11
17.78087301992167
 21
87.99324436341999
 31
0.0
  0
LINE
  5
4A7
330
A
100
AcDbEntity
  8
25
100
AcDbLine
 10
-78.71859298007854
 20
88.57307836341988
 30
0.0
 11
-78.71859298007854
 21
31.41368436341986
 31
0.0
  0
LINE
  5
4A8
330
A
100
AcDbEntity
  8
25
100
AcDbLine
 10
-86.71860798007861
 20
52.72771836341984
 30
0.0
 11
-86.71860798007861
 21
48.25884636341993
 31
0.0
  0
LINE
  5
4A9
102
{ACAD_REACTORS
330
4E2
102
}
330
A
100
AcDbEntity
  8
25
100
AcDbLine
 10
22.78087301992122
 20
84.49324436341997
 30
0.0
 11
22.78087301992122
 21
35.49351836341998
 31
0.0
  0
LINE
  5
4AA
330
A
100
AcDbEntity
  8
25
100
AcDbLine
 10
151.7813000199215
 20
86.49324436341998
 30
0.0
 11
151.7813000199215
 21
33.49328936341999
 31
0.0
  0
LINE
  5
4AB
330
A
100
AcDbEntity
  8
25
100
AcDbLine
 10
96.78128501992159
 20
31.49328936341999
 30
0.0
 11
149.7813000199216
 21
31.49328936341999
 31
0.0
  0
LINE
  5
4AC
330
A
100
AcDbEntity
  8
25
100
AcDbLine
 10
94.78130001992157
 20
86.49324436341998
 30
0.0
 11
94.78130001992157
 21
33.49328936341999
 31
0.0
  0
LINE
  5
4AD
330
A
100
AcDbEntity
  8
25
100
AcDbLine
 10
96.78128501992159
 20
88.49324436342
 30
0.0
 11
149.7813000199216
 21
88.49324436342
 31
0.0
  0
LINE
  5
4AE
330
A
100
AcDbEntity
  8
25
100
AcDbLine
 10
94.78130001992157
 20
90.49324436341999
 30
0.0
 11
151.7813000199215
 21
90.49324436341999
 31
0.0
  0
LINE
  5
4AF
330
A
100
AcDbEntity
  8
25
100
AcDbLine
 10
153.7813000199215
 20
88.49324436342
 30
0.0
 11
153.7813000199215
 21
31.49328936341999
 31
0.0
  0
LINE
  5
4B0
330
A
100
AcDbEntity
  8
25
100
AcDbLine
 10
92.78131601992157
 20
88.49324436342
 30
0.0
 11
92.78131601992157
 21
31.49328936341999
 31
0.0
  0
LINE
  5
4B1
330
A
100
AcDbEntity
  8
25
100
AcDbLine
 10
-174.6191249800786
 20
81.46406936341987
 30
0.0
 11
-170.5687529800784
 21
58.49325736341985
 31
0.0
  0
LINE
  5
4B2
330
A
100
AcDbEntity
  8
25
100
AcDbLine
 10
-189.4510989800788
 20
78.00121436341988
 30
0.0
 11
-178.1881819800787
 21
58.49327136341992
 31
0.0
  0
LINE
  5
4B3
330
A
100
AcDbEntity
  8
25
100
AcDbLine
 10
-163.8683489800787
 20
58.49328436341989
 30
0.0
 11
-159.8482099800785
 21
81.29263836341989
 31
0.0
  0
LINE
  5
4B4
330
A
100
AcDbEntity
  8
25
100
AcDbLine
 10
94.78130001992157
 20
29.49328936341999
 30
0.0
 11
151.7813000199215
 21
29.49328936341999
 31
0.0
  0
LINE
  5
4B5
330
A
100
AcDbEntity
  8
25
100
AcDbLine
 10
-194.7185769800785
 20
58.4932743634199
 30
0.0
 11
-138.7185769800785
 21
58.4932743634199
 31
0.0
  0
LINE
  5
4B6
330
A
100
AcDbEntity
  8
25
100
AcDbLine
 10
-192.7185769800785
 20
31.49328936341999
 30
0.0
 11
-140.7185619800785
 21
31.49328936341999
 31
0.0
  0
LINE
  5
4B7
330
A
100
AcDbEntity
  8
25
100
AcDbLine
 10
-194.7185769800785
 20
86.49324436341998
 30
0.0
 11
-194.7185769800785
 21
33.49328936341999
 31
0.0
  0
LINE
  5
4B8
330
A
100
AcDbEntity
  8
25
100
AcDbLine
 10
-192.7185769800785
 20
88.49324436342
 30
0.0
 11
-140.7185619800785
 21
88.49324436342
 31
0.0
  0
LINE
  5
4B9
330
A
100
AcDbEntity
  8
25
100
AcDbLine
 10
-138.7185769800785
 20
86.49324436341998
 30
0.0
 11
-138.7185769800785
 21
33.49328936341999
 31
0.0
  0
LINE
  5
4BA
330
A
100
AcDbEntity
  8
25
100
AcDbLine
 10
-197.2185769800785
 20
88.49324436342
 30
0.0
 11
-197.2185769800785
 21
31.49328936341999
 31
0.0
  0
LINE
  5
4BB
330
A
100
AcDbEntity
  8
25
100
AcDbLine
 10
-136.2185929800785
 20
88.49324436342
 30
0.0
 11
-136.2185929800785
 21
31.49328936341999
 31
0.0
  0
LINE
  5
4BC
330
A
100
AcDbEntity
  8
1
100
AcDbLine
 10
24.78087301992122
 20
89.99351836341999
 30
0.0
 11
26.28087301992122
 21
89.99351836341999
 31
0.0
  0
LINE
  5
4BD
330
A
100
AcDbEntity
  8
1
100
AcDbLine
 10
24.78087301992122
 20
34.49161117796008
 30
0.0
 11
24.78087301992122
 21
89.99351836341999
 31
0.0
  0
LINE
  5
4BE
330
A
100
AcDbEntity
  8
1
100
AcDbLine
 10
26.28087301992122
 20
89.99351836341999
 30
0.0
 11
26.28087301992122
 21
34.49351836341998
 31
0.0
  0
LINE
  5
4BF
330
A
100
AcDbEntity
  8
1
100
AcDbLine
 10
24.78087301992122
 20
34.49351836341998
 30
0.0
 11
26.28087301992122
 21
34.49351836341998
 31
0.0
  0
LINE
  5
4C0
330
A
100
AcDbEntity
  8
1
100
AcDbLine
 10
22.78087301992122
 20
64.74351836341998
 30
0.0
 11
24.78087301992122
 21
64.74351836341998
 31
0.0
  0
LINE
  5
4C1
102
{ACAD_REACTORS
330
4E5
102
}
330
A
100
AcDbEntity
  8
1
  6
DASHDOT2
100
AcDbLine
 10
21.24378317093345
 20
62.24351836341998
 30
0.0
 11
30.62255976496813
 21
62.24351836341987
 31
0.0
  0
LINE
  5
4C2
330
A
100
AcDbEntity
  8
1
100
AcDbLine
 10
22.78087301992122
 20
59.74351836341998
 30
0.0
 11
24.78087301992122
 21
59.74351836341998
 31
0.0
  0
CIRCLE
  5
4C3
330
A
100
AcDbEntity
  8
1
100
AcDbCircle
 10
123.2813080199216
 20
62.24326686341989
 30
0.0
 40
27.75
  0
ARC
  5
4C4
330
A
100
AcDbEntity
  8
1
100
AcDbCircle
 10
26.98187301992124
 20
61.34351836341989
 30
0.0
 40
1.5
100
AcDbArc
 50
282.1009999999978
 51
0.0230000000012995
  0
ARC
  5
4C5
330
A
100
AcDbEntity
  8
1
100
AcDbCircle
 10
26.98187301992124
 20
63.14351836341985
 30
0.0
 40
1.5
100
AcDbArc
 50
0.0230000000012995
 51
77.88799999998866
  0
LINE
  5
4C6
102
{ACAD_REACTORS
330
4E5
102
}
330
A
100
AcDbEntity
  8
1
100
AcDbLine
 10
28.48187301992123
 20
61.34351836341989
 30
0.0
 11
28.48187301992123
 21
63.14351836341985
 31
0.0
  0
LINE
  5
4C7
330
A
100
AcDbEntity
  8
1
100
AcDbLine
 10
27.28187301992142
 20
59.84351836341989
 30
0.0
 11
26.48187301992124
 21
59.64351836341985
 31
0.0
  0
LINE
  5
4C8
330
A
100
AcDbEntity
  8
1
100
AcDbLine
 10
26.28087301992122
 20
59.84351836341989
 30
0.0
 11
26.48187301992124
 21
59.64351836341985
 31
0.0
  0
LINE
  5
4C9
330
A
100
AcDbEntity
  8
1
100
AcDbLine
 10
26.28087301992122
 20
59.84351836341989
 30
0.0
 11
26.28087301992167
 21
64.64351836341984
 31
0.0
  0
LINE
  5
4CA
330
A
100
AcDbEntity
  8
1
100
AcDbLine
 10
27.28187301992142
 20
64.64351836341984
 30
0.0
 11
26.48187301992124
 21
64.84351836341989
 31
0.0
  0
LINE
  5
4CB
330
A
100
AcDbEntity
  8
1
100
AcDbLine
 10
26.28087301992167
 20
64.64351836341984
 30
0.0
 11
26.48187301992124
 21
64.84351836341989
 31
0.0
  0
LINE
  5
4CC
330
A
100
AcDbEntity
  8
1
100
AcDbLine
 10
26.28087301992122
 20
59.24351836341998
 30
0.0
 11
26.28087301992167
 21
65.24351836341998
 31
0.0
  0
INSERT
  5
4CD
330
A
100
AcDbEntity
  8
0
100
AcDbBlockReference
  2
*G341817
 10
-298.9815460384921
 20
-249.0093490415188
 30
0.0
  0
LINE
  5
4CE
330
A
100
AcDbEntity
  8
1
100
AcDbLine
 10
103.2813305913404
 20
59.68426686341991
 30
0.0
 11
103.2813305913404
 21
60.30226686341984
 31
0.0
  0
LINE
  5
4CF
330
A
100
AcDbEntity
  8
1
100
AcDbLine
 10
102.9723305913402
 20
59.99326686341987
 30
0.0
 11
103.5903305913401
 21
59.99326686341987
 31
0.0
  0
INSERT
  5
4D0
330
A
100
AcDbEntity
  8
0
100
AcDbBlockReference
  2
*G351918
 10
-298.9815460384921
 20
-249.0093490415188
 30
0.0
  0
LINE
  5
4D1
330
A
100
AcDbEntity
  8
1
100
AcDbLine
 10
143.2812854485022
 20
59.68426686341991
 30
0.0
 11
143.2812854485022
 21
60.30226686341984
 31
0.0
  0
LINE
  5
4D2
330
A
100
AcDbEntity
  8
1
100
AcDbLine
 10
143.5902854485024
 20
59.99326686341987
 30
0.0
 11
142.9722854485024
 21
59.99326686341987
 31
0.0
  0
MTEXT
  5
4D3
330
A
100
AcDbEntity
  8
TXT1
 48
0.5
100
AcDbMText
 10
-116.092662364214
 20
-83.13123737062246
 30
0.0
 40
6.0
 41
105.7709502812357
 71
     1
 72
     5
  1
Panel Cut
  7
Standard
 73
     1
 44
1.0
1001
ACAD
1000
ACAD_MTEXT_DEFINED_HEIGHT_BEGIN
1070
    46
1040
0.0
1000
ACAD_MTEXT_DEFINED_HEIGHT_END
  0
DIMENSION
  5
4D4
102
{ACAD_XDICTIONARY
360
4D5
102
}
102
{ACAD_REACTORS
330
4D6
102
}
330
A
100
AcDbEntity
  8
SCALE
 48
0.5
100
AcDbDimension
  2
*D40
 10
170.7698247014826
 20
35.99328936341999
 30
0.0
 11
167.1448247014826
 21
59.99326686342001
 31
0.0
 70
    32
 71
     5
 42
47.99995499999999
  3
ISO-25
100
AcDbAlignedDimension
 13
147.2812850199215
 23
83.99324436341997
 33
0.0
 14
147.2812850199215
 24
35.99328936341999
 34
0.0
 50
90.0
100
AcDbRotatedDimension
1001
ACAD
1000
DSTYLE
1002
{
1070
   140
1040
6.0
1002
}
  0
DIMENSION
  5
4D7
102
{ACAD_XDICTIONARY
360
4D8
102
}
102
{ACAD_REACTORS
330
4D9
102
}
330
A
100
AcDbEntity
  8
SCALE
 48
0.5
100
AcDbDimension
  2
*D41
 10
99.28130001992158
 20
15.12765778342862
 30
0.0
 11
123.2812925199215
 21
18.75265778342862
 31
0.0
 70
    32
 71
     5
 42
47.99998499999992
  3
ISO-25
100
AcDbAlignedDimension
 13
147.2812850199215
 23
35.99328936341999
 33
0.0
 14
99.28130001992158
 24
35.99328936341999
 34
0.0
100
AcDbRotatedDimension
1001
ACAD
1000
DSTYLE
1002
{
1070
   140
1040
6.0
1002
}
  0
DIMENSION
  5
4DA
102
{ACAD_XDICTIONARY
360
4DB
102
}
102
{ACAD_REACTORS
330
4DC
102
}
330
A
100
AcDbEntity
  8
SCALE
 48
0.5
100
AcDbDimension
  2
*D42
 10
-78.71859298007257
 20
13.73318945605564
 30
0.0
 11
-82.7185999800754
 21
17.35818945605564
 31
0.0
 70
    32
 71
     5
 42
8.000014000005647
  3
ISO-25
100
AcDbAlignedDimension
 13
-86.71860698007822
 23
48.25884762005654
 33
0.0
 14
-78.71859298007257
 24
31.41368785407844
 34
0.0
100
AcDbRotatedDimension
1001
ACAD
1000
DSTYLE
1002
{
1070
   140
1040
6.0
1002
}
  0
DIMENSION
  5
4DD
102
{ACAD_XDICTIONARY
360
4DE
102
}
102
{ACAD_REACTORS
330
4DF
102
}
330
A
100
AcDbEntity
  8
SCALE
 48
0.5
100
AcDbDimension
  2
*D43
 10
-66.71858698007878
 20
13.73318945605558
 30
0.0
 11
-72.7185899800757
 21
17.35818945605558
 31
0.0
 70
    32
 71
     5
 42
12.00000599999384
  3
ISO-25
100
AcDbAlignedDimension
 13
-78.71859298007263
 23
13.73318945605558
 33
0.0
 14
-66.71858698007878
 24
29.49352336341986
 34
0.0
100
AcDbRotatedDimension
1001
ACAD
1000
DSTYLE
1002
{
1070
   140
1040
6.0
1002
}
  0
DIMENSION
  5
4E0
102
{ACAD_XDICTIONARY
360
4E1
102
}
102
{ACAD_REACTORS
330
4E2
102
}
330
A
100
AcDbEntity
  8
SCALE
 48
0.5
100
AcDbDimension
  2
*D44
 10
22.78087301992122
 20
13.73318945605558
 30
0.0
 11
-21.96885698007879
 21
17.35818945605558
 31
0.0
 70
    32
 71
     5
 42
89.49946
  3
ISO-25
100
AcDbAlignedDimension
 13
-66.71858698007878
 23
13.73318945605558
 33
0.0
 14
22.78087301992122
 24
35.49351836341998
 34
0.0
100
AcDbRotatedDimension
1001
ACAD
1000
DSTYLE
1002
{
1070
   140
1040
6.0
1002
}
  0
DIMENSION
  5
4E3
102
{ACAD_XDICTIONARY
360
4E4
102
}
102
{ACAD_REACTORS
330
4E5
102
}
330
A
100
AcDbEntity
  8
SCALE
 48
0.5
100
AcDbDimension
  2
*D45
 10
28.48187301992123
 20
13.73318945605558
 30
0.0
 11
40.10687301992122
 21
17.35818945605558
 31
0.0
 70
    32
 71
     5
 42
5.701000000000021
  3
ISO-25
100
AcDbAlignedDimension
 13
22.78087301992122
 23
13.73318945605558
 33
0.0
 14
28.48187301992123
 24
62.24351836341987
 34
0.0
100
AcDbRotatedDimension
1001
ACAD
1000
DSTYLE
1002
{
1070
   140
1040
6.0
1002
}
  0
DIMENSION
  5
4E6
102
{ACAD_XDICTIONARY
360
4E7
102
}
102
{ACAD_REACTORS
330
4E8
102
}
330
A
100
AcDbEntity
  8
SCALE
 48
0.5
100
AcDbDimension
  2
*D46
 10
-0.5704625883504946
 20
31.99351836341998
 30
0.0
 11
-4.195462588350498
 21
59.99338136341997
 31
0.0
 70
    32
  1
Φ<>
 71
     5
 42
55.999726
  3
ISO-25
100
AcDbAlignedDimension
 13
17.78087301992167
 23
87.99324436341999
 33
0.0
 14
17.78087301992167
 24
31.99351836341998
 34
0.0
 50
90.0
100
AcDbRotatedDimension
1001
ACAD
1000
DSTYLE
1002
{
1070
   140
1040
6.0
1002
}
  0
DIMENSION
  5
4E9
102
{ACAD_XDICTIONARY
360
4EA
102
}
102
{ACAD_REACTORS
330
4EB
102
}
330
A
100
AcDbEntity
  8
SCALE
 48
0.5
100
AcDbDimension
  2
*D47
 10
-66.71851798007861
 20
96.31243459907627
 30
0.0
 11
-60.21855548007859
 21
99.93743459907626
 31
0.0
 70
    32
 71
     5
 42
12.99992500000007
  3
ISO-25
100
AcDbAlignedDimension
 13
-53.71859298007853
 23
85.49324436341997
 33
0.0
 14
-66.71851798007861
 24
90.49339636341983
 34
0.0
100
AcDbRotatedDimension
1001
ACAD
1000
DSTYLE
1002
{
1070
   140
1040
6.0
1002
}
  0
LEADER
  5
4EC
330
A
100
AcDbEntity
  8
SCALE
 48
0.5
100
AcDbLeader
  3
ISO-25
 73
     0
 40
6.0
 41
24.00000000000001
 76
     3
 10
-54.8038674357436
 20
84.38718353607681
 30
0.0
 10
-45.7848509974197
 20
94.60464243221384
 30
0.0
 10
-44.88294935358732
 20
94.60464243221384
 30
0.0
340
4ED
213
0.0
223
-2.0
233
0.0
1001
ACAD
1000
DSTYLE
1002
{
1070
   147
1040
0.625
1070
    77
1070
     0
1002
}
  0
MTEXT
  5
4ED
102
{ACAD_REACTORS
330
4EC
102
}
330
A
100
AcDbEntity
  8
SCALE
 48
0.5
100
AcDbMText
 10
-44.25794935358732
 20
96.60464243221383
 30
0.0
 40
6.0
 41
50.0
 71
     1
 72
     1
  1
\A1;4-M3
  7
Standard
 73
     1
 44
1.0
  0
DIMENSION
  5
4EE
330
A
100
AcDbEntity
  8
SCALE
 48
0.5
100
AcDbDimension
  2
*D35
 10
-203.1120038351879
 20
39.49330536341996
 30
0.0
 11
-206.2370038351879
 21
44.99329386341989
 31
0.0
 70
    32
 71
     5
 42
10.99997699999994
  3
ISO-25
100
AcDbAlignedDimension
 13
-187.2185619800784
 23
50.49328236341989
 33
0.0
 14
-167.7185769800785
 24
39.49330536341995
 34
0.0
 50
90.0
100
AcDbRotatedDimension
1001
ACAD
1000
DSTYLE
1002
{
1070
   140
1040
5.0
1002
}
  0
DIMENSION
  5
4EF
330
A
100
AcDbEntity
  8
SCALE
 48
0.5
100
AcDbDimension
  2
*D36
 10
-203.1120038351879
 20
29.49328936341999
 30
0.0
 11
-206.2370038351879
 21
34.49329736341994
 31
0.0
 70
    32
 71
     5
 42
10.00001599999996
  3
ISO-25
100
AcDbAlignedDimension
 13
-203.1120038351879
 23
39.49330536341995
 33
0.0
 14
-195.2185769800785
 24
29.49328936341999
 34
0.0
 50
90.0
100
AcDbRotatedDimension
1001
ACAD
1000
DSTYLE
1002
{
1070
   140
1040
5.0
1002
}
  0
DIMENSION
  5
4F0
102
{ACAD_XDICTIONARY
360
4F1
102
}
102
{ACAD_REACTORS
330
4F2
102
}
330
A
100
AcDbEntity
  8
SCALE
 48
0.5
100
AcDbDimension
  2
*D48
 10
-186.7185619800785
 20
18.23140513812347
 30
0.0
 11
-167.2185694800785
 21
21.85640513812348
 31
0.0
 70
    32
 71
     5
 42
38.99998499999997
  3
ISO-25
100
AcDbAlignedDimension
 13
-147.7185769800785
 23
50.49328236341989
 33
0.0
 14
-186.7185619800785
 24
50.49328236341989
 34
0.0
100
AcDbRotatedDimension
1001
ACAD
1000
DSTYLE
1002
{
1070
   140
1040
6.0
1002
}
  0
LINE
  5
4F3
102
{ACAD_REACTORS
330
4F7
102
}
330
A
100
AcDbEntity
  8
SCALE
 48
0.5
100
AcDbLine
 10
-195.21857635176
 20
90.49324336341987
 30
0.0
 11
-138.21857635176
 21
90.49324336341987
 31
0.0
  0
LINE
  5
4F4
102
{ACAD_REACTORS
330
4F7
102
}
330
A
100
AcDbEntity
  8
SCALE
 48
0.5
100
AcDbLine
 10
-138.21857635176
 20
29.4932903634201
 30
0.0
 11
-195.2185769451721
 21
29.49329036341999
 31
0.0
  0
DIMENSION
  5
4F5
102
{ACAD_XDICTIONARY
360
4F6
102
}
102
{ACAD_REACTORS
330
4F7
102
}
330
A
100
AcDbEntity
  8
SCALE
 48
0.5
100
AcDbDimension
  2
*D49
 10
-211.201355490392
 20
29.49329036341999
 30
0.0
 11
-214.826355490392
 21
59.99326686341991
 31
0.0
 70
    32
 71
     5
 42
60.9999529999999
  3
ISO-25
100
AcDbAlignedDimension
 13
-195.21857635176
 23
90.49324336341987
 33
0.0
 14
-195.2185769451721
 24
29.49329036341999
 34
0.0
 50
90.0
100
AcDbRotatedDimension
1001
ACAD
1000
DSTYLE
1002
{
1070
   140
1040
6.0
1002
}
  0
DIMENSION
  5
4F8
102
{ACAD_XDICTIONARY
360
4F9
102
}
102
{ACAD_REACTORS
330
4FA
102
}
330
A
100
AcDbEntity
  8
SCALE
 48
0.5
100
AcDbDimension
  2
*D50
 10
-136.2185779800783
 20
8.539152620072794
 30
0.0
 11
-166.7185769800782
 21
12.16415262007279
 31
0.0
 70
    32
 71
     5
 42
60.99999799999983
  3
ISO-25
100
AcDbAlignedDimension
 13
-197.2185759800781
 23
31.49329062005659
 33
0.0
 14
-136.2185779800783
 24
31.49328936342004
 34
0.0
100
AcDbRotatedDimension
1001
ACAD
1000
DSTYLE
1002
{
1070
   140
1040
6.0
1002
}
  0
DIMENSION
  5
4FB
102
{ACAD_XDICTIONARY
360
4FC
102
}
102
{ACAD_REACTORS
330
4FD
102
}
330
A
100
AcDbEntity
  8
SCALE
 48
0.5
100
AcDbDimension
  2
*D37
 10
-194.8584192329082
 20
-61.39838085697479
 30
0.0
 11
-154.1810310634766
 21
-52.8817106365801
 31
0.0
 70
   163
 71
     5
 42
57.50000000000047
  3
ISO-25
100
AcDbDiametricDimension
 15
-138.5787347272492
 25
-49.61504041618532
 35
0.0
 40
0.0
1001
ACAD
1000
DSTYLE
1002
{
1070
   174
1070
     1
1070
   289
1070
     2
1002
}
  0
DIMENSION
  5
4FE
102
{ACAD_XDICTIONARY
360
4FF
102
}
102
{ACAD_REACTORS
330
500
102
}
330
A
100
AcDbEntity
  8
SCALE
 48
0.5
100
AcDbDimension
  2
*D38
 10
-122.6856831591326
 20
-79.50671063658003
 30
0.0
 11
-126.3106831591326
 21
-55.50671063658003
 31
0.0
 70
    32
 71
     5
 42
48.0
  3
ISO-25
100
AcDbAlignedDimension
 13
-142.7185769800785
 23
-31.50671063658001
 33
0.0
 14
-142.7185769800785
 24
-79.50671063658003
 34
0.0
 50
90.0
100
AcDbRotatedDimension
1001
ACAD
1000
DSTYLE
1002
{
1070
   140
1040
6.0
1002
}
  0
DIMENSION
  5
501
102
{ACAD_XDICTIONARY
360
502
102
}
102
{ACAD_REACTORS
330
503
102
}
330
A
100
AcDbEntity
  8
SCALE
 48
0.5
100
AcDbDimension
  2
*D39
 10
-190.7185769800785
 20
-99.52973521905381
 30
0.0
 11
-166.7185769800785
 21
-95.9047352190538
 31
0.0
 70
    32
 71
     5
 42
48.0
  3
ISO-25
100
AcDbAlignedDimension
 13
-142.7185769800785
 23
-79.50671063658003
 33
0.0
 14
-190.7185769800785
 24
-79.50671063658003
 34
0.0
100
AcDbRotatedDimension
1001
ACAD
1000
DSTYLE
1002
{
1070
   140
1040
6.0
1002
}
  0
LEADER
  5
504
330
A
100
AcDbEntity
  8
SCALE
 48
0.5
100
AcDbLeader
  3
ISO-25
 73
     0
 40
6.0
 41
24.62857142857143
 76
     3
 10
-142.1997498130281
 20
-30.49849710028514
 30
0.0
 10
-134.0684721758466
 20
-19.66111586532145
 30
0.0
 10
-132.5196417448774
 20
-19.66111586532145
 30
0.0
340
505
213
0.0
223
-2.0
233
0.0
1001
ACAD
1000
DSTYLE
1002
{
1070
   147
1040
0.625
1070
    77
1070
     0
1002
}
  0
MTEXT
  5
505
102
{ACAD_REACTORS
330
504
102
}
330
A
100
AcDbEntity
  8
SCALE
 48
0.5
100
AcDbMText
 10
-131.8946417448774
 20
-17.66111586532145
 30
0.0
 40
6.0
 41
50.0
 71
     1
 72
     1
  1
\A1;4-Φ4
  7
Standard
 73
     1
 44
1.0
  0
ENDSEC
  0
SECTION
  2
OBJECTS
  0
DICTIONARY
  5
19
330
0
100
AcDbDictionary
281
     1
  3
ACAD_COLOR
350
1E0
  3
ACAD_GROUP
350
1A
  3
ACAD_LAYOUT
350
1E3
  3
ACAD_MATERIAL
350
1DF
  3
ACAD_MLINESTYLE
350
1B
  3
ACAD_PLOTSETTINGS
350
1E4
  3
ACAD_PLOTSTYLENAME
350
1DD
  3
ACAD_TABLESTYLE
350
1E1
  3
AcDbVariableDictionary
350
6A3
  3
AcmDictionary
350
241
  3
AMG
350
1EA
  3
AMGSNAPSETTINGS
350
284
  0
DICTIONARY
  5
386
330
2
100
AcDbDictionary
280
     1
281
     1
  3
ACAD_LAYERSTATES
360
387
  0
DICTIONARY
  5
4D5
330
4D4
100
AcDbDictionary
280
     1
281
     1
  3
ACAD_DIMASSOC
360
4D6
  0
DICTIONARY
  5
4D8
330
4D7
100
AcDbDictionary
280
     1
281
     1
  3
ACAD_DIMASSOC
360
4D9
  0
DICTIONARY
  5
4DB
330
4DA
100
AcDbDictionary
280
     1
281
     1
  3
ACAD_DIMASSOC
360
4DC
  0
DICTIONARY
  5
4DE
330
4DD
100
AcDbDictionary
280
     1
281
     1
  3
ACAD_DIMASSOC
360
4DF
  0
DICTIONARY
  5
4E1
330
4E0
100
AcDbDictionary
280
     1
281
     1
  3
ACAD_DIMASSOC
360
4E2
  0
DICTIONARY
  5
4E4
330
4E3
100
AcDbDictionary
280
     1
281
     1
  3
ACAD_DIMASSOC
360
4E5
  0
DICTIONARY
  5
4E7
330
4E6
100
AcDbDictionary
280
     1
281
     1
  3
ACAD_DIMASSOC
360
4E8
  0
DICTIONARY
  5
4EA
330
4E9
100
AcDbDictionary
280
     1
281
     1
  3
ACAD_DIMASSOC
360
4EB
  0
DICTIONARY
  5
4F1
330
4F0
100
AcDbDictionary
280
     1
281
     1
  3
ACAD_DIMASSOC
360
4F2
  0
DICTIONARY
  5
4F6
330
4F5
100
AcDbDictionary
280
     1
281
     1
  3
ACAD_DIMASSOC
360
4F7
  0
DICTIONARY
  5
4F9
330
4F8
100
AcDbDictionary
280
     1
281
     1
  3
ACAD_DIMASSOC
360
4FA
  0
DICTIONARY
  5
4FC
330
4FB
100
AcDbDictionary
280
     1
281
     1
  3
ACAD_DIMASSOC
360
4FD
  0
DICTIONARY
  5
4FF
330
4FE
100
AcDbDictionary
280
     1
281
     1
  3
ACAD_DIMASSOC
360
500
  0
DICTIONARY
  5
502
330
501
100
AcDbDictionary
280
     1
281
     1
  3
ACAD_DIMASSOC
360
503
  0
DICTIONARY
  5
1E0
102
{ACAD_REACTORS
330
19
102
}
330
19
100
AcDbDictionary
281
     1
  0
DICTIONARY
  5
1A
102
{ACAD_REACTORS
330
19
102
}
330
19
100
AcDbDictionary
281
     1
  0
DICTIONARY
  5
1E3
102
{ACAD_REACTORS
330
19
102
}
330
19
100
AcDbDictionary
281
     1
  3
Model
350
1E5
  3
レイアウト1
350
1E6
  0
DICTIONARY
  5
1DF
102
{ACAD_REACTORS
330
19
102
}
330
19
100
AcDbDictionary
281
     1
  0
DICTIONARY
  5
1B
102
{ACAD_REACTORS
330
19
102
}
330
19
100
AcDbDictionary
281
     1
  3
STANDARD
350
1C
  0
DICTIONARY
  5
1E4
102
{ACAD_REACTORS
330
19
102
}
330
19
100
AcDbDictionary
281
     1
  0
ACDBDICTIONARYWDFLT
  5
1DD
102
{ACAD_REACTORS
330
19
102
}
330
19
100
AcDbDictionary
281
     1
  3
Normal
350
1DE
100
AcDbDictionaryWithDefault
340
1DE
  0
DICTIONARY
  5
1E1
102
{ACAD_REACTORS
330
19
102
}
330
19
100
AcDbDictionary
281
     1
  3
Standard
350
1E2
  0
DICTIONARY
  5
6A3
102
{ACAD_REACTORS
330
19
102
}
330
19
100
AcDbDictionary
281
     1
  3
CTABLESTYLE
350
6A4
  0
DICTIONARY
  5
241
102
{ACAD_REACTORS
330
19
102
}
330
19
100
AcDbDictionary
281
     1
  3
AcmStdDictionary
350
24F
  3
AMDTSECTSYM_ARROWCOLOR
350
26D
  0
DICTIONARY
  5
1EA
102
{ACAD_REACTORS
330
19
102
}
330
19
100
AcDbDictionary
281
     1
  0
DICTIONARY
  5
284
102
{ACAD_REACTORS
330
19
102
}
330
19
100
AcDbDictionary
281
     1
  0
DICTIONARY
  5
387
102
{ACAD_REACTORS
330
386
102
}
330
386
100
AcDbDictionary
281
     1
  0
DIMASSOC
  5
4D6
102
{ACAD_REACTORS
330
4D5
102
}
330
4D5
100
AcDbDimAssoc
330
4D4
 90
        3
 70
     0
 71
     0
  1
AcDbOsnapPointRef
 72
     3
331
47B
 73
     2
 91
        0
 40
0.0
 10
0.0
 20
0.0
 30
0.0
 75
     0
  1
AcDbOsnapPointRef
 72
     3
331
47C
 73
     2
 91
        0
 40
0.0
 10
0.0
 20
0.0
 30
0.0
 75
     0
  0
DIMASSOC
  5
4D9
102
{ACAD_REACTORS
330
4D8
102
}
330
4D8
100
AcDbDimAssoc
330
4D7
 90
        3
 70
     0
 71
     0
  1
AcDbOsnapPointRef
 72
     3
331
47C
 73
     2
 91
        0
 40
0.0
 10
0.0
 20
0.0
 30
0.0
 75
     0
  1
AcDbOsnapPointRef
 72
     3
331
479
 73
     2
 91
        0
 40
0.0
 10
0.0
 20
0.0
 30
0.0
 75
     0
  0
DIMASSOC
  5
4DC
102
{ACAD_REACTORS
330
4DB
102
}
330
4DB
100
AcDbDimAssoc
330
4DA
 90
        3
 70
     0
 71
     0
  1
AcDbOsnapPointRef
 72
    13
331
478
 73
     2
 91
        0
 40
3.141592025271203
 10
0.0
 20
0.0
 30
2.000000000000000E+50
 75
     0
  1
AcDbOsnapPointRef
 72
    13
331
474
 73
     2
 91
        0
 40
3.141589162931278
 10
0.0
 20
0.0
 30
2.000000000000000E+50
 75
     0
  0
DIMASSOC
  5
4DF
102
{ACAD_REACTORS
330
4DE
102
}
330
4DE
100
AcDbDimAssoc
330
4DD
 90
        2
 70
     0
 71
     0
  1
AcDbOsnapPointRef
 72
     1
331
497
 73
     2
 91
        0
 40
0.9999999999999998
 10
0.0
 20
0.0
 30
2.000000000000000E+50
 75
     0
  0
DIMASSOC
  5
4E2
102
{ACAD_REACTORS
330
4E1
102
}
330
4E1
100
AcDbDimAssoc
330
4E0
 90
        2
 70
     0
 71
     0
  1
AcDbOsnapPointRef
 72
     1
331
4A9
 73
     2
 91
        0
 40
1.0
 10
0.0
 20
0.0
 30
2.000000000000000E+50
 75
     0
  0
DIMASSOC
  5
4E5
102
{ACAD_REACTORS
330
4E4
102
}
330
4E4
100
AcDbDimAssoc
330
4E3
 90
        2
 70
     0
 71
     0
  1
AcDbOsnapPointRef
 72
     6
331
4C6
 73
     2
 91
        0
 40
0.5
 10
0.0
 20
0.0
 30
0.0
332
4C1
 74
     2
 92
        0
 75
     0
  0
DIMASSOC
  5
4E8
102
{ACAD_REACTORS
330
4E7
102
}
330
4E7
100
AcDbDimAssoc
330
4E6
 90
        3
 70
     0
 71
     0
  1
AcDbOsnapPointRef
 72
     1
331
4A6
 73
     2
 91
        0
 40
1.0
 10
0.0
 20
0.0
 30
2.000000000000000E+50
 75
     0
  1
AcDbOsnapPointRef
 72
     1
331
4A5
 73
     2
 91
        0
 40
1.0
 10
0.0
 20
0.0
 30
2.000000000000000E+50
 75
     0
  0
DIMASSOC
  5
4EB
102
{ACAD_REACTORS
330
4EA
102
}
330
4EA
100
AcDbDimAssoc
330
4E9
 90
        3
 70
     0
 71
     0
  1
AcDbOsnapPointRef
 72
     1
331
49F
 73
     2
 91
        0
 40
1.0
 10
0.0
 20
0.0
 30
2.000000000000000E+50
 75
     0
  1
AcDbOsnapPointRef
 72
     1
331
4A3
 73
     2
 91
        0
 40
1.0
 10
0.0
 20
0.0
 30
2.000000000000000E+50
 75
     0
  0
DIMASSOC
  5
4F2
102
{ACAD_REACTORS
330
4F1
102
}
330
4F1
100
AcDbDimAssoc
330
4F0
 90
        3
 70
     0
 71
     0
  1
AcDbOsnapPointRef
 72
     3
331
48C
 73
     2
 91
        0
 40
0.0
 10
0.0
 20
0.0
 30
0.0
 75
     0
  1
AcDbOsnapPointRef
 72
     3
331
48B
 73
     2
 91
        0
 40
0.0
 10
0.0
 20
0.0
 30
0.0
 75
     0
  0
DIMASSOC
  5
4F7
102
{ACAD_REACTORS
330
4F6
102
}
330
4F6
100
AcDbDimAssoc
330
4F5
 90
        3
 70
     0
 71
     0
  1
AcDbOsnapPointRef
 72
    13
331
4F3
 73
     2
 91
        0
 40
0.0
 10
0.0
 20
0.0
 30
2.000000000000000E+50
 75
     0
  1
AcDbOsnapPointRef
 72
     1
331
4F4
 73
     2
 91
        0
 40
1.0
 10
0.0
 20
0.0
 30
2.000000000000000E+50
 75
     0
  0
DIMASSOC
  5
4FA
102
{ACAD_REACTORS
330
4F9
102
}
330
4F9
100
AcDbDimAssoc
330
4F8
 90
        3
 70
     0
 71
     0
  1
AcDbOsnapPointRef
 72
    13
331
491
 73
     2
 91
        0
 40
3.141592025271203
 10
0.0
 20
0.0
 30
2.000000000000000E+50
 75
     0
  1
AcDbOsnapPointRef
 72
     1
331
48D
 73
     2
 91
        0
 40
6.283185307179584
 10
0.0
 20
0.0
 30
2.000000000000000E+50
 75
     0
  0
DIMASSOC
  5
4FD
102
{ACAD_REACTORS
330
4FC
102
}
330
4FC
100
AcDbDimAssoc
330
4FB
 90
        2
 70
     0
 71
     0
  1
AcDbOsnapPointRef
 72
     3
331
471
 73
     2
 91
        0
 40
0.0
 10
0.0
 20
0.0
 30
0.0
 75
     0
  0
DIMASSOC
  5
500
102
{ACAD_REACTORS
330
4FF
102
}
330
4FF
100
AcDbDimAssoc
330
4FE
 90
        3
 70
     0
 71
     0
  1
AcDbOsnapPointRef
 72
     3
331
470
 73
     2
 91
        0
 40
0.0
 10
0.0
 20
0.0
 30
0.0
 75
     0
  1
AcDbOsnapPointRef
 72
     3
331
46F
 73
     2
 91
        0
 40
0.0
 10
0.0
 20
0.0
 30
0.0
 75
     0
  0
DIMASSOC
  5
503
102
{ACAD_REACTORS
330
502
102
}
330
502
100
AcDbDimAssoc
330
501
 90
        3
 70
     0
 71
     0
  1
AcDbOsnapPointRef
 72
     3
331
46F
 73
     2
 91
        0
 40
0.0
 10
0.0
 20
0.0
 30
0.0
 75
     0
  1
AcDbOsnapPointRef
 72
     3
331
46E
 73
     2
 91
        0
 40
0.0
 10
0.0
 20
0.0
 30
0.0
 75
     0
  0
LAYOUT
  5
1E5
102
{ACAD_REACTORS
330
1E3
102
}
330
1E3
100
AcDbPlotSettings
  1

  2
RICOH imagio Neo 602 RPCS
  4

  6

 40
0.0
 41
0.0
 42
0.0
 43
0.0
 44
0.0
 45
0.0
 46
0.0
 47
0.0
 48
0.0
 49
0.0
140
0.0
141
0.0
142
1.0
143
1.0
 70
  1712
 72
     0
 73
     0
 74
     0
  7

 75
     0
147
1.0
 76
     0
 77
     2
 78
   300
148
0.0
149
0.0
100
AcDbLayout
  1
Model
 70
     1
 71
     0
 10
0.0
 20
0.0
 11
12.0
 21
9.0
 12
0.0
 22
0.0
 32
0.0
 14
0.0
 24
0.0
 34
0.0
 15
0.0
 25
0.0
 35
0.0
146
0.0
 13
0.0
 23
0.0
 33
0.0
 16
1.0
 26
0.0
 36
0.0
 17
0.0
 27
1.0
 37
0.0
 76
     0
330
A
  0
LAYOUT
  5
1E6
102
{ACAD_REACTORS
330
1E3
102
}
330
1E3
100
AcDbPlotSettings
  1

  2
RICOH imagio Neo 602 RPCS
  4

  6

 40
0.0
 41
0.0
 42
0.0
 43
0.0
 44
0.0
 45
0.0
 46
0.0
 47
0.0
 48
0.0
 49
0.0
140
0.0
141
0.0
142
1.0
143
1.0
 70
   688
 72
     0
 73
     0
 74
     5
  7

 75
    16
147
1.0
 76
     0
 77
     2
 78
   300
148
0.0
149
0.0
100
AcDbLayout
  1
レイアウト1
 70
     0
 71
     1
 10
0.0
 20
0.0
 11
12.0
 21
9.0
 12
0.0
 22
0.0
 32
0.0
 14
1.000000000000000E+20
 24
1.000000000000000E+20
 34
1.000000000000000E+20
 15
-1.000000000000000E+20
 25
-1.000000000000000E+20
 35
-1.000000000000000E+20
146
0.0
 13
0.0
 23
0.0
 33
0.0
 16
1.0
 26
0.0
 36
0.0
 17
0.0
 27
1.0
 37
0.0
 76
     0
330
B
  0
MLINESTYLE
  5
1C
102
{ACAD_REACTORS
330
1B
102
}
330
1B
100
AcDbMlineStyle
  2
STANDARD
 70
     0
  3

 62
     0
 51
90.0
 52
90.0
 71
     2
 49
0.5
 62
   256
  6
BYLAYER
 49
-0.5
 62
   256
  6
BYLAYER
  0
ACDBPLACEHOLDER
  5
1DE
102
{ACAD_REACTORS
330
1DD
102
}
330
1DD
  0
TABLESTYLE
  5
1E2
102
{ACAD_REACTORS
330
1E1
102
}
330
1E1
100
AcDbTableStyle
  3
Standard
 70
     0
 71
     0
 40
1.5
 41
1.5
280
     0
281
     0
  7
MX_NOTE_STANDARD
140
4.5
170
     2
 62
     0
 63
     7
283
     0
274
    -2
284
     1
 64
     0
275
    -2
285
     1
 65
     0
276
    -2
286
     1
 66
     0
277
    -2
287
     1
 67
     0
278
    -2
288
     1
 68
     0
279
    -2
289
     1
 69
     0
  7
MX_NOTE_STANDARD
140
6.0
170
     5
 62
     0
 63
     7
283
     0
274
    -2
284
     1
 64
     0
275
    -2
285
     1
 65
     0
276
    -2
286
     1
 66
     0
277
    -2
287
     1
 67
     0
278
    -2
288
     1
 68
     0
279
    -2
289
     1
 69
     0
  7
MX_NOTE_STANDARD
140
4.5
170
     5
 62
     0
 63
     7
283
     0
274
    -2
284
     1
 64
     0
275
    -2
285
     1
 65
     0
276
    -2
286
     1
 66
     0
277
    -2
287
     1
 67
     0
278
    -2
288
     1
 68
     0
279
    -2
289
     1
 69
     0
  0
DICTIONARYVAR
  5
6A4
102
{ACAD_REACTORS
330
6A3
102
}
330
6A3
100
DictionaryVariables
280
     0
  1
STANDARD
  0
DICTIONARY
  5
24F
102
{ACAD_REACTORS
330
241
102
}
330
241
100
AcDbDictionary
281
     1
  0
XRECORD
  5
26D
102
{ACAD_REACTORS
330
241
102
}
330
241
100
AcDbXrecord
280
     1
 90
-1023410169
  0
ENDSEC
  0
EOF
