  0
SECTION
  2
HEADER
  9
$ACADVER
  1
AC1018
  9
$ACADMAINTVER
 70
    77
  9
$DWGCODEPAGE
  3
ANSI_932
  9
$INSBASE
 10
0.0
 20
0.0
 30
0.0
  9
$EXTMIN
 10
-304.5191250258049
 20
-210.0667229251931
 30
-0.0015258207003583
  9
$EXTMAX
 10
289.5016833715311
 20
210.0203000664115
 30
0.0000000349246037
  9
$LIMMIN
 10
-304.5
 20
-210.0
  9
$LIMMAX
 10
289.5
 20
210.0
  9
$ORTHOMODE
 70
     0
  9
$REGENMODE
 70
     1
  9
$FILLMODE
 70
     1
  9
$QTEXTMODE
 70
     0
  9
$MIRRTEXT
 70
     1
  9
$LTSCALE
 40
1.0
  9
$ATTMODE
 70
     1
  9
$TEXTSIZE
 40
0.2
  9
$TRACEWID
 40
0.05
  9
$TEXTSTYLE
  7
Standard
  9
$CLAYER
  8
0
  9
$CELTYPE
  6
CONTINUOUS
  9
$CECOLOR
 62
   256
  9
$CELTSCALE
 40
1.0
  9
$DISPSILH
 70
     0
  9
$DIMSCALE
 40
1.0
  9
$DIMASZ
 40
2.5
  9
$DIMEXO
 40
1.27
  9
$DIMDLI
 40
3.75
  9
$DIMRND
 40
0.0
  9
$DIMDLE
 40
0.0
  9
$DIMEXE
 40
1.199999999999999
  9
$DIMTP
 40
0.0
  9
$DIMTM
 40
0.0
  9
$DIMTXT
 40
4.166999999999998
  9
$DIMCEN
 40
2.5
  9
$DIMTSZ
 40
0.0
  9
$DIMTOL
 70
     0
  9
$DIMLIM
 70
     0
  9
$DIMTIH
 70
     0
  9
$DIMTOH
 70
     0
  9
$DIMSE1
 70
     0
  9
$DIMSE2
 70
     0
  9
$DIMTAD
 70
     1
  9
$DIMZIN
 70
     8
  9
$DIMBLK
  1

  9
$DIMASO
 70
     1
  9
$DIMSHO
 70
     1
  9
$DIMPOST
  1

  9
$DIMAPOST
  1

  9
$DIMALT
 70
     0
  9
$DIMALTD
 70
     4
  9
$DIMALTF
 40
0.03937
  9
$DIMLFAC
 40
1.0
  9
$DIMTOFL
 70
     1
  9
$DIMTVP
 40
0.0
  9
$DIMTIX
 70
     0
  9
$DIMSOXD
 70
     0
  9
$DIMSAH
 70
     0
  9
$DIMBLK1
  1

  9
$DIMBLK2
  1

  9
$DIMSTYLE
  2
MXDIMSTYLE
  9
$DIMCLRD
 70
     0
  9
$DIMCLRE
 70
     0
  9
$DIMCLRT
 70
     0
  9
$DIMTFAC
 40
1.0
  9
$DIMGAP
 40
1.0
  9
$DIMJUST
 70
     0
  9
$DIMSD1
 70
     0
  9
$DIMSD2
 70
     0
  9
$DIMTOLJ
 70
     1
  9
$DIMTZIN
 70
     0
  9
$DIMALTZ
 70
     0
  9
$DIMALTTZ
 70
     0
  9
$DIMUPT
 70
     1
  9
$DIMDEC
 70
     4
  9
$DIMTDEC
 70
     4
  9
$DIMALTU
 70
     2
  9
$DIMALTTD
 70
     4
  9
$DIMTXSTY
  7
MX_NOTE_STANDARD
  9
$DIMAUNIT
 70
     0
  9
$DIMADEC
 70
     0
  9
$DIMALTRND
 40
0.0
  9
$DIMAZIN
 70
     0
  9
$DIMDSEP
 70
    46
  9
$DIMATFIT
 70
     3
  9
$DIMFRAC
 70
     0
  9
$DIMLDRBLK
  1

  9
$DIMLUNIT
 70
     2
  9
$DIMLWD
 70
    -2
  9
$DIMLWE
 70
    -2
  9
$DIMTMOVE
 70
     0
  9
$LUNITS
 70
     2
  9
$LUPREC
 70
     2
  9
$SKETCHINC
 40
0.1
  9
$FILLETRAD
 40
0.0
  9
$AUNITS
 70
     0
  9
$AUPREC
 70
     0
  9
$MENU
  1
acad
  9
$ELEVATION
 40
0.0
  9
$PELEVATION
 40
0.0
  9
$THICKNESS
 40
0.0
  9
$LIMCHECK
 70
     0
  9
$CHAMFERA
 40
0.0
  9
$CHAMFERB
 40
0.0
  9
$CHAMFERC
 40
0.0
  9
$CHAMFERD
 40
0.0
  9
$SKPOLY
 70
     0
  9
$TDCREATE
 40
2453606.432256945
  9
$TDUCREATE
 40
2453606.057256945
  9
$TDUPDATE
 40
2453976.402301447
  9
$TDUUPDATE
 40
2453976.027301447
  9
$TDINDWG
 40
0.0085982755
  9
$TDUSRTIMER
 40
0.0085980903
  9
$USRTIMER
 70
     1
  9
$ANGBASE
 50
0.0
  9
$ANGDIR
 70
     0
  9
$PDMODE
 70
     0
  9
$PDSIZE
 40
0.0
  9
$PLINEWID
 40
0.0
  9
$SPLFRAME
 70
     0
  9
$SPLINETYPE
 70
     6
  9
$SPLINESEGS
 70
     8
  9
$HANDSEED
  5
144F
  9
$SURFTAB1
 70
     6
  9
$SURFTAB2
 70
     6
  9
$SURFTYPE
 70
     6
  9
$SURFU
 70
     6
  9
$SURFV
 70
     6
  9
$UCSBASE
  2

  9
$UCSNAME
  2

  9
$UCSORG
 10
0.0
 20
0.0
 30
0.0
  9
$UCSXDIR
 10
1.0
 20
0.0
 30
0.0
  9
$UCSYDIR
 10
0.0
 20
1.0
 30
0.0
  9
$UCSORTHOREF
  2

  9
$UCSORTHOVIEW
 70
     0
  9
$UCSORGTOP
 10
0.0
 20
0.0
 30
0.0
  9
$UCSORGBOTTOM
 10
0.0
 20
0.0
 30
0.0
  9
$UCSORGLEFT
 10
0.0
 20
0.0
 30
0.0
  9
$UCSORGRIGHT
 10
0.0
 20
0.0
 30
0.0
  9
$UCSORGFRONT
 10
0.0
 20
0.0
 30
0.0
  9
$UCSORGBACK
 10
0.0
 20
0.0
 30
0.0
  9
$PUCSBASE
  2

  9
$PUCSNAME
  2

  9
$PUCSORG
 10
0.0
 20
0.0
 30
0.0
  9
$PUCSXDIR
 10
1.0
 20
0.0
 30
0.0
  9
$PUCSYDIR
 10
0.0
 20
1.0
 30
0.0
  9
$PUCSORTHOREF
  2

  9
$PUCSORTHOVIEW
 70
     0
  9
$PUCSORGTOP
 10
0.0
 20
0.0
 30
0.0
  9
$PUCSORGBOTTOM
 10
0.0
 20
0.0
 30
0.0
  9
$PUCSORGLEFT
 10
0.0
 20
0.0
 30
0.0
  9
$PUCSORGRIGHT
 10
0.0
 20
0.0
 30
0.0
  9
$PUCSORGFRONT
 10
0.0
 20
0.0
 30
0.0
  9
$PUCSORGBACK
 10
0.0
 20
0.0
 30
0.0
  9
$USERI1
 70
     0
  9
$USERI2
 70
     0
  9
$USERI3
 70
     0
  9
$USERI4
 70
     0
  9
$USERI5
 70
     0
  9
$USERR1
 40
0.0
  9
$USERR2
 40
0.0
  9
$USERR3
 40
0.0
  9
$USERR4
 40
0.0
  9
$USERR5
 40
0.0
  9
$WORLDVIEW
 70
     1
  9
$SHADEDGE
 70
     3
  9
$SHADEDIF
 70
    70
  9
$TILEMODE
 70
     1
  9
$MAXACTVP
 70
    16
  9
$PINSBASE
 10
0.0
 20
0.0
 30
0.0
  9
$PLIMCHECK
 70
     0
  9
$PEXTMIN
 10
1.000000000000000E+20
 20
1.000000000000000E+20
 30
1.000000000000000E+20
  9
$PEXTMAX
 10
-1.000000000000000E+20
 20
-1.000000000000000E+20
 30
-1.000000000000000E+20
  9
$PLIMMIN
 10
0.0
 20
0.0
  9
$PLIMMAX
 10
12.0
 20
9.0
  9
$UNITMODE
 70
     0
  9
$VISRETAIN
 70
     0
  9
$PLINEGEN
 70
     1
  9
$PSLTSCALE
 70
     0
  9
$TREEDEPTH
 70
  3020
  9
$CMLSTYLE
  2
STANDARD
  9
$CMLJUST
 70
     0
  9
$CMLSCALE
 40
1.0
  9
$PROXYGRAPHICS
 70
     0
  9
$MEASUREMENT
 70
     1
  9
$CELWEIGHT
370
    -1
  9
$ENDCAPS
280
     0
  9
$JOINSTYLE
280
     0
  9
$LWDISPLAY
290
     0
  9
$INSUNITS
 70
     0
  9
$HYPERLINKBASE
  1

  9
$STYLESHEET
  1

  9
$XEDIT
290
     1
  9
$CEPSNTYPE
380
     0
  9
$PSTYLEMODE
290
     1
  9
$FINGERPRINTGUID
  2
{691FFF1A-289B-4A42-978C-CCF2BE071C35}
  9
$VERSIONGUID
  2
{67CA52AA-8438-48E0-947B-35FEADA9ADE5}
  9
$EXTNAMES
290
     1
  9
$PSVPSCALE
 40
0.0
  9
$OLESTARTUP
290
     0
  9
$SORTENTS
280
   127
  9
$INDEXCTL
280
     0
  9
$HIDETEXT
280
     0
  9
$XCLIPFRAME
290
     0
  9
$HALOGAP
280
     0
  9
$OBSCOLOR
 70
   257
  9
$OBSLTYPE
280
     0
  9
$INTERSECTIONDISPLAY
280
     0
  9
$INTERSECTIONCOLOR
 70
   257
  9
$DIMASSOC
280
     1
  9
$PROJECTNAME
  1

  0
ENDSEC
  0
SECTION
  2
CLASSES
  0
CLASS
  1
IMAGE
  2
AcDbRasterImage
  3
ISM
 90
      127
 91
        0
280
     0
281
     1
  0
CLASS
  1
DICTIONARYVAR
  2
AcDbDictionaryVar
  3
ObjectDBX Classes
 90
        0
 91
        1
280
     0
281
     0
  0
CLASS
  1
RASTERVARIABLES
  2
AcDbRasterVariables
  3
ISM
 90
        0
 91
        0
280
     0
281
     0
  0
CLASS
  1
IMAGEDEF
  2
AcDbRasterImageDef
  3
ISM
 90
        0
 91
        0
280
     0
281
     0
  0
CLASS
  1
IMAGEDEF_REACTOR
  2
AcDbRasterImageDefReactor
  3
ISM
 90
        1
 91
        0
280
     0
281
     0
  0
CLASS
  1
IDBUFFER
  2
AcDbIdBuffer
  3
ObjectDBX Classes
 90
        0
 91
        0
280
     0
281
     0
  0
CLASS
  1
SPATIAL_FILTER
  2
AcDbSpatialFilter
  3
ObjectDBX Classes
 90
        0
 91
        0
280
     0
281
     0
  0
CLASS
  1
SORTENTSTABLE
  2
AcDbSortentsTable
  3
ObjectDBX Classes
 90
        0
 91
        0
280
     0
281
     0
  0
CLASS
  1
LAYER_INDEX
  2
AcDbLayerIndex
  3
ObjectDBX Classes
 90
        0
 91
        0
280
     0
281
     0
  0
CLASS
  1
SPATIAL_INDEX
  2
AcDbSpatialIndex
  3
ObjectDBX Classes
 90
        0
 91
        0
280
     0
281
     0
  0
CLASS
  1
OBJECT_PTR
  2
CAseDLPNTableRecord
  3
ASE-LPNTableRecord
 90
        1
 91
        0
280
     0
281
     0
  0
CLASS
  1
PLOTSETTINGS
  2
AcDbPlotSettings
  3
ObjectDBX Classes
 90
        0
 91
        0
280
     0
281
     0
  0
CLASS
  1
ACDBDICTIONARYWDFLT
  2
AcDbDictionaryWithDefault
  3
ObjectDBX Classes
 90
        0
 91
        1
280
     0
281
     0
  0
CLASS
  1
TABLESTYLE
  2
AcDbTableStyle
  3
ObjectDBX Classes
 90
     2047
 91
        1
280
     0
281
     0
  0
CLASS
  1
AMGSETTINGSOBJ
  2
AmgSettingsObj
  3
"AcadM|Product Description: AutoCAD Mechanical 2000|Company: Autodesk"
 90
        0
 91
        0
280
     0
281
     0
  0
CLASS
  1
ACME_DOCUMENT
  2
AcMeDbDoc
  3
AcMeServices
 90
        0
 91
        0
280
     0
281
     0
  0
CLASS
  1
ACMESCOPE
  2
AcMeScope
  3
AcMeServices
 90
        0
 91
        0
280
     0
281
     0
  0
CLASS
  1
ACMECOMMANDHISTORY
  2
AcMeCommandHistory
  3
AcMeServices
 90
        0
 91
        0
280
     0
281
     0
  0
CLASS
  1
ACIMSYSVARMAN
  2
AcImSysVarManager
  3
AcMeServices
 90
        0
 91
        0
280
     0
281
     0
  0
CLASS
  1
ACIMINTSYSVAR
  2
AcImIntSysVar
  3
AcMeServices
 90
        0
 91
        0
280
     0
281
     0
  0
CLASS
  1
ACMEDRAWINGMAN
  2
AcMeDrawingMan
  3
AcMeServices
 90
        0
 91
        0
280
     0
281
     0
  0
CLASS
  1
ACMEVIEW
  2
AcMeView
  3
AcMeServices
 90
        0
 91
        0
280
     0
281
     0
  0
CLASS
  1
ACDBENTITYCACHE
  2
AcMeEntityCache
  3
AcMeServices
 90
        0
 91
        0
280
     0
281
     0
  0
CLASS
  1
GSMANAGER
  2
AcMeGSManager
  3
AcMeServices
 90
        0
 91
        0
280
     0
281
     0
  0
CLASS
  1
AMDTINTERNALREACTOR
  2
AmdtInternalReactor
  3
AcMeServices
 90
        0
 91
        0
280
     0
281
     0
  0
CLASS
  1
ACMESTATEMGR
  2
AcMeStateMgr
  3
AcMeServices
 90
        0
 91
        0
280
     0
281
     0
  0
CLASS
  1
ACGREFMASTER
  2
AcGrefMaster
  3
AcAttribServices
 90
        0
 91
        0
280
     0
281
     0
  0
CLASS
  1
AM_DRAWING_MGR
  2
AcDmDwgMgr
  3
AcMechDwgViewMgmt
 90
        0
 91
        0
280
     0
281
     0
  0
CLASS
  1
AM_DWG_DOCUMENT
  2
AcDmDwgDocument
  3
AcMechDwgViewMgmt
 90
        0
 91
        0
280
     0
281
     0
  0
CLASS
  1
AM_DWG_SHEET
  2
AcDmSheet
  3
AcMechDwgViewMgmt
 90
        0
 91
        0
280
     0
281
     0
  0
CLASS
  1
AM_VIEWDIMPARMAP
  2
AcDmViewDimParMap
  3
AcMechDwgViewMgmt
 90
        0
 91
        0
280
     0
281
     0
  0
CLASS
  1
ACIMREALSYSVAR
  2
AcImRealSysVar
  3
AcMeServices
 90
        0
 91
        0
280
     0
281
     0
  0
CLASS
  1
AM_DWGMGR_NAME
  2
AcDmDwgMgrName
  3
AcMechDwgViewMgmt
 90
        0
 91
        0
280
     0
281
     0
  0
CLASS
  1
ACME_DATABASE
  2
AcMeDbDatabase
  3
AcMeServices
 90
        0
 91
        0
280
     0
281
     0
  0
CLASS
  1
ACRFINSADJUSTERMGR
  2
AcRfInsAdjusterMgr
  3
AcMeServices
 90
        0
 91
        0
280
     0
281
     0
  0
CLASS
  1
ACGREFACADMASTER
  2
AcGrefacadMaster
  3
AcGrefServices
 90
        0
 91
        0
280
     0
281
     0
  0
CLASS
  1
AMDTMENUSTATEMGR
  2
AmdtMenuStateMgr
  3
McadcomServices
 90
        0
 91
        0
280
     0
281
     0
  0
CLASS
  1
AMDTMCOMMENUSTATE
  2
AmdtMcomMenuState
  3
McadcomServices
 90
        0
 91
        0
280
     0
281
     0
  0
CLASS
  1
AMIMASTER
  2
AmiMaster
  3
AmiServices
 90
        0
 91
        0
280
     0
281
     0
  0
CLASS
  1
MAPIAMMOUDLE
  2
MApiAmModule
  3
MApiAmServices
 90
        0
 91
        0
280
     0
281
     0
  0
CLASS
  1
AMDTADMENUSTATE
  2
AmdtAdMenuState
  3
DesignerServices
 90
        0
 91
        0
280
     0
281
     0
  0
CLASS
  1
ADAPPL
  2
AcAdAppl
  3
DesignerServices
 90
        0
 91
        0
280
     0
281
     0
  0
CLASS
  1
DEPMGR
  2
AcAdDepMgr
  3
DesignerServices
 90
        0
 91
        0
280
     0
281
     0
  0
CLASS
  1
PARAMMGR
  2
AcAdParamMgr
  3
DesignerServices
 90
        0
 91
        0
280
     0
281
     0
  0
CLASS
  1
PARAMSCOPE
  2
AcAdParamScope
  3
DesignerServices
 90
        0
 91
        0
280
     0
281
     0
  0
CLASS
  1
NAMEDAPPL
  2
AcAdNamedAppl
  3
DesignerServices
 90
        0
 91
        0
280
     0
281
     0
  0
CLASS
  1
AMDTDMMENUSTATE
  2
AmdtDmMenuState
  3
AcMechDwgViewMgmt
 90
        0
 91
        0
280
     0
281
     0
  0
CLASS
  1
AMDTAMMENUSTATE
  2
AmdtAmMenuState
  3
DesignerAssemblies
 90
        0
 91
        0
280
     0
281
     0
  0
CLASS
  1
ACIMSTRSYSVAR
  2
AcImStrSysVar
  3
AcMeServices
 90
        0
 91
        0
280
     0
281
     0
  0
CLASS
  1
ACAMPROJECT
  2
AcAmProject
  3
DesignerAssemblies
 90
        0
 91
        0
280
     0
281
     0
  0
CLASS
  1
ACAMGRCOMPDEF
  2
AcAmGrCompDef
  3
DesignerAssemblies
 90
        0
 91
        0
280
     0
281
     0
  0
CLASS
  1
ACCMCONTEXT
  2
AcCmContext
  3
DesignerAssemblies
 90
        0
 91
        0
280
     0
281
     0
  0
CLASS
  1
ACAMCOMPDEF
  2
AcAmCompDef
  3
DesignerAssemblies
 90
        0
 91
        0
280
     0
281
     0
  0
CLASS
  1
ACAMCOMPDEFMGR
  2
AcAmCompDefMgr
  3
DesignerAssemblies
 90
        0
 91
        0
280
     0
281
     0
  0
CLASS
  1
AMCONTEXTMGR
  2
AcAmContextMgr
  3
DesignerAssemblies
 90
        0
 91
        0
280
     0
281
     0
  0
CLASS
  1
ACAMCONTEXTMODELER
  2
AcAmContextModeler
  3
DesignerAssemblies
 90
        0
 91
        0
280
     0
281
     0
  0
CLASS
  1
ACMDATADICTIONARY
  2
AcmDataDictionary
  3
"AcmSymBB|Product Description: AutoCAD Mechanical 2004 DX|Company: Autodesk"
 90
        0
 91
        0
280
     0
281
     0
  0
CLASS
  1
CATALOGSTATE
  2
AcAmCatalogState
  3
DesignerAssemblies
 90
        0
 91
        0
280
     0
281
     0
  0
CLASS
  1
ACAMGRCOMPDEFSET
  2
AcAmGrCompDefSet
  3
DesignerAssemblies
 90
        0
 91
        0
280
     0
281
     0
  0
CLASS
  1
AMDTBROWSERDBTAB
  2
AmdtBrowserDbTab
  3
McadcomServices
 90
        0
 91
        0
280
     0
281
     0
  0
CLASS
  1
CBROWSERAPPOBJECT
  2
CBrowserAppObject
  3
McadcomServices
 90
        0
 91
        0
280
     0
281
     0
  0
CLASS
  1
DM_PLACEHOLDER
  2
AcDmSelsetPlaceholder
  3
AcMechDwgViewMgmt
 90
        0
 91
        0
280
     0
281
     0
  0
CLASS
  1
VAACXREFPANELOBJECT
  2
VaAcXREFPanelObject
  3
VAAC_ADDIN
 90
        0
 91
        0
280
     0
281
     0
  0
CLASS
  1
ACMSTANDARDISO
  2
AcmStandardISO
  3
"Amdt_StdImp|Product Description: AutoCAD Mechanical 2004 DX|Company: Autodesk"
 90
        0
 91
        0
280
     0
281
     0
  0
CLASS
  1
AMGOBJPROPCFG
  2
AmgObjPropCfg
  3
"AmgLay|Product Description: AutoCAD Mechanical 2000|Company: Autodesk"
 90
        1
 91
        0
280
     0
281
     0
  0
CLASS
  1
AMDTEDGESTANDARDISO13715
  2
AmdtEdgeStdISO13715
  3
"Amdt_StdImp|Product Description: AutoCAD Mechanical 2004 DX|Company: Autodesk"
 90
        0
 91
        0
280
     0
281
     0
  0
CLASS
  1
ACMSURFSTANDARDISO
  2
AcmSurfTextStdISO
  3
"Amdt_StdImp|Product Description: AutoCAD Mechanical 2004 DX|Company: Autodesk"
 90
        0
 91
        0
280
     0
281
     0
  0
CLASS
  1
ACMFCFSTANDARDISO
  2
AcmFCFStdISO
  3
"Amdt_StdImp|Product Description: AutoCAD Mechanical 2004 DX|Company: Autodesk"
 90
        0
 91
        0
280
     0
281
     0
  0
CLASS
  1
ACMWELDSTANDARDISO
  2
AcmWeldingStdISO
  3
"Amdt_StdImp|Product Description: AutoCAD Mechanical 2004 DX|Company: Autodesk"
 90
        0
 91
        0
280
     0
281
     0
  0
CLASS
  1
ACMIDSTANDARDISO
  2
AcmIdStdISO
  3
"Amdt_StdImp|Product Description: AutoCAD Mechanical 2004 DX|Company: Autodesk"
 90
        0
 91
        0
280
     0
281
     0
  0
CLASS
  1
ACMDATUMSTANDARDISO
  2
AcmDatumStdISO
  3
"Amdt_StdImp|Product Description: AutoCAD Mechanical 2004 DX|Company: Autodesk"
 90
        0
 91
        0
280
     0
281
     0
  0
CLASS
  1
ACMBOMSTANDARDISO
  2
AcmBOMStdISO
  3
"Amdt_StdImp|Product Description: AutoCAD Mechanical 2004 DX|Company: Autodesk"
 90
        0
 91
        0
280
     0
281
     0
  0
CLASS
  1
ACMDETAILSTANDARDISO
  2
AmdtDetailSymStdISO
  3
"Amdt_StdImp|Product Description: AutoCAD Mechanical 2004 DX|Company: Autodesk"
 90
        0
 91
        0
280
     0
281
     0
  0
CLASS
  1
ACMSECTIONSTANDARDISO
  2
AmdtSectionSymStdISO
  3
"Amdt_StdImp|Product Description: AutoCAD Mechanical 2004 DX|Company: Autodesk"
 90
        0
 91
        0
280
     0
281
     0
  0
CLASS
  1
ACMCENTERLINESTANDARDISO
  2
AmdtCenterLineStdISO
  3
"Amdt_StdImp|Product Description: AutoCAD Mechanical 2004 DX|Company: Autodesk"
 90
        0
 91
        0
280
     0
281
     0
  0
CLASS
  1
ACMTHREADLINESTANDARDISO
  2
AmdtThreadLineStdISO
  3
"Amdt_StdImp|Product Description: AutoCAD Mechanical 2004 DX|Company: Autodesk"
 90
        0
 91
        0
280
     0
281
     0
  0
CLASS
  1
ACMNOTESTANDARDISO
  2
AmdtNoteStdISO
  3
"Amdt_StdImp|Product Description: AutoCAD Mechanical 2004 DX|Company: Autodesk"
 90
        0
 91
        0
280
     0
281
     0
  0
CLASS
  1
AMDTNOTETEMPLATEDB
  2
AmdtNoteTemplateDB
  3
AMDT_STDIMP_MODULE_NAME
 90
        0
 91
        0
280
     0
281
     0
  0
CLASS
  1
ACAMGLAYSTD
  2
AcAmgLayStd
  3
"AcAmgLayStd|Product Description: AutoCAD Mechanical 2000|Company: Autodesk"
 90
        0
 91
        0
280
     0
281
     0
  0
CLASS
  1
ACAMGDIMSTD
  2
AcAmgDimStd
  3
"AcAmgDimStd|Product Description: AutoCAD Mechanical 2000|Company: Autodesk"
 90
        0
 91
        0
280
     0
281
     0
  0
CLASS
  1
ACAMGHOLECHARTSTDISO
  2
AcAmgHoleChartStdISO
  3
ACMSYMBB_MODULE_NAME
 90
        0
 91
        0
280
     0
281
     0
  0
CLASS
  1
ACAMGTITLESTD
  2
AcAmgTitleStd
  3
"TITLEAPP"
 90
        0
 91
        0
280
     0
281
     0
  0
CLASS
  1
VAACIMAGEINVENTORY
  2
VaAcImageInventory
  3
VAAC_ADDIN
 90
        0
 91
        0
280
     0
281
     0
  0
CLASS
  1
ACAMGFILTERDAT
  2
AcAmgFilterDat
  3
"AcadM|Product Description: AutoCAD Mechanical 2000|Company: Autodesk"
 90
        0
 91
        0
280
     0
281
     0
  0
CLASS
  1
ACMDATAENTRYBLOCK
  2
AcmDataEntryBlock
  3
"AcmSymBB|Product Description: AutoCAD Mechanical 2004 DX|Company: Autodesk"
 90
        0
 91
        0
280
     0
281
     0
  0
CLASS
  1
ACRFATTGENMGR
  2
AcRfAttGeneralMgr
  3
AcAttribServices
 90
        0
 91
        0
280
     0
281
     0
  0
CLASS
  1
DIMASSOC
  2
AcDbDimAssoc
  3
"AcDbDimAssoc|Product Desc:     AcDim ARX App For Dimension|Company:          Autodesk, Inc.|WEB Address:      www.autodesk.com"
 90
        0
 91
       18
280
     0
281
     0
  0
ENDSEC
  0
SECTION
  2
TABLES
  0
TABLE
  2
VPORT
  5
7
330
0
100
AcDbSymbolTable
 70
     2
  0
VPORT
  5
144E
330
7
100
AcDbSymbolTableRecord
100
AcDbViewportTableRecord
  2
*Active
 70
     0
 10
0.0
 20
0.0
 11
1.0
 21
1.0
 12
-7.508720827136931
 22
-0.0232114293908126
 13
0.0
 23
0.0
 14
1.0
 24
1.0
 15
0.0
 25
0.0
 16
0.0
 26
0.0
 36
1.0
 17
0.0
 27
0.0
 37
0.0
 40
423.1645835996015
 41
1.474327628361858
 42
50.0
 43
0.0
 44
0.0
 50
0.0
 51
0.0
 71
     0
 72
   100
 73
     1
 74
     1
 75
     0
 76
     0
 77
     0
 78
     0
281
     0
 65
     0
110
0.0
120
0.0
130
0.0
111
1.0
121
0.0
131
0.0
112
0.0
122
1.0
132
0.0
 79
     0
146
0.0
  0
ENDTAB
  0
TABLE
  2
LTYPE
  5
4
330
0
100
AcDbSymbolTable
 70
    19
  0
LTYPE
  5
11
330
4
100
AcDbSymbolTableRecord
100
AcDbLinetypeTableRecord
  2
BYBLOCK
 70
     0
  3

 72
    65
 73
     0
 40
0.0
  0
LTYPE
  5
12
330
4
100
AcDbSymbolTableRecord
100
AcDbLinetypeTableRecord
  2
BYLAYER
 70
     0
  3

 72
    65
 73
     0
 40
0.0
  0
LTYPE
  5
13
330
4
100
AcDbSymbolTableRecord
100
AcDbLinetypeTableRecord
  2
CONTINUOUS
 70
     0
  3
Solid line
 72
    65
 73
     0
 40
0.0
  0
LTYPE
  5
22
330
4
100
AcDbSymbolTableRecord
100
AcDbLinetypeTableRecord
  2
CENTER
 70
     0
  3
Center ____ _ ____ _ ____ _ ____ _ ____ _ ____
 72
    65
 73
     4
 40
50.8
 49
31.75
 74
     0
 49
-6.349999999999997
 74
     0
 49
6.349999999999997
 74
     0
 49
-6.349999999999997
 74
     0
  0
LTYPE
  5
25
330
4
100
AcDbSymbolTableRecord
100
AcDbLinetypeTableRecord
  2
NON_PLOTING
 70
     0
  3
Solid line
 72
    65
 73
     0
 40
0.0
  0
LTYPE
  5
270
330
4
100
AcDbSymbolTableRecord
100
AcDbLinetypeTableRecord
  2
HIDDEN
 70
     0
  3
Hidden __ __ __ __ __ __ __ __ __ __ __ __ __ _
 72
    65
 73
     2
 40
9.524999999999996
 49
6.349999999999997
 74
     0
 49
-3.174999999999998
 74
     0
  0
LTYPE
  5
271
330
4
100
AcDbSymbolTableRecord
100
AcDbLinetypeTableRecord
  2
PHANTOM2
 70
     0
  3
Phantom (.5x) ___ _ _ ___ _ _ ___ _ _ ___ _ _
 72
    65
 73
     6
 40
31.75
 49
15.875
 74
     0
 49
-3.174999999999998
 74
     0
 49
3.174999999999998
 74
     0
 49
-3.174999999999998
 74
     0
 49
3.174999999999998
 74
     0
 49
-3.174999999999998
 74
     0
  0
LTYPE
  5
2A6
330
4
100
AcDbSymbolTableRecord
100
AcDbLinetypeTableRecord
  2
AM_ISO02W050
 70
     0
  3
__ __ __ __ __ __ __ __ __ __ __ __ __ __ __
 72
    65
 73
     2
 40
7.5
 49
6.0
 74
     0
 49
-1.5
 74
     0
  0
LTYPE
  5
2A7
330
4
100
AcDbSymbolTableRecord
100
AcDbLinetypeTableRecord
  2
AM_ISO08W050
 70
     0
  3
____ . ____ . ____ . ____ . ____ . ____ . ____
 72
    65
 73
     4
 40
18.0
 49
12.0
 74
     0
 49
-1.5
 74
     0
 49
3.0
 74
     0
 49
-1.5
 74
     0
  0
LTYPE
  5
2A8
330
4
100
AcDbSymbolTableRecord
100
AcDbLinetypeTableRecord
  2
AM_ISO09W050
 70
     0
  3
_____ . . _____ . . _____ . . ____ .. ____
 72
    65
 73
     6
 40
22.5
 49
12.0
 74
     0
 49
-1.5
 74
     0
 49
3.0
 74
     0
 49
-1.5
 74
     0
 49
3.0
 74
     0
 49
-1.5
 74
     0
  0
LTYPE
  5
2A9
330
4
100
AcDbSymbolTableRecord
100
AcDbLinetypeTableRecord
  2
Amconstr
 70
     0
  3
_______________________
 72
    65
 73
     2
 40
9999.0
 49
9999.0
 74
     0
 49
0.0
 74
     0
  0
LTYPE
  5
2AA
330
4
100
AcDbSymbolTableRecord
100
AcDbLinetypeTableRecord
  2
AM_ISO08W050x2
 70
     0
  3
__ . __ . __ . __ . __ . __
 72
    65
 73
     4
 40
9.0
 49
6.0
 74
     0
 49
-0.75
 74
     0
 49
1.5
 74
     0
 49
-0.75
 74
     0
  0
LTYPE
  5
2AB
330
4
100
AcDbSymbolTableRecord
100
AcDbLinetypeTableRecord
  2
AM_ISO02W050x2
 70
     0
  3
 _ _ _ _ _ _ _ _ _ _ _ _
 72
    65
 73
     2
 40
3.75
 49
3.0
 74
     0
 49
-0.75
 74
     0
  0
LTYPE
  5
2AE
330
4
100
AcDbSymbolTableRecord
100
AcDbLinetypeTableRecord
  2
Amzigzag
 70
     0
  3
/\/-/\/-/\/-/\/-/\/-/\/
 72
    65
 73
     2
 40
11.0001
 49
0.0001
 74
     4
 75
   135
340
2AD
 46
0.04
 50
0.0
 44
0.0
 45
0.0
 49
-11.0
 74
     0
  0
LTYPE
  5
2BD
330
4
100
AcDbSymbolTableRecord
100
AcDbLinetypeTableRecord
  2
ACISOWELD
 70
     0
  3
_ _ _ _ _
 72
    65
 73
     2
 40
2.0
 49
2.0
 74
     0
 49
-1.0
 74
     0
  0
LTYPE
  5
2BE
330
4
100
AcDbSymbolTableRecord
100
AcDbLinetypeTableRecord
  2
ACISOTGB
 70
     0
  3
__ . . __ . .
 72
    65
 73
     6
 40
9.0
 49
4.0
 74
     0
 49
-1.0
 74
     0
 49
1.0
 74
     0
 49
-1.0
 74
     0
 49
1.0
 74
     0
 49
-1.0
 74
     0
  0
LTYPE
  5
2BF
330
4
100
AcDbSymbolTableRecord
100
AcDbLinetypeTableRecord
  2
ACISOTGL
 70
     0
  3
_ _ _ _ _
 72
    65
 73
     2
 40
3.0
 49
2.0
 74
     0
 49
-1.0
 74
     0
  0
LTYPE
  5
41E
330
4
100
AcDbSymbolTableRecord
100
AcDbLinetypeTableRecord
  2
DASHED
 70
     0
  3
Dashed __ __ __ __ __ __ __ __ __ __ __ __ __ _
 72
    65
 73
     2
 40
19.05
 49
12.7
 74
     0
 49
-6.349999999999997
 74
     0
  0
LTYPE
  5
41F
330
4
100
AcDbSymbolTableRecord
100
AcDbLinetypeTableRecord
  2
L2C_PATTERN
 70
     0
  3
L2C_PATTERN
 72
    65
 73
     6
 40
40.0
 49
34.6
 74
     0
 49
-1.0
 74
     0
 49
1.199999999999999
 74
     0
 49
-1.0
 74
     0
 49
1.199999999999999
 74
     0
 49
-1.0
 74
     0
  0
LTYPE
  5
420
330
4
100
AcDbSymbolTableRecord
100
AcDbLinetypeTableRecord
  2
SDH_PATTERN
 70
     0
  3
SDH_PATTERN
 72
    65
 73
     2
 40
2.0
 49
1.399999999999999
 74
     0
 49
-0.6
 74
     0
  0
LTYPE
  5
E98
330
4
100
AcDbSymbolTableRecord
100
AcDbLinetypeTableRecord
  2
DASHDOT2
 70
     0
  3
Dash dot (.5x) _._._._._._._._._._._._._._._.
 72
    65
 73
     4
 40
12.7
 49
6.349999999999997
 74
     0
 49
-3.174999999999998
 74
     0
 49
0.0
 74
     0
 49
-3.174999999999998
 74
     0
  0
ENDTAB
  0
TABLE
  2
LAYER
  5
2
102
{ACAD_XDICTIONARY
360
427
102
}
330
0
100
AcDbSymbolTable
 70
    10
  0
LAYER
  5
14
330
2
100
AcDbSymbolTableRecord
100
AcDbLayerTableRecord
  2
0
 70
     0
 62
     7
  6
CONTINUOUS
370
    -3
390
232
  0
LAYER
  5
1D
330
2
100
AcDbSymbolTableRecord
100
AcDbLayerTableRecord
  2
DEFPOINTS
 70
     0
 62
     7
  6
CONTINUOUS
290
     0
370
    -3
390
232
  0
LAYER
  5
1E
330
2
100
AcDbSymbolTableRecord
100
AcDbLayerTableRecord
  2
FV
 70
     0
 62
     7
  6
CONTINUOUS
370
    -3
390
232
  0
LAYER
  5
1F
330
2
100
AcDbSymbolTableRecord
100
AcDbLayerTableRecord
  2
PV
 70
     0
 62
     7
  6
CONTINUOUS
370
    -3
390
232
  0
LAYER
  5
421
330
2
100
AcDbSymbolTableRecord
100
AcDbLayerTableRecord
  2
1
 70
     0
 62
     7
  6
CONTINUOUS
370
    -3
390
232
  0
LAYER
  5
E99
330
2
100
AcDbSymbolTableRecord
100
AcDbLayerTableRecord
  2
Chassis
 70
     0
 62
     7
  6
CONTINUOUS
370
    -3
390
232
1001
AcAecLayerStandard
1000

1000

  0
LAYER
  5
E9A
330
2
100
AcDbSymbolTableRecord
100
AcDbLayerTableRecord
  2
SCALE
 70
     0
 62
     7
  6
CONTINUOUS
370
    -3
390
232
  0
LAYER
  5
E9B
330
2
100
AcDbSymbolTableRecord
100
AcDbLayerTableRecord
  2
TXT1
 70
     0
 62
     7
  6
CONTINUOUS
370
    -3
390
232
  0
LAYER
  5
E9C
330
2
100
AcDbSymbolTableRecord
100
AcDbLayerTableRecord
  2
25
 70
     0
 62
     7
  6
CONTINUOUS
370
    -3
390
232
  0
LAYER
  5
E9D
330
2
100
AcDbSymbolTableRecord
100
AcDbLayerTableRecord
  2
ASSIST
 70
     0
 62
     7
  6
CONTINUOUS
370
    -3
390
232
  0
ENDTAB
  0
TABLE
  2
STYLE
  5
3
330
0
100
AcDbSymbolTable
 70
     8
  0
STYLE
  5
17
330
3
100
AcDbSymbolTableRecord
100
AcDbTextStyleTableRecord
  2
MX_NOTE_STANDARD
 70
     0
 40
0.0
 41
1.0
 50
0.0
 71
     0
 42
4.166999999999998
  3
txt.shx
  4
extfont.shx
  0
STYLE
  5
230
330
3
100
AcDbSymbolTableRecord
100
AcDbTextStyleTableRecord
  2
Standard
 70
     0
 40
0.0
 41
1.0
 50
0.0
 71
     0
 42
0.2
  3
romans.shx
  4
@extfont2.shx
  0
STYLE
  5
2AD
330
3
100
AcDbSymbolTableRecord
100
AcDbTextStyleTableRecord
  2

 70
     1
 40
0.0
 41
1.0
 50
0.0
 71
     0
 42
4.166999999999998
  3
ltypeshp.shx
  4

  0
STYLE
  5
2AF
330
3
100
AcDbSymbolTableRecord
100
AcDbTextStyleTableRecord
  2
ACISOTS
 70
     0
 40
1.0
 41
1.0
 50
0.0
 71
     0
 42
4.166999999999998
  3
isocp.shx
  4
extfont.shx
  0
STYLE
  5
2BC
330
3
100
AcDbSymbolTableRecord
100
AcDbTextStyleTableRecord
  2
ACISOGDT
 70
     0
 40
0.0
 41
1.0
 50
0.0
 71
     0
 42
4.166999999999998
  3
amgdt.shx
  4

  0
STYLE
  5
422
330
3
100
AcDbSymbolTableRecord
100
AcDbTextStyleTableRecord
  2
MX_DIMTXSTY_2
 70
     0
 40
0.0
 41
1.149999999999999
 50
0.0
 71
     0
 42
4.166999999999998
  3
txt.shx
  4
extfont.shx
  0
STYLE
  5
423
330
3
100
AcDbSymbolTableRecord
100
AcDbTextStyleTableRecord
  2
MX_DIMTXSTY_4
 70
     0
 40
0.0
 41
1.3
 50
0.0
 71
     0
 42
4.166999999999998
  3
txt.shx
  4
extfont.shx
  0
STYLE
  5
424
330
3
100
AcDbSymbolTableRecord
100
AcDbTextStyleTableRecord
  2
MX_DIMTXSTY_5
 70
     0
 40
0.0
 41
1.05
 50
0.0
 71
     0
 42
4.166999816894531
  3
txt.shx
  4
extfont.shx
  0
ENDTAB
  0
TABLE
  2
VIEW
  5
5
330
0
100
AcDbSymbolTable
 70
     0
  0
ENDTAB
  0
TABLE
  2
UCS
  5
6
330
0
100
AcDbSymbolTable
 70
     0
  0
ENDTAB
  0
TABLE
  2
APPID
  5
8
330
0
100
AcDbSymbolTable
 70
    15
  0
APPID
  5
16
330
8
100
AcDbSymbolTableRecord
100
AcDbRegAppTableRecord
  2
ACAD
 70
     0
  0
APPID
  5
243
330
8
100
AcDbSymbolTableRecord
100
AcDbRegAppTableRecord
  2
MCAD_NO_VIS
 70
     0
  0
APPID
  5
244
330
8
100
AcDbSymbolTableRecord
100
AcDbRegAppTableRecord
  2
ACAD_TEMP_GRAPHIC
 70
     0
  0
APPID
  5
273
330
8
100
AcDbSymbolTableRecord
100
AcDbRegAppTableRecord
  2
AD_DRAW
 70
     0
  0
APPID
  5
276
330
8
100
AcDbSymbolTableRecord
100
AcDbRegAppTableRecord
  2
ACATTRIBSERVICES
 70
     0
  0
APPID
  5
294
330
8
100
AcDbSymbolTableRecord
100
AcDbRegAppTableRecord
  2
DESIGNERASSEMBLIES
 70
     0
  0
APPID
  5
29A
330
8
100
AcDbSymbolTableRecord
100
AcDbRegAppTableRecord
  2
ACADM_DIM_EDIT
 70
     0
  0
APPID
  5
29B
330
8
100
AcDbSymbolTableRecord
100
AcDbRegAppTableRecord
  2
AMDT_DM_ADJ
 70
     0
  0
APPID
  5
425
330
8
100
AcDbSymbolTableRecord
100
AcDbRegAppTableRecord
  2
ACAD_PSEXT
 70
     0
  0
APPID
  5
426
330
8
100
AcDbSymbolTableRecord
100
AcDbRegAppTableRecord
  2
DCO15
 70
     0
  0
APPID
  5
E9F
330
8
100
AcDbSymbolTableRecord
100
AcDbRegAppTableRecord
  2
ACAD_DSTYLE_DIMEXT_LENGTH
 70
     0
  0
APPID
  5
EA0
330
8
100
AcDbSymbolTableRecord
100
AcDbRegAppTableRecord
  2
ACAD_DSTYLE_DIMEXT_ENABLED
 70
     0
  0
APPID
  5
EA1
330
8
100
AcDbSymbolTableRecord
100
AcDbRegAppTableRecord
  2
ACAD_DSTYLE_DIMJOGGED_JOGANGLE_SYMBOL
 70
     0
  0
APPID
  5
EA2
330
8
100
AcDbSymbolTableRecord
100
AcDbRegAppTableRecord
  2
ACAD_DSTYLE_DIMARC_LENGTH_SYMBOL
 70
     0
  0
APPID
  5
EA3
330
8
100
AcDbSymbolTableRecord
100
AcDbRegAppTableRecord
  2
AcAecLayerStandard
 70
     0
  0
ENDTAB
  0
TABLE
  2
DIMSTYLE
  5
9
330
0
100
AcDbSymbolTable
 70
     9
100
AcDbDimStyleTable
 71
     0
  0
DIMSTYLE
105
18
330
9
100
AcDbSymbolTableRecord
100
AcDbDimStyleTableRecord
  2
MXDIMSTYLE
 70
     0
 41
2.5
 42
1.27
 43
3.75
 44
1.199999999999999
 73
     0
 74
     0
 77
     1
 78
     8
140
4.166999999999998
141
2.5
143
0.03937
147
1.0
171
     4
172
     1
274
     4
288
     1
340
17
  0
DIMSTYLE
105
2C9
330
9
100
AcDbSymbolTableRecord
100
AcDbDimStyleTableRecord
  2
AM_ISO
 70
     0
  4
"
 41
2.5
 42
1.0
 43
10.0
 44
1.0
 47
0.1
 48
0.1
 73
     0
 74
     0
 77
     1
 78
     8
 79
     2
140
3.5
141
0.0
143
0.0393701
146
0.71
147
1.5
172
     1
176
   256
177
   256
178
     2
271
     2
272
     3
274
     4
283
     0
284
     8
340
230
371
    -1
372
    -1
  0
DIMSTYLE
105
2CA
330
9
100
AcDbSymbolTableRecord
100
AcDbDimStyleTableRecord
  2
AM_ISO$3
 70
     0
  4
"
 41
2.5
 42
1.0
 43
10.0
 44
1.0
 47
0.1
 48
0.1
 73
     0
 77
     1
 78
     8
 79
     2
140
3.5
141
0.0
143
0.0393701
146
0.71
147
1.5
176
   256
177
   256
178
     2
271
     2
272
     3
274
     4
283
     0
284
     8
288
     1
289
     0
340
230
371
    -1
372
    -1
  0
DIMSTYLE
105
2CB
330
9
100
AcDbSymbolTableRecord
100
AcDbDimStyleTableRecord
  2
AM_ISO$4
 70
     0
  4
"
 41
2.5
 42
1.0
 43
10.0
 44
1.0
 47
0.1
 48
0.1
 73
     0
 77
     1
 78
     8
 79
     2
140
3.5
141
0.0
143
0.0393701
146
0.71
147
1.5
176
   256
177
   256
178
     2
271
     2
272
     3
274
     4
283
     0
284
     8
288
     1
289
     0
340
230
371
    -1
372
    -1
  0
DIMSTYLE
105
2CC
330
9
100
AcDbSymbolTableRecord
100
AcDbDimStyleTableRecord
  2
AM_ISO$6
 70
     0
  4
"
 41
2.5
 42
1.0
 43
10.0
 44
1.0
 47
0.1
 48
0.1
 73
     0
 74
     0
 78
     8
 79
     2
140
3.5
141
0.0
143
0.0393701
146
0.71
147
1.5
172
     1
176
   256
177
   256
178
     2
271
     2
272
     3
274
     4
283
     0
284
     8
340
230
371
    -1
372
    -1
  0
DIMSTYLE
105
2CD
330
9
100
AcDbSymbolTableRecord
100
AcDbDimStyleTableRecord
  2
AM_ISO$7
 70
     0
  4
"
 41
2.5
 42
1.0
 43
10.0
 44
1.0
 47
0.1
 48
0.1
 73
     0
 74
     0
 77
     1
 78
     8
 79
     2
140
5.0
141
0.0
143
0.0393701
146
0.71
147
1.5
172
     1
176
   256
177
   256
178
     2
271
     2
272
     3
274
     4
283
     0
284
     8
340
230
371
    -1
372
    -1
  0
DIMSTYLE
105
2CE
330
9
100
AcDbSymbolTableRecord
100
AcDbDimStyleTableRecord
  2
AM_ISO$SF
 70
     0
  4
"
 41
2.5
 42
1.0
 43
10.0
 44
1.0
 47
0.1
 48
0.1
 73
     0
 74
     0
 75
     1
 76
     1
 77
     1
 78
     8
 79
     2
140
3.5
141
0.0
143
0.0393701
146
0.71
147
1.5
172
     1
176
   256
177
   256
178
     2
271
     2
272
     3
274
     4
283
     0
284
     8
340
230
371
    -1
372
    -1
  0
DIMSTYLE
105
2D3
330
9
100
AcDbSymbolTableRecord
100
AcDbDimStyleTableRecord
  2
AM_ISO$SH
 70
     0
  4
"
 41
2.5
 42
1.0
 43
10.0
 44
1.0
 47
0.1
 48
0.1
 73
     0
 74
     0
 75
     1
 76
     1
 77
     1
 78
     8
 79
     2
140
3.5
141
0.0
143
0.0393701
144
2.0
146
0.71
147
1.5
172
     1
173
     1
176
   256
177
   256
178
     2
271
     2
272
     3
274
     4
283
     0
284
     8
340
230
343
2CF
371
    -1
372
    -1
  0
DIMSTYLE
105
E9E
102
{ACAD_REACTORS
330
11AB
330
11AE
330
11B1
330
11B4
330
11B7
330
11BA
330
11BD
330
11C0
330
11C3
330
11C6
330
11C9
330
11CC
330
11CF
330
11D2
330
11D7
330
11DA
330
11DD
330
11E0
102
}
330
9
100
AcDbSymbolTableRecord
100
AcDbDimStyleTableRecord
  2
ISO-25
 70
     0
 41
2.5
 42
0.625
 43
3.75
 44
1.25
 47
0.2
 48
0.000000001
 73
     0
 74
     0
 77
     1
 78
     8
140
4.0
141
2.5
143
0.03937007874016
147
0.625
171
     3
172
     1
271
     2
272
     2
274
     3
284
     8
340
230
341
178
342
178
1001
ACAD_DSTYLE_DIMEXT_LENGTH
1070
   378
1040
1.25
1001
ACAD_DSTYLE_DIMEXT_ENABLED
1070
   383
1070
     0
1001
ACAD_DSTYLE_DIMARC_LENGTH_SYMBOL
1070
   379
1070
     0
1001
ACAD_DSTYLE_DIMJOGGED_JOGANGLE_SYMBOL
1070
   384
1040
1.570796326794896
  0
ENDTAB
  0
TABLE
  2
BLOCK_RECORD
  5
1
330
0
100
AcDbSymbolTable
 70
    83
  0
BLOCK_RECORD
  5
A
330
1
100
AcDbSymbolTableRecord
100
AcDbBlockTableRecord
  2
*MODEL_SPACE
340
239
  0
BLOCK_RECORD
  5
B
330
1
100
AcDbSymbolTableRecord
100
AcDbBlockTableRecord
  2
*PAPER_SPACE
340
23A
  0
BLOCK_RECORD
  5
178
330
1
100
AcDbSymbolTableRecord
100
AcDbBlockTableRecord
  2
_OPEN30
340
0
102
{BLKREFS
331
184
331
185
331
191
331
192
331
19E
331
19F
331
1AB
331
1AC
331
1B8
331
1B9
331
1C7
331
1C8
331
1D4
331
1D5
331
1E1
331
1E2
331
1EE
331
1EF
331
1FB
331
1FC
331
208
331
209
331
215
331
216
331
222
331
223
331
397
331
398
331
3A3
331
3A4
331
3AF
331
3B0
331
3BB
331
3BC
331
3C7
331
3C8
331
3D3
331
3D4
331
3DF
331
3E0
331
3EA
331
3F3
331
3F4
331
3FF
331
400
331
40B
331
40C
331
417
331
418
331
C85
331
C86
331
C8E
331
C8F
331
C97
331
C98
331
CA0
331
CA1
331
CA9
331
CAA
331
CB1
331
CB7
331
CB8
331
CC0
331
CC1
331
CC9
331
CCA
331
CD2
331
CD3
331
CDB
331
CDC
331
CE4
331
CE5
331
DC6
331
DC7
331
DD2
331
DD3
331
DDE
331
DDF
331
DE8
331
DE9
331
DF3
331
DF4
331
DFF
331
E00
331
E0B
331
E0C
331
E17
331
E18
331
E23
331
E24
331
E2F
331
E30
331
E3B
331
E3C
331
E47
331
E48
331
E54
331
E55
331
E60
331
E61
331
E6D
331
E6E
331
E79
331
E7A
331
E85
331
E86
331
E91
331
E92
331
1399
331
139A
331
13A2
331
13A3
331
13AB
331
13AC
331
13BA
331
13BB
331
13C3
331
13C4
331
13CC
331
13CD
331
13D5
331
13D6
331
13DE
331
13DF
331
13E7
331
13E8
331
13F0
331
13F1
331
13F9
331
13FA
331
1403
331
1404
331
140C
331
140D
331
1415
331
1416
331
141E
331
141F
331
1427
331
1428
331
1430
331
1431
331
1437
331
1438
102
}
  0
BLOCK_RECORD
  5
17F
330
1
100
AcDbSymbolTableRecord
100
AcDbBlockTableRecord
  2
*D1
340
0
  0
BLOCK_RECORD
  5
18C
330
1
100
AcDbSymbolTableRecord
100
AcDbBlockTableRecord
  2
*D2
340
0
  0
BLOCK_RECORD
  5
199
330
1
100
AcDbSymbolTableRecord
100
AcDbBlockTableRecord
  2
*D3
340
0
  0
BLOCK_RECORD
  5
1A6
330
1
100
AcDbSymbolTableRecord
100
AcDbBlockTableRecord
  2
*D4
340
0
  0
BLOCK_RECORD
  5
1B3
330
1
100
AcDbSymbolTableRecord
100
AcDbBlockTableRecord
  2
*D5
340
0
  0
BLOCK_RECORD
  5
1C0
330
1
100
AcDbSymbolTableRecord
100
AcDbBlockTableRecord
  2
*D6
340
0
  0
BLOCK_RECORD
  5
1CF
330
1
100
AcDbSymbolTableRecord
100
AcDbBlockTableRecord
  2
*D7
340
0
  0
BLOCK_RECORD
  5
1DC
330
1
100
AcDbSymbolTableRecord
100
AcDbBlockTableRecord
  2
*D8
340
0
  0
BLOCK_RECORD
  5
1E9
330
1
100
AcDbSymbolTableRecord
100
AcDbBlockTableRecord
  2
*D9
340
0
  0
BLOCK_RECORD
  5
1F6
330
1
100
AcDbSymbolTableRecord
100
AcDbBlockTableRecord
  2
*D10
340
0
  0
BLOCK_RECORD
  5
203
330
1
100
AcDbSymbolTableRecord
100
AcDbBlockTableRecord
  2
*D11
340
0
  0
BLOCK_RECORD
  5
210
330
1
100
AcDbSymbolTableRecord
100
AcDbBlockTableRecord
  2
*D12
340
0
  0
BLOCK_RECORD
  5
21D
330
1
100
AcDbSymbolTableRecord
100
AcDbBlockTableRecord
  2
*D13
340
0
  0
BLOCK_RECORD
  5
2CF
330
1
100
AcDbSymbolTableRecord
100
AcDbBlockTableRecord
  2
GENAXEH
340
0
  0
BLOCK_RECORD
  5
2E0
330
1
100
AcDbSymbolTableRecord
100
AcDbBlockTableRecord
  2
MS_1
340
0
  0
BLOCK_RECORD
  5
343
330
1
100
AcDbSymbolTableRecord
100
AcDbBlockTableRecord
  2
*X16
340
0
  0
BLOCK_RECORD
  5
368
330
1
100
AcDbSymbolTableRecord
100
AcDbBlockTableRecord
  2
*G1817181717
340
0
  0
BLOCK_RECORD
  5
378
330
1
100
AcDbSymbolTableRecord
100
AcDbBlockTableRecord
  2
*G1918191818
340
0
  0
BLOCK_RECORD
  5
388
330
1
100
AcDbSymbolTableRecord
100
AcDbBlockTableRecord
  2
*G2019201919
340
0
  0
BLOCK_RECORD
  5
392
330
1
100
AcDbSymbolTableRecord
100
AcDbBlockTableRecord
  2
*D20
340
0
  0
BLOCK_RECORD
  5
39E
330
1
100
AcDbSymbolTableRecord
100
AcDbBlockTableRecord
  2
*D21
340
0
  0
BLOCK_RECORD
  5
3AA
330
1
100
AcDbSymbolTableRecord
100
AcDbBlockTableRecord
  2
*D22
340
0
  0
BLOCK_RECORD
  5
3B6
330
1
100
AcDbSymbolTableRecord
100
AcDbBlockTableRecord
  2
*D23
340
0
  0
BLOCK_RECORD
  5
3C2
330
1
100
AcDbSymbolTableRecord
100
AcDbBlockTableRecord
  2
*D24
340
0
  0
BLOCK_RECORD
  5
3CE
330
1
100
AcDbSymbolTableRecord
100
AcDbBlockTableRecord
  2
*D25
340
0
  0
BLOCK_RECORD
  5
3DA
330
1
100
AcDbSymbolTableRecord
100
AcDbBlockTableRecord
  2
*D26
340
0
  0
BLOCK_RECORD
  5
3E6
330
1
100
AcDbSymbolTableRecord
100
AcDbBlockTableRecord
  2
*D27
340
0
  0
BLOCK_RECORD
  5
3EE
330
1
100
AcDbSymbolTableRecord
100
AcDbBlockTableRecord
  2
*D28
340
0
  0
BLOCK_RECORD
  5
3FA
330
1
100
AcDbSymbolTableRecord
100
AcDbBlockTableRecord
  2
*D29
340
0
  0
BLOCK_RECORD
  5
406
330
1
100
AcDbSymbolTableRecord
100
AcDbBlockTableRecord
  2
*D30
340
0
  0
BLOCK_RECORD
  5
412
330
1
100
AcDbSymbolTableRecord
100
AcDbBlockTableRecord
  2
*D31
340
0
  0
BLOCK_RECORD
  5
B87
330
1
100
AcDbSymbolTableRecord
100
AcDbBlockTableRecord
  2
*D32
340
0
  0
BLOCK_RECORD
  5
B91
330
1
100
AcDbSymbolTableRecord
100
AcDbBlockTableRecord
  2
*D33
340
0
  0
BLOCK_RECORD
  5
B9B
330
1
100
AcDbSymbolTableRecord
100
AcDbBlockTableRecord
  2
*D34
340
0
  0
BLOCK_RECORD
  5
BA5
330
1
100
AcDbSymbolTableRecord
100
AcDbBlockTableRecord
  2
*D35
340
0
  0
BLOCK_RECORD
  5
BAF
330
1
100
AcDbSymbolTableRecord
100
AcDbBlockTableRecord
  2
*D36
340
0
  0
BLOCK_RECORD
  5
BB9
330
1
100
AcDbSymbolTableRecord
100
AcDbBlockTableRecord
  2
*D37
340
0
  0
BLOCK_RECORD
  5
BBF
330
1
100
AcDbSymbolTableRecord
100
AcDbBlockTableRecord
  2
*D38
340
0
  0
BLOCK_RECORD
  5
BC9
330
1
100
AcDbSymbolTableRecord
100
AcDbBlockTableRecord
  2
*D39
340
0
  0
BLOCK_RECORD
  5
BD3
330
1
100
AcDbSymbolTableRecord
100
AcDbBlockTableRecord
  2
*D40
340
0
  0
BLOCK_RECORD
  5
BDD
330
1
100
AcDbSymbolTableRecord
100
AcDbBlockTableRecord
  2
*D41
340
0
  0
BLOCK_RECORD
  5
BE7
330
1
100
AcDbSymbolTableRecord
100
AcDbBlockTableRecord
  2
*D42
340
0
  0
BLOCK_RECORD
  5
BF1
330
1
100
AcDbSymbolTableRecord
100
AcDbBlockTableRecord
  2
*D43
340
0
  0
BLOCK_RECORD
  5
D6C
330
1
100
AcDbSymbolTableRecord
100
AcDbBlockTableRecord
  2
*X44
340
0
  0
BLOCK_RECORD
  5
D91
330
1
100
AcDbSymbolTableRecord
100
AcDbBlockTableRecord
  2
*G51504645
340
0
102
{BLKREFS
331
1195
102
}
  0
BLOCK_RECORD
  5
DA9
330
1
100
AcDbSymbolTableRecord
100
AcDbBlockTableRecord
  2
*G52514746
340
0
102
{BLKREFS
331
1198
102
}
  0
BLOCK_RECORD
  5
DC1
330
1
100
AcDbSymbolTableRecord
100
AcDbBlockTableRecord
  2
*D47
340
0
  0
BLOCK_RECORD
  5
DCD
330
1
100
AcDbSymbolTableRecord
100
AcDbBlockTableRecord
  2
*D48
340
0
  0
BLOCK_RECORD
  5
DD9
330
1
100
AcDbSymbolTableRecord
100
AcDbBlockTableRecord
  2
*D49
340
0
  0
BLOCK_RECORD
  5
DE5
330
1
100
AcDbSymbolTableRecord
100
AcDbBlockTableRecord
  2
*D50
340
0
  0
BLOCK_RECORD
  5
DEE
330
1
100
AcDbSymbolTableRecord
100
AcDbBlockTableRecord
  2
*D51
340
0
  0
BLOCK_RECORD
  5
DFA
330
1
100
AcDbSymbolTableRecord
100
AcDbBlockTableRecord
  2
*D52
340
0
  0
BLOCK_RECORD
  5
E06
330
1
100
AcDbSymbolTableRecord
100
AcDbBlockTableRecord
  2
*D53
340
0
  0
BLOCK_RECORD
  5
E12
330
1
100
AcDbSymbolTableRecord
100
AcDbBlockTableRecord
  2
*D54
340
0
  0
BLOCK_RECORD
  5
E1E
330
1
100
AcDbSymbolTableRecord
100
AcDbBlockTableRecord
  2
*D55
340
0
  0
BLOCK_RECORD
  5
E2A
330
1
100
AcDbSymbolTableRecord
100
AcDbBlockTableRecord
  2
*D56
340
0
  0
BLOCK_RECORD
  5
E36
330
1
100
AcDbSymbolTableRecord
100
AcDbBlockTableRecord
  2
*D57
340
0
  0
BLOCK_RECORD
  5
E42
330
1
100
AcDbSymbolTableRecord
100
AcDbBlockTableRecord
  2
*D58
340
0
  0
BLOCK_RECORD
  5
E4E
330
1
100
AcDbSymbolTableRecord
100
AcDbBlockTableRecord
  2
*D59
340
0
  0
BLOCK_RECORD
  5
E5B
330
1
100
AcDbSymbolTableRecord
100
AcDbBlockTableRecord
  2
*D60
340
0
  0
BLOCK_RECORD
  5
E67
330
1
100
AcDbSymbolTableRecord
100
AcDbBlockTableRecord
  2
*D61
340
0
  0
BLOCK_RECORD
  5
E74
330
1
100
AcDbSymbolTableRecord
100
AcDbBlockTableRecord
  2
*D62
340
0
  0
BLOCK_RECORD
  5
E80
330
1
100
AcDbSymbolTableRecord
100
AcDbBlockTableRecord
  2
*D63
340
0
  0
BLOCK_RECORD
  5
E8C
330
1
100
AcDbSymbolTableRecord
100
AcDbBlockTableRecord
  2
*D64
340
0
  0
BLOCK_RECORD
  5
11E7
330
1
100
AcDbSymbolTableRecord
100
AcDbBlockTableRecord
  2
*D65
340
0
  0
BLOCK_RECORD
  5
11F1
330
1
100
AcDbSymbolTableRecord
100
AcDbBlockTableRecord
  2
*D66
340
0
  0
BLOCK_RECORD
  5
11FB
330
1
100
AcDbSymbolTableRecord
100
AcDbBlockTableRecord
  2
*D67
340
0
  0
BLOCK_RECORD
  5
1205
330
1
100
AcDbSymbolTableRecord
100
AcDbBlockTableRecord
  2
*D68
340
0
  0
BLOCK_RECORD
  5
120C
330
1
100
AcDbSymbolTableRecord
100
AcDbBlockTableRecord
  2
*D69
340
0
  0
BLOCK_RECORD
  5
1216
330
1
100
AcDbSymbolTableRecord
100
AcDbBlockTableRecord
  2
*D70
340
0
  0
BLOCK_RECORD
  5
1220
330
1
100
AcDbSymbolTableRecord
100
AcDbBlockTableRecord
  2
*D71
340
0
  0
BLOCK_RECORD
  5
122A
330
1
100
AcDbSymbolTableRecord
100
AcDbBlockTableRecord
  2
*D72
340
0
  0
BLOCK_RECORD
  5
1234
330
1
100
AcDbSymbolTableRecord
100
AcDbBlockTableRecord
  2
*D73
340
0
  0
BLOCK_RECORD
  5
123E
330
1
100
AcDbSymbolTableRecord
100
AcDbBlockTableRecord
  2
*D74
340
0
  0
BLOCK_RECORD
  5
1248
330
1
100
AcDbSymbolTableRecord
100
AcDbBlockTableRecord
  2
*D75
340
0
  0
BLOCK_RECORD
  5
1252
330
1
100
AcDbSymbolTableRecord
100
AcDbBlockTableRecord
  2
*D76
340
0
  0
BLOCK_RECORD
  5
125C
330
1
100
AcDbSymbolTableRecord
100
AcDbBlockTableRecord
  2
*D77
340
0
  0
BLOCK_RECORD
  5
1267
330
1
100
AcDbSymbolTableRecord
100
AcDbBlockTableRecord
  2
*D78
340
0
  0
BLOCK_RECORD
  5
1271
330
1
100
AcDbSymbolTableRecord
100
AcDbBlockTableRecord
  2
*D79
340
0
  0
BLOCK_RECORD
  5
127B
330
1
100
AcDbSymbolTableRecord
100
AcDbBlockTableRecord
  2
*D80
340
0
  0
BLOCK_RECORD
  5
1285
330
1
100
AcDbSymbolTableRecord
100
AcDbBlockTableRecord
  2
*D81
340
0
  0
BLOCK_RECORD
  5
128F
330
1
100
AcDbSymbolTableRecord
100
AcDbBlockTableRecord
  2
*D82
340
0
  0
ENDTAB
  0
ENDSEC
  0
SECTION
  2
BLOCKS
  0
BLOCK
  5
D
330
A
100
AcDbEntity
  8
0
100
AcDbBlockBegin
  2
*MODEL_SPACE
 70
     0
 10
0.0
 20
0.0
 30
0.0
  3
*MODEL_SPACE
  1

  0
ENDBLK
  5
E
330
A
100
AcDbEntity
  8
0
100
AcDbBlockEnd
  0
BLOCK
  5
F
330
B
100
AcDbEntity
 67
     1
  8
0
100
AcDbBlockBegin
  2
*PAPER_SPACE
 70
     0
 10
0.0
 20
0.0
 30
0.0
  3
*PAPER_SPACE
  1

  0
ENDBLK
  5
10
330
B
100
AcDbEntity
 67
     1
  8
0
100
AcDbBlockEnd
  0
BLOCK
  5
179
330
178
100
AcDbEntity
  8
0
  6
ByBlock
 62
     0
100
AcDbBlockBegin
  2
_OPEN30
 70
     2
 10
0.0
 20
0.0
 30
0.0
  3
_OPEN30
  1

  0
LINE
  5
17A
330
178
100
AcDbEntity
  8
0
  6
ByBlock
 62
     0
100
AcDbLine
 10
-1.0
 20
0.267949
 30
0.0
 11
0.0
 21
0.0
 31
0.0
  0
LINE
  5
17B
330
178
100
AcDbEntity
  8
0
  6
ByBlock
 62
     0
100
AcDbLine
 10
0.0
 20
0.0
 30
0.0
 11
-1.0
 21
-0.267949
 31
0.0
  0
LINE
  5
17C
330
178
100
AcDbEntity
  8
0
  6
ByBlock
 62
     0
100
AcDbLine
 10
0.0
 20
0.0
 30
0.0
 11
-1.0
 21
0.0
 31
0.0
  0
ENDBLK
  5
17D
330
178
100
AcDbEntity
  8
0
  6
ByBlock
 62
     0
100
AcDbBlockEnd
  0
BLOCK
  5
180
330
17F
100
AcDbEntity
  8
0
  6
ByBlock
 62
     0
100
AcDbBlockBegin
  2
*D1
 70
     1
 10
0.0
 20
0.0
 30
0.0
  3
*D1
  1

  0
LINE
  5
181
330
17F
100
AcDbEntity
  8
0
  6
Continuous
 62
   255
100
AcDbLine
 10
-128.255157
 20
-57.10685699999999
 30
0.0
 11
-176.255157
 21
-57.10685699999999
 31
0.0
  0
LINE
  5
182
330
17F
100
AcDbEntity
  8
0
  6
Continuous
 62
   255
100
AcDbLine
 10
-128.255157
 20
-25.780208
 30
0.0
 11
-128.255157
 21
-59.392853
 31
0.0
  0
LINE
  5
183
330
17F
100
AcDbEntity
  8
0
  6
Continuous
 62
   255
100
AcDbLine
 10
-176.255157
 20
-25.780208
 30
0.0
 11
-176.255157
 21
-59.392853
 31
0.0
  0
INSERT
  5
184
330
17F
100
AcDbEntity
  8
0
  6
Continuous
 62
   255
100
AcDbBlockReference
  2
_OPEN30
 10
-128.255157
 20
-57.10685699999999
 30
0.0
 41
2.77
 42
2.77
 43
2.77
  0
INSERT
  5
185
330
17F
100
AcDbEntity
  8
0
  6
Continuous
 62
   255
100
AcDbBlockReference
  2
_OPEN30
 10
-176.255157
 20
-57.10685699999999
 30
0.0
 41
2.77
 42
2.77
 43
2.77
 50
180.0
  0
MTEXT
  5
186
330
17F
100
AcDbEntity
  8
0
  6
Continuous
 62
   255
100
AcDbMText
 10
-152.714309
 20
-54.023264
 30
0.0
 40
4.167186
 41
0.0
 71
     5
 72
     1
  1
\A1;48
 73
     1
 44
1.0
  0
POINT
  5
187
330
17F
100
AcDbEntity
  8
DEFPOINTS
  6
Continuous
 62
     0
100
AcDbPoint
 10
-128.255157
 20
-24.510208
 30
0.0
  0
POINT
  5
188
330
17F
100
AcDbEntity
  8
DEFPOINTS
  6
Continuous
 62
     0
100
AcDbPoint
 10
-176.255157
 20
-24.510208
 30
0.0
  0
POINT
  5
189
330
17F
100
AcDbEntity
  8
DEFPOINTS
  6
Continuous
 62
     0
100
AcDbPoint
 10
-176.255157
 20
-57.10685699999999
 30
0.0
  0
ENDBLK
  5
18A
330
17F
100
AcDbEntity
  8
0
  6
ByBlock
 62
     0
100
AcDbBlockEnd
  0
BLOCK
  5
18D
330
18C
100
AcDbEntity
  8
0
  6
ByBlock
 62
     0
100
AcDbBlockBegin
  2
*D2
 70
     1
 10
0.0
 20
0.0
 30
0.0
  3
*D2
  1

  0
LINE
  5
18E
330
18C
100
AcDbEntity
  8
0
  6
Continuous
 62
   255
100
AcDbLine
 10
-102.255157
 20
-66.487595
 30
0.0
 11
-202.255157
 21
-66.487595
 31
0.0
  0
LINE
  5
18F
330
18C
100
AcDbEntity
  8
0
  6
Continuous
 62
   255
100
AcDbLine
 10
-102.255157
 20
-47.780209
 30
0.0
 11
-102.255157
 21
-68.77359100000001
 31
0.0
  0
LINE
  5
190
330
18C
100
AcDbEntity
  8
0
  6
Continuous
 62
   255
100
AcDbLine
 10
-202.255157
 20
-47.780209
 30
0.0
 11
-202.255157
 21
-68.77359100000001
 31
0.0
  0
INSERT
  5
191
330
18C
100
AcDbEntity
  8
0
  6
Continuous
 62
   255
100
AcDbBlockReference
  2
_OPEN30
 10
-102.255157
 20
-66.487595
 30
0.0
 41
2.77
 42
2.77
 43
2.77
  0
INSERT
  5
192
330
18C
100
AcDbEntity
  8
0
  6
Continuous
 62
   255
100
AcDbBlockReference
  2
_OPEN30
 10
-202.255157
 20
-66.487595
 30
0.0
 41
2.77
 42
2.77
 43
2.77
 50
180.0
  0
MTEXT
  5
193
330
18C
100
AcDbEntity
  8
0
  6
Continuous
 62
   255
100
AcDbMText
 10
-152.240539
 20
-63.404002
 30
0.0
 40
4.167186
 41
0.0
 71
     5
 72
     1
  1
\A1;100
 73
     1
 44
1.0
  0
POINT
  5
194
330
18C
100
AcDbEntity
  8
DEFPOINTS
  6
Continuous
 62
     0
100
AcDbPoint
 10
-102.255157
 20
-46.510209
 30
0.0
  0
POINT
  5
195
330
18C
100
AcDbEntity
  8
DEFPOINTS
  6
Continuous
 62
     0
100
AcDbPoint
 10
-202.255157
 20
-46.510209
 30
0.0
  0
POINT
  5
196
330
18C
100
AcDbEntity
  8
DEFPOINTS
  6
Continuous
 62
     0
100
AcDbPoint
 10
-202.255157
 20
-66.487595
 30
0.0
  0
ENDBLK
  5
197
330
18C
100
AcDbEntity
  8
0
  6
ByBlock
 62
     0
100
AcDbBlockEnd
  0
BLOCK
  5
19A
330
199
100
AcDbEntity
  8
0
  6
ByBlock
 62
     0
100
AcDbBlockBegin
  2
*D3
 70
     1
 10
0.0
 20
0.0
 30
0.0
  3
*D3
  1

  0
LINE
  5
19B
330
199
100
AcDbEntity
  8
0
  6
Continuous
 62
   255
100
AcDbLine
 10
-226.717896
 20
-50.51020799999999
 30
0.0
 11
-226.717896
 21
49.489777
 31
0.0
  0
LINE
  5
19C
330
199
100
AcDbEntity
  8
0
  6
Continuous
 62
   255
100
AcDbLine
 10
-199.525156
 20
-50.51020799999999
 30
0.0
 11
-229.003892
 21
-50.51020799999999
 31
0.0
  0
LINE
  5
19D
330
199
100
AcDbEntity
  8
0
  6
Continuous
 62
   255
100
AcDbLine
 10
-199.525156
 20
49.489777
 30
0.0
 11
-229.003892
 21
49.489777
 31
0.0
  0
INSERT
  5
19E
330
199
100
AcDbEntity
  8
0
  6
Continuous
 62
   255
100
AcDbBlockReference
  2
_OPEN30
 10
-226.717896
 20
-50.51020799999999
 30
0.0
 41
2.77
 42
2.77
 43
2.77
 50
270.0
  0
INSERT
  5
19F
330
199
100
AcDbEntity
  8
0
  6
Continuous
 62
   255
100
AcDbBlockReference
  2
_OPEN30
 10
-226.717896
 20
49.489777
 30
0.0
 41
2.77
 42
2.77
 43
2.77
 50
90.0
  0
MTEXT
  5
1A0
330
199
100
AcDbEntity
  8
0
  6
Continuous
 62
   255
100
AcDbMText
 10
-229.801489
 20
-0.348682
 30
0.0
 40
4.167186
 41
0.0
 71
     5
 72
     1
  1
\A1;100
 11
0.0
 21
1.0
 31
0.0
 73
     1
 44
1.0
  0
POINT
  5
1A1
330
199
100
AcDbEntity
  8
DEFPOINTS
  6
Continuous
 62
     0
100
AcDbPoint
 10
-198.255156
 20
-50.51020799999999
 30
0.0
  0
POINT
  5
1A2
330
199
100
AcDbEntity
  8
DEFPOINTS
  6
Continuous
 62
     0
100
AcDbPoint
 10
-198.255156
 20
49.489777
 30
0.0
  0
POINT
  5
1A3
330
199
100
AcDbEntity
  8
DEFPOINTS
  6
Continuous
 62
     0
100
AcDbPoint
 10
-226.717896
 20
49.489777
 30
0.0
  0
ENDBLK
  5
1A4
330
199
100
AcDbEntity
  8
0
  6
ByBlock
 62
     0
100
AcDbBlockEnd
  0
BLOCK
  5
1A7
330
1A6
100
AcDbEntity
  8
0
  6
ByBlock
 62
     0
100
AcDbBlockBegin
  2
*D4
 70
     1
 10
0.0
 20
0.0
 30
0.0
  3
*D4
  1

  0
LINE
  5
1A8
330
1A6
100
AcDbEntity
  8
0
  6
Continuous
 62
   255
100
AcDbLine
 10
-217.242401
 20
-37.510208
 30
0.0
 11
-217.242401
 21
-24.510208
 31
0.0
  0
LINE
  5
1A9
330
1A6
100
AcDbEntity
  8
0
  6
Continuous
 62
   255
100
AcDbLine
 10
-153.525157
 20
-37.510208
 30
0.0
 11
-219.528396
 21
-37.510208
 31
0.0
  0
LINE
  5
1AA
330
1A6
100
AcDbEntity
  8
0
  6
Continuous
 62
   255
100
AcDbLine
 10
-177.525157
 20
-24.510208
 30
0.0
 11
-219.528396
 21
-24.510208
 31
0.0
  0
INSERT
  5
1AB
330
1A6
100
AcDbEntity
  8
0
  6
Continuous
 62
   255
100
AcDbBlockReference
  2
_OPEN30
 10
-217.242401
 20
-37.510208
 30
0.0
 41
2.77
 42
2.77
 43
2.77
 50
270.0
  0
INSERT
  5
1AC
330
1A6
100
AcDbEntity
  8
0
  6
Continuous
 62
   255
100
AcDbBlockReference
  2
_OPEN30
 10
-217.242401
 20
-24.510208
 30
0.0
 41
2.77
 42
2.77
 43
2.77
 50
90.0
  0
MTEXT
  5
1AD
330
1A6
100
AcDbEntity
  8
0
  6
Continuous
 62
   255
100
AcDbMText
 10
-220.325994
 20
-30.907135
 30
0.0
 40
4.167186
 41
0.0
 71
     5
 72
     1
  1
\A1;13
 11
0.0
 21
1.0
 31
0.0
 73
     1
 44
1.0
  0
POINT
  5
1AE
330
1A6
100
AcDbEntity
  8
DEFPOINTS
  6
Continuous
 62
     0
100
AcDbPoint
 10
-152.255157
 20
-37.510208
 30
0.0
  0
POINT
  5
1AF
330
1A6
100
AcDbEntity
  8
DEFPOINTS
  6
Continuous
 62
     0
100
AcDbPoint
 10
-176.255157
 20
-24.510208
 30
0.0
  0
POINT
  5
1B0
330
1A6
100
AcDbEntity
  8
DEFPOINTS
  6
Continuous
 62
     0
100
AcDbPoint
 10
-217.242401
 20
-24.510208
 30
0.0
  0
ENDBLK
  5
1B1
330
1A6
100
AcDbEntity
  8
0
  6
ByBlock
 62
     0
100
AcDbBlockEnd
  0
BLOCK
  5
1B4
330
1B3
100
AcDbEntity
  8
0
  6
ByBlock
 62
     0
100
AcDbBlockBegin
  2
*D5
 70
     1
 10
0.0
 20
0.0
 30
0.0
  3
*D5
  1

  0
LINE
  5
1B5
330
1B3
100
AcDbEntity
  8
0
  6
Continuous
 62
   255
100
AcDbLine
 10
-217.242401
 20
-24.510208
 30
0.0
 11
-217.242401
 21
-0.510216
 31
0.0
  0
LINE
  5
1B6
330
1B3
100
AcDbEntity
  8
0
  6
Continuous
 62
   255
100
AcDbLine
 10
-177.525157
 20
-24.510208
 30
0.0
 11
-219.528397
 21
-24.510208
 31
0.0
  0
LINE
  5
1B7
330
1B3
100
AcDbEntity
  8
0
  6
Continuous
 62
   255
100
AcDbLine
 10
-203.525157
 20
-0.510216
 30
0.0
 11
-219.528397
 21
-0.510216
 31
0.0
  0
INSERT
  5
1B8
330
1B3
100
AcDbEntity
  8
0
  6
Continuous
 62
   255
100
AcDbBlockReference
  2
_OPEN30
 10
-217.242401
 20
-24.510208
 30
0.0
 41
2.77
 42
2.77
 43
2.77
 50
270.0
  0
INSERT
  5
1B9
330
1B3
100
AcDbEntity
  8
0
  6
Continuous
 62
   255
100
AcDbBlockReference
  2
_OPEN30
 10
-217.242401
 20
-0.510216
 30
0.0
 41
2.77
 42
2.77
 43
2.77
 50
90.0
  0
MTEXT
  5
1BA
330
1B3
100
AcDbEntity
  8
0
  6
Continuous
 62
   255
100
AcDbMText
 10
-220.325994
 20
-12.510208
 30
0.0
 40
4.167186
 41
0.0
 71
     5
 72
     1
  1
\A1;24
 11
0.0
 21
1.0
 31
0.0
 73
     1
 44
1.0
  0
POINT
  5
1BB
330
1B3
100
AcDbEntity
  8
DEFPOINTS
  6
Continuous
 62
     0
100
AcDbPoint
 10
-176.255157
 20
-24.510208
 30
0.0
  0
POINT
  5
1BC
330
1B3
100
AcDbEntity
  8
DEFPOINTS
  6
Continuous
 62
     0
100
AcDbPoint
 10
-202.255157
 20
-0.510216
 30
0.0
  0
POINT
  5
1BD
330
1B3
100
AcDbEntity
  8
DEFPOINTS
  6
Continuous
 62
     0
100
AcDbPoint
 10
-217.242401
 20
-0.510216
 30
0.0
  0
ENDBLK
  5
1BE
330
1B3
100
AcDbEntity
  8
0
  6
ByBlock
 62
     0
100
AcDbBlockEnd
  0
BLOCK
  5
1C1
330
1C0
100
AcDbEntity
  8
0
  6
ByBlock
 62
     0
100
AcDbBlockBegin
  2
*D6
 70
     1
 10
0.0
 20
0.0
 30
0.0
  3
*D6
  1

  0
LINE
  5
1C2
330
1C0
100
AcDbEntity
  8
0
  6
Continuous
 62
   255
100
AcDbLine
 10
-44.255157
 20
-66.81924399999998
 30
0.0
 11
-52.255157
 21
-66.81924399999998
 31
0.0
  0
LINE
  5
1C3
330
1C0
100
AcDbEntity
  8
0
  6
Continuous
 62
   255
100
AcDbLine
 10
-44.255157
 20
-48.939937
 30
0.0
 11
-44.255157
 21
-69.10524000000001
 31
0.0
  0
LINE
  5
1C4
330
1C0
100
AcDbEntity
  8
0
  6
Continuous
 62
   255
100
AcDbLine
 10
-52.255157
 20
-28.450252
 30
0.0
 11
-52.255157
 21
-69.10524000000001
 31
0.0
  0
LINE
  5
1C5
330
1C0
100
AcDbEntity
  8
0
  6
Continuous
 62
   255
100
AcDbLine
 10
-44.255157
 20
-66.81924399999998
 30
0.0
 11
-37.905157
 21
-66.81924399999998
 31
0.0
  0
LINE
  5
1C6
330
1C0
100
AcDbEntity
  8
0
  6
Continuous
 62
   255
100
AcDbLine
 10
-52.255157
 20
-66.81924399999998
 30
0.0
 11
-58.605157
 21
-66.81924399999998
 31
0.0
  0
INSERT
  5
1C7
330
1C0
100
AcDbEntity
  8
0
  6
Continuous
 62
   255
100
AcDbBlockReference
  2
_OPEN30
 10
-44.255157
 20
-66.81924399999998
 30
0.0
 41
2.77
 42
2.77
 43
2.77
 50
180.0
  0
INSERT
  5
1C8
330
1C0
100
AcDbEntity
  8
0
  6
Continuous
 62
   255
100
AcDbBlockReference
  2
_OPEN30
 10
-52.255157
 20
-66.81924399999998
 30
0.0
 41
2.77
 42
2.77
 43
2.77
  0
MTEXT
  5
1C9
330
1C0
100
AcDbEntity
  8
0
  6
Continuous
 62
   255
100
AcDbMText
 10
-48.255157
 20
-63.735651
 30
0.0
 40
4.167186
 41
0.0
 71
     5
 72
     1
  1
\A1;8
 73
     1
 44
1.0
  0
POINT
  5
1CA
330
1C0
100
AcDbEntity
  8
DEFPOINTS
  6
Continuous
 62
     0
100
AcDbPoint
 10
-44.255157
 20
-47.66993699999999
 30
0.0
  0
POINT
  5
1CB
330
1C0
100
AcDbEntity
  8
DEFPOINTS
  6
Continuous
 62
     0
100
AcDbPoint
 10
-52.255157
 20
-27.180252
 30
0.0
  0
POINT
  5
1CC
330
1C0
100
AcDbEntity
  8
DEFPOINTS
  6
Continuous
 62
     0
100
AcDbPoint
 10
-52.255157
 20
-66.81924399999998
 30
0.0
  0
ENDBLK
  5
1CD
330
1C0
100
AcDbEntity
  8
0
  6
ByBlock
 62
     0
100
AcDbBlockEnd
  0
BLOCK
  5
1D0
330
1CF
100
AcDbEntity
  8
0
  6
ByBlock
 62
     0
100
AcDbBlockBegin
  2
*D7
 70
     1
 10
0.0
 20
0.0
 30
0.0
  3
*D7
  1

  0
LINE
  5
1D1
330
1CF
100
AcDbEntity
  8
0
  6
Continuous
 62
   255
100
AcDbLine
 10
-32.25515700000001
 20
-66.81924399999998
 30
0.0
 11
-44.255157
 21
-66.81924399999998
 31
0.0
  0
LINE
  5
1D2
330
1CF
100
AcDbEntity
  8
0
  6
Continuous
 62
   255
100
AcDbLine
 10
-32.25515700000001
 20
-51.780208
 30
0.0
 11
-32.25515700000001
 21
-69.105239
 31
0.0
  0
LINE
  5
1D3
330
1CF
100
AcDbEntity
  8
0
  6
Continuous
 62
   255
100
AcDbLine
 10
-44.255157
 20
-48.939937
 30
0.0
 11
-44.255157
 21
-69.105239
 31
0.0
  0
INSERT
  5
1D4
330
1CF
100
AcDbEntity
  8
0
  6
Continuous
 62
   255
100
AcDbBlockReference
  2
_OPEN30
 10
-32.25515700000001
 20
-66.81924399999998
 30
0.0
 41
2.77
 42
2.77
 43
2.77
  0
INSERT
  5
1D5
330
1CF
100
AcDbEntity
  8
0
  6
Continuous
 62
   255
100
AcDbBlockReference
  2
_OPEN30
 10
-44.255157
 20
-66.81924399999998
 30
0.0
 41
2.77
 42
2.77
 43
2.77
 50
180.0
  0
MTEXT
  5
1D6
330
1CF
100
AcDbEntity
  8
0
  6
Continuous
 62
   255
100
AcDbMText
 10
-38.255157
 20
-63.735651
 30
0.0
 40
4.167186
 41
0.0
 71
     5
 72
     1
  1
\A1;12
 73
     1
 44
1.0
  0
POINT
  5
1D7
330
1CF
100
AcDbEntity
  8
DEFPOINTS
  6
Continuous
 62
     0
100
AcDbPoint
 10
-32.25515700000001
 20
-50.51020799999999
 30
0.0
  0
POINT
  5
1D8
330
1CF
100
AcDbEntity
  8
DEFPOINTS
  6
Continuous
 62
     0
100
AcDbPoint
 10
-44.255157
 20
-47.66993699999999
 30
0.0
  0
POINT
  5
1D9
330
1CF
100
AcDbEntity
  8
DEFPOINTS
  6
Continuous
 62
     0
100
AcDbPoint
 10
-44.255157
 20
-66.81924399999998
 30
0.0
  0
ENDBLK
  5
1DA
330
1CF
100
AcDbEntity
  8
0
  6
ByBlock
 62
     0
100
AcDbBlockEnd
  0
BLOCK
  5
1DD
330
1DC
100
AcDbEntity
  8
0
  6
ByBlock
 62
     0
100
AcDbBlockBegin
  2
*D8
 70
     1
 10
0.0
 20
0.0
 30
0.0
  3
*D8
  1

  0
LINE
  5
1DE
330
1DC
100
AcDbEntity
  8
0
  6
Continuous
 62
   255
100
AcDbLine
 10
-17.255157
 20
-56.727844
 30
0.0
 11
-32.25515700000001
 21
-56.727844
 31
0.0
  0
LINE
  5
1DF
330
1DC
100
AcDbEntity
  8
0
  6
Continuous
 62
   255
100
AcDbLine
 10
-17.255157
 20
-40.780208
 30
0.0
 11
-17.255157
 21
-59.013839
 31
0.0
  0
LINE
  5
1E0
330
1DC
100
AcDbEntity
  8
0
  6
Continuous
 62
   255
100
AcDbLine
 10
-32.25515700000001
 20
-51.780208
 30
0.0
 11
-32.25515700000001
 21
-59.013839
 31
0.0
  0
INSERT
  5
1E1
330
1DC
100
AcDbEntity
  8
0
  6
Continuous
 62
   255
100
AcDbBlockReference
  2
_OPEN30
 10
-17.255157
 20
-56.727844
 30
0.0
 41
2.77
 42
2.77
 43
2.77
  0
INSERT
  5
1E2
330
1DC
100
AcDbEntity
  8
0
  6
Continuous
 62
   255
100
AcDbBlockReference
  2
_OPEN30
 10
-32.25515700000001
 20
-56.727844
 30
0.0
 41
2.77
 42
2.77
 43
2.77
 50
180.0
  0
MTEXT
  5
1E3
330
1DC
100
AcDbEntity
  8
0
  6
Continuous
 62
   255
100
AcDbMText
 10
-25.742737
 20
-53.644251
 30
0.0
 40
4.167186
 41
0.0
 71
     5
 72
     1
  1
\A1;15
 73
     1
 44
1.0
  0
POINT
  5
1E4
330
1DC
100
AcDbEntity
  8
DEFPOINTS
  6
Continuous
 62
     0
100
AcDbPoint
 10
-17.255157
 20
-39.510208
 30
0.0
  0
POINT
  5
1E5
330
1DC
100
AcDbEntity
  8
DEFPOINTS
  6
Continuous
 62
     0
100
AcDbPoint
 10
-32.25515700000001
 20
-50.51020799999999
 30
0.0
  0
POINT
  5
1E6
330
1DC
100
AcDbEntity
  8
DEFPOINTS
  6
Continuous
 62
     0
100
AcDbPoint
 10
-32.25515700000001
 20
-56.727844
 30
0.0
  0
ENDBLK
  5
1E7
330
1DC
100
AcDbEntity
  8
0
  6
ByBlock
 62
     0
100
AcDbBlockEnd
  0
BLOCK
  5
1EA
330
1E9
100
AcDbEntity
  8
0
  6
ByBlock
 62
     0
100
AcDbBlockBegin
  2
*D9
 70
     1
 10
0.0
 20
0.0
 30
0.0
  3
*D9
  1

  0
LINE
  5
1EB
330
1E9
100
AcDbEntity
  8
0
  6
Continuous
 62
   255
100
AcDbLine
 10
51.744827
 20
-66.81924399999998
 30
0.0
 11
-32.25515700000001
 21
-66.81924399999998
 31
0.0
  0
LINE
  5
1EC
330
1E9
100
AcDbEntity
  8
0
  6
Continuous
 62
   255
100
AcDbLine
 10
51.744827
 20
-44.780208
 30
0.0
 11
51.744827
 21
-69.10524000000001
 31
0.0
  0
LINE
  5
1ED
330
1E9
100
AcDbEntity
  8
0
  6
Continuous
 62
   255
100
AcDbLine
 10
-32.25515700000001
 20
-51.780208
 30
0.0
 11
-32.25515700000001
 21
-69.10524000000001
 31
0.0
  0
INSERT
  5
1EE
330
1E9
100
AcDbEntity
  8
0
  6
Continuous
 62
   255
100
AcDbBlockReference
  2
_OPEN30
 10
51.744827
 20
-66.81924399999998
 30
0.0
 41
2.77
 42
2.77
 43
2.77
  0
INSERT
  5
1EF
330
1E9
100
AcDbEntity
  8
0
  6
Continuous
 62
   255
100
AcDbBlockReference
  2
_OPEN30
 10
-32.25515700000001
 20
-66.81924399999998
 30
0.0
 41
2.77
 42
2.77
 43
2.77
 50
180.0
  0
MTEXT
  5
1F0
330
1E9
100
AcDbEntity
  8
0
  6
Continuous
 62
   255
100
AcDbMText
 10
9.744835
 20
-63.735651
 30
0.0
 40
4.167186
 41
0.0
 71
     5
 72
     1
  1
\A1;84
 73
     1
 44
1.0
  0
POINT
  5
1F1
330
1E9
100
AcDbEntity
  8
DEFPOINTS
  6
Continuous
 62
     0
100
AcDbPoint
 10
51.744827
 20
-43.51020799999999
 30
0.0
  0
POINT
  5
1F2
330
1E9
100
AcDbEntity
  8
DEFPOINTS
  6
Continuous
 62
     0
100
AcDbPoint
 10
-32.25515700000001
 20
-50.51020799999999
 30
0.0
  0
POINT
  5
1F3
330
1E9
100
AcDbEntity
  8
DEFPOINTS
  6
Continuous
 62
     0
100
AcDbPoint
 10
-32.25515700000001
 20
-66.81924399999998
 30
0.0
  0
ENDBLK
  5
1F4
330
1E9
100
AcDbEntity
  8
0
  6
ByBlock
 62
     0
100
AcDbBlockEnd
  0
BLOCK
  5
1F7
330
1F6
100
AcDbEntity
  8
0
  6
ByBlock
 62
     0
100
AcDbBlockBegin
  2
*D10
 70
     1
 10
0.0
 20
0.0
 30
0.0
  3
*D10
  1

  0
LINE
  5
1F8
330
1F6
100
AcDbEntity
  8
0
  6
Continuous
 62
   255
100
AcDbLine
 10
2.399464
 20
26.489777
 30
0.0
 11
2.399464
 21
-47.510208
 31
0.0
  0
LINE
  5
1F9
330
1F6
100
AcDbEntity
  8
0
  6
Continuous
 62
   255
100
AcDbLine
 10
-30.985157
 20
26.489777
 30
0.0
 11
4.685462
 21
26.489777
 31
0.0
  0
LINE
  5
1FA
330
1F6
100
AcDbEntity
  8
0
  6
Continuous
 62
   255
100
AcDbLine
 10
-30.985157
 20
-47.510208
 30
0.0
 11
4.685462
 21
-47.510208
 31
0.0
  0
INSERT
  5
1FB
330
1F6
100
AcDbEntity
  8
0
  6
Continuous
 62
   255
100
AcDbBlockReference
  2
_OPEN30
 10
2.399464
 20
26.489777
 30
0.0
 41
2.77
 42
2.77
 43
2.77
 50
90.0
  0
INSERT
  5
1FC
330
1F6
100
AcDbEntity
  8
0
  6
Continuous
 62
   255
100
AcDbBlockReference
  2
_OPEN30
 10
2.399464
 20
-47.510208
 30
0.0
 41
2.77
 42
2.77
 43
2.77
 50
270.0
  0
MTEXT
  5
1FD
330
1F6
100
AcDbEntity
  8
0
  6
Continuous
 62
   255
100
AcDbMText
 10
-0.684129
 20
-18.549377
 30
0.0
 40
4.167186
 41
0.0
 71
     5
 72
     1
  1
\A1;\U+220574
 11
0.0
 21
1.0
 31
0.0
 73
     1
 44
1.0
  0
POINT
  5
1FE
330
1F6
100
AcDbEntity
  8
DEFPOINTS
  6
Continuous
 62
     0
100
AcDbPoint
 10
-32.25515700000001
 20
26.489777
 30
0.0
  0
POINT
  5
1FF
330
1F6
100
AcDbEntity
  8
DEFPOINTS
  6
Continuous
 62
     0
100
AcDbPoint
 10
-32.25515700000001
 20
-47.510208
 30
0.0
  0
POINT
  5
200
330
1F6
100
AcDbEntity
  8
DEFPOINTS
  6
Continuous
 62
     0
100
AcDbPoint
 10
2.399464
 20
-47.510208
 30
0.0
  0
ENDBLK
  5
201
330
1F6
100
AcDbEntity
  8
0
  6
ByBlock
 62
     0
100
AcDbBlockEnd
  0
BLOCK
  5
204
330
203
100
AcDbEntity
  8
0
  6
ByBlock
 62
     0
100
AcDbBlockBegin
  2
*D11
 70
     1
 10
0.0
 20
0.0
 30
0.0
  3
*D11
  1

  0
LINE
  5
205
330
203
100
AcDbEntity
  8
0
  6
Continuous
 62
   255
100
AcDbLine
 10
188.744827
 20
-67.00874300000001
 30
0.0
 11
114.744827
 21
-67.00874300000001
 31
0.0
  0
LINE
  5
206
330
203
100
AcDbEntity
  8
0
  6
Continuous
 62
   255
100
AcDbLine
 10
188.744827
 20
-38.780208
 30
0.0
 11
188.744827
 21
-69.29473900000001
 31
0.0
  0
LINE
  5
207
330
203
100
AcDbEntity
  8
0
  6
Continuous
 62
   255
100
AcDbLine
 10
114.744827
 20
-38.780208
 30
0.0
 11
114.744827
 21
-69.29473900000001
 31
0.0
  0
INSERT
  5
208
330
203
100
AcDbEntity
  8
0
  6
Continuous
 62
   255
100
AcDbBlockReference
  2
_OPEN30
 10
188.744827
 20
-67.00874300000001
 30
0.0
 41
2.77
 42
2.77
 43
2.77
  0
INSERT
  5
209
330
203
100
AcDbEntity
  8
0
  6
Continuous
 62
   255
100
AcDbBlockReference
  2
_OPEN30
 10
114.744827
 20
-67.00874300000001
 30
0.0
 41
2.77
 42
2.77
 43
2.77
 50
180.0
  0
MTEXT
  5
20A
330
203
100
AcDbEntity
  8
0
  6
Continuous
 62
   255
100
AcDbMText
 10
151.744751
 20
-63.92515
 30
0.0
 40
4.167186
 41
0.0
 71
     5
 72
     1
  1
\A1;74
 73
     1
 44
1.0
  0
POINT
  5
20B
330
203
100
AcDbEntity
  8
DEFPOINTS
  6
Continuous
 62
     0
100
AcDbPoint
 10
188.744827
 20
-37.510208
 30
0.0
  0
POINT
  5
20C
330
203
100
AcDbEntity
  8
DEFPOINTS
  6
Continuous
 62
     0
100
AcDbPoint
 10
114.744827
 20
-37.510208
 30
0.0
  0
POINT
  5
20D
330
203
100
AcDbEntity
  8
DEFPOINTS
  6
Continuous
 62
     0
100
AcDbPoint
 10
114.744827
 20
-67.00874300000001
 30
0.0
  0
ENDBLK
  5
20E
330
203
100
AcDbEntity
  8
0
  6
ByBlock
 62
     0
100
AcDbBlockEnd
  0
BLOCK
  5
211
330
210
100
AcDbEntity
  8
0
  6
ByBlock
 62
     0
100
AcDbBlockBegin
  2
*D12
 70
     1
 10
0.0
 20
0.0
 30
0.0
  3
*D12
  1

  0
LINE
  5
212
330
210
100
AcDbEntity
  8
0
  6
Continuous
 62
   255
100
AcDbLine
 10
225.92627
 20
36.489777
 30
0.0
 11
225.92627
 21
-37.510208
 31
0.0
  0
LINE
  5
213
330
210
100
AcDbEntity
  8
0
  6
Continuous
 62
   255
100
AcDbLine
 10
190.014828
 20
36.489777
 30
0.0
 11
228.212266
 21
36.489777
 31
0.0
  0
LINE
  5
214
330
210
100
AcDbEntity
  8
0
  6
Continuous
 62
   255
100
AcDbLine
 10
190.014828
 20
-37.510208
 30
0.0
 11
228.212266
 21
-37.510208
 31
0.0
  0
INSERT
  5
215
330
210
100
AcDbEntity
  8
0
  6
Continuous
 62
   255
100
AcDbBlockReference
  2
_OPEN30
 10
225.92627
 20
36.489777
 30
0.0
 41
2.77
 42
2.77
 43
2.77
 50
90.0
  0
INSERT
  5
216
330
210
100
AcDbEntity
  8
0
  6
Continuous
 62
   255
100
AcDbBlockReference
  2
_OPEN30
 10
225.92627
 20
-37.510208
 30
0.0
 41
2.77
 42
2.77
 43
2.77
 50
270.0
  0
MTEXT
  5
217
330
210
100
AcDbEntity
  8
0
  6
Continuous
 62
   255
100
AcDbMText
 10
222.842677
 20
0.125103
 30
0.0
 40
4.167186
 41
0.0
 71
     5
 72
     1
  1
\A1;74
 11
0.0
 21
1.0
 31
0.0
 73
     1
 44
1.0
  0
POINT
  5
218
330
210
100
AcDbEntity
  8
DEFPOINTS
  6
Continuous
 62
     0
100
AcDbPoint
 10
188.744828
 20
36.489777
 30
0.0
  0
POINT
  5
219
330
210
100
AcDbEntity
  8
DEFPOINTS
  6
Continuous
 62
     0
100
AcDbPoint
 10
188.744828
 20
-37.510208
 30
0.0
  0
POINT
  5
21A
330
210
100
AcDbEntity
  8
DEFPOINTS
  6
Continuous
 62
     0
100
AcDbPoint
 10
225.92627
 20
-37.510208
 30
0.0
  0
ENDBLK
  5
21B
330
210
100
AcDbEntity
  8
0
  6
ByBlock
 62
     0
100
AcDbBlockEnd
  0
BLOCK
  5
21E
330
21D
100
AcDbEntity
  8
0
  6
ByBlock
 62
     0
100
AcDbBlockBegin
  2
*D13
 70
     1
 10
0.0
 20
0.0
 30
0.0
  3
*D13
  1

  0
LINE
  5
21F
330
21D
100
AcDbEntity
  8
0
  6
Continuous
 62
   255
100
AcDbLine
 10
211.476135
 20
-0.510216
 30
0.0
 11
211.476135
 21
-10.510216
 31
0.0
  0
LINE
  5
220
330
21D
100
AcDbEntity
  8
0
  6
Continuous
 62
   255
100
AcDbLine
 10
203.014827
 20
-0.510216
 30
0.0
 11
213.762131
 21
-0.510216
 31
0.0
  0
LINE
  5
221
330
21D
100
AcDbEntity
  8
0
  6
Continuous
 62
   255
100
AcDbLine
 10
190.014827
 20
-10.510216
 30
0.0
 11
213.762131
 21
-10.510216
 31
0.0
  0
INSERT
  5
222
330
21D
100
AcDbEntity
  8
0
  6
Continuous
 62
   255
100
AcDbBlockReference
  2
_OPEN30
 10
211.476135
 20
-0.510216
 30
0.0
 41
2.77
 42
2.77
 43
2.77
 50
90.0
  0
INSERT
  5
223
330
21D
100
AcDbEntity
  8
0
  6
Continuous
 62
   255
100
AcDbBlockReference
  2
_OPEN30
 10
211.476135
 20
-10.510216
 30
0.0
 41
2.77
 42
2.77
 43
2.77
 50
270.0
  0
MTEXT
  5
224
330
21D
100
AcDbEntity
  8
0
  6
Continuous
 62
   255
100
AcDbMText
 10
208.392542
 20
-5.510216
 30
0.0
 40
4.167186
 41
0.0
 71
     5
 72
     1
  1
\A1;10
 11
0.0
 21
1.0
 31
0.0
 73
     1
 44
1.0
  0
POINT
  5
225
330
21D
100
AcDbEntity
  8
DEFPOINTS
  6
Continuous
 62
     0
100
AcDbPoint
 10
201.744827
 20
-0.510216
 30
0.0
  0
POINT
  5
226
330
21D
100
AcDbEntity
  8
DEFPOINTS
  6
Continuous
 62
     0
100
AcDbPoint
 10
188.744827
 20
-10.510216
 30
0.0
  0
POINT
  5
227
330
21D
100
AcDbEntity
  8
DEFPOINTS
  6
Continuous
 62
     0
100
AcDbPoint
 10
211.476135
 20
-10.510216
 30
0.0
  0
ENDBLK
  5
228
330
21D
100
AcDbEntity
  8
0
  6
ByBlock
 62
     0
100
AcDbBlockEnd
  0
BLOCK
  5
2D1
330
2CF
100
AcDbEntity
  8
0
100
AcDbBlockBegin
  2
GENAXEH
 70
     0
 10
0.0
 20
0.0
 30
0.0
  3
GENAXEH
  1

  0
LINE
  5
2D0
330
2CF
100
AcDbEntity
  8
0
100
AcDbLine
 10
-1.0
 20
0.0
 30
0.0
 11
1.0
 21
0.0
 31
0.0
  0
ENDBLK
  5
2D2
330
2CF
100
AcDbEntity
  8
0
100
AcDbBlockEnd
  0
BLOCK
  5
2E1
330
2E0
100
AcDbEntity
  8
0
100
AcDbBlockBegin
  2
MS_1
 70
     0
 10
0.0
 20
0.0
 30
0.0
  3
MS_1
  1

  0
ELLIPSE
  5
2E2
330
2E0
100
AcDbEntity
  8
0
  6
Continuous
 62
   255
100
AcDbEllipse
 10
13.887651
 20
-0.016018
 30
0.0
 11
1.688363075256344
 21
-0.0000001192092898
 31
0.0
210
0.0
220
0.0
230
1.0
 40
0.9291879999999997
 41
0.2651412738457682
 42
6.006474423724084
  0
ELLIPSE
  5
2E3
330
2E0
100
AcDbEntity
  8
0
  6
Continuous
 62
   255
100
AcDbEllipse
 10
13.114913
 20
-0.016018
 30
0.0
 11
3.015141010284423
 21
-0.0000001825392261
 31
0.0
210
0.0
220
0.0
230
1.0
 40
0.799807
 41
0.7911690653191048
 42
6.104511488825124
  0
ARC
  5
2E4
330
2E0
100
AcDbEntity
  8
0
  6
Continuous
 62
   255
100
AcDbCircle
 10
15.415364
 20
1.927799999999999
 30
0.0
 40
0.2916
100
AcDbArc
 50
231.67151
 51
330.000013
  0
ARC
  5
2E5
330
2E0
100
AcDbEntity
  8
0
  6
Continuous
 62
   255
100
AcDbCircle
 10
5.660587999999997
 20
1.256252
 30
0.0
 40
0.17496
100
AcDbArc
 50
24.996915
 51
155.001144
  0
ARC
  5
2E6
330
2E0
100
AcDbEntity
  8
0
  6
Continuous
 62
   255
100
AcDbCircle
 10
6.37624
 20
-0.278474
 30
0.0
 40
0.17496
100
AcDbArc
 50
270.000127
 51
24.99996400000001
  0
ARC
  5
2E7
330
2E0
100
AcDbEntity
  8
0
  6
Continuous
 62
   255
100
AcDbCircle
 10
4.944926999999998
 20
-0.278474
 30
0.0
 40
0.17496
100
AcDbArc
 50
154.999395
 51
270.001421
  0
ARC
  5
2E8
330
2E0
100
AcDbEntity
  8
0
  6
Continuous
 62
   255
100
AcDbCircle
 10
4.663116
 20
-1.526512
 30
0.0
 40
0.34992
100
AcDbArc
 50
89.99867100000001
 51
235.001073
  0
ARC
  5
2E9
330
2E0
100
AcDbEntity
  8
0
  6
Continuous
 62
   255
100
AcDbCircle
 10
6.725594
 20
-1.588626999999999
 30
0.0
 40
0.412037
100
AcDbArc
 50
314.999838
 51
359.999983
  0
ARC
  5
2EA
330
2E0
100
AcDbEntity
  8
0
  6
Continuous
 62
   255
100
AcDbCircle
 10
6.725594
 20
-1.588626999999999
 30
0.0
 40
0.412037
100
AcDbArc
 50
0.0
 51
89.99998199999998
  0
ARC
  5
2EB
330
2E0
100
AcDbEntity
  8
0
  6
Continuous
 62
   255
100
AcDbCircle
 10
9.706324999999999
 20
-1.348008
 30
0.0
 40
0.2916
100
AcDbArc
 50
205.000933
 51
236.000593
  0
ARC
  5
2EC
330
2E0
100
AcDbEntity
  8
0
  6
Continuous
 62
   255
100
AcDbCircle
 10
3.028961999999998
 20
-1.434096999999999
 30
0.0
 40
0.2916
100
AcDbArc
 50
303.999446
 51
334.99939
  0
ARC
  5
2ED
330
2E0
100
AcDbEntity
  8
0
  6
Continuous
 62
   255
100
AcDbCircle
 10
3.321994999999998
 20
1.344636
 30
0.0
 40
0.2916
100
AcDbArc
 50
123.999626
 51
154.999942
  0
ARC
  5
2EE
330
2E0
100
AcDbEntity
  8
0
  6
Continuous
 62
   255
100
AcDbCircle
 10
2.038494
 20
1.393499
 30
0.0
 40
0.2916
100
AcDbArc
 50
334.998888
 51
55.998566
  0
ARC
  5
2EF
330
2E0
100
AcDbEntity
  8
0
  6
Continuous
 62
   255
100
AcDbCircle
 10
-0.361572
 20
1.613658999999999
 30
0.0
 40
0.2916
100
AcDbArc
 50
124.000609
 51
205.00026
  0
ARC
  5
2F0
330
2E0
100
AcDbEntity
  8
0
  6
Continuous
 62
   255
100
AcDbCircle
 10
-3.196181
 20
1.344636
 30
0.0
 40
0.2916
100
AcDbArc
 50
24.999916
 51
55.999877
  0
ARC
  5
2F1
330
2E0
100
AcDbEntity
  8
0
  6
Continuous
 62
   255
100
AcDbCircle
 10
0.8897950000000001
 20
-1.34589
 30
0.0
 40
0.17496
100
AcDbArc
 50
205.000386
 51
335.0002990000001
  0
ARC
  5
2F2
330
2E0
100
AcDbEntity
  8
0
  6
Continuous
 62
   255
100
AcDbCircle
 10
-3.499093
 20
-1.188254999999998
 30
0.0
 40
0.2916
100
AcDbArc
 50
270.000182
 51
315.0003160000001
  0
ARC
  5
2F3
330
2E0
100
AcDbEntity
  8
0
  6
Continuous
 62
   255
100
AcDbCircle
 10
-5.769118999999997
 20
1.298173999999999
 30
0.0
 40
0.2916
100
AcDbArc
 50
133.000667
 51
180.000565
  0
ARC
  5
2F4
330
2E0
100
AcDbEntity
  8
0
  6
Continuous
 62
   255
100
AcDbCircle
 10
-8.451835
 20
-1.330237
 30
0.0
 40
0.2916
100
AcDbArc
 50
312.999587
 51
359.99993
  0
ARC
  5
2F5
330
2E0
100
AcDbEntity
  8
0
  6
Continuous
 62
   255
100
AcDbCircle
 10
-8.451835
 20
1.298173999999999
 30
0.0
 40
0.2916
100
AcDbArc
 50
359.998677
 51
46.99901299999999
  0
ARC
  5
2F6
330
2E0
100
AcDbEntity
  8
0
  6
Continuous
 62
   255
100
AcDbCircle
 10
-13.723956
 20
-0.385088
 30
0.0
 40
1.749599
100
AcDbArc
 50
180.000145
 51
235.15048
  0
ARC
  5
2F7
330
2E0
100
AcDbEntity
  8
0
  6
Continuous
 62
   255
100
AcDbCircle
 10
-11.81398
 20
-0.353532
 30
0.0
 40
1.749599
100
AcDbArc
 50
306.742546
 51
359.9999620000001
  0
ARC
  5
2F8
330
2E0
100
AcDbEntity
  8
0
  6
Continuous
 62
   255
100
AcDbCircle
 10
-11.609867
 20
-0.8664839999999999
 30
0.0
 40
0.5832000000000001
100
AcDbArc
 50
319.830356
 51
359.999279
  0
ARC
  5
2F9
330
2E0
100
AcDbEntity
  8
0
  6
Continuous
 62
   255
100
AcDbCircle
 10
-12.790848
 20
-0.8664659999999997
 30
0.0
 40
0.5832000000000001
100
AcDbArc
 50
180.000036
 51
220.1676680000001
  0
ARC
  5
2FA
330
2E0
100
AcDbEntity
  8
0
  6
Continuous
 62
   255
100
AcDbCircle
 10
-12.200349
 20
-0.368029
 30
0.0
 40
1.355939
100
AcDbArc
 50
220.1676680000001
 51
319.830906
  0
ARC
  5
2FB
330
2E0
100
AcDbEntity
  8
0
  6
Continuous
 62
   255
100
AcDbCircle
 10
-12.790848
 20
0.95501
 30
0.0
 40
3.382558999999998
100
AcDbArc
 50
235.150426
 51
306.74257
  0
ARC
  5
2FC
330
2E0
100
AcDbEntity
  8
0
  6
Continuous
 62
   255
100
AcDbCircle
 10
-9.772781
 20
1.457437999999999
 30
0.0
 40
0.2916
100
AcDbArc
 50
124.000718
 51
180.001385
  0
ARC
  5
2FD
330
2E0
100
AcDbEntity
  8
0
  6
Continuous
 62
   255
100
AcDbCircle
 10
-11.318267
 20
1.45743
 30
0.0
 40
0.2916
100
AcDbArc
 50
359.999631
 51
55.999809
  0
ARC
  5
2FE
330
2E0
100
AcDbEntity
  8
0
  6
Continuous
 62
   255
100
AcDbCircle
 10
-13.082444
 20
1.42792
 30
0.0
 40
0.2916
100
AcDbArc
 50
124.001155
 51
180.001658
  0
ARC
  5
2FF
330
2E0
100
AcDbEntity
  8
0
  6
Continuous
 62
   255
100
AcDbCircle
 10
-15.765159
 20
1.42792
 30
0.0
 40
0.2916
100
AcDbArc
 50
359.999313
 51
55.99964200000001
  0
LINE
  5
300
330
2E0
100
AcDbEntity
  8
0
  6
Continuous
 62
   255
100
AcDbLine
 10
15.910954
 20
2.203027
 30
0.0
 11
15.667879
 21
1.782000999999999
 31
0.0
  0
LINE
  5
301
330
2E0
100
AcDbEntity
  8
0
  6
Continuous
 62
   255
100
AcDbLine
 10
15.910956
 20
2.203025999999999
 30
0.0
 11
16.085907
 21
2.203025999999999
 31
0.0
  0
LINE
  5
302
330
2E0
100
AcDbEntity
  8
0
  6
Continuous
 62
   255
100
AcDbLine
 10
16.085907
 20
2.203025999999999
 30
0.0
 11
16.085907
 21
0.3951119999999999
 31
0.0
  0
LINE
  5
303
330
2E0
100
AcDbEntity
  8
0
  6
Continuous
 62
   255
100
AcDbLine
 10
15.517003
 20
0.395121
 30
0.0
 11
16.083786
 21
0.395121
 31
0.0
  0
LINE
  5
304
330
2E0
100
AcDbEntity
  8
0
  6
Continuous
 62
   255
100
AcDbLine
 10
15.505243
 20
-0.444679
 30
0.0
 11
16.08226
 21
-0.444679
 31
0.0
  0
LINE
  5
305
330
2E0
100
AcDbEntity
  8
0
  6
Continuous
 62
   255
100
AcDbLine
 10
4.769336
 20
-2.028068
 30
0.0
 11
4.462407999999999
 21
-1.813154999999999
 31
0.0
  0
LINE
  5
306
330
2E0
100
AcDbEntity
  8
0
  6
Continuous
 62
   255
100
AcDbLine
 10
4.786353
 20
-0.204531
 30
0.0
 11
5.502008999999997
 21
1.330197999999997
 31
0.0
  0
LINE
  5
307
330
2E0
100
AcDbEntity
  8
0
  6
Continuous
 62
   255
100
AcDbLine
 10
6.868854999999999
 20
-2.028064
 30
0.0
 11
7.016942
 21
-1.879977999999999
 31
0.0
  0
LINE
  5
308
330
2E0
100
AcDbEntity
  8
0
  6
Continuous
 62
   255
100
AcDbLine
 10
10.193089
 20
-2.028065
 30
0.0
 11
9.543271
 21
-1.589756999999999
 31
0.0
  0
LINE
  5
309
330
2E0
100
AcDbEntity
  8
0
  6
Continuous
 62
   255
100
AcDbLine
 10
2.669808999999998
 20
-2.028064
 30
0.0
 11
3.192015
 21
-1.67584
 31
0.0
  0
LINE
  5
30A
330
2E0
100
AcDbEntity
  8
0
  6
Continuous
 62
   255
100
AcDbLine
 10
1.666702
 20
1.996015
 30
0.0
 11
2.201559
 21
1.63525
 31
0.0
  0
LINE
  5
30B
330
2E0
100
AcDbEntity
  8
0
  6
Continuous
 62
   255
100
AcDbLine
 10
3.766213999999998
 20
1.996016
 30
0.0
 11
3.158927999999998
 21
1.586387999999999
 31
0.0
  0
LINE
  5
30C
330
2E0
100
AcDbEntity
  8
0
  6
Continuous
 62
   255
100
AcDbLine
 10
-0.316183
 20
1.996011999999995
 30
0.0
 11
-0.5246360000000001
 21
1.855405
 31
0.0
  0
LINE
  5
30D
330
2E0
100
AcDbEntity
  8
0
  6
Continuous
 62
   255
100
AcDbLine
 10
-3.640430999999998
 20
1.996018
 30
0.0
 11
-3.033118999999998
 21
1.586381
 31
0.0
  0
LINE
  5
30E
330
2E0
100
AcDbEntity
  8
0
  6
Continuous
 62
   255
100
AcDbLine
 10
4.944926999999998
 20
-0.4534270000000002
 30
0.0
 11
6.37624
 21
-0.4534270000000002
 31
0.0
  0
LINE
  5
30F
330
2E0
100
AcDbEntity
  8
0
  6
Continuous
 62
   255
100
AcDbLine
 10
4.663116
 20
-1.176587999999997
 30
0.0
 11
6.725594
 21
-1.176587999999997
 31
0.0
  0
LINE
  5
310
330
2E0
100
AcDbEntity
  8
0
  6
Continuous
 62
   255
100
AcDbLine
 10
6.868857000000001
 20
-2.028064
 30
0.0
 11
6.868857000000001
 21
-2.203017
 31
0.0
  0
LINE
  5
311
330
2E0
100
AcDbEntity
  8
0
  6
Continuous
 62
   255
100
AcDbLine
 10
10.193088
 20
-2.028064
 30
0.0
 11
10.193088
 21
-2.203017
 31
0.0
  0
LINE
  5
312
330
2E0
100
AcDbEntity
  8
0
  6
Continuous
 62
   255
100
AcDbLine
 10
6.868857000000001
 20
-2.203017
 30
0.0
 11
10.193088
 21
-2.203017
 31
0.0
  0
LINE
  5
313
330
2E0
100
AcDbEntity
  8
0
  6
Continuous
 62
   255
100
AcDbLine
 10
4.769333999999997
 20
-2.028064
 30
0.0
 11
4.769333999999997
 21
-2.203017
 31
0.0
  0
LINE
  5
314
330
2E0
100
AcDbEntity
  8
0
  6
Continuous
 62
   255
100
AcDbLine
 10
2.66981
 20
-2.028064
 30
0.0
 11
2.66981
 21
-2.203017
 31
0.0
  0
LINE
  5
315
330
2E0
100
AcDbEntity
  8
0
  6
Continuous
 62
   255
100
AcDbLine
 10
5.819153
 20
1.330187
 30
0.0
 11
6.534805
 21
-0.204533
 31
0.0
  0
LINE
  5
316
330
2E0
100
AcDbEntity
  8
0
  6
Continuous
 62
   255
100
AcDbLine
 10
7.743647999999997
 20
2.170978999999999
 30
0.0
 11
9.442047999999999
 21
-1.471249999999999
 31
0.0
  0
LINE
  5
317
330
2E0
100
AcDbEntity
  8
0
  6
Continuous
 62
   255
100
AcDbLine
 10
5.031768
 20
2.170981
 30
0.0
 11
3.293234999999998
 21
-1.557329999999999
 31
0.0
  0
LINE
  5
318
330
2E0
100
AcDbEntity
  8
0
  6
Continuous
 62
   255
100
AcDbLine
 10
2.66981
 20
-2.203017
 30
0.0
 11
4.769333999999997
 21
-2.203017
 31
0.0
  0
LINE
  5
319
330
2E0
100
AcDbEntity
  8
0
  6
Continuous
 62
   255
100
AcDbLine
 10
5.031772
 20
2.17098
 30
0.0
 11
7.743657999999999
 21
2.17098
 31
0.0
  0
LINE
  5
31A
330
2E0
100
AcDbEntity
  8
0
  6
Continuous
 62
   255
100
AcDbLine
 10
1.666697
 20
2.17098
 30
0.0
 11
3.766212
 21
2.17098
 31
0.0
  0
LINE
  5
31B
330
2E0
100
AcDbEntity
  8
0
  6
Continuous
 62
   255
100
AcDbLine
 10
1.048351999999999
 20
-1.419828
 30
0.0
 11
2.302766
 21
1.270267
 31
0.0
  0
LINE
  5
31C
330
2E0
100
AcDbEntity
  8
0
  6
Continuous
 62
   255
100
AcDbLine
 10
1.345938999999999
 20
-2.203017
 30
0.0
 11
3.057707
 21
1.467875
 31
0.0
  0
LINE
  5
31D
330
2E0
100
AcDbEntity
  8
0
  6
Continuous
 62
   255
100
AcDbLine
 10
0.7312250000000004
 20
-1.419837
 30
0.0
 11
-0.62585
 21
1.490419
 31
0.0
  0
LINE
  5
31E
330
2E0
100
AcDbEntity
  8
0
  6
Continuous
 62
   255
100
AcDbLine
 10
-1.220137
 20
-2.203021
 30
0.0
 11
-2.931900999999998
 21
1.467869
 31
0.0
  0
LINE
  5
31F
330
2E0
100
AcDbEntity
  8
0
  6
Continuous
 62
   255
100
AcDbLine
 10
1.666697
 20
2.17098
 30
0.0
 11
1.666697
 21
1.996018999999999
 31
0.0
  0
LINE
  5
320
330
2E0
100
AcDbEntity
  8
0
  6
Continuous
 62
   255
100
AcDbLine
 10
3.766212
 20
2.17098
 30
0.0
 11
3.766212
 21
1.996018999999999
 31
0.0
  0
LINE
  5
321
330
2E0
100
AcDbEntity
  8
0
  6
Continuous
 62
   255
100
AcDbLine
 10
-0.316188
 20
2.17098
 30
0.0
 11
-0.316188
 21
1.996018999999999
 31
0.0
  0
LINE
  5
322
330
2E0
100
AcDbEntity
  8
0
  6
Continuous
 62
   255
100
AcDbLine
 10
-3.640433999999998
 20
2.17098
 30
0.0
 11
-3.640433999999998
 21
1.996018999999999
 31
0.0
  0
LINE
  5
323
330
2E0
100
AcDbEntity
  8
0
  6
Continuous
 62
   255
100
AcDbLine
 10
-1.220130999999998
 20
-2.203017
 30
0.0
 11
1.345944
 21
-2.203017
 31
0.0
  0
LINE
  5
324
330
2E0
100
AcDbEntity
  8
0
  6
Continuous
 62
   255
100
AcDbLine
 10
-3.640433999999998
 20
2.17098
 30
0.0
 11
-0.316188
 21
2.17098
 31
0.0
  0
LINE
  5
325
330
2E0
100
AcDbEntity
  8
0
  6
Continuous
 62
   255
100
AcDbLine
 10
-2.734547999999998
 20
-0.836092
 30
0.0
 11
-3.292898
 21
-1.394446999999999
 31
0.0
  0
LINE
  5
326
330
2E0
100
AcDbEntity
  8
0
  6
Continuous
 62
   255
100
AcDbLine
 10
-2.73455
 20
-0.8360889999999997
 30
0.0
 11
-2.559597
 21
-0.8360889999999997
 31
0.0
  0
LINE
  5
327
330
2E0
100
AcDbEntity
  8
0
  6
Continuous
 62
   255
100
AcDbLine
 10
-2.800631
 20
-2.203017
 30
0.0
 11
-2.559604999999999
 21
-0.8360889999999997
 31
0.0
  0
LINE
  5
328
330
2E0
100
AcDbEntity
  8
0
  6
Continuous
 62
   255
100
AcDbLine
 10
-6.060719
 20
-1.479854999999995
 30
0.0
 11
-3.499093
 21
-1.479854999999995
 31
0.0
  0
LINE
  5
329
330
2E0
100
AcDbEntity
  8
0
  6
Continuous
 62
   255
100
AcDbLine
 10
-8.772605
 20
-2.028073
 30
0.0
 11
-8.772605
 21
-2.203017
 31
0.0
  0
LINE
  5
32A
330
2E0
100
AcDbEntity
  8
0
  6
Continuous
 62
   255
100
AcDbLine
 10
-8.772598
 20
-2.028064
 30
0.0
 11
-8.252962
 21
-1.543501
 31
0.0
  0
LINE
  5
32B
330
2E0
100
AcDbEntity
  8
0
  6
Continuous
 62
   255
100
AcDbLine
 10
-5.448355999999997
 20
1.996011
 30
0.0
 11
-5.967991
 21
1.511439
 31
0.0
  0
LINE
  5
32C
330
2E0
100
AcDbEntity
  8
0
  6
Continuous
 62
   255
100
AcDbLine
 10
-8.7726
 20
1.996016
 30
0.0
 11
-8.252955
 21
1.511437999999999
 31
0.0
  0
LINE
  5
32D
330
2E0
100
AcDbEntity
  8
0
  6
Continuous
 62
   255
100
AcDbLine
 10
-6.060719
 20
1.298173999999999
 30
0.0
 11
-6.060719
 21
-1.479854999999995
 31
0.0
  0
LINE
  5
32E
330
2E0
100
AcDbEntity
  8
0
  6
Continuous
 62
   255
100
AcDbLine
 10
-8.160233999999999
 20
1.298173999999999
 30
0.0
 11
-8.160233999999999
 21
-1.330237
 31
0.0
  0
LINE
  5
32F
330
2E0
100
AcDbEntity
  8
0
  6
Continuous
 62
   255
100
AcDbLine
 10
-5.448357999999998
 20
2.17098
 30
0.0
 11
-5.448357999999998
 21
1.996000999999995
 31
0.0
  0
LINE
  5
330
330
2E0
100
AcDbEntity
  8
0
  6
Continuous
 62
   255
100
AcDbLine
 10
-8.772605
 20
2.17098
 30
0.0
 11
-5.448357999999998
 21
2.17098
 31
0.0
  0
LINE
  5
331
330
2E0
100
AcDbEntity
  8
0
  6
Continuous
 62
   255
100
AcDbLine
 10
-8.772605
 20
2.17098
 30
0.0
 11
-8.772605
 21
1.996011
 31
0.0
  0
LINE
  5
332
330
2E0
100
AcDbEntity
  8
0
  6
Continuous
 62
   255
100
AcDbLine
 10
-11.595291
 20
2.17098
 30
0.0
 11
-9.495775
 21
2.17098
 31
0.0
  0
LINE
  5
333
330
2E0
100
AcDbEntity
  8
0
  6
Continuous
 62
   255
100
AcDbLine
 10
-9.495770999999999
 20
1.996022999999999
 30
0.0
 11
-9.935841999999999
 21
1.699191999999999
 31
0.0
  0
LINE
  5
334
330
2E0
100
AcDbEntity
  8
0
  6
Continuous
 62
   255
100
AcDbLine
 10
-11.595285
 20
1.996016999999999
 30
0.0
 11
-11.1552
 21
1.699176999999999
 31
0.0
  0
LINE
  5
335
330
2E0
100
AcDbEntity
  8
0
  6
Continuous
 62
   255
100
AcDbLine
 10
-10.064382
 20
1.457437999999999
 30
0.0
 11
-10.064382
 21
-0.353532
 31
0.0
  0
LINE
  5
336
330
2E0
100
AcDbEntity
  8
0
  6
Continuous
 62
   255
100
AcDbLine
 10
-11.026667
 20
1.45743
 30
0.0
 11
-11.026667
 21
-0.8664839999999999
 31
0.0
  0
LINE
  5
337
330
2E0
100
AcDbEntity
  8
0
  6
Continuous
 62
   255
100
AcDbLine
 10
-12.761674
 20
1.996031
 30
0.0
 11
-13.245507
 21
1.669679
 31
0.0
  0
LINE
  5
338
330
2E0
100
AcDbEntity
  8
0
  6
Continuous
 62
   255
100
AcDbLine
 10
-16.085918
 20
1.996009999999999
 30
0.0
 11
-15.60209
 21
1.669663
 31
0.0
  0
LINE
  5
339
330
2E0
100
AcDbEntity
  8
0
  6
Continuous
 62
   255
100
AcDbLine
 10
-13.37405
 20
1.42792
 30
0.0
 11
-13.37405
 21
-0.8664659999999997
 31
0.0
  0
LINE
  5
33A
330
2E0
100
AcDbEntity
  8
0
  6
Continuous
 62
   255
100
AcDbLine
 10
-15.473563
 20
1.42792
 30
0.0
 11
-15.473563
 21
-0.385088
 31
0.0
  0
LINE
  5
33B
330
2E0
100
AcDbEntity
  8
0
  6
Continuous
 62
   255
100
AcDbLine
 10
-11.595291
 20
2.17098
 30
0.0
 11
-11.595291
 21
1.996011
 31
0.0
  0
LINE
  5
33C
330
2E0
100
AcDbEntity
  8
0
  6
Continuous
 62
   255
100
AcDbLine
 10
-12.761682
 20
2.17098
 30
0.0
 11
-12.761682
 21
1.996018999999999
 31
0.0
  0
LINE
  5
33D
330
2E0
100
AcDbEntity
  8
0
  6
Continuous
 62
   255
100
AcDbLine
 10
-9.495775
 20
2.17098
 30
0.0
 11
-9.495775
 21
1.996018999999999
 31
0.0
  0
LINE
  5
33E
330
2E0
100
AcDbEntity
  8
0
  6
Continuous
 62
   255
100
AcDbLine
 10
-16.085922
 20
2.17098
 30
0.0
 11
-16.085922
 21
1.996018999999999
 31
0.0
  0
LINE
  5
33F
330
2E0
100
AcDbEntity
  8
0
  6
Continuous
 62
   255
100
AcDbLine
 10
-8.772605
 20
-2.203017
 30
0.0
 11
-2.800624
 21
-2.203017
 31
0.0
  0
LINE
  5
340
330
2E0
100
AcDbEntity
  8
0
  6
Continuous
 62
   255
100
AcDbLine
 10
-16.085922
 20
2.17098
 30
0.0
 11
-12.761682
 21
2.17098
 31
0.0
  0
POINT
  5
341
330
2E0
100
AcDbEntity
  8
0
  6
Continuous
 62
   140
100
AcDbPoint
 10
0.0
 20
0.0
 30
0.0
  0
ENDBLK
  5
342
330
2E0
100
AcDbEntity
  8
0
100
AcDbBlockEnd
  0
BLOCK
  5
344
330
343
100
AcDbEntity
  8
0
  6
ByBlock
 62
     0
100
AcDbBlockBegin
  2
*X16
 70
     1
 10
0.0
 20
0.0
 30
0.0
  3
*X16
  1

  0
LINE
  5
345
330
343
100
AcDbEntity
  8
0
  6
Continuous
 62
     0
100
AcDbLine
 10
171.927686
 20
-171.0
 30
0.0
 11
174.053185
 21
-171.0
 31
0.0
  0
LINE
  5
346
330
343
100
AcDbEntity
  8
0
  6
Continuous
 62
     0
100
AcDbLine
 10
175.546117
 20
-171.0
 30
0.0
 11
176.507652
 21
-171.0
 31
0.0
  0
LINE
  5
347
330
343
100
AcDbEntity
  8
0
  6
Continuous
 62
     0
100
AcDbLine
 10
178.785254
 20
-171.0
 30
0.0
 11
184.32333
 21
-171.0
 31
0.0
  0
LINE
  5
348
330
343
100
AcDbEntity
  8
0
  6
Continuous
 62
     0
100
AcDbLine
 10
185.452039
 20
-171.0
 30
0.0
 11
187.806963
 21
-171.0
 31
0.0
  0
LINE
  5
349
330
343
100
AcDbEntity
  8
0
  6
Continuous
 62
     0
100
AcDbLine
 10
187.972626
 20
-171.0
 30
0.0
 11
188.673762
 21
-171.0
 31
0.0
  0
LINE
  5
34A
330
343
100
AcDbEntity
  8
0
  6
Continuous
 62
     0
100
AcDbLine
 10
190.319968
 20
-171.0
 30
0.0
 11
191.314202
 21
-171.0
 31
0.0
  0
LINE
  5
34B
330
343
100
AcDbEntity
  8
0
  6
Continuous
 62
     0
100
AcDbLine
 10
194.127986
 20
-171.0
 30
0.0
 11
196.457469
 21
-171.0
 31
0.0
  0
LINE
  5
34C
330
343
100
AcDbEntity
  8
0
  6
Continuous
 62
     0
100
AcDbLine
 10
197.738262
 20
-171.0
 30
0.0
 11
200.339998
 21
-171.0
 31
0.0
  0
LINE
  5
34D
330
343
100
AcDbEntity
  8
0
  6
Continuous
 62
     0
100
AcDbLine
 10
201.435305
 20
-171.0
 30
0.0
 11
202.491565
 21
-171.0
 31
0.0
  0
LINE
  5
34E
330
343
100
AcDbEntity
  8
0
  6
Continuous
 62
     0
100
AcDbLine
 10
171.530222
 20
-170.0
 30
0.0
 11
173.62595
 21
-170.0
 31
0.0
  0
LINE
  5
34F
330
343
100
AcDbEntity
  8
0
  6
Continuous
 62
     0
100
AcDbLine
 10
175.973333
 20
-170.0
 30
0.0
 11
176.929478
 21
-170.0
 31
0.0
  0
LINE
  5
350
330
343
100
AcDbEntity
  8
0
  6
Continuous
 62
     0
100
AcDbLine
 10
178.839766
 20
-170.0
 30
0.0
 11
180.939281
 21
-170.0
 31
0.0
  0
LINE
  5
351
330
343
100
AcDbEntity
  8
0
  6
Continuous
 62
     0
100
AcDbLine
 10
184.985731
 20
-170.0
 30
0.0
 11
187.302298
 21
-170.0
 31
0.0
  0
LINE
  5
352
330
343
100
AcDbEntity
  8
0
  6
Continuous
 62
     0
100
AcDbLine
 10
188.477276
 20
-170.0
 30
0.0
 11
189.14007
 21
-170.0
 31
0.0
  0
LINE
  5
353
330
343
100
AcDbEntity
  8
0
  6
Continuous
 62
     0
100
AcDbLine
 10
190.786274
 20
-170.0
 30
0.0
 11
195.989147
 21
-170.0
 31
0.0
  0
LINE
  5
354
330
343
100
AcDbEntity
  8
0
  6
Continuous
 62
     0
100
AcDbLine
 10
197.161119
 20
-170.0
 30
0.0
 11
199.281641
 21
-170.0
 31
0.0
  0
LINE
  5
355
330
343
100
AcDbEntity
  8
0
  6
Continuous
 62
     0
100
AcDbLine
 10
202.493662
 20
-170.0
 30
0.0
 11
203.068708
 21
-170.0
 31
0.0
  0
LINE
  5
356
330
343
100
AcDbEntity
  8
0
  6
Continuous
 62
     0
100
AcDbLine
 10
171.526437
 20
-169.0
 30
0.0
 11
173.62595
 21
-169.0
 31
0.0
  0
LINE
  5
357
330
343
100
AcDbEntity
  8
0
  6
Continuous
 62
     0
100
AcDbLine
 10
175.973333
 20
-169.0
 30
0.0
 11
176.935618
 21
-169.0
 31
0.0
  0
LINE
  5
358
330
343
100
AcDbEntity
  8
0
  6
Continuous
 62
     0
100
AcDbLine
 10
178.839766
 20
-169.0
 30
0.0
 11
180.939281
 21
-169.0
 31
0.0
  0
LINE
  5
359
330
343
100
AcDbEntity
  8
0
  6
Continuous
 62
     0
100
AcDbLine
 10
184.519424
 20
-169.0
 30
0.0
 11
186.8359899999999
 21
-169.0
 31
0.0
  0
LINE
  5
35A
330
343
100
AcDbEntity
  8
0
  6
Continuous
 62
     0
100
AcDbLine
 10
188.943584
 20
-169.0
 30
0.0
 11
189.606379
 21
-169.0
 31
0.0
  0
LINE
  5
35B
330
343
100
AcDbEntity
  8
0
  6
Continuous
 62
     0
100
AcDbLine
 10
191.25258
 20
-169.0
 30
0.0
 11
192.114881
 21
-169.0
 31
0.0
  0
LINE
  5
35C
330
343
100
AcDbEntity
  8
0
  6
Continuous
 62
     0
100
AcDbLine
 10
193.206276
 20
-169.0
 30
0.0
 11
195.522839
 21
-169.0
 31
0.0
  0
LINE
  5
35D
330
343
100
AcDbEntity
  8
0
  6
Continuous
 62
     0
100
AcDbLine
 10
197.169609
 20
-169.0
 30
0.0
 11
199.293235
 21
-169.0
 31
0.0
  0
LINE
  5
35E
330
343
100
AcDbEntity
  8
0
  6
Continuous
 62
     0
100
AcDbLine
 10
202.482068
 20
-169.0
 30
0.0
 11
203.085907
 21
-169.0
 31
0.0
  0
LINE
  5
35F
330
343
100
AcDbEntity
  8
0
  6
Continuous
 62
     0
100
AcDbLine
 10
171.517392
 20
-168.0
 30
0.0
 11
173.635005
 21
-168.0
 31
0.0
  0
LINE
  5
360
330
343
100
AcDbEntity
  8
0
  6
Continuous
 62
     0
100
AcDbLine
 10
175.970209
 20
-168.0
 30
0.0
 11
176.938742
 21
-168.0
 31
0.0
  0
LINE
  5
361
330
343
100
AcDbEntity
  8
0
  6
Continuous
 62
     0
100
AcDbLine
 10
178.758633
 20
-168.0
 30
0.0
 11
181.020413
 21
-168.0
 31
0.0
  0
LINE
  5
362
330
343
100
AcDbEntity
  8
0
  6
Continuous
 62
     0
100
AcDbLine
 10
184.050583
 20
-168.0
 30
0.0
 11
186.369891
 21
-168.0
 31
0.0
  0
LINE
  5
363
330
343
100
AcDbEntity
  8
0
  6
Continuous
 62
     0
100
AcDbLine
 10
189.30995
 20
-168.0
 30
0.0
 11
190.075231
 21
-168.0
 31
0.0
  0
LINE
  5
364
330
343
100
AcDbEntity
  8
0
  6
Continuous
 62
     0
100
AcDbLine
 10
191.718885
 20
-168.0
 30
0.0
 11
195.056531
 21
-168.0
 31
0.0
  0
LINE
  5
365
330
343
100
AcDbEntity
  8
0
  6
Continuous
 62
     0
100
AcDbLine
 10
197.770083
 20
-168.0
 30
0.0
 11
200.453359
 21
-168.0
 31
0.0
  0
LINE
  5
366
330
343
100
AcDbEntity
  8
0
  6
Continuous
 62
     0
100
AcDbLine
 10
201.321944
 20
-168.0
 30
0.0
 11
203.085907
 21
-168.0
 31
0.0
  0
ENDBLK
  5
367
330
343
100
AcDbEntity
  8
0
  6
ByBlock
 62
     0
100
AcDbBlockEnd
  0
BLOCK
  5
369
330
368
100
AcDbEntity
  8
0
100
AcDbBlockBegin
  2
*G1817181717
 70
     1
 10
0.0
 20
0.0
 30
0.0
  3
*G1817181717
  1

  0
CIRCLE
  5
36A
330
368
100
AcDbEntity
  8
1
  6
Continuous
 62
     7
370
     9
100
AcDbCircle
 10
54.27588122120766
 20
98.84175595122924
 30
0.0
 40
3.0
  0
LINE
  5
36B
330
368
100
AcDbEntity
  8
1
  6
Continuous
 62
     7
370
     9
100
AcDbLine
 10
52.77588122120764
 20
99.29175595122929
 30
0.0
 11
53.82588122120767
 21
99.29175595122929
 31
0.0
  0
LINE
  5
36C
330
368
100
AcDbEntity
  8
1
  6
Continuous
 62
     7
370
     9
100
AcDbLine
 10
53.82588122120767
 20
99.29175595122929
 30
0.0
 11
53.82588122120767
 21
100.4917559512293
 31
0.0
  0
LINE
  5
36D
330
368
100
AcDbEntity
  8
1
  6
Continuous
 62
     7
370
     9
100
AcDbLine
 10
53.82588122120767
 20
100.4917559512293
 30
0.0
 11
54.72588122120772
 21
100.4917559512293
 31
0.0
  0
LINE
  5
36E
330
368
100
AcDbEntity
  8
1
  6
Continuous
 62
     7
370
     9
100
AcDbLine
 10
54.72588122120772
 20
100.4917559512293
 30
0.0
 11
54.72588122120772
 21
99.29175595122929
 31
0.0
  0
LINE
  5
36F
330
368
100
AcDbEntity
  8
1
  6
Continuous
 62
     7
370
     9
100
AcDbLine
 10
54.72588122120772
 20
99.29175595122929
 30
0.0
 11
55.77588122120765
 21
99.29175595122929
 31
0.0
  0
LINE
  5
370
330
368
100
AcDbEntity
  8
1
  6
Continuous
 62
     7
370
     9
100
AcDbLine
 10
55.77588122120765
 20
99.29175595122929
 30
0.0
 11
55.77588122120765
 21
98.39175595122929
 31
0.0
  0
LINE
  5
371
330
368
100
AcDbEntity
  8
1
  6
Continuous
 62
     7
370
     9
100
AcDbLine
 10
55.77588122120765
 20
98.39175595122929
 30
0.0
 11
54.72588122120772
 21
98.39175595122929
 31
0.0
  0
LINE
  5
372
330
368
100
AcDbEntity
  8
1
  6
Continuous
 62
     7
370
     9
100
AcDbLine
 10
54.72588122120772
 20
98.39175595122929
 30
0.0
 11
54.72588122120772
 21
97.19175595122926
 31
0.0
  0
LINE
  5
373
330
368
100
AcDbEntity
  8
1
  6
Continuous
 62
     7
370
     9
100
AcDbLine
 10
54.72588122120772
 20
97.19175595122926
 30
0.0
 11
53.82588122120767
 21
97.19175595122926
 31
0.0
  0
LINE
  5
374
330
368
100
AcDbEntity
  8
1
  6
Continuous
 62
     7
370
     9
100
AcDbLine
 10
53.82588122120767
 20
97.19175595122926
 30
0.0
 11
53.82588122120767
 21
98.39175595122929
 31
0.0
  0
LINE
  5
375
330
368
100
AcDbEntity
  8
1
  6
Continuous
 62
     7
370
     9
100
AcDbLine
 10
53.82588122120767
 20
98.39175595122929
 30
0.0
 11
52.77588122120764
 21
98.39175595122929
 31
0.0
  0
LINE
  5
376
330
368
100
AcDbEntity
  8
1
  6
Continuous
 62
     7
370
     9
100
AcDbLine
 10
52.77588122120764
 20
98.39175595122929
 30
0.0
 11
52.77588122120764
 21
99.29175595122929
 31
0.0
  0
ENDBLK
  5
377
330
368
100
AcDbEntity
  8
0
100
AcDbBlockEnd
  0
BLOCK
  5
379
330
378
100
AcDbEntity
  8
0
100
AcDbBlockBegin
  2
*G1918191818
 70
     1
 10
0.0
 20
0.0
 30
0.0
  3
*G1918191818
  1

  0
CIRCLE
  5
37A
330
378
100
AcDbEntity
  8
1
  6
Continuous
 62
     7
370
     9
100
AcDbCircle
 10
114.2758812212076
 20
98.84175595122924
 30
0.0
 40
3.0
  0
LINE
  5
37B
330
378
100
AcDbEntity
  8
1
  6
Continuous
 62
     7
370
     9
100
AcDbLine
 10
112.7758812212076
 20
99.29175595122929
 30
0.0
 11
113.8258812212077
 21
99.29175595122929
 31
0.0
  0
LINE
  5
37C
330
378
100
AcDbEntity
  8
1
  6
Continuous
 62
     7
370
     9
100
AcDbLine
 10
113.8258812212077
 20
99.29175595122929
 30
0.0
 11
113.8258812212077
 21
100.4917559512293
 31
0.0
  0
LINE
  5
37D
330
378
100
AcDbEntity
  8
1
  6
Continuous
 62
     7
370
     9
100
AcDbLine
 10
113.8258812212077
 20
100.4917559512293
 30
0.0
 11
114.7258812212077
 21
100.4917559512293
 31
0.0
  0
LINE
  5
37E
330
378
100
AcDbEntity
  8
1
  6
Continuous
 62
     7
370
     9
100
AcDbLine
 10
114.7258812212077
 20
100.4917559512293
 30
0.0
 11
114.7258812212077
 21
99.29175595122929
 31
0.0
  0
LINE
  5
37F
330
378
100
AcDbEntity
  8
1
  6
Continuous
 62
     7
370
     9
100
AcDbLine
 10
114.7258812212077
 20
99.29175595122929
 30
0.0
 11
115.7758812212076
 21
99.29175595122929
 31
0.0
  0
LINE
  5
380
330
378
100
AcDbEntity
  8
1
  6
Continuous
 62
     7
370
     9
100
AcDbLine
 10
115.7758812212076
 20
99.29175595122929
 30
0.0
 11
115.7758812212076
 21
98.39175595122929
 31
0.0
  0
LINE
  5
381
330
378
100
AcDbEntity
  8
1
  6
Continuous
 62
     7
370
     9
100
AcDbLine
 10
115.7758812212076
 20
98.39175595122929
 30
0.0
 11
114.7258812212077
 21
98.39175595122929
 31
0.0
  0
LINE
  5
382
330
378
100
AcDbEntity
  8
1
  6
Continuous
 62
     7
370
     9
100
AcDbLine
 10
114.7258812212077
 20
98.39175595122929
 30
0.0
 11
114.7258812212077
 21
97.19175595122926
 31
0.0
  0
LINE
  5
383
330
378
100
AcDbEntity
  8
1
  6
Continuous
 62
     7
370
     9
100
AcDbLine
 10
114.7258812212077
 20
97.19175595122926
 30
0.0
 11
113.8258812212077
 21
97.19175595122926
 31
0.0
  0
LINE
  5
384
330
378
100
AcDbEntity
  8
1
  6
Continuous
 62
     7
370
     9
100
AcDbLine
 10
113.8258812212077
 20
97.19175595122926
 30
0.0
 11
113.8258812212077
 21
98.39175595122929
 31
0.0
  0
LINE
  5
385
330
378
100
AcDbEntity
  8
1
  6
Continuous
 62
     7
370
     9
100
AcDbLine
 10
113.8258812212077
 20
98.39175595122929
 30
0.0
 11
112.7758812212076
 21
98.39175595122929
 31
0.0
  0
LINE
  5
386
330
378
100
AcDbEntity
  8
1
  6
Continuous
 62
     7
370
     9
100
AcDbLine
 10
112.7758812212076
 20
98.39175595122929
 30
0.0
 11
112.7758812212076
 21
99.29175595122929
 31
0.0
  0
ENDBLK
  5
387
330
378
100
AcDbEntity
  8
0
100
AcDbBlockEnd
  0
BLOCK
  5
389
330
388
100
AcDbEntity
  8
0
100
AcDbBlockBegin
  2
*G2019201919
 70
     1
 10
0.0
 20
0.0
 30
0.0
  3
*G2019201919
  1

  0
CIRCLE
  5
38A
330
388
100
AcDbEntity
  8
1
  6
Continuous
 62
     7
370
     9
100
AcDbCircle
 10
104.2758812212077
 20
61.84175595122929
 30
0.0
 40
2.0
  0
LINE
  5
38B
330
388
100
AcDbEntity
  8
1
  6
Continuous
 62
     7
370
     9
100
AcDbLine
 10
104.2758812212077
 20
65.84175595122927
 30
0.0
 11
100.8758812212077
 21
63.84175595122929
 31
0.0
  0
LINE
  5
38C
330
388
100
AcDbEntity
  8
1
  6
Continuous
 62
     7
370
     9
100
AcDbLine
 10
100.8758812212077
 20
63.84175595122929
 30
0.0
 11
100.8758812212077
 21
59.84175595122929
 31
0.0
  0
LINE
  5
38D
330
388
100
AcDbEntity
  8
1
  6
Continuous
 62
     7
370
     9
100
AcDbLine
 10
100.8758812212077
 20
59.84175595122929
 30
0.0
 11
104.2758812212077
 21
57.84175595122929
 31
0.0
  0
LINE
  5
38E
330
388
100
AcDbEntity
  8
1
  6
Continuous
 62
     7
370
     9
100
AcDbLine
 10
104.2758812212077
 20
57.84175595122929
 30
0.0
 11
107.6758812212076
 21
59.84175595122929
 31
0.0
  0
LINE
  5
38F
330
388
100
AcDbEntity
  8
1
  6
Continuous
 62
     7
370
     9
100
AcDbLine
 10
107.6758812212076
 20
59.84175595122929
 30
0.0
 11
107.6758812212076
 21
63.84175595122929
 31
0.0
  0
LINE
  5
390
330
388
100
AcDbEntity
  8
1
  6
Continuous
 62
     7
370
     9
100
AcDbLine
 10
107.6758812212076
 20
63.84175595122929
 30
0.0
 11
104.2758812212077
 21
65.84175595122927
 31
0.0
  0
ENDBLK
  5
391
330
388
100
AcDbEntity
  8
0
100
AcDbBlockEnd
  0
BLOCK
  5
393
330
392
100
AcDbEntity
  8
0
100
AcDbBlockBegin
  2
*D20
 70
     1
 10
0.0
 20
0.0
 30
0.0
  3
*D20
  1

  0
LINE
  5
394
330
392
100
AcDbEntity
  8
0
 62
     0
370
    -2
100
AcDbLine
 10
-42.49843215463426
 20
117.7971463126882
 30
0.0
 11
-42.49843215463426
 21
116.3679232391371
 31
0.0
  0
LINE
  5
395
330
392
100
AcDbEntity
  8
0
 62
     0
370
    -2
100
AcDbLine
 10
49.50156784536584
 20
98.95773431268823
 30
0.0
 11
49.50156784536584
 21
118.7679232391371
 31
0.0
  0
LINE
  5
396
330
392
100
AcDbEntity
  8
0
 62
     0
370
    -2
100
AcDbLine
 10
-39.99843215463426
 20
117.5679232391371
 30
0.0
 11
47.00156784536583
 21
117.5679232391371
 31
0.0
  0
INSERT
  5
397
330
392
100
AcDbEntity
  8
0
 62
     0
370
    -2
100
AcDbBlockReference
  2
_OPEN30
 10
-42.49843215463426
 20
117.5679232391371
 30
0.0
 41
2.5
 42
2.5
 43
2.5
 50
180.0
  0
INSERT
  5
398
330
392
100
AcDbEntity
  8
0
 62
     0
370
    -2
100
AcDbBlockReference
  2
_OPEN30
 10
49.50156784536584
 20
117.5679232391371
 30
0.0
 41
2.5
 42
2.5
 43
2.5
  0
MTEXT
  5
399
330
392
100
AcDbEntity
  8
0
 62
     0
100
AcDbMText
 10
-19.02793427927912
 20
121.5679232391371
 30
0.0
 40
6.0
 41
0.0
 71
     5
 72
     1
  1
\A1;92
 73
     1
 44
1.0
  0
POINT
  5
39A
330
392
100
AcDbEntity
  8
DEFPOINTS
 62
     0
100
AcDbPoint
 10
-42.49843215463426
 20
119.0671463126882
 30
0.0
  0
POINT
  5
39B
330
392
100
AcDbEntity
  8
DEFPOINTS
 62
     0
100
AcDbPoint
 10
49.50156784536584
 20
97.68773431268824
 30
0.0
  0
POINT
  5
39C
330
392
100
AcDbEntity
  8
DEFPOINTS
 62
     0
100
AcDbPoint
 10
49.50156784536584
 20
117.5679232391371
 30
0.0
  0
ENDBLK
  5
39D
330
392
100
AcDbEntity
  8
0
100
AcDbBlockEnd
  0
BLOCK
  5
39F
330
39E
100
AcDbEntity
  8
0
100
AcDbBlockBegin
  2
*D21
 70
     1
 10
0.0
 20
0.0
 30
0.0
  3
*D21
  1

  0
LINE
  5
3A0
330
39E
100
AcDbEntity
  8
0
 62
     0
370
    -2
100
AcDbLine
 10
49.50156784536584
 20
118.8379232391371
 30
0.0
 11
49.50156784536584
 21
118.7950199414139
 31
0.0
  0
LINE
  5
3A1
330
39E
100
AcDbEntity
  8
0
 62
     0
370
    -2
100
AcDbLine
 10
73.5015678453657
 20
59.60774131268841
 30
0.0
 11
73.5015678453657
 21
118.7950199414139
 31
0.0
  0
LINE
  5
3A2
330
39E
100
AcDbEntity
  8
0
 62
     0
370
    -2
100
AcDbLine
 10
52.00156784536584
 20
117.5950199414139
 30
0.0
 11
71.0015678453657
 21
117.5950199414139
 31
0.0
  0
INSERT
  5
3A3
330
39E
100
AcDbEntity
  8
0
 62
     0
370
    -2
100
AcDbBlockReference
  2
_OPEN30
 10
49.50156784536584
 20
117.5950199414139
 30
0.0
 41
2.5
 42
2.5
 43
2.5
 50
180.0
  0
INSERT
  5
3A4
330
39E
100
AcDbEntity
  8
0
 62
     0
370
    -2
100
AcDbBlockReference
  2
_OPEN30
 10
73.5015678453657
 20
117.5950199414139
 30
0.0
 41
2.5
 42
2.5
 43
2.5
  0
MTEXT
  5
3A5
330
39E
100
AcDbEntity
  8
0
 62
     0
370
    -2
100
AcDbMText
 10
59.98039865782042
 20
121.5950199414139
 30
0.0
 40
6.0
 41
0.0
 71
     5
 72
     1
  1
\A1;24
 73
     1
 44
1.0
  0
POINT
  5
3A6
330
39E
100
AcDbEntity
  8
DEFPOINTS
 62
     0
100
AcDbPoint
 10
49.50156784536584
 20
117.5679232391371
 30
0.0
  0
POINT
  5
3A7
330
39E
100
AcDbEntity
  8
DEFPOINTS
 62
     0
100
AcDbPoint
 10
73.5015678453657
 20
58.33774131268842
 30
0.0
  0
POINT
  5
3A8
330
39E
100
AcDbEntity
  8
DEFPOINTS
 62
     0
100
AcDbPoint
 10
73.5015678453657
 20
117.5950199414139
 30
0.0
  0
ENDBLK
  5
3A9
330
39E
100
AcDbEntity
  8
0
100
AcDbBlockEnd
  0
BLOCK
  5
3AB
330
3AA
100
AcDbEntity
  8
0
100
AcDbBlockBegin
  2
*D22
 70
     1
 10
0.0
 20
0.0
 30
0.0
  3
*D22
  1

  0
LINE
  5
3AC
330
3AA
100
AcDbEntity
  8
PV
  6
Continuous
 62
     0
370
    -2
100
AcDbLine
 10
-26.49843215463426
 20
16.06775031268828
 30
0.0
 11
-26.49843215463426
 21
-26.90275068731168
 31
0.0
  0
LINE
  5
3AD
330
3AA
100
AcDbEntity
  8
PV
  6
Continuous
 62
     0
370
    -2
100
AcDbLine
 10
-42.49843215463426
 20
1.917771312688254
 30
0.0
 11
-42.49843215463426
 21
-26.90275068731166
 31
0.0
  0
LINE
  5
3AE
330
3AA
100
AcDbEntity
  8
PV
  6
Continuous
 62
     0
370
    -2
100
AcDbLine
 10
-29.26843215463426
 20
-25.70275068731167
 30
0.0
 11
-39.72843215463426
 21
-25.70275068731167
 31
0.0
  0
INSERT
  5
3AF
330
3AA
100
AcDbEntity
  8
PV
  6
Continuous
 62
     0
370
    -2
100
AcDbBlockReference
  2
_OPEN30
 10
-26.49843215463426
 20
-25.70275068731167
 30
0.0
 41
2.77
 42
2.77
 43
2.77
  0
INSERT
  5
3B0
330
3AA
100
AcDbEntity
  8
PV
  6
Continuous
 62
     0
370
    -2
100
AcDbBlockReference
  2
_OPEN30
 10
-42.49843215463426
 20
-25.70275068731167
 30
0.0
 41
2.77
 42
2.77
 43
2.77
 50
180.0
  0
MTEXT
  5
3B1
330
3AA
100
AcDbEntity
  8
PV
  6
Continuous
 62
     0
100
AcDbMText
 10
-34.49843215463426
 20
-21.70275068731166
 30
0.0
 40
6.0
 41
0.0
 71
     5
 72
     1
  1
\A1;（16）
  7
MX_DIMTXSTY_2
 73
     1
 44
1.0
  0
POINT
  5
3B2
330
3AA
100
AcDbEntity
  8
DEFPOINTS
  6
Continuous
 62
     0
100
AcDbPoint
 10
-26.49843215463426
 20
17.33775031268828
 30
0.0
  0
POINT
  5
3B3
330
3AA
100
AcDbEntity
  8
DEFPOINTS
  6
Continuous
 62
     0
100
AcDbPoint
 10
-42.49843215463426
 20
3.187771312688254
 30
0.0
  0
POINT
  5
3B4
330
3AA
100
AcDbEntity
  8
DEFPOINTS
  6
Continuous
 62
     0
100
AcDbPoint
 10
-42.49843215463426
 20
-25.70275068731167
 30
0.0
  0
ENDBLK
  5
3B5
330
3AA
100
AcDbEntity
  8
0
100
AcDbBlockEnd
  0
BLOCK
  5
3B7
330
3B6
100
AcDbEntity
  8
0
100
AcDbBlockBegin
  2
*D23
 70
     1
 10
0.0
 20
0.0
 30
0.0
  3
*D23
  1

  0
LINE
  5
3B8
330
3B6
100
AcDbEntity
  8
PV
  6
Continuous
 62
     0
370
    -2
100
AcDbLine
 10
-56.49843215463426
 20
100.4577353126883
 30
0.0
 11
-56.49843215463426
 21
119.0671463126883
 31
0.0
  0
LINE
  5
3B9
330
3B6
100
AcDbEntity
  8
PV
  6
Continuous
 62
     0
370
    -2
100
AcDbLine
 10
-42.49843215463426
 20
104.4577183126882
 30
0.0
 11
-42.49843215463426
 21
119.0671463126883
 31
0.0
  0
LINE
  5
3BA
330
3B6
100
AcDbEntity
  8
PV
  6
Continuous
 62
     0
370
    -2
100
AcDbLine
 10
-53.72843215463426
 20
117.8671463126883
 30
0.0
 11
-45.26843215463425
 21
117.8671463126883
 31
0.0
  0
INSERT
  5
3BB
330
3B6
100
AcDbEntity
  8
PV
  6
Continuous
 62
     0
370
    -2
100
AcDbBlockReference
  2
_OPEN30
 10
-56.49843215463426
 20
117.8671463126883
 30
0.0
 41
2.77
 42
2.77
 43
2.77
 50
180.0
  0
INSERT
  5
3BC
330
3B6
100
AcDbEntity
  8
PV
  6
Continuous
 62
     0
370
    -2
100
AcDbBlockReference
  2
_OPEN30
 10
-42.49843215463426
 20
117.8671463126883
 30
0.0
 41
2.77
 42
2.77
 43
2.77
  0
MTEXT
  5
3BD
330
3B6
100
AcDbEntity
  8
PV
  6
Continuous
 62
     0
100
AcDbMText
 10
-49.49843215463431
 20
121.8671463126883
 30
0.0
 40
6.0
 41
0.0
 71
     5
 72
     1
  1
\A1;14
 73
     1
 44
1.0
  0
POINT
  5
3BE
330
3B6
100
AcDbEntity
  8
DEFPOINTS
  6
Continuous
 62
     0
100
AcDbPoint
 10
-56.49843215463426
 20
99.18773531268834
 30
0.0
  0
POINT
  5
3BF
330
3B6
100
AcDbEntity
  8
DEFPOINTS
  6
Continuous
 62
     0
100
AcDbPoint
 10
-42.49843215463426
 20
103.1877183126882
 30
0.0
  0
POINT
  5
3C0
330
3B6
100
AcDbEntity
  8
DEFPOINTS
  6
Continuous
 62
     0
100
AcDbPoint
 10
-42.49843215463426
 20
117.8671463126883
 30
0.0
  0
ENDBLK
  5
3C1
330
3B6
100
AcDbEntity
  8
0
100
AcDbBlockEnd
  0
BLOCK
  5
3C3
330
3C2
100
AcDbEntity
  8
0
100
AcDbBlockBegin
  2
*D24
 70
     1
 10
0.0
 20
0.0
 30
0.0
  3
*D24
  1

  0
LINE
  5
3C4
330
3C2
100
AcDbEntity
  8
PV
  6
Continuous
 62
     0
370
    -2
100
AcDbLine
 10
53.87156184536571
 20
98.18773431268823
 30
0.0
 11
102.3017218453657
 21
98.18773431268823
 31
0.0
  0
LINE
  5
3C5
330
3C2
100
AcDbEntity
  8
PV
  6
Continuous
 62
     0
370
    -2
100
AcDbLine
 10
53.87156184536571
 20
8.187739312688336
 30
0.0
 11
102.3017218453657
 21
8.187739312688322
 31
0.0
  0
LINE
  5
3C6
330
3C2
100
AcDbEntity
  8
PV
  6
Continuous
 62
     0
370
    -2
100
AcDbLine
 10
101.1017218453657
 20
95.4177343126882
 30
0.0
 11
101.1017218453657
 21
10.95773931268832
 31
0.0
  0
INSERT
  5
3C7
330
3C2
100
AcDbEntity
  8
PV
  6
Continuous
 62
     0
370
    -2
100
AcDbBlockReference
  2
_OPEN30
 10
101.1017218453657
 20
98.18773431268823
 30
0.0
 41
2.77
 42
2.77
 43
2.77
 50
90.0
  0
INSERT
  5
3C8
330
3C2
100
AcDbEntity
  8
PV
  6
Continuous
 62
     0
370
    -2
100
AcDbBlockReference
  2
_OPEN30
 10
101.1017218453657
 20
8.187739312688322
 30
0.0
 41
2.77
 42
2.77
 43
2.77
 50
270.0
  0
MTEXT
  5
3C9
330
3C2
100
AcDbEntity
  8
PV
  6
Continuous
 62
     0
370
    -2
100
AcDbMText
 10
97.10172184536572
 20
54.38887931268823
 30
0.0
 40
6.0
 41
0.0
 71
     5
 72
     1
  1
\A1;90
 11
0.0000000000000001
 21
1.0
 31
0.0
 73
     1
 44
1.0
  0
POINT
  5
3CA
330
3C2
100
AcDbEntity
  8
DEFPOINTS
  6
Continuous
 62
     0
100
AcDbPoint
 10
52.60156184536572
 20
98.18773431268823
 30
0.0
  0
POINT
  5
3CB
330
3C2
100
AcDbEntity
  8
DEFPOINTS
  6
Continuous
 62
     0
100
AcDbPoint
 10
52.60156184536572
 20
8.187739312688336
 30
0.0
  0
POINT
  5
3CC
330
3C2
100
AcDbEntity
  8
DEFPOINTS
  6
Continuous
 62
     0
100
AcDbPoint
 10
101.1017218453657
 20
8.187739312688322
 30
0.0
  0
ENDBLK
  5
3CD
330
3C2
100
AcDbEntity
  8
0
100
AcDbBlockEnd
  0
BLOCK
  5
3CF
330
3CE
100
AcDbEntity
  8
0
100
AcDbBlockBegin
  2
*D25
 70
     1
 10
0.0
 20
0.0
 30
0.0
  3
*D25
  1

  0
LINE
  5
3D0
330
3CE
100
AcDbEntity
  8
PV
  6
Continuous
 62
     0
370
    -2
100
AcDbLine
 10
-113.0220371546343
 20
-127.1301866873116
 30
0.0
 11
-113.0220371546343
 21
-150.3556656873117
 31
0.0
  0
LINE
  5
3D1
330
3CE
100
AcDbEntity
  8
PV
  6
Continuous
 62
     0
370
    -2
100
AcDbLine
 10
-193.0220371546343
 20
-126.7250506873117
 30
0.0
 11
-193.0220371546343
 21
-150.3556656873117
 31
0.0
  0
LINE
  5
3D2
330
3CE
100
AcDbEntity
  8
PV
  6
Continuous
 62
     0
370
    -2
100
AcDbLine
 10
-115.7920371546343
 20
-149.1556656873117
 30
0.0
 11
-190.2520371546343
 21
-149.1556656873117
 31
0.0
  0
INSERT
  5
3D3
330
3CE
100
AcDbEntity
  8
PV
  6
Continuous
 62
     0
370
    -2
100
AcDbBlockReference
  2
_OPEN30
 10
-113.0220371546343
 20
-149.1556656873117
 30
0.0
 41
2.77
 42
2.77
 43
2.77
  0
INSERT
  5
3D4
330
3CE
100
AcDbEntity
  8
PV
  6
Continuous
 62
     0
370
    -2
100
AcDbBlockReference
  2
_OPEN30
 10
-193.0220371546343
 20
-149.1556656873117
 30
0.0
 41
2.77
 42
2.77
 43
2.77
 50
180.0
  0
MTEXT
  5
3D5
330
3CE
100
AcDbEntity
  8
PV
  6
Continuous
 62
     0
100
AcDbMText
 10
-152.8519781546343
 20
-145.1556656873117
 30
0.0
 40
6.0
 41
0.0
 71
     5
 72
     1
  1
\A1;80
 73
     1
 44
1.0
  0
POINT
  5
3D6
330
3CE
100
AcDbEntity
  8
DEFPOINTS
  6
Continuous
 62
     0
100
AcDbPoint
 10
-113.0220371546343
 20
-125.8601866873116
 30
0.0
  0
POINT
  5
3D7
330
3CE
100
AcDbEntity
  8
DEFPOINTS
  6
Continuous
 62
     0
100
AcDbPoint
 10
-193.0220371546343
 20
-125.4550506873117
 30
0.0
  0
POINT
  5
3D8
330
3CE
100
AcDbEntity
  8
DEFPOINTS
  6
Continuous
 62
     0
100
AcDbPoint
 10
-193.0220371546343
 20
-149.1556656873117
 30
0.0
  0
ENDBLK
  5
3D9
330
3CE
100
AcDbEntity
  8
0
100
AcDbBlockEnd
  0
BLOCK
  5
3DB
330
3DA
100
AcDbEntity
  8
0
100
AcDbBlockBegin
  2
*D26
 70
     1
 10
0.0
 20
0.0
 30
0.0
  3
*D26
  1

  0
LINE
  5
3DC
330
3DA
100
AcDbEntity
  8
PV
  6
Continuous
 62
     0
370
    -2
100
AcDbLine
 10
-106.2064441546343
 20
-40.99311668731161
 30
0.0
 11
-82.98097315463428
 21
-40.99311668731161
 31
0.0
  0
LINE
  5
3DD
330
3DA
100
AcDbEntity
  8
PV
  6
Continuous
 62
     0
370
    -2
100
AcDbLine
 10
-107.2192921546342
 20
-120.9931206873116
 30
0.0
 11
-82.98097315463429
 21
-120.9931206873116
 31
0.0
  0
LINE
  5
3DE
330
3DA
100
AcDbEntity
  8
PV
  6
Continuous
 62
     0
370
    -2
100
AcDbLine
 10
-84.18097315463429
 20
-43.76311668731161
 30
0.0
 11
-84.18097315463429
 21
-118.2231206873116
 31
0.0
  0
INSERT
  5
3DF
330
3DA
100
AcDbEntity
  8
PV
  6
Continuous
 62
     0
370
    -2
100
AcDbBlockReference
  2
_OPEN30
 10
-84.18097315463429
 20
-40.99311668731161
 30
0.0
 41
2.77
 42
2.77
 43
2.77
 50
90.0
  0
INSERT
  5
3E0
330
3DA
100
AcDbEntity
  8
PV
  6
Continuous
 62
     0
370
    -2
100
AcDbBlockReference
  2
_OPEN30
 10
-84.18097315463429
 20
-120.9931206873116
 30
0.0
 41
2.77
 42
2.77
 43
2.77
 50
270.0
  0
MTEXT
  5
3E1
330
3DA
100
AcDbEntity
  8
PV
  6
Continuous
 62
     0
100
AcDbMText
 10
-88.18097315463424
 20
-80.99312068731158
 30
0.0
 40
6.0
 41
0.0
 71
     5
 72
     1
  1
\A1;80
 11
0.0000000000000001
 21
1.0
 31
0.0
 73
     1
 44
1.0
  0
POINT
  5
3E2
330
3DA
100
AcDbEntity
  8
DEFPOINTS
  6
Continuous
 62
     0
100
AcDbPoint
 10
-107.4764441546343
 20
-40.99311668731161
 30
0.0
  0
POINT
  5
3E3
330
3DA
100
AcDbEntity
  8
DEFPOINTS
  6
Continuous
 62
     0
100
AcDbPoint
 10
-108.4892921546342
 20
-120.9931206873116
 30
0.0
  0
POINT
  5
3E4
330
3DA
100
AcDbEntity
  8
DEFPOINTS
  6
Continuous
 62
     0
100
AcDbPoint
 10
-84.18097315463429
 20
-120.9931206873116
 30
0.0
  0
ENDBLK
  5
3E5
330
3DA
100
AcDbEntity
  8
0
100
AcDbBlockEnd
  0
BLOCK
  5
3E7
330
3E6
100
AcDbEntity
  8
0
100
AcDbBlockBegin
  2
*D27
 70
     1
 10
0.0
 20
0.0
 30
0.0
  3
*D27
  1

  0
LINE
  5
3E8
330
3E6
100
AcDbEntity
  8
PV
  6
Continuous
 62
     0
370
    -2
100
AcDbLine
 10
-158.4780969138529
 20
-85.54159124338388
 30
0.0
 11
-187.3790756964725
 21
-109.6351433963935
 31
0.0
  0
MTEXT
  5
3E9
330
3E6
100
AcDbEntity
  8
PV
  6
Continuous
 62
     0
100
AcDbMText
 10
-169.7957457177223
 20
-89.76898116534176
 30
0.0
 40
6.0
 41
0.0
 71
     5
 72
     1
  1
\A1;\U+220595
  7
MX_DIMTXSTY_4
 11
0.7680983603472244
 21
0.6403318739777878
 31
0.0
 73
     1
 44
1.0
  0
INSERT
  5
3EA
330
3E6
100
AcDbEntity
  8
PV
  6
Continuous
 62
     0
370
    -2
100
AcDbBlockReference
  2
_OPEN30
 10
-189.5067081546343
 20
-111.408862687312
 30
0.0
 41
2.77
 42
2.77
 43
2.77
 50
219.8165709590814
  0
POINT
  5
3EB
330
3E6
100
AcDbEntity
  8
DEFPOINTS
  6
Continuous
 62
     0
100
AcDbPoint
 10
-189.5067081546343
 20
-111.408862687312
 30
0.0
  0
POINT
  5
3EC
330
3E6
100
AcDbEntity
  8
DEFPOINTS
  6
Continuous
 62
     0
100
AcDbPoint
 10
-116.5373651546343
 20
-50.57733568731189
 30
0.0
  0
ENDBLK
  5
3ED
330
3E6
100
AcDbEntity
  8
0
100
AcDbBlockEnd
  0
BLOCK
  5
3EF
330
3EE
100
AcDbEntity
  8
0
100
AcDbBlockBegin
  2
*D28
 70
     1
 10
0.0
 20
0.0
 30
0.0
  3
*D28
  1

  0
LINE
  5
3F0
330
3EE
100
AcDbEntity
  8
PV
  6
Continuous
 62
     0
370
    -2
100
AcDbLine
 10
216.1673204113352
 20
93.18772631268826
 30
0.0
 11
241.8556754113352
 21
93.18772631268824
 31
0.0
  0
LINE
  5
3F1
330
3EE
100
AcDbEntity
  8
PV
  6
Continuous
 62
     0
370
    -2
100
AcDbLine
 10
216.5808944113351
 20
13.18777031268837
 30
0.0
 11
241.8556754113351
 21
13.18777031268836
 31
0.0
  0
LINE
  5
3F2
330
3EE
100
AcDbEntity
  8
PV
  6
Continuous
 62
     0
370
    -2
100
AcDbLine
 10
240.6556634113352
 20
90.41772631268823
 30
0.0
 11
240.6556634113351
 21
15.95777031268836
 31
0.0
  0
INSERT
  5
3F3
330
3EE
100
AcDbEntity
  8
PV
  6
Continuous
 62
     0
370
    -2
100
AcDbBlockReference
  2
_OPEN30
 10
240.6556634113352
 20
93.18772631268824
 30
0.0
 41
2.77
 42
2.77
 43
2.77
 50
90.0
  0
INSERT
  5
3F4
330
3EE
100
AcDbEntity
  8
PV
  6
Continuous
 62
     0
370
    -2
100
AcDbBlockReference
  2
_OPEN30
 10
240.6556634113351
 20
13.18777031268836
 30
0.0
 41
2.77
 42
2.77
 43
2.77
 50
270.0
  0
MTEXT
  5
3F5
330
3EE
100
AcDbEntity
  8
PV
  6
Continuous
 62
     0
100
AcDbMText
 10
236.6556634113351
 20
54.07614231268826
 30
0.0
 40
6.0
 41
0.0
 71
     5
 72
     1
  1
\A1;80
 11
0.0000000000000001
 21
1.0
 31
0.0
 73
     1
 44
1.0
  0
POINT
  5
3F6
330
3EE
100
AcDbEntity
  8
DEFPOINTS
  6
Continuous
 62
     0
100
AcDbPoint
 10
214.8973204113352
 20
93.18772631268826
 30
0.0
  0
POINT
  5
3F7
330
3EE
100
AcDbEntity
  8
DEFPOINTS
  6
Continuous
 62
     0
100
AcDbPoint
 10
215.3108944113351
 20
13.18777031268837
 30
0.0
  0
POINT
  5
3F8
330
3EE
100
AcDbEntity
  8
DEFPOINTS
  6
Continuous
 62
     0
100
AcDbPoint
 10
240.6556634113351
 20
13.18777031268836
 30
0.0
  0
ENDBLK
  5
3F9
330
3EE
100
AcDbEntity
  8
0
100
AcDbBlockEnd
  0
BLOCK
  5
3FB
330
3FA
100
AcDbEntity
  8
0
100
AcDbBlockBegin
  2
*D29
 70
     1
 10
0.0
 20
0.0
 30
0.0
  3
*D29
  1

  0
LINE
  5
3FC
330
3FA
100
AcDbEntity
  8
PV
  6
Continuous
 62
     0
370
    -2
100
AcDbLine
 10
210.6956594113351
 20
6.96955931268824
 30
0.0
 11
210.6956594113351
 21
-26.90275068731168
 31
0.0
  0
LINE
  5
3FD
330
3FA
100
AcDbEntity
  8
PV
  6
Continuous
 62
     0
370
    -2
100
AcDbLine
 10
130.695827411335
 20
6.940034312688322
 30
0.0
 11
130.695827411335
 21
-26.90275068731168
 31
0.0
  0
LINE
  5
3FE
330
3FA
100
AcDbEntity
  8
PV
  6
Continuous
 62
     0
370
    -2
100
AcDbLine
 10
207.9256594113351
 20
-25.70275068731167
 30
0.0
 11
133.4658274113351
 21
-25.70275068731167
 31
0.0
  0
INSERT
  5
3FF
330
3FA
100
AcDbEntity
  8
PV
  6
Continuous
 62
     0
370
    -2
100
AcDbBlockReference
  2
_OPEN30
 10
210.6956594113351
 20
-25.70275068731167
 30
0.0
 41
2.77
 42
2.77
 43
2.77
  0
INSERT
  5
400
330
3FA
100
AcDbEntity
  8
PV
  6
Continuous
 62
     0
370
    -2
100
AcDbBlockReference
  2
_OPEN30
 10
130.695827411335
 20
-25.70275068731167
 30
0.0
 41
2.77
 42
2.77
 43
2.77
 50
180.0
  0
MTEXT
  5
401
330
3FA
100
AcDbEntity
  8
PV
  6
Continuous
 62
     0
100
AcDbMText
 10
170.3320464113351
 20
-21.70275068731166
 30
0.0
 40
6.0
 41
0.0
 71
     5
 72
     1
  1
\A1;80
 73
     1
 44
1.0
  0
POINT
  5
402
330
3FA
100
AcDbEntity
  8
DEFPOINTS
  6
Continuous
 62
     0
100
AcDbPoint
 10
210.6956594113351
 20
8.239559312688241
 30
0.0
  0
POINT
  5
403
330
3FA
100
AcDbEntity
  8
DEFPOINTS
  6
Continuous
 62
     0
100
AcDbPoint
 10
130.695827411335
 20
8.210034312688321
 30
0.0
  0
POINT
  5
404
330
3FA
100
AcDbEntity
  8
DEFPOINTS
  6
Continuous
 62
     0
100
AcDbPoint
 10
130.695827411335
 20
-25.70275068731167
 30
0.0
  0
ENDBLK
  5
405
330
3FA
100
AcDbEntity
  8
0
100
AcDbBlockEnd
  0
BLOCK
  5
407
330
406
100
AcDbEntity
  8
0
100
AcDbBlockBegin
  2
*D30
 70
     1
 10
0.0
 20
0.0
 30
0.0
  3
*D30
  1

  0
LINE
  5
408
330
406
100
AcDbEntity
  8
PV
  6
Continuous
 62
     0
370
    -2
100
AcDbLine
 10
-204.2920221546343
 20
3.18777031268837
 30
0.0
 11
-221.8267561546343
 21
3.187770312688376
 31
0.0
  0
LINE
  5
409
330
406
100
AcDbEntity
  8
PV
  6
Continuous
 62
     0
370
    -2
100
AcDbLine
 10
-204.2920221546343
 20
103.1877263126882
 30
0.0
 11
-221.8267561546343
 21
103.1877263126882
 31
0.0
  0
LINE
  5
40A
330
406
100
AcDbEntity
  8
PV
  6
Continuous
 62
     0
370
    -2
100
AcDbLine
 10
-219.5406381546344
 20
5.957770312688374
 30
0.0
 11
-219.5406381546344
 21
100.4177263126882
 31
0.0
  0
INSERT
  5
40B
330
406
100
AcDbEntity
  8
PV
  6
Continuous
 62
     0
370
    -2
100
AcDbBlockReference
  2
_OPEN30
 10
-219.5406381546344
 20
3.187770312688376
 30
0.0
 41
2.77
 42
2.77
 43
2.77
 50
270.0
  0
INSERT
  5
40C
330
406
100
AcDbEntity
  8
PV
  6
Continuous
 62
     0
370
    -2
100
AcDbBlockReference
  2
_OPEN30
 10
-219.5406381546344
 20
103.1877263126882
 30
0.0
 41
2.77
 42
2.77
 43
2.77
 50
90.0
  0
MTEXT
  5
40D
330
406
100
AcDbEntity
  8
PV
  6
Continuous
 62
     0
100
AcDbMText
 10
-223.5406381546344
 20
53.18773931268832
 30
0.0
 40
6.0
 41
0.0
 71
     5
 72
     1
  1
\A1;100
  7
MX_DIMTXSTY_5
 11
0.0000000000000001
 21
1.0
 31
0.0
 73
     1
 44
1.0
  0
POINT
  5
40E
330
406
100
AcDbEntity
  8
DEFPOINTS
  6
Continuous
 62
     0
100
AcDbPoint
 10
-203.0220221546343
 20
3.18777031268837
 30
0.0
  0
POINT
  5
40F
330
406
100
AcDbEntity
  8
DEFPOINTS
  6
Continuous
 62
     0
100
AcDbPoint
 10
-203.0220221546343
 20
103.1877263126882
 30
0.0
  0
POINT
  5
410
330
406
100
AcDbEntity
  8
DEFPOINTS
  6
Continuous
 62
     0
100
AcDbPoint
 10
-219.5406381546344
 20
103.1877263126882
 30
0.0
  0
ENDBLK
  5
411
330
406
100
AcDbEntity
  8
0
100
AcDbBlockEnd
  0
BLOCK
  5
413
330
412
100
AcDbEntity
  8
0
100
AcDbBlockBegin
  2
*D31
 70
     1
 10
0.0
 20
0.0
 30
0.0
  3
*D31
  1

  0
LINE
  5
414
330
412
100
AcDbEntity
  8
PV
  6
Continuous
 62
     0
370
    -2
100
AcDbLine
 10
-203.0220221546343
 20
104.4577263126882
 30
0.0
 11
-203.0220221546343
 21
120.1531423126883
 31
0.0
  0
LINE
  5
415
330
412
100
AcDbEntity
  8
PV
  6
Continuous
 62
     0
370
    -2
100
AcDbLine
 10
-103.0220371546343
 20
104.4577263126882
 30
0.0
 11
-103.0220371546343
 21
120.1531423126883
 31
0.0
  0
LINE
  5
416
330
412
100
AcDbEntity
  8
PV
  6
Continuous
 62
     0
370
    -2
100
AcDbLine
 10
-200.2520221546343
 20
117.8671463126883
 30
0.0
 11
-105.7920371546342
 21
117.8671463126883
 31
0.0
  0
INSERT
  5
417
330
412
100
AcDbEntity
  8
PV
  6
Continuous
 62
     0
370
    -2
100
AcDbBlockReference
  2
_OPEN30
 10
-203.0220221546343
 20
117.8671463126883
 30
0.0
 41
2.77
 42
2.77
 43
2.77
 50
180.0
  0
INSERT
  5
418
330
412
100
AcDbEntity
  8
PV
  6
Continuous
 62
     0
370
    -2
100
AcDbBlockReference
  2
_OPEN30
 10
-103.0220371546343
 20
117.8671463126883
 30
0.0
 41
2.77
 42
2.77
 43
2.77
  0
MTEXT
  5
419
330
412
100
AcDbEntity
  8
PV
  6
Continuous
 62
     0
100
AcDbMText
 10
-153.8665501546343
 20
121.8671463126883
 30
0.0
 40
6.0
 41
0.0
 71
     5
 72
     1
  1
\A1;100
  7
MX_DIMTXSTY_5
 73
     1
 44
1.0
  0
POINT
  5
41A
330
412
100
AcDbEntity
  8
DEFPOINTS
  6
Continuous
 62
     0
100
AcDbPoint
 10
-203.0220221546343
 20
103.1877263126882
 30
0.0
  0
POINT
  5
41B
330
412
100
AcDbEntity
  8
DEFPOINTS
  6
Continuous
 62
     0
100
AcDbPoint
 10
-103.0220371546343
 20
103.1877263126882
 30
0.0
  0
POINT
  5
41C
330
412
100
AcDbEntity
  8
DEFPOINTS
  6
Continuous
 62
     0
100
AcDbPoint
 10
-103.0220371546343
 20
117.8671463126883
 30
0.0
  0
ENDBLK
  5
41D
330
412
100
AcDbEntity
  8
0
100
AcDbBlockEnd
  0
BLOCK
  5
C63
330
B87
100
AcDbEntity
  8
0
100
AcDbBlockBegin
  2
*D32
 70
     1
 10
0.0
 20
0.0
 30
0.0
  3
*D32
  1

  0
LINE
  5
C82
330
B87
100
AcDbEntity
  8
PV
  6
Continuous
 62
     0
370
    -2
100
AcDbLine
 10
-26.49843215463426
 20
34.06775031268828
 30
0.0
 11
-26.49843215463426
 21
-8.902750687311666
 31
0.0
  0
LINE
  5
C83
330
B87
100
AcDbEntity
  8
PV
  6
Continuous
 62
     0
370
    -2
100
AcDbLine
 10
-42.49843215463426
 20
19.91777131268825
 30
0.0
 11
-42.49843215463426
 21
-8.902750687311662
 31
0.0
  0
LINE
  5
C84
330
B87
100
AcDbEntity
  8
PV
  6
Continuous
 62
     0
370
    -2
100
AcDbLine
 10
-29.26843215463426
 20
-7.702750687311662
 30
0.0
 11
-39.72843215463426
 21
-7.702750687311662
 31
0.0
  0
INSERT
  5
C85
330
B87
100
AcDbEntity
  8
PV
  6
Continuous
 62
     0
370
    -2
100
AcDbBlockReference
  2
_OPEN30
 10
-26.49843215463426
 20
-7.702750687311662
 30
0.0
 41
2.77
 42
2.77
 43
2.77
  0
INSERT
  5
C86
330
B87
100
AcDbEntity
  8
PV
  6
Continuous
 62
     0
370
    -2
100
AcDbBlockReference
  2
_OPEN30
 10
-42.49843215463426
 20
-7.702750687311662
 30
0.0
 41
2.77
 42
2.77
 43
2.77
 50
180.0
  0
MTEXT
  5
C87
330
B87
100
AcDbEntity
  8
PV
  6
Continuous
 62
     0
100
AcDbMText
 10
-34.49843215463426
 20
-3.702750687311663
 30
0.0
 40
6.0
 41
0.0
 71
     5
 72
     1
  1
\A1;（16）
  7
MX_DIMTXSTY_2
 73
     1
 44
1.0
  0
POINT
  5
C88
330
B87
100
AcDbEntity
  8
DEFPOINTS
  6
Continuous
 62
     0
100
AcDbPoint
 10
-26.49843215463426
 20
35.33775031268829
 30
0.0
  0
POINT
  5
C89
330
B87
100
AcDbEntity
  8
DEFPOINTS
  6
Continuous
 62
     0
100
AcDbPoint
 10
-42.49843215463426
 20
21.18777131268826
 30
0.0
  0
POINT
  5
C8A
330
B87
100
AcDbEntity
  8
DEFPOINTS
  6
Continuous
 62
     0
100
AcDbPoint
 10
-42.49843215463426
 20
-7.702750687311662
 30
0.0
  0
ENDBLK
  5
C64
330
B87
100
AcDbEntity
  8
0
100
AcDbBlockEnd
  0
BLOCK
  5
C65
330
B91
100
AcDbEntity
  8
0
100
AcDbBlockBegin
  2
*D33
 70
     1
 10
0.0
 20
0.0
 30
0.0
  3
*D33
  1

  0
LINE
  5
C8B
330
B91
100
AcDbEntity
  8
PV
  6
Continuous
 62
     0
370
    -2
100
AcDbLine
 10
-56.49843215463426
 20
118.4577353126883
 30
0.0
 11
-56.49843215463426
 21
137.0671463126883
 31
0.0
  0
LINE
  5
C8C
330
B91
100
AcDbEntity
  8
PV
  6
Continuous
 62
     0
370
    -2
100
AcDbLine
 10
-42.49843215463426
 20
122.4577183126882
 30
0.0
 11
-42.49843215463426
 21
137.0671463126883
 31
0.0
  0
LINE
  5
C8D
330
B91
100
AcDbEntity
  8
PV
  6
Continuous
 62
     0
370
    -2
100
AcDbLine
 10
-53.72843215463426
 20
135.8671463126883
 30
0.0
 11
-45.26843215463425
 21
135.8671463126883
 31
0.0
  0
INSERT
  5
C8E
330
B91
100
AcDbEntity
  8
PV
  6
Continuous
 62
     0
370
    -2
100
AcDbBlockReference
  2
_OPEN30
 10
-56.49843215463426
 20
135.8671463126883
 30
0.0
 41
2.77
 42
2.77
 43
2.77
 50
180.0
  0
INSERT
  5
C8F
330
B91
100
AcDbEntity
  8
PV
  6
Continuous
 62
     0
370
    -2
100
AcDbBlockReference
  2
_OPEN30
 10
-42.49843215463426
 20
135.8671463126883
 30
0.0
 41
2.77
 42
2.77
 43
2.77
  0
MTEXT
  5
C90
330
B91
100
AcDbEntity
  8
PV
  6
Continuous
 62
     0
100
AcDbMText
 10
-49.49843215463431
 20
139.8671463126883
 30
0.0
 40
6.0
 41
0.0
 71
     5
 72
     1
  1
\A1;14
 73
     1
 44
1.0
  0
POINT
  5
C91
330
B91
100
AcDbEntity
  8
DEFPOINTS
  6
Continuous
 62
     0
100
AcDbPoint
 10
-56.49843215463426
 20
117.1877353126883
 30
0.0
  0
POINT
  5
C92
330
B91
100
AcDbEntity
  8
DEFPOINTS
  6
Continuous
 62
     0
100
AcDbPoint
 10
-42.49843215463426
 20
121.1877183126882
 30
0.0
  0
POINT
  5
C93
330
B91
100
AcDbEntity
  8
DEFPOINTS
  6
Continuous
 62
     0
100
AcDbPoint
 10
-42.49843215463426
 20
135.8671463126883
 30
0.0
  0
ENDBLK
  5
C66
330
B91
100
AcDbEntity
  8
0
100
AcDbBlockEnd
  0
BLOCK
  5
C67
330
B9B
100
AcDbEntity
  8
0
100
AcDbBlockBegin
  2
*D34
 70
     1
 10
0.0
 20
0.0
 30
0.0
  3
*D34
  1

  0
LINE
  5
C94
330
B9B
100
AcDbEntity
  8
PV
  6
Continuous
 62
     0
370
    -2
100
AcDbLine
 10
53.87156184536571
 20
116.1877343126882
 30
0.0
 11
102.3017218453657
 21
116.1877343126882
 31
0.0
  0
LINE
  5
C95
330
B9B
100
AcDbEntity
  8
PV
  6
Continuous
 62
     0
370
    -2
100
AcDbLine
 10
53.87156184536571
 20
26.18773931268834
 30
0.0
 11
102.3017218453657
 21
26.18773931268832
 31
0.0
  0
LINE
  5
C96
330
B9B
100
AcDbEntity
  8
PV
  6
Continuous
 62
     0
370
    -2
100
AcDbLine
 10
101.1017218453657
 20
113.4177343126882
 30
0.0
 11
101.1017218453657
 21
28.95773931268832
 31
0.0
  0
INSERT
  5
C97
330
B9B
100
AcDbEntity
  8
PV
  6
Continuous
 62
     0
370
    -2
100
AcDbBlockReference
  2
_OPEN30
 10
101.1017218453657
 20
116.1877343126882
 30
0.0
 41
2.77
 42
2.77
 43
2.77
 50
90.0
  0
INSERT
  5
C98
330
B9B
100
AcDbEntity
  8
PV
  6
Continuous
 62
     0
370
    -2
100
AcDbBlockReference
  2
_OPEN30
 10
101.1017218453657
 20
26.18773931268832
 30
0.0
 41
2.77
 42
2.77
 43
2.77
 50
270.0
  0
MTEXT
  5
C99
330
B9B
100
AcDbEntity
  8
PV
  6
Continuous
 62
     0
370
    -2
100
AcDbMText
 10
97.10172184536572
 20
72.38887931268823
 30
0.0
 40
6.0
 41
0.0
 71
     5
 72
     1
  1
\A1;90
 11
0.0000000000000001
 21
1.0
 31
0.0
 73
     1
 44
1.0
  0
POINT
  5
C9A
330
B9B
100
AcDbEntity
  8
DEFPOINTS
  6
Continuous
 62
     0
100
AcDbPoint
 10
52.60156184536572
 20
116.1877343126882
 30
0.0
  0
POINT
  5
C9B
330
B9B
100
AcDbEntity
  8
DEFPOINTS
  6
Continuous
 62
     0
100
AcDbPoint
 10
52.60156184536572
 20
26.18773931268834
 30
0.0
  0
POINT
  5
C9C
330
B9B
100
AcDbEntity
  8
DEFPOINTS
  6
Continuous
 62
     0
100
AcDbPoint
 10
101.1017218453657
 20
26.18773931268832
 30
0.0
  0
ENDBLK
  5
C68
330
B9B
100
AcDbEntity
  8
0
100
AcDbBlockEnd
  0
BLOCK
  5
C69
330
BA5
100
AcDbEntity
  8
0
100
AcDbBlockBegin
  2
*D35
 70
     1
 10
0.0
 20
0.0
 30
0.0
  3
*D35
  1

  0
LINE
  5
C9D
330
BA5
100
AcDbEntity
  8
PV
  6
Continuous
 62
     0
370
    -2
100
AcDbLine
 10
-113.0220371546343
 20
-109.1301866873116
 30
0.0
 11
-113.0220371546343
 21
-132.3556656873116
 31
0.0
  0
LINE
  5
C9E
330
BA5
100
AcDbEntity
  8
PV
  6
Continuous
 62
     0
370
    -2
100
AcDbLine
 10
-193.0220371546343
 20
-108.7250506873116
 30
0.0
 11
-193.0220371546343
 21
-132.3556656873116
 31
0.0
  0
LINE
  5
C9F
330
BA5
100
AcDbEntity
  8
PV
  6
Continuous
 62
     0
370
    -2
100
AcDbLine
 10
-115.7920371546343
 20
-131.1556656873116
 30
0.0
 11
-190.2520371546343
 21
-131.1556656873116
 31
0.0
  0
INSERT
  5
CA0
330
BA5
100
AcDbEntity
  8
PV
  6
Continuous
 62
     0
370
    -2
100
AcDbBlockReference
  2
_OPEN30
 10
-113.0220371546343
 20
-131.1556656873116
 30
0.0
 41
2.77
 42
2.77
 43
2.77
  0
INSERT
  5
CA1
330
BA5
100
AcDbEntity
  8
PV
  6
Continuous
 62
     0
370
    -2
100
AcDbBlockReference
  2
_OPEN30
 10
-193.0220371546343
 20
-131.1556656873116
 30
0.0
 41
2.77
 42
2.77
 43
2.77
 50
180.0
  0
MTEXT
  5
CA2
330
BA5
100
AcDbEntity
  8
PV
  6
Continuous
 62
     0
100
AcDbMText
 10
-152.8519781546343
 20
-127.1556656873116
 30
0.0
 40
6.0
 41
0.0
 71
     5
 72
     1
  1
\A1;80
 73
     1
 44
1.0
  0
POINT
  5
CA3
330
BA5
100
AcDbEntity
  8
DEFPOINTS
  6
Continuous
 62
     0
100
AcDbPoint
 10
-113.0220371546343
 20
-107.8601866873116
 30
0.0
  0
POINT
  5
CA4
330
BA5
100
AcDbEntity
  8
DEFPOINTS
  6
Continuous
 62
     0
100
AcDbPoint
 10
-193.0220371546343
 20
-107.4550506873116
 30
0.0
  0
POINT
  5
CA5
330
BA5
100
AcDbEntity
  8
DEFPOINTS
  6
Continuous
 62
     0
100
AcDbPoint
 10
-193.0220371546343
 20
-131.1556656873116
 30
0.0
  0
ENDBLK
  5
C6A
330
BA5
100
AcDbEntity
  8
0
100
AcDbBlockEnd
  0
BLOCK
  5
C6B
330
BAF
100
AcDbEntity
  8
0
100
AcDbBlockBegin
  2
*D36
 70
     1
 10
0.0
 20
0.0
 30
0.0
  3
*D36
  1

  0
LINE
  5
CA6
330
BAF
100
AcDbEntity
  8
PV
  6
Continuous
 62
     0
370
    -2
100
AcDbLine
 10
-106.2064441546343
 20
-22.99311668731161
 30
0.0
 11
-82.98097315463424
 21
-22.99311668731162
 31
0.0
  0
LINE
  5
CA7
330
BAF
100
AcDbEntity
  8
PV
  6
Continuous
 62
     0
370
    -2
100
AcDbLine
 10
-107.2192921546342
 20
-102.9931206873116
 30
0.0
 11
-82.98097315463428
 21
-102.9931206873116
 31
0.0
  0
LINE
  5
CA8
330
BAF
100
AcDbEntity
  8
PV
  6
Continuous
 62
     0
370
    -2
100
AcDbLine
 10
-84.18097315463425
 20
-25.76311668731162
 30
0.0
 11
-84.18097315463425
 21
-100.2231206873116
 31
0.0
  0
INSERT
  5
CA9
330
BAF
100
AcDbEntity
  8
PV
  6
Continuous
 62
     0
370
    -2
100
AcDbBlockReference
  2
_OPEN30
 10
-84.18097315463425
 20
-22.99311668731162
 30
0.0
 41
2.77
 42
2.77
 43
2.77
 50
90.0
  0
INSERT
  5
CAA
330
BAF
100
AcDbEntity
  8
PV
  6
Continuous
 62
     0
370
    -2
100
AcDbBlockReference
  2
_OPEN30
 10
-84.18097315463425
 20
-102.9931206873116
 30
0.0
 41
2.77
 42
2.77
 43
2.77
 50
270.0
  0
MTEXT
  5
CAB
330
BAF
100
AcDbEntity
  8
PV
  6
Continuous
 62
     0
100
AcDbMText
 10
-88.18097315463424
 20
-62.9931206873116
 30
0.0
 40
6.0
 41
0.0
 71
     5
 72
     1
  1
\A1;80
 11
0.0000000000000001
 21
1.0
 31
0.0
 73
     1
 44
1.0
  0
POINT
  5
CAC
330
BAF
100
AcDbEntity
  8
DEFPOINTS
  6
Continuous
 62
     0
100
AcDbPoint
 10
-107.4764441546343
 20
-22.99311668731161
 30
0.0
  0
POINT
  5
CAD
330
BAF
100
AcDbEntity
  8
DEFPOINTS
  6
Continuous
 62
     0
100
AcDbPoint
 10
-108.4892921546342
 20
-102.9931206873116
 30
0.0
  0
POINT
  5
CAE
330
BAF
100
AcDbEntity
  8
DEFPOINTS
  6
Continuous
 62
     0
100
AcDbPoint
 10
-84.18097315463425
 20
-102.9931206873116
 30
0.0
  0
ENDBLK
  5
C6C
330
BAF
100
AcDbEntity
  8
0
100
AcDbBlockEnd
  0
BLOCK
  5
C6D
330
BB9
100
AcDbEntity
  8
0
100
AcDbBlockBegin
  2
*D37
 70
     1
 10
0.0
 20
0.0
 30
0.0
  3
*D37
  1

  0
LINE
  5
CAF
330
BB9
100
AcDbEntity
  8
PV
  6
Continuous
 62
     0
370
    -2
100
AcDbLine
 10
-158.4780969138531
 20
-67.54159124338379
 30
0.0
 11
-187.3790756964726
 21
-91.63514339639341
 31
0.0
  0
MTEXT
  5
CB0
330
BB9
100
AcDbEntity
  8
PV
  6
Continuous
 62
     0
100
AcDbMText
 10
-169.7957457177226
 20
-71.76898116534167
 30
0.0
 40
6.0
 41
0.0
 71
     5
 72
     1
  1
\A1;\U+220595
  7
MX_DIMTXSTY_4
 11
0.7680983603472252
 21
0.6403318739777867
 31
0.0
 73
     1
 44
1.0
  0
INSERT
  5
CB1
330
BB9
100
AcDbEntity
  8
PV
  6
Continuous
 62
     0
370
    -2
100
AcDbBlockReference
  2
_OPEN30
 10
-189.5067081546344
 20
-93.40886268731187
 30
0.0
 41
2.77
 42
2.77
 43
2.77
 50
219.8165709590812
  0
POINT
  5
CB2
330
BB9
100
AcDbEntity
  8
DEFPOINTS
  6
Continuous
 62
     0
100
AcDbPoint
 10
-189.5067081546344
 20
-93.40886268731187
 30
0.0
  0
POINT
  5
CB3
330
BB9
100
AcDbEntity
  8
DEFPOINTS
  6
Continuous
 62
     0
100
AcDbPoint
 10
-116.5373651546343
 20
-32.57733568731192
 30
0.0
  0
ENDBLK
  5
C6E
330
BB9
100
AcDbEntity
  8
0
100
AcDbBlockEnd
  0
BLOCK
  5
C6F
330
BBF
100
AcDbEntity
  8
0
100
AcDbBlockBegin
  2
*D38
 70
     1
 10
0.0
 20
0.0
 30
0.0
  3
*D38
  1

  0
LINE
  5
CB4
330
BBF
100
AcDbEntity
  8
PV
  6
Continuous
 62
     0
370
    -2
100
AcDbLine
 10
216.1673204113352
 20
111.1877263126882
 30
0.0
 11
241.8556754113352
 21
111.1877263126882
 31
0.0
  0
LINE
  5
CB5
330
BBF
100
AcDbEntity
  8
PV
  6
Continuous
 62
     0
370
    -2
100
AcDbLine
 10
216.5808944113351
 20
31.18777031268837
 30
0.0
 11
241.8556754113351
 21
31.18777031268836
 31
0.0
  0
LINE
  5
CB6
330
BBF
100
AcDbEntity
  8
PV
  6
Continuous
 62
     0
370
    -2
100
AcDbLine
 10
240.6556634113352
 20
108.4177263126882
 30
0.0
 11
240.6556634113351
 21
33.95777031268836
 31
0.0
  0
INSERT
  5
CB7
330
BBF
100
AcDbEntity
  8
PV
  6
Continuous
 62
     0
370
    -2
100
AcDbBlockReference
  2
_OPEN30
 10
240.6556634113352
 20
111.1877263126882
 30
0.0
 41
2.77
 42
2.77
 43
2.77
 50
90.0
  0
INSERT
  5
CB8
330
BBF
100
AcDbEntity
  8
PV
  6
Continuous
 62
     0
370
    -2
100
AcDbBlockReference
  2
_OPEN30
 10
240.6556634113351
 20
31.18777031268836
 30
0.0
 41
2.77
 42
2.77
 43
2.77
 50
270.0
  0
MTEXT
  5
CB9
330
BBF
100
AcDbEntity
  8
PV
  6
Continuous
 62
     0
100
AcDbMText
 10
236.6556634113351
 20
72.07614231268826
 30
0.0
 40
6.0
 41
0.0
 71
     5
 72
     1
  1
\A1;80
 11
0.0000000000000001
 21
1.0
 31
0.0
 73
     1
 44
1.0
  0
POINT
  5
CBA
330
BBF
100
AcDbEntity
  8
DEFPOINTS
  6
Continuous
 62
     0
100
AcDbPoint
 10
214.8973204113352
 20
111.1877263126882
 30
0.0
  0
POINT
  5
CBB
330
BBF
100
AcDbEntity
  8
DEFPOINTS
  6
Continuous
 62
     0
100
AcDbPoint
 10
215.3108944113351
 20
31.18777031268837
 30
0.0
  0
POINT
  5
CBC
330
BBF
100
AcDbEntity
  8
DEFPOINTS
  6
Continuous
 62
     0
100
AcDbPoint
 10
240.6556634113351
 20
31.18777031268836
 30
0.0
  0
ENDBLK
  5
C70
330
BBF
100
AcDbEntity
  8
0
100
AcDbBlockEnd
  0
BLOCK
  5
C71
330
BC9
100
AcDbEntity
  8
0
100
AcDbBlockBegin
  2
*D39
 70
     1
 10
0.0
 20
0.0
 30
0.0
  3
*D39
  1

  0
LINE
  5
CBD
330
BC9
100
AcDbEntity
  8
PV
  6
Continuous
 62
     0
370
    -2
100
AcDbLine
 10
210.6956594113351
 20
24.96955931268824
 30
0.0
 11
210.6956594113351
 21
-8.902750687311666
 31
0.0
  0
LINE
  5
CBE
330
BC9
100
AcDbEntity
  8
PV
  6
Continuous
 62
     0
370
    -2
100
AcDbLine
 10
130.695827411335
 20
24.94003431268832
 30
0.0
 11
130.695827411335
 21
-8.902750687311666
 31
0.0
  0
LINE
  5
CBF
330
BC9
100
AcDbEntity
  8
PV
  6
Continuous
 62
     0
370
    -2
100
AcDbLine
 10
207.9256594113351
 20
-7.702750687311662
 30
0.0
 11
133.465827411335
 21
-7.702750687311662
 31
0.0
  0
INSERT
  5
CC0
330
BC9
100
AcDbEntity
  8
PV
  6
Continuous
 62
     0
370
    -2
100
AcDbBlockReference
  2
_OPEN30
 10
210.6956594113351
 20
-7.702750687311662
 30
0.0
 41
2.77
 42
2.77
 43
2.77
  0
INSERT
  5
CC1
330
BC9
100
AcDbEntity
  8
PV
  6
Continuous
 62
     0
370
    -2
100
AcDbBlockReference
  2
_OPEN30
 10
130.695827411335
 20
-7.702750687311662
 30
0.0
 41
2.77
 42
2.77
 43
2.77
 50
180.0
  0
MTEXT
  5
CC2
330
BC9
100
AcDbEntity
  8
PV
  6
Continuous
 62
     0
100
AcDbMText
 10
170.3320464113351
 20
-3.702750687311663
 30
0.0
 40
6.0
 41
0.0
 71
     5
 72
     1
  1
\A1;80
 73
     1
 44
1.0
  0
POINT
  5
CC3
330
BC9
100
AcDbEntity
  8
DEFPOINTS
  6
Continuous
 62
     0
100
AcDbPoint
 10
210.6956594113351
 20
26.23955931268824
 30
0.0
  0
POINT
  5
CC4
330
BC9
100
AcDbEntity
  8
DEFPOINTS
  6
Continuous
 62
     0
100
AcDbPoint
 10
130.695827411335
 20
26.21003431268832
 30
0.0
  0
POINT
  5
CC5
330
BC9
100
AcDbEntity
  8
DEFPOINTS
  6
Continuous
 62
     0
100
AcDbPoint
 10
130.695827411335
 20
-7.702750687311662
 30
0.0
  0
ENDBLK
  5
C72
330
BC9
100
AcDbEntity
  8
0
100
AcDbBlockEnd
  0
BLOCK
  5
C73
330
BD3
100
AcDbEntity
  8
0
100
AcDbBlockBegin
  2
*D40
 70
     1
 10
0.0
 20
0.0
 30
0.0
  3
*D40
  1

  0
LINE
  5
CC6
330
BD3
100
AcDbEntity
  8
PV
  6
Continuous
 62
     0
370
    -2
100
AcDbLine
 10
-204.2920221546344
 20
21.18777031268837
 30
0.0
 11
-221.8267561546344
 21
21.18777031268837
 31
0.0
  0
LINE
  5
CC7
330
BD3
100
AcDbEntity
  8
PV
  6
Continuous
 62
     0
370
    -2
100
AcDbLine
 10
-204.2920221546344
 20
121.1877263126882
 30
0.0
 11
-221.8267561546344
 21
121.1877263126882
 31
0.0
  0
LINE
  5
CC8
330
BD3
100
AcDbEntity
  8
PV
  6
Continuous
 62
     0
370
    -2
100
AcDbLine
 10
-219.5406381546344
 20
23.95777031268838
 30
0.0
 11
-219.5406381546344
 21
118.4177263126882
 31
0.0
  0
INSERT
  5
CC9
330
BD3
100
AcDbEntity
  8
PV
  6
Continuous
 62
     0
370
    -2
100
AcDbBlockReference
  2
_OPEN30
 10
-219.5406381546344
 20
21.18777031268837
 30
0.0
 41
2.77
 42
2.77
 43
2.77
 50
270.0
  0
INSERT
  5
CCA
330
BD3
100
AcDbEntity
  8
PV
  6
Continuous
 62
     0
370
    -2
100
AcDbBlockReference
  2
_OPEN30
 10
-219.5406381546344
 20
121.1877263126882
 30
0.0
 41
2.77
 42
2.77
 43
2.77
 50
90.0
  0
MTEXT
  5
CCB
330
BD3
100
AcDbEntity
  8
PV
  6
Continuous
 62
     0
100
AcDbMText
 10
-223.5406381546344
 20
71.18773931268833
 30
0.0
 40
6.0
 41
0.0
 71
     5
 72
     1
  1
\A1;100
  7
MX_DIMTXSTY_5
 11
0.0000000000000001
 21
1.0
 31
0.0
 73
     1
 44
1.0
  0
POINT
  5
CCC
330
BD3
100
AcDbEntity
  8
DEFPOINTS
  6
Continuous
 62
     0
100
AcDbPoint
 10
-203.0220221546343
 20
21.18777031268837
 30
0.0
  0
POINT
  5
CCD
330
BD3
100
AcDbEntity
  8
DEFPOINTS
  6
Continuous
 62
     0
100
AcDbPoint
 10
-203.0220221546343
 20
121.1877263126882
 30
0.0
  0
POINT
  5
CCE
330
BD3
100
AcDbEntity
  8
DEFPOINTS
  6
Continuous
 62
     0
100
AcDbPoint
 10
-219.5406381546344
 20
121.1877263126882
 30
0.0
  0
ENDBLK
  5
C74
330
BD3
100
AcDbEntity
  8
0
100
AcDbBlockEnd
  0
BLOCK
  5
C75
330
BDD
100
AcDbEntity
  8
0
100
AcDbBlockBegin
  2
*D41
 70
     1
 10
0.0
 20
0.0
 30
0.0
  3
*D41
  1

  0
LINE
  5
CCF
330
BDD
100
AcDbEntity
  8
PV
  6
Continuous
 62
     0
370
    -2
100
AcDbLine
 10
-203.0220221546343
 20
122.4577263126882
 30
0.0
 11
-203.0220221546343
 21
138.1531423126883
 31
0.0
  0
LINE
  5
CD0
330
BDD
100
AcDbEntity
  8
PV
  6
Continuous
 62
     0
370
    -2
100
AcDbLine
 10
-103.0220371546343
 20
122.4577263126882
 30
0.0
 11
-103.0220371546343
 21
138.1531423126883
 31
0.0
  0
LINE
  5
CD1
330
BDD
100
AcDbEntity
  8
PV
  6
Continuous
 62
     0
370
    -2
100
AcDbLine
 10
-200.2520221546343
 20
135.8671463126883
 30
0.0
 11
-105.7920371546342
 21
135.8671463126883
 31
0.0
  0
INSERT
  5
CD2
330
BDD
100
AcDbEntity
  8
PV
  6
Continuous
 62
     0
370
    -2
100
AcDbBlockReference
  2
_OPEN30
 10
-203.0220221546343
 20
135.8671463126883
 30
0.0
 41
2.77
 42
2.77
 43
2.77
 50
180.0
  0
INSERT
  5
CD3
330
BDD
100
AcDbEntity
  8
PV
  6
Continuous
 62
     0
370
    -2
100
AcDbBlockReference
  2
_OPEN30
 10
-103.0220371546343
 20
135.8671463126883
 30
0.0
 41
2.77
 42
2.77
 43
2.77
  0
MTEXT
  5
CD4
330
BDD
100
AcDbEntity
  8
PV
  6
Continuous
 62
     0
100
AcDbMText
 10
-153.8665501546343
 20
139.8671463126883
 30
0.0
 40
6.0
 41
0.0
 71
     5
 72
     1
  1
\A1;100
  7
MX_DIMTXSTY_5
 73
     1
 44
1.0
  0
POINT
  5
CD5
330
BDD
100
AcDbEntity
  8
DEFPOINTS
  6
Continuous
 62
     0
100
AcDbPoint
 10
-203.0220221546343
 20
121.1877263126882
 30
0.0
  0
POINT
  5
CD6
330
BDD
100
AcDbEntity
  8
DEFPOINTS
  6
Continuous
 62
     0
100
AcDbPoint
 10
-103.0220371546343
 20
121.1877263126882
 30
0.0
  0
POINT
  5
CD7
330
BDD
100
AcDbEntity
  8
DEFPOINTS
  6
Continuous
 62
     0
100
AcDbPoint
 10
-103.0220371546343
 20
135.8671463126883
 30
0.0
  0
ENDBLK
  5
C76
330
BDD
100
AcDbEntity
  8
0
100
AcDbBlockEnd
  0
BLOCK
  5
C77
330
BE7
100
AcDbEntity
  8
0
100
AcDbBlockBegin
  2
*D42
 70
     1
 10
0.0
 20
0.0
 30
0.0
  3
*D42
  1

  0
LINE
  5
CD8
330
BE7
100
AcDbEntity
  8
PV
 62
     0
370
    -2
100
AcDbLine
 10
-42.49843215463426
 20
135.7971463126881
 30
0.0
 11
-42.49843215463426
 21
134.3679232391371
 31
0.0
  0
LINE
  5
CD9
330
BE7
100
AcDbEntity
  8
PV
 62
     0
370
    -2
100
AcDbLine
 10
49.50156784536584
 20
116.9577343126882
 30
0.0
 11
49.50156784536584
 21
136.767923239137
 31
0.0
  0
LINE
  5
CDA
330
BE7
100
AcDbEntity
  8
PV
 62
     0
370
    -2
100
AcDbLine
 10
-39.99843215463426
 20
135.5679232391371
 30
0.0
 11
47.00156784536583
 21
135.5679232391371
 31
0.0
  0
INSERT
  5
CDB
330
BE7
100
AcDbEntity
  8
PV
 62
     0
370
    -2
100
AcDbBlockReference
  2
_OPEN30
 10
-42.49843215463426
 20
135.5679232391371
 30
0.0
 41
2.5
 42
2.5
 43
2.5
 50
180.0
  0
INSERT
  5
CDC
330
BE7
100
AcDbEntity
  8
PV
 62
     0
370
    -2
100
AcDbBlockReference
  2
_OPEN30
 10
49.50156784536584
 20
135.5679232391371
 30
0.0
 41
2.5
 42
2.5
 43
2.5
  0
MTEXT
  5
CDD
330
BE7
100
AcDbEntity
  8
PV
 62
     0
100
AcDbMText
 10
-19.02793427927912
 20
139.5679232391371
 30
0.0
 40
6.0
 41
0.0
 71
     5
 72
     1
  1
\A1;92
 73
     1
 44
1.0
  0
POINT
  5
CDE
330
BE7
100
AcDbEntity
  8
DEFPOINTS
 62
     0
100
AcDbPoint
 10
-42.49843215463426
 20
137.0671463126882
 30
0.0
  0
POINT
  5
CDF
330
BE7
100
AcDbEntity
  8
DEFPOINTS
 62
     0
100
AcDbPoint
 10
49.50156784536584
 20
115.6877343126882
 30
0.0
  0
POINT
  5
CE0
330
BE7
100
AcDbEntity
  8
DEFPOINTS
 62
     0
100
AcDbPoint
 10
49.50156784536584
 20
135.5679232391371
 30
0.0
  0
ENDBLK
  5
C78
330
BE7
100
AcDbEntity
  8
0
100
AcDbBlockEnd
  0
BLOCK
  5
C79
330
BF1
100
AcDbEntity
  8
0
100
AcDbBlockBegin
  2
*D43
 70
     1
 10
0.0
 20
0.0
 30
0.0
  3
*D43
  1

  0
LINE
  5
CE1
330
BF1
100
AcDbEntity
  8
PV
 62
     0
370
    -2
100
AcDbLine
 10
49.50156784536584
 20
136.8379232391371
 30
0.0
 11
49.50156784536584
 21
136.7950199414139
 31
0.0
  0
LINE
  5
CE2
330
BF1
100
AcDbEntity
  8
PV
 62
     0
370
    -2
100
AcDbLine
 10
73.50156784536569
 20
77.60774131268842
 30
0.0
 11
73.50156784536569
 21
136.7950199414139
 31
0.0
  0
LINE
  5
CE3
330
BF1
100
AcDbEntity
  8
PV
 62
     0
370
    -2
100
AcDbLine
 10
52.00156784536584
 20
135.5950199414139
 30
0.0
 11
71.00156784536569
 21
135.5950199414139
 31
0.0
  0
INSERT
  5
CE4
330
BF1
100
AcDbEntity
  8
PV
 62
     0
370
    -2
100
AcDbBlockReference
  2
_OPEN30
 10
49.50156784536584
 20
135.5950199414139
 30
0.0
 41
2.5
 42
2.5
 43
2.5
 50
180.0
  0
INSERT
  5
CE5
330
BF1
100
AcDbEntity
  8
PV
 62
     0
370
    -2
100
AcDbBlockReference
  2
_OPEN30
 10
73.50156784536569
 20
135.5950199414139
 30
0.0
 41
2.5
 42
2.5
 43
2.5
  0
MTEXT
  5
CE6
330
BF1
100
AcDbEntity
  8
PV
 62
     0
370
    -2
100
AcDbMText
 10
59.98039865782042
 20
139.5950199414139
 30
0.0
 40
6.0
 41
0.0
 71
     5
 72
     1
  1
\A1;24
 73
     1
 44
1.0
  0
POINT
  5
CE7
330
BF1
100
AcDbEntity
  8
DEFPOINTS
 62
     0
100
AcDbPoint
 10
49.50156784536584
 20
135.5679232391371
 30
0.0
  0
POINT
  5
CE8
330
BF1
100
AcDbEntity
  8
DEFPOINTS
 62
     0
100
AcDbPoint
 10
73.50156784536569
 20
76.33774131268842
 30
0.0
  0
POINT
  5
CE9
330
BF1
100
AcDbEntity
  8
DEFPOINTS
 62
     0
100
AcDbPoint
 10
73.50156784536569
 20
135.5950199414139
 30
0.0
  0
ENDBLK
  5
C7A
330
BF1
100
AcDbEntity
  8
0
100
AcDbBlockEnd
  0
BLOCK
  5
D6D
330
D6C
100
AcDbEntity
  8
0
  6
ByBlock
 62
     0
100
AcDbBlockBegin
  2
*X44
 70
     1
 10
0.0
 20
0.0
 30
0.0
  3
*X44
  1

  0
LINE
  5
D6E
330
D6C
100
AcDbEntity
  8
0
  6
ByBlock
 62
     0
100
AcDbLine
 10
171.9276856989905
 20
-171.0
 30
0.0
 11
174.0531851766734
 21
-171.0
 31
0.0
  0
LINE
  5
D6F
330
D6C
100
AcDbEntity
  8
0
  6
ByBlock
 62
     0
100
AcDbLine
 10
175.5461171151967
 20
-171.0
 30
0.0
 11
176.5076515562471
 21
-171.0
 31
0.0
  0
LINE
  5
D70
330
D6C
100
AcDbEntity
  8
0
  6
ByBlock
 62
     0
100
AcDbLine
 10
178.7852542805218
 20
-171.0
 30
0.0
 11
184.3233300625189
 21
-171.0
 31
0.0
  0
LINE
  5
D71
330
D6C
100
AcDbEntity
  8
0
  6
ByBlock
 62
     0
100
AcDbLine
 10
185.4520387696618
 20
-171.0
 30
0.0
 11
187.8069627194715
 21
-171.0
 31
0.0
  0
LINE
  5
D72
330
D6C
100
AcDbEntity
  8
0
  6
ByBlock
 62
     0
100
AcDbLine
 10
187.9726263374972
 20
-171.0
 30
0.0
 11
188.6737620538537
 21
-171.0
 31
0.0
  0
LINE
  5
D73
330
D6C
100
AcDbEntity
  8
0
  6
ByBlock
 62
     0
100
AcDbLine
 10
190.3199681600897
 20
-171.0
 30
0.0
 11
191.3142023493618
 21
-171.0
 31
0.0
  0
LINE
  5
D74
330
D6C
100
AcDbEntity
  8
0
  6
ByBlock
 62
     0
100
AcDbLine
 10
194.1279863208824
 20
-171.0
 30
0.0
 11
196.4574692014794
 21
-171.0
 31
0.0
  0
LINE
  5
D75
330
D6C
100
AcDbEntity
  8
0
  6
ByBlock
 62
     0
100
AcDbLine
 10
197.738262244358
 20
-171.0
 30
0.0
 11
200.3399981879355
 21
-171.0
 31
0.0
  0
LINE
  5
D76
330
D6C
100
AcDbEntity
  8
0
  6
ByBlock
 62
     0
100
AcDbLine
 10
201.4353047321846
 20
-171.0
 30
0.0
 11
202.4915647840344
 21
-171.0
 31
0.0
  0
LINE
  5
D77
330
D6C
100
AcDbEntity
  8
0
  6
ByBlock
 62
     0
100
AcDbLine
 10
171.5302221584704
 20
-170.0
 30
0.0
 11
173.6259498596191
 21
-170.0
 31
0.0
  0
LINE
  5
D78
330
D6C
100
AcDbEntity
  8
0
  6
ByBlock
 62
     0
100
AcDbLine
 10
175.9733333587646
 20
-170.0
 30
0.0
 11
176.9294778102583
 21
-170.0
 31
0.0
  0
LINE
  5
D79
330
D6C
100
AcDbEntity
  8
0
  6
ByBlock
 62
     0
100
AcDbLine
 10
178.839765548706
 20
-170.0
 30
0.0
 11
180.9392805099487
 21
-170.0
 31
0.0
  0
LINE
  5
D7A
330
D6C
100
AcDbEntity
  8
0
  6
ByBlock
 62
     0
100
AcDbLine
 10
184.9857311505269
 20
-170.0
 30
0.0
 11
187.3022976288791
 21
-170.0
 31
0.0
  0
LINE
  5
D7B
330
D6C
100
AcDbEntity
  8
0
  6
ByBlock
 62
     0
100
AcDbLine
 10
188.4772759252252
 20
-170.0
 30
0.0
 11
189.1400703875564
 21
-170.0
 31
0.0
  0
LINE
  5
D7C
330
D6C
100
AcDbEntity
  8
0
  6
ByBlock
 62
     0
100
AcDbLine
 10
190.7862738963732
 20
-170.0
 30
0.0
 11
195.9891467380229
 21
-170.0
 31
0.0
  0
LINE
  5
D7D
330
D6C
100
AcDbEntity
  8
0
  6
ByBlock
 62
     0
100
AcDbLine
 10
197.1611192119455
 20
-170.0
 30
0.0
 11
199.2816412093911
 21
-170.0
 31
0.0
  0
LINE
  5
D7E
330
D6C
100
AcDbEntity
  8
0
  6
ByBlock
 62
     0
100
AcDbLine
 10
202.4936616883856
 20
-170.0
 30
0.0
 11
203.068707748247
 21
-170.0
 31
0.0
  0
LINE
  5
D7F
330
D6C
100
AcDbEntity
  8
0
  6
ByBlock
 62
     0
100
AcDbLine
 10
171.5264368057251
 20
-169.0
 30
0.0
 11
173.6259498596191
 21
-169.0
 31
0.0
  0
LINE
  5
D80
330
D6C
100
AcDbEntity
  8
0
  6
ByBlock
 62
     0
100
AcDbLine
 10
175.9733333587646
 20
-169.0
 30
0.0
 11
176.9356184005737
 21
-169.0
 31
0.0
  0
LINE
  5
D81
330
D6C
100
AcDbEntity
  8
0
  6
ByBlock
 62
     0
100
AcDbLine
 10
178.839765548706
 20
-169.0
 30
0.0
 11
180.9392805099487
 21
-169.0
 31
0.0
  0
LINE
  5
D82
330
D6C
100
AcDbEntity
  8
0
  6
ByBlock
 62
     0
100
AcDbLine
 10
184.519423531392
 20
-169.0
 30
0.0
 11
186.8359900097442
 21
-169.0
 31
0.0
  0
LINE
  5
D83
330
D6C
100
AcDbEntity
  8
0
  6
ByBlock
 62
     0
100
AcDbLine
 10
188.943584258928
 20
-169.0
 30
0.0
 11
189.6063787212591
 21
-169.0
 31
0.0
  0
LINE
  5
D84
330
D6C
100
AcDbEntity
  8
0
  6
ByBlock
 62
     0
100
AcDbLine
 10
191.2525796326566
 20
-169.0
 30
0.0
 11
192.1148812096087
 21
-169.0
 31
0.0
  0
LINE
  5
D85
330
D6C
100
AcDbEntity
  8
0
  6
ByBlock
 62
     0
100
AcDbLine
 10
193.2062761333276
 20
-169.0
 30
0.0
 11
195.522838893137
 21
-169.0
 31
0.0
  0
LINE
  5
D86
330
D6C
100
AcDbEntity
  8
0
  6
ByBlock
 62
     0
100
AcDbLine
 10
197.1696086186999
 20
-169.0
 30
0.0
 11
199.2932348888745
 21
-169.0
 31
0.0
  0
LINE
  5
D87
330
D6C
100
AcDbEntity
  8
0
  6
ByBlock
 62
     0
100
AcDbLine
 10
202.4820679865588
 20
-169.0
 30
0.0
 11
203.0859069824219
 21
-169.0
 31
0.0
  0
LINE
  5
D88
330
D6C
100
AcDbEntity
  8
0
  6
ByBlock
 62
     0
100
AcDbLine
 10
171.5173923007582
 20
-168.0
 30
0.0
 11
173.6350048550035
 21
-168.0
 31
0.0
  0
LINE
  5
D89
330
D6C
100
AcDbEntity
  8
0
  6
ByBlock
 62
     0
100
AcDbLine
 10
175.9702089608456
 20
-168.0
 30
0.0
 11
176.9387415320276
 21
-168.0
 31
0.0
  0
LINE
  5
D8A
330
D6C
100
AcDbEntity
  8
0
  6
ByBlock
 62
     0
100
AcDbLine
 10
178.7586332427285
 20
-168.0
 30
0.0
 11
181.0204128159261
 21
-168.0
 31
0.0
  0
LINE
  5
D8B
330
D6C
100
AcDbEntity
  8
0
  6
ByBlock
 62
     0
100
AcDbLine
 10
184.0505828308254
 20
-168.0
 30
0.0
 11
186.36989069767
 21
-168.0
 31
0.0
  0
LINE
  5
D8C
330
D6C
100
AcDbEntity
  8
0
  6
ByBlock
 62
     0
100
AcDbLine
 10
189.309949696772
 20
-168.0
 30
0.0
 11
190.0752306533664
 21
-168.0
 31
0.0
  0
LINE
  5
D8D
330
D6C
100
AcDbEntity
  8
0
  6
ByBlock
 62
     0
100
AcDbLine
 10
191.7188853689401
 20
-168.0
 30
0.0
 11
195.0565310482512
 21
-168.0
 31
0.0
  0
LINE
  5
D8E
330
D6C
100
AcDbEntity
  8
0
  6
ByBlock
 62
     0
100
AcDbLine
 10
197.7700826930961
 20
-168.0
 30
0.0
 11
200.4533590917948
 21
-168.0
 31
0.0
  0
LINE
  5
D8F
330
D6C
100
AcDbEntity
  8
0
  6
ByBlock
 62
     0
100
AcDbLine
 10
201.3219437612952
 20
-168.0
 30
0.0
 11
203.0859069824219
 21
-168.0
 31
0.0
  0
ENDBLK
  5
D90
330
D6C
100
AcDbEntity
  8
0
  6
ByBlock
 62
     0
100
AcDbBlockEnd
  0
BLOCK
  5
D92
330
D91
100
AcDbEntity
  8
0
100
AcDbBlockBegin
  2
*G51504645
 70
     1
 10
0.0
 20
0.0
 30
0.0
  3
*G51504645
  1

  0
LINE
  5
D93
330
D91
100
AcDbEntity
  8
1
  6
Continuous
 62
     7
370
     9
100
AcDbLine
 10
429.0719530584133
 20
199.2026084049387
 30
0.0
 11
429.0969530584133
 21
198.4866084049387
 31
0.0
  0
LINE
  5
D94
330
D91
100
AcDbEntity
  8
1
  6
Continuous
 62
     7
370
     9
100
AcDbLine
 10
429.2909530584132
 20
198.0296084049387
 30
0.0
 11
429.0969530584133
 21
198.4866084049387
 31
0.0
  0
LINE
  5
D95
330
D91
100
AcDbEntity
  8
1
  6
Continuous
 62
     7
370
     9
100
AcDbLine
 10
428.2349530584133
 20
198.0296084049387
 30
0.0
 11
428.4289530584133
 21
198.4866084049387
 31
0.0
  0
LINE
  5
D96
330
D91
100
AcDbEntity
  8
1
  6
Continuous
 62
     7
370
     9
100
AcDbLine
 10
428.4539530584133
 20
199.2026084049387
 30
0.0
 11
428.4289530584133
 21
198.4866084049387
 31
0.0
  0
LINE
  5
D97
330
D91
100
AcDbEntity
  8
1
  6
Continuous
 62
     7
370
     9
100
AcDbLine
 10
428.4539530584133
 20
199.2026084049387
 30
0.0
 11
429.0719530584133
 21
199.2026084049387
 31
0.0
  0
LINE
  5
D98
330
D91
100
AcDbEntity
  8
1
  6
Continuous
 62
     7
370
     9
100
AcDbLine
 10
427.0629530584133
 20
197.1936084049387
 30
0.0
 11
427.0629530584133
 21
197.8116084049386
 31
0.0
  0
LINE
  5
D99
330
D91
100
AcDbEntity
  8
1
  6
Continuous
 62
     7
370
     9
100
AcDbLine
 10
427.0629530584133
 20
197.1936084049387
 30
0.0
 11
427.7789530584134
 21
197.1686084049387
 31
0.0
  0
LINE
  5
D9A
330
D91
100
AcDbEntity
  8
1
  6
Continuous
 62
     7
370
     9
100
AcDbLine
 10
428.2349530584133
 20
196.9746084049386
 30
0.0
 11
427.7789530584134
 21
197.1686084049387
 31
0.0
  0
LINE
  5
D9B
330
D91
100
AcDbEntity
  8
1
  6
Continuous
 62
     7
370
     9
100
AcDbLine
 10
428.2349530584133
 20
198.0296084049387
 30
0.0
 11
427.7789530584134
 21
197.8366084049387
 31
0.0
  0
LINE
  5
D9C
330
D91
100
AcDbEntity
  8
1
  6
Continuous
 62
     7
370
     9
100
AcDbLine
 10
427.0629530584133
 20
197.8116084049386
 30
0.0
 11
427.7789530584134
 21
197.8366084049387
 31
0.0
  0
LINE
  5
D9D
330
D91
100
AcDbEntity
  8
1
  6
Continuous
 62
     7
370
     9
100
AcDbLine
 10
429.0719530584133
 20
195.8026084049387
 30
0.0
 11
428.4539530584133
 21
195.8026084049387
 31
0.0
  0
LINE
  5
D9E
330
D91
100
AcDbEntity
  8
1
  6
Continuous
 62
     7
370
     9
100
AcDbLine
 10
429.0719530584133
 20
195.8026084049387
 30
0.0
 11
429.0969530584133
 21
196.5176084049387
 31
0.0
  0
LINE
  5
D9F
330
D91
100
AcDbEntity
  8
1
  6
Continuous
 62
     7
370
     9
100
AcDbLine
 10
429.2909530584132
 20
196.9746084049386
 30
0.0
 11
429.0969530584133
 21
196.5176084049387
 31
0.0
  0
LINE
  5
DA0
330
D91
100
AcDbEntity
  8
1
  6
Continuous
 62
     7
370
     9
100
AcDbLine
 10
428.2349530584133
 20
196.9746084049386
 30
0.0
 11
428.4289530584133
 21
196.5176084049387
 31
0.0
  0
LINE
  5
DA1
330
D91
100
AcDbEntity
  8
1
  6
Continuous
 62
     7
370
     9
100
AcDbLine
 10
428.4539530584133
 20
195.8026084049387
 30
0.0
 11
428.4289530584133
 21
196.5176084049387
 31
0.0
  0
LINE
  5
DA2
330
D91
100
AcDbEntity
  8
1
  6
Continuous
 62
     7
370
     9
100
AcDbLine
 10
430.4629530584133
 20
197.8116084049386
 30
0.0
 11
430.4629530584133
 21
197.1936084049387
 31
0.0
  0
LINE
  5
DA3
330
D91
100
AcDbEntity
  8
1
  6
Continuous
 62
     7
370
     9
100
AcDbLine
 10
430.4629530584133
 20
197.8116084049386
 30
0.0
 11
429.7469530584133
 21
197.8366084049387
 31
0.0
  0
LINE
  5
DA4
330
D91
100
AcDbEntity
  8
1
  6
Continuous
 62
     7
370
     9
100
AcDbLine
 10
429.2909530584132
 20
198.0296084049387
 30
0.0
 11
429.7469530584133
 21
197.8366084049387
 31
0.0
  0
LINE
  5
DA5
330
D91
100
AcDbEntity
  8
1
  6
Continuous
 62
     7
370
     9
100
AcDbLine
 10
429.2909530584132
 20
196.9746084049386
 30
0.0
 11
429.7469530584133
 21
197.1686084049387
 31
0.0
  0
LINE
  5
DA6
330
D91
100
AcDbEntity
  8
1
  6
Continuous
 62
     7
370
     9
100
AcDbLine
 10
430.4629530584133
 20
197.1936084049387
 30
0.0
 11
429.7469530584133
 21
197.1686084049387
 31
0.0
  0
CIRCLE
  5
DA7
330
D91
100
AcDbEntity
  8
1
  6
Continuous
 62
     7
370
     9
100
AcDbCircle
 10
428.7629530584132
 20
197.5026084049387
 30
0.0
 40
2.75
  0
ENDBLK
  5
DA8
330
D91
100
AcDbEntity
  8
0
100
AcDbBlockEnd
  0
BLOCK
  5
DAA
330
DA9
100
AcDbEntity
  8
0
100
AcDbBlockBegin
  2
*G52514746
 70
     1
 10
0.0
 20
0.0
 30
0.0
  3
*G52514746
  1

  0
LINE
  5
DAB
330
DA9
100
AcDbEntity
  8
1
  6
Continuous
 62
     7
370
     9
100
AcDbLine
 10
484.0719530584133
 20
199.2026084049387
 30
0.0
 11
484.0969530584135
 21
198.4866084049387
 31
0.0
  0
LINE
  5
DAC
330
DA9
100
AcDbEntity
  8
1
  6
Continuous
 62
     7
370
     9
100
AcDbLine
 10
484.2909530584133
 20
198.0296084049387
 30
0.0
 11
484.0969530584135
 21
198.4866084049387
 31
0.0
  0
LINE
  5
DAD
330
DA9
100
AcDbEntity
  8
1
  6
Continuous
 62
     7
370
     9
100
AcDbLine
 10
483.2349530584133
 20
198.0296084049387
 30
0.0
 11
483.4289530584134
 21
198.4866084049387
 31
0.0
  0
LINE
  5
DAE
330
DA9
100
AcDbEntity
  8
1
  6
Continuous
 62
     7
370
     9
100
AcDbLine
 10
483.4539530584134
 20
199.2026084049387
 30
0.0
 11
483.4289530584134
 21
198.4866084049387
 31
0.0
  0
LINE
  5
DAF
330
DA9
100
AcDbEntity
  8
1
  6
Continuous
 62
     7
370
     9
100
AcDbLine
 10
483.4539530584134
 20
199.2026084049387
 30
0.0
 11
484.0719530584133
 21
199.2026084049387
 31
0.0
  0
LINE
  5
DB0
330
DA9
100
AcDbEntity
  8
1
  6
Continuous
 62
     7
370
     9
100
AcDbLine
 10
482.0629530584135
 20
197.1936084049387
 30
0.0
 11
482.0629530584135
 21
197.8116084049386
 31
0.0
  0
LINE
  5
DB1
330
DA9
100
AcDbEntity
  8
1
  6
Continuous
 62
     7
370
     9
100
AcDbLine
 10
482.0629530584135
 20
197.1936084049387
 30
0.0
 11
482.7789530584134
 21
197.1686084049387
 31
0.0
  0
LINE
  5
DB2
330
DA9
100
AcDbEntity
  8
1
  6
Continuous
 62
     7
370
     9
100
AcDbLine
 10
483.2349530584133
 20
196.9746084049386
 30
0.0
 11
482.7789530584134
 21
197.1686084049387
 31
0.0
  0
LINE
  5
DB3
330
DA9
100
AcDbEntity
  8
1
  6
Continuous
 62
     7
370
     9
100
AcDbLine
 10
483.2349530584133
 20
198.0296084049387
 30
0.0
 11
482.7789530584134
 21
197.8366084049387
 31
0.0
  0
LINE
  5
DB4
330
DA9
100
AcDbEntity
  8
1
  6
Continuous
 62
     7
370
     9
100
AcDbLine
 10
482.0629530584135
 20
197.8116084049386
 30
0.0
 11
482.7789530584134
 21
197.8366084049387
 31
0.0
  0
LINE
  5
DB5
330
DA9
100
AcDbEntity
  8
1
  6
Continuous
 62
     7
370
     9
100
AcDbLine
 10
484.0719530584133
 20
195.8026084049387
 30
0.0
 11
483.4539530584134
 21
195.8026084049387
 31
0.0
  0
LINE
  5
DB6
330
DA9
100
AcDbEntity
  8
1
  6
Continuous
 62
     7
370
     9
100
AcDbLine
 10
484.0719530584133
 20
195.8026084049387
 30
0.0
 11
484.0969530584135
 21
196.5176084049387
 31
0.0
  0
LINE
  5
DB7
330
DA9
100
AcDbEntity
  8
1
  6
Continuous
 62
     7
370
     9
100
AcDbLine
 10
484.2909530584133
 20
196.9746084049386
 30
0.0
 11
484.0969530584135
 21
196.5176084049387
 31
0.0
  0
LINE
  5
DB8
330
DA9
100
AcDbEntity
  8
1
  6
Continuous
 62
     7
370
     9
100
AcDbLine
 10
483.2349530584133
 20
196.9746084049386
 30
0.0
 11
483.4289530584134
 21
196.5176084049387
 31
0.0
  0
LINE
  5
DB9
330
DA9
100
AcDbEntity
  8
1
  6
Continuous
 62
     7
370
     9
100
AcDbLine
 10
483.4539530584134
 20
195.8026084049387
 30
0.0
 11
483.4289530584134
 21
196.5176084049387
 31
0.0
  0
LINE
  5
DBA
330
DA9
100
AcDbEntity
  8
1
  6
Continuous
 62
     7
370
     9
100
AcDbLine
 10
485.4629530584134
 20
197.8116084049386
 30
0.0
 11
485.4629530584134
 21
197.1936084049387
 31
0.0
  0
LINE
  5
DBB
330
DA9
100
AcDbEntity
  8
1
  6
Continuous
 62
     7
370
     9
100
AcDbLine
 10
485.4629530584134
 20
197.8116084049386
 30
0.0
 11
484.7469530584134
 21
197.8366084049387
 31
0.0
  0
LINE
  5
DBC
330
DA9
100
AcDbEntity
  8
1
  6
Continuous
 62
     7
370
     9
100
AcDbLine
 10
484.2909530584133
 20
198.0296084049387
 30
0.0
 11
484.7469530584134
 21
197.8366084049387
 31
0.0
  0
LINE
  5
DBD
330
DA9
100
AcDbEntity
  8
1
  6
Continuous
 62
     7
370
     9
100
AcDbLine
 10
484.2909530584133
 20
196.9746084049386
 30
0.0
 11
484.7469530584134
 21
197.1686084049387
 31
0.0
  0
LINE
  5
DBE
330
DA9
100
AcDbEntity
  8
1
  6
Continuous
 62
     7
370
     9
100
AcDbLine
 10
485.4629530584134
 20
197.1936084049387
 30
0.0
 11
484.7469530584134
 21
197.1686084049387
 31
0.0
  0
CIRCLE
  5
DBF
330
DA9
100
AcDbEntity
  8
1
  6
Continuous
 62
     7
370
     9
100
AcDbCircle
 10
483.7629530584134
 20
197.5026084049387
 30
0.0
 40
2.75
  0
ENDBLK
  5
DC0
330
DA9
100
AcDbEntity
  8
0
100
AcDbBlockEnd
  0
BLOCK
  5
DC2
330
DC1
100
AcDbEntity
  8
0
100
AcDbBlockBegin
  2
*D47
 70
     1
 10
0.0
 20
0.0
 30
0.0
  3
*D47
  1

  0
LINE
  5
DC3
330
DC1
100
AcDbEntity
  8
SCALE
 62
     0
 48
0.5
370
    -2
100
AcDbLine
 10
-95.51819425086568
 20
-74.61079350934075
 30
0.0
 11
-82.58898514139351
 21
-74.61079350934075
 31
0.0
  0
LINE
  5
DC4
330
DC1
100
AcDbEntity
  8
SCALE
 62
     0
 48
0.5
370
    -2
100
AcDbLine
 10
-88.76819425086569
 20
-121.6107935093407
 30
0.0
 11
-82.58898514139355
 21
-121.6107935093407
 31
0.0
  0
LINE
  5
DC5
330
DC1
100
AcDbEntity
  8
SCALE
 62
     0
 48
0.5
370
    -2
100
AcDbLine
 10
-83.83898514139351
 20
-77.11079350934075
 30
0.0
 11
-83.83898514139355
 21
-119.1107935093407
 31
0.0
  0
INSERT
  5
DC6
330
DC1
100
AcDbEntity
  8
SCALE
 62
     0
 48
0.5
370
    -2
100
AcDbBlockReference
  2
_OPEN30
 10
-83.83898514139351
 20
-74.61079350934075
 30
0.0
 41
2.5
 42
2.5
 43
2.5
 50
90.0
  0
INSERT
  5
DC7
330
DC1
100
AcDbEntity
  8
SCALE
 62
     0
 48
0.5
370
    -2
100
AcDbBlockReference
  2
_OPEN30
 10
-83.83898514139355
 20
-121.6107935093407
 30
0.0
 41
2.5
 42
2.5
 43
2.5
 50
270.0
  0
MTEXT
  5
DC8
330
DC1
100
AcDbEntity
  8
SCALE
 62
     0
 48
0.5
100
AcDbMText
 10
-87.4639851413935
 20
-98.11079350934077
 30
0.0
 40
6.0
 41
0.0
 71
     5
 72
     1
  1
\A1;47
  7
Standard
 11
0.0000000000000001
 21
1.0
 31
0.0
 73
     1
 44
1.0
  0
POINT
  5
DC9
330
DC1
100
AcDbEntity
  8
DEFPOINTS
 62
     0
 48
0.5
100
AcDbPoint
 10
-96.1431942508657
 20
-74.61079350934074
 30
0.0
  0
POINT
  5
DCA
330
DC1
100
AcDbEntity
  8
DEFPOINTS
 62
     0
 48
0.5
100
AcDbPoint
 10
-89.39319425086569
 20
-121.6107935093407
 30
0.0
  0
POINT
  5
DCB
330
DC1
100
AcDbEntity
  8
DEFPOINTS
 62
     0
 48
0.5
100
AcDbPoint
 10
-83.83898514139355
 20
-121.6107935093407
 30
0.0
  0
ENDBLK
  5
DCC
330
DC1
100
AcDbEntity
  8
0
100
AcDbBlockEnd
  0
BLOCK
  5
DCE
330
DCD
100
AcDbEntity
  8
0
100
AcDbBlockBegin
  2
*D48
 70
     1
 10
0.0
 20
0.0
 30
0.0
  3
*D48
  1

  0
LINE
  5
DCF
330
DCD
100
AcDbEntity
  8
SCALE
 62
     0
 48
0.5
370
    -2
100
AcDbLine
 10
-84.46398514139355
 20
-121.6107935093407
 30
0.0
 11
-85.08898514139355
 21
-121.6107935093407
 31
0.0
  0
LINE
  5
DD0
330
DCD
100
AcDbEntity
  8
SCALE
 62
     0
 48
0.5
370
    -2
100
AcDbLine
 10
-95.51819425086568
 20
-148.6107935093406
 30
0.0
 11
-82.58898514139355
 21
-148.6107935093406
 31
0.0
  0
LINE
  5
DD1
330
DCD
100
AcDbEntity
  8
SCALE
 62
     0
 48
0.5
370
    -2
100
AcDbLine
 10
-83.83898514139355
 20
-124.1107935093407
 30
0.0
 11
-83.83898514139355
 21
-146.1107935093407
 31
0.0
  0
INSERT
  5
DD2
330
DCD
100
AcDbEntity
  8
SCALE
 62
     0
 48
0.5
370
    -2
100
AcDbBlockReference
  2
_OPEN30
 10
-83.83898514139355
 20
-121.6107935093407
 30
0.0
 41
2.5
 42
2.5
 43
2.5
 50
90.0
  0
INSERT
  5
DD3
330
DCD
100
AcDbEntity
  8
SCALE
 62
     0
 48
0.5
370
    -2
100
AcDbBlockReference
  2
_OPEN30
 10
-83.83898514139355
 20
-148.6107935093406
 30
0.0
 41
2.5
 42
2.5
 43
2.5
 50
270.0
  0
MTEXT
  5
DD4
330
DCD
100
AcDbEntity
  8
SCALE
 62
     0
 48
0.5
100
AcDbMText
 10
-87.46398514139356
 20
-135.1107935093407
 30
0.0
 40
6.0
 41
0.0
 71
     5
 72
     1
  1
\A1;27
  7
Standard
 11
0.0000000000000001
 21
1.0
 31
0.0
 73
     1
 44
1.0
  0
POINT
  5
DD5
330
DCD
100
AcDbEntity
  8
DEFPOINTS
 62
     0
 48
0.5
100
AcDbPoint
 10
-83.83898514139355
 20
-121.6107935093407
 30
0.0
  0
POINT
  5
DD6
330
DCD
100
AcDbEntity
  8
DEFPOINTS
 62
     0
 48
0.5
100
AcDbPoint
 10
-96.1431942508657
 20
-148.6107935093406
 30
0.0
  0
POINT
  5
DD7
330
DCD
100
AcDbEntity
  8
DEFPOINTS
 62
     0
 48
0.5
100
AcDbPoint
 10
-83.83898514139355
 20
-148.6107935093406
 30
0.0
  0
ENDBLK
  5
DD8
330
DCD
100
AcDbEntity
  8
0
100
AcDbBlockEnd
  0
BLOCK
  5
DDA
330
DD9
100
AcDbEntity
  8
0
100
AcDbBlockBegin
  2
*D49
 70
     1
 10
0.0
 20
0.0
 30
0.0
  3
*D49
  1

  0
LINE
  5
DDB
330
DD9
100
AcDbEntity
  8
SCALE
 62
     0
 48
0.5
370
    -2
100
AcDbLine
 10
-174.3931942508656
 20
-153.4857935093407
 30
0.0
 11
-174.3931942508656
 21
-178.030967419749
 31
0.0
  0
LINE
  5
DDC
330
DD9
100
AcDbEntity
  8
SCALE
 62
     0
 48
0.5
370
    -2
100
AcDbLine
 10
-100.3931942508657
 20
-153.4857935093407
 30
0.0
 11
-100.3931942508657
 21
-178.030967419749
 31
0.0
  0
LINE
  5
DDD
330
DD9
100
AcDbEntity
  8
SCALE
 62
     0
 48
0.5
370
    -2
100
AcDbLine
 10
-171.8931942508656
 20
-176.780967419749
 30
0.0
 11
-102.8931942508657
 21
-176.780967419749
 31
0.0
  0
INSERT
  5
DDE
330
DD9
100
AcDbEntity
  8
SCALE
 62
     0
 48
0.5
370
    -2
100
AcDbBlockReference
  2
_OPEN30
 10
-174.3931942508656
 20
-176.780967419749
 30
0.0
 41
2.5
 42
2.5
 43
2.5
 50
180.0
  0
INSERT
  5
DDF
330
DD9
100
AcDbEntity
  8
SCALE
 62
     0
 48
0.5
370
    -2
100
AcDbBlockReference
  2
_OPEN30
 10
-100.3931942508657
 20
-176.780967419749
 30
0.0
 41
2.5
 42
2.5
 43
2.5
  0
MTEXT
  5
DE0
330
DD9
100
AcDbEntity
  8
SCALE
 62
     0
 48
0.5
100
AcDbMText
 10
-137.3931942508657
 20
-173.155967419749
 30
0.0
 40
6.0
 41
0.0
 71
     5
 72
     1
  1
\A1;74
  7
Standard
 73
     1
 44
1.0
  0
POINT
  5
DE1
330
DD9
100
AcDbEntity
  8
DEFPOINTS
 62
     0
 48
0.5
100
AcDbPoint
 10
-174.3931942508656
 20
-152.8607935093407
 30
0.0
  0
POINT
  5
DE2
330
DD9
100
AcDbEntity
  8
DEFPOINTS
 62
     0
 48
0.5
100
AcDbPoint
 10
-100.3931942508657
 20
-152.8607935093407
 30
0.0
  0
POINT
  5
DE3
330
DD9
100
AcDbEntity
  8
DEFPOINTS
 62
     0
 48
0.5
100
AcDbPoint
 10
-100.3931942508657
 20
-176.780967419749
 30
0.0
  0
ENDBLK
  5
DE4
330
DD9
100
AcDbEntity
  8
0
100
AcDbBlockEnd
  0
BLOCK
  5
DE6
330
DE5
100
AcDbEntity
  8
0
100
AcDbBlockBegin
  2
*D50
 70
     1
 10
0.0
 20
0.0
 30
0.0
  3
*D50
  1

  0
LINE
  5
DE7
330
DE5
100
AcDbEntity
  8
SCALE
 62
     0
 48
0.5
370
    -2
100
AcDbLine
 10
-110.9393431133335
 20
-145.2844869261537
 30
0.0
 11
-163.8470453883982
 21
-97.93710009252741
 31
0.0
  0
INSERT
  5
DE8
330
DE5
100
AcDbEntity
  8
SCALE
 62
     0
 48
0.5
370
    -2
100
AcDbBlockReference
  2
_OPEN30
 10
-109.076395850127
 20
-146.95164843438
 30
0.0
 41
2.5
 42
2.5
 43
2.5
 50
318.174467838114
  0
INSERT
  5
DE9
330
DE5
100
AcDbEntity
  8
SCALE
 62
     0
 48
0.5
370
    -2
100
AcDbBlockReference
  2
_OPEN30
 10
-165.7099926516047
 20
-96.26993858430113
 30
0.0
 41
2.5
 42
2.5
 43
2.5
 50
138.174467838114
  0
MTEXT
  5
DEA
330
DE5
100
AcDbEntity
  8
SCALE
 62
     0
 48
0.5
100
AcDbMText
 10
-151.282113172127
 20
-105.6588813949566
 30
0.0
 40
4.0
 41
0.0
 71
     5
 72
     1
  1
\A1;\U+220576
  7
Standard
 11
0.7451789052826059
 21
-0.6668646032905158
 31
0.0
 73
     1
 44
1.0
  0
POINT
  5
DEB
330
DE5
100
AcDbEntity
  8
DEFPOINTS
 62
     0
 48
0.5
100
AcDbPoint
 10
-165.7099926516047
 20
-96.26993858430113
 30
0.0
  0
POINT
  5
DEC
330
DE5
100
AcDbEntity
  8
DEFPOINTS
 62
     0
 48
0.5
100
AcDbPoint
 10
-109.076395850127
 20
-146.95164843438
 30
0.0
  0
ENDBLK
  5
DED
330
DE5
100
AcDbEntity
  8
0
100
AcDbBlockEnd
  0
BLOCK
  5
DEF
330
DEE
100
AcDbEntity
  8
0
100
AcDbBlockBegin
  2
*D51
 70
     1
 10
0.0
 20
0.0
 30
0.0
  3
*D51
  1

  0
LINE
  5
DF0
330
DEE
100
AcDbEntity
  8
SCALE
 62
     0
 48
0.5
370
    -2
100
AcDbLine
 10
-193.254101925449
 20
14.39658260471128
 30
0.0
 11
-201.0991580849363
 21
14.39658260471128
 31
0.0
  0
LINE
  5
DF1
330
DEE
100
AcDbEntity
  8
SCALE
 62
     0
 48
0.5
370
    -2
100
AcDbLine
 10
-162.0338307183669
 20
-9.603417395288602
 30
0.0
 11
-201.0991580849363
 21
-9.603417395288591
 31
0.0
  0
LINE
  5
DF2
330
DEE
100
AcDbEntity
  8
SCALE
 62
     0
 48
0.5
370
    -2
100
AcDbLine
 10
-199.8491580849363
 20
11.89658260471128
 30
0.0
 11
-199.8491580849363
 21
-7.103417395288591
 31
0.0
  0
INSERT
  5
DF3
330
DEE
100
AcDbEntity
  8
SCALE
 62
     0
 48
0.5
370
    -2
100
AcDbBlockReference
  2
_OPEN30
 10
-199.8491580849363
 20
14.39658260471128
 30
0.0
 41
2.5
 42
2.5
 43
2.5
 50
90.0
  0
INSERT
  5
DF4
330
DEE
100
AcDbEntity
  8
SCALE
 62
     0
 48
0.5
370
    -2
100
AcDbBlockReference
  2
_OPEN30
 10
-199.8491580849363
 20
-9.603417395288591
 30
0.0
 41
2.5
 42
2.5
 43
2.5
 50
270.0
  0
MTEXT
  5
DF5
330
DEE
100
AcDbEntity
  8
SCALE
 62
     0
 48
0.5
100
AcDbMText
 10
-203.4741580849363
 20
2.396582604711315
 30
0.0
 40
6.0
 41
0.0
 71
     5
 72
     1
  1
\A1;24
  7
Standard
 11
0.0000000000000001
 21
1.0
 31
0.0
 73
     1
 44
1.0
  0
POINT
  5
DF6
330
DEE
100
AcDbEntity
  8
DEFPOINTS
 62
     0
 48
0.5
100
AcDbPoint
 10
-192.629101925449
 20
14.39658260471128
 30
0.0
  0
POINT
  5
DF7
330
DEE
100
AcDbEntity
  8
DEFPOINTS
 62
     0
 48
0.5
100
AcDbPoint
 10
-161.408830718367
 20
-9.603417395288602
 30
0.0
  0
POINT
  5
DF8
330
DEE
100
AcDbEntity
  8
DEFPOINTS
 62
     0
 48
0.5
100
AcDbPoint
 10
-199.8491580849363
 20
-9.603417395288591
 30
0.0
  0
ENDBLK
  5
DF9
330
DEE
100
AcDbEntity
  8
0
100
AcDbBlockEnd
  0
BLOCK
  5
DFB
330
DFA
100
AcDbEntity
  8
0
100
AcDbBlockBegin
  2
*D52
 70
     1
 10
0.0
 20
0.0
 30
0.0
  3
*D52
  1

  0
LINE
  5
DFC
330
DFA
100
AcDbEntity
  8
SCALE
 62
     0
 48
0.5
370
    -2
100
AcDbLine
 10
-200.4741580849363
 20
-9.603417395288488
 30
0.0
 11
-201.0991580849363
 21
-9.603417395288488
 31
0.0
  0
LINE
  5
DFD
330
DFA
100
AcDbEntity
  8
SCALE
 62
     0
 48
0.5
370
    -2
100
AcDbLine
 10
-138.0338307183669
 20
-22.6034173952886
 30
0.0
 11
-201.0991580849363
 21
-22.60341739528858
 31
0.0
  0
LINE
  5
DFE
330
DFA
100
AcDbEntity
  8
SCALE
 62
     0
 48
0.5
370
    -2
100
AcDbLine
 10
-199.8491580849363
 20
-12.10341739528849
 30
0.0
 11
-199.8491580849363
 21
-20.10341739528859
 31
0.0
  0
INSERT
  5
DFF
330
DFA
100
AcDbEntity
  8
SCALE
 62
     0
 48
0.5
370
    -2
100
AcDbBlockReference
  2
_OPEN30
 10
-199.8491580849363
 20
-9.603417395288488
 30
0.0
 41
2.5
 42
2.5
 43
2.5
 50
90.0
  0
INSERT
  5
E00
330
DFA
100
AcDbEntity
  8
SCALE
 62
     0
 48
0.5
370
    -2
100
AcDbBlockReference
  2
_OPEN30
 10
-199.8491580849363
 20
-22.60341739528859
 30
0.0
 41
2.5
 42
2.5
 43
2.5
 50
270.0
  0
MTEXT
  5
E01
330
DFA
100
AcDbEntity
  8
SCALE
 62
     0
 48
0.5
100
AcDbMText
 10
-203.4741580849363
 20
-16.10341739528857
 30
0.0
 40
6.0
 41
0.0
 71
     5
 72
     1
  1
\A1;13
  7
Standard
 11
0.0000000000000001
 21
1.0
 31
0.0
 73
     1
 44
1.0
  0
POINT
  5
E02
330
DFA
100
AcDbEntity
  8
DEFPOINTS
 62
     0
 48
0.5
100
AcDbPoint
 10
-199.8491580849363
 20
-9.603417395288488
 30
0.0
  0
POINT
  5
E03
330
DFA
100
AcDbEntity
  8
DEFPOINTS
 62
     0
 48
0.5
100
AcDbPoint
 10
-137.408830718367
 20
-22.6034173952886
 30
0.0
  0
POINT
  5
E04
330
DFA
100
AcDbEntity
  8
DEFPOINTS
 62
     0
 48
0.5
100
AcDbPoint
 10
-199.8491580849363
 20
-22.60341739528859
 30
0.0
  0
ENDBLK
  5
E05
330
DFA
100
AcDbEntity
  8
0
100
AcDbBlockEnd
  0
BLOCK
  5
E07
330
E06
100
AcDbEntity
  8
0
100
AcDbBlockBegin
  2
*D53
 70
     1
 10
0.0
 20
0.0
 30
0.0
  3
*D53
  1

  0
LINE
  5
E08
330
E06
100
AcDbEntity
  8
SCALE
 62
     0
 48
0.5
370
    -2
100
AcDbLine
 10
-161.408830718367
 20
-10.2284173952886
 30
0.0
 11
-161.408830718367
 21
-47.02582985732738
 31
0.0
  0
LINE
  5
E09
330
E06
100
AcDbEntity
  8
SCALE
 62
     0
 48
0.5
370
    -2
100
AcDbLine
 10
-113.408830718367
 20
-10.2284173952886
 30
0.0
 11
-113.408830718367
 21
-47.02582985732738
 31
0.0
  0
LINE
  5
E0A
330
E06
100
AcDbEntity
  8
SCALE
 62
     0
 48
0.5
370
    -2
100
AcDbLine
 10
-158.9088307183669
 20
-45.77582985732738
 30
0.0
 11
-115.9088307183669
 21
-45.77582985732738
 31
0.0
  0
INSERT
  5
E0B
330
E06
100
AcDbEntity
  8
SCALE
 62
     0
 48
0.5
370
    -2
100
AcDbBlockReference
  2
_OPEN30
 10
-161.408830718367
 20
-45.77582985732738
 30
0.0
 41
2.5
 42
2.5
 43
2.5
 50
180.0
  0
INSERT
  5
E0C
330
E06
100
AcDbEntity
  8
SCALE
 62
     0
 48
0.5
370
    -2
100
AcDbBlockReference
  2
_OPEN30
 10
-113.408830718367
 20
-45.77582985732738
 30
0.0
 41
2.5
 42
2.5
 43
2.5
  0
MTEXT
  5
E0D
330
E06
100
AcDbEntity
  8
SCALE
 62
     0
 48
0.5
100
AcDbMText
 10
-137.408830718367
 20
-42.15082985732736
 30
0.0
 40
6.0
 41
0.0
 71
     5
 72
     1
  1
\A1;48
  7
Standard
 73
     1
 44
1.0
  0
POINT
  5
E0E
330
E06
100
AcDbEntity
  8
DEFPOINTS
 62
     0
 48
0.5
100
AcDbPoint
 10
-161.408830718367
 20
-9.603417395288602
 30
0.0
  0
POINT
  5
E0F
330
E06
100
AcDbEntity
  8
DEFPOINTS
 62
     0
 48
0.5
100
AcDbPoint
 10
-113.408830718367
 20
-9.603417395288602
 30
0.0
  0
POINT
  5
E10
330
E06
100
AcDbEntity
  8
DEFPOINTS
 62
     0
 48
0.5
100
AcDbPoint
 10
-113.408830718367
 20
-45.77582985732738
 30
0.0
  0
ENDBLK
  5
E11
330
E06
100
AcDbEntity
  8
0
100
AcDbBlockEnd
  0
BLOCK
  5
E13
330
E12
100
AcDbEntity
  8
0
100
AcDbBlockBegin
  2
*D54
 70
     1
 10
0.0
 20
0.0
 30
0.0
  3
*D54
  1

  0
LINE
  5
E14
330
E12
100
AcDbEntity
  8
SCALE
 62
     0
 48
0.5
370
    -2
100
AcDbLine
 10
-87.40883071836693
 20
-32.2284173952886
 30
0.0
 11
-87.40883071836693
 21
-60.63507347311247
 31
0.0
  0
LINE
  5
E15
330
E12
100
AcDbEntity
  8
SCALE
 62
     0
 48
0.5
370
    -2
100
AcDbLine
 10
-187.408830718367
 20
-32.2284173952886
 30
0.0
 11
-187.408830718367
 21
-60.63507347311247
 31
0.0
  0
LINE
  5
E16
330
E12
100
AcDbEntity
  8
SCALE
 62
     0
 48
0.5
370
    -2
100
AcDbLine
 10
-89.90883071836693
 20
-59.38507347311247
 30
0.0
 11
-184.9088307183668
 21
-59.38507347311247
 31
0.0
  0
INSERT
  5
E17
330
E12
100
AcDbEntity
  8
SCALE
 62
     0
 48
0.5
370
    -2
100
AcDbBlockReference
  2
_OPEN30
 10
-87.40883071836693
 20
-59.38507347311247
 30
0.0
 41
2.5
 42
2.5
 43
2.5
  0
INSERT
  5
E18
330
E12
100
AcDbEntity
  8
SCALE
 62
     0
 48
0.5
370
    -2
100
AcDbBlockReference
  2
_OPEN30
 10
-187.408830718367
 20
-59.38507347311247
 30
0.0
 41
2.5
 42
2.5
 43
2.5
 50
180.0
  0
MTEXT
  5
E19
330
E12
100
AcDbEntity
  8
SCALE
 62
     0
 48
0.5
100
AcDbMText
 10
-137.408830718367
 20
-55.76007347311247
 30
0.0
 40
6.0
 41
0.0
 71
     5
 72
     1
  1
\A1;100
  7
Standard
 73
     1
 44
1.0
  0
POINT
  5
E1A
330
E12
100
AcDbEntity
  8
DEFPOINTS
 62
     0
 48
0.5
100
AcDbPoint
 10
-87.40883071836693
 20
-31.6034173952886
 30
0.0
  0
POINT
  5
E1B
330
E12
100
AcDbEntity
  8
DEFPOINTS
 62
     0
 48
0.5
100
AcDbPoint
 10
-187.408830718367
 20
-31.6034173952886
 30
0.0
  0
POINT
  5
E1C
330
E12
100
AcDbEntity
  8
DEFPOINTS
 62
     0
 48
0.5
100
AcDbPoint
 10
-187.408830718367
 20
-59.38507347311247
 30
0.0
  0
ENDBLK
  5
E1D
330
E12
100
AcDbEntity
  8
0
100
AcDbBlockEnd
  0
BLOCK
  5
E1F
330
E1E
100
AcDbEntity
  8
0
100
AcDbBlockBegin
  2
*D55
 70
     1
 10
0.0
 20
0.0
 30
0.0
  3
*D55
  1

  0
LINE
  5
E20
330
E1E
100
AcDbEntity
  8
SCALE
 62
     0
 48
0.5
370
    -2
100
AcDbLine
 10
-184.0338306485537
 20
-35.60341739528861
 30
0.0
 11
-212.6481826345276
 21
-35.60341739528861
 31
0.0
  0
LINE
  5
E21
330
E1E
100
AcDbEntity
  8
SCALE
 62
     0
 48
0.5
370
    -2
100
AcDbLine
 10
-184.0338307183669
 20
64.39656760471132
 30
0.0
 11
-212.6481826345275
 21
64.39656760471132
 31
0.0
  0
LINE
  5
E22
330
E1E
100
AcDbEntity
  8
SCALE
 62
     0
 48
0.5
370
    -2
100
AcDbLine
 10
-211.3981826345276
 20
-33.10341739528861
 30
0.0
 11
-211.3981826345276
 21
61.89656760471133
 31
0.0
  0
INSERT
  5
E23
330
E1E
100
AcDbEntity
  8
SCALE
 62
     0
 48
0.5
370
    -2
100
AcDbBlockReference
  2
_OPEN30
 10
-211.3981826345276
 20
-35.60341739528861
 30
0.0
 41
2.5
 42
2.5
 43
2.5
 50
270.0
  0
INSERT
  5
E24
330
E1E
100
AcDbEntity
  8
SCALE
 62
     0
 48
0.5
370
    -2
100
AcDbBlockReference
  2
_OPEN30
 10
-211.3981826345275
 20
64.39656760471132
 30
0.0
 41
2.5
 42
2.5
 43
2.5
 50
90.0
  0
MTEXT
  5
E25
330
E1E
100
AcDbEntity
  8
SCALE
 62
     0
 48
0.5
100
AcDbMText
 10
-215.0231826345275
 20
14.39657510471133
 30
0.0
 40
6.0
 41
0.0
 71
     5
 72
     1
  1
\A1;100
  7
Standard
 11
0.0000000000000001
 21
1.0
 31
0.0
 73
     1
 44
1.0
  0
POINT
  5
E26
330
E1E
100
AcDbEntity
  8
DEFPOINTS
 62
     0
 48
0.5
100
AcDbPoint
 10
-183.4088306485537
 20
-35.60341739528861
 30
0.0
  0
POINT
  5
E27
330
E1E
100
AcDbEntity
  8
DEFPOINTS
 62
     0
 48
0.5
100
AcDbPoint
 10
-183.4088307183669
 20
64.39656760471132
 30
0.0
  0
POINT
  5
E28
330
E1E
100
AcDbEntity
  8
DEFPOINTS
 62
     0
 48
0.5
100
AcDbPoint
 10
-211.3981826345275
 20
64.39656760471132
 30
0.0
  0
ENDBLK
  5
E29
330
E1E
100
AcDbEntity
  8
0
100
AcDbBlockEnd
  0
BLOCK
  5
E2B
330
E2A
100
AcDbEntity
  8
0
100
AcDbBlockBegin
  2
*D56
 70
     1
 10
0.0
 20
0.0
 30
0.0
  3
*D56
  1

  0
LINE
  5
E2C
330
E2A
100
AcDbEntity
  8
SCALE
 62
     0
 48
0.5
370
    -2
100
AcDbLine
 10
-37.40883071836697
 20
-12.89846139528856
 30
0.0
 11
-37.40883071836697
 21
-49.76942219149646
 31
0.0
  0
LINE
  5
E2D
330
E2A
100
AcDbEntity
  8
SCALE
 62
     0
 48
0.5
370
    -2
100
AcDbLine
 10
-29.40883071836697
 20
-33.38814639528858
 30
0.0
 11
-29.40883071836697
 21
-49.76942219149646
 31
0.0
  0
LINE
  5
E2E
330
E2A
100
AcDbEntity
  8
SCALE
 62
     0
 48
0.5
370
    -2
100
AcDbLine
 10
-34.90883071836697
 20
-48.51942219149646
 30
0.0
 11
-31.90883071836697
 21
-48.51942219149646
 31
0.0
  0
INSERT
  5
E2F
330
E2A
100
AcDbEntity
  8
SCALE
 62
     0
 48
0.5
370
    -2
100
AcDbBlockReference
  2
_OPEN30
 10
-37.40883071836697
 20
-48.51942219149646
 30
0.0
 41
2.5
 42
2.5
 43
2.5
 50
180.0
  0
INSERT
  5
E30
330
E2A
100
AcDbEntity
  8
SCALE
 62
     0
 48
0.5
370
    -2
100
AcDbBlockReference
  2
_OPEN30
 10
-29.40883071836697
 20
-48.51942219149646
 30
0.0
 41
2.5
 42
2.5
 43
2.5
  0
MTEXT
  5
E31
330
E2A
100
AcDbEntity
  8
SCALE
 62
     0
 48
0.5
100
AcDbMText
 10
-33.40883071836697
 20
-44.89442219149646
 30
0.0
 40
6.0
 41
0.0
 71
     5
 72
     1
  1
\A1;8
  7
Standard
 73
     1
 44
1.0
  0
POINT
  5
E32
330
E2A
100
AcDbEntity
  8
DEFPOINTS
 62
     0
 48
0.5
100
AcDbPoint
 10
-37.40883071836697
 20
-12.27346139528856
 30
0.0
  0
POINT
  5
E33
330
E2A
100
AcDbEntity
  8
DEFPOINTS
 62
     0
 48
0.5
100
AcDbPoint
 10
-29.40883071836697
 20
-32.76314639528858
 30
0.0
  0
POINT
  5
E34
330
E2A
100
AcDbEntity
  8
DEFPOINTS
 62
     0
 48
0.5
100
AcDbPoint
 10
-29.40883071836697
 20
-48.51942219149646
 30
0.0
  0
ENDBLK
  5
E35
330
E2A
100
AcDbEntity
  8
0
100
AcDbBlockEnd
  0
BLOCK
  5
E37
330
E36
100
AcDbEntity
  8
0
100
AcDbBlockBegin
  2
*D57
 70
     1
 10
0.0
 20
0.0
 30
0.0
  3
*D57
  1

  0
LINE
  5
E38
330
E36
100
AcDbEntity
  8
SCALE
 62
     0
 48
0.5
370
    -2
100
AcDbLine
 10
-29.40883071836697
 20
-47.89442219149646
 30
0.0
 11
-29.40883071836697
 21
-47.26942219149646
 31
0.0
  0
LINE
  5
E39
330
E36
100
AcDbEntity
  8
SCALE
 62
     0
 48
0.5
370
    -2
100
AcDbLine
 10
-17.40883071836697
 20
-36.22841739528861
 30
0.0
 11
-17.40883071836697
 21
-49.76942219149646
 31
0.0
  0
LINE
  5
E3A
330
E36
100
AcDbEntity
  8
SCALE
 62
     0
 48
0.5
370
    -2
100
AcDbLine
 10
-26.90883071836697
 20
-48.51942219149646
 30
0.0
 11
-19.90883071836696
 21
-48.51942219149646
 31
0.0
  0
INSERT
  5
E3B
330
E36
100
AcDbEntity
  8
SCALE
 62
     0
 48
0.5
370
    -2
100
AcDbBlockReference
  2
_OPEN30
 10
-29.40883071836697
 20
-48.51942219149646
 30
0.0
 41
2.5
 42
2.5
 43
2.5
 50
180.0
  0
INSERT
  5
E3C
330
E36
100
AcDbEntity
  8
SCALE
 62
     0
 48
0.5
370
    -2
100
AcDbBlockReference
  2
_OPEN30
 10
-17.40883071836697
 20
-48.51942219149646
 30
0.0
 41
2.5
 42
2.5
 43
2.5
  0
MTEXT
  5
E3D
330
E36
100
AcDbEntity
  8
SCALE
 62
     0
 48
0.5
100
AcDbMText
 10
-23.40883071836697
 20
-44.89442219149646
 30
0.0
 40
6.0
 41
0.0
 71
     5
 72
     1
  1
\A1;12
  7
Standard
 73
     1
 44
1.0
  0
POINT
  5
E3E
330
E36
100
AcDbEntity
  8
DEFPOINTS
 62
     0
 48
0.5
100
AcDbPoint
 10
-29.40883071836697
 20
-48.51942219149646
 30
0.0
  0
POINT
  5
E3F
330
E36
100
AcDbEntity
  8
DEFPOINTS
 62
     0
 48
0.5
100
AcDbPoint
 10
-17.40883071836697
 20
-35.60341739528861
 30
0.0
  0
POINT
  5
E40
330
E36
100
AcDbEntity
  8
DEFPOINTS
 62
     0
 48
0.5
100
AcDbPoint
 10
-17.40883071836697
 20
-48.51942219149646
 30
0.0
  0
ENDBLK
  5
E41
330
E36
100
AcDbEntity
  8
0
100
AcDbBlockEnd
  0
BLOCK
  5
E43
330
E42
100
AcDbEntity
  8
0
100
AcDbBlockBegin
  2
*D58
 70
     1
 10
0.0
 20
0.0
 30
0.0
  3
*D58
  1

  0
LINE
  5
E44
330
E42
100
AcDbEntity
  8
SCALE
 62
     0
 48
0.5
370
    -2
100
AcDbLine
 10
-17.40883071836697
 20
-47.89442219149646
 30
0.0
 11
-17.40883071836697
 21
-47.26942219149646
 31
0.0
  0
LINE
  5
E45
330
E42
100
AcDbEntity
  8
SCALE
 62
     0
 48
0.5
370
    -2
100
AcDbLine
 10
66.59115328163307
 20
-29.2284173952886
 30
0.0
 11
66.59115328163307
 21
-49.76942219149646
 31
0.0
  0
LINE
  5
E46
330
E42
100
AcDbEntity
  8
SCALE
 62
     0
 48
0.5
370
    -2
100
AcDbLine
 10
-14.90883071836697
 20
-48.51942219149646
 30
0.0
 11
64.09115328163307
 21
-48.51942219149646
 31
0.0
  0
INSERT
  5
E47
330
E42
100
AcDbEntity
  8
SCALE
 62
     0
 48
0.5
370
    -2
100
AcDbBlockReference
  2
_OPEN30
 10
-17.40883071836697
 20
-48.51942219149646
 30
0.0
 41
2.5
 42
2.5
 43
2.5
 50
180.0
  0
INSERT
  5
E48
330
E42
100
AcDbEntity
  8
SCALE
 62
     0
 48
0.5
370
    -2
100
AcDbBlockReference
  2
_OPEN30
 10
66.59115328163307
 20
-48.51942219149646
 30
0.0
 41
2.5
 42
2.5
 43
2.5
  0
MTEXT
  5
E49
330
E42
100
AcDbEntity
  8
SCALE
 62
     0
 48
0.5
100
AcDbMText
 10
24.59116128163306
 20
-44.89442219149646
 30
0.0
 40
6.0
 41
0.0
 71
     5
 72
     1
  1
\A1;84
  7
Standard
 73
     1
 44
1.0
  0
POINT
  5
E4A
330
E42
100
AcDbEntity
  8
DEFPOINTS
 62
     0
 48
0.5
100
AcDbPoint
 10
-17.40883071836697
 20
-48.51942219149646
 30
0.0
  0
POINT
  5
E4B
330
E42
100
AcDbEntity
  8
DEFPOINTS
 62
     0
 48
0.5
100
AcDbPoint
 10
66.59115328163307
 20
-28.6034173952886
 30
0.0
  0
POINT
  5
E4C
330
E42
100
AcDbEntity
  8
DEFPOINTS
 62
     0
 48
0.5
100
AcDbPoint
 10
66.59115328163307
 20
-48.51942219149646
 30
0.0
  0
ENDBLK
  5
E4D
330
E42
100
AcDbEntity
  8
0
100
AcDbBlockEnd
  0
BLOCK
  5
E4F
330
E4E
100
AcDbEntity
  8
0
100
AcDbBlockBegin
  2
*D59
 70
     1
 10
0.0
 20
0.0
 30
0.0
  3
*D59
  1

  0
LINE
  5
E50
330
E4E
100
AcDbEntity
  8
SCALE
 62
     0
 48
0.5
370
    -2
100
AcDbLine
 10
66.59115328163307
 20
-47.89442219149646
 30
0.0
 11
66.59115328163307
 21
-47.26942219149646
 31
0.0
  0
LINE
  5
E51
330
E4E
100
AcDbEntity
  8
SCALE
 62
     0
 48
0.5
370
    -2
100
AcDbLine
 10
73.29215328163309
 20
1.771582604711396
 30
0.0
 11
73.29215328163309
 21
-49.76942219149646
 31
0.0
  0
LINE
  5
E52
330
E4E
100
AcDbEntity
  8
SCALE
 62
     0
 48
0.5
370
    -2
100
AcDbLine
 10
69.09115328163307
 20
-48.51942219149646
 30
0.0
 11
70.79215328163309
 21
-48.51942219149646
 31
0.0
  0
LINE
  5
E53
330
E4E
100
AcDbEntity
  8
SCALE
 62
     0
 48
0.5
370
    -2
100
AcDbLine
 10
73.29215328163309
 20
-48.51942219149646
 30
0.0
 11
89.32786756734737
 21
-48.51942219149646
 31
0.0
  0
INSERT
  5
E54
330
E4E
100
AcDbEntity
  8
SCALE
 62
     0
 48
0.5
370
    -2
100
AcDbBlockReference
  2
_OPEN30
 10
66.59115328163307
 20
-48.51942219149646
 30
0.0
 41
2.5
 42
2.5
 43
2.5
 50
180.0
  0
INSERT
  5
E55
330
E4E
100
AcDbEntity
  8
SCALE
 62
     0
 48
0.5
370
    -2
100
AcDbBlockReference
  2
_OPEN30
 10
73.29215328163309
 20
-48.51942219149646
 30
0.0
 41
2.5
 42
2.5
 43
2.5
  0
MTEXT
  5
E56
330
E4E
100
AcDbEntity
  8
SCALE
 62
     0
 48
0.5
100
AcDbMText
 10
82.56001042449023
 20
-44.89442219149646
 30
0.0
 40
6.0
 41
0.0
 71
     5
 72
     1
  1
\A1;6.7
  7
Standard
 73
     1
 44
1.0
  0
POINT
  5
E57
330
E4E
100
AcDbEntity
  8
DEFPOINTS
 62
     0
 48
0.5
100
AcDbPoint
 10
66.59115328163307
 20
-48.51942219149646
 30
0.0
  0
POINT
  5
E58
330
E4E
100
AcDbEntity
  8
DEFPOINTS
 62
     0
 48
0.5
100
AcDbPoint
 10
73.29215328163309
 20
2.396582604711396
 30
0.0
  0
POINT
  5
E59
330
E4E
100
AcDbEntity
  8
DEFPOINTS
 62
     0
 48
0.5
100
AcDbPoint
 10
73.29215328163309
 20
-48.51942219149646
 30
0.0
  0
ENDBLK
  5
E5A
330
E4E
100
AcDbEntity
  8
0
100
AcDbBlockEnd
  0
BLOCK
  5
E5C
330
E5B
100
AcDbEntity
  8
0
100
AcDbBlockBegin
  2
*D60
 70
     1
 10
0.0
 20
0.0
 30
0.0
  3
*D60
  1

  0
LINE
  5
E5D
330
E5B
100
AcDbEntity
  8
SCALE
 62
     0
 48
0.5
370
    -2
100
AcDbLine
 10
-17.40881971836688
 20
65.02156660471142
 30
0.0
 11
-17.40881971836688
 21
70.1537478909238
 31
0.0
  0
LINE
  5
E5E
330
E5B
100
AcDbEntity
  8
SCALE
 62
     0
 48
0.5
370
    -2
100
AcDbLine
 10
-2.408830718366969
 20
54.02156760471132
 30
0.0
 11
-2.408830718366969
 21
70.1537478909238
 31
0.0
  0
LINE
  5
E5F
330
E5B
100
AcDbEntity
  8
SCALE
 62
     0
 48
0.5
370
    -2
100
AcDbLine
 10
-14.90881971836688
 20
68.9037478909238
 30
0.0
 11
-4.908830718366967
 21
68.9037478909238
 31
0.0
  0
INSERT
  5
E60
330
E5B
100
AcDbEntity
  8
SCALE
 62
     0
 48
0.5
370
    -2
100
AcDbBlockReference
  2
_OPEN30
 10
-17.40881971836688
 20
68.9037478909238
 30
0.0
 41
2.5
 42
2.5
 43
2.5
 50
180.0
  0
INSERT
  5
E61
330
E5B
100
AcDbEntity
  8
SCALE
 62
     0
 48
0.5
370
    -2
100
AcDbBlockReference
  2
_OPEN30
 10
-2.408830718366969
 20
68.9037478909238
 30
0.0
 41
2.5
 42
2.5
 43
2.5
  0
MTEXT
  5
E62
330
E5B
100
AcDbEntity
  8
SCALE
 62
     0
 48
0.5
100
AcDbMText
 10
-9.908825218366928
 20
72.5287478909238
 30
0.0
 40
6.0
 41
0.0
 71
     5
 72
     1
  1
\A1;15
  7
Standard
 73
     1
 44
1.0
  0
POINT
  5
E63
330
E5B
100
AcDbEntity
  8
DEFPOINTS
 62
     0
 48
0.5
100
AcDbPoint
 10
-17.40881971836688
 20
64.39656660471142
 30
0.0
  0
POINT
  5
E64
330
E5B
100
AcDbEntity
  8
DEFPOINTS
 62
     0
 48
0.5
100
AcDbPoint
 10
-2.408830718366969
 20
53.39656760471132
 30
0.0
  0
POINT
  5
E65
330
E5B
100
AcDbEntity
  8
DEFPOINTS
 62
     0
 48
0.5
100
AcDbPoint
 10
-2.408830718366969
 20
68.9037478909238
 30
0.0
  0
ENDBLK
  5
E66
330
E5B
100
AcDbEntity
  8
0
100
AcDbBlockEnd
  0
BLOCK
  5
E68
330
E67
100
AcDbEntity
  8
0
100
AcDbBlockBegin
  2
*D61
 70
     1
 10
0.0
 20
0.0
 30
0.0
  3
*D61
  1

  0
LINE
  5
E69
330
E67
100
AcDbEntity
  8
SCALE
 62
     0
 48
0.5
370
    -2
100
AcDbLine
 10
223.1479092427802
 20
14.3965826047114
 30
0.0
 11
232.1012459222497
 21
14.39658260471139
 31
0.0
  0
LINE
  5
E6A
330
E67
100
AcDbEntity
  8
SCALE
 62
     0
 48
0.5
370
    -2
100
AcDbLine
 10
167.216153281633
 20
4.396574604711418
 30
0.0
 11
232.1012459222497
 21
4.396574604711399
 31
0.0
  0
LINE
  5
E6B
330
E67
100
AcDbEntity
  8
SCALE
 62
     0
 48
0.5
370
    -2
100
AcDbLine
 10
230.8512459222498
 20
11.89658260471139
 30
0.0
 11
230.8512459222498
 21
6.8965746047114
 31
0.0
  0
LINE
  5
E6C
330
E67
100
AcDbEntity
  8
SCALE
 62
     0
 48
0.5
370
    -2
100
AcDbLine
 10
230.8512459222498
 20
4.396574604711399
 30
0.0
 11
230.8512459222498
 21
-8.210568252431457
 31
0.0
  0
INSERT
  5
E6D
330
E67
100
AcDbEntity
  8
SCALE
 62
     0
 48
0.5
370
    -2
100
AcDbBlockReference
  2
_OPEN30
 10
230.8512459222498
 20
14.39658260471139
 30
0.0
 41
2.5
 42
2.5
 43
2.5
 50
90.0
  0
INSERT
  5
E6E
330
E67
100
AcDbEntity
  8
SCALE
 62
     0
 48
0.5
370
    -2
100
AcDbBlockReference
  2
_OPEN30
 10
230.8512459222498
 20
4.396574604711399
 30
0.0
 41
2.5
 42
2.5
 43
2.5
 50
270.0
  0
MTEXT
  5
E6F
330
E67
100
AcDbEntity
  8
SCALE
 62
     0
 48
0.5
100
AcDbMText
 10
227.2262459222497
 20
-3.15699682385999
 30
0.0
 40
6.0
 41
0.0
 71
     5
 72
     1
  1
\A1;10
  7
Standard
 11
0.0000000000000001
 21
1.0
 31
0.0
 73
     1
 44
1.0
  0
POINT
  5
E70
330
E67
100
AcDbEntity
  8
DEFPOINTS
 62
     0
 48
0.5
100
AcDbPoint
 10
222.5229092427802
 20
14.3965826047114
 30
0.0
  0
POINT
  5
E71
330
E67
100
AcDbEntity
  8
DEFPOINTS
 62
     0
 48
0.5
100
AcDbPoint
 10
166.591153281633
 20
4.396574604711418
 30
0.0
  0
POINT
  5
E72
330
E67
100
AcDbEntity
  8
DEFPOINTS
 62
     0
 48
0.5
100
AcDbPoint
 10
230.8512459222498
 20
4.396574604711399
 30
0.0
  0
ENDBLK
  5
E73
330
E67
100
AcDbEntity
  8
0
100
AcDbBlockEnd
  0
BLOCK
  5
E75
330
E74
100
AcDbEntity
  8
0
100
AcDbBlockBegin
  2
*D62
 70
     1
 10
0.0
 20
0.0
 30
0.0
  3
*D62
  1

  0
LINE
  5
E76
330
E74
100
AcDbEntity
  8
SCALE
 62
     0
 48
0.5
370
    -2
100
AcDbLine
 10
204.2161532816331
 20
51.39656760471132
 30
0.0
 11
249.1913105711033
 21
51.3965676047113
 31
0.0
  0
LINE
  5
E77
330
E74
100
AcDbEntity
  8
SCALE
 62
     0
 48
0.5
370
    -2
100
AcDbLine
 10
204.2161532816331
 20
-22.6034173952886
 30
0.0
 11
249.1913105711033
 21
-22.60341739528862
 31
0.0
  0
LINE
  5
E78
330
E74
100
AcDbEntity
  8
SCALE
 62
     0
 48
0.5
370
    -2
100
AcDbLine
 10
247.9413105711032
 20
48.8965676047113
 30
0.0
 11
247.9413105711032
 21
-20.10341739528861
 31
0.0
  0
INSERT
  5
E79
330
E74
100
AcDbEntity
  8
SCALE
 62
     0
 48
0.5
370
    -2
100
AcDbBlockReference
  2
_OPEN30
 10
247.9413105711032
 20
51.3965676047113
 30
0.0
 41
2.5
 42
2.5
 43
2.5
 50
90.0
  0
INSERT
  5
E7A
330
E74
100
AcDbEntity
  8
SCALE
 62
     0
 48
0.5
370
    -2
100
AcDbBlockReference
  2
_OPEN30
 10
247.9413105711032
 20
-22.60341739528861
 30
0.0
 41
2.5
 42
2.5
 43
2.5
 50
270.0
  0
MTEXT
  5
E7B
330
E74
100
AcDbEntity
  8
SCALE
 62
     0
 48
0.5
100
AcDbMText
 10
244.3163105711033
 20
14.39657510471139
 30
0.0
 40
6.0
 41
0.0
 71
     5
 72
     1
  1
\A1;74
  7
Standard
 11
0.0000000000000001
 21
1.0
 31
0.0
 73
     1
 44
1.0
  0
POINT
  5
E7C
330
E74
100
AcDbEntity
  8
DEFPOINTS
 62
     0
 48
0.5
100
AcDbPoint
 10
203.5911532816331
 20
51.39656760471132
 30
0.0
  0
POINT
  5
E7D
330
E74
100
AcDbEntity
  8
DEFPOINTS
 62
     0
 48
0.5
100
AcDbPoint
 10
203.5911532816331
 20
-22.6034173952886
 30
0.0
  0
POINT
  5
E7E
330
E74
100
AcDbEntity
  8
DEFPOINTS
 62
     0
 48
0.5
100
AcDbPoint
 10
247.9413105711032
 20
-22.60341739528861
 30
0.0
  0
ENDBLK
  5
E7F
330
E74
100
AcDbEntity
  8
0
100
AcDbBlockEnd
  0
BLOCK
  5
E81
330
E80
100
AcDbEntity
  8
0
100
AcDbBlockBegin
  2
*D63
 70
     1
 10
0.0
 20
0.0
 30
0.0
  3
*D63
  1

  0
LINE
  5
E82
330
E80
100
AcDbEntity
  8
SCALE
 62
     0
 48
0.5
370
    -2
100
AcDbLine
 10
203.5911532816331
 20
-23.2284173952886
 30
0.0
 11
203.5911532816331
 21
-50.0484103858464
 31
0.0
  0
LINE
  5
E83
330
E80
100
AcDbEntity
  8
SCALE
 62
     0
 48
0.5
370
    -2
100
AcDbLine
 10
129.5911532816329
 20
-23.2284173952886
 30
0.0
 11
129.5911532816329
 21
-50.0484103858464
 31
0.0
  0
LINE
  5
E84
330
E80
100
AcDbEntity
  8
SCALE
 62
     0
 48
0.5
370
    -2
100
AcDbLine
 10
201.0911532816331
 20
-48.7984103858464
 30
0.0
 11
132.0911532816331
 21
-48.7984103858464
 31
0.0
  0
INSERT
  5
E85
330
E80
100
AcDbEntity
  8
SCALE
 62
     0
 48
0.5
370
    -2
100
AcDbBlockReference
  2
_OPEN30
 10
203.5911532816331
 20
-48.7984103858464
 30
0.0
 41
2.5
 42
2.5
 43
2.5
  0
INSERT
  5
E86
330
E80
100
AcDbEntity
  8
SCALE
 62
     0
 48
0.5
370
    -2
100
AcDbBlockReference
  2
_OPEN30
 10
129.5911532816329
 20
-48.7984103858464
 30
0.0
 41
2.5
 42
2.5
 43
2.5
 50
180.0
  0
MTEXT
  5
E87
330
E80
100
AcDbEntity
  8
SCALE
 62
     0
 48
0.5
100
AcDbMText
 10
166.591153281633
 20
-45.17341038584638
 30
0.0
 40
6.0
 41
0.0
 71
     5
 72
     1
  1
\A1;74
  7
Standard
 73
     1
 44
1.0
  0
POINT
  5
E88
330
E80
100
AcDbEntity
  8
DEFPOINTS
 62
     0
 48
0.5
100
AcDbPoint
 10
203.5911532816331
 20
-22.6034173952886
 30
0.0
  0
POINT
  5
E89
330
E80
100
AcDbEntity
  8
DEFPOINTS
 62
     0
 48
0.5
100
AcDbPoint
 10
129.5911532816329
 20
-22.6034173952886
 30
0.0
  0
POINT
  5
E8A
330
E80
100
AcDbEntity
  8
DEFPOINTS
 62
     0
 48
0.5
100
AcDbPoint
 10
129.5911532816329
 20
-48.7984103858464
 30
0.0
  0
ENDBLK
  5
E8B
330
E80
100
AcDbEntity
  8
0
100
AcDbBlockEnd
  0
BLOCK
  5
E8D
330
E8C
100
AcDbEntity
  8
0
100
AcDbBlockBegin
  2
*D64
 70
     1
 10
0.0
 20
0.0
 30
0.0
  3
*D64
  1

  0
LINE
  5
E8E
330
E8C
100
AcDbEntity
  8
SCALE
 62
     0
 48
0.5
370
    -2
100
AcDbLine
 10
60.96615390995157
 20
41.39656760471131
 30
0.0
 11
40.45627468107933
 21
41.39656760471134
 31
0.0
  0
LINE
  5
E8F
330
E8C
100
AcDbEntity
  8
SCALE
 62
     0
 48
0.5
370
    -2
100
AcDbLine
 10
60.96615328163307
 20
-32.6034173952887
 30
0.0
 11
40.45627468107932
 21
-32.6034173952887
 31
0.0
  0
LINE
  5
E90
330
E8C
100
AcDbEntity
  8
SCALE
 62
     0
 48
0.5
370
    -2
100
AcDbLine
 10
41.70627468107933
 20
38.89656760471135
 30
0.0
 11
41.70627468107932
 21
-30.1034173952887
 31
0.0
  0
INSERT
  5
E91
330
E8C
100
AcDbEntity
  8
SCALE
 62
     0
 48
0.5
370
    -2
100
AcDbBlockReference
  2
_OPEN30
 10
41.70627468107933
 20
41.39656760471134
 30
0.0
 41
2.5
 42
2.5
 43
2.5
 50
90.0
  0
INSERT
  5
E92
330
E8C
100
AcDbEntity
  8
SCALE
 62
     0
 48
0.5
370
    -2
100
AcDbBlockReference
  2
_OPEN30
 10
41.70627468107932
 20
-32.6034173952887
 30
0.0
 41
2.5
 42
2.5
 43
2.5
 50
270.0
  0
MTEXT
  5
E93
330
E8C
100
AcDbEntity
  8
SCALE
 62
     0
 48
0.5
100
AcDbMText
 10
36.50984610965076
 20
4.396575104711327
 30
0.0
 40
6.0
 41
0.0
 71
     5
 72
     1
  1
\A1;Φ74
  7
Standard
 11
0.0000000000000001
 21
1.0
 31
0.0
 73
     1
 44
1.0
  0
POINT
  5
E94
330
E8C
100
AcDbEntity
  8
DEFPOINTS
 62
     0
 48
0.5
100
AcDbPoint
 10
61.59115390995157
 20
41.39656760471131
 30
0.0
  0
POINT
  5
E95
330
E8C
100
AcDbEntity
  8
DEFPOINTS
 62
     0
 48
0.5
100
AcDbPoint
 10
61.59115328163307
 20
-32.6034173952887
 30
0.0
  0
POINT
  5
E96
330
E8C
100
AcDbEntity
  8
DEFPOINTS
 62
     0
 48
0.5
100
AcDbPoint
 10
41.70627468107932
 20
-32.6034173952887
 30
0.0
  0
ENDBLK
  5
E97
330
E8C
100
AcDbEntity
  8
0
100
AcDbBlockEnd
  0
BLOCK
  5
1299
330
11E7
100
AcDbEntity
  8
0
100
AcDbBlockBegin
  2
*D65
 70
     1
 10
0.0
 20
0.0
 30
0.0
  3
*D65
  1

  0
LINE
  5
1396
330
11E7
100
AcDbEntity
  8
SCALE
 62
     0
 48
0.5
370
    -2
100
AcDbLine
 10
-106.0166805664616
 20
-70.33968950077677
 30
0.0
 11
-93.08747145698951
 21
-70.3396895007768
 31
0.0
  0
LINE
  5
1397
330
11E7
100
AcDbEntity
  8
SCALE
 62
     0
 48
0.5
370
    -2
100
AcDbLine
 10
-99.26668056646171
 20
-117.3396895007768
 30
0.0
 11
-93.08747145698951
 21
-117.3396895007768
 31
0.0
  0
LINE
  5
1398
330
11E7
100
AcDbEntity
  8
SCALE
 62
     0
 48
0.5
370
    -2
100
AcDbLine
 10
-94.33747145698951
 20
-72.8396895007768
 30
0.0
 11
-94.33747145698951
 21
-114.8396895007768
 31
0.0
  0
INSERT
  5
1399
330
11E7
100
AcDbEntity
  8
SCALE
 62
     0
 48
0.5
370
    -2
100
AcDbBlockReference
  2
_OPEN30
 10
-94.33747145698951
 20
-70.3396895007768
 30
0.0
 41
2.5
 42
2.5
 43
2.5
 50
90.0
  0
INSERT
  5
139A
330
11E7
100
AcDbEntity
  8
SCALE
 62
     0
 48
0.5
370
    -2
100
AcDbBlockReference
  2
_OPEN30
 10
-94.33747145698951
 20
-117.3396895007768
 30
0.0
 41
2.5
 42
2.5
 43
2.5
 50
270.0
  0
MTEXT
  5
139B
330
11E7
100
AcDbEntity
  8
SCALE
 62
     0
 48
0.5
100
AcDbMText
 10
-97.9624714569895
 20
-93.83968950077679
 30
0.0
 40
6.0
 41
0.0
 71
     5
 72
     1
  1
\A1;47
  7
Standard
 11
0.0000000000000001
 21
1.0
 31
0.0
 73
     1
 44
1.0
  0
POINT
  5
139C
330
11E7
100
AcDbEntity
  8
DEFPOINTS
 62
     0
 48
0.5
100
AcDbPoint
 10
-106.6416805664617
 20
-70.33968950077677
 30
0.0
  0
POINT
  5
139D
330
11E7
100
AcDbEntity
  8
DEFPOINTS
 62
     0
 48
0.5
100
AcDbPoint
 10
-99.89168056646171
 20
-117.3396895007768
 30
0.0
  0
POINT
  5
139E
330
11E7
100
AcDbEntity
  8
DEFPOINTS
 62
     0
 48
0.5
100
AcDbPoint
 10
-94.33747145698951
 20
-117.3396895007768
 30
0.0
  0
ENDBLK
  5
129A
330
11E7
100
AcDbEntity
  8
0
100
AcDbBlockEnd
  0
BLOCK
  5
129B
330
11F1
100
AcDbEntity
  8
0
100
AcDbBlockBegin
  2
*D66
 70
     1
 10
0.0
 20
0.0
 30
0.0
  3
*D66
  1

  0
LINE
  5
139F
330
11F1
100
AcDbEntity
  8
SCALE
 62
     0
 48
0.5
370
    -2
100
AcDbLine
 10
-94.96247145698951
 20
-117.3396895007768
 30
0.0
 11
-95.58747145698951
 21
-117.3396895007768
 31
0.0
  0
LINE
  5
13A0
330
11F1
100
AcDbEntity
  8
SCALE
 62
     0
 48
0.5
370
    -2
100
AcDbLine
 10
-106.0166805664616
 20
-144.3396895007766
 30
0.0
 11
-93.08747145698951
 21
-144.3396895007766
 31
0.0
  0
LINE
  5
13A1
330
11F1
100
AcDbEntity
  8
SCALE
 62
     0
 48
0.5
370
    -2
100
AcDbLine
 10
-94.33747145698951
 20
-119.8396895007768
 30
0.0
 11
-94.33747145698951
 21
-141.8396895007767
 31
0.0
  0
INSERT
  5
13A2
330
11F1
100
AcDbEntity
  8
SCALE
 62
     0
 48
0.5
370
    -2
100
AcDbBlockReference
  2
_OPEN30
 10
-94.33747145698951
 20
-117.3396895007768
 30
0.0
 41
2.5
 42
2.5
 43
2.5
 50
90.0
  0
INSERT
  5
13A3
330
11F1
100
AcDbEntity
  8
SCALE
 62
     0
 48
0.5
370
    -2
100
AcDbBlockReference
  2
_OPEN30
 10
-94.33747145698951
 20
-144.3396895007766
 30
0.0
 41
2.5
 42
2.5
 43
2.5
 50
270.0
  0
MTEXT
  5
13A4
330
11F1
100
AcDbEntity
  8
SCALE
 62
     0
 48
0.5
100
AcDbMText
 10
-97.96247145698952
 20
-130.8396895007767
 30
0.0
 40
6.0
 41
0.0
 71
     5
 72
     1
  1
\A1;27
  7
Standard
 11
0.0000000000000001
 21
1.0
 31
0.0
 73
     1
 44
1.0
  0
POINT
  5
13A5
330
11F1
100
AcDbEntity
  8
DEFPOINTS
 62
     0
 48
0.5
100
AcDbPoint
 10
-94.33747145698951
 20
-117.3396895007768
 30
0.0
  0
POINT
  5
13A6
330
11F1
100
AcDbEntity
  8
DEFPOINTS
 62
     0
 48
0.5
100
AcDbPoint
 10
-106.6416805664617
 20
-144.3396895007766
 30
0.0
  0
POINT
  5
13A7
330
11F1
100
AcDbEntity
  8
DEFPOINTS
 62
     0
 48
0.5
100
AcDbPoint
 10
-94.33747145698951
 20
-144.3396895007766
 30
0.0
  0
ENDBLK
  5
129C
330
11F1
100
AcDbEntity
  8
0
100
AcDbBlockEnd
  0
BLOCK
  5
129D
330
11FB
100
AcDbEntity
  8
0
100
AcDbBlockBegin
  2
*D67
 70
     1
 10
0.0
 20
0.0
 30
0.0
  3
*D67
  1

  0
LINE
  5
13A8
330
11FB
100
AcDbEntity
  8
SCALE
 62
     0
 48
0.5
370
    -2
100
AcDbLine
 10
-184.8916805664615
 20
-149.2146895007768
 30
0.0
 11
-184.8916805664615
 21
-173.759863411185
 31
0.0
  0
LINE
  5
13A9
330
11FB
100
AcDbEntity
  8
SCALE
 62
     0
 48
0.5
370
    -2
100
AcDbLine
 10
-110.8916805664616
 20
-149.2146895007768
 30
0.0
 11
-110.8916805664616
 21
-173.759863411185
 31
0.0
  0
LINE
  5
13AA
330
11FB
100
AcDbEntity
  8
SCALE
 62
     0
 48
0.5
370
    -2
100
AcDbLine
 10
-182.3916805664614
 20
-172.509863411185
 30
0.0
 11
-113.3916805664616
 21
-172.509863411185
 31
0.0
  0
INSERT
  5
13AB
330
11FB
100
AcDbEntity
  8
SCALE
 62
     0
 48
0.5
370
    -2
100
AcDbBlockReference
  2
_OPEN30
 10
-184.8916805664615
 20
-172.509863411185
 30
0.0
 41
2.5
 42
2.5
 43
2.5
 50
180.0
  0
INSERT
  5
13AC
330
11FB
100
AcDbEntity
  8
SCALE
 62
     0
 48
0.5
370
    -2
100
AcDbBlockReference
  2
_OPEN30
 10
-110.8916805664616
 20
-172.509863411185
 30
0.0
 41
2.5
 42
2.5
 43
2.5
  0
MTEXT
  5
13AD
330
11FB
100
AcDbEntity
  8
SCALE
 62
     0
 48
0.5
100
AcDbMText
 10
-147.8916805664615
 20
-168.884863411185
 30
0.0
 40
6.0
 41
0.0
 71
     5
 72
     1
  1
\A1;74
  7
Standard
 73
     1
 44
1.0
  0
POINT
  5
13AE
330
11FB
100
AcDbEntity
  8
DEFPOINTS
 62
     0
 48
0.5
100
AcDbPoint
 10
-184.8916805664615
 20
-148.5896895007767
 30
0.0
  0
POINT
  5
13AF
330
11FB
100
AcDbEntity
  8
DEFPOINTS
 62
     0
 48
0.5
100
AcDbPoint
 10
-110.8916805664616
 20
-148.5896895007767
 30
0.0
  0
POINT
  5
13B0
330
11FB
100
AcDbEntity
  8
DEFPOINTS
 62
     0
 48
0.5
100
AcDbPoint
 10
-110.8916805664616
 20
-172.509863411185
 30
0.0
  0
ENDBLK
  5
129E
330
11FB
100
AcDbEntity
  8
0
100
AcDbBlockEnd
  0
BLOCK
  5
129F
330
1205
100
AcDbEntity
  8
0
100
AcDbBlockBegin
  2
*D68
 70
     1
 10
0.0
 20
0.0
 30
0.0
  3
*D68
  1

  0
LINE
  5
1436
330
1205
100
AcDbEntity
  8
SCALE
 62
     0
 48
0.5
370
    -2
100
AcDbLine
 10
-121.4378294289294
 20
-141.0133829175896
 30
0.0
 11
-174.3455317039943
 21
-93.66599608396365
 31
0.0
  0
INSERT
  5
1437
330
1205
100
AcDbEntity
  8
SCALE
 62
     0
 48
0.5
370
    -2
100
AcDbBlockReference
  2
_OPEN30
 10
-119.5748821657229
 20
-142.6805444258159
 30
0.0
 41
2.5
 42
2.5
 43
2.5
 50
318.1744678381144
  0
INSERT
  5
1438
330
1205
100
AcDbEntity
  8
SCALE
 62
     0
 48
0.5
370
    -2
100
AcDbBlockReference
  2
_OPEN30
 10
-176.2084789672009
 20
-91.99883457573736
 30
0.0
 41
2.5
 42
2.5
 43
2.5
 50
138.1744678381144
  0
MTEXT
  5
1439
330
1205
100
AcDbEntity
  8
SCALE
 62
     0
 48
0.5
100
AcDbMText
 10
-161.7805994877232
 20
-101.3877773863927
 30
0.0
 40
4.0
 41
0.0
 71
     5
 72
     1
  1
\A1;\U+220576
  7
Standard
 11
0.7451789052826101
 21
-0.6668646032905113
 31
0.0
 73
     1
 44
1.0
  0
POINT
  5
143A
330
1205
100
AcDbEntity
  8
DEFPOINTS
 62
     0
 48
0.5
100
AcDbPoint
 10
-176.2084789672009
 20
-91.99883457573736
 30
0.0
  0
POINT
  5
143B
330
1205
100
AcDbEntity
  8
DEFPOINTS
 62
     0
 48
0.5
100
AcDbPoint
 10
-119.5748821657229
 20
-142.6805444258159
 30
0.0
  0
ENDBLK
  5
12A0
330
1205
100
AcDbEntity
  8
0
100
AcDbBlockEnd
  0
BLOCK
  5
12A1
330
120C
100
AcDbEntity
  8
0
100
AcDbBlockBegin
  2
*D69
 70
     1
 10
0.0
 20
0.0
 30
0.0
  3
*D69
  1

  0
LINE
  5
13B7
330
120C
100
AcDbEntity
  8
SCALE
 62
     0
 48
0.5
370
    -2
100
AcDbLine
 10
-203.752588241045
 20
18.66768661327524
 30
0.0
 11
-211.5976444005323
 21
18.66768661327524
 31
0.0
  0
LINE
  5
13B8
330
120C
100
AcDbEntity
  8
SCALE
 62
     0
 48
0.5
370
    -2
100
AcDbLine
 10
-172.532317033963
 20
-5.332313386724648
 30
0.0
 11
-211.5976444005323
 21
-5.332313386724638
 31
0.0
  0
LINE
  5
13B9
330
120C
100
AcDbEntity
  8
SCALE
 62
     0
 48
0.5
370
    -2
100
AcDbLine
 10
-210.3476444005323
 20
16.16768661327524
 30
0.0
 11
-210.3476444005323
 21
-2.832313386724638
 31
0.0
  0
INSERT
  5
13BA
330
120C
100
AcDbEntity
  8
SCALE
 62
     0
 48
0.5
370
    -2
100
AcDbBlockReference
  2
_OPEN30
 10
-210.3476444005323
 20
18.66768661327524
 30
0.0
 41
2.5
 42
2.5
 43
2.5
 50
90.0
  0
INSERT
  5
13BB
330
120C
100
AcDbEntity
  8
SCALE
 62
     0
 48
0.5
370
    -2
100
AcDbBlockReference
  2
_OPEN30
 10
-210.3476444005323
 20
-5.332313386724638
 30
0.0
 41
2.5
 42
2.5
 43
2.5
 50
270.0
  0
MTEXT
  5
13BC
330
120C
100
AcDbEntity
  8
SCALE
 62
     0
 48
0.5
100
AcDbMText
 10
-213.9726444005323
 20
6.667686613275264
 30
0.0
 40
6.0
 41
0.0
 71
     5
 72
     1
  1
\A1;24
  7
Standard
 11
0.0000000000000001
 21
1.0
 31
0.0
 73
     1
 44
1.0
  0
POINT
  5
13BD
330
120C
100
AcDbEntity
  8
DEFPOINTS
 62
     0
 48
0.5
100
AcDbPoint
 10
-203.127588241045
 20
18.66768661327524
 30
0.0
  0
POINT
  5
13BE
330
120C
100
AcDbEntity
  8
DEFPOINTS
 62
     0
 48
0.5
100
AcDbPoint
 10
-171.907317033963
 20
-5.332313386724648
 30
0.0
  0
POINT
  5
13BF
330
120C
100
AcDbEntity
  8
DEFPOINTS
 62
     0
 48
0.5
100
AcDbPoint
 10
-210.3476444005323
 20
-5.332313386724638
 30
0.0
  0
ENDBLK
  5
12A2
330
120C
100
AcDbEntity
  8
0
100
AcDbBlockEnd
  0
BLOCK
  5
12A3
330
1216
100
AcDbEntity
  8
0
100
AcDbBlockBegin
  2
*D70
 70
     1
 10
0.0
 20
0.0
 30
0.0
  3
*D70
  1

  0
LINE
  5
13C0
330
1216
100
AcDbEntity
  8
SCALE
 62
     0
 48
0.5
370
    -2
100
AcDbLine
 10
-210.9726444005323
 20
-5.332313386724536
 30
0.0
 11
-211.5976444005323
 21
-5.332313386724536
 31
0.0
  0
LINE
  5
13C1
330
1216
100
AcDbEntity
  8
SCALE
 62
     0
 48
0.5
370
    -2
100
AcDbLine
 10
-148.532317033963
 20
-18.33231338672465
 30
0.0
 11
-211.5976444005323
 21
-18.33231338672463
 31
0.0
  0
LINE
  5
13C2
330
1216
100
AcDbEntity
  8
SCALE
 62
     0
 48
0.5
370
    -2
100
AcDbLine
 10
-210.3476444005323
 20
-7.832313386724536
 30
0.0
 11
-210.3476444005323
 21
-15.83231338672463
 31
0.0
  0
INSERT
  5
13C3
330
1216
100
AcDbEntity
  8
SCALE
 62
     0
 48
0.5
370
    -2
100
AcDbBlockReference
  2
_OPEN30
 10
-210.3476444005323
 20
-5.332313386724536
 30
0.0
 41
2.5
 42
2.5
 43
2.5
 50
90.0
  0
INSERT
  5
13C4
330
1216
100
AcDbEntity
  8
SCALE
 62
     0
 48
0.5
370
    -2
100
AcDbBlockReference
  2
_OPEN30
 10
-210.3476444005323
 20
-18.33231338672463
 30
0.0
 41
2.5
 42
2.5
 43
2.5
 50
270.0
  0
MTEXT
  5
13C5
330
1216
100
AcDbEntity
  8
SCALE
 62
     0
 48
0.5
100
AcDbMText
 10
-213.9726444005323
 20
-11.83231338672461
 30
0.0
 40
6.0
 41
0.0
 71
     5
 72
     1
  1
\A1;13
  7
Standard
 11
0.0000000000000001
 21
1.0
 31
0.0
 73
     1
 44
1.0
  0
POINT
  5
13C6
330
1216
100
AcDbEntity
  8
DEFPOINTS
 62
     0
 48
0.5
100
AcDbPoint
 10
-210.3476444005323
 20
-5.332313386724536
 30
0.0
  0
POINT
  5
13C7
330
1216
100
AcDbEntity
  8
DEFPOINTS
 62
     0
 48
0.5
100
AcDbPoint
 10
-147.907317033963
 20
-18.33231338672465
 30
0.0
  0
POINT
  5
13C8
330
1216
100
AcDbEntity
  8
DEFPOINTS
 62
     0
 48
0.5
100
AcDbPoint
 10
-210.3476444005323
 20
-18.33231338672463
 30
0.0
  0
ENDBLK
  5
12A4
330
1216
100
AcDbEntity
  8
0
100
AcDbBlockEnd
  0
BLOCK
  5
12A5
330
1220
100
AcDbEntity
  8
0
100
AcDbBlockBegin
  2
*D71
 70
     1
 10
0.0
 20
0.0
 30
0.0
  3
*D71
  1

  0
LINE
  5
13C9
330
1220
100
AcDbEntity
  8
SCALE
 62
     0
 48
0.5
370
    -2
100
AcDbLine
 10
-171.9073170339629
 20
-5.957313386724648
 30
0.0
 11
-171.9073170339629
 21
-42.75472584876342
 31
0.0
  0
LINE
  5
13CA
330
1220
100
AcDbEntity
  8
SCALE
 62
     0
 48
0.5
370
    -2
100
AcDbLine
 10
-123.9073170339629
 20
-5.957313386724648
 30
0.0
 11
-123.9073170339629
 21
-42.75472584876342
 31
0.0
  0
LINE
  5
13CB
330
1220
100
AcDbEntity
  8
SCALE
 62
     0
 48
0.5
370
    -2
100
AcDbLine
 10
-169.4073170339629
 20
-41.50472584876342
 30
0.0
 11
-126.4073170339629
 21
-41.50472584876342
 31
0.0
  0
INSERT
  5
13CC
330
1220
100
AcDbEntity
  8
SCALE
 62
     0
 48
0.5
370
    -2
100
AcDbBlockReference
  2
_OPEN30
 10
-171.9073170339629
 20
-41.50472584876342
 30
0.0
 41
2.5
 42
2.5
 43
2.5
 50
180.0
  0
INSERT
  5
13CD
330
1220
100
AcDbEntity
  8
SCALE
 62
     0
 48
0.5
370
    -2
100
AcDbBlockReference
  2
_OPEN30
 10
-123.9073170339629
 20
-41.50472584876342
 30
0.0
 41
2.5
 42
2.5
 43
2.5
  0
MTEXT
  5
13CE
330
1220
100
AcDbEntity
  8
SCALE
 62
     0
 48
0.5
100
AcDbMText
 10
-147.9073170339629
 20
-37.87972584876343
 30
0.0
 40
6.0
 41
0.0
 71
     5
 72
     1
  1
\A1;48
  7
Standard
 73
     1
 44
1.0
  0
POINT
  5
13CF
330
1220
100
AcDbEntity
  8
DEFPOINTS
 62
     0
 48
0.5
100
AcDbPoint
 10
-171.9073170339629
 20
-5.332313386724648
 30
0.0
  0
POINT
  5
13D0
330
1220
100
AcDbEntity
  8
DEFPOINTS
 62
     0
 48
0.5
100
AcDbPoint
 10
-123.9073170339629
 20
-5.332313386724648
 30
0.0
  0
POINT
  5
13D1
330
1220
100
AcDbEntity
  8
DEFPOINTS
 62
     0
 48
0.5
100
AcDbPoint
 10
-123.9073170339629
 20
-41.50472584876342
 30
0.0
  0
ENDBLK
  5
12A6
330
1220
100
AcDbEntity
  8
0
100
AcDbBlockEnd
  0
BLOCK
  5
12A7
330
122A
100
AcDbEntity
  8
0
100
AcDbBlockBegin
  2
*D72
 70
     1
 10
0.0
 20
0.0
 30
0.0
  3
*D72
  1

  0
LINE
  5
13D2
330
122A
100
AcDbEntity
  8
SCALE
 62
     0
 48
0.5
370
    -2
100
AcDbLine
 10
-97.90731703396289
 20
-27.95731338672465
 30
0.0
 11
-97.90731703396289
 21
-56.36396946454851
 31
0.0
  0
LINE
  5
13D3
330
122A
100
AcDbEntity
  8
SCALE
 62
     0
 48
0.5
370
    -2
100
AcDbLine
 10
-197.907317033963
 20
-27.95731338672465
 30
0.0
 11
-197.907317033963
 21
-56.36396946454851
 31
0.0
  0
LINE
  5
13D4
330
122A
100
AcDbEntity
  8
SCALE
 62
     0
 48
0.5
370
    -2
100
AcDbLine
 10
-100.4073170339629
 20
-55.11396946454851
 30
0.0
 11
-195.407317033963
 21
-55.11396946454851
 31
0.0
  0
INSERT
  5
13D5
330
122A
100
AcDbEntity
  8
SCALE
 62
     0
 48
0.5
370
    -2
100
AcDbBlockReference
  2
_OPEN30
 10
-97.90731703396289
 20
-55.11396946454851
 30
0.0
 41
2.5
 42
2.5
 43
2.5
  0
INSERT
  5
13D6
330
122A
100
AcDbEntity
  8
SCALE
 62
     0
 48
0.5
370
    -2
100
AcDbBlockReference
  2
_OPEN30
 10
-197.907317033963
 20
-55.11396946454851
 30
0.0
 41
2.5
 42
2.5
 43
2.5
 50
180.0
  0
MTEXT
  5
13D7
330
122A
100
AcDbEntity
  8
SCALE
 62
     0
 48
0.5
100
AcDbMText
 10
-147.9073170339629
 20
-51.48896946454851
 30
0.0
 40
6.0
 41
0.0
 71
     5
 72
     1
  1
\A1;100
  7
Standard
 73
     1
 44
1.0
  0
POINT
  5
13D8
330
122A
100
AcDbEntity
  8
DEFPOINTS
 62
     0
 48
0.5
100
AcDbPoint
 10
-97.90731703396289
 20
-27.33231338672465
 30
0.0
  0
POINT
  5
13D9
330
122A
100
AcDbEntity
  8
DEFPOINTS
 62
     0
 48
0.5
100
AcDbPoint
 10
-197.907317033963
 20
-27.33231338672465
 30
0.0
  0
POINT
  5
13DA
330
122A
100
AcDbEntity
  8
DEFPOINTS
 62
     0
 48
0.5
100
AcDbPoint
 10
-197.907317033963
 20
-55.11396946454851
 30
0.0
  0
ENDBLK
  5
12A8
330
122A
100
AcDbEntity
  8
0
100
AcDbBlockEnd
  0
BLOCK
  5
12A9
330
1234
100
AcDbEntity
  8
0
100
AcDbBlockBegin
  2
*D73
 70
     1
 10
0.0
 20
0.0
 30
0.0
  3
*D73
  1

  0
LINE
  5
13DB
330
1234
100
AcDbEntity
  8
SCALE
 62
     0
 48
0.5
370
    -2
100
AcDbLine
 10
-194.5323169641496
 20
-31.33231338672465
 30
0.0
 11
-223.1466689501234
 21
-31.33231338672464
 31
0.0
  0
LINE
  5
13DC
330
1234
100
AcDbEntity
  8
SCALE
 62
     0
 48
0.5
370
    -2
100
AcDbLine
 10
-194.5323170339626
 20
68.66767161327527
 30
0.0
 11
-223.1466689501234
 21
68.66767161327527
 31
0.0
  0
LINE
  5
13DD
330
1234
100
AcDbEntity
  8
SCALE
 62
     0
 48
0.5
370
    -2
100
AcDbLine
 10
-221.8966689501234
 20
-28.83231338672464
 30
0.0
 11
-221.8966689501234
 21
66.16767161327527
 31
0.0
  0
INSERT
  5
13DE
330
1234
100
AcDbEntity
  8
SCALE
 62
     0
 48
0.5
370
    -2
100
AcDbBlockReference
  2
_OPEN30
 10
-221.8966689501234
 20
-31.33231338672465
 30
0.0
 41
2.5
 42
2.5
 43
2.5
 50
270.0
  0
INSERT
  5
13DF
330
1234
100
AcDbEntity
  8
SCALE
 62
     0
 48
0.5
370
    -2
100
AcDbBlockReference
  2
_OPEN30
 10
-221.8966689501234
 20
68.66767161327527
 30
0.0
 41
2.5
 42
2.5
 43
2.5
 50
90.0
  0
MTEXT
  5
13E0
330
1234
100
AcDbEntity
  8
SCALE
 62
     0
 48
0.5
100
AcDbMText
 10
-225.5216689501234
 20
18.66767911327528
 30
0.0
 40
6.0
 41
0.0
 71
     5
 72
     1
  1
\A1;100
  7
Standard
 11
0.0000000000000001
 21
1.0
 31
0.0
 73
     1
 44
1.0
  0
POINT
  5
13E1
330
1234
100
AcDbEntity
  8
DEFPOINTS
 62
     0
 48
0.5
100
AcDbPoint
 10
-193.9073169641496
 20
-31.33231338672465
 30
0.0
  0
POINT
  5
13E2
330
1234
100
AcDbEntity
  8
DEFPOINTS
 62
     0
 48
0.5
100
AcDbPoint
 10
-193.9073170339626
 20
68.66767161327527
 30
0.0
  0
POINT
  5
13E3
330
1234
100
AcDbEntity
  8
DEFPOINTS
 62
     0
 48
0.5
100
AcDbPoint
 10
-221.8966689501234
 20
68.66767161327527
 30
0.0
  0
ENDBLK
  5
12AA
330
1234
100
AcDbEntity
  8
0
100
AcDbBlockEnd
  0
BLOCK
  5
12AB
330
123E
100
AcDbEntity
  8
0
100
AcDbBlockBegin
  2
*D74
 70
     1
 10
0.0
 20
0.0
 30
0.0
  3
*D74
  1

  0
LINE
  5
13E4
330
123E
100
AcDbEntity
  8
SCALE
 62
     0
 48
0.5
370
    -2
100
AcDbLine
 10
-47.90731703396295
 20
-8.627357386724611
 30
0.0
 11
-47.90731703396295
 21
-45.49831818293251
 31
0.0
  0
LINE
  5
13E5
330
123E
100
AcDbEntity
  8
SCALE
 62
     0
 48
0.5
370
    -2
100
AcDbLine
 10
-39.90731703396296
 20
-29.11704238672462
 30
0.0
 11
-39.90731703396296
 21
-45.49831818293251
 31
0.0
  0
LINE
  5
13E6
330
123E
100
AcDbEntity
  8
SCALE
 62
     0
 48
0.5
370
    -2
100
AcDbLine
 10
-45.40731703396295
 20
-44.24831818293251
 30
0.0
 11
-42.40731703396295
 21
-44.24831818293251
 31
0.0
  0
INSERT
  5
13E7
330
123E
100
AcDbEntity
  8
SCALE
 62
     0
 48
0.5
370
    -2
100
AcDbBlockReference
  2
_OPEN30
 10
-47.90731703396295
 20
-44.24831818293251
 30
0.0
 41
2.5
 42
2.5
 43
2.5
 50
180.0
  0
INSERT
  5
13E8
330
123E
100
AcDbEntity
  8
SCALE
 62
     0
 48
0.5
370
    -2
100
AcDbBlockReference
  2
_OPEN30
 10
-39.90731703396296
 20
-44.24831818293251
 30
0.0
 41
2.5
 42
2.5
 43
2.5
  0
MTEXT
  5
13E9
330
123E
100
AcDbEntity
  8
SCALE
 62
     0
 48
0.5
100
AcDbMText
 10
-43.90731703396295
 20
-40.62331818293251
 30
0.0
 40
6.0
 41
0.0
 71
     5
 72
     1
  1
\A1;8
  7
Standard
 73
     1
 44
1.0
  0
POINT
  5
13EA
330
123E
100
AcDbEntity
  8
DEFPOINTS
 62
     0
 48
0.5
100
AcDbPoint
 10
-47.90731703396295
 20
-8.002357386724611
 30
0.0
  0
POINT
  5
13EB
330
123E
100
AcDbEntity
  8
DEFPOINTS
 62
     0
 48
0.5
100
AcDbPoint
 10
-39.90731703396296
 20
-28.49204238672462
 30
0.0
  0
POINT
  5
13EC
330
123E
100
AcDbEntity
  8
DEFPOINTS
 62
     0
 48
0.5
100
AcDbPoint
 10
-39.90731703396296
 20
-44.24831818293251
 30
0.0
  0
ENDBLK
  5
12AC
330
123E
100
AcDbEntity
  8
0
100
AcDbBlockEnd
  0
BLOCK
  5
12AD
330
1248
100
AcDbEntity
  8
0
100
AcDbBlockBegin
  2
*D75
 70
     1
 10
0.0
 20
0.0
 30
0.0
  3
*D75
  1

  0
LINE
  5
13ED
330
1248
100
AcDbEntity
  8
SCALE
 62
     0
 48
0.5
370
    -2
100
AcDbLine
 10
-39.90731703396296
 20
-43.62331818293251
 30
0.0
 11
-39.90731703396296
 21
-42.99831818293251
 31
0.0
  0
LINE
  5
13EE
330
1248
100
AcDbEntity
  8
SCALE
 62
     0
 48
0.5
370
    -2
100
AcDbLine
 10
-27.90731703396295
 20
-31.95731338672465
 30
0.0
 11
-27.90731703396295
 21
-45.49831818293251
 31
0.0
  0
LINE
  5
13EF
330
1248
100
AcDbEntity
  8
SCALE
 62
     0
 48
0.5
370
    -2
100
AcDbLine
 10
-37.40731703396296
 20
-44.24831818293251
 30
0.0
 11
-30.40731703396295
 21
-44.24831818293251
 31
0.0
  0
INSERT
  5
13F0
330
1248
100
AcDbEntity
  8
SCALE
 62
     0
 48
0.5
370
    -2
100
AcDbBlockReference
  2
_OPEN30
 10
-39.90731703396296
 20
-44.24831818293251
 30
0.0
 41
2.5
 42
2.5
 43
2.5
 50
180.0
  0
INSERT
  5
13F1
330
1248
100
AcDbEntity
  8
SCALE
 62
     0
 48
0.5
370
    -2
100
AcDbBlockReference
  2
_OPEN30
 10
-27.90731703396295
 20
-44.24831818293251
 30
0.0
 41
2.5
 42
2.5
 43
2.5
  0
MTEXT
  5
13F2
330
1248
100
AcDbEntity
  8
SCALE
 62
     0
 48
0.5
100
AcDbMText
 10
-33.90731703396296
 20
-40.62331818293251
 30
0.0
 40
6.0
 41
0.0
 71
     5
 72
     1
  1
\A1;12
  7
Standard
 73
     1
 44
1.0
  0
POINT
  5
13F3
330
1248
100
AcDbEntity
  8
DEFPOINTS
 62
     0
 48
0.5
100
AcDbPoint
 10
-39.90731703396296
 20
-44.24831818293251
 30
0.0
  0
POINT
  5
13F4
330
1248
100
AcDbEntity
  8
DEFPOINTS
 62
     0
 48
0.5
100
AcDbPoint
 10
-27.90731703396295
 20
-31.33231338672465
 30
0.0
  0
POINT
  5
13F5
330
1248
100
AcDbEntity
  8
DEFPOINTS
 62
     0
 48
0.5
100
AcDbPoint
 10
-27.90731703396295
 20
-44.24831818293251
 30
0.0
  0
ENDBLK
  5
12AE
330
1248
100
AcDbEntity
  8
0
100
AcDbBlockEnd
  0
BLOCK
  5
12AF
330
1252
100
AcDbEntity
  8
0
100
AcDbBlockBegin
  2
*D76
 70
     1
 10
0.0
 20
0.0
 30
0.0
  3
*D76
  1

  0
LINE
  5
13F6
330
1252
100
AcDbEntity
  8
SCALE
 62
     0
 48
0.5
370
    -2
100
AcDbLine
 10
-27.90731703396295
 20
-43.62331818293251
 30
0.0
 11
-27.90731703396295
 21
-42.99831818293251
 31
0.0
  0
LINE
  5
13F7
330
1252
100
AcDbEntity
  8
SCALE
 62
     0
 48
0.5
370
    -2
100
AcDbLine
 10
56.09266696603707
 20
-24.95731338672465
 30
0.0
 11
56.09266696603707
 21
-45.49831818293251
 31
0.0
  0
LINE
  5
13F8
330
1252
100
AcDbEntity
  8
SCALE
 62
     0
 48
0.5
370
    -2
100
AcDbLine
 10
-25.40731703396295
 20
-44.24831818293251
 30
0.0
 11
53.59266696603707
 21
-44.24831818293251
 31
0.0
  0
INSERT
  5
13F9
330
1252
100
AcDbEntity
  8
SCALE
 62
     0
 48
0.5
370
    -2
100
AcDbBlockReference
  2
_OPEN30
 10
-27.90731703396295
 20
-44.24831818293251
 30
0.0
 41
2.5
 42
2.5
 43
2.5
 50
180.0
  0
INSERT
  5
13FA
330
1252
100
AcDbEntity
  8
SCALE
 62
     0
 48
0.5
370
    -2
100
AcDbBlockReference
  2
_OPEN30
 10
56.09266696603707
 20
-44.24831818293251
 30
0.0
 41
2.5
 42
2.5
 43
2.5
  0
MTEXT
  5
13FB
330
1252
100
AcDbEntity
  8
SCALE
 62
     0
 48
0.5
100
AcDbMText
 10
14.09267496603706
 20
-40.62331818293251
 30
0.0
 40
6.0
 41
0.0
 71
     5
 72
     1
  1
\A1;84
  7
Standard
 73
     1
 44
1.0
  0
POINT
  5
13FC
330
1252
100
AcDbEntity
  8
DEFPOINTS
 62
     0
 48
0.5
100
AcDbPoint
 10
-27.90731703396295
 20
-44.24831818293251
 30
0.0
  0
POINT
  5
13FD
330
1252
100
AcDbEntity
  8
DEFPOINTS
 62
     0
 48
0.5
100
AcDbPoint
 10
56.09266696603707
 20
-24.33231338672465
 30
0.0
  0
POINT
  5
13FE
330
1252
100
AcDbEntity
  8
DEFPOINTS
 62
     0
 48
0.5
100
AcDbPoint
 10
56.09266696603707
 20
-44.24831818293251
 30
0.0
  0
ENDBLK
  5
12B0
330
1252
100
AcDbEntity
  8
0
100
AcDbBlockEnd
  0
BLOCK
  5
12B1
330
125C
100
AcDbEntity
  8
0
100
AcDbBlockBegin
  2
*D77
 70
     1
 10
0.0
 20
0.0
 30
0.0
  3
*D77
  1

  0
LINE
  5
13FF
330
125C
100
AcDbEntity
  8
SCALE
 62
     0
 48
0.5
370
    -2
100
AcDbLine
 10
56.09266696603707
 20
-43.62331818293251
 30
0.0
 11
56.09266696603707
 21
-42.99831818293251
 31
0.0
  0
LINE
  5
1400
330
125C
100
AcDbEntity
  8
SCALE
 62
     0
 48
0.5
370
    -2
100
AcDbLine
 10
62.79366696603711
 20
6.042686613275349
 30
0.0
 11
62.79366696603711
 21
-45.49831818293251
 31
0.0
  0
LINE
  5
1401
330
125C
100
AcDbEntity
  8
SCALE
 62
     0
 48
0.5
370
    -2
100
AcDbLine
 10
58.59266696603707
 20
-44.24831818293251
 30
0.0
 11
60.29366696603711
 21
-44.24831818293251
 31
0.0
  0
LINE
  5
1402
330
125C
100
AcDbEntity
  8
SCALE
 62
     0
 48
0.5
370
    -2
100
AcDbLine
 10
62.79366696603711
 20
-44.24831818293251
 30
0.0
 11
78.54366696603711
 21
-44.24831818293251
 31
0.0
  0
INSERT
  5
1403
330
125C
100
AcDbEntity
  8
SCALE
 62
     0
 48
0.5
370
    -2
100
AcDbBlockReference
  2
_OPEN30
 10
56.09266696603707
 20
-44.24831818293251
 30
0.0
 41
2.5
 42
2.5
 43
2.5
 50
180.0
  0
INSERT
  5
1404
330
125C
100
AcDbEntity
  8
SCALE
 62
     0
 48
0.5
370
    -2
100
AcDbBlockReference
  2
_OPEN30
 10
62.79366696603711
 20
-44.24831818293251
 30
0.0
 41
2.5
 42
2.5
 43
2.5
  0
MTEXT
  5
1405
330
125C
100
AcDbEntity
  8
SCALE
 62
     0
 48
0.5
100
AcDbMText
 10
71.91866696603709
 20
-40.62331818293251
 30
0.0
 40
6.0
 41
0.0
 71
     5
 72
     1
  1
\A1;6.7
  7
Standard
 73
     1
 44
1.0
  0
POINT
  5
1406
330
125C
100
AcDbEntity
  8
DEFPOINTS
 62
     0
 48
0.5
100
AcDbPoint
 10
56.09266696603707
 20
-44.24831818293251
 30
0.0
  0
POINT
  5
1407
330
125C
100
AcDbEntity
  8
DEFPOINTS
 62
     0
 48
0.5
100
AcDbPoint
 10
62.79366696603711
 20
6.667686613275349
 30
0.0
  0
POINT
  5
1408
330
125C
100
AcDbEntity
  8
DEFPOINTS
 62
     0
 48
0.5
100
AcDbPoint
 10
62.79366696603711
 20
-44.24831818293251
 30
0.0
  0
ENDBLK
  5
12B2
330
125C
100
AcDbEntity
  8
0
100
AcDbBlockEnd
  0
BLOCK
  5
12B3
330
1267
100
AcDbEntity
  8
0
100
AcDbBlockBegin
  2
*D78
 70
     1
 10
0.0
 20
0.0
 30
0.0
  3
*D78
  1

  0
LINE
  5
1409
330
1267
100
AcDbEntity
  8
SCALE
 62
     0
 48
0.5
370
    -2
100
AcDbLine
 10
-27.90730603396287
 20
69.29267061327539
 30
0.0
 11
-27.90730603396287
 21
74.42485189948775
 31
0.0
  0
LINE
  5
140A
330
1267
100
AcDbEntity
  8
SCALE
 62
     0
 48
0.5
370
    -2
100
AcDbLine
 10
-12.90731703396295
 20
58.29267161327527
 30
0.0
 11
-12.90731703396295
 21
74.42485189948775
 31
0.0
  0
LINE
  5
140B
330
1267
100
AcDbEntity
  8
SCALE
 62
     0
 48
0.5
370
    -2
100
AcDbLine
 10
-25.40730603396287
 20
73.17485189948775
 30
0.0
 11
-15.40731703396295
 21
73.17485189948775
 31
0.0
  0
INSERT
  5
140C
330
1267
100
AcDbEntity
  8
SCALE
 62
     0
 48
0.5
370
    -2
100
AcDbBlockReference
  2
_OPEN30
 10
-27.90730603396287
 20
73.17485189948775
 30
0.0
 41
2.5
 42
2.5
 43
2.5
 50
180.0
  0
INSERT
  5
140D
330
1267
100
AcDbEntity
  8
SCALE
 62
     0
 48
0.5
370
    -2
100
AcDbBlockReference
  2
_OPEN30
 10
-12.90731703396295
 20
73.17485189948775
 30
0.0
 41
2.5
 42
2.5
 43
2.5
  0
MTEXT
  5
140E
330
1267
100
AcDbEntity
  8
SCALE
 62
     0
 48
0.5
100
AcDbMText
 10
-20.40731153396291
 20
76.79985189948775
 30
0.0
 40
6.0
 41
0.0
 71
     5
 72
     1
  1
\A1;15
  7
Standard
 73
     1
 44
1.0
  0
POINT
  5
140F
330
1267
100
AcDbEntity
  8
DEFPOINTS
 62
     0
 48
0.5
100
AcDbPoint
 10
-27.90730603396287
 20
68.66767061327539
 30
0.0
  0
POINT
  5
1410
330
1267
100
AcDbEntity
  8
DEFPOINTS
 62
     0
 48
0.5
100
AcDbPoint
 10
-12.90731703396295
 20
57.66767161327527
 30
0.0
  0
POINT
  5
1411
330
1267
100
AcDbEntity
  8
DEFPOINTS
 62
     0
 48
0.5
100
AcDbPoint
 10
-12.90731703396295
 20
73.17485189948775
 30
0.0
  0
ENDBLK
  5
12B4
330
1267
100
AcDbEntity
  8
0
100
AcDbBlockEnd
  0
BLOCK
  5
12B5
330
1271
100
AcDbEntity
  8
0
100
AcDbBlockBegin
  2
*D79
 70
     1
 10
0.0
 20
0.0
 30
0.0
  3
*D79
  1

  0
LINE
  5
1412
330
1271
100
AcDbEntity
  8
SCALE
 62
     0
 48
0.5
370
    -2
100
AcDbLine
 10
212.6494229271842
 20
18.66768661327535
 30
0.0
 11
221.6027596066538
 21
18.66768661327535
 31
0.0
  0
LINE
  5
1413
330
1271
100
AcDbEntity
  8
SCALE
 62
     0
 48
0.5
370
    -2
100
AcDbLine
 10
156.7176669660369
 20
8.66767861327537
 30
0.0
 11
221.6027596066538
 21
8.667678613275352
 31
0.0
  0
LINE
  5
1414
330
1271
100
AcDbEntity
  8
SCALE
 62
     0
 48
0.5
370
    -2
100
AcDbLine
 10
220.3527596066538
 20
16.16768661327534
 30
0.0
 11
220.3527596066538
 21
11.16767861327535
 31
0.0
  0
INSERT
  5
1415
330
1271
100
AcDbEntity
  8
SCALE
 62
     0
 48
0.5
370
    -2
100
AcDbBlockReference
  2
_OPEN30
 10
220.3527596066538
 20
18.66768661327535
 30
0.0
 41
2.5
 42
2.5
 43
2.5
 50
90.0
  0
INSERT
  5
1416
330
1271
100
AcDbEntity
  8
SCALE
 62
     0
 48
0.5
370
    -2
100
AcDbBlockReference
  2
_OPEN30
 10
220.3527596066538
 20
8.667678613275352
 30
0.0
 41
2.5
 42
2.5
 43
2.5
 50
270.0
  0
MTEXT
  5
1417
330
1271
100
AcDbEntity
  8
SCALE
 62
     0
 48
0.5
100
AcDbMText
 10
216.7277596066538
 20
13.66768261327538
 30
0.0
 40
6.0
 41
0.0
 71
     5
 72
     1
  1
\A1;10
  7
Standard
 11
0.0000000000000001
 21
1.0
 31
0.0
 73
     1
 44
1.0
  0
POINT
  5
1418
330
1271
100
AcDbEntity
  8
DEFPOINTS
 62
     0
 48
0.5
100
AcDbPoint
 10
212.0244229271842
 20
18.66768661327535
 30
0.0
  0
POINT
  5
1419
330
1271
100
AcDbEntity
  8
DEFPOINTS
 62
     0
 48
0.5
100
AcDbPoint
 10
156.092666966037
 20
8.66767861327537
 30
0.0
  0
POINT
  5
141A
330
1271
100
AcDbEntity
  8
DEFPOINTS
 62
     0
 48
0.5
100
AcDbPoint
 10
220.3527596066538
 20
8.667678613275352
 30
0.0
  0
ENDBLK
  5
12B6
330
1271
100
AcDbEntity
  8
0
100
AcDbBlockEnd
  0
BLOCK
  5
12B7
330
127B
100
AcDbEntity
  8
0
100
AcDbBlockBegin
  2
*D80
 70
     1
 10
0.0
 20
0.0
 30
0.0
  3
*D80
  1

  0
LINE
  5
141B
330
127B
100
AcDbEntity
  8
SCALE
 62
     0
 48
0.5
370
    -2
100
AcDbLine
 10
193.7176669660371
 20
55.66767161327526
 30
0.0
 11
238.6928242555072
 21
55.66767161327526
 31
0.0
  0
LINE
  5
141C
330
127B
100
AcDbEntity
  8
SCALE
 62
     0
 48
0.5
370
    -2
100
AcDbLine
 10
193.7176669660371
 20
-18.33231338672465
 30
0.0
 11
238.6928242555072
 21
-18.33231338672466
 31
0.0
  0
LINE
  5
141D
330
127B
100
AcDbEntity
  8
SCALE
 62
     0
 48
0.5
370
    -2
100
AcDbLine
 10
237.4428242555072
 20
53.16767161327526
 30
0.0
 11
237.4428242555072
 21
-15.83231338672466
 31
0.0
  0
INSERT
  5
141E
330
127B
100
AcDbEntity
  8
SCALE
 62
     0
 48
0.5
370
    -2
100
AcDbBlockReference
  2
_OPEN30
 10
237.4428242555072
 20
55.66767161327526
 30
0.0
 41
2.5
 42
2.5
 43
2.5
 50
90.0
  0
INSERT
  5
141F
330
127B
100
AcDbEntity
  8
SCALE
 62
     0
 48
0.5
370
    -2
100
AcDbBlockReference
  2
_OPEN30
 10
237.4428242555072
 20
-18.33231338672466
 30
0.0
 41
2.5
 42
2.5
 43
2.5
 50
270.0
  0
MTEXT
  5
1420
330
127B
100
AcDbEntity
  8
SCALE
 62
     0
 48
0.5
100
AcDbMText
 10
233.8178242555072
 20
18.66767911327534
 30
0.0
 40
6.0
 41
0.0
 71
     5
 72
     1
  1
\A1;74
  7
Standard
 11
0.0000000000000001
 21
1.0
 31
0.0
 73
     1
 44
1.0
  0
POINT
  5
1421
330
127B
100
AcDbEntity
  8
DEFPOINTS
 62
     0
 48
0.5
100
AcDbPoint
 10
193.0926669660371
 20
55.66767161327526
 30
0.0
  0
POINT
  5
1422
330
127B
100
AcDbEntity
  8
DEFPOINTS
 62
     0
 48
0.5
100
AcDbPoint
 10
193.0926669660371
 20
-18.33231338672465
 30
0.0
  0
POINT
  5
1423
330
127B
100
AcDbEntity
  8
DEFPOINTS
 62
     0
 48
0.5
100
AcDbPoint
 10
237.4428242555072
 20
-18.33231338672466
 30
0.0
  0
ENDBLK
  5
12B8
330
127B
100
AcDbEntity
  8
0
100
AcDbBlockEnd
  0
BLOCK
  5
12B9
330
1285
100
AcDbEntity
  8
0
100
AcDbBlockBegin
  2
*D81
 70
     1
 10
0.0
 20
0.0
 30
0.0
  3
*D81
  1

  0
LINE
  5
1424
330
1285
100
AcDbEntity
  8
SCALE
 62
     0
 48
0.5
370
    -2
100
AcDbLine
 10
193.0926669660371
 20
-18.95731338672465
 30
0.0
 11
193.0926669660371
 21
-45.77730637728246
 31
0.0
  0
LINE
  5
1425
330
1285
100
AcDbEntity
  8
SCALE
 62
     0
 48
0.5
370
    -2
100
AcDbLine
 10
119.0926669660369
 20
-18.95731338672465
 30
0.0
 11
119.0926669660369
 21
-45.77730637728246
 31
0.0
  0
LINE
  5
1426
330
1285
100
AcDbEntity
  8
SCALE
 62
     0
 48
0.5
370
    -2
100
AcDbLine
 10
190.5926669660371
 20
-44.52730637728246
 30
0.0
 11
121.5926669660369
 21
-44.52730637728246
 31
0.0
  0
INSERT
  5
1427
330
1285
100
AcDbEntity
  8
SCALE
 62
     0
 48
0.5
370
    -2
100
AcDbBlockReference
  2
_OPEN30
 10
193.0926669660371
 20
-44.52730637728246
 30
0.0
 41
2.5
 42
2.5
 43
2.5
  0
INSERT
  5
1428
330
1285
100
AcDbEntity
  8
SCALE
 62
     0
 48
0.5
370
    -2
100
AcDbBlockReference
  2
_OPEN30
 10
119.0926669660369
 20
-44.52730637728246
 30
0.0
 41
2.5
 42
2.5
 43
2.5
 50
180.0
  0
MTEXT
  5
1429
330
1285
100
AcDbEntity
  8
SCALE
 62
     0
 48
0.5
100
AcDbMText
 10
156.092666966037
 20
-40.90230637728246
 30
0.0
 40
6.0
 41
0.0
 71
     5
 72
     1
  1
\A1;74
  7
Standard
 73
     1
 44
1.0
  0
POINT
  5
142A
330
1285
100
AcDbEntity
  8
DEFPOINTS
 62
     0
 48
0.5
100
AcDbPoint
 10
193.0926669660371
 20
-18.33231338672465
 30
0.0
  0
POINT
  5
142B
330
1285
100
AcDbEntity
  8
DEFPOINTS
 62
     0
 48
0.5
100
AcDbPoint
 10
119.0926669660369
 20
-18.33231338672465
 30
0.0
  0
POINT
  5
142C
330
1285
100
AcDbEntity
  8
DEFPOINTS
 62
     0
 48
0.5
100
AcDbPoint
 10
119.0926669660369
 20
-44.52730637728246
 30
0.0
  0
ENDBLK
  5
12BA
330
1285
100
AcDbEntity
  8
0
100
AcDbBlockEnd
  0
BLOCK
  5
12BB
330
128F
100
AcDbEntity
  8
0
100
AcDbBlockBegin
  2
*D82
 70
     1
 10
0.0
 20
0.0
 30
0.0
  3
*D82
  1

  0
LINE
  5
142D
330
128F
100
AcDbEntity
  8
SCALE
 62
     0
 48
0.5
370
    -2
100
AcDbLine
 10
50.46766759435559
 20
45.66767161327528
 30
0.0
 11
29.95778836548336
 21
45.66767161327528
 31
0.0
  0
LINE
  5
142E
330
128F
100
AcDbEntity
  8
SCALE
 62
     0
 48
0.5
370
    -2
100
AcDbLine
 10
50.46766696603707
 20
-28.33231338672475
 30
0.0
 11
29.95778836548334
 21
-28.33231338672474
 31
0.0
  0
LINE
  5
142F
330
128F
100
AcDbEntity
  8
SCALE
 62
     0
 48
0.5
370
    -2
100
AcDbLine
 10
31.20778836548336
 20
43.16767161327528
 30
0.0
 11
31.20778836548334
 21
-25.83231338672475
 31
0.0
  0
INSERT
  5
1430
330
128F
100
AcDbEntity
  8
SCALE
 62
     0
 48
0.5
370
    -2
100
AcDbBlockReference
  2
_OPEN30
 10
31.20778836548336
 20
45.66767161327528
 30
0.0
 41
2.5
 42
2.5
 43
2.5
 50
90.0
  0
INSERT
  5
1431
330
128F
100
AcDbEntity
  8
SCALE
 62
     0
 48
0.5
370
    -2
100
AcDbBlockReference
  2
_OPEN30
 10
31.20778836548334
 20
-28.33231338672474
 30
0.0
 41
2.5
 42
2.5
 43
2.5
 50
270.0
  0
MTEXT
  5
1432
330
128F
100
AcDbEntity
  8
SCALE
 62
     0
 48
0.5
100
AcDbMText
 10
27.58278836548335
 20
8.66767911327528
 30
0.0
 40
6.0
 41
0.0
 71
     5
 72
     1
  1
\A1;Φ74
  7
Standard
 11
0.0000000000000001
 21
1.0
 31
0.0
 73
     1
 44
1.0
  0
POINT
  5
1433
330
128F
100
AcDbEntity
  8
DEFPOINTS
 62
     0
 48
0.5
100
AcDbPoint
 10
51.09266759435559
 20
45.66767161327528
 30
0.0
  0
POINT
  5
1434
330
128F
100
AcDbEntity
  8
DEFPOINTS
 62
     0
 48
0.5
100
AcDbPoint
 10
51.09266696603707
 20
-28.33231338672475
 30
0.0
  0
POINT
  5
1435
330
128F
100
AcDbEntity
  8
DEFPOINTS
 62
     0
 48
0.5
100
AcDbPoint
 10
31.20778836548334
 20
-28.33231338672474
 30
0.0
  0
ENDBLK
  5
12BC
330
128F
100
AcDbEntity
  8
0
100
AcDbBlockEnd
  0
ENDSEC
  0
SECTION
  2
ENTITIES
  0
LINE
  5
26
330
A
100
AcDbEntity
  8
DEFPOINTS
  6
NON_PLOTING
 62
   254
100
AcDbLine
 10
-304.5
 20
-210.0
 30
0.0
 11
289.5
 21
-210.0
 31
0.0
  0
LINE
  5
27
330
A
100
AcDbEntity
  8
DEFPOINTS
  6
NON_PLOTING
 62
   254
100
AcDbLine
 10
289.5
 20
210.0
 30
0.0
 11
289.5
 21
-210.0
 31
0.0
  0
LINE
  5
29
330
A
100
AcDbEntity
  8
FV
  6
Continuous
 62
     7
100
AcDbLine
 10
178.327657
 20
-167.537901
 30
0.0
 11
180.980309
 21
-167.537901
 31
0.0
  0
LINE
  5
2A
330
A
100
AcDbEntity
  8
FV
  6
Continuous
 62
     7
100
AcDbLine
 10
190.525127
 20
-170.690635
 30
0.0
 11
193.657127
 21
-170.690635
 31
0.0
  0
LINE
  5
2B
330
A
100
AcDbEntity
  8
FV
  6
Continuous
 62
     7
100
AcDbLine
 10
190.824077
 20
-170.185941
 30
0.0
 11
193.369701
 21
-170.185941
 31
0.0
  0
LINE
  5
2C
330
A
100
AcDbEntity
  8
FV
  6
Continuous
 62
     7
100
AcDbLine
 10
171.39329
 20
-170.937156
 30
0.0
 11
171.39329
 21
-168.201632
 31
0.0
  0
LINE
  5
2D
330
A
100
AcDbEntity
  8
FV
  6
Continuous
 62
     7
100
AcDbLine
 10
173.023508
 20
-170.89623
 30
0.0
 11
173.023508
 21
-168.201591
 31
0.0
  0
LINE
  5
2E
330
A
100
AcDbEntity
  8
FV
  6
Continuous
 62
     7
100
AcDbLine
 10
195.953089
 20
-171.440274
 30
0.0
 11
193.577732
 21
-167.537901
 31
0.0
  0
LINE
  5
2F
330
A
100
AcDbEntity
  8
FV
  6
Continuous
 62
     7
100
AcDbLine
 10
189.480383
 20
-171.448403
 30
0.0
 11
191.79673
 21
-167.537901
 31
0.0
  0
LINE
  5
30
330
A
100
AcDbEntity
  8
FV
  6
Continuous
 62
     7
100
AcDbLine
 10
193.955281
 20
-171.214168
 30
0.0
 11
193.657127
 21
-170.690635
 31
0.0
  0
LINE
  5
31
330
A
100
AcDbEntity
  8
FV
  6
Continuous
 62
     7
100
AcDbLine
 10
190.223311
 20
-171.200167
 30
0.0
 11
190.525127
 21
-170.690635
 31
0.0
  0
LINE
  5
32
330
A
100
AcDbEntity
  8
FV
  6
Continuous
 62
     7
100
AcDbLine
 10
188.775588
 20
-172.044438
 30
0.0
 11
190.528333
 21
-172.044438
 31
0.0
  0
LINE
  5
33
330
A
100
AcDbEntity
  8
FV
  6
Continuous
 62
     7
100
AcDbLine
 10
193.669495
 20
-172.044438
 30
0.0
 11
196.752784
 21
-172.044438
 31
0.0
  0
LINE
  5
34
330
A
100
AcDbEntity
  8
FV
  6
Continuous
 62
     7
100
AcDbLine
 10
191.79673
 20
-167.537901
 30
0.0
 11
193.577732
 21
-167.537901
 31
0.0
  0
LINE
  5
35
330
A
100
AcDbEntity
  8
FV
  6
Continuous
 62
     7
100
AcDbLine
 10
182.672769
 20
-167.537901
 30
0.0
 11
185.639537
 21
-167.537901
 31
0.0
  0
LINE
  5
36
330
A
100
AcDbEntity
  8
FV
  6
Continuous
 62
     7
100
AcDbLine
 10
188.818375
 20
-167.537901
 30
0.0
 11
190.537767
 21
-167.537901
 31
0.0
  0
LINE
  5
37
330
A
100
AcDbEntity
  8
FV
  6
Continuous
 62
     7
100
AcDbLine
 10
190.824077
 20
-170.185941
 30
0.0
 11
192.121907
 21
-167.994919
 31
0.0
  0
LINE
  5
38
330
A
100
AcDbEntity
  8
FV
  6
Continuous
 62
     7
100
AcDbLine
 10
193.369701
 20
-170.185941
 30
0.0
 11
192.121907
 21
-167.994919
 31
0.0
  0
LINE
  5
39
330
A
100
AcDbEntity
  8
FV
  6
Continuous
 62
     7
100
AcDbLine
 10
187.54209
 20
-172.044438
 30
0.0
 11
189.84588
 21
-168.068119
 31
0.0
  0
LINE
  5
3A
330
A
100
AcDbEntity
  8
FV
  6
Continuous
 62
     7
100
AcDbLine
 10
187.198346
 20
-171.578788
 30
0.0
 11
189.08808
 21
-168.317124
 31
0.0
  0
LINE
  5
3B
330
A
100
AcDbEntity
  8
FV
  6
Continuous
 62
     7
100
AcDbLine
 10
187.198346
 20
-171.578788
 30
0.0
 11
185.284343
 21
-168.351975
 31
0.0
  0
LINE
  5
3C
330
A
100
AcDbEntity
  8
FV
  6
Continuous
 62
     7
100
AcDbLine
 10
185.790593
 20
-172.044438
 30
0.0
 11
183.43537
 21
-168.073772
 31
0.0
  0
LINE
  5
3D
330
A
100
AcDbEntity
  8
FV
  6
Continuous
 62
     7
100
AcDbLine
 10
185.790593
 20
-172.044438
 30
0.0
 11
187.54209
 21
-172.044438
 31
0.0
  0
LINE
  5
3E
330
A
100
AcDbEntity
  8
FV
  6
Continuous
 62
     7
100
AcDbLine
 10
180.470877
 20
-170.766261
 30
0.0
 11
180.470877
 21
-168.099909
 31
0.0
  0
LINE
  5
3F
330
A
100
AcDbEntity
  8
FV
  6
Continuous
 62
     7
100
AcDbLine
 10
178.84066
 20
-171.187834
 30
0.0
 11
178.84066
 21
-168.100471
 31
0.0
  0
LINE
  5
40
330
A
100
AcDbEntity
  8
FV
  6
Continuous
 62
     7
100
AcDbLine
 10
176.600313
 20
-170.89623
 30
0.0
 11
176.600313
 21
-168.190224
 31
0.0
  0
LINE
  5
41
330
A
100
AcDbEntity
  8
FV
  6
Continuous
 62
     7
100
AcDbLine
 10
181.2486879999999
 20
-171.544072
 30
0.0
 11
183.037571
 21
-171.544072
 31
0.0
  0
LINE
  5
42
330
A
100
AcDbEntity
  8
FV
  6
Continuous
 62
     7
100
AcDbLine
 10
183.895736
 20
-172.044438
 30
0.0
 11
184.133372
 21
-170.659901
 31
0.0
  0
LINE
  5
43
330
A
100
AcDbEntity
  8
FV
  6
Continuous
 62
     7
100
AcDbLine
 10
178.266273
 20
-172.044438
 30
0.0
 11
183.895736
 21
-172.044438
 31
0.0
  0
LINE
  5
44
330
A
100
AcDbEntity
  8
FV
  6
Continuous
 62
     7
100
AcDbLine
 10
170.884523
 20
-167.537901
 30
0.0
 11
173.532156
 21
-167.537901
 31
0.0
  0
ARC
  5
45
330
A
100
AcDbEntity
  8
FV
  6
Continuous
 62
     7
100
AcDbCircle
 10
174.449329
 20
-162.92686
 30
0.0
 40
8.659302999999999
100
AcDbArc
 50
275.6515339999999
 51
277.965852
  0
ARC
  5
46
330
A
100
AcDbEntity
  8
FV
  6
Continuous
 62
     7
100
AcDbCircle
 10
174.449329
 20
-162.92686
 30
0.0
 40
9.311391
100
AcDbArc
 50
261.606419
 51
284.468842
  0
LINE
  5
47
330
A
100
AcDbEntity
  8
FV
  6
Continuous
 62
     7
100
AcDbLine
 10
176.139986
 20
-167.538257
 30
0.0
 11
177.880245
 21
-167.538257
 31
0.0
  0
LINE
  5
48
330
A
100
AcDbEntity
  8
FV
  6
Continuous
 62
     7
100
AcDbLine
 10
180.99861
 20
-167.562122
 30
0.0
 11
180.99861
 21
-167.556202
 31
0.0
  0
LINE
  5
49
330
A
100
AcDbEntity
  8
FV
  6
Continuous
 62
     7
100
AcDbLine
 10
178.309355
 20
-167.562049
 30
0.0
 11
178.309355
 21
-167.556202
 31
0.0
  0
ARC
  5
4A
330
A
100
AcDbEntity
  8
FV
  6
Continuous
 62
     7
100
AcDbCircle
 10
180.952857
 20
-167.562122
 30
0.0
 40
0.045754
100
AcDbArc
 50
289.395874
 51
0.0
  0
ARC
  5
4B
330
A
100
AcDbEntity
  8
FV
  6
Continuous
 62
     7
100
AcDbCircle
 10
180.980309
 20
-167.556202
 30
0.0
 40
0.018302
100
AcDbArc
 50
0.0
 51
90.0
  0
ARC
  5
4C
330
A
100
AcDbEntity
  8
FV
  6
Continuous
 62
     7
100
AcDbCircle
 10
178.327657
 20
-167.556202
 30
0.0
 40
0.018302
100
AcDbArc
 50
90.0
 51
180.0
  0
ARC
  5
4D
330
A
100
AcDbEntity
  8
FV
  6
Continuous
 62
     7
100
AcDbCircle
 10
178.355109
 20
-167.562049
 30
0.0
 40
0.045754
100
AcDbArc
 50
180.0
 51
250.724866
  0
LINE
  5
4E
330
A
100
AcDbEntity
  8
FV
  6
Continuous
 62
     7
100
AcDbLine
 10
178.340005
 20
-167.6052379999999
 30
0.0
 11
178.724289
 21
-167.876082
 31
0.0
  0
LINE
  5
4F
330
A
100
AcDbEntity
  8
FV
  6
Continuous
 62
     7
100
AcDbLine
 10
180.968051
 20
-167.605278
 30
0.0
 11
180.586524
 21
-167.876032
 31
0.0
  0
ARC
  5
50
330
A
100
AcDbEntity
  8
FV
  6
Continuous
 62
     7
100
AcDbCircle
 10
180.745399
 20
-168.099909
 30
0.0
 40
0.274522
100
AcDbArc
 50
125.361678
 51
180.0
  0
ARC
  5
51
330
A
100
AcDbEntity
  8
FV
  6
Continuous
 62
     7
100
AcDbCircle
 10
178.566138
 20
-168.100471
 30
0.0
 40
0.274522
100
AcDbArc
 50
0.0
 51
54.823662
  0
LINE
  5
52
330
A
100
AcDbEntity
  8
FV
  6
Continuous
 62
     7
100
AcDbLine
 10
174.321741
 20
-171.544072
 30
0.0
 11
175.30208
 21
-171.544072
 31
0.0
  0
LINE
  5
53
330
A
100
AcDbEntity
  8
FV
  6
Continuous
 62
     7
100
AcDbLine
 10
178.54933
 20
-171.74909
 30
0.0
 11
178.286815
 21
-171.93383
 31
0.0
  0
LINE
  5
54
330
A
100
AcDbEntity
  8
FV
  6
Continuous
 62
     7
100
AcDbLine
 10
178.247971
 20
-172.008665
 30
0.0
 11
178.247971
 21
-172.026137
 31
0.0
  0
ARC
  5
55
330
A
100
AcDbEntity
  8
FV
  6
Continuous
 62
     7
100
AcDbCircle
 10
178.266273
 20
-172.026137
 30
0.0
 40
0.018302
100
AcDbArc
 50
180.0
 51
270.0
  0
ARC
  5
56
330
A
100
AcDbEntity
  8
FV
  6
Continuous
 62
     7
100
AcDbCircle
 10
178.154356
 20
-171.187834
 30
0.0
 40
0.686304
100
AcDbArc
 50
305.135309
 51
0.0
  0
ARC
  5
57
330
A
100
AcDbEntity
  8
FV
  6
Continuous
 62
     7
100
AcDbCircle
 10
178.339478
 20
-172.008665
 30
0.0
 40
0.091507
100
AcDbArc
 50
125.135309
 51
180.0
  0
ARC
  5
58
330
A
100
AcDbEntity
  8
FV
  6
Continuous
 62
     7
100
AcDbCircle
 10
181.2486879999999
 20
-170.766261
 30
0.0
 40
0.7778109999999999
100
AcDbArc
 50
180.0
 51
270.0
  0
LINE
  5
59
330
A
100
AcDbEntity
  8
FV
  6
Continuous
 62
     7
100
AcDbLine
 10
177.382797
 20
-171.195536
 30
0.0
 11
177.382797
 21
-168.093417
 31
0.0
  0
ARC
  5
5A
330
A
100
AcDbEntity
  8
FV
  6
Continuous
 62
     7
100
AcDbCircle
 10
176.696494
 20
-171.195536
 30
0.0
 40
0.686304
100
AcDbArc
 50
305.135309
 51
0.0
  0
LINE
  5
5B
330
A
100
AcDbEntity
  8
FV
  6
Continuous
 62
     7
100
AcDbLine
 10
177.091468
 20
-171.756792
 30
0.0
 11
176.924812
 21
-171.874073
 31
0.0
  0
LINE
  5
5C
330
A
100
AcDbEntity
  8
FV
  6
Continuous
 62
     7
100
AcDbLine
 10
177.898547
 20
-167.58066
 30
0.0
 11
177.898547
 21
-167.556558
 31
0.0
  0
LINE
  5
5D
330
A
100
AcDbEntity
  8
FV
  6
Continuous
 62
     7
100
AcDbLine
 10
176.121685
 20
-167.58459
 30
0.0
 11
176.121685
 21
-167.556558
 31
0.0
  0
ARC
  5
5E
330
A
100
AcDbEntity
  8
FV
  6
Continuous
 62
     7
100
AcDbCircle
 10
177.657319
 20
-168.093417
 30
0.0
 40
0.274522
100
AcDbArc
 50
127.521218
 51
180.0
  0
LINE
  5
5F
330
A
100
AcDbEntity
  8
FV
  6
Continuous
 62
     7
100
AcDbLine
 10
177.49012
 20
-167.875686
 30
0.0
 11
177.878054
 21
-167.618808
 31
0.0
  0
ARC
  5
60
330
A
100
AcDbEntity
  8
FV
  6
Continuous
 62
     7
100
AcDbCircle
 10
177.880245
 20
-167.556558
 30
0.0
 40
0.018302
100
AcDbArc
 50
0.0
 51
90.0
  0
ARC
  5
61
330
A
100
AcDbEntity
  8
FV
  6
Continuous
 62
     7
100
AcDbCircle
 10
177.852793
 20
-167.58066
 30
0.0
 40
0.045754
100
AcDbArc
 50
303.511375
 51
0.0
  0
LINE
  5
62
330
A
100
AcDbEntity
  8
FV
  6
Continuous
 62
     7
100
AcDbLine
 10
176.140416
 20
-167.621512
 30
0.0
 11
176.412998
 21
-167.821009
 31
0.0
  0
ARC
  5
63
330
A
100
AcDbEntity
  8
FV
  6
Continuous
 62
     7
100
AcDbCircle
 10
176.167438
 20
-167.58459
 30
0.0
 40
0.045754
100
AcDbArc
 50
180.0
 51
233.800364
  0
ARC
  5
64
330
A
100
AcDbEntity
  8
FV
  6
Continuous
 62
     7
100
AcDbCircle
 10
176.139986
 20
-167.556558
 30
0.0
 40
0.018302
100
AcDbArc
 50
90.0
 51
180.0
  0
ARC
  5
65
330
A
100
AcDbEntity
  8
FV
  6
Continuous
 62
     7
100
AcDbCircle
 10
176.142777
 20
-168.190224
 30
0.0
 40
0.457536
100
AcDbArc
 50
0.0
 51
53.800364
  0
LINE
  5
66
330
A
100
AcDbEntity
  8
FV
  6
Continuous
 62
     7
100
AcDbLine
 10
170.866221
 20
-167.588641
 30
0.0
 11
170.866221
 21
-167.556202
 31
0.0
  0
LINE
  5
67
330
A
100
AcDbEntity
  8
FV
  6
Continuous
 62
     7
100
AcDbLine
 10
173.550457
 20
-167.588618
 30
0.0
 11
173.550457
 21
-167.556202
 31
0.0
  0
LINE
  5
68
330
A
100
AcDbEntity
  8
FV
  6
Continuous
 62
     7
100
AcDbLine
 10
170.878342
 20
-167.611414
 30
0.0
 11
171.191276
 21
-167.822096
 31
0.0
  0
LINE
  5
69
330
A
100
AcDbEntity
  8
FV
  6
Continuous
 62
     7
100
AcDbLine
 10
173.225469
 20
-167.82209
 30
0.0
 11
173.53834
 21
-167.6113879999999
 31
0.0
  0
ARC
  5
6A
330
A
100
AcDbEntity
  8
FV
  6
Continuous
 62
     7
100
AcDbCircle
 10
173.481043
 20
-168.201591
 30
0.0
 40
0.457536
100
AcDbArc
 50
123.958257
 51
180.0
  0
ARC
  5
6B
330
A
100
AcDbEntity
  8
FV
  6
Continuous
 62
     7
100
AcDbCircle
 10
170.935754
 20
-168.201632
 30
0.0
 40
0.457536
100
AcDbArc
 50
0.0
 51
56.04966899999999
  0
ARC
  5
6C
330
A
100
AcDbEntity
  8
FV
  6
Continuous
 62
     7
100
AcDbCircle
 10
173.523005
 20
-167.588618
 30
0.0
 40
0.027452
100
AcDbArc
 50
303.958257
 51
0.0
  0
ARC
  5
6D
330
A
100
AcDbEntity
  8
FV
  6
Continuous
 62
     7
100
AcDbCircle
 10
170.893673
 20
-167.588641
 30
0.0
 40
0.027452
100
AcDbArc
 50
180.0
 51
236.049669
  0
ARC
  5
6E
330
A
100
AcDbEntity
  8
FV
  6
Continuous
 62
     7
100
AcDbCircle
 10
173.532156
 20
-167.556202
 30
0.0
 40
0.018302
100
AcDbArc
 50
0.0
 51
90.0
  0
ARC
  5
6F
330
A
100
AcDbEntity
  8
FV
  6
Continuous
 62
     7
100
AcDbCircle
 10
170.884523
 20
-167.556202
 30
0.0
 40
0.018302
100
AcDbArc
 50
90.0
 51
180.0
  0
LINE
  5
70
330
A
100
AcDbEntity
  8
FV
  6
Continuous
 62
     7
100
AcDbLine
 10
176.477136
 20
-171.211826
 30
0.0
 11
176.504862
 21
-171.175933
 31
0.0
  0
LINE
  5
71
330
A
100
AcDbEntity
  8
FV
  6
Continuous
 62
     7
100
AcDbLine
 10
175.64936
 20
-171.502608
 30
0.0
 11
176.213022
 21
-171.379046
 31
0.0
  0
ARC
  5
72
330
A
100
AcDbEntity
  8
FV
  6
Continuous
 62
     7
100
AcDbCircle
 10
176.142777
 20
-170.89623
 30
0.0
 40
0.457536
100
AcDbArc
 50
322.314625
 51
0.0
  0
ARC
  5
73
330
A
100
AcDbEntity
  8
FV
  6
Continuous
 62
     7
100
AcDbCircle
 10
176.115051
 20
-170.932122
 30
0.0
 40
0.457536
100
AcDbArc
 50
282.364355
 51
322.314625
  0
ARC
  5
74
330
A
100
AcDbEntity
  8
FV
  6
Continuous
 62
     7
100
AcDbCircle
 10
175.174492
 20
-162.92686
 30
0.0
 40
8.659302999999999
100
AcDbArc
 50
262.034148
 51
264.348466
  0
LINE
  5
75
330
A
100
AcDbEntity
  8
FV
  6
Continuous
 62
     7
100
AcDbLine
 10
173.97446
 20
-171.502608
 30
0.0
 11
173.410798
 21
-171.379046
 31
0.0
  0
ARC
  5
76
330
A
100
AcDbEntity
  8
FV
  6
Continuous
 62
     7
100
AcDbCircle
 10
173.508769
 20
-170.932122
 30
0.0
 40
0.457536
100
AcDbArc
 50
217.685375
 51
257.635645
  0
ARC
  5
77
330
A
100
AcDbEntity
  8
FV
  6
Continuous
 62
     7
100
AcDbCircle
 10
173.481043
 20
-170.89623
 30
0.0
 40
0.457536
100
AcDbArc
 50
180.0
 51
217.685375
  0
LINE
  5
78
330
A
100
AcDbEntity
  8
FV
  6
Continuous
 62
     7
100
AcDbLine
 10
173.146685
 20
-171.211826
 30
0.0
 11
173.118959
 21
-171.175933
 31
0.0
  0
LINE
  5
79
330
A
100
AcDbEntity
  8
FV
  6
Continuous
 62
     7
100
AcDbLine
 10
182.6544679999999
 20
-167.584989
 30
0.0
 11
182.6544679999999
 21
-167.556202
 31
0.0
  0
LINE
  5
7A
330
A
100
AcDbEntity
  8
FV
  6
Continuous
 62
     7
100
AcDbLine
 10
185.657838
 20
-167.583075
 30
0.0
 11
185.657838
 21
-167.556202
 31
0.0
  0
LINE
  5
7B
330
A
100
AcDbEntity
  8
FV
  6
Continuous
 62
     7
100
AcDbLine
 10
182.669643
 20
-167.609543
 30
0.0
 11
183.246469
 21
-167.897956
 31
0.0
  0
LINE
  5
7C
330
A
100
AcDbEntity
  8
FV
  6
Continuous
 62
     7
100
AcDbLine
 10
185.4448
 20
-167.72483
 30
0.0
 11
185.644369
 21
-167.606699
 31
0.0
  0
ARC
  5
7D
330
A
100
AcDbEntity
  8
FV
  6
Continuous
 62
     7
100
AcDbCircle
 10
183.041853
 20
-168.307189
 30
0.0
 40
0.457536
100
AcDbArc
 50
30.674541
 51
63.434963
  0
ARC
  5
7E
330
A
100
AcDbEntity
  8
FV
  6
Continuous
 62
     7
100
AcDbCircle
 10
185.67786
 20
-168.118558
 30
0.0
 40
0.457536
100
AcDbArc
 50
120.622597
 51
210.674541
  0
ARC
  5
7F
330
A
100
AcDbEntity
  8
FV
  6
Continuous
 62
     7
100
AcDbCircle
 10
182.68192
 20
-167.584989
 30
0.0
 40
0.027452
100
AcDbArc
 50
180.0
 51
243.434963
  0
ARC
  5
80
330
A
100
AcDbEntity
  8
FV
  6
Continuous
 62
     7
100
AcDbCircle
 10
182.672769
 20
-167.556202
 30
0.0
 40
0.018302
100
AcDbArc
 50
90.0
 51
180.0
  0
ARC
  5
81
330
A
100
AcDbEntity
  8
FV
  6
Continuous
 62
     7
100
AcDbCircle
 10
185.639537
 20
-167.556202
 30
0.0
 40
0.018302
100
AcDbArc
 50
0.0
 51
90.0
  0
ARC
  5
82
330
A
100
AcDbEntity
  8
FV
  6
Continuous
 62
     7
100
AcDbCircle
 10
185.630386
 20
-167.583075
 30
0.0
 40
0.027452
100
AcDbArc
 50
300.622597
 51
0.0
  0
LINE
  5
83
330
A
100
AcDbEntity
  8
FV
  6
Continuous
 62
     7
100
AcDbLine
 10
190.5560679999999
 20
-167.585737
 30
0.0
 11
190.5560679999999
 21
-167.556202
 31
0.0
  0
LINE
  5
84
330
A
100
AcDbEntity
  8
FV
  6
Continuous
 62
     7
100
AcDbLine
 10
188.800073
 20
-167.587871
 30
0.0
 11
188.800073
 21
-167.556202
 31
0.0
  0
LINE
  5
85
330
A
100
AcDbEntity
  8
FV
  6
Continuous
 62
     7
100
AcDbLine
 10
190.020989
 20
-167.896746
 30
0.0
 11
190.5418629999999
 21
-167.609782
 31
0.0
  0
LINE
  5
86
330
A
100
AcDbEntity
  8
FV
  6
Continuous
 62
     7
100
AcDbLine
 10
188.811514
 20
-167.610171
 30
0.0
 11
188.959044
 21
-167.716098
 31
0.0
  0
ARC
  5
87
330
A
100
AcDbEntity
  8
FV
  6
Continuous
 62
     7
100
AcDbCircle
 10
190.528616
 20
-167.585737
 30
0.0
 40
0.027452
100
AcDbArc
 50
298.8516
 51
0.0
  0
ARC
  5
88
330
A
100
AcDbEntity
  8
FV
  6
Continuous
 62
     7
100
AcDbCircle
 10
188.827525
 20
-167.587871
 30
0.0
 40
0.027452
100
AcDbArc
 50
180.0
 51
234.321241
  0
ARC
  5
89
330
A
100
AcDbEntity
  8
FV
  6
Continuous
 62
     7
100
AcDbCircle
 10
190.537767
 20
-167.556202
 30
0.0
 40
0.018302
100
AcDbArc
 50
0.0
 51
90.0
  0
ARC
  5
8A
330
A
100
AcDbEntity
  8
FV
  6
Continuous
 62
     7
100
AcDbCircle
 10
188.818375
 20
-167.556202
 30
0.0
 40
0.018302
100
AcDbArc
 50
90.0
 51
180.0
  0
ARC
  5
8B
330
A
100
AcDbEntity
  8
FV
  6
Continuous
 62
     7
100
AcDbCircle
 10
190.241769
 20
-168.297489
 30
0.0
 40
0.457536
100
AcDbArc
 50
118.8516
 51
149.912962
  0
ARC
  5
8C
330
A
100
AcDbEntity
  8
FV
  6
Continuous
 62
     7
100
AcDbCircle
 10
188.69219
 20
-168.087755
 30
0.0
 40
0.457536
100
AcDbArc
 50
329.912962
 51
54.321241
  0
LINE
  5
8D
330
A
100
AcDbEntity
  8
FV
  6
Continuous
 62
     7
100
AcDbLine
 10
190.546635
 20
-172.026137
 30
0.0
 11
190.546635
 21
-171.974449
 31
0.0
  0
LINE
  5
8E
330
A
100
AcDbEntity
  8
FV
  6
Continuous
 62
     7
100
AcDbLine
 10
188.757287
 20
-172.026137
 30
0.0
 11
188.757287
 21
-171.97637
 31
0.0
  0
LINE
  5
8F
330
A
100
AcDbEntity
  8
FV
  6
Continuous
 62
     7
100
AcDbLine
 10
188.770175
 20
-171.9531
 30
0.0
 11
189.32946
 21
-171.603062
 31
0.0
  0
LINE
  5
90
330
A
100
AcDbEntity
  8
FV
  6
Continuous
 62
     7
100
AcDbLine
 10
190.333033
 20
-171.792122
 30
0.0
 11
190.536219
 21
-171.952923
 31
0.0
  0
ARC
  5
91
330
A
100
AcDbEntity
  8
FV
  6
Continuous
 62
     7
100
AcDbCircle
 10
190.6169679999999
 20
-171.433346
 30
0.0
 40
0.457536
100
AcDbArc
 50
149.3600439999999
 51
231.641872
  0
ARC
  5
92
330
A
100
AcDbEntity
  8
FV
  6
Continuous
 62
     7
100
AcDbCircle
 10
189.086725
 20
-171.215224
 30
0.0
 40
0.457536
100
AcDbArc
 50
302.041032
 51
329.360044
  0
ARC
  5
93
330
A
100
AcDbEntity
  8
FV
  6
Continuous
 62
     7
100
AcDbCircle
 10
190.519183
 20
-171.974449
 30
0.0
 40
0.027452
100
AcDbArc
 50
0.0
 51
51.641872
  0
ARC
  5
94
330
A
100
AcDbEntity
  8
FV
  6
Continuous
 62
     7
100
AcDbCircle
 10
188.784739
 20
-171.97637
 30
0.0
 40
0.027452
100
AcDbArc
 50
122.041032
 51
180.0
  0
ARC
  5
95
330
A
100
AcDbEntity
  8
FV
  6
Continuous
 62
     7
100
AcDbCircle
 10
190.528333
 20
-172.026137
 30
0.0
 40
0.018302
100
AcDbArc
 50
270.0
 51
0.0
  0
ARC
  5
96
330
A
100
AcDbEntity
  8
FV
  6
Continuous
 62
     7
100
AcDbCircle
 10
188.775588
 20
-172.026137
 30
0.0
 40
0.018302
100
AcDbArc
 50
180.0
 51
270.0
  0
LINE
  5
97
330
A
100
AcDbEntity
  8
FV
  6
Continuous
 62
     7
100
AcDbLine
 10
193.651194
 20
-172.026137
 30
0.0
 11
193.651194
 21
-171.973882
 31
0.0
  0
LINE
  5
98
330
A
100
AcDbEntity
  8
FV
  6
Continuous
 62
     7
100
AcDbLine
 10
196.122628
 20
-171.602843
 30
0.0
 11
196.75691
 21
-171.953333
 31
0.0
  0
LINE
  5
99
330
A
100
AcDbEntity
  8
FV
  6
Continuous
 62
     7
100
AcDbLine
 10
193.660893
 20
-171.952943
 30
0.0
 11
193.853577
 21
-171.789584
 31
0.0
  0
ARC
  5
9A
330
A
100
AcDbEntity
  8
FV
  6
Continuous
 62
     7
100
AcDbCircle
 10
193.669495
 20
-172.026137
 30
0.0
 40
0.018302
100
AcDbArc
 50
180.0
 51
270.0
  0
LINE
  5
9B
330
A
100
AcDbEntity
  8
FV
  6
Continuous
 62
     7
100
AcDbLine
 10
196.771085
 20
-172.026137
 30
0.0
 11
196.771085
 21
-171.977361
 31
0.0
  0
ARC
  5
9C
330
A
100
AcDbEntity
  8
FV
  6
Continuous
 62
     7
100
AcDbCircle
 10
196.752784
 20
-172.026137
 30
0.0
 40
0.018302
100
AcDbArc
 50
270.0
 51
0.0
  0
ARC
  5
9D
330
A
100
AcDbEntity
  8
FV
  6
Continuous
 62
     7
100
AcDbCircle
 10
196.743633
 20
-171.977361
 30
0.0
 40
0.027452
100
AcDbArc
 50
0.0
 51
61.07590699999999
  0
ARC
  5
9E
330
A
100
AcDbEntity
  8
FV
  6
Continuous
 62
     7
100
AcDbCircle
 10
193.678646
 20
-171.973882
 30
0.0
 40
0.027452
100
AcDbArc
 50
130.291555
 51
180.0
  0
ARC
  5
9F
330
A
100
AcDbEntity
  8
FV
  6
Continuous
 62
     7
100
AcDbCircle
 10
196.343916
 20
-171.202379
 30
0.0
 40
0.457536
100
AcDbArc
 50
211.328693
 51
241.075907
  0
ARC
  5
A0
330
A
100
AcDbEntity
  8
FV
  6
Continuous
 62
     7
100
AcDbCircle
 10
193.557699
 20
-171.440592
 30
0.0
 40
0.457536
100
AcDbArc
 50
310.291555
 51
29.661659
  0
ARC
  5
A1
330
A
100
AcDbEntity
  8
FV
  6
Continuous
 62
     7
100
AcDbCircle
 10
176.661496
 20
-171.499903
 30
0.0
 40
0.457536
100
AcDbArc
 50
284.468842
 51
305.135309
  0
LINE
  5
A2
330
A
100
AcDbEntity
  8
FV
  6
Continuous
 62
     7
100
AcDbLine
 10
171.471837
 20
-171.216804
 30
0.0
 11
171.428711
 21
-171.113672
 31
0.0
  0
LINE
  5
A3
330
A
100
AcDbEntity
  8
FV
  6
Continuous
 62
     7
100
AcDbLine
 10
172.410129
 20
-171.946752
 30
0.0
 11
173.030168
 21
-172.125508
 31
0.0
  0
LINE
  5
A4
330
A
100
AcDbEntity
  8
FV
  6
Continuous
 62
     7
100
AcDbLine
 10
171.625123
 20
-171.410517
 30
0.0
 11
172.268044
 21
-171.877351
 31
0.0
  0
ARC
  5
A5
330
A
100
AcDbEntity
  8
FV
  6
Continuous
 62
     7
100
AcDbCircle
 10
173.156912
 20
-171.685878
 30
0.0
 40
0.457536
100
AcDbArc
 50
253.917808
 51
261.606419
  0
ARC
  5
A6
330
A
100
AcDbEntity
  8
FV
  6
Continuous
 62
     7
100
AcDbCircle
 10
172.536873
 20
-171.507122
 30
0.0
 40
0.457536
100
AcDbArc
 50
234.0160490000001
 51
253.917808
  0
ARC
  5
A7
330
A
100
AcDbEntity
  8
FV
  6
Continuous
 62
     7
100
AcDbCircle
 10
171.850826
 20
-170.937156
 30
0.0
 40
0.457536
100
AcDbArc
 50
180.0
 51
202.693278
  0
ARC
  5
A8
330
A
100
AcDbEntity
  8
FV
  6
Continuous
 62
     7
100
AcDbCircle
 10
171.893952
 20
-171.040287
 30
0.0
 40
0.457536
100
AcDbArc
 50
202.693278
 51
234.0160490000001
  0
LINE
  5
A9
330
A
100
AcDbEntity
  8
FV
  6
Continuous
 62
     7
100
AcDbLine
 10
183.80219
 20
-171.131707
 30
0.0
 11
184.116706
 21
-170.653326
 31
0.0
  0
ARC
  5
AA
330
A
100
AcDbEntity
  8
FV
  6
Continuous
 62
     7
100
AcDbCircle
 10
183.037571
 20
-170.629
 30
0.0
 40
0.9150719999999999
100
AcDbArc
 50
270.0
 51
326.676654
  0
ARC
  5
AB
330
A
100
AcDbEntity
  8
FV
  6
Continuous
 62
     7
100
AcDbCircle
 10
184.124353
 20
-170.658353
 30
0.0
 40
0.00915
100
AcDbArc
 50
350.26092
 51
146.676654
  0
ELLIPSE
  5
AC
330
A
100
AcDbEntity
  8
FV
  6
Continuous
 62
     7
100
AcDbEllipse
 10
199.924818
 20
-169.556075
 30
0.0
 11
3.172930735277038
 21
-0.0000001920919516
 31
0.0
210
0.0
220
0.0
230
1.0
 40
0.799807
 41
0.7704730626730815
 42
5.971377141295467
  0
ELLIPSE
  5
AD
330
A
100
AcDbEntity
  8
FV
  6
Continuous
 62
     7
100
AcDbEllipse
 10
200.330789
 20
-169.556075
 30
0.0
 11
2.287679245496093
 21
-0.0000001615248652
 31
0.0
210
0.0
220
0.0
230
0.9999999999999998
 40
0.7216510000000002
 41
0.4426733724477124
 42
5.79210961745623
  0
LINE
  5
AE
330
A
100
AcDbEntity
  8
FV
  6
Continuous
 62
     7
100
AcDbLine
 10
203.051291
 20
-167.036644
 30
0.0
 11
203.051291
 21
-168.848898
 31
0.0
  0
LINE
  5
AF
330
A
100
AcDbEntity
  8
FV
  6
Continuous
 62
     7
100
AcDbLine
 10
202.994695
 20
-167.0183429999999
 30
0.0
 11
203.03299
 21
-167.0183429999999
 31
0.0
  0
ARC
  5
B0
330
A
100
AcDbEntity
  8
FV
  6
Continuous
 62
     7
100
AcDbCircle
 10
203.03299
 20
-167.036644
 30
0.0
 40
0.018302
100
AcDbArc
 50
0.0
 51
90.0
  0
ARC
  5
B1
330
A
100
AcDbEntity
  8
FV
  6
Continuous
 62
     7
100
AcDbCircle
 10
202.994695
 20
-167.036644
 30
0.0
 40
0.018302
100
AcDbArc
 50
90.0
 51
150.00044
  0
LINE
  5
B2
330
A
100
AcDbEntity
  8
FV
  6
Continuous
 62
     7
100
AcDbLine
 10
202.781841
 20
-167.621376
 30
0.0
 11
202.981881
 21
-167.0183429999999
 31
0.0
  0
ARC
  5
B3
330
A
100
AcDbEntity
  8
FV
  6
Continuous
 62
     7
100
AcDbCircle
 10
202.434428
 20
-167.506132
 30
0.0
 40
0.366029
100
AcDbArc
 50
230.509944
 51
341.648153
  0
LINE
  5
B4
330
A
100
AcDbEntity
  8
FV
  6
Continuous
 62
     7
100
AcDbLine
 10
202.397958
 20
-168.848898
 30
0.0
 11
203.049059
 21
-168.848898
 31
0.0
  0
LINE
  5
B5
330
A
100
AcDbEntity
  8
FV
  6
Continuous
 62
     7
100
AcDbLine
 10
202.348124
 20
-170.334601
 30
0.0
 11
202.944752
 21
-170.334601
 31
0.0
  0
LINE
  5
B6
330
A
100
AcDbEntity
  8
FV
  6
Continuous
 62
     7
100
AcDbLine
 10
216.5
 20
-200.0
 30
0.0
 11
216.5
 21
-189.0
 31
0.0
  0
LINE
  5
B7
330
A
100
AcDbEntity
  8
FV
  6
Continuous
 62
     7
100
AcDbLine
 10
205.5
 20
-200.0
 30
0.0
 11
279.5
 21
-200.0
 31
0.0
  0
LINE
  5
B8
330
A
100
AcDbEntity
  8
FV
  6
Continuous
 62
     7
100
AcDbLine
 10
279.5
 20
-200.0
 30
0.0
 11
279.5
 21
-164.0
 31
0.0
  0
LINE
  5
B9
330
A
100
AcDbEntity
  8
FV
  6
Continuous
 62
     7
100
AcDbLine
 10
205.5
 20
-189.0
 30
0.0
 11
279.5
 21
-189.0
 31
0.0
  0
LINE
  5
BA
330
A
100
AcDbEntity
  8
FV
  6
Continuous
 62
     7
100
AcDbLine
 10
168.5
 20
-164.0
 30
0.0
 11
279.5
 21
-164.0
 31
0.0
  0
LINE
  5
BB
330
A
100
AcDbEntity
  8
FV
  6
Continuous
 62
     7
100
AcDbLine
 10
205.5
 20
-164.0
 30
0.0
 11
205.5
 21
-200.0
 31
0.0
  0
LINE
  5
BC
330
A
100
AcDbEntity
  8
FV
  6
Continuous
 62
     7
100
AcDbLine
 10
205.5
 20
-200.0
 30
0.0
 11
205.5
 21
-189.0
 31
0.0
  0
LINE
  5
BD
330
A
100
AcDbEntity
  8
FV
  6
Continuous
 62
     7
100
AcDbLine
 10
168.5
 20
-164.0
 30
0.0
 11
168.5
 21
-175.0
 31
0.0
  0
LINE
  5
BE
330
A
100
AcDbEntity
  8
FV
  6
Continuous
 62
     7
100
AcDbLine
 10
168.5
 20
-175.0
 30
0.0
 11
205.5
 21
-175.0
 31
0.0
  0
MTEXT
  5
BF
330
A
100
AcDbEntity
  8
FV
  6
Continuous
 62
     7
100
AcDbMText
 10
208.240261
 20
-166.127151
 30
0.0
 40
2.5
 41
0.0
 71
     1
 72
     1
  1
\W0.776;\A1;TITLE
 73
     1
 44
1.0
  0
MTEXT
  5
C0
330
A
100
AcDbEntity
  8
FV
  6
Continuous
 62
     7
100
AcDbMText
 10
207.668141
 20
-194.445244
 30
0.0
 40
2.339710999999998
 41
0.0
 71
     4
 72
     1
  1
\W0.821;\A1;DWG\PNｏ.
 73
     1
 44
1.0
  0
MTEXT
  5
C1
330
A
100
AcDbEntity
  8
FV
  6
Continuous
 62
     7
100
AcDbMText
 10
247.686619
 20
-194.397903
 30
0.0
 40
3.5
 41
0.0
 71
     5
 72
     1
  1
\W1.134;GA0122-101-01A
 73
     1
 44
1.0
  0
MTEXT
  5
C2
330
A
100
AcDbEntity
  8
FV
  6
Continuous
 62
     7
100
AcDbMText
 10
214.000548
 20
-174.382245
 30
0.0
 40
4.0
 41
0.0
 71
     1
 72
     1
  1
\W1.059;GP-1GRY ATYPE
 73
     1
 44
1.0
  0
POINT
  5
10E6
330
A
100
AcDbEntity
  8
25
100
AcDbPoint
 10
189.0926669660371
 20
8.66767861327537
 30
0.0
  0
LINE
  5
10E7
330
A
100
AcDbEntity
  8
25
100
AcDbLine
 10
-153.4073170339629
 20
153.2831137219278
 30
0.0
 11
-153.4073170339629
 21
139.2831137219278
 31
0.0
  0
LINE
  5
10E8
330
A
100
AcDbEntity
  8
25
100
AcDbLine
 10
-142.4073170339629
 20
153.2831137219278
 30
0.0
 11
-142.4073170339629
 21
139.2831137219278
 31
0.0
  0
LINE
  5
10E9
330
A
100
AcDbEntity
  8
25
100
AcDbLine
 10
-155.4073170339629
 20
153.2831137219278
 30
0.0
 11
-155.4073170339629
 21
139.2831137219278
 31
0.0
  0
LINE
  5
10EA
330
A
100
AcDbEntity
  8
25
100
AcDbLine
 10
-140.4073170339629
 20
153.2831137219278
 30
0.0
 11
-140.4073170339629
 21
139.2831137219278
 31
0.0
  0
ARC
  5
10EB
330
A
100
AcDbEntity
  8
25
100
AcDbCircle
 10
-141.4073170339629
 20
153.2831137219278
 30
0.0
 40
1.0
100
AcDbArc
 50
0.0
 51
89.99998200000081
  0
ARC
  5
10EC
330
A
100
AcDbEntity
  8
25
100
AcDbCircle
 10
-141.4073170339629
 20
153.2831137219278
 30
0.0
 40
1.0
100
AcDbArc
 50
89.99998200000081
 51
179.9999640000016
  0
ARC
  5
10ED
330
A
100
AcDbEntity
  8
25
100
AcDbCircle
 10
-154.4073170339629
 20
153.2831137219278
 30
0.0
 40
1.0
100
AcDbArc
 50
0.0
 51
89.99998200000081
  0
ARC
  5
10EE
330
A
100
AcDbEntity
  8
25
100
AcDbCircle
 10
-154.4073170339629
 20
153.2831137219278
 30
0.0
 40
1.0
100
AcDbArc
 50
89.99998200000081
 51
179.9999640000016
  0
CIRCLE
  5
10EF
330
A
100
AcDbEntity
  8
25
100
AcDbCircle
 10
156.092666966037
 20
8.66767861327537
 30
0.0
 40
33.0
  0
ARC
  5
10F0
330
A
100
AcDbEntity
  8
25
100
AcDbCircle
 10
-46.90731703396295
 20
-2.662223386724575
 30
0.0
 40
1.0
100
AcDbArc
 50
100.6195049999964
 51
179.9998549999984
  0
ARC
  5
10F1
330
A
100
AcDbEntity
  8
25
100
AcDbCircle
 10
-46.90731703396295
 20
-8.002357386724611
 30
0.0
 40
1.0
100
AcDbArc
 50
179.9996359999972
 51
259.3802040000008
  0
ARC
  5
10F2
330
A
100
AcDbEntity
  8
25
100
AcDbCircle
 10
-121.2372430339628
 20
78.28311372192786
 30
0.0
 40
1.0
100
AcDbArc
 50
270.0004550000002
 51
349.3804250000009
  0
ARC
  5
10F3
330
A
100
AcDbEntity
  8
25
100
AcDbCircle
 10
-126.5773770339629
 20
78.28311372192786
 30
0.0
 40
1.0
100
AcDbArc
 50
190.6197230000042
 51
270.000290999998
  0
ARC
  5
10F4
330
A
100
AcDbEntity
  8
25
100
AcDbCircle
 10
-169.2372430339628
 20
78.28311372192786
 30
0.0
 40
1.0
100
AcDbArc
 50
270.0001270000023
 51
349.3803639999967
  0
ARC
  5
10F5
330
A
100
AcDbEntity
  8
25
100
AcDbCircle
 10
-174.5773770339629
 20
78.28311372192786
 30
0.0
 40
1.0
100
AcDbArc
 50
190.6198330000021
 51
270.0008920000012
  0
ARC
  5
10F6
330
A
100
AcDbEntity
  8
25
100
AcDbCircle
 10
-113.9073170339629
 20
175.2831137219278
 30
0.0
 40
3.0
100
AcDbArc
 50
0.0
 51
89.99998200000081
  0
ARC
  5
10F7
330
A
100
AcDbEntity
  8
25
100
AcDbCircle
 10
-181.9073170339629
 20
175.2831137219278
 30
0.0
 40
3.0
100
AcDbArc
 50
89.99998200000081
 51
179.9999640000016
  0
ARC
  5
10F8
330
A
100
AcDbEntity
  8
25
100
AcDbCircle
 10
-100.7475730339629
 20
87.28311372192784
 30
0.0
 40
2.0
100
AcDbArc
 50
270.0002370000004
 51
355.236380000004
  0
ARC
  5
10F9
330
A
100
AcDbEntity
  8
25
100
AcDbCircle
 10
-195.0670460339629
 20
87.28311372192784
 30
0.0
 40
2.0
100
AcDbArc
 50
184.7636829999992
 51
270.0001270000023
  0
ARC
  5
10FA
330
A
100
AcDbEntity
  8
25
100
AcDbCircle
 10
200.0926669660371
 20
62.66767161327527
 30
0.0
 40
4.0
100
AcDbArc
 50
0.0
 51
89.99998200000081
  0
ARC
  5
10FB
330
A
100
AcDbEntity
  8
25
100
AcDbCircle
 10
202.0926669660371
 20
64.66767161327528
 30
0.0
 40
4.0
100
AcDbArc
 50
0.0
 51
89.99998200000081
  0
ARC
  5
10FC
330
A
100
AcDbEntity
  8
25
100
AcDbCircle
 10
110.0926669660371
 20
64.66767161327528
 30
0.0
 40
4.0
100
AcDbArc
 50
89.99998200000081
 51
179.9999640000016
  0
ARC
  5
10FD
330
A
100
AcDbEntity
  8
25
100
AcDbCircle
 10
112.0926669660371
 20
62.66767161327527
 30
0.0
 40
4.0
100
AcDbArc
 50
89.99998200000081
 51
179.9999640000016
  0
ARC
  5
10FE
330
A
100
AcDbEntity
  8
25
100
AcDbCircle
 10
202.0926669660371
 20
-27.33231338672465
 30
0.0
 40
4.0
100
AcDbArc
 50
270.0000179999992
 51
0.0
  0
ARC
  5
10FF
330
A
100
AcDbEntity
  8
25
100
AcDbCircle
 10
200.0926669660371
 20
-25.33231338672465
 30
0.0
 40
4.0
100
AcDbArc
 50
270.0000179999992
 51
0.0
  0
ARC
  5
1100
330
A
100
AcDbEntity
  8
25
100
AcDbCircle
 10
112.0926669660371
 20
-25.33231338672465
 30
0.0
 40
4.0
100
AcDbArc
 50
179.9999640000016
 51
270.0000010000014
  0
ARC
  5
1101
102
{ACAD_REACTORS
330
11E2
102
}
330
A
100
AcDbEntity
  8
25
100
AcDbCircle
 10
51.09266696603707
 20
43.6676716132754
 30
0.0
 40
2.0
100
AcDbArc
 50
0.0
 51
89.99998200000081
  0
ARC
  5
1102
102
{ACAD_REACTORS
330
11E2
102
}
330
A
100
AcDbEntity
  8
25
100
AcDbCircle
 10
51.09266696603707
 20
-26.33231338672465
 30
0.0
 40
2.0
100
AcDbArc
 50
270.0000179999992
 51
0.0
  0
CIRCLE
  5
1103
330
A
100
AcDbEntity
  8
25
100
AcDbCircle
 10
119.0926669660369
 20
-18.33231338672465
 30
0.0
 40
2.0
  0
CIRCLE
  5
1104
330
A
100
AcDbEntity
  8
25
100
AcDbCircle
 10
193.0926669660371
 20
-18.33231338672465
 30
0.0
 40
2.0
  0
CIRCLE
  5
1105
330
A
100
AcDbEntity
  8
25
100
AcDbCircle
 10
119.0926669660369
 20
55.66767161327526
 30
0.0
 40
2.0
  0
CIRCLE
  5
1106
330
A
100
AcDbEntity
  8
25
100
AcDbCircle
 10
193.0926669660371
 20
55.66767161327526
 30
0.0
 40
2.0
  0
CIRCLE
  5
1107
330
A
100
AcDbEntity
  8
25
100
AcDbCircle
 10
119.0926669660369
 20
55.66767161327526
 30
0.0
 40
6.0
  0
CIRCLE
  5
1108
102
{ACAD_REACTORS
330
11DC
102
}
330
A
100
AcDbEntity
  8
25
100
AcDbCircle
 10
193.0926669660371
 20
55.66767161327526
 30
0.0
 40
6.0
  0
CIRCLE
  5
1109
102
{ACAD_REACTORS
330
11DC
330
11DF
102
}
330
A
100
AcDbEntity
  8
25
100
AcDbCircle
 10
193.0926669660371
 20
-18.33231338672465
 30
0.0
 40
6.0
  0
CIRCLE
  5
110A
102
{ACAD_REACTORS
330
11DF
102
}
330
A
100
AcDbEntity
  8
25
100
AcDbCircle
 10
119.0926669660369
 20
-18.33231338672465
 30
0.0
 40
6.0
  0
CIRCLE
  5
110B
330
A
100
AcDbEntity
  8
25
100
AcDbCircle
 10
156.092666966037
 20
8.66767861327537
 30
0.0
 40
37.0
  0
ARC
  5
110C
330
A
100
AcDbEntity
  8
25
100
AcDbCircle
 10
-37.90731703396295
 20
-28.49204238672462
 30
0.0
 40
2.0
100
AcDbArc
 50
179.9998549999984
 51
265.236354000002
  0
ARC
  5
110D
330
A
100
AcDbEntity
  8
25
100
AcDbCircle
 10
-37.90731703396295
 20
65.82740061327524
 30
0.0
 40
2.0
100
AcDbArc
 50
94.7636290000001
 51
180.0001279999973
  0
ARC
  5
110E
330
A
100
AcDbEntity
  8
25
100
AcDbCircle
 10
-101.9073170339629
 20
-27.33231338672465
 30
0.0
 40
4.0
100
AcDbArc
 50
270.0000179999992
 51
0.0
  0
ARC
  5
110F
330
A
100
AcDbEntity
  8
25
100
AcDbCircle
 10
-101.9073170339629
 20
64.66767161327528
 30
0.0
 40
4.0
100
AcDbArc
 50
0.0
 51
89.99998200000081
  0
ARC
  5
1110
330
A
100
AcDbEntity
  8
25
100
AcDbCircle
 10
-193.9073170339628
 20
64.66767161327528
 30
0.0
 40
4.0
100
AcDbArc
 50
89.99998200000081
 51
179.9999640000016
  0
ARC
  5
1111
102
{ACAD_REACTORS
330
11C5
102
}
330
A
100
AcDbEntity
  8
25
100
AcDbCircle
 10
-193.9073170339628
 20
-27.33231338672465
 30
0.0
 40
4.0
100
AcDbArc
 50
179.9999640000016
 51
270.0000010000014
  0
ARC
  5
1112
330
A
100
AcDbEntity
  8
25
100
AcDbCircle
 10
-191.9073170339629
 20
-25.33231338672465
 30
0.0
 40
4.0
100
AcDbArc
 50
179.9999640000016
 51
270.0000010000014
  0
ARC
  5
1113
330
A
100
AcDbEntity
  8
25
100
AcDbCircle
 10
-103.9073170339629
 20
-25.33231338672465
 30
0.0
 40
4.0
100
AcDbArc
 50
270.0000179999992
 51
0.0
  0
ARC
  5
1114
330
A
100
AcDbEntity
  8
25
100
AcDbCircle
 10
-103.9073170339629
 20
62.66767161327527
 30
0.0
 40
4.0
100
AcDbArc
 50
0.0
 51
89.99998200000081
  0
ARC
  5
1115
330
A
100
AcDbEntity
  8
25
100
AcDbCircle
 10
-191.9073170339629
 20
62.66767161327527
 30
0.0
 40
4.0
100
AcDbArc
 50
89.99998200000081
 51
179.9999640000016
  0
ARC
  5
1116
330
A
100
AcDbEntity
  8
25
100
AcDbCircle
 10
-147.9073170339629
 20
-5.332313386724648
 30
0.0
 40
55.0
100
AcDbArc
 50
44.99999400000485
 51
134.9999459999999
  0
CIRCLE
  5
1117
102
{ACAD_REACTORS
330
11BC
102
}
330
A
100
AcDbEntity
  8
25
100
AcDbCircle
 10
-147.9073170339629
 20
-18.33231338672465
 30
0.0
 40
3.0
  0
CIRCLE
  5
1118
330
A
100
AcDbEntity
  8
25
100
AcDbCircle
 10
-171.9073170339629
 20
-5.332313386724648
 30
0.0
 40
3.5
  0
CIRCLE
  5
1119
330
A
100
AcDbEntity
  8
25
100
AcDbCircle
 10
-123.9073170339629
 20
-5.332313386724648
 30
0.0
 40
3.5
  0
CIRCLE
  5
111A
102
{ACAD_REACTORS
330
11B9
330
11BF
102
}
330
A
100
AcDbEntity
  8
25
100
AcDbCircle
 10
-171.9073170339629
 20
-5.332313386724648
 30
0.0
 40
5.0
  0
CIRCLE
  5
111B
102
{ACAD_REACTORS
330
11BF
102
}
330
A
100
AcDbEntity
  8
25
100
AcDbCircle
 10
-123.9073170339629
 20
-5.332313386724648
 30
0.0
 40
5.0
  0
LINE
  5
111C
330
A
100
AcDbEntity
  8
25
100
AcDbLine
 10
-39.90731103396297
 20
-10.33230238672456
 30
0.0
 11
-47.09159203396291
 21
-8.985236386724636
 31
0.0
  0
LINE
  5
111D
330
A
100
AcDbEntity
  8
25
100
AcDbLine
 10
-39.90730403396289
 20
-0.3323103867245436
 30
0.0
 11
-47.0915900339629
 21
-1.679350386724649
 31
0.0
  0
LINE
  5
111E
330
A
100
AcDbEntity
  8
25
100
AcDbLine
 10
14.09268296603704
 20
45.66767161327539
 30
0.0
 11
14.09268296603704
 21
-28.33231338672465
 31
0.0
  0
LINE
  5
111F
330
A
100
AcDbEntity
  8
25
100
AcDbLine
 10
-184.9073170339628
 20
139.2831137219278
 30
0.0
 11
-110.9073170339629
 21
139.2831137219278
 31
0.0
  0
LINE
  5
1120
330
A
100
AcDbEntity
  8
25
100
AcDbLine
 10
-180.9073170339629
 20
181.2831137219278
 30
0.0
 11
-180.9073170339629
 21
178.2831137219278
 31
0.0
  0
LINE
  5
1121
330
A
100
AcDbEntity
  8
25
100
AcDbLine
 10
-114.9073170339629
 20
181.2831137219278
 30
0.0
 11
-114.9073170339629
 21
178.2831137219278
 31
0.0
  0
LINE
  5
1122
330
A
100
AcDbEntity
  8
25
100
AcDbLine
 10
-181.9073170339629
 20
178.2831137219278
 30
0.0
 11
-113.9073170339629
 21
178.2831137219278
 31
0.0
  0
LINE
  5
1123
330
A
100
AcDbEntity
  8
25
100
AcDbLine
 10
-197.0601400339628
 20
87.11700872192805
 30
0.0
 11
-197.9073160339628
 21
97.28312672192815
 31
0.0
  0
LINE
  5
1124
330
A
100
AcDbEntity
  8
25
100
AcDbLine
 10
-98.75448903396296
 20
87.11701772192792
 30
0.0
 11
-97.90731503396296
 21
97.28310472192802
 31
0.0
  0
LINE
  5
1125
330
A
100
AcDbEntity
  8
25
100
AcDbLine
 10
-126.5773770339629
 20
77.28311372192786
 30
0.0
 11
-121.2372430339628
 21
77.28311372192786
 31
0.0
  0
LINE
  5
1126
330
A
100
AcDbEntity
  8
25
100
AcDbLine
 10
-175.5602500339628
 20
78.09880472192809
 30
0.0
 11
-176.907305033963
 21
85.28310372192811
 31
0.0
  0
LINE
  5
1127
330
A
100
AcDbEntity
  8
25
100
AcDbLine
 10
-168.2543620339629
 20
78.0988117219282
 30
0.0
 11
-166.9073090339628
 21
85.28309472192825
 31
0.0
  0
LINE
  5
1128
330
A
100
AcDbEntity
  8
25
100
AcDbLine
 10
-127.5602450339629
 20
78.09881472192784
 30
0.0
 11
-128.9073010339627
 21
85.283112721928
 31
0.0
  0
LINE
  5
1129
330
A
100
AcDbEntity
  8
25
100
AcDbLine
 10
-120.2543700339629
 20
78.09881972192818
 30
0.0
 11
-118.9073170339629
 21
85.28310372192811
 31
0.0
  0
LINE
  5
112A
330
A
100
AcDbEntity
  8
25
100
AcDbLine
 10
-112.9073170339629
 20
112.2831137219278
 30
0.0
 11
-108.9073170339629
 21
112.2831137219278
 31
0.0
  0
LINE
  5
112B
330
A
100
AcDbEntity
  8
25
100
AcDbLine
 10
-116.9073170339629
 20
98.28311372192786
 30
0.0
 11
-104.9073170339629
 21
98.28311372192786
 31
0.0
  0
LINE
  5
112C
330
A
100
AcDbEntity
  8
25
100
AcDbLine
 10
-186.9073170339628
 20
112.2831137219278
 30
0.0
 11
-182.9073170339628
 21
112.2831137219278
 31
0.0
  0
LINE
  5
112D
330
A
100
AcDbEntity
  8
25
100
AcDbLine
 10
-186.9073170339628
 20
112.2831137219278
 30
0.0
 11
-186.9073170339628
 21
98.28311372192786
 31
0.0
  0
LINE
  5
112E
330
A
100
AcDbEntity
  8
25
100
AcDbLine
 10
-182.9073170339628
 20
112.2831137219278
 30
0.0
 11
-182.9073170339628
 21
98.28311372192786
 31
0.0
  0
LINE
  5
112F
330
A
100
AcDbEntity
  8
25
100
AcDbLine
 10
-190.9073170339628
 20
98.28311372192786
 30
0.0
 11
-190.9073170339628
 21
97.28311372192784
 31
0.0
  0
LINE
  5
1130
330
A
100
AcDbEntity
  8
25
100
AcDbLine
 10
-178.9073170339629
 20
98.28311372192786
 30
0.0
 11
-178.9073170339629
 21
97.28311372192784
 31
0.0
  0
LINE
  5
1131
330
A
100
AcDbEntity
  8
25
100
AcDbLine
 10
-116.9073170339629
 20
98.28311372192786
 30
0.0
 11
-116.9073170339629
 21
97.28311372192784
 31
0.0
  0
LINE
  5
1132
330
A
100
AcDbEntity
  8
25
100
AcDbLine
 10
-104.9073170339629
 20
98.28311372192786
 30
0.0
 11
-104.9073170339629
 21
97.28311372192784
 31
0.0
  0
LINE
  5
1133
330
A
100
AcDbEntity
  8
25
100
AcDbLine
 10
-112.9073170339629
 20
112.2831137219278
 30
0.0
 11
-112.9073170339629
 21
98.28311372192786
 31
0.0
  0
LINE
  5
1134
330
A
100
AcDbEntity
  8
25
100
AcDbLine
 10
-108.9073170339629
 20
112.2831137219278
 30
0.0
 11
-108.9073170339629
 21
98.28311372192786
 31
0.0
  0
LINE
  5
1135
330
A
100
AcDbEntity
  8
25
100
AcDbLine
 10
-190.9073170339628
 20
98.28311372192786
 30
0.0
 11
-178.9073170339629
 21
98.28311372192786
 31
0.0
  0
LINE
  5
1136
330
A
100
AcDbEntity
  8
25
100
AcDbLine
 10
-110.9073170339629
 20
175.2831137219278
 30
0.0
 11
-110.9073170339629
 21
112.2831137219278
 31
0.0
  0
LINE
  5
1137
330
A
100
AcDbEntity
  8
25
100
AcDbLine
 10
-184.9073170339628
 20
175.2831137219278
 30
0.0
 11
-184.9073170339628
 21
112.2831137219278
 31
0.0
  0
LINE
  5
1138
330
A
100
AcDbEntity
  8
25
100
AcDbLine
 10
-110.9073170339629
 20
175.2831137219278
 30
0.0
 11
-110.9073170339629
 21
112.2831137219278
 31
0.0
  0
LINE
  5
1139
330
A
100
AcDbEntity
  8
25
100
AcDbLine
 10
-197.9073170339629
 20
97.28311372192784
 30
0.0
 11
-97.90731703396289
 21
97.28311372192784
 31
0.0
  0
LINE
  5
113A
330
A
100
AcDbEntity
  8
25
100
AcDbLine
 10
-195.0670460339629
 20
85.28311372192787
 30
0.0
 11
-100.7475730339629
 21
85.28311372192787
 31
0.0
  0
LINE
  5
113B
330
A
100
AcDbEntity
  8
25
100
AcDbLine
 10
-180.9073170339629
 20
181.2831137219278
 30
0.0
 11
-114.9073170339629
 21
181.2831137219278
 31
0.0
  0
LINE
  5
113C
330
A
100
AcDbEntity
  8
25
100
AcDbLine
 10
-174.5773770339629
 20
77.28311372192786
 30
0.0
 11
-169.2372430339628
 21
77.28311372192786
 31
0.0
  0
LINE
  5
113D
330
A
100
AcDbEntity
  8
25
100
AcDbLine
 10
108.092666966037
 20
62.66767161327527
 30
0.0
 11
108.092666966037
 21
-25.33231338672465
 31
0.0
  0
LINE
  5
113E
330
A
100
AcDbEntity
  8
25
100
AcDbLine
 10
112.0926669660371
 20
66.66767161327527
 30
0.0
 11
200.0926669660371
 21
66.66767161327527
 31
0.0
  0
LINE
  5
113F
330
A
100
AcDbEntity
  8
25
100
AcDbLine
 10
204.0926669660371
 20
62.66767161327527
 30
0.0
 11
204.0926669660371
 21
-25.33231338672465
 31
0.0
  0
LINE
  5
1140
330
A
100
AcDbEntity
  8
25
100
AcDbLine
 10
112.0926669660371
 20
-29.33231338672465
 30
0.0
 11
200.0926669660371
 21
-29.33231338672465
 31
0.0
  0
LINE
  5
1141
330
A
100
AcDbEntity
  8
25
100
AcDbLine
 10
53.09266696603708
 20
-24.33231338672465
 30
0.0
 11
56.09266696603707
 21
-24.33231338672465
 31
0.0
  0
LINE
  5
1142
330
A
100
AcDbEntity
  8
25
100
AcDbLine
 10
53.09266696603708
 20
41.66767161327538
 30
0.0
 11
56.09266696603707
 21
41.66767161327538
 31
0.0
  0
LINE
  5
1143
330
A
100
AcDbEntity
  8
25
100
AcDbLine
 10
53.09266696603708
 20
43.6676716132754
 30
0.0
 11
53.09266696603708
 21
-26.33231338672465
 31
0.0
  0
LINE
  5
1144
330
A
100
AcDbEntity
  8
25
100
AcDbLine
 10
-12.90731703396295
 20
-16.33231338672465
 30
0.0
 11
-12.90731703396295
 21
-20.33231338672465
 31
0.0
  0
LINE
  5
1145
330
A
100
AcDbEntity
  8
25
100
AcDbLine
 10
-27.90731703396295
 20
49.66767161327538
 30
0.0
 11
-26.90731703396295
 21
49.66767161327538
 31
0.0
  0
LINE
  5
1146
102
{ACAD_REACTORS
330
11CB
102
}
330
A
100
AcDbEntity
  8
25
100
AcDbLine
 10
-27.90731703396295
 20
68.66767161327527
 30
0.0
 11
-27.90731703396295
 21
-31.33231338672465
 31
0.0
  0
LINE
  5
1147
330
A
100
AcDbEntity
  8
25
100
AcDbLine
 10
-26.90731703396295
 20
-12.33231338672465
 30
0.0
 11
-26.90731703396295
 21
-24.33231338672465
 31
0.0
  0
LINE
  5
1148
330
A
100
AcDbEntity
  8
25
100
AcDbLine
 10
-26.90731703396295
 20
-20.33231338672465
 30
0.0
 11
-12.90731703396295
 21
-20.33231338672465
 31
0.0
  0
LINE
  5
1149
330
A
100
AcDbEntity
  8
25
100
AcDbLine
 10
-26.90731703396295
 20
-16.33231338672465
 30
0.0
 11
-12.90731703396295
 21
-16.33231338672465
 31
0.0
  0
LINE
  5
114A
330
A
100
AcDbEntity
  8
25
100
AcDbLine
 10
-26.90731703396295
 20
53.66767161327526
 30
0.0
 11
-12.90731703396295
 21
53.66767161327526
 31
0.0
  0
LINE
  5
114B
330
A
100
AcDbEntity
  8
25
100
AcDbLine
 10
-26.90731703396295
 20
57.66767161327527
 30
0.0
 11
-12.90731703396295
 21
57.66767161327527
 31
0.0
  0
LINE
  5
114C
330
A
100
AcDbEntity
  8
25
100
AcDbLine
 10
-26.90731703396295
 20
61.55080461327532
 30
0.0
 11
-26.90731703396295
 21
49.66767161327538
 31
0.0
  0
LINE
  5
114D
330
A
100
AcDbEntity
  8
25
100
AcDbLine
 10
-27.90731703396295
 20
-12.33231338672465
 30
0.0
 11
-26.90731703396295
 21
-12.33231338672465
 31
0.0
  0
LINE
  5
114E
330
A
100
AcDbEntity
  8
25
100
AcDbLine
 10
-27.90731703396295
 20
-24.33231338672465
 30
0.0
 11
-26.90731703396295
 21
-24.33231338672465
 31
0.0
  0
LINE
  5
114F
330
A
100
AcDbEntity
  8
25
100
AcDbLine
 10
-27.90731703396295
 20
61.66767161327527
 30
0.0
 11
-26.90731703396295
 21
61.66767161327527
 31
0.0
  0
LINE
  5
1150
330
A
100
AcDbEntity
  8
25
100
AcDbLine
 10
-27.90731703396295
 20
45.66767161327539
 30
0.0
 11
51.09266696603707
 21
45.66767161327539
 31
0.0
  0
LINE
  5
1151
330
A
100
AcDbEntity
  8
25
100
AcDbLine
 10
-38.07340303396291
 20
-30.48513838672454
 30
0.0
 11
-27.90730103396288
 21
-31.33231338672465
 31
0.0
  0
LINE
  5
1152
102
{ACAD_REACTORS
330
11D4
102
}
330
A
100
AcDbEntity
  8
25
100
AcDbLine
 10
-38.07340803396289
 20
67.82049561327551
 30
0.0
 11
-27.90730603396287
 21
68.66767061327539
 31
0.0
  0
LINE
  5
1153
102
{ACAD_REACTORS
330
11D4
102
}
330
A
100
AcDbEntity
  8
25
100
AcDbLine
 10
-12.90731703396295
 20
57.66767161327527
 30
0.0
 11
-12.90731703396295
 21
53.66767161327526
 31
0.0
  0
LINE
  5
1154
102
{ACAD_REACTORS
330
11C8
102
}
330
A
100
AcDbEntity
  8
25
100
AcDbLine
 10
-39.90731703396296
 20
65.82740061327524
 30
0.0
 11
-39.90731703396296
 21
-28.49204238672462
 31
0.0
  0
LINE
  5
1155
330
A
100
AcDbEntity
  8
25
100
AcDbLine
 10
-150.7357320339629
 20
-19.33231338672465
 30
0.0
 11
-145.0788870339629
 21
-19.33231338672465
 31
0.0
  0
LINE
  5
1156
330
A
100
AcDbEntity
  8
25
100
AcDbLine
 10
-150.7357320339629
 20
-17.33231338672465
 30
0.0
 11
-145.0788870339629
 21
-17.33231338672465
 31
0.0
  0
LINE
  5
1157
330
A
100
AcDbEntity
  8
25
100
AcDbLine
 10
-110.5259040339629
 20
32.04909161327544
 30
0.0
 11
-107.8821510339628
 21
34.69284361327539
 31
0.0
  0
LINE
  5
1158
330
A
100
AcDbEntity
  8
25
100
AcDbLine
 10
-132.3781520339629
 20
52.62322161327539
 30
0.0
 11
-143.6383600339629
 21
8.667687613275347
 31
0.0
  0
LINE
  5
1159
330
A
100
AcDbEntity
  8
25
100
AcDbLine
 10
-144.6736250339627
 20
8.667686613275348
 30
0.0
 11
-132.3781420339628
 21
52.62321461327542
 31
0.0
  0
LINE
  5
115A
330
A
100
AcDbEntity
  8
25
100
AcDbLine
 10
-163.4364320339629
 20
52.6232196132754
 30
0.0
 11
-152.1762080339629
 21
8.667677613275371
 31
0.0
  0
LINE
  5
115B
330
A
100
AcDbEntity
  8
25
100
AcDbLine
 10
-151.1409490339629
 20
8.66769061327534
 30
0.0
 11
-163.4364310339629
 21
52.62321661327542
 31
0.0
  0
LINE
  5
115C
330
A
100
AcDbEntity
  8
25
100
AcDbLine
 10
-190.3337070339629
 20
37.09410061327537
 30
0.0
 11
-161.9072840339629
 21
8.667676613275375
 31
0.0
  0
LINE
  5
115D
330
A
100
AcDbEntity
  8
25
100
AcDbLine
 10
-197.9073170339629
 20
8.667686613275348
 30
0.0
 11
-97.90731703396289
 21
8.667686613275348
 31
0.0
  0
LINE
  5
115E
330
A
100
AcDbEntity
  8
25
100
AcDbLine
 10
-191.9073170339629
 20
66.66767161327527
 30
0.0
 11
-103.9073170339629
 21
66.66767161327527
 31
0.0
  0
LINE
  5
115F
330
A
100
AcDbEntity
  8
25
100
AcDbLine
 10
-99.90731703396296
 20
62.66767161327527
 30
0.0
 11
-99.90731703396296
 21
-25.33231338672465
 31
0.0
  0
LINE
  5
1160
330
A
100
AcDbEntity
  8
25
100
AcDbLine
 10
-191.9073170339629
 20
-29.33231338672465
 30
0.0
 11
-103.9073170339629
 21
-29.33231338672465
 31
0.0
  0
LINE
  5
1161
330
A
100
AcDbEntity
  8
25
100
AcDbLine
 10
-195.9073170339628
 20
62.66767161327527
 30
0.0
 11
-195.9073170339628
 21
-25.33231338672465
 31
0.0
  0
LINE
  5
1162
330
A
100
AcDbEntity
  8
25
100
AcDbLine
 10
106.092666966037
 20
-31.33231338672465
 30
0.0
 11
202.0926669660371
 21
-31.33231338672465
 31
0.0
  0
LINE
  5
1163
330
A
100
AcDbEntity
  8
25
100
AcDbLine
 10
110.0926669660371
 20
68.66767161327527
 30
0.0
 11
202.0926669660371
 21
68.66767161327527
 31
0.0
  0
LINE
  5
1164
102
{ACAD_REACTORS
330
11C2
102
}
330
A
100
AcDbEntity
  8
25
100
AcDbLine
 10
-97.90731703396289
 20
64.66767161327528
 30
0.0
 11
-97.90731703396289
 21
-27.33231338672465
 31
0.0
  0
LINE
  5
1165
102
{ACAD_REACTORS
330
11C2
102
}
330
A
100
AcDbEntity
  8
25
100
AcDbLine
 10
-197.9073170339629
 20
64.66767161327528
 30
0.0
 11
-197.9073170339629
 21
-27.33231338672465
 31
0.0
  0
LINE
  5
1166
102
{ACAD_REACTORS
330
11C5
102
}
330
A
100
AcDbEntity
  8
25
100
AcDbLine
 10
-193.9073170339628
 20
68.66767161327527
 30
0.0
 11
-101.9073170339629
 21
68.66767161327527
 31
0.0
  0
LINE
  5
1167
330
A
100
AcDbEntity
  8
25
100
AcDbLine
 10
206.092666966037
 20
64.66767161327528
 30
0.0
 11
206.092666966037
 21
-27.33231338672465
 31
0.0
  0
LINE
  5
1168
330
A
100
AcDbEntity
  8
25
  6
DASHDOT2
100
AcDbLine
 10
156.092666966037
 20
78.85553520923656
 30
0.0
 11
156.092666966037
 21
-36.9877520927098
 31
0.0
  0
LINE
  5
1169
102
{ACAD_REACTORS
330
11CE
102
}
330
A
100
AcDbEntity
  8
25
100
AcDbLine
 10
56.09266696603707
 20
41.66767161327538
 30
0.0
 11
56.09266696603707
 21
-24.33231338672465
 31
0.0
  0
LINE
  5
116A
330
A
100
AcDbEntity
  8
25
100
AcDbLine
 10
106.092666966037
 20
64.66767161327528
 30
0.0
 11
106.092666966037
 21
-31.33231338672465
 31
0.0
  0
LINE
  5
116B
102
{ACAD_REACTORS
330
11C8
102
}
330
A
100
AcDbEntity
  8
25
100
AcDbLine
 10
-47.90731703396295
 20
-2.662223386724575
 30
0.0
 11
-47.90731703396295
 21
-8.002357386724611
 31
0.0
  0
LINE
  5
116C
330
A
100
AcDbEntity
  8
25
100
AcDbLine
 10
-193.9073170339628
 20
-31.33231338672465
 30
0.0
 11
-101.9073170339629
 21
-31.33231338672465
 31
0.0
  0
LINE
  5
116D
102
{ACAD_REACTORS
330
11B9
330
11D9
102
}
330
A
100
AcDbEntity
  8
25
  6
DASHDOT2
100
AcDbLine
 10
-203.127588241045
 20
18.66768661327524
 30
0.0
 11
212.0244229271842
 21
18.66768661327535
 31
0.0
  0
LINE
  5
116E
330
A
100
AcDbEntity
  8
1
100
AcDbLine
 10
-181.9073170339629
 20
184.2831137219278
 30
0.0
 11
-181.9073170339629
 21
185.7831137219278
 31
0.0
  0
LINE
  5
116F
330
A
100
AcDbEntity
  8
1
100
AcDbLine
 10
-181.9073170339629
 20
184.2831137219278
 30
0.0
 11
-113.9073170339629
 21
184.2831137219278
 31
0.0
  0
LINE
  5
1170
330
A
100
AcDbEntity
  8
1
100
AcDbLine
 10
-181.9073170339629
 20
185.7831137219278
 30
0.0
 11
-113.9073170339629
 21
185.7831137219278
 31
0.0
  0
LINE
  5
1171
330
A
100
AcDbEntity
  8
1
100
AcDbLine
 10
-113.9073170339629
 20
185.7831137219278
 30
0.0
 11
-113.9073170339629
 21
184.2831137219278
 31
0.0
  0
LINE
  5
1172
330
A
100
AcDbEntity
  8
1
100
AcDbLine
 10
-178.9073170339629
 20
184.2831137219278
 30
0.0
 11
-178.9073170339629
 21
181.2831137219278
 31
0.0
  0
LINE
  5
1173
330
A
100
AcDbEntity
  8
1
100
AcDbLine
 10
-173.9073170339629
 20
184.2831137219278
 30
0.0
 11
-173.9073170339629
 21
181.2831137219278
 31
0.0
  0
LINE
  5
1174
330
A
100
AcDbEntity
  8
1
100
AcDbLine
 10
-116.9073170339629
 20
184.2831137219278
 30
0.0
 11
-116.9073170339629
 21
181.2831137219278
 31
0.0
  0
LINE
  5
1175
330
A
100
AcDbEntity
  8
1
100
AcDbLine
 10
-121.9073170339629
 20
184.2831137219278
 30
0.0
 11
-121.9073170339629
 21
181.2831137219278
 31
0.0
  0
LINE
  5
1176
330
A
100
AcDbEntity
  8
1
100
AcDbLine
 10
59.09266696603708
 20
41.66768661327535
 30
0.0
 11
60.59266696603708
 21
41.66768661327535
 31
0.0
  0
LINE
  5
1177
102
{ACAD_REACTORS
330
11E2
102
}
330
A
100
AcDbEntity
  8
25
100
AcDbLine
 10
-27.90731703396295
 20
-28.33231338672465
 30
0.0
 11
51.09266759435559
 21
-28.33231338672465
 31
0.0
  0
LINE
  5
1178
330
A
100
AcDbEntity
  8
25
100
AcDbLine
 10
59.09266696603708
 20
-28.33231338672465
 30
0.0
 11
60.59266696603708
 21
-28.33231338672465
 31
0.0
  0
LINE
  5
1179
330
A
100
AcDbEntity
  8
1
100
AcDbLine
 10
59.09266696603708
 20
41.66768661327535
 30
0.0
 11
59.09266696603708
 21
-28.33231338672465
 31
0.0
  0
LINE
  5
117A
330
A
100
AcDbEntity
  8
1
100
AcDbLine
 10
60.59266696603708
 20
41.66768661327535
 30
0.0
 11
60.59266696603708
 21
-28.33231338672465
 31
0.0
  0
LINE
  5
117B
330
A
100
AcDbEntity
  8
1
100
AcDbLine
 10
59.09266696603708
 20
4.16768661327535
 30
0.0
 11
56.09266696603707
 21
4.16768661327535
 31
0.0
  0
LINE
  5
117C
330
A
100
AcDbEntity
  8
1
100
AcDbLine
 10
56.09266696603707
 20
9.167686613275348
 30
0.0
 11
59.09266696603708
 21
9.167686613275348
 31
0.0
  0
LINE
  5
117D
102
{ACAD_REACTORS
330
11D1
102
}
330
A
100
AcDbEntity
  8
1
  6
DASHDOT2
100
AcDbLine
 10
54.4952078098172
 20
6.667686613275349
 30
0.0
 11
64.078072275826
 21
6.667686613275349
 31
0.0
  0
CIRCLE
  5
117E
102
{ACAD_REACTORS
330
11D9
102
}
330
A
100
AcDbEntity
  8
1
100
AcDbCircle
 10
156.092666966037
 20
8.66767861327537
 30
0.0
 40
37.0
  0
ARC
  5
117F
330
A
100
AcDbEntity
  8
1
100
AcDbCircle
 10
-175.5073170339628
 20
186.4841137219278
 30
0.0
 40
1.5
100
AcDbArc
 50
12.10099999999787
 51
90.02300000000131
  0
ARC
  5
1180
330
A
100
AcDbEntity
  8
1
100
AcDbCircle
 10
-177.3073170339628
 20
186.4841137219278
 30
0.0
 40
1.5
100
AcDbArc
 50
90.02300000000131
 51
167.888000000002
  0
LINE
  5
1181
330
A
100
AcDbEntity
  8
1
100
AcDbLine
 10
-175.5073170339628
 20
187.9841137219279
 30
0.0
 11
-177.3073170339628
 21
187.9841137219279
 31
0.0
  0
LINE
  5
1182
330
A
100
AcDbEntity
  8
1
100
AcDbLine
 10
-174.0073170339628
 20
186.7841137219279
 30
0.0
 11
-173.8073170339628
 21
185.9841137219279
 31
0.0
  0
LINE
  5
1183
330
A
100
AcDbEntity
  8
1
100
AcDbLine
 10
-174.0073170339628
 20
185.7831137219278
 30
0.0
 11
-173.8073170339628
 21
185.9841137219279
 31
0.0
  0
LINE
  5
1184
330
A
100
AcDbEntity
  8
1
100
AcDbLine
 10
-178.8073170339628
 20
186.7841137219279
 30
0.0
 11
-179.0073170339628
 21
185.9841137219279
 31
0.0
  0
LINE
  5
1185
330
A
100
AcDbEntity
  8
1
100
AcDbLine
 10
-178.8073170339628
 20
185.7831137219281
 30
0.0
 11
-179.0073170339628
 21
185.9841137219279
 31
0.0
  0
ARC
  5
1186
330
A
100
AcDbEntity
  8
1
100
AcDbCircle
 10
-120.3073170339627
 20
186.4841137219278
 30
0.0
 40
1.5
100
AcDbArc
 50
89.9769999999987
 51
167.8990000000021
  0
ARC
  5
1187
330
A
100
AcDbEntity
  8
1
100
AcDbCircle
 10
-118.5073170339628
 20
186.4841137219278
 30
0.0
 40
1.5
100
AcDbArc
 50
12.11199999999791
 51
89.9769999999987
  0
LINE
  5
1188
330
A
100
AcDbEntity
  8
1
100
AcDbLine
 10
-120.3073170339627
 20
187.9841137219279
 30
0.0
 11
-118.5073170339628
 21
187.9841137219279
 31
0.0
  0
LINE
  5
1189
330
A
100
AcDbEntity
  8
1
100
AcDbLine
 10
-121.8073170339627
 20
186.7841137219279
 30
0.0
 11
-122.0073170339628
 21
185.9841137219279
 31
0.0
  0
LINE
  5
118A
330
A
100
AcDbEntity
  8
1
100
AcDbLine
 10
-121.8073170339627
 20
185.7831137219278
 30
0.0
 11
-122.0073170339628
 21
185.9841137219279
 31
0.0
  0
LINE
  5
118B
330
A
100
AcDbEntity
  8
1
100
AcDbLine
 10
-117.0073170339627
 20
186.7841137219279
 30
0.0
 11
-116.8073170339627
 21
185.9841137219279
 31
0.0
  0
LINE
  5
118C
330
A
100
AcDbEntity
  8
1
100
AcDbLine
 10
-117.0073170339627
 20
185.7831137219281
 30
0.0
 11
-116.8073170339627
 21
185.9841137219279
 31
0.0
  0
ARC
  5
118D
330
A
100
AcDbEntity
  8
1
100
AcDbCircle
 10
61.2936669660371
 20
5.767686613275485
 30
0.0
 40
1.5
100
AcDbArc
 50
282.1009999999978
 51
0.0230000000012995
  0
ARC
  5
118E
330
A
100
AcDbEntity
  8
1
100
AcDbCircle
 10
61.2936669660371
 20
7.567686613275441
 30
0.0
 40
1.5
100
AcDbArc
 50
0.0230000000012995
 51
77.88800000000276
  0
LINE
  5
118F
102
{ACAD_REACTORS
330
11D1
102
}
330
A
100
AcDbEntity
  8
1
100
AcDbLine
 10
62.79366696603711
 20
5.767686613275485
 30
0.0
 11
62.79366696603711
 21
7.567686613275441
 31
0.0
  0
LINE
  5
1190
330
A
100
AcDbEntity
  8
1
100
AcDbLine
 10
61.59366696603706
 20
4.267686613275485
 30
0.0
 11
60.7936669660371
 21
4.067686613275441
 31
0.0
  0
LINE
  5
1191
330
A
100
AcDbEntity
  8
1
100
AcDbLine
 10
60.59266696603708
 20
4.267686613275485
 30
0.0
 11
60.7936669660371
 21
4.067686613275441
 31
0.0
  0
LINE
  5
1192
330
A
100
AcDbEntity
  8
1
100
AcDbLine
 10
61.59366696603706
 20
9.067686613275439
 30
0.0
 11
60.7936669660371
 21
9.267686613275486
 31
0.0
  0
LINE
  5
1193
330
A
100
AcDbEntity
  8
1
100
AcDbLine
 10
60.59266696603708
 20
9.067686613275439
 30
0.0
 11
60.7936669660371
 21
9.267686613275486
 31
0.0
  0
CIRCLE
  5
1194
330
A
100
AcDbEntity
  8
1
100
AcDbCircle
 10
156.092666966037
 20
6.667686613275349
 30
0.0
 40
35.0
  0
INSERT
  5
1195
330
A
100
AcDbEntity
  8
0
100
AcDbBlockReference
  2
*G51504645
 10
-300.1702860923763
 20
-190.8349217916631
 30
0.0
  0
LINE
  5
1196
330
A
100
AcDbEntity
  8
1
100
AcDbLine
 10
128.5926669660369
 20
6.358686613275381
 30
0.0
 11
128.5926669660369
 21
6.976686613275318
 31
0.0
  0
LINE
  5
1197
330
A
100
AcDbEntity
  8
1
100
AcDbLine
 10
128.2836669660371
 20
6.667686613275349
 30
0.0
 11
128.901666966037
 21
6.667686613275349
 31
0.0
  0
INSERT
  5
1198
330
A
100
AcDbEntity
  8
0
100
AcDbBlockReference
  2
*G52514746
 10
-300.1702860923763
 20
-190.8349217916631
 30
0.0
  0
LINE
  5
1199
330
A
100
AcDbEntity
  8
1
100
AcDbLine
 10
183.5926669660372
 20
6.358686613275381
 30
0.0
 11
183.5926669660372
 21
6.976686613275318
 31
0.0
  0
LINE
  5
119A
330
A
100
AcDbEntity
  8
1
100
AcDbLine
 10
183.2836669660371
 20
6.667686613275349
 30
0.0
 11
183.9016669660372
 21
6.667686613275349
 31
0.0
  0
LINE
  5
119B
102
{ACAD_REACTORS
330
11AD
102
}
330
A
100
AcDbEntity
  8
ASSIST
  6
DASHDOT2
100
AcDbLine
 10
-99.89168056646171
 20
-117.3396895007768
 30
0.0
 11
-195.8916805664614
 21
-117.3396895007768
 31
0.0
  0
LINE
  5
119C
102
{ACAD_REACTORS
330
11B0
102
}
330
A
100
AcDbEntity
  8
ASSIST
  6
DASHDOT2
100
AcDbLine
 10
-106.6416805664617
 20
-144.3396895007766
 30
0.0
 11
-115.1416805664617
 21
-144.3396895007766
 31
0.0
  0
LINE
  5
119D
330
A
100
AcDbEntity
  8
ASSIST
  6
DASHDOT2
100
AcDbLine
 10
-180.6416805664617
 20
-144.3396895007766
 30
0.0
 11
-189.1416805664615
 21
-144.3396895007766
 31
0.0
  0
LINE
  5
119E
102
{ACAD_REACTORS
330
11AD
102
}
330
A
100
AcDbEntity
  8
ASSIST
  6
DASHDOT2
100
AcDbLine
 10
-106.6416805664617
 20
-70.33968950077677
 30
0.0
 11
-115.1416805664617
 21
-70.33968950077677
 31
0.0
  0
LINE
  5
119F
330
A
100
AcDbEntity
  8
ASSIST
  6
DASHDOT2
100
AcDbLine
 10
-180.6416805664617
 20
-70.33968950077677
 30
0.0
 11
-189.1416805664615
 21
-70.33968950077677
 31
0.0
  0
LINE
  5
11A0
330
A
100
AcDbEntity
  8
ASSIST
  6
DASHDOT2
100
AcDbLine
 10
-147.8916805664615
 20
-69.33968950077677
 30
0.0
 11
-147.8916805664615
 21
-165.3396895007766
 31
0.0
  0
LINE
  5
11A1
330
A
100
AcDbEntity
  8
ASSIST
  6
DASHDOT2
100
AcDbLine
 10
-110.8916805664617
 20
-66.08968950077677
 30
0.0
 11
-110.8916805664617
 21
-74.5896895007768
 31
0.0
  0
LINE
  5
11A2
102
{ACAD_REACTORS
330
11B3
102
}
330
A
100
AcDbEntity
  8
ASSIST
  6
DASHDOT2
100
AcDbLine
 10
-110.8916805664617
 20
-140.0896895007767
 30
0.0
 11
-110.8916805664617
 21
-148.5896895007767
 31
0.0
  0
LINE
  5
11A3
330
A
100
AcDbEntity
  8
ASSIST
  6
DASHDOT2
100
AcDbLine
 10
-184.8916805664615
 20
-66.08968950077677
 30
0.0
 11
-184.8916805664615
 21
-74.5896895007768
 31
0.0
  0
LINE
  5
11A4
102
{ACAD_REACTORS
330
11B3
102
}
330
A
100
AcDbEntity
  8
ASSIST
  6
DASHDOT2
100
AcDbLine
 10
-184.8916805664615
 20
-140.0896895007767
 30
0.0
 11
-184.8916805664615
 21
-148.5896895007767
 31
0.0
  0
CIRCLE
  5
11A5
102
{ACAD_REACTORS
330
11B6
102
}
330
A
100
AcDbEntity
  8
Chassis
 48
0.5
100
AcDbCircle
 10
-147.8916805664615
 20
-117.3396895007768
 30
0.0
 40
38.0
  0
CIRCLE
  5
11A6
330
A
100
AcDbEntity
  8
Chassis
 48
0.5
100
AcDbCircle
 10
-184.8916805664615
 20
-70.33968950077677
 30
0.0
 40
2.25
  0
CIRCLE
  5
11A7
330
A
100
AcDbEntity
  8
Chassis
 48
0.5
100
AcDbCircle
 10
-184.8916805664615
 20
-144.3396895007766
 30
0.0
 40
2.25
  0
CIRCLE
  5
11A8
330
A
100
AcDbEntity
  8
Chassis
 48
0.5
100
AcDbCircle
 10
-110.8916805664617
 20
-144.3396895007766
 30
0.0
 40
2.25
  0
CIRCLE
  5
11A9
330
A
100
AcDbEntity
  8
Chassis
 48
0.5
100
AcDbCircle
 10
-110.8916805664617
 20
-70.33968950077677
 30
0.0
 40
2.25
  0
CIRCLE
  5
11AA
330
A
100
AcDbEntity
  8
Chassis
 48
0.5
100
AcDbCircle
 10
-110.8916805664617
 20
-70.33968950077677
 30
0.0
 40
0.25
  0
DIMENSION
  5
11AB
102
{ACAD_XDICTIONARY
360
11AC
102
}
102
{ACAD_REACTORS
330
11AD
102
}
330
A
100
AcDbEntity
  8
SCALE
 48
0.5
100
AcDbDimension
  2
*D65
 10
-94.33747145698951
 20
-117.3396895007768
 30
0.0
 11
-97.9624714569895
 21
-93.83968950077679
 31
0.0
 70
    32
 71
     5
 42
47.0
  3
ISO-25
100
AcDbAlignedDimension
 13
-106.6416805664617
 23
-70.33968950077677
 33
0.0
 14
-99.89168056646171
 24
-117.3396895007768
 34
0.0
 50
90.0
100
AcDbRotatedDimension
1001
ACAD
1000
DSTYLE
1002
{
1070
   140
1040
6.0
1002
}
  0
DIMENSION
  5
11AE
102
{ACAD_XDICTIONARY
360
11AF
102
}
102
{ACAD_REACTORS
330
11B0
102
}
330
A
100
AcDbEntity
  8
SCALE
 48
0.5
100
AcDbDimension
  2
*D66
 10
-94.33747145698951
 20
-144.3396895007766
 30
0.0
 11
-97.96247145698952
 21
-130.8396895007767
 31
0.0
 70
    32
 71
     5
 42
26.9999999999999
  3
ISO-25
100
AcDbAlignedDimension
 13
-94.33747145698951
 23
-117.3396895007768
 33
0.0
 14
-106.6416805664617
 24
-144.3396895007766
 34
0.0
 50
90.0
100
AcDbRotatedDimension
1001
ACAD
1000
DSTYLE
1002
{
1070
   140
1040
6.0
1002
}
  0
DIMENSION
  5
11B1
102
{ACAD_XDICTIONARY
360
11B2
102
}
102
{ACAD_REACTORS
330
11B3
102
}
330
A
100
AcDbEntity
  8
SCALE
 48
0.5
100
AcDbDimension
  2
*D67
 10
-110.8916805664616
 20
-172.509863411185
 30
0.0
 11
-147.8916805664615
 21
-168.884863411185
 31
0.0
 70
    32
 71
     5
 42
73.9999999999999
  3
ISO-25
100
AcDbAlignedDimension
 13
-184.8916805664615
 23
-148.5896895007767
 33
0.0
 14
-110.8916805664616
 24
-148.5896895007767
 34
0.0
100
AcDbRotatedDimension
1001
ACAD
1000
DSTYLE
1002
{
1070
   140
1040
6.0
1002
}
  0
DIMENSION
  5
11B4
102
{ACAD_XDICTIONARY
360
11B5
102
}
102
{ACAD_REACTORS
330
11B6
102
}
330
A
100
AcDbEntity
  8
SCALE
 48
0.5
100
AcDbDimension
  2
*D68
 10
-119.5748821657229
 20
-142.6805444258159
 30
0.0
 11
-163.5311190713608
 21
-103.3438720127595
 31
0.0
 70
   163
 71
     5
 42
75.99999999999949
  3
ISO-25
100
AcDbDiametricDimension
 15
-176.2084789672009
 25
-91.99883457573736
 35
0.0
 40
0.0
1001
ACAD
1000
DSTYLE
1002
{
1070
   174
1070
     1
1070
   289
1070
     2
1002
}
  0
DIMENSION
  5
11B7
102
{ACAD_XDICTIONARY
360
11B8
102
}
102
{ACAD_REACTORS
330
11B9
102
}
330
A
100
AcDbEntity
  8
SCALE
 48
0.5
100
AcDbDimension
  2
*D69
 10
-210.3476444005323
 20
-5.332313386724638
 30
0.0
 11
-213.9726444005323
 21
6.667686613275264
 31
0.0
 70
    32
 71
     5
 42
23.99999999999988
  3
ISO-25
100
AcDbAlignedDimension
 13
-203.127588241045
 23
18.66768661327524
 33
0.0
 14
-171.907317033963
 24
-5.332313386724648
 34
0.0
 50
90.0
100
AcDbRotatedDimension
1001
ACAD
1000
DSTYLE
1002
{
1070
   140
1040
6.0
1002
}
  0
DIMENSION
  5
11BA
102
{ACAD_XDICTIONARY
360
11BB
102
}
102
{ACAD_REACTORS
330
11BC
102
}
330
A
100
AcDbEntity
  8
SCALE
 48
0.5
100
AcDbDimension
  2
*D70
 10
-210.3476444005323
 20
-18.33231338672463
 30
0.0
 11
-213.9726444005323
 21
-11.83231338672461
 31
0.0
 70
    32
 71
     5
 42
13.0000000000001
  3
ISO-25
100
AcDbAlignedDimension
 13
-210.3476444005323
 23
-5.332313386724536
 33
0.0
 14
-147.907317033963
 24
-18.33231338672465
 34
0.0
 50
90.0
100
AcDbRotatedDimension
1001
ACAD
1000
DSTYLE
1002
{
1070
   140
1040
6.0
1002
}
  0
DIMENSION
  5
11BD
102
{ACAD_XDICTIONARY
360
11BE
102
}
102
{ACAD_REACTORS
330
11BF
102
}
330
A
100
AcDbEntity
  8
SCALE
 48
0.5
100
AcDbDimension
  2
*D71
 10
-123.9073170339629
 20
-41.50472584876342
 30
0.0
 11
-147.9073170339629
 21
-37.87972584876343
 31
0.0
 70
    32
 71
     5
 42
48.0
  3
ISO-25
100
AcDbAlignedDimension
 13
-171.9073170339629
 23
-5.332313386724648
 33
0.0
 14
-123.9073170339629
 24
-5.332313386724648
 34
0.0
100
AcDbRotatedDimension
1001
ACAD
1000
DSTYLE
1002
{
1070
   140
1040
6.0
1002
}
  0
DIMENSION
  5
11C0
102
{ACAD_XDICTIONARY
360
11C1
102
}
102
{ACAD_REACTORS
330
11C2
102
}
330
A
100
AcDbEntity
  8
SCALE
 48
0.5
100
AcDbDimension
  2
*D72
 10
-197.907317033963
 20
-55.11396946454851
 30
0.0
 11
-147.9073170339629
 21
-51.48896946454851
 31
0.0
 70
    32
 71
     5
 42
100.0000000000001
  3
ISO-25
100
AcDbAlignedDimension
 13
-97.90731703396289
 23
-27.33231338672465
 33
0.0
 14
-197.907317033963
 24
-27.33231338672465
 34
0.0
100
AcDbRotatedDimension
1001
ACAD
1000
DSTYLE
1002
{
1070
   140
1040
6.0
1002
}
  0
DIMENSION
  5
11C3
102
{ACAD_XDICTIONARY
360
11C4
102
}
102
{ACAD_REACTORS
330
11C5
102
}
330
A
100
AcDbEntity
  8
SCALE
 48
0.5
100
AcDbDimension
  2
*D73
 10
-221.8966689501234
 20
68.66767161327527
 30
0.0
 11
-225.5216689501234
 21
18.66767911327528
 31
0.0
 70
    32
 71
     5
 42
99.99998499999993
  3
ISO-25
100
AcDbAlignedDimension
 13
-193.9073169641496
 23
-31.33231338672465
 33
0.0
 14
-193.9073170339626
 24
68.66767161327527
 34
0.0
 50
90.0
100
AcDbRotatedDimension
1001
ACAD
1000
DSTYLE
1002
{
1070
   140
1040
6.0
1002
}
  0
DIMENSION
  5
11C6
102
{ACAD_XDICTIONARY
360
11C7
102
}
102
{ACAD_REACTORS
330
11C8
102
}
330
A
100
AcDbEntity
  8
SCALE
 48
0.5
100
AcDbDimension
  2
*D74
 10
-39.90731703396296
 20
-44.24831818293251
 30
0.0
 11
-43.90731703396295
 21
-40.62331818293251
 31
0.0
 70
    32
 71
     5
 42
8.0
  3
ISO-25
100
AcDbAlignedDimension
 13
-47.90731703396295
 23
-8.002357386724611
 33
0.0
 14
-39.90731703396296
 24
-28.49204238672462
 34
0.0
100
AcDbRotatedDimension
1001
ACAD
1000
DSTYLE
1002
{
1070
   140
1040
6.0
1002
}
  0
DIMENSION
  5
11C9
102
{ACAD_XDICTIONARY
360
11CA
102
}
102
{ACAD_REACTORS
330
11CB
102
}
330
A
100
AcDbEntity
  8
SCALE
 48
0.5
100
AcDbDimension
  2
*D75
 10
-27.90731703396295
 20
-44.24831818293251
 30
0.0
 11
-33.90731703396296
 21
-40.62331818293251
 31
0.0
 70
    32
 71
     5
 42
12.0
  3
ISO-25
100
AcDbAlignedDimension
 13
-39.90731703396296
 23
-44.24831818293251
 33
0.0
 14
-27.90731703396295
 24
-31.33231338672465
 34
0.0
100
AcDbRotatedDimension
1001
ACAD
1000
DSTYLE
1002
{
1070
   140
1040
6.0
1002
}
  0
DIMENSION
  5
11CC
102
{ACAD_XDICTIONARY
360
11CD
102
}
102
{ACAD_REACTORS
330
11CE
102
}
330
A
100
AcDbEntity
  8
SCALE
 48
0.5
100
AcDbDimension
  2
*D76
 10
56.09266696603707
 20
-44.24831818293251
 30
0.0
 11
14.09267496603706
 21
-40.62331818293251
 31
0.0
 70
    32
 71
     5
 42
83.99998400000006
  3
ISO-25
100
AcDbAlignedDimension
 13
-27.90731703396295
 23
-44.24831818293251
 33
0.0
 14
56.09266696603707
 24
-24.33231338672465
 34
0.0
100
AcDbRotatedDimension
1001
ACAD
1000
DSTYLE
1002
{
1070
   140
1040
6.0
1002
}
  0
DIMENSION
  5
11CF
102
{ACAD_XDICTIONARY
360
11D0
102
}
102
{ACAD_REACTORS
330
11D1
102
}
330
A
100
AcDbEntity
  8
SCALE
 48
0.5
100
AcDbDimension
  2
*D77
 10
62.79366696603711
 20
-44.24831818293251
 30
0.0
 11
71.91866696603709
 21
-40.62331818293251
 31
0.0
 70
    32
 71
     5
 42
6.701000000000021
  3
ISO-25
100
AcDbAlignedDimension
 13
56.09266696603707
 23
-44.24831818293251
 33
0.0
 14
62.79366696603711
 24
6.667686613275349
 34
0.0
100
AcDbRotatedDimension
1001
ACAD
1000
DSTYLE
1002
{
1070
   140
1040
6.0
1002
}
  0
DIMENSION
  5
11D2
102
{ACAD_XDICTIONARY
360
11D3
102
}
102
{ACAD_REACTORS
330
11D4
102
}
330
A
100
AcDbEntity
  8
SCALE
 48
0.5
100
AcDbDimension
  2
*D78
 10
-12.90731703396295
 20
73.17485189948775
 30
0.0
 11
-20.40731153396291
 21
76.79985189948775
 31
0.0
 70
    32
 71
     5
 42
14.99998899999991
  3
ISO-25
100
AcDbAlignedDimension
 13
-27.90730603396287
 23
68.66767061327539
 33
0.0
 14
-12.90731703396295
 24
57.66767161327527
 34
0.0
100
AcDbRotatedDimension
1001
ACAD
1000
DSTYLE
1002
{
1070
   140
1040
6.0
1002
}
  0
LEADER
  5
11D5
330
A
100
AcDbEntity
  8
SCALE
 48
0.5
100
AcDbLeader
  3
ISO-25
 73
     0
 40
6.0
 41
24.28571428571429
 76
     3
 10
-14.38745773774872
 20
55.39645156040524
 30
0.0
 10
-6.005775461050233
 20
64.18348176896097
 30
0.0
 10
-4.779189225437675
 20
64.18348176896097
 30
0.0
340
11D6
213
0.0
223
-2.0
233
0.0
1001
ACAD
1000
DSTYLE
1002
{
1070
   147
1040
0.625
1070
    77
1070
     0
1002
}
  0
MTEXT
  5
11D6
102
{ACAD_REACTORS
330
11D5
102
}
330
A
100
AcDbEntity
  8
SCALE
 48
0.5
100
AcDbMText
 10
-4.154189225437676
 20
66.18348176896097
 30
0.0
 40
6.0
 41
50.0
 71
     1
 72
     1
  1
\A1;4-M4
  7
Standard
 73
     1
 44
1.0
  0
DIMENSION
  5
11D7
102
{ACAD_XDICTIONARY
360
11D8
102
}
102
{ACAD_REACTORS
330
11D9
102
}
330
A
100
AcDbEntity
  8
SCALE
 48
0.5
100
AcDbDimension
  2
*D79
 10
220.3527596066538
 20
8.667678613275352
 30
0.0
 11
216.7277596066538
 21
13.66768261327538
 31
0.0
 70
    32
 71
     5
 42
10.00000799999999
  3
ISO-25
100
AcDbAlignedDimension
 13
212.0244229271842
 23
18.66768661327535
 33
0.0
 14
156.092666966037
 24
8.66767861327537
 34
0.0
 50
90.0
100
AcDbRotatedDimension
1001
ACAD
1000
DSTYLE
1002
{
1070
   140
1040
6.0
1002
}
  0
DIMENSION
  5
11DA
102
{ACAD_XDICTIONARY
360
11DB
102
}
102
{ACAD_REACTORS
330
11DC
102
}
330
A
100
AcDbEntity
  8
SCALE
 48
0.5
100
AcDbDimension
  2
*D80
 10
237.4428242555072
 20
-18.33231338672466
 30
0.0
 11
233.8178242555072
 21
18.66767911327534
 31
0.0
 70
    32
 71
     5
 42
73.99998499999992
  3
ISO-25
100
AcDbAlignedDimension
 13
193.0926669660371
 23
55.66767161327526
 33
0.0
 14
193.0926669660371
 24
-18.33231338672465
 34
0.0
 50
90.0
100
AcDbRotatedDimension
1001
ACAD
1000
DSTYLE
1002
{
1070
   140
1040
6.0
1002
}
  0
DIMENSION
  5
11DD
102
{ACAD_XDICTIONARY
360
11DE
102
}
102
{ACAD_REACTORS
330
11DF
102
}
330
A
100
AcDbEntity
  8
SCALE
 48
0.5
100
AcDbDimension
  2
*D81
 10
119.0926669660369
 20
-44.52730637728246
 30
0.0
 11
156.092666966037
 21
-40.90230637728246
 31
0.0
 70
    32
 71
     5
 42
74.00000000000017
  3
ISO-25
100
AcDbAlignedDimension
 13
193.0926669660371
 23
-18.33231338672465
 33
0.0
 14
119.0926669660369
 24
-18.33231338672465
 34
0.0
100
AcDbRotatedDimension
1001
ACAD
1000
DSTYLE
1002
{
1070
   140
1040
6.0
1002
}
  0
DIMENSION
  5
11E0
102
{ACAD_XDICTIONARY
360
11E1
102
}
102
{ACAD_REACTORS
330
11E2
102
}
330
A
100
AcDbEntity
  8
SCALE
 48
0.5
100
AcDbDimension
  2
*D82
 10
31.20778836548334
 20
-28.33231338672474
 30
0.0
 11
27.58278836548335
 21
8.66767911327528
 31
0.0
 70
    32
  1
Φ<>
 71
     5
 42
73.99998500000005
  3
ISO-25
100
AcDbAlignedDimension
 13
51.09266759435559
 23
45.66767161327528
 33
0.0
 14
51.09266696603707
 24
-28.33231338672475
 34
0.0
 50
90.0
100
AcDbRotatedDimension
1001
ACAD
1000
DSTYLE
1002
{
1070
   140
1040
6.0
1002
}
  0
MTEXT
  5
11E3
330
A
100
AcDbEntity
  8
TXT1
 48
0.5
100
AcDbMText
 10
-101.0833912523017
 20
-161.3262504670633
 30
0.0
 40
6.0
 41
105.7709502812357
 71
     1
 72
     5
  1
Panel Cut
  7
Standard
 73
     1
 44
1.0
1001
ACAD
1000
ACAD_MTEXT_DEFINED_HEIGHT_BEGIN
1070
    46
1040
0.0
1000
ACAD_MTEXT_DEFINED_HEIGHT_END
  0
LEADER
  5
11E4
330
A
100
AcDbEntity
  8
SCALE
 48
0.5
100
AcDbLeader
  3
ISO-25
 73
     0
 40
6.0
 41
32.91428571428574
 76
     3
 10
-109.7066972193011
 20
-69.70818781760454
 30
0.0
 10
-100.4457392863955
 20
-59.32199663948404
 30
0.0
 10
-98.63872310436683
 20
-59.32199663948404
 30
0.0
340
11E5
213
0.0
223
-2.0
233
0.0
1001
ACAD
1000
DSTYLE
1002
{
1070
   147
1040
0.625
1070
    77
1070
     0
1002
}
  0
MTEXT
  5
11E5
102
{ACAD_REACTORS
330
11E4
102
}
330
A
100
AcDbEntity
  8
SCALE
 48
0.5
100
AcDbMText
 10
-98.01372310436683
 20
-57.32199663948404
 30
0.0
 40
6.0
 41
50.0
 71
     1
 72
     1
  1
\A1;4-Φ5.0
  7
Standard
 73
     1
 44
1.0
  0
LEADER
  5
11E6
330
A
100
AcDbEntity
  8
SCALE
 48
0.5
100
AcDbLeader
  3
ISO-25
 76
     2
 10
-80.56854794933178
 20
-59.54777681658153
 30
0.0
 10
-83.50494924513123
 20
-59.54777681658153
 30
0.0
1001
ACAD
1000
DSTYLE
1002
{
1070
   147
1040
0.625
1070
    77
1070
     0
1002
}
  0
ENDSEC
  0
SECTION
  2
OBJECTS
  0
DICTIONARY
  5
19
330
0
100
AcDbDictionary
281
     1
  3
ACAD_COLOR
350
234
  3
ACAD_GROUP
350
1A
  3
ACAD_LAYOUT
350
237
  3
ACAD_MATERIAL
350
233
  3
ACAD_MLINESTYLE
350
1B
  3
ACAD_PLOTSETTINGS
350
238
  3
ACAD_PLOTSTYLENAME
350
231
  3
ACAD_TABLESTYLE
350
235
  3
AcDbVariableDictionary
350
CED
  3
AcmDictionary
350
295
  3
AMG
350
23E
  3
AMGSNAPSETTINGS
350
2D8
  3
ASE_INDEX_DICTIONARY
350
1441
  0
DICTIONARY
  5
427
330
2
100
AcDbDictionary
280
     1
281
     1
  3
ACAD_LAYERSTATES
360
428
  0
DICTIONARY
  5
11AC
330
11AB
100
AcDbDictionary
280
     1
281
     1
  3
ACAD_DIMASSOC
360
11AD
  0
DICTIONARY
  5
11AF
330
11AE
100
AcDbDictionary
280
     1
281
     1
  3
ACAD_DIMASSOC
360
11B0
  0
DICTIONARY
  5
11B2
330
11B1
100
AcDbDictionary
280
     1
281
     1
  3
ACAD_DIMASSOC
360
11B3
  0
DICTIONARY
  5
11B5
330
11B4
100
AcDbDictionary
280
     1
281
     1
  3
ACAD_DIMASSOC
360
11B6
  0
DICTIONARY
  5
11B8
330
11B7
100
AcDbDictionary
280
     1
281
     1
  3
ACAD_DIMASSOC
360
11B9
  0
DICTIONARY
  5
11BB
330
11BA
100
AcDbDictionary
280
     1
281
     1
  3
ACAD_DIMASSOC
360
11BC
  0
DICTIONARY
  5
11BE
330
11BD
100
AcDbDictionary
280
     1
281
     1
  3
ACAD_DIMASSOC
360
11BF
  0
DICTIONARY
  5
11C1
330
11C0
100
AcDbDictionary
280
     1
281
     1
  3
ACAD_DIMASSOC
360
11C2
  0
DICTIONARY
  5
11C4
330
11C3
100
AcDbDictionary
280
     1
281
     1
  3
ACAD_DIMASSOC
360
11C5
  0
DICTIONARY
  5
11C7
330
11C6
100
AcDbDictionary
280
     1
281
     1
  3
ACAD_DIMASSOC
360
11C8
  0
DICTIONARY
  5
11CA
330
11C9
100
AcDbDictionary
280
     1
281
     1
  3
ACAD_DIMASSOC
360
11CB
  0
DICTIONARY
  5
11CD
330
11CC
100
AcDbDictionary
280
     1
281
     1
  3
ACAD_DIMASSOC
360
11CE
  0
DICTIONARY
  5
11D0
330
11CF
100
AcDbDictionary
280
     1
281
     1
  3
ACAD_DIMASSOC
360
11D1
  0
DICTIONARY
  5
11D3
330
11D2
100
AcDbDictionary
280
     1
281
     1
  3
ACAD_DIMASSOC
360
11D4
  0
DICTIONARY
  5
11D8
330
11D7
100
AcDbDictionary
280
     1
281
     1
  3
ACAD_DIMASSOC
360
11D9
  0
DICTIONARY
  5
11DB
330
11DA
100
AcDbDictionary
280
     1
281
     1
  3
ACAD_DIMASSOC
360
11DC
  0
DICTIONARY
  5
11DE
330
11DD
100
AcDbDictionary
280
     1
281
     1
  3
ACAD_DIMASSOC
360
11DF
  0
DICTIONARY
  5
11E1
330
11E0
100
AcDbDictionary
280
     1
281
     1
  3
ACAD_DIMASSOC
360
11E2
  0
DICTIONARY
  5
234
102
{ACAD_REACTORS
330
19
102
}
330
19
100
AcDbDictionary
281
     1
  0
DICTIONARY
  5
1A
102
{ACAD_REACTORS
330
19
102
}
330
19
100
AcDbDictionary
281
     1
  0
DICTIONARY
  5
237
102
{ACAD_REACTORS
330
19
102
}
330
19
100
AcDbDictionary
281
     1
  3
Model
350
239
  3
レイアウト1
350
23A
  0
DICTIONARY
  5
233
102
{ACAD_REACTORS
330
19
102
}
330
19
100
AcDbDictionary
281
     1
  0
DICTIONARY
  5
1B
102
{ACAD_REACTORS
330
19
102
}
330
19
100
AcDbDictionary
281
     1
  3
STANDARD
350
1C
  0
DICTIONARY
  5
238
102
{ACAD_REACTORS
330
19
102
}
330
19
100
AcDbDictionary
281
     1
  0
ACDBDICTIONARYWDFLT
  5
231
102
{ACAD_REACTORS
330
19
102
}
330
19
100
AcDbDictionary
281
     1
  3
Normal
350
232
100
AcDbDictionaryWithDefault
340
232
  0
DICTIONARY
  5
235
102
{ACAD_REACTORS
330
19
102
}
330
19
100
AcDbDictionary
281
     1
  3
Standard
350
236
  0
DICTIONARY
  5
CED
102
{ACAD_REACTORS
330
19
102
}
330
19
100
AcDbDictionary
281
     1
  3
CTABLESTYLE
350
CEE
  0
DICTIONARY
  5
295
102
{ACAD_REACTORS
330
19
102
}
330
19
100
AcDbDictionary
281
     1
  3
AcmStdDictionary
350
2A3
  3
AMDTSECTSYM_ARROWCOLOR
350
2C1
  0
DICTIONARY
  5
23E
102
{ACAD_REACTORS
330
19
102
}
330
19
100
AcDbDictionary
281
     1
  0
DICTIONARY
  5
2D8
102
{ACAD_REACTORS
330
19
102
}
330
19
100
AcDbDictionary
281
     1
  0
DICTIONARY
  5
1441
102
{ACAD_REACTORS
330
19
102
}
330
19
100
AcDbDictionary
281
     1
  3
ASEBlockHierarchyIndexRecord
350
1442
1001
DCO15
1040
1569929166.473
  0
DICTIONARY
  5
428
102
{ACAD_REACTORS
330
427
102
}
330
427
100
AcDbDictionary
281
     1
  0
DIMASSOC
  5
11AD
102
{ACAD_REACTORS
330
11AC
102
}
330
11AC
100
AcDbDimAssoc
330
11AB
 90
        3
 70
     0
 71
     0
  1
AcDbOsnapPointRef
 72
    13
331
119E
 73
     2
 91
        0
 40
0.0
 10
0.0
 20
0.0
 30
2.000000000000000E+50
 75
     0
  1
AcDbOsnapPointRef
 72
    13
331
119B
 73
     2
 91
        0
 40
0.0
 10
0.0
 20
0.0
 30
2.000000000000000E+50
 75
     0
  0
DIMASSOC
  5
11B0
102
{ACAD_REACTORS
330
11AF
102
}
330
11AF
100
AcDbDimAssoc
330
11AE
 90
        2
 70
     0
 71
     0
  1
AcDbOsnapPointRef
 72
    13
331
119C
 73
     2
 91
        0
 40
0.0
 10
0.0
 20
0.0
 30
2.000000000000000E+50
 75
     0
  0
DIMASSOC
  5
11B3
102
{ACAD_REACTORS
330
11B2
102
}
330
11B2
100
AcDbDimAssoc
330
11B1
 90
        3
 70
     0
 71
     0
  1
AcDbOsnapPointRef
 72
     1
331
11A4
 73
     2
 91
        0
 40
1.0
 10
0.0
 20
0.0
 30
2.000000000000000E+50
 75
     0
  1
AcDbOsnapPointRef
 72
     1
331
11A2
 73
     2
 91
        0
 40
1.0
 10
0.0
 20
0.0
 30
2.000000000000000E+50
 75
     0
  0
DIMASSOC
  5
11B6
102
{ACAD_REACTORS
330
11B5
102
}
330
11B5
100
AcDbDimAssoc
330
11B4
 90
        2
 70
     0
 71
     0
  1
AcDbOsnapPointRef
 72
     3
331
11A5
 73
     2
 91
        0
 40
0.0
 10
0.0
 20
0.0
 30
0.0
 75
     0
  0
DIMASSOC
  5
11B9
102
{ACAD_REACTORS
330
11B8
102
}
330
11B8
100
AcDbDimAssoc
330
11B7
 90
        3
 70
     0
 71
     0
  1
AcDbOsnapPointRef
 72
    13
331
116D
 73
     2
 91
        0
 40
0.0
 10
0.0
 20
0.0
 30
2.000000000000000E+50
 75
     0
  1
AcDbOsnapPointRef
 72
     3
331
111A
 73
     2
 91
        0
 40
0.0
 10
0.0
 20
0.0
 30
0.0
 75
     0
  0
DIMASSOC
  5
11BC
102
{ACAD_REACTORS
330
11BB
102
}
330
11BB
100
AcDbDimAssoc
330
11BA
 90
        2
 70
     0
 71
     0
  1
AcDbOsnapPointRef
 72
     3
331
1117
 73
     2
 91
        0
 40
0.0
 10
0.0
 20
0.0
 30
0.0
 75
     0
  0
DIMASSOC
  5
11BF
102
{ACAD_REACTORS
330
11BE
102
}
330
11BE
100
AcDbDimAssoc
330
11BD
 90
        3
 70
     0
 71
     0
  1
AcDbOsnapPointRef
 72
     3
331
111A
 73
     2
 91
        0
 40
0.0
 10
0.0
 20
0.0
 30
0.0
 75
     0
  1
AcDbOsnapPointRef
 72
     3
331
111B
 73
     2
 91
        0
 40
0.0
 10
0.0
 20
0.0
 30
0.0
 75
     0
  0
DIMASSOC
  5
11C2
102
{ACAD_REACTORS
330
11C1
102
}
330
11C1
100
AcDbDimAssoc
330
11C0
 90
        3
 70
     0
 71
     0
  1
AcDbOsnapPointRef
 72
     1
331
1164
 73
     2
 91
        0
 40
1.0
 10
0.0
 20
0.0
 30
2.000000000000000E+50
 75
     0
  1
AcDbOsnapPointRef
 72
     1
331
1165
 73
     2
 91
        0
 40
1.0
 10
0.0
 20
0.0
 30
2.000000000000000E+50
 75
     0
  0
DIMASSOC
  5
11C5
102
{ACAD_REACTORS
330
11C4
102
}
330
11C4
100
AcDbDimAssoc
330
11C3
 90
        3
 70
     0
 71
     0
  1
AcDbOsnapPointRef
 72
     1
331
1111
 73
     2
 91
        0
 40
4.712388997838004
 10
0.0
 20
0.0
 30
2.000000000000000E+50
 75
     0
  1
AcDbOsnapPointRef
 72
    13
331
1166
 73
     2
 91
        0
 40
0.0
 10
0.0
 20
0.0
 30
2.000000000000000E+50
 75
     0
  0
DIMASSOC
  5
11C8
102
{ACAD_REACTORS
330
11C7
102
}
330
11C7
100
AcDbDimAssoc
330
11C6
 90
        3
 70
     0
 71
     0
  1
AcDbOsnapPointRef
 72
     1
331
116B
 73
     2
 91
        0
 40
1.0
 10
0.0
 20
0.0
 30
2.000000000000000E+50
 75
     0
  1
AcDbOsnapPointRef
 72
     1
331
1154
 73
     2
 91
        0
 40
1.0
 10
0.0
 20
0.0
 30
2.000000000000000E+50
 75
     0
  0
DIMASSOC
  5
11CB
102
{ACAD_REACTORS
330
11CA
102
}
330
11CA
100
AcDbDimAssoc
330
11C9
 90
        2
 70
     0
 71
     0
  1
AcDbOsnapPointRef
 72
     1
331
1146
 73
     2
 91
        0
 40
1.0
 10
0.0
 20
0.0
 30
2.000000000000000E+50
 75
     0
  0
DIMASSOC
  5
11CE
102
{ACAD_REACTORS
330
11CD
102
}
330
11CD
100
AcDbDimAssoc
330
11CC
 90
        2
 70
     0
 71
     0
  1
AcDbOsnapPointRef
 72
     1
331
1169
 73
     2
 91
        0
 40
1.0
 10
0.0
 20
0.0
 30
2.000000000000000E+50
 75
     0
  0
DIMASSOC
  5
11D1
102
{ACAD_REACTORS
330
11D0
102
}
330
11D0
100
AcDbDimAssoc
330
11CF
 90
        2
 70
     0
 71
     0
  1
AcDbOsnapPointRef
 72
     6
331
118F
 73
     2
 91
        0
 40
0.4999999999999368
 10
0.0
 20
0.0
 30
0.0
332
117D
 74
     2
 92
        0
 75
     0
  0
DIMASSOC
  5
11D4
102
{ACAD_REACTORS
330
11D3
102
}
330
11D3
100
AcDbDimAssoc
330
11D2
 90
        3
 70
     0
 71
     0
  1
AcDbOsnapPointRef
 72
     1
331
1152
 73
     2
 91
        0
 40
1.0
 10
0.0
 20
0.0
 30
2.000000000000000E+50
 75
     0
  1
AcDbOsnapPointRef
 72
    13
331
1153
 73
     2
 91
        0
 40
0.0
 10
0.0
 20
0.0
 30
2.000000000000000E+50
 75
     0
  0
DIMASSOC
  5
11D9
102
{ACAD_REACTORS
330
11D8
102
}
330
11D8
100
AcDbDimAssoc
330
11D7
 90
        3
 70
     0
 71
     0
  1
AcDbOsnapPointRef
 72
     1
331
116D
 73
     2
 91
        0
 40
0.9999999999999998
 10
0.0
 20
0.0
 30
2.000000000000000E+50
 75
     0
  1
AcDbOsnapPointRef
 72
     3
331
117E
 73
     2
 91
        0
 40
0.0
 10
0.0
 20
0.0
 30
0.0
 75
     0
  0
DIMASSOC
  5
11DC
102
{ACAD_REACTORS
330
11DB
102
}
330
11DB
100
AcDbDimAssoc
330
11DA
 90
        3
 70
     0
 71
     0
  1
AcDbOsnapPointRef
 72
     3
331
1108
 73
     2
 91
        0
 40
0.0
 10
0.0
 20
0.0
 30
0.0
 75
     0
  1
AcDbOsnapPointRef
 72
     3
331
1109
 73
     2
 91
        0
 40
0.0
 10
0.0
 20
0.0
 30
0.0
 75
     0
  0
DIMASSOC
  5
11DF
102
{ACAD_REACTORS
330
11DE
102
}
330
11DE
100
AcDbDimAssoc
330
11DD
 90
        3
 70
     0
 71
     0
  1
AcDbOsnapPointRef
 72
     3
331
1109
 73
     2
 91
        0
 40
0.0
 10
0.0
 20
0.0
 30
0.0
 75
     0
  1
AcDbOsnapPointRef
 72
     3
331
110A
 73
     2
 91
        0
 40
0.0
 10
0.0
 20
0.0
 30
0.0
 75
     0
  0
DIMASSOC
  5
11E2
102
{ACAD_REACTORS
330
11E1
102
}
330
11E1
100
AcDbDimAssoc
330
11E0
 90
        3
 70
     0
 71
     0
  1
AcDbOsnapPointRef
 72
     1
331
1101
 73
     2
 91
        0
 40
1.570796012635645
 10
0.0
 20
0.0
 30
2.000000000000000E+50
 75
     0
  1
AcDbOsnapPointRef
 72
     6
331
1177
 73
     2
 91
        0
 40
0.9999999920465995
 10
0.0
 20
0.0
 30
0.0
332
1102
 74
     2
 92
        0
 75
     0
  0
LAYOUT
  5
239
102
{ACAD_REACTORS
330
237
102
}
330
237
100
AcDbPlotSettings
  1

  2
RICOH imagio Neo 602 RPCS
  4

  6

 40
0.0
 41
0.0
 42
0.0
 43
0.0
 44
0.0
 45
0.0
 46
0.0
 47
0.0
 48
0.0
 49
0.0
140
0.0
141
0.0
142
1.0
143
1.0
 70
  1712
 72
     0
 73
     0
 74
     0
  7

 75
     0
147
1.0
 76
     0
 77
     2
 78
   300
148
0.0
149
0.0
100
AcDbLayout
  1
Model
 70
     1
 71
     0
 10
0.0
 20
0.0
 11
12.0
 21
9.0
 12
0.0
 22
0.0
 32
0.0
 14
0.0
 24
0.0
 34
0.0
 15
0.0
 25
0.0
 35
0.0
146
0.0
 13
0.0
 23
0.0
 33
0.0
 16
1.0
 26
0.0
 36
0.0
 17
0.0
 27
1.0
 37
0.0
 76
     0
330
A
  0
LAYOUT
  5
23A
102
{ACAD_REACTORS
330
237
102
}
330
237
100
AcDbPlotSettings
  1

  2
RICOH imagio Neo 602 RPCS
  4

  6

 40
0.0
 41
0.0
 42
0.0
 43
0.0
 44
0.0
 45
0.0
 46
0.0
 47
0.0
 48
0.0
 49
0.0
140
0.0
141
0.0
142
1.0
143
1.0
 70
   688
 72
     0
 73
     0
 74
     5
  7

 75
    16
147
1.0
 76
     0
 77
     2
 78
   300
148
0.0
149
0.0
100
AcDbLayout
  1
レイアウト1
 70
     0
 71
     1
 10
0.0
 20
0.0
 11
12.0
 21
9.0
 12
0.0
 22
0.0
 32
0.0
 14
1.000000000000000E+20
 24
1.000000000000000E+20
 34
1.000000000000000E+20
 15
-1.000000000000000E+20
 25
-1.000000000000000E+20
 35
-1.000000000000000E+20
146
0.0
 13
0.0
 23
0.0
 33
0.0
 16
1.0
 26
0.0
 36
0.0
 17
0.0
 27
1.0
 37
0.0
 76
     0
330
B
  0
MLINESTYLE
  5
1C
102
{ACAD_REACTORS
330
1B
102
}
330
1B
100
AcDbMlineStyle
  2
STANDARD
 70
     0
  3

 62
     0
 51
90.0
 52
90.0
 71
     2
 49
0.5
 62
   256
  6
BYLAYER
 49
-0.5
 62
   256
  6
BYLAYER
  0
ACDBPLACEHOLDER
  5
232
102
{ACAD_REACTORS
330
231
102
}
330
231
  0
TABLESTYLE
  5
236
102
{ACAD_REACTORS
330
235
102
}
330
235
100
AcDbTableStyle
  3
Standard
 70
     0
 71
     0
 40
1.5
 41
1.5
280
     0
281
     0
  7
MX_NOTE_STANDARD
140
4.5
170
     2
 62
     0
 63
     7
283
     0
274
    -2
284
     1
 64
     0
275
    -2
285
     1
 65
     0
276
    -2
286
     1
 66
     0
277
    -2
287
     1
 67
     0
278
    -2
288
     1
 68
     0
279
    -2
289
     1
 69
     0
  7
MX_NOTE_STANDARD
140
6.0
170
     5
 62
     0
 63
     7
283
     0
274
    -2
284
     1
 64
     0
275
    -2
285
     1
 65
     0
276
    -2
286
     1
 66
     0
277
    -2
287
     1
 67
     0
278
    -2
288
     1
 68
     0
279
    -2
289
     1
 69
     0
  7
MX_NOTE_STANDARD
140
4.5
170
     5
 62
     0
 63
     7
283
     0
274
    -2
284
     1
 64
     0
275
    -2
285
     1
 65
     0
276
    -2
286
     1
 66
     0
277
    -2
287
     1
 67
     0
278
    -2
288
     1
 68
     0
279
    -2
289
     1
 69
     0
  0
DICTIONARYVAR
  5
CEE
102
{ACAD_REACTORS
330
CED
102
}
330
CED
100
DictionaryVariables
280
     0
  1
STANDARD
  0
DICTIONARY
  5
2A3
102
{ACAD_REACTORS
330
295
102
}
330
295
100
AcDbDictionary
281
     1
  0
XRECORD
  5
2C1
102
{ACAD_REACTORS
330
295
102
}
330
295
100
AcDbXrecord
280
     1
 90
-1023410169
  0
XRECORD
  5
1442
102
{ACAD_REACTORS
330
1441
102
}
330
1441
100
AcDbXrecord
280
     1
330
1195
330
1198
330
184
330
185
330
191
330
192
330
19E
330
19F
330
1AB
330
1AC
330
1B8
330
1B9
330
1C7
330
1C8
330
1D4
330
1D5
330
1E1
330
1E2
330
1EE
330
1EF
330
1FB
330
1FC
330
208
330
209
330
215
330
216
330
222
330
223
330
397
330
398
330
3A3
330
3A4
330
3AF
330
3B0
330
3BB
330
3BC
330
3C7
330
3C8
330
3D3
330
3D4
330
3DF
330
3E0
330
3EA
330
3F3
330
3F4
330
3FF
330
400
330
40B
330
40C
330
418
330
417
330
C85
330
C86
330
C8E
330
C8F
330
C97
330
C98
330
CA0
330
CA1
330
CA9
330
CAA
330
CB1
330
CB7
330
CB8
330
CC0
330
CC1
330
CC9
330
CCA
330
CD2
330
CD3
330
CDB
330
CDC
330
CE4
330
CE5
330
EA6
330
FF2
330
FF5
330
EA5
330
1399
330
139A
330
13A2
330
13A3
330
13AB
330
13AC
330
1437
330
1438
330
13BA
330
13BB
330
13C3
330
13C4
330
13CC
330
13CD
330
13D5
330
13D6
330
13DE
330
13DF
330
13E7
330
13E8
330
13F0
330
13F1
330
13F9
330
13FA
330
1403
330
1404
330
140C
330
140D
330
1415
330
1416
330
141E
330
141F
330
1427
330
1428
330
1430
330
1431
330
DC6
330
DC7
330
DD2
330
DD3
330
DDE
330
DDF
330
DE8
330
DE9
330
DF3
330
DF4
330
DFF
330
E00
330
E0B
330
E0C
330
E17
330
E18
330
E23
330
E24
330
E2F
330
E30
330
E3B
330
E3C
330
E47
330
E48
330
E54
330
E55
330
E60
330
E61
330
E6D
330
E6E
330
E79
330
E7A
330
E85
330
E86
330
E91
330
E92
  0
ENDSEC
  0
EOF
