  0
SECTION
  2
HEADER
  9
$ACADVER
  1
AC1015
  9
$ACADMAINTVER
 70
    20
  9
$DWGCODEPAGE
  3
ANSI_932
  9
$INSBASE
 10
0.0
 20
0.0
 30
0.0
  9
$EXTMIN
 10
-217.5192209888434
 20
-148.513591984968
 30
-0.0000000000000058
  9
$EXTMAX
 10
202.5192288123719
 20
148.5135975173197
 30
0.0000000000000104
  9
$LIMMIN
 10
-217.5
 20
-148.5
  9
$LIMMAX
 10
202.5
 20
148.5
  9
$ORTHOMODE
 70
     0
  9
$REGENMODE
 70
     1
  9
$FILLMODE
 70
     1
  9
$QTEXTMODE
 70
     0
  9
$MIRRTEXT
 70
     1
  9
$LTSCALE
 40
1.0
  9
$ATTMODE
 70
     1
  9
$TEXTSIZE
 40
4.166999999999998
  9
$TRACEWID
 40
0.05
  9
$TEXTSTYLE
  7
MX_NOTE_STANDARD
  9
$CLAYER
  8
0
  9
$CELTYPE
  6
CONTINUOUS
  9
$CECOLOR
 62
   256
  9
$CELTSCALE
 40
1.0
  9
$DISPSILH
 70
     0
  9
$DIMSCALE
 40
1.0
  9
$DIMASZ
 40
2.5
  9
$DIMEXO
 40
1.27
  9
$DIMDLI
 40
3.75
  9
$DIMRND
 40
0.0
  9
$DIMDLE
 40
0.0
  9
$DIMEXE
 40
1.199999999999999
  9
$DIMTP
 40
0.0
  9
$DIMTM
 40
0.0
  9
$DIMTXT
 40
4.166999999999998
  9
$DIMCEN
 40
2.5
  9
$DIMTSZ
 40
0.0
  9
$DIMTOL
 70
     0
  9
$DIMLIM
 70
     0
  9
$DIMTIH
 70
     0
  9
$DIMTOH
 70
     0
  9
$DIMSE1
 70
     0
  9
$DIMSE2
 70
     0
  9
$DIMTAD
 70
     1
  9
$DIMZIN
 70
     8
  9
$DIMBLK
  1

  9
$DIMASO
 70
     1
  9
$DIMSHO
 70
     1
  9
$DIMPOST
  1

  9
$DIMAPOST
  1

  9
$DIMALT
 70
     0
  9
$DIMALTD
 70
     4
  9
$DIMALTF
 40
0.03937
  9
$DIMLFAC
 40
1.0
  9
$DIMTOFL
 70
     1
  9
$DIMTVP
 40
0.0
  9
$DIMTIX
 70
     0
  9
$DIMSOXD
 70
     0
  9
$DIMSAH
 70
     0
  9
$DIMBLK1
  1

  9
$DIMBLK2
  1

  9
$DIMSTYLE
  2
MXDIMSTYLE
  9
$DIMCLRD
 70
     0
  9
$DIMCLRE
 70
     0
  9
$DIMCLRT
 70
     0
  9
$DIMTFAC
 40
1.0
  9
$DIMGAP
 40
1.0
  9
$DIMJUST
 70
     0
  9
$DIMSD1
 70
     0
  9
$DIMSD2
 70
     0
  9
$DIMTOLJ
 70
     1
  9
$DIMTZIN
 70
     0
  9
$DIMALTZ
 70
     0
  9
$DIMALTTZ
 70
     0
  9
$DIMUPT
 70
     1
  9
$DIMDEC
 70
     4
  9
$DIMTDEC
 70
     4
  9
$DIMALTU
 70
     2
  9
$DIMALTTD
 70
     4
  9
$DIMTXSTY
  7
MX_NOTE_STANDARD
  9
$DIMAUNIT
 70
     0
  9
$DIMADEC
 70
     0
  9
$DIMALTRND
 40
0.0
  9
$DIMAZIN
 70
     0
  9
$DIMDSEP
 70
    46
  9
$DIMATFIT
 70
     3
  9
$DIMFRAC
 70
     0
  9
$DIMLDRBLK
  1

  9
$DIMLUNIT
 70
     2
  9
$DIMLWD
 70
    -2
  9
$DIMLWE
 70
    -2
  9
$DIMTMOVE
 70
     0
  9
$LUNITS
 70
     2
  9
$LUPREC
 70
     2
  9
$SKETCHINC
 40
0.1
  9
$FILLETRAD
 40
0.0
  9
$AUNITS
 70
     0
  9
$AUPREC
 70
     0
  9
$MENU
  1
acad
  9
$ELEVATION
 40
0.0
  9
$PELEVATION
 40
0.0
  9
$THICKNESS
 40
0.0
  9
$LIMCHECK
 70
     0
  9
$CHAMFERA
 40
0.0
  9
$CHAMFERB
 40
0.0
  9
$CHAMFERC
 40
0.0
  9
$CHAMFERD
 40
0.0
  9
$SKPOLY
 70
     0
  9
$TDCREATE
 40
2453888.829837963
  9
$TDUCREATE
 40
2453888.454837963
  9
$TDUPDATE
 40
2455712.550939781
  9
$TDUUPDATE
 40
2455712.175939780
  9
$TDINDWG
 40
0.0351427083
  9
$TDUSRTIMER
 40
0.0351414468
  9
$USRTIMER
 70
     1
  9
$ANGBASE
 50
0.0
  9
$ANGDIR
 70
     0
  9
$PDMODE
 70
     0
  9
$PDSIZE
 40
0.0
  9
$PLINEWID
 40
0.0
  9
$SPLFRAME
 70
     0
  9
$SPLINETYPE
 70
     6
  9
$SPLINESEGS
 70
     8
  9
$HANDSEED
  5
700
  9
$SURFTAB1
 70
     6
  9
$SURFTAB2
 70
     6
  9
$SURFTYPE
 70
     6
  9
$SURFU
 70
     6
  9
$SURFV
 70
     6
  9
$UCSBASE
  2

  9
$UCSNAME
  2

  9
$UCSORG
 10
0.0
 20
0.0
 30
0.0
  9
$UCSXDIR
 10
1.0
 20
0.0
 30
0.0
  9
$UCSYDIR
 10
0.0
 20
1.0
 30
0.0
  9
$UCSORTHOREF
  2

  9
$UCSORTHOVIEW
 70
     0
  9
$UCSORGTOP
 10
0.0
 20
0.0
 30
0.0
  9
$UCSORGBOTTOM
 10
0.0
 20
0.0
 30
0.0
  9
$UCSORGLEFT
 10
0.0
 20
0.0
 30
0.0
  9
$UCSORGRIGHT
 10
0.0
 20
0.0
 30
0.0
  9
$UCSORGFRONT
 10
0.0
 20
0.0
 30
0.0
  9
$UCSORGBACK
 10
0.0
 20
0.0
 30
0.0
  9
$PUCSBASE
  2

  9
$PUCSNAME
  2

  9
$PUCSORG
 10
0.0
 20
0.0
 30
0.0
  9
$PUCSXDIR
 10
1.0
 20
0.0
 30
0.0
  9
$PUCSYDIR
 10
0.0
 20
1.0
 30
0.0
  9
$PUCSORTHOREF
  2

  9
$PUCSORTHOVIEW
 70
     0
  9
$PUCSORGTOP
 10
0.0
 20
0.0
 30
0.0
  9
$PUCSORGBOTTOM
 10
0.0
 20
0.0
 30
0.0
  9
$PUCSORGLEFT
 10
0.0
 20
0.0
 30
0.0
  9
$PUCSORGRIGHT
 10
0.0
 20
0.0
 30
0.0
  9
$PUCSORGFRONT
 10
0.0
 20
0.0
 30
0.0
  9
$PUCSORGBACK
 10
0.0
 20
0.0
 30
0.0
  9
$USERI1
 70
     0
  9
$USERI2
 70
     0
  9
$USERI3
 70
     0
  9
$USERI4
 70
     0
  9
$USERI5
 70
     0
  9
$USERR1
 40
0.0
  9
$USERR2
 40
0.0
  9
$USERR3
 40
0.0
  9
$USERR4
 40
0.0
  9
$USERR5
 40
0.0
  9
$WORLDVIEW
 70
     1
  9
$SHADEDGE
 70
     3
  9
$SHADEDIF
 70
    70
  9
$TILEMODE
 70
     1
  9
$MAXACTVP
 70
    16
  9
$PINSBASE
 10
0.0
 20
0.0
 30
0.0
  9
$PLIMCHECK
 70
     0
  9
$PEXTMIN
 10
1.000000000000000E+20
 20
1.000000000000000E+20
 30
1.000000000000000E+20
  9
$PEXTMAX
 10
-1.000000000000000E+20
 20
-1.000000000000000E+20
 30
-1.000000000000000E+20
  9
$PLIMMIN
 10
0.0
 20
0.0
  9
$PLIMMAX
 10
12.0
 20
9.0
  9
$UNITMODE
 70
     0
  9
$VISRETAIN
 70
     0
  9
$PLINEGEN
 70
     1
  9
$PSLTSCALE
 70
     0
  9
$TREEDEPTH
 70
  3020
  9
$CMLSTYLE
  2
STANDARD
  9
$CMLJUST
 70
     0
  9
$CMLSCALE
 40
1.0
  9
$PROXYGRAPHICS
 70
     1
  9
$MEASUREMENT
 70
     1
  9
$CELWEIGHT
370
    -1
  9
$ENDCAPS
280
     0
  9
$JOINSTYLE
280
     0
  9
$LWDISPLAY
290
     0
  9
$INSUNITS
 70
     0
  9
$HYPERLINKBASE
  1

  9
$STYLESHEET
  1

  9
$XEDIT
290
     1
  9
$CEPSNTYPE
380
     0
  9
$PSTYLEMODE
290
     1
  9
$FINGERPRINTGUID
  2
{30C3A4B9-318B-4491-8FC9-81A68DA063AD}
  9
$VERSIONGUID
  2
{7CAADD7C-EF44-459D-A19C-A978EFB55680}
  9
$EXTNAMES
290
     1
  9
$PSVPSCALE
 40
0.0
  9
$OLESTARTUP
290
     0
  0
ENDSEC
  0
SECTION
  2
CLASSES
  0
CLASS
  1
IMAGE
  2
AcDbRasterImage
  3
ISM
 90
    32895
280
     0
281
     1
  0
CLASS
  1
DICTIONARYVAR
  2
AcDbDictionaryVar
  3
ObjectDBX Classes
 90
        0
280
     0
281
     0
  0
CLASS
  1
RASTERVARIABLES
  2
AcDbRasterVariables
  3
ISM
 90
    32768
280
     0
281
     0
  0
CLASS
  1
IMAGEDEF
  2
AcDbRasterImageDef
  3
ISM
 90
    32768
280
     0
281
     0
  0
CLASS
  1
IMAGEDEF_REACTOR
  2
AcDbRasterImageDefReactor
  3
ISM
 90
    32769
280
     0
281
     0
  0
CLASS
  1
IDBUFFER
  2
AcDbIdBuffer
  3
ObjectDBX Classes
 90
    32768
280
     0
281
     0
  0
CLASS
  1
SPATIAL_FILTER
  2
AcDbSpatialFilter
  3
ObjectDBX Classes
 90
    32768
280
     0
281
     0
  0
CLASS
  1
SORTENTSTABLE
  2
AcDbSortentsTable
  3
ObjectDBX Classes
 90
        0
280
     0
281
     0
  0
CLASS
  1
LAYER_INDEX
  2
AcDbLayerIndex
  3
ObjectDBX Classes
 90
    32768
280
     0
281
     0
  0
CLASS
  1
SPATIAL_INDEX
  2
AcDbSpatialIndex
  3
ObjectDBX Classes
 90
    32768
280
     0
281
     0
  0
CLASS
  1
OBJECT_PTR
  2
CAseDLPNTableRecord
  3
ASE-LPNTableRecord
 90
    32769
280
     0
281
     0
  0
CLASS
  1
PLOTSETTINGS
  2
AcDbPlotSettings
  3
ObjectDBX Classes
 90
    32768
280
     0
281
     0
  0
CLASS
  1
ACDBDICTIONARYWDFLT
  2
AcDbDictionaryWithDefault
  3
ObjectDBX Classes
 90
        0
280
     0
281
     0
  0
CLASS
  1
TABLESTYLE
  2
AcDbTableStyle
  3
ObjectDBX Classes
 90
     4095
280
     0
281
     0
  0
CLASS
  1
VAACXREFPANELOBJECT
  2
VaAcXREFPanelObject
  3
VAAC_ADDIN
 90
    32768
280
     0
281
     0
  0
CLASS
  1
VAACIMAGEINVENTORY
  2
VaAcImageInventory
  3
VAAC_ADDIN
 90
    32768
280
     0
281
     0
  0
CLASS
  1
MATERIAL
  2
AcDbMaterial
  3
ObjectDBX Classes
 90
     1153
280
     0
281
     0
  0
CLASS
  1
VISUALSTYLE
  2
AcDbVisualStyle
  3
ObjectDBX Classes
 90
     4095
280
     0
281
     0
  0
CLASS
  1
SCALE
  2
AcDbScale
  3
ObjectDBX Classes
 90
     1153
280
     0
281
     0
  0
CLASS
  1
MLEADERSTYLE
  2
AcDbMLeaderStyle
  3
ACDB_MLEADERSTYLE_CLASS
 90
     4095
280
     0
281
     0
  0
CLASS
  1
AMGSETTINGSOBJ
  2
AmgSettingsObj
  3
"AcadM|Product Description: AutoCAD Mechanical|Company: Autodesk, Inc."
 90
     1024
280
     0
281
     0
  0
CLASS
  1
ACME_DOCUMENT
  2
AcMeDbDoc
  3
AcMeServices
 90
     1024
280
     0
281
     0
  0
CLASS
  1
ACMESCOPE
  2
AcMeScope
  3
AcMeServices
 90
     1024
280
     0
281
     0
  0
CLASS
  1
ACMECOMMANDHISTORY
  2
AcMeCommandHistory
  3
AcMeServices
 90
     1024
280
     0
281
     0
  0
CLASS
  1
ACIMSYSVARMAN
  2
AcImSysVarManager
  3
AcMeServices
 90
     1024
280
     0
281
     0
  0
CLASS
  1
ACIMINTSYSVAR
  2
AcImIntSysVar
  3
AcMeServices
 90
     1024
280
     0
281
     0
  0
CLASS
  1
ACMEDRAWINGMAN
  2
AcMeDrawingMan
  3
AcMeServices
 90
     1024
280
     0
281
     0
  0
CLASS
  1
ACMEVIEW
  2
AcMeView
  3
AcMeServices
 90
     1024
280
     0
281
     0
  0
CLASS
  1
ACDBENTITYCACHE
  2
AcMeEntityCache
  3
AcMeServices
 90
     1024
280
     0
281
     0
  0
CLASS
  1
ACMESTATEMGR
  2
AcMeStateMgr
  3
AcMeServices
 90
     1024
280
     0
281
     0
  0
CLASS
  1
ACGREFMASTER
  2
AcGrefMaster
  3
AcAttribServices
 90
     1024
280
     0
281
     0
  0
CLASS
  1
AM_DRAWING_MGR
  2
AcDmDwgMgr
  3
AcMechDwgViewMgmt
 90
     1024
280
     0
281
     0
  0
CLASS
  1
AM_DWG_DOCUMENT
  2
AcDmDwgDocument
  3
AcMechDwgViewMgmt
 90
     1024
280
     0
281
     0
  0
CLASS
  1
AM_DWG_SHEET
  2
AcDmSheet
  3
AcMechDwgViewMgmt
 90
     1024
280
     0
281
     0
  0
CLASS
  1
AM_VIEWDIMPARMAP
  2
AcDmViewDimParMap
  3
AcMechDwgViewMgmt
 90
     1024
280
     0
281
     0
  0
CLASS
  1
AMDTINTERNALREACTOR
  2
AmdtInternalReactor
  3
AcMeServices
 90
     1024
280
     0
281
     0
  0
CLASS
  1
ACIMREALSYSVAR
  2
AcImRealSysVar
  3
AcMeServices
 90
     1024
280
     0
281
     0
  0
CLASS
  1
AM_DWGMGR_NAME
  2
AcDmDwgMgrName
  3
AcMechDwgViewMgmt
 90
     1024
280
     0
281
     0
  0
CLASS
  1
ACME_DATABASE
  2
AcMeDbDatabase
  3
AcMeServices
 90
     1024
280
     0
281
     0
  0
CLASS
  1
ACRFINSADJUSTERMGR
  2
AcRfInsAdjusterMgr
  3
AcMeServices
 90
     1024
280
     0
281
     0
  0
CLASS
  1
ACGREFACADMASTER
  2
AcGrefacadMaster
  3
AcGrefServices
 90
     1024
280
     0
281
     0
  0
CLASS
  1
AMDTMENUSTATEMGR
  2
AmdtMenuStateMgr
  3
McadcomServices
 90
     1024
280
     0
281
     0
  0
CLASS
  1
AMDTMCOMMENUSTATE
  2
AmdtMcomMenuState
  3
McadcomServices
 90
     1024
280
     0
281
     0
  0
CLASS
  1
AMIMASTER
  2
AmiMaster
  3
AmiServices
 90
     1024
280
     0
281
     0
  0
CLASS
  1
MAPIAMMOUDLE
  2
MApiAmModule
  3
MApiAmServices
 90
     1024
280
     0
281
     0
  0
CLASS
  1
ACIMSTRSYSVAR
  2
AcImStrSysVar
  3
AcMeServices
 90
     1024
280
     0
281
     0
  0
CLASS
  1
AMDTADMENUSTATE
  2
AmdtAdMenuState
  3
DesignerServices
 90
     1024
280
     0
281
     0
  0
CLASS
  1
ADAPPL
  2
AcAdAppl
  3
DesignerServices
 90
     1024
280
     0
281
     0
  0
CLASS
  1
DEPMGR
  2
AcAdDepMgr
  3
DesignerServices
 90
     1024
280
     0
281
     0
  0
CLASS
  1
PARAMMGR
  2
AcAdParamMgr
  3
DesignerServices
 90
     1024
280
     0
281
     0
  0
CLASS
  1
PARAMSCOPE
  2
AcAdParamScope
  3
DesignerServices
 90
     1024
280
     0
281
     0
  0
CLASS
  1
NAMEDAPPL
  2
AcAdNamedAppl
  3
DesignerServices
 90
     1024
280
     0
281
     0
  0
CLASS
  1
AMDTDMMENUSTATE
  2
AmdtDmMenuState
  3
AcMechDwgViewMgmt
 90
     1024
280
     0
281
     0
  0
CLASS
  1
AMDTAMMENUSTATE
  2
AmdtAmMenuState
  3
DesignerAssemblies
 90
     1024
280
     0
281
     0
  0
CLASS
  1
ACAMPROJECT
  2
AcAmProject
  3
DesignerAssemblies
 90
     1024
280
     0
281
     0
  0
CLASS
  1
ACAMGRCOMPDEF
  2
AcAmGrCompDef
  3
DesignerAssemblies
 90
     1024
280
     0
281
     0
  0
CLASS
  1
ACAMCOMPDEF
  2
AcAmCompDef
  3
DesignerAssemblies
 90
     1024
280
     0
281
     0
  0
CLASS
  1
ACAMCOMPDEFMGR
  2
AcAmCompDefMgr
  3
DesignerAssemblies
 90
     1024
280
     0
281
     0
  0
CLASS
  1
AMCONTEXTMGR
  2
AcAmContextMgr
  3
DesignerAssemblies
 90
     1024
280
     0
281
     0
  0
CLASS
  1
ACAMCONTEXTMODELER
  2
AcAmContextModeler
  3
DesignerAssemblies
 90
     1024
280
     0
281
     0
  0
CLASS
  1
ACMDATADICTIONARY
  2
AcmDataDictionary
  3
"AcmSymBB|Product Description: AutoCAD Mechanical|Company: Autodesk, Inc."
 90
     1024
280
     0
281
     0
  0
CLASS
  1
CATALOGSTATE
  2
AcAmCatalogState
  3
DesignerAssemblies
 90
     1024
280
     0
281
     0
  0
CLASS
  1
ACAMGRCOMPDEFSET
  2
AcAmGrCompDefSet
  3
DesignerAssemblies
 90
     1024
280
     0
281
     0
  0
CLASS
  1
AMDTBROWSERDBTAB
  2
AmdtBrowserDbTab
  3
McadcomServices
 90
     1024
280
     0
281
     0
  0
CLASS
  1
CBROWSERAPPOBJECT
  2
CBrowserAppObject
  3
McadcomServices
 90
     1024
280
     0
281
     0
  0
CLASS
  1
DM_PLACEHOLDER
  2
AcDmSelsetPlaceholder
  3
AcMechDwgViewMgmt
 90
     1024
280
     0
281
     0
  0
CLASS
  1
ACMSTANDARDISO
  2
AcmStandardISO
  3
"Amdt_StdImp|Product Description: AutoCAD Mechanical|Company: Autodesk, Inc."
 90
     1024
280
     0
281
     0
  0
CLASS
  1
AMDTEDGESTANDARDISO13715
  2
AmdtEdgeStdISO13715
  3
"Amdt_StdImp|Product Description: AutoCAD Mechanical|Company: Autodesk, Inc."
 90
     1024
280
     0
281
     0
  0
CLASS
  1
ACMSURFSTANDARDISO2002
  2
AcmSurfTextStdISO2002
  3
"Amdt_StdImp|Product Description: AutoCAD Mechanical|Company: Autodesk, Inc."
 90
     1024
280
     0
281
     0
  0
CLASS
  1
ACMFCFSTANDARDISO
  2
AcmFCFStdISO
  3
"Amdt_StdImp|Product Description: AutoCAD Mechanical|Company: Autodesk, Inc."
 90
     1024
280
     0
281
     0
  0
CLASS
  1
ACMWELDSTANDARDISO
  2
AcmWeldingStdISO
  3
"Amdt_StdImp|Product Description: AutoCAD Mechanical|Company: Autodesk, Inc."
 90
     1024
280
     0
281
     0
  0
CLASS
  1
ACMIDSTANDARDISO
  2
AcmIdStdISO
  3
"Amdt_StdImp|Product Description: AutoCAD Mechanical|Company: Autodesk, Inc."
 90
     1024
280
     0
281
     0
  0
CLASS
  1
ACMDATUMSTANDARDISO
  2
AcmDatumStdISO
  3
"Amdt_StdImp|Product Description: AutoCAD Mechanical|Company: Autodesk, Inc."
 90
     1024
280
     0
281
     0
  0
CLASS
  1
ACMBOMSTANDARDISO
  2
AcmBOMStdISO
  3
"Amdt_StdImp|Product Description: AutoCAD Mechanical|Company: Autodesk, Inc."
 90
     1024
280
     0
281
     0
  0
CLASS
  1
ACMDETAILSTANDARDISO
  2
AmdtDetailSymStdISO
  3
"Amdt_StdImp|Product Description: AutoCAD Mechanical|Company: Autodesk, Inc."
 90
     1024
280
     0
281
     0
  0
CLASS
  1
ACMSECTIONSTANDARDISO2001
  2
AmdtSectionSymStdISO2001
  3
"Amdt_StdImp|Product Description: AutoCAD Mechanical|Company: Autodesk, Inc."
 90
     1024
280
     0
281
     0
  0
CLASS
  1
ACMCENTERLINESTANDARDISO
  2
AmdtCenterLineStdISO
  3
"Amdt_StdImp|Product Description: AutoCAD Mechanical|Company: Autodesk, Inc."
 90
     1024
280
     0
281
     0
  0
CLASS
  1
ACMTHREADLINESTANDARDISO
  2
AmdtThreadLineStdISO
  3
"Amdt_StdImp|Product Description: AutoCAD Mechanical|Company: Autodesk, Inc."
 90
     1024
280
     0
281
     0
  0
CLASS
  1
ACMNOTESTANDARDISO
  2
AmdtNoteStdISO
  3
"Amdt_StdImp|Product Description: AutoCAD Mechanical|Company: Autodesk, Inc."
 90
     1024
280
     0
281
     0
  0
CLASS
  1
ACMTAPERSTANDARDISO
  2
AcmTaperStdISO
  3
"Amdt_StdImp|Product Description: AutoCAD Mechanical|Company: Autodesk, Inc."
 90
     1024
280
     0
281
     0
  0
CLASS
  1
ACMANOOTATIONVIEWSTANDARDISO
  2
AmdtAnViewStdISO
  3
"Amdt_StdImp|Product Description: AutoCAD Mechanical|Company: Autodesk, Inc."
 90
     1024
280
     0
281
     0
  0
CLASS
  1
ACAMGLAYSTD
  2
AcAmgLayStd
  3
"AmgLay|Product Description: AutoCAD Mechanical|Company: Autodesk, Inc."
 90
     1024
280
     0
281
     0
  0
CLASS
  1
ACAMGDIMSTD
  2
AcAmgDimStd
  3
"AmgDim|Product Description: AutoCAD Mechanical|Company: Autodesk, Inc."
 90
     1024
280
     0
281
     0
  0
CLASS
  1
AMGOBJPROPCFG
  2
AmgObjPropCfg
  3
"AmgLay|Product Description: AutoCAD Mechanical|Company: Autodesk, Inc."
 90
     1025
280
     0
281
     0
  0
CLASS
  1
ACAMGHOLECHARTSTDISO
  2
AcAmgHoleChartStdISO
  3
AmgDim|Product Description: AutoCAD Mechanical|Company: Autodesk, Inc.
 90
     1024
280
     0
281
     0
  0
CLASS
  1
ACAMGTITLESTD
  2
AcAmgTitleStd
  3
"AmgTitle|Product Description: AutoCAD Mechanical|Company: Autodesk, Inc."
 90
     4095
280
     0
281
     0
  0
CLASS
  1
AMDTNOTETEMPLATEDB
  2
AmdtNoteTemplateDB
  3
AcmSymBB|Product Description: AutoCAD Mechanical|Company: Autodesk, Inc.
 90
     1024
280
     0
281
     0
  0
CLASS
  1
ACAMGFILTERDAT
  2
AcAmgFilterDat
  3
"AcadM|Product Description: AutoCAD Mechanical|Company: Autodesk, Inc."
 90
    33792
280
     0
281
     0
  0
CLASS
  1
CAMSSTRUCTBTNSTATE
  2
StructBtnState
  3
DesignerAssemblies
 90
    33792
280
     0
281
     0
  0
CLASS
  1
CELLSTYLEMAP
  2
AcDbCellStyleMap
  3
ObjectDBX Classes
 90
     1152
280
     0
281
     0
  0
CLASS
  1
ACDBPLACEHOLDER
  2
AcDbPlaceHolder
  3
ObjectDBX Classes
 90
        0
280
     0
281
     0
  0
CLASS
  1
LAYOUT
  2
AcDbLayout
  3
ObjectDBX Classes
 90
        0
280
     0
281
     0
  0
CLASS
  1
DIMASSOC
  2
AcDbDimAssoc
  3
"AcDbDimAssoc|Product Desc:     AcDim ARX App For Dimension|Company:          Autodesk, Inc.|WEB Address:      www.autodesk.com"
 90
        0
280
     0
281
     0
  0
CLASS
  1
ACMSTANDARDJIS
  2
AcmStandardJIS
  3
"Amdt_StdImp|Product Description: AutoCAD Mechanical|Company: Autodesk, Inc."
 90
     1024
280
     0
281
     0
  0
CLASS
  1
ACMSURFSTANDARDJIS
  2
AcmSurfTextStdJIS
  3
"Amdt_StdImp|Product Description: AutoCAD Mechanical|Company: Autodesk, Inc."
 90
     1024
280
     0
281
     0
  0
CLASS
  1
ACMFCFSTANDARDJIS98
  2
AcmFCFStdJIS98
  3
"Amdt_StdImp|Product Description: AutoCAD Mechanical|Company: Autodesk, Inc."
 90
     1024
280
     0
281
     0
  0
CLASS
  1
ACMWELDSTANDARDJIS
  2
AcmWeldingStdJIS
  3
"Amdt_StdImp|Product Description: AutoCAD Mechanical|Company: Autodesk, Inc."
 90
     1024
280
     0
281
     0
  0
CLASS
  1
ACMIDSTANDARDJIS
  2
AcmIdStdJIS
  3
"Amdt_StdImp|Product Description: AutoCAD Mechanical|Company: Autodesk, Inc."
 90
     1024
280
     0
281
     0
  0
CLASS
  1
ACMDATUMSTANDARDJIS
  2
AcmDatumStdJIS
  3
"Amdt_StdImp|Product Description: AutoCAD Mechanical|Company: Autodesk, Inc."
 90
     1024
280
     0
281
     0
  0
CLASS
  1
ACMBOMSTANDARDJIS
  2
AcmBOMStdJIS
  3
"Amdt_StdImp|Product Description: AutoCAD Mechanical|Company: Autodesk, Inc."
 90
     1024
280
     0
281
     0
  0
CLASS
  1
ACMDETAILSTANDARDJIS
  2
AmdtDetailSymStdJIS
  3
"Amdt_StdImp|Product Description: AutoCAD Mechanical|Company: Autodesk, Inc."
 90
     1024
280
     0
281
     0
  0
CLASS
  1
ACMSECTIONSTANDARDJIS
  2
AmdtSectionSymStdJIS
  3
"Amdt_StdImp|Product Description: AutoCAD Mechanical|Company: Autodesk, Inc."
 90
     1024
280
     0
281
     0
  0
CLASS
  1
ACMCENTERLINESTANDARDJIS
  2
AmdtCenterLineStdJIS
  3
"Amdt_StdImp|Product Description: AutoCAD Mechanical|Company: Autodesk, Inc."
 90
     1024
280
     0
281
     0
  0
CLASS
  1
ACMTHREADLINESTANDARDJIS
  2
AmdtThreadLineStdJIS
  3
"Amdt_StdImp|Product Description: AutoCAD Mechanical|Company: Autodesk, Inc."
 90
     1024
280
     0
281
     0
  0
CLASS
  1
ACMNOTESTANDARDJIS
  2
AmdtNoteStdJIS
  3
"Amdt_StdImp|Product Description: AutoCAD Mechanical|Company: Autodesk, Inc."
 90
     1024
280
     0
281
     0
  0
CLASS
  1
ACAMGHOLECHARTSTDJIS
  2
AcAmgHoleChartStdJIS
  3
AmgDim|Product Description: AutoCAD Mechanical|Company: Autodesk, Inc.
 90
     1024
280
     0
281
     0
  0
CLASS
  1
ACMTAPERSTANDARDJIS
  2
AcmTaperStdJIS
  3
"Amdt_StdImp|Product Description: AutoCAD Mechanical|Company: Autodesk, Inc."
 90
     1024
280
     0
281
     0
  0
CLASS
  1
ACMANOOTATIONVIEWSTANDARDJIS
  2
AmdtAnViewStdJIS
  3
"Amdt_StdImp|Product Description: AutoCAD Mechanical|Company: Autodesk, Inc."
 90
     1024
280
     0
281
     0
  0
CLASS
  1
AMDTEDGESTANDARDJIS
  2
AmdtEdgeStdJIS
  3
"Amdt_StdImp|Product Description: AutoCAD Mechanical|Company: Autodesk, Inc."
 90
     1024
280
     0
281
     0
  0
CLASS
  1
ACMDATAENTRYBLOCK
  2
AcmDataEntryBlock
  3
AcmSymBB|Product Description: AutoCAD Mechanical|Company: Autodesk, Inc.
 90
     1024
280
     0
281
     0
  0
ENDSEC
  0
SECTION
  2
TABLES
  0
TABLE
  2
VPORT
  5
7
330
0
100
AcDbSymbolTable
 70
     1
  0
VPORT
  5
21D
330
7
100
AcDbSymbolTableRecord
100
AcDbViewportTableRecord
  2
*Active
 70
     0
 10
0.0
 20
0.0
 11
1.0
 21
1.0
 12
-7.499996088235789
 22
0.0000027661758395
 13
0.0
 23
0.0
 14
1.0
 24
1.0
 15
0.0
 25
0.0
 16
0.0
 26
0.0
 36
1.0
 17
0.0
 27
0.0
 37
0.0
 40
299.0851146027655
 41
2.165317919075144
 42
50.0
 43
0.0
 44
0.0
 50
0.0
 51
0.0
 71
     0
 72
   100
 73
     1
 74
     1
 75
     0
 76
     0
 77
     0
 78
     0
281
     0
 65
     0
110
0.0
120
0.0
130
0.0
111
1.0
121
0.0
131
0.0
112
0.0
122
1.0
132
0.0
 79
     0
146
0.0
  0
ENDTAB
  0
TABLE
  2
LTYPE
  5
4
330
0
100
AcDbSymbolTable
 70
    21
  0
LTYPE
  5
11
330
4
100
AcDbSymbolTableRecord
100
AcDbLinetypeTableRecord
  2
BYBLOCK
 70
     0
  3

 72
    65
 73
     0
 40
0.0
  0
LTYPE
  5
12
330
4
100
AcDbSymbolTableRecord
100
AcDbLinetypeTableRecord
  2
BYLAYER
 70
     0
  3

 72
    65
 73
     0
 40
0.0
  0
LTYPE
  5
13
330
4
100
AcDbSymbolTableRecord
100
AcDbLinetypeTableRecord
  2
CONTINUOUS
 70
     0
  3
Solid line
 72
    65
 73
     0
 40
0.0
  0
LTYPE
  5
5E
330
4
100
AcDbSymbolTableRecord
100
AcDbLinetypeTableRecord
  2
NON_PLOTING
 70
     0
  3
Solid line
 72
    65
 73
     0
 40
0.0
  0
LTYPE
  5
135
330
4
100
AcDbSymbolTableRecord
100
AcDbLinetypeTableRecord
  2
CENTER
 70
     0
  3
Center ____ _ ____ _ ____ _ ____ _ ____ _ ____
 72
    65
 73
     4
 40
50.8
 49
31.75
 74
     0
 49
-6.349999999999997
 74
     0
 49
6.349999999999997
 74
     0
 49
-6.349999999999997
 74
     0
  0
LTYPE
  5
293
330
4
100
AcDbSymbolTableRecord
100
AcDbLinetypeTableRecord
  2
HIDDEN
 70
     0
  3
Hidden __ __ __ __ __ __ __ __ __ __ __ __ __ _
 72
    65
 73
     2
 40
9.524999999999996
 49
6.349999999999997
 74
     0
 49
-3.174999999999998
 74
     0
  0
LTYPE
  5
294
330
4
100
AcDbSymbolTableRecord
100
AcDbLinetypeTableRecord
  2
PHANTOM2
 70
     0
  3
Phantom (.5x) ___ _ _ ___ _ _ ___ _ _ ___ _ _
 72
    65
 73
     6
 40
31.75
 49
15.875
 74
     0
 49
-3.174999999999998
 74
     0
 49
3.174999999999998
 74
     0
 49
-3.174999999999998
 74
     0
 49
3.174999999999998
 74
     0
 49
-3.174999999999998
 74
     0
  0
LTYPE
  5
2DA
330
4
100
AcDbSymbolTableRecord
100
AcDbLinetypeTableRecord
  2
AM_ISO02W050
 70
     0
  3
__ __ __ __ __ __ __ __ __ __ __ __ __ __ __
 72
    65
 73
     2
 40
7.5
 49
6.0
 74
     0
 49
-1.5
 74
     0
  0
LTYPE
  5
2DB
330
4
100
AcDbSymbolTableRecord
100
AcDbLinetypeTableRecord
  2
AM_ISO08W050
 70
     0
  3
____ . ____ . ____ . ____ . ____ . ____ . ____
 72
    65
 73
     4
 40
18.0
 49
12.0
 74
     0
 49
-1.5
 74
     0
 49
3.0
 74
     0
 49
-1.5
 74
     0
  0
LTYPE
  5
2DC
330
4
100
AcDbSymbolTableRecord
100
AcDbLinetypeTableRecord
  2
AM_ISO09W050
 70
     0
  3
_____ . . _____ . . _____ . . ____ .. ____
 72
    65
 73
     6
 40
22.5
 49
12.0
 74
     0
 49
-1.5
 74
     0
 49
3.0
 74
     0
 49
-1.5
 74
     0
 49
3.0
 74
     0
 49
-1.5
 74
     0
  0
LTYPE
  5
2DD
330
4
100
AcDbSymbolTableRecord
100
AcDbLinetypeTableRecord
  2
Amconstr
 70
     0
  3
_______________________
 72
    65
 73
     2
 40
9999.0
 49
9999.0
 74
     0
 49
0.0
 74
     0
  0
LTYPE
  5
2DE
330
4
100
AcDbSymbolTableRecord
100
AcDbLinetypeTableRecord
  2
AM_ISO08W050x2
 70
     0
  3
__ . __ . __ . __ . __ . __
 72
    65
 73
     4
 40
9.0
 49
6.0
 74
     0
 49
-0.75
 74
     0
 49
1.5
 74
     0
 49
-0.75
 74
     0
  0
LTYPE
  5
2DF
330
4
100
AcDbSymbolTableRecord
100
AcDbLinetypeTableRecord
  2
AM_ISO02W050x2
 70
     0
  3
 _ _ _ _ _ _ _ _ _ _ _ _
 72
    65
 73
     2
 40
3.75
 49
3.0
 74
     0
 49
-0.75
 74
     0
  0
LTYPE
  5
2E2
330
4
100
AcDbSymbolTableRecord
100
AcDbLinetypeTableRecord
  2
Amzigzag
 70
     0
  3
/\/-/\/-/\/-/\/-/\/-/\/
 72
    65
 73
     2
 40
11.0001
 49
0.0001
 74
     4
 75
   136
340
2E1
 46
0.04
 50
0.0
 44
0.0
 45
0.0
 49
-11.0
 74
     0
  0
LTYPE
  5
2F1
330
4
100
AcDbSymbolTableRecord
100
AcDbLinetypeTableRecord
  2
ACISOWELD
 70
     0
  3
_ _ _ _ _
 72
    65
 73
     2
 40
2.0
 49
2.0
 74
     0
 49
-1.0
 74
     0
  0
LTYPE
  5
2F2
330
4
100
AcDbSymbolTableRecord
100
AcDbLinetypeTableRecord
  2
ACISOTGB
 70
     0
  3
__ . . __ . .
 72
    65
 73
     6
 40
9.0
 49
4.0
 74
     0
 49
-1.0
 74
     0
 49
1.0
 74
     0
 49
-1.0
 74
     0
 49
1.0
 74
     0
 49
-1.0
 74
     0
  0
LTYPE
  5
2F3
330
4
100
AcDbSymbolTableRecord
100
AcDbLinetypeTableRecord
  2
ACISOTGL
 70
     0
  3
_ _ _ _ _
 72
    65
 73
     2
 40
3.0
 49
2.0
 74
     0
 49
-1.0
 74
     0
  0
LTYPE
  5
597
330
4
100
AcDbSymbolTableRecord
100
AcDbLinetypeTableRecord
  2
ACJISTGB
 70
     0
  3
__ . . __ . .
 72
    65
 73
     6
 40
9.0
 49
4.0
 74
     0
 49
-1.0
 74
     0
 49
1.0
 74
     0
 49
-1.0
 74
     0
 49
1.0
 74
     0
 49
-1.0
 74
     0
  0
LTYPE
  5
598
330
4
100
AcDbSymbolTableRecord
100
AcDbLinetypeTableRecord
  2
ACJISTGL
 70
     0
  3
_ _ _ _ _
 72
    65
 73
     2
 40
3.0
 49
2.0
 74
     0
 49
-1.0
 74
     0
  0
LTYPE
  5
599
330
4
100
AcDbSymbolTableRecord
100
AcDbLinetypeTableRecord
  2
ACJISWELD
 70
     0
  3
_ _ _ _ _
 72
    65
 73
     2
 40
2.0
 49
2.0
 74
     0
 49
-1.0
 74
     0
  0
LTYPE
  5
59A
330
4
100
AcDbSymbolTableRecord
100
AcDbLinetypeTableRecord
  2
HIDDEN2
 70
     0
  3
Hidden (.5x) _ _ _ _ _ _ _ _ _ _ _ _ _ _ _ _ _
 72
    65
 73
     2
 40
4.762499999999999
 49
3.174999999999999
 74
     0
 49
-1.587499999999999
 74
     0
  0
LTYPE
  5
59B
330
4
100
AcDbSymbolTableRecord
100
AcDbLinetypeTableRecord
  2
CENTER2
 70
     0
  3
Center (.5x) ___ _ ___ _ ___ _ ___ _ ___ _ ___
 72
    65
 73
     4
 40
28.575
 49
19.05
 74
     0
 49
-3.174999999999999
 74
     0
 49
3.174999999999999
 74
     0
 49
-3.174999999999999
 74
     0
  0
ENDTAB
  0
TABLE
  2
LAYER
  5
2
102
{ACAD_XDICTIONARY
360
5B6
102
}
330
0
100
AcDbSymbolTable
 70
     9
  0
LAYER
  5
14
102
{ACAD_XDICTIONARY
360
3BB
102
}
330
2
100
AcDbSymbolTableRecord
100
AcDbLayerTableRecord
  2
0
 70
     0
 62
     7
  6
CONTINUOUS
370
    -3
390
182
  0
LAYER
  5
1D
330
2
100
AcDbSymbolTableRecord
100
AcDbLayerTableRecord
  2
DEFPOINTS
 70
     0
 62
     7
  6
CONTINUOUS
290
     0
370
    -3
390
182
  0
LAYER
  5
1E
102
{ACAD_XDICTIONARY
360
3BD
102
}
330
2
100
AcDbSymbolTableRecord
100
AcDbLayerTableRecord
  2
FV
 70
     0
 62
     7
  6
CONTINUOUS
370
    -3
390
182
  0
LAYER
  5
1F
102
{ACAD_XDICTIONARY
360
3BF
102
}
330
2
100
AcDbSymbolTableRecord
100
AcDbLayerTableRecord
  2
PV
 70
     0
 62
     7
  6
CONTINUOUS
370
    -3
390
182
  0
LAYER
  5
2FE
102
{ACAD_XDICTIONARY
360
3C1
102
}
330
2
100
AcDbSymbolTableRecord
100
AcDbLayerTableRecord
  2
AM_5
 70
     0
 62
     3
  6
CONTINUOUS
370
    25
390
182
1001
AcAecLayerStandard
1000

1000

  0
LAYER
  5
59C
102
{ACAD_XDICTIONARY
360
59D
102
}
330
2
100
AcDbSymbolTableRecord
100
AcDbLayerTableRecord
  2
PROFILE2
 70
     0
 62
     4
  6
CONTINUOUS
370
    35
390
182
  0
LAYER
  5
59E
102
{ACAD_XDICTIONARY
360
59F
102
}
330
2
100
AcDbSymbolTableRecord
100
AcDbLayerTableRecord
  2
DIMENSION
 70
     0
 62
     7
  6
CONTINUOUS
370
    18
390
182
  0
LAYER
  5
5A0
102
{ACAD_XDICTIONARY
360
5A1
102
}
330
2
100
AcDbSymbolTableRecord
100
AcDbLayerTableRecord
  2
CENTER1
 70
     0
 62
     7
  6
CENTER2
370
    18
390
182
  0
LAYER
  5
5A2
102
{ACAD_XDICTIONARY
360
5A3
102
}
330
2
100
AcDbSymbolTableRecord
100
AcDbLayerTableRecord
  2
TEXT
 70
     0
 62
     7
  6
CONTINUOUS
370
    18
390
182
  0
ENDTAB
  0
TABLE
  2
STYLE
  5
3
330
0
100
AcDbSymbolTable
 70
    10
  0
STYLE
  5
17
330
3
100
AcDbSymbolTableRecord
100
AcDbTextStyleTableRecord
  2
MX_NOTE_STANDARD
 70
     0
 40
0.0
 41
1.0
 50
0.0
 71
     0
 42
4.166999999999998
  3
txt.shx
  4
extfont.shx
  0
STYLE
  5
3B
330
3
100
AcDbSymbolTableRecord
100
AcDbTextStyleTableRecord
  2
MX_DIMTXSTY_2
 70
     0
 40
0.0
 41
0.85
 50
0.0
 71
     0
 42
4.166999999999998
  3
txt.shx
  4
extfont.shx
  0
STYLE
  5
180
330
3
100
AcDbSymbolTableRecord
100
AcDbTextStyleTableRecord
  2
Standard
 70
     0
 40
0.0
 41
1.0
 50
0.0
 71
     0
 42
0.2
  3

  4

  0
STYLE
  5
2E1
330
3
100
AcDbSymbolTableRecord
100
AcDbTextStyleTableRecord
  2

 70
     1
 40
0.0
 41
1.0
 50
0.0
 71
     0
 42
4.166999999999998
  3
genltshp.shx
  4

  0
STYLE
  5
2EF
330
3
100
AcDbSymbolTableRecord
100
AcDbTextStyleTableRecord
  2
ACISOTS
 70
     0
 40
1.0
 41
1.0
 50
0.0
 71
     0
 42
4.166999999999998
  3
isocp.shx
  4
extfont.shx
  0
STYLE
  5
2F0
330
3
100
AcDbSymbolTableRecord
100
AcDbTextStyleTableRecord
  2
ACISOGDT
 70
     0
 40
0.0
 41
1.0
 50
0.0
 71
     0
 42
4.166999999999998
  3
amgdt.shx
  4

  0
STYLE
  5
5A4
330
3
100
AcDbSymbolTableRecord
100
AcDbTextStyleTableRecord
  2

 70
     1
 40
0.0
 41
1.0
 50
0.0
 71
     0
 42
2.5
  3
ltypeshp.shx
  4

  0
STYLE
  5
5A5
330
3
100
AcDbSymbolTableRecord
100
AcDbTextStyleTableRecord
  2
ACJISTS
 70
     0
 40
1.0
 41
1.0
 50
0.0
 71
     0
 42
2.5
  3
isocp.shx
  4
extfont.shx
  0
STYLE
  5
5A6
330
3
100
AcDbSymbolTableRecord
100
AcDbTextStyleTableRecord
  2
ACJISGDT
 70
     0
 40
0.0
 41
1.0
 50
0.0
 71
     0
 42
2.5
  3
amgdt.shx
  4
extfont.shx
  0
STYLE
  5
5A7
330
3
100
AcDbSymbolTableRecord
100
AcDbTextStyleTableRecord
  2
ULVAC
 70
     0
 40
0.0
 41
1.0
 50
0.0
 71
     0
 42
4.0
  3
extslim2.shx
  4
extfont2.shx
  0
ENDTAB
  0
TABLE
  2
VIEW
  5
5
330
0
100
AcDbSymbolTable
 70
     0
  0
ENDTAB
  0
TABLE
  2
UCS
  5
6
330
0
100
AcDbSymbolTable
 70
     0
  0
ENDTAB
  0
TABLE
  2
APPID
  5
8
330
0
100
AcDbSymbolTable
 70
    27
  0
APPID
  5
16
330
8
100
AcDbSymbolTableRecord
100
AcDbRegAppTableRecord
  2
ACAD
 70
     0
  0
APPID
  5
190
330
8
100
AcDbSymbolTableRecord
100
AcDbRegAppTableRecord
  2
ACAD_PSEXT
 70
     0
  0
APPID
  5
219
330
8
100
AcDbSymbolTableRecord
100
AcDbRegAppTableRecord
  2
DCO15
 70
     0
  0
APPID
  5
268
330
8
100
AcDbSymbolTableRecord
100
AcDbRegAppTableRecord
  2
MCAD_NO_VIS
 70
     0
  0
APPID
  5
269
330
8
100
AcDbSymbolTableRecord
100
AcDbRegAppTableRecord
  2
ACAD_TEMP_GRAPHIC
 70
     0
  0
APPID
  5
296
330
8
100
AcDbSymbolTableRecord
100
AcDbRegAppTableRecord
  2
AD_DRAW
 70
     0
  0
APPID
  5
299
330
8
100
AcDbSymbolTableRecord
100
AcDbRegAppTableRecord
  2
ACATTRIBSERVICES
 70
     0
  0
APPID
  5
2B9
330
8
100
AcDbSymbolTableRecord
100
AcDbRegAppTableRecord
  2
DESIGNERASSEMBLIES
 70
     0
  0
APPID
  5
2BF
330
8
100
AcDbSymbolTableRecord
100
AcDbRegAppTableRecord
  2
ACADM_DIM_EDIT
 70
     0
  0
APPID
  5
2C0
330
8
100
AcDbSymbolTableRecord
100
AcDbRegAppTableRecord
  2
AMDT_DM_ADJ
 70
     0
  0
APPID
  5
2D7
330
8
100
AcDbSymbolTableRecord
100
AcDbRegAppTableRecord
  2
ACAD_DSTYLE_DIMJAG
 70
     0
  0
APPID
  5
2D8
330
8
100
AcDbSymbolTableRecord
100
AcDbRegAppTableRecord
  2
ACAD_DSTYLE_DIMBREAK
 70
     0
  0
APPID
  5
2FC
330
8
100
AcDbSymbolTableRecord
100
AcDbRegAppTableRecord
  2
ACAD_EXEMPT_FROM_CAD_STANDARDS
 70
     0
  0
APPID
  5
2FF
330
8
100
AcDbSymbolTableRecord
100
AcDbRegAppTableRecord
  2
AcAecLayerStandard
 70
     0
  0
APPID
  5
31F
330
8
100
AcDbSymbolTableRecord
100
AcDbRegAppTableRecord
  2
ACAD_DSTYLE_DIMINSPECT
 70
     0
  0
APPID
  5
36C
330
8
100
AcDbSymbolTableRecord
100
AcDbRegAppTableRecord
  2
GENIUS_GENDTOL_13
 70
     0
  0
APPID
  5
40D
330
8
100
AcDbSymbolTableRecord
100
AcDbRegAppTableRecord
  2
ACAD_MLEADERVER
 70
     0
  0
APPID
  5
40E
330
8
100
AcDbSymbolTableRecord
100
AcDbRegAppTableRecord
  2
ACAD_DSTYLE_DIMARC_LENGTH_SYMBOL
 70
     0
  0
APPID
  5
40F
330
8
100
AcDbSymbolTableRecord
100
AcDbRegAppTableRecord
  2
ACAD_DSTYLE_DIM_LINETYPE
 70
     0
  0
APPID
  5
410
330
8
100
AcDbSymbolTableRecord
100
AcDbRegAppTableRecord
  2
ACAD_DSTYLE_DIM_EXT1_LINETYPE
 70
     0
  0
APPID
  5
411
330
8
100
AcDbSymbolTableRecord
100
AcDbRegAppTableRecord
  2
ACAD_DSTYLE_DIM_EXT2_LINETYPE
 70
     0
  0
APPID
  5
5B1
330
8
100
AcDbSymbolTableRecord
100
AcDbRegAppTableRecord
  2
ACAD_DSTYLE_DIMTEXT_FILL
 70
     0
  0
APPID
  5
5B2
330
8
100
AcDbSymbolTableRecord
100
AcDbRegAppTableRecord
  2
GENIUS_GENODEF_13
 70
     0
  0
APPID
  5
5B3
330
8
100
AcDbSymbolTableRecord
100
AcDbRegAppTableRecord
  2
GENIUS_GENOBJ-N-LIB_13
 70
     0
  0
APPID
  5
5B4
330
8
100
AcDbSymbolTableRecord
100
AcDbRegAppTableRecord
  2
GENIUS_GENOBJ-N-RSBK_13
 70
     0
  0
APPID
  5
5B5
330
8
100
AcDbSymbolTableRecord
100
AcDbRegAppTableRecord
  2
GENIUS_GENSCALE_13
 70
     0
  0
APPID
  5
674
330
8
100
AcDbSymbolTableRecord
100
AcDbRegAppTableRecord
  2
ACAD_DSTYLE_DIMRADIAL_EXTENSION
 70
     0
  0
ENDTAB
  0
TABLE
  2
DIMSTYLE
  5
9
330
0
100
AcDbSymbolTable
 70
    19
100
AcDbDimStyleTable
 71
     1
340
18
  0
DIMSTYLE
105
18
102
{ACAD_REACTORS
330
33
330
41
330
4E
330
5C
330
114
330
33B
102
}
330
9
100
AcDbSymbolTableRecord
100
AcDbDimStyleTableRecord
  2
MXDIMSTYLE
 70
     0
 41
2.5
 42
1.27
 43
3.75
 44
1.199999999999999
 73
     0
 74
     0
 77
     1
 78
     8
140
4.166999999999998
141
2.5
143
0.03937
147
1.0
171
     4
172
     1
274
     4
288
     1
340
17
  0
DIMSTYLE
105
2D6
102
{ACAD_REACTORS
330
52A
102
}
330
9
100
AcDbSymbolTableRecord
100
AcDbDimStyleTableRecord
  2
AM_ISO
 70
     0
  4
"
 41
3.5
 42
1.0
 43
10.0
 44
1.0
 47
0.1
 48
0.1
 73
     0
 74
     0
 77
     1
 78
     8
 79
     2
140
3.5
141
0.0
143
0.0393701
146
0.71
147
1.5
172
     1
176
   256
177
   256
178
     2
271
     2
272
     3
274
     4
283
     0
284
     8
340
180
371
    -1
372
    -1
1001
ACAD_DSTYLE_DIMJAG
1070
   388
1040
1.5
1001
ACAD_DSTYLE_DIMBREAK
1070
   391
1040
3.75
1001
ACAD_DSTYLE_DIMARC_LENGTH_SYMBOL
1070
   379
1070
     1
1001
ACAD_DSTYLE_DIM_LINETYPE
1070
   380
1005
11
1001
ACAD_DSTYLE_DIM_EXT1_LINETYPE
1070
   381
1005
11
1001
ACAD_DSTYLE_DIM_EXT2_LINETYPE
1070
   382
1005
11
  0
DIMSTYLE
105
2E3
330
9
100
AcDbSymbolTableRecord
100
AcDbDimStyleTableRecord
  2
AM_ISO$3
 70
     0
  4
"
 41
3.5
 42
1.0
 43
10.0
 44
1.0
 47
0.1
 48
0.1
 73
     0
 77
     1
 78
     8
 79
     2
140
3.5
141
0.0
143
0.0393701
146
0.71
147
1.5
176
   256
177
   256
178
     2
271
     2
272
     3
274
     4
283
     0
284
     8
288
     1
289
     0
340
180
371
    -1
372
    -1
1001
ACAD_DSTYLE_DIMBREAK
1070
   391
1040
3.75
1001
ACAD_DSTYLE_DIMJAG
1070
   388
1040
1.5
1001
ACAD_DSTYLE_DIMARC_LENGTH_SYMBOL
1070
   379
1070
     1
1001
ACAD_DSTYLE_DIM_LINETYPE
1070
   380
1005
11
1001
ACAD_DSTYLE_DIM_EXT1_LINETYPE
1070
   381
1005
11
1001
ACAD_DSTYLE_DIM_EXT2_LINETYPE
1070
   382
1005
11
  0
DIMSTYLE
105
2E4
330
9
100
AcDbSymbolTableRecord
100
AcDbDimStyleTableRecord
  2
AM_ISO$4
 70
     0
  4
"
 41
3.5
 42
1.0
 43
10.0
 44
1.0
 47
0.1
 48
0.1
 73
     0
 77
     1
 78
     8
 79
     2
140
3.5
141
0.0
143
0.0393701
146
0.71
147
1.5
176
   256
177
   256
178
     2
271
     2
272
     3
274
     4
283
     0
284
     8
288
     1
289
     0
340
180
371
    -1
372
    -1
1001
ACAD_DSTYLE_DIMBREAK
1070
   391
1040
3.75
1001
ACAD_DSTYLE_DIMJAG
1070
   388
1040
1.5
1001
ACAD_DSTYLE_DIMARC_LENGTH_SYMBOL
1070
   379
1070
     1
1001
ACAD_DSTYLE_DIM_LINETYPE
1070
   380
1005
11
1001
ACAD_DSTYLE_DIM_EXT1_LINETYPE
1070
   381
1005
11
1001
ACAD_DSTYLE_DIM_EXT2_LINETYPE
1070
   382
1005
11
  0
DIMSTYLE
105
2E5
330
9
100
AcDbSymbolTableRecord
100
AcDbDimStyleTableRecord
  2
AM_ISO$6
 70
     0
  4
"
 41
3.5
 42
1.0
 43
10.0
 44
1.0
 47
0.1
 48
0.1
 73
     0
 74
     0
 78
     8
 79
     2
140
3.5
141
0.0
143
0.0393701
146
0.71
147
1.5
172
     1
176
   256
177
   256
178
     2
271
     2
272
     3
274
     4
283
     0
284
     8
340
180
371
    -1
372
    -1
1001
ACAD_DSTYLE_DIMBREAK
1070
   391
1040
3.75
1001
ACAD_DSTYLE_DIMJAG
1070
   388
1040
1.5
1001
ACAD_DSTYLE_DIMARC_LENGTH_SYMBOL
1070
   379
1070
     1
1001
ACAD_DSTYLE_DIM_LINETYPE
1070
   380
1005
11
1001
ACAD_DSTYLE_DIM_EXT1_LINETYPE
1070
   381
1005
11
1001
ACAD_DSTYLE_DIM_EXT2_LINETYPE
1070
   382
1005
11
  0
DIMSTYLE
105
2E6
330
9
100
AcDbSymbolTableRecord
100
AcDbDimStyleTableRecord
  2
AM_ISO$7
 70
     0
  4
"
 41
3.5
 42
1.0
 43
10.0
 44
1.0
 47
0.1
 48
0.1
 73
     0
 74
     0
 77
     1
 78
     8
 79
     2
140
3.5
141
0.0
143
0.0393701
146
0.71
147
1.5
172
     1
176
   256
177
   256
178
     2
271
     2
272
     3
274
     4
283
     0
284
     8
340
180
371
    -1
372
    -1
1001
ACAD_DSTYLE_DIMBREAK
1070
   391
1040
3.75
1001
ACAD_DSTYLE_DIMJAG
1070
   388
1040
1.5
1001
ACAD_DSTYLE_DIMARC_LENGTH_SYMBOL
1070
   379
1070
     1
1001
ACAD_DSTYLE_DIM_LINETYPE
1070
   380
1005
11
1001
ACAD_DSTYLE_DIM_EXT1_LINETYPE
1070
   381
1005
11
1001
ACAD_DSTYLE_DIM_EXT2_LINETYPE
1070
   382
1005
11
  0
DIMSTYLE
105
2E7
330
9
100
AcDbSymbolTableRecord
100
AcDbDimStyleTableRecord
  2
AM_ISO$SF
 70
     0
  4
"
 41
3.5
 42
1.0
 43
10.0
 44
1.0
 47
0.1
 48
0.1
 73
     0
 74
     0
 75
     1
 76
     1
 77
     1
 78
     8
 79
     2
140
3.5
141
0.0
143
0.0393701
146
0.71
147
1.5
172
     1
176
   256
177
   256
178
     2
271
     2
272
     3
274
     4
283
     0
284
     8
340
180
371
    -1
372
    -1
1001
ACAD_DSTYLE_DIMBREAK
1070
   391
1040
3.75
1001
ACAD_DSTYLE_DIMJAG
1070
   388
1040
1.5
1001
ACAD_DSTYLE_DIMARC_LENGTH_SYMBOL
1070
   379
1070
     1
1001
ACAD_DSTYLE_DIM_LINETYPE
1070
   380
1005
11
1001
ACAD_DSTYLE_DIM_EXT1_LINETYPE
1070
   381
1005
11
1001
ACAD_DSTYLE_DIM_EXT2_LINETYPE
1070
   382
1005
11
  0
DIMSTYLE
105
2EC
330
9
100
AcDbSymbolTableRecord
100
AcDbDimStyleTableRecord
  2
AM_ISO$SH
 70
     0
  4
"
 41
3.5
 42
1.0
 43
10.0
 44
1.0
 47
0.1
 48
0.1
 73
     0
 74
     0
 75
     1
 76
     1
 77
     1
 78
     8
 79
     2
140
3.5
141
0.0
143
0.0393701
144
2.0
146
0.71
147
1.5
172
     1
173
     1
176
   256
177
   256
178
     2
271
     2
272
     3
274
     4
283
     0
284
     8
340
180
343
2E8
371
    -1
372
    -1
1001
ACAD_DSTYLE_DIMBREAK
1070
   391
1040
3.75
1001
ACAD_DSTYLE_DIMJAG
1070
   388
1040
1.5
1001
ACAD_DSTYLE_DIMARC_LENGTH_SYMBOL
1070
   379
1070
     1
1001
ACAD_DSTYLE_DIM_LINETYPE
1070
   380
1005
11
1001
ACAD_DSTYLE_DIM_EXT1_LINETYPE
1070
   381
1005
11
1001
ACAD_DSTYLE_DIM_EXT2_LINETYPE
1070
   382
1005
11
  0
DIMSTYLE
105
307
330
9
100
AcDbSymbolTableRecord
100
AcDbDimStyleTableRecord
  2
MXDIMSTYLE$0
 70
     0
 41
2.5
 42
1.27
 43
3.75
 44
1.199999999999999
 73
     0
 74
     0
 77
     1
 78
     8
140
4.166999999999998
141
2.5
143
0.03937
147
1.0
171
     4
172
     1
274
     4
288
     1
340
17
1001
ACAD_DSTYLE_DIMBREAK
1070
   391
1040
3.75
1001
ACAD_DSTYLE_DIMJAG
1070
   388
1040
1.5
  0
DIMSTYLE
105
5A8
330
9
100
AcDbSymbolTableRecord
100
AcDbDimStyleTableRecord
  2
ULVAC
 70
     0
 41
2.9
 42
1.269999980926513
 43
10.0
 44
1.200000047683715
 45
0.005
 73
     0
 74
     0
 77
     1
 78
     9
 79
     2
140
4.0
141
0.0
143
0.03937007874016
146
0.75
147
1.0
171
     4
172
     1
179
     2
271
     2
272
     2
274
     4
284
     8
288
     1
340
5A7
341
26
342
26
371
    -1
372
    -1
1001
ACAD_DSTYLE_DIM_LINETYPE
1070
   380
1005
12
1001
ACAD_DSTYLE_DIM_EXT1_LINETYPE
1070
   381
1005
12
1001
ACAD_DSTYLE_DIM_EXT2_LINETYPE
1070
   382
1005
12
  0
DIMSTYLE
105
5A9
330
9
100
AcDbSymbolTableRecord
100
AcDbDimStyleTableRecord
  2
ULVAC$2
 70
     0
 41
2.9
 42
1.269999980926513
 43
10.0
 44
1.200000047683715
 73
     0
 74
     0
 77
     1
 78
     9
 79
     2
140
4.0
141
0.0
143
0.03937007874016
146
0.75
147
1.0
171
     4
172
     1
179
     2
274
     4
284
     8
340
5A7
341
26
342
26
371
    -1
372
    -1
1001
ACAD_DSTYLE_DIM_LINETYPE
1070
   380
1005
12
1001
ACAD_DSTYLE_DIM_EXT1_LINETYPE
1070
   381
1005
12
1001
ACAD_DSTYLE_DIM_EXT2_LINETYPE
1070
   382
1005
12
  0
DIMSTYLE
105
5AA
102
{ACAD_REACTORS
330
609
330
62E
330
633
330
606
330
607
330
608
102
}
330
9
100
AcDbSymbolTableRecord
100
AcDbDimStyleTableRecord
  2
ULVAC$0
 70
     0
 41
2.9
 42
1.269999980926513
 43
10.0
 44
1.200000047683715
 45
0.005
 73
     0
 74
     0
 77
     1
 78
     9
140
4.0
141
0.0
143
0.03937007874016
146
0.75
147
1.0
171
     4
172
     1
179
     2
271
     2
272
     2
274
     4
284
     8
288
     1
340
5A7
341
26
342
26
371
    -1
372
    -1
1001
ACAD_DSTYLE_DIMARC_LENGTH_SYMBOL
1070
   379
1070
     1
1001
ACAD_DSTYLE_DIM_LINETYPE
1070
   380
1005
12
1001
ACAD_DSTYLE_DIM_EXT1_LINETYPE
1070
   381
1005
12
1001
ACAD_DSTYLE_DIM_EXT2_LINETYPE
1070
   382
1005
12
  0
DIMSTYLE
105
5AB
330
9
100
AcDbSymbolTableRecord
100
AcDbDimStyleTableRecord
  2
ULVAC$4
 70
     0
 41
2.9
 42
1.269999980926513
 43
10.0
 44
1.200000047683715
 45
0.005
 73
     0
 74
     0
 77
     1
 78
     9
140
4.0
141
0.0
143
0.03937007874016
146
0.75
147
1.0
171
     4
172
     1
179
     2
271
     2
272
     2
274
     4
284
     8
288
     1
289
     0
340
5A7
341
26
342
26
371
    -1
372
    -1
1001
ACAD_DSTYLE_DIM_LINETYPE
1070
   380
1005
12
1001
ACAD_DSTYLE_DIM_EXT1_LINETYPE
1070
   381
1005
12
1001
ACAD_DSTYLE_DIM_EXT2_LINETYPE
1070
   382
1005
12
  0
DIMSTYLE
105
5AC
330
9
100
AcDbSymbolTableRecord
100
AcDbDimStyleTableRecord
  2
ULVAC$6
 70
     0
 41
2.9
 42
1.269999980926513
 43
6.5
 44
1.200000047683715
 45
0.005
 73
     0
 74
     0
 77
     1
 78
     9
140
4.0
141
0.0
143
0.03937007874016
146
0.75
147
1.0
171
     4
172
     1
176
   256
179
     2
271
     2
272
     2
274
     4
284
     8
288
     1
340
5A7
341
26
342
26
371
    -1
372
    -1
1001
ACAD_DSTYLE_DIM_LINETYPE
1070
   380
1005
12
1001
ACAD_DSTYLE_DIM_EXT1_LINETYPE
1070
   381
1005
12
1001
ACAD_DSTYLE_DIM_EXT2_LINETYPE
1070
   382
1005
12
  0
DIMSTYLE
105
5AD
330
9
100
AcDbSymbolTableRecord
100
AcDbDimStyleTableRecord
  2
ULVAC$7
 70
     0
 41
2.9
 42
1.269999980926513
 43
10.0
 44
1.200000047683715
 73
     0
 74
     0
 77
     1
 78
     1
140
4.0
141
0.0
143
0.03937007874016
147
1.0
171
     4
172
     1
177
   256
179
     2
271
     2
272
     2
274
     4
288
     1
340
5A7
341
26
342
26
371
    -1
1001
ACAD_DSTYLE_DIM_LINETYPE
1070
   380
1005
12
1001
ACAD_DSTYLE_DIM_EXT1_LINETYPE
1070
   381
1005
12
1001
ACAD_DSTYLE_DIM_EXT2_LINETYPE
1070
   382
1005
12
  0
DIMSTYLE
105
5AE
330
9
100
AcDbSymbolTableRecord
100
AcDbDimStyleTableRecord
  2
ULVAC$3
 70
     0
 41
2.9
 42
1.269999980926513
 43
10.0
 44
1.200000047683715
 45
0.005
 73
     0
 74
     0
 77
     1
 78
     9
140
4.0
141
0.0
143
0.03937007874016
146
0.75
147
1.0
171
     4
172
     1
179
     2
271
     2
272
     2
274
     4
284
     8
288
     1
289
     2
340
5A7
341
26
342
26
371
    -1
372
    -1
1001
ACAD_DSTYLE_DIM_LINETYPE
1070
   380
1005
12
1001
ACAD_DSTYLE_DIM_EXT1_LINETYPE
1070
   381
1005
12
1001
ACAD_DSTYLE_DIM_EXT2_LINETYPE
1070
   382
1005
12
  0
DIMSTYLE
105
5AF
330
9
100
AcDbSymbolTableRecord
100
AcDbDimStyleTableRecord
  2
ULVAC$SH
 70
     0
 41
2.9
 42
1.269999980926513
 43
10.0
 44
1.200000047683715
 45
0.005
 73
     0
 74
     0
 77
     1
 78
     9
 79
     2
140
4.0
141
0.0
143
0.03937007874016
146
0.75
147
1.0
171
     4
172
     1
179
     2
271
     2
272
     2
274
     4
284
     8
288
     1
340
5A7
341
26
342
26
371
    -1
372
    -1
1001
ACAD_DSTYLE_DIM_LINETYPE
1070
   380
1005
12
1001
ACAD_DSTYLE_DIM_EXT1_LINETYPE
1070
   381
1005
12
1001
ACAD_DSTYLE_DIM_EXT2_LINETYPE
1070
   382
1005
12
  0
DIMSTYLE
105
5B0
330
9
100
AcDbSymbolTableRecord
100
AcDbDimStyleTableRecord
  2
ULVAC$SF
 70
     0
 41
2.9
 42
1.269999980926513
 43
10.0
 44
1.200000047683715
 45
0.005
 73
     0
 74
     0
 77
     1
 78
     9
 79
     2
140
4.0
141
0.0
143
0.03937007874016
146
0.75
147
1.0
171
     4
172
     1
179
     2
271
     2
272
     2
274
     4
284
     8
288
     1
340
5A7
341
26
342
26
371
    -1
372
    -1
1001
ACAD_DSTYLE_DIM_LINETYPE
1070
   380
1005
12
1001
ACAD_DSTYLE_DIM_EXT1_LINETYPE
1070
   381
1005
12
1001
ACAD_DSTYLE_DIM_EXT2_LINETYPE
1070
   382
1005
12
  0
ENDTAB
  0
TABLE
  2
BLOCK_RECORD
  5
1
330
0
100
AcDbSymbolTable
 70
    26
  0
BLOCK_RECORD
  5
A
330
1
100
AcDbSymbolTableRecord
100
AcDbBlockTableRecord
  2
*MODEL_SPACE
340
189
  0
BLOCK_RECORD
  5
B
330
1
100
AcDbSymbolTableRecord
100
AcDbBlockTableRecord
  2
*PAPER_SPACE
340
18A
  0
BLOCK_RECORD
  5
20
330
1
100
AcDbSymbolTableRecord
100
AcDbBlockTableRecord
  2
*D0
340
0
  0
BLOCK_RECORD
  5
26
330
1
100
AcDbSymbolTableRecord
100
AcDbBlockTableRecord
  2
_OPEN30
340
0
102
{BLKREFS
331
2C
331
2D
331
39
331
3A
331
47
331
48
331
55
331
56
331
101
331
102
331
10D
331
10E
331
1E6
331
1E7
331
1EE
331
1EF
331
1F7
331
1F8
331
200
331
201
331
209
331
20A
331
393
331
394
331
54B
331
54C
331
557
331
558
331
563
331
564
331
56F
331
570
331
57B
331
57C
331
590
331
591
331
6AF
331
6B0
102
}
  0
BLOCK_RECORD
  5
34
330
1
100
AcDbSymbolTableRecord
100
AcDbBlockTableRecord
  2
*D2
340
0
  0
BLOCK_RECORD
  5
42
330
1
100
AcDbSymbolTableRecord
100
AcDbBlockTableRecord
  2
*D3
340
0
  0
BLOCK_RECORD
  5
4F
330
1
100
AcDbSymbolTableRecord
100
AcDbBlockTableRecord
  2
*D4
340
0
  0
BLOCK_RECORD
  5
FB
330
1
100
AcDbSymbolTableRecord
100
AcDbBlockTableRecord
  2
*D5
340
0
  0
BLOCK_RECORD
  5
108
330
1
100
AcDbSymbolTableRecord
100
AcDbBlockTableRecord
  2
*D6
340
0
  0
BLOCK_RECORD
  5
191
330
1
100
AcDbSymbolTableRecord
100
AcDbBlockTableRecord
  2
*D7
340
0
  0
BLOCK_RECORD
  5
19D
330
1
100
AcDbSymbolTableRecord
100
AcDbBlockTableRecord
  2
*D8
340
0
  0
BLOCK_RECORD
  5
1A8
330
1
100
AcDbSymbolTableRecord
100
AcDbBlockTableRecord
  2
*D9
340
0
  0
BLOCK_RECORD
  5
1B5
330
1
100
AcDbSymbolTableRecord
100
AcDbBlockTableRecord
  2
*D10
340
0
  0
BLOCK_RECORD
  5
1C1
330
1
100
AcDbSymbolTableRecord
100
AcDbBlockTableRecord
  2
*D11
340
0
  0
BLOCK_RECORD
  5
1CD
330
1
100
AcDbSymbolTableRecord
100
AcDbBlockTableRecord
  2
*D12
340
0
  0
BLOCK_RECORD
  5
2E8
330
1
100
AcDbSymbolTableRecord
100
AcDbBlockTableRecord
  2
GENAXEH
340
0
  0
BLOCK_RECORD
  5
30A
330
1
100
AcDbSymbolTableRecord
100
AcDbBlockTableRecord
  2
*D14
340
0
  0
BLOCK_RECORD
  5
33C
330
1
100
AcDbSymbolTableRecord
100
AcDbBlockTableRecord
  2
*D15
340
0
  0
BLOCK_RECORD
  5
545
330
1
100
AcDbSymbolTableRecord
100
AcDbBlockTableRecord
  2
*D17
340
0
  0
BLOCK_RECORD
  5
552
330
1
100
AcDbSymbolTableRecord
100
AcDbBlockTableRecord
  2
*D18
340
0
  0
BLOCK_RECORD
  5
55E
330
1
100
AcDbSymbolTableRecord
100
AcDbBlockTableRecord
  2
*D19
340
0
  0
BLOCK_RECORD
  5
56A
330
1
100
AcDbSymbolTableRecord
100
AcDbBlockTableRecord
  2
*D20
340
0
  0
BLOCK_RECORD
  5
576
330
1
100
AcDbSymbolTableRecord
100
AcDbBlockTableRecord
  2
*D21
340
0
  0
BLOCK_RECORD
  5
582
102
{ACAD_XDICTIONARY
360
583
102
}
330
1
100
AcDbSymbolTableRecord
100
AcDbBlockTableRecord
  2
rev_d
340
0
102
{BLKREFS
331
631
102
}
  0
BLOCK_RECORD
  5
58B
330
1
100
AcDbSymbolTableRecord
100
AcDbBlockTableRecord
  2
*D23
340
0
  0
BLOCK_RECORD
  5
5B8
102
{ACAD_XDICTIONARY
360
636
102
}
330
1
100
AcDbSymbolTableRecord
100
AcDbBlockTableRecord
  2
A$C3B137917
340
0
1001
ACAD
1000
DesignCenter Data
1002
{
1070
     1
1070
     4
1002
}
  0
ENDTAB
  0
ENDSEC
  0
SECTION
  2
BLOCKS
  0
BLOCK
  5
D
330
A
100
AcDbEntity
  8
0
100
AcDbBlockBegin
  2
*MODEL_SPACE
 70
     0
 10
0.0
 20
0.0
 30
0.0
  3
*MODEL_SPACE
  1

  0
ENDBLK
  5
E
330
A
100
AcDbEntity
  8
0
100
AcDbBlockEnd
  0
BLOCK
  5
F
330
B
100
AcDbEntity
 67
     1
  8
0
100
AcDbBlockBegin
  2
*PAPER_SPACE
 70
     0
 10
0.0
 20
0.0
 30
0.0
  3
*PAPER_SPACE
  1

  0
ENDBLK
  5
10
330
B
100
AcDbEntity
 67
     1
  8
0
100
AcDbBlockEnd
  0
BLOCK
  5
21
330
20
100
AcDbEntity
  8
0
  6
ByBlock
 62
     0
100
AcDbBlockBegin
  2
*D0
 70
     1
 10
0.0
 20
0.0
 30
0.0
  3
*D0
  1

  0
LINE
  5
22
330
20
100
AcDbEntity
  8
0
  6
Continuous
 62
   255
100
AcDbLine
 10
-178.596815
 20
0.19394
 30
0.0
 11
-178.596815
 21
18.193939
 31
0.0
  0
LINE
  5
23
330
20
100
AcDbEntity
  8
0
  6
Continuous
 62
   255
100
AcDbLine
 10
-178.596815
 20
-12.142061
 30
0.0
 11
-178.596815
 21
0.19394
 31
0.0
  0
LINE
  5
24
330
20
100
AcDbEntity
  8
0
  6
Continuous
 62
   255
100
AcDbLine
 10
-159.491633
 20
0.19394
 30
0.0
 11
-179.7968149999999
 21
0.19394
 31
0.0
  0
LINE
  5
25
330
20
100
AcDbEntity
  8
0
  6
Continuous
 62
   255
100
AcDbLine
 10
-159.491633
 20
18.193939
 30
0.0
 11
-179.7968149999999
 21
18.193939
 31
0.0
  0
INSERT
  5
2C
330
20
100
AcDbEntity
  8
0
  6
Continuous
 62
   255
100
AcDbBlockReference
  2
_OPEN30
 10
-178.596815
 20
0.19394
 30
0.0
 41
2.77
 42
2.77
 43
2.77
 50
270.0
  0
INSERT
  5
2D
330
20
100
AcDbEntity
  8
0
  6
Continuous
 62
   255
100
AcDbBlockReference
  2
_OPEN30
 10
-178.596815
 20
18.193939
 30
0.0
 41
2.77
 42
2.77
 43
2.77
 50
90.0
  0
MTEXT
  5
2E
102
{ACAD_XDICTIONARY
360
6C7
102
}
330
20
100
AcDbEntity
  8
0
  6
Continuous
 62
   255
100
AcDbMText
 10
-181.680315
 20
9.193939
 30
0.0
 40
4.166999999999998
 41
0.0
 71
     5
 72
     1
  1
\A1;\U+220518(\U+220515)\U+00B10.3
 11
0.0
 21
1.0
 31
0.0
 73
     1
 44
1.0
1001
ACAD
1000
MTEXTBEGIN
1070
    73
1070
     1
1070
    44
1040
1.0
1070
    74
1070
     0
1000
MTEXTEND
  0
POINT
  5
2F
330
20
100
AcDbEntity
  8
DEFPOINTS
  6
Continuous
 62
     0
100
AcDbPoint
 10
-158.221633
 20
0.19394
 30
0.0
  0
POINT
  5
30
330
20
100
AcDbEntity
  8
DEFPOINTS
  6
Continuous
 62
     0
100
AcDbPoint
 10
-158.221633
 20
18.193939
 30
0.0
  0
POINT
  5
31
330
20
100
AcDbEntity
  8
DEFPOINTS
  6
Continuous
 62
     0
100
AcDbPoint
 10
-178.596815
 20
18.193939
 30
0.0
  0
ENDBLK
  5
32
330
20
100
AcDbEntity
  8
0
  6
ByBlock
 62
     0
100
AcDbBlockEnd
  0
BLOCK
  5
27
330
26
100
AcDbEntity
  8
0
  6
ByBlock
 62
     0
100
AcDbBlockBegin
  2
_OPEN30
 70
     2
 10
0.0
 20
0.0
 30
0.0
  3
_OPEN30
  1

  0
LINE
  5
28
330
26
100
AcDbEntity
  8
0
  6
ByBlock
 62
     0
100
AcDbLine
 10
-1.0
 20
0.267949
 30
0.0
 11
0.0
 21
0.0
 31
0.0
  0
LINE
  5
29
330
26
100
AcDbEntity
  8
0
  6
ByBlock
 62
     0
100
AcDbLine
 10
0.0
 20
0.0
 30
0.0
 11
-1.0
 21
-0.267949
 31
0.0
  0
LINE
  5
2A
330
26
100
AcDbEntity
  8
0
  6
ByBlock
 62
     0
100
AcDbLine
 10
0.0
 20
0.0
 30
0.0
 11
-1.0
 21
0.0
 31
0.0
  0
ENDBLK
  5
2B
330
26
100
AcDbEntity
  8
0
  6
ByBlock
 62
     0
100
AcDbBlockEnd
  0
BLOCK
  5
35
330
34
100
AcDbEntity
  8
0
  6
ByBlock
 62
     0
100
AcDbBlockBegin
  2
*D2
 70
     1
 10
0.0
 20
0.0
 30
0.0
  3
*D2
  1

  0
LINE
  5
36
330
34
100
AcDbEntity
  8
0
  6
Continuous
 62
   255
100
AcDbLine
 10
-1.221636
 20
-51.75829799999998
 30
0.0
 11
-158.221634
 21
-51.75829799999998
 31
0.0
  0
LINE
  5
37
330
34
100
AcDbEntity
  8
0
  6
Continuous
 62
   255
100
AcDbLine
 10
-1.221636
 20
-7.776059
 30
0.0
 11
-1.221636
 21
-52.95829799999999
 31
0.0
  0
LINE
  5
38
330
34
100
AcDbEntity
  8
0
  6
Continuous
 62
   255
100
AcDbLine
 10
-158.221634
 20
-1.076057999999997
 30
0.0
 11
-158.221634
 21
-52.95829799999999
 31
0.0
  0
INSERT
  5
39
330
34
100
AcDbEntity
  8
0
  6
Continuous
 62
   255
100
AcDbBlockReference
  2
_OPEN30
 10
-1.221636
 20
-51.75829799999998
 30
0.0
 41
2.77
 42
2.77
 43
2.77
  0
INSERT
  5
3A
330
34
100
AcDbEntity
  8
0
  6
Continuous
 62
   255
100
AcDbBlockReference
  2
_OPEN30
 10
-158.221634
 20
-51.75829799999998
 30
0.0
 41
2.77
 42
2.77
 43
2.77
 50
180.0
  0
MTEXT
  5
3C
330
34
100
AcDbEntity
  8
0
  6
Continuous
 62
   255
100
AcDbMText
 10
-79.721636
 20
-48.67479799999999
 30
0.0
 40
4.166999999999998
 41
0.0
 71
     5
 72
     1
  1
\A1;157\U+00B13
  7
MX_DIMTXSTY_2
 73
     1
 44
1.0
1001
ACAD
1000
MTEXTBEGIN
1070
    73
1070
     1
1070
    44
1040
1.0
1070
    74
1070
     0
1000
MTEXTEND
  0
POINT
  5
3D
330
34
100
AcDbEntity
  8
DEFPOINTS
  6
Continuous
 62
     0
100
AcDbPoint
 10
-1.221636
 20
-6.506058999999997
 30
0.0
  0
POINT
  5
3E
330
34
100
AcDbEntity
  8
DEFPOINTS
  6
Continuous
 62
     0
100
AcDbPoint
 10
-158.221634
 20
0.193942
 30
0.0
  0
POINT
  5
3F
330
34
100
AcDbEntity
  8
DEFPOINTS
  6
Continuous
 62
     0
100
AcDbPoint
 10
-158.221634
 20
-51.75829799999998
 30
0.0
  0
ENDBLK
  5
40
330
34
100
AcDbEntity
  8
0
  6
ByBlock
 62
     0
100
AcDbBlockEnd
  0
BLOCK
  5
43
330
42
100
AcDbEntity
  8
0
  6
ByBlock
 62
     0
100
AcDbBlockBegin
  2
*D3
 70
     1
 10
0.0
 20
0.0
 30
0.0
  3
*D3
  1

  0
LINE
  5
44
330
42
100
AcDbEntity
  8
0
  6
Continuous
 62
   255
100
AcDbLine
 10
-1.221636
 20
-35.174726
 30
0.0
 11
-81.22163399999998
 21
-35.174726
 31
0.0
  0
LINE
  5
45
330
42
100
AcDbEntity
  8
0
  6
Continuous
 62
   255
100
AcDbLine
 10
-1.221636
 20
-7.776061
 30
0.0
 11
-1.221636
 21
-36.37472600000001
 31
0.0
  0
LINE
  5
46
330
42
100
AcDbEntity
  8
0
  6
Continuous
 62
   255
100
AcDbLine
 10
-81.22163399999998
 20
-9.07606
 30
0.0
 11
-81.22163399999998
 21
-36.37472600000001
 31
0.0
  0
INSERT
  5
47
330
42
100
AcDbEntity
  8
0
  6
Continuous
 62
   255
100
AcDbBlockReference
  2
_OPEN30
 10
-1.221636
 20
-35.174726
 30
0.0
 41
2.77
 42
2.77
 43
2.77
  0
INSERT
  5
48
330
42
100
AcDbEntity
  8
0
  6
Continuous
 62
   255
100
AcDbBlockReference
  2
_OPEN30
 10
-81.22163399999998
 20
-35.174726
 30
0.0
 41
2.77
 42
2.77
 43
2.77
 50
180.0
  0
MTEXT
  5
49
330
42
100
AcDbEntity
  8
0
  6
Continuous
 62
   255
100
AcDbMText
 10
-41.22163599999999
 20
-32.091226
 30
0.0
 40
4.166999999999998
 41
0.0
 71
     5
 72
     1
  1
\A1;80\U+00B12
  7
MX_DIMTXSTY_2
 73
     1
 44
1.0
1001
ACAD
1000
MTEXTBEGIN
1070
    73
1070
     1
1070
    44
1040
1.0
1070
    74
1070
     0
1000
MTEXTEND
  0
POINT
  5
4A
330
42
100
AcDbEntity
  8
DEFPOINTS
  6
Continuous
 62
     0
100
AcDbPoint
 10
-1.221636
 20
-6.506060999999997
 30
0.0
  0
POINT
  5
4B
330
42
100
AcDbEntity
  8
DEFPOINTS
  6
Continuous
 62
     0
100
AcDbPoint
 10
-81.22163399999998
 20
-7.80606
 30
0.0
  0
POINT
  5
4C
330
42
100
AcDbEntity
  8
DEFPOINTS
  6
Continuous
 62
     0
100
AcDbPoint
 10
-81.22163399999998
 20
-35.174726
 30
0.0
  0
ENDBLK
  5
4D
330
42
100
AcDbEntity
  8
0
  6
ByBlock
 62
     0
100
AcDbBlockEnd
  0
BLOCK
  5
50
330
4F
100
AcDbEntity
  8
0
  6
ByBlock
 62
     0
100
AcDbBlockBegin
  2
*D4
 70
     1
 10
0.0
 20
0.0
 30
0.0
  3
*D4
  1

  0
LINE
  5
51
330
4F
100
AcDbEntity
  8
0
  6
Continuous
 62
   255
100
AcDbLine
 10
15.77836
 20
-35.174726
 30
0.0
 11
-1.221636
 21
-35.174726
 31
0.0
  0
LINE
  5
52
330
4F
100
AcDbEntity
  8
0
  6
Continuous
 62
   255
100
AcDbLine
 10
32.615446
 20
-35.174726
 30
0.0
 11
15.77836
 21
-35.174726
 31
0.0
  0
LINE
  5
53
330
4F
100
AcDbEntity
  8
0
  6
Continuous
 62
   255
100
AcDbLine
 10
15.77836
 20
-4.457644
 30
0.0
 11
15.77836
 21
-36.37472600000001
 31
0.0
  0
LINE
  5
54
330
4F
100
AcDbEntity
  8
0
  6
Continuous
 62
   255
100
AcDbLine
 10
-1.221636
 20
-7.776061
 30
0.0
 11
-1.221636
 21
-36.37472600000001
 31
0.0
  0
INSERT
  5
55
330
4F
100
AcDbEntity
  8
0
  6
Continuous
 62
   255
100
AcDbBlockReference
  2
_OPEN30
 10
15.77836
 20
-35.174726
 30
0.0
 41
2.77
 42
2.77
 43
2.77
  0
INSERT
  5
56
330
4F
100
AcDbEntity
  8
0
  6
Continuous
 62
   255
100
AcDbBlockReference
  2
_OPEN30
 10
-1.221636
 20
-35.174726
 30
0.0
 41
2.77
 42
2.77
 43
2.77
 50
180.0
  0
MTEXT
  5
57
330
4F
100
AcDbEntity
  8
0
  6
Continuous
 62
   255
100
AcDbMText
 10
25.503446
 20
-32.091226
 30
0.0
 40
4.166999999999998
 41
0.0
 71
     5
 72
     1
  1
\A1;17\U+00B11
 73
     1
 44
1.0
1001
ACAD
1000
MTEXTBEGIN
1070
    73
1070
     1
1070
    44
1040
1.0
1070
    74
1070
     0
1000
MTEXTEND
  0
POINT
  5
58
330
4F
100
AcDbEntity
  8
DEFPOINTS
  6
Continuous
 62
     0
100
AcDbPoint
 10
15.77836
 20
-3.187643999999998
 30
0.0
  0
POINT
  5
59
330
4F
100
AcDbEntity
  8
DEFPOINTS
  6
Continuous
 62
     0
100
AcDbPoint
 10
-1.221636
 20
-6.506060999999997
 30
0.0
  0
POINT
  5
5A
330
4F
100
AcDbEntity
  8
DEFPOINTS
  6
Continuous
 62
     0
100
AcDbPoint
 10
-1.221636
 20
-35.174726
 30
0.0
  0
ENDBLK
  5
5B
330
4F
100
AcDbEntity
  8
0
  6
ByBlock
 62
     0
100
AcDbBlockEnd
  0
BLOCK
  5
FC
330
FB
100
AcDbEntity
  8
0
  6
ByBlock
 62
     0
100
AcDbBlockBegin
  2
*D5
 70
     1
 10
0.0
 20
0.0
 30
0.0
  3
*D5
  1

  0
LINE
  5
FD
330
FB
100
AcDbEntity
  8
0
  6
Continuous
 62
     7
100
AcDbLine
 10
127.32885
 20
4.395361
 30
0.0
 11
103.811744
 21
13.992517
 31
0.0
  0
LINE
  5
FE
330
FB
100
AcDbEntity
  8
0
  6
Continuous
 62
     7
100
AcDbLine
 10
103.811744
 20
13.992517
 30
0.0
 11
73.384495
 21
26.409651
 31
0.0
  0
LINE
  5
FF
330
FB
100
AcDbEntity
  8
0
  6
Continuous
 62
     7
100
AcDbLine
 10
127.32885
 20
4.395361
 30
0.0
 11
133.208128
 21
1.996070999999996
 31
0.0
  0
LINE
  5
100
330
FB
100
AcDbEntity
  8
0
  6
Continuous
 62
     7
100
AcDbLine
 10
103.811744
 20
13.992517
 30
0.0
 11
97.93246600000001
 21
16.391807
 31
0.0
  0
INSERT
  5
101
330
FB
100
AcDbEntity
  8
0
  6
Continuous
 62
     7
100
AcDbBlockReference
  2
_OPEN30
 10
127.32885
 20
4.395361
 30
0.0
 41
2.77
 42
2.77
 43
2.77
 50
157.799994
  0
INSERT
  5
102
330
FB
100
AcDbEntity
  8
0
  6
Continuous
 62
     7
100
AcDbBlockReference
  2
_OPEN30
 10
103.811744
 20
13.992517
 30
0.0
 41
2.77
 42
2.77
 43
2.77
 50
337.799994
  0
MTEXT
  5
103
102
{ACAD_XDICTIONARY
360
6C9
102
}
330
FB
100
AcDbEntity
  8
0
  6
Continuous
 62
     7
100
AcDbMText
 10
82.587281
 20
25.984442
 30
0.0
 40
4.166999999999998
 41
0.0
 71
     5
 72
     1
  1
\A1;\U+220525.4
 11
0.9258705695063941
 21
-0.3778408243187937
 31
0.0
 73
     1
 44
1.0
1001
ACAD
1000
MTEXTBEGIN
1070
    73
1070
     1
1070
    44
1040
1.0
1070
    74
1070
     0
1000
MTEXTEND
  0
POINT
  5
104
330
FB
100
AcDbEntity
  8
DEFPOINTS
  6
Continuous
 62
     0
100
AcDbPoint
 10
103.811744
 20
13.992517
 30
0.0
  0
POINT
  5
105
330
FB
100
AcDbEntity
  8
DEFPOINTS
  6
Continuous
 62
     0
100
AcDbPoint
 10
127.32885
 20
4.395361
 30
0.0
  0
ENDBLK
  5
106
330
FB
100
AcDbEntity
  8
0
  6
ByBlock
 62
     0
100
AcDbBlockEnd
  0
BLOCK
  5
109
330
108
100
AcDbEntity
  8
0
  6
ByBlock
 62
     0
100
AcDbBlockBegin
  2
*D6
 70
     1
 10
0.0
 20
0.0
 30
0.0
  3
*D6
  1

  0
LINE
  5
10A
330
108
100
AcDbEntity
  8
0
  6
Continuous
 62
     7
100
AcDbLine
 10
39.788498
 20
34.193939
 30
0.0
 11
39.788498
 21
-15.80606099999999
 31
0.0
  0
LINE
  5
10B
330
108
100
AcDbEntity
  8
0
  6
Continuous
 62
     7
100
AcDbLine
 10
-4.701633999999998
 20
34.193939
 30
0.0
 11
40.988499
 21
34.193939
 31
0.0
  0
LINE
  5
10C
330
108
100
AcDbEntity
  8
0
  6
Continuous
 62
     7
100
AcDbLine
 10
-4.701633999999998
 20
-15.80606099999999
 30
0.0
 11
40.988499
 21
-15.80606099999999
 31
0.0
  0
INSERT
  5
10D
330
108
100
AcDbEntity
  8
0
  6
Continuous
 62
     7
100
AcDbBlockReference
  2
_OPEN30
 10
39.788498
 20
34.193939
 30
0.0
 41
2.77
 42
2.77
 43
2.77
 50
90.0
  0
INSERT
  5
10E
330
108
100
AcDbEntity
  8
0
  6
Continuous
 62
     7
100
AcDbBlockReference
  2
_OPEN30
 10
39.788498
 20
-15.80606099999999
 30
0.0
 41
2.77
 42
2.77
 43
2.77
 50
270.0
  0
MTEXT
  5
10F
102
{ACAD_XDICTIONARY
360
6CB
102
}
330
108
100
AcDbEntity
  8
0
  6
Continuous
 62
     7
100
AcDbMText
 10
36.704998
 20
9.193939
 30
0.0
 40
4.166999999999998
 41
0.0
 71
     5
 72
     1
  1
\A1;\U+220550{\A1;\H0.50x;\S^ ;}\U+00B11.5
 11
0.0
 21
1.0
 31
0.0
 73
     1
 44
1.0
1001
ACAD
1000
MTEXTBEGIN
1070
    73
1070
     1
1070
    44
1040
1.0
1070
    74
1070
     0
1000
MTEXTEND
  0
POINT
  5
110
330
108
100
AcDbEntity
  8
DEFPOINTS
  6
Continuous
 62
     0
100
AcDbPoint
 10
-5.971633999999997
 20
34.193939
 30
0.0
  0
POINT
  5
111
330
108
100
AcDbEntity
  8
DEFPOINTS
  6
Continuous
 62
     0
100
AcDbPoint
 10
-5.971633999999997
 20
-15.80606099999999
 30
0.0
  0
POINT
  5
112
330
108
100
AcDbEntity
  8
DEFPOINTS
  6
Continuous
 62
     0
100
AcDbPoint
 10
39.788498
 20
-15.80606099999999
 30
0.0
  0
ENDBLK
  5
113
330
108
100
AcDbEntity
  8
0
  6
ByBlock
 62
     0
100
AcDbBlockEnd
  0
BLOCK
  5
19B
330
191
100
AcDbEntity
  8
0
100
AcDbBlockBegin
  2
*D7
 70
     1
 10
0.0
 20
0.0
 30
0.0
  3
*D7
  1

  0
LINE
  5
6AC
330
191
100
AcDbEntity
  8
PV
  6
Continuous
 62
     0
370
    -2
100
AcDbLine
 10
-4.701633999999997
 20
34.39393900000001
 30
0.0
 11
40.98849799999999
 21
34.393939
 31
0.0
  0
LINE
  5
6AD
330
191
100
AcDbEntity
  8
PV
  6
Continuous
 62
     0
370
    -2
100
AcDbLine
 10
-4.70163520943951
 20
-16.00606099999999
 30
0.0
 11
40.98849799999999
 21
-16.00606100000001
 31
0.0
  0
LINE
  5
6AE
330
191
100
AcDbEntity
  8
PV
  6
Continuous
 62
     0
370
    -2
100
AcDbLine
 10
39.78849800000001
 20
31.623939
 30
0.0
 11
39.788498
 21
-13.23606100000001
 31
0.0
  0
INSERT
  5
6AF
330
191
100
AcDbEntity
  8
PV
  6
Continuous
 62
     0
370
    -2
100
AcDbBlockReference
  2
_OPEN30
 10
39.78849800000001
 20
34.393939
 30
0.0
 41
2.77
 42
2.77
 43
2.77
 50
90.0
  0
INSERT
  5
6B0
330
191
100
AcDbEntity
  8
PV
  6
Continuous
 62
     0
370
    -2
100
AcDbBlockReference
  2
_OPEN30
 10
39.78849799999999
 20
-16.006061
 30
0.0
 41
2.77
 42
2.77
 43
2.77
 50
270.0
  0
MTEXT
  5
6B1
102
{ACAD_XDICTIONARY
360
6FE
102
}
330
191
100
AcDbEntity
  8
PV
  6
Continuous
 62
     0
100
AcDbMText
 10
36.704998
 20
9.193939
 30
0.0
 40
4.166999999999998
 41
0.0
 71
     5
 72
     1
  1
\A1;\U+220550.4{\A1;\H0.50x;\S^ ;}\U+00B11
 11
0.0000000000000001
 21
1.0
 31
0.0
 73
     1
 44
1.0
1001
ACAD
1000
MTEXTBEGIN
1070
    73
1070
     1
1070
    44
1040
1.0
1070
    74
1070
     0
1000
MTEXTEND
  0
POINT
  5
6B2
330
191
100
AcDbEntity
  8
DEFPOINTS
  6
Continuous
 62
     0
100
AcDbPoint
 10
-5.971633999999997
 20
34.39393900000001
 30
0.0
  0
POINT
  5
6B3
330
191
100
AcDbEntity
  8
DEFPOINTS
  6
Continuous
 62
     0
100
AcDbPoint
 10
-5.97163520943951
 20
-16.00606099999999
 30
0.0
  0
POINT
  5
6B4
330
191
100
AcDbEntity
  8
DEFPOINTS
  6
Continuous
 62
     0
100
AcDbPoint
 10
39.78849799999999
 20
-16.006061
 30
0.0
  0
ENDBLK
  5
19C
330
191
100
AcDbEntity
  8
0
100
AcDbBlockEnd
  0
BLOCK
  5
1A6
330
19D
100
AcDbEntity
  8
0
100
AcDbBlockBegin
  2
*D8
 70
     1
 10
0.0
 20
0.0
 30
0.0
  3
*D8
  1

  0
LINE
  5
1E2
330
19D
100
AcDbEntity
  8
PV
  6
Continuous
 62
     0
370
    -2
100
AcDbLine
 10
72.78013320519805
 20
26.6562865016129
 30
0.0
 11
101.2470825873547
 21
15.03913624236497
 31
0.0
  0
LINE
  5
1E3
330
19D
100
AcDbEntity
  8
PV
  6
Continuous
 62
     0
370
    -2
100
AcDbLine
 10
129.8935114126452
 20
3.348741757635037
 30
0.0
 11
132.4581728252904
 21
2.302122515270069
 31
0.0
  0
MTEXT
  5
1E4
102
{ACAD_XDICTIONARY
360
6D2
102
}
330
19D
100
AcDbEntity
  8
PV
  6
Continuous
 62
     0
100
AcDbMText
 10
82.58728124110524
 20
25.98444154047824
 30
0.0
 40
4.166999999999998
 41
0.0
 71
     5
 72
     1
  1
\A1;\U+220525.4
 11
0.9258705460813075
 21
-0.3778408817202039
 31
0.0
 73
     1
 44
1.0
1001
ACAD
1000
MTEXTBEGIN
1070
    73
1070
     1
1070
    44
1040
1.0
1070
    74
1070
     0
1000
MTEXTEND
  0
LINE
  5
1E5
330
19D
100
AcDbEntity
  8
PV
  6
Continuous
 62
     0
370
    -2
100
AcDbLine
 10
127.32885
 20
4.395361000000001
 30
0.0
 11
103.8117439999999
 21
13.992517
 31
0.0
  0
INSERT
  5
1E6
330
19D
100
AcDbEntity
  8
PV
  6
Continuous
 62
     0
370
    -2
100
AcDbBlockReference
  2
_OPEN30
 10
127.32885
 20
4.395361000000001
 30
0.0
 41
2.77
 42
2.77
 43
2.77
 50
157.7999941271824
  0
INSERT
  5
1E7
330
19D
100
AcDbEntity
  8
PV
  6
Continuous
 62
     0
370
    -2
100
AcDbBlockReference
  2
_OPEN30
 10
103.8117439999999
 20
13.992517
 30
0.0
 41
2.77
 42
2.77
 43
2.77
 50
337.7999941271824
  0
POINT
  5
1E8
330
19D
100
AcDbEntity
  8
DEFPOINTS
  6
Continuous
 62
     0
100
AcDbPoint
 10
103.8117439999999
 20
13.992517
 30
0.0
  0
POINT
  5
1E9
330
19D
100
AcDbEntity
  8
DEFPOINTS
  6
Continuous
 62
     0
100
AcDbPoint
 10
127.32885
 20
4.395361000000001
 30
0.0
  0
ENDBLK
  5
1A7
330
19D
100
AcDbEntity
  8
0
100
AcDbBlockEnd
  0
BLOCK
  5
1B3
330
1A8
100
AcDbEntity
  8
0
100
AcDbBlockBegin
  2
*D9
 70
     1
 10
0.0
 20
0.0
 30
0.0
  3
*D9
  1

  0
LINE
  5
1EA
330
1A8
100
AcDbEntity
  8
PV
  6
Continuous
 62
     0
370
    -2
100
AcDbLine
 10
15.77836
 20
-4.457644
 30
0.0
 11
15.77836
 21
-36.37472600000001
 31
0.0
  0
LINE
  5
1EB
330
1A8
100
AcDbEntity
  8
PV
  6
Continuous
 62
     0
370
    -2
100
AcDbLine
 10
-1.221636
 20
-7.776061
 30
0.0
 11
-1.221636000000001
 21
-36.37472600000001
 31
0.0
  0
LINE
  5
1EC
330
1A8
100
AcDbEntity
  8
PV
  6
Continuous
 62
     0
370
    -2
100
AcDbLine
 10
1.548363999999995
 20
-35.174726
 30
0.0
 11
13.00836
 21
-35.174726
 31
0.0
  0
LINE
  5
1ED
330
1A8
100
AcDbEntity
  8
PV
  6
Continuous
 62
     0
370
    -2
100
AcDbLine
 10
15.77836
 20
-35.174726
 30
0.0
 11
33.88276
 21
-35.174726
 31
0.0
  0
INSERT
  5
1EE
330
1A8
100
AcDbEntity
  8
PV
  6
Continuous
 62
     0
370
    -2
100
AcDbBlockReference
  2
_OPEN30
 10
-1.221636000000001
 20
-35.174726
 30
0.0
 41
2.77
 42
2.77
 43
2.77
 50
180.0
  0
INSERT
  5
1EF
330
1A8
100
AcDbEntity
  8
PV
  6
Continuous
 62
     0
370
    -2
100
AcDbBlockReference
  2
_OPEN30
 10
15.77836
 20
-35.174726
 30
0.0
 41
2.77
 42
2.77
 43
2.77
  0
MTEXT
  5
1F0
330
1A8
100
AcDbEntity
  8
PV
  6
Continuous
 62
     0
100
AcDbMText
 10
26.21556
 20
-32.091226
 30
0.0
 40
4.166999999999998
 41
0.0
 71
     5
 72
     1
  1
\A1;17\U+00B11
 73
     1
 44
1.0
1001
ACAD
1000
MTEXTBEGIN
1070
    73
1070
     1
1070
    44
1040
1.0
1070
    74
1070
     0
1000
MTEXTEND
  0
POINT
  5
1F1
330
1A8
100
AcDbEntity
  8
DEFPOINTS
  6
Continuous
 62
     0
100
AcDbPoint
 10
15.77836
 20
-3.187643999999998
 30
0.0
  0
POINT
  5
1F2
330
1A8
100
AcDbEntity
  8
DEFPOINTS
  6
Continuous
 62
     0
100
AcDbPoint
 10
-1.221636
 20
-6.506060999999997
 30
0.0
  0
POINT
  5
1F3
330
1A8
100
AcDbEntity
  8
DEFPOINTS
  6
Continuous
 62
     0
100
AcDbPoint
 10
-1.221636000000001
 20
-35.174726
 30
0.0
  0
ENDBLK
  5
1B4
330
1A8
100
AcDbEntity
  8
0
100
AcDbBlockEnd
  0
BLOCK
  5
1BF
330
1B5
100
AcDbEntity
  8
0
100
AcDbBlockBegin
  2
*D10
 70
     1
 10
0.0
 20
0.0
 30
0.0
  3
*D10
  1

  0
LINE
  5
1F4
330
1B5
100
AcDbEntity
  8
PV
  6
Continuous
 62
     0
370
    -2
100
AcDbLine
 10
-1.221636
 20
-7.776061
 30
0.0
 11
-1.221636000000001
 21
-36.37472600000001
 31
0.0
  0
LINE
  5
1F5
330
1B5
100
AcDbEntity
  8
PV
  6
Continuous
 62
     0
370
    -2
100
AcDbLine
 10
-81.22163399999998
 20
-9.07606
 30
0.0
 11
-81.22163399999998
 21
-36.37472600000001
 31
0.0
  0
LINE
  5
1F6
330
1B5
100
AcDbEntity
  8
PV
  6
Continuous
 62
     0
370
    -2
100
AcDbLine
 10
-3.991636000000001
 20
-35.174726
 30
0.0
 11
-78.451634
 21
-35.174726
 31
0.0
  0
INSERT
  5
1F7
330
1B5
100
AcDbEntity
  8
PV
  6
Continuous
 62
     0
370
    -2
100
AcDbBlockReference
  2
_OPEN30
 10
-1.221636000000001
 20
-35.174726
 30
0.0
 41
2.77
 42
2.77
 43
2.77
  0
INSERT
  5
1F8
330
1B5
100
AcDbEntity
  8
PV
  6
Continuous
 62
     0
370
    -2
100
AcDbBlockReference
  2
_OPEN30
 10
-81.22163399999998
 20
-35.174726
 30
0.0
 41
2.77
 42
2.77
 43
2.77
 50
180.0
  0
MTEXT
  5
1F9
330
1B5
100
AcDbEntity
  8
PV
  6
Continuous
 62
     0
100
AcDbMText
 10
-41.22163599999999
 20
-32.091226
 30
0.0
 40
4.166999999999998
 41
0.0
 71
     5
 72
     1
  1
\A1;80\U+00B12
  7
MX_DIMTXSTY_2
 73
     1
 44
1.0
1001
ACAD
1000
MTEXTBEGIN
1070
    73
1070
     1
1070
    44
1040
1.0
1070
    74
1070
     0
1000
MTEXTEND
  0
POINT
  5
1FA
330
1B5
100
AcDbEntity
  8
DEFPOINTS
  6
Continuous
 62
     0
100
AcDbPoint
 10
-1.221636
 20
-6.506060999999997
 30
0.0
  0
POINT
  5
1FB
330
1B5
100
AcDbEntity
  8
DEFPOINTS
  6
Continuous
 62
     0
100
AcDbPoint
 10
-81.22163399999998
 20
-7.80606
 30
0.0
  0
POINT
  5
1FC
330
1B5
100
AcDbEntity
  8
DEFPOINTS
  6
Continuous
 62
     0
100
AcDbPoint
 10
-81.22163399999998
 20
-35.174726
 30
0.0
  0
ENDBLK
  5
1C0
330
1B5
100
AcDbEntity
  8
0
100
AcDbBlockEnd
  0
BLOCK
  5
1CB
330
1C1
100
AcDbEntity
  8
0
100
AcDbBlockBegin
  2
*D11
 70
     1
 10
0.0
 20
0.0
 30
0.0
  3
*D11
  1

  0
LINE
  5
1FD
330
1C1
100
AcDbEntity
  8
PV
  6
Continuous
 62
     0
370
    -2
100
AcDbLine
 10
-1.221636
 20
-7.776059
 30
0.0
 11
-1.221636000000003
 21
-52.95829799999999
 31
0.0
  0
LINE
  5
1FE
330
1C1
100
AcDbEntity
  8
PV
  6
Continuous
 62
     0
370
    -2
100
AcDbLine
 10
-158.221634
 20
-1.076057999999997
 30
0.0
 11
-158.221634
 21
-52.95829799999999
 31
0.0
  0
LINE
  5
1FF
330
1C1
100
AcDbEntity
  8
PV
  6
Continuous
 62
     0
370
    -2
100
AcDbLine
 10
-3.991636000000001
 20
-51.75829799999998
 30
0.0
 11
-155.451634
 21
-51.75829799999998
 31
0.0
  0
INSERT
  5
200
330
1C1
100
AcDbEntity
  8
PV
  6
Continuous
 62
     0
370
    -2
100
AcDbBlockReference
  2
_OPEN30
 10
-1.221636000000001
 20
-51.75829799999998
 30
0.0
 41
2.77
 42
2.77
 43
2.77
  0
INSERT
  5
201
330
1C1
100
AcDbEntity
  8
PV
  6
Continuous
 62
     0
370
    -2
100
AcDbBlockReference
  2
_OPEN30
 10
-158.221634
 20
-51.75829799999998
 30
0.0
 41
2.77
 42
2.77
 43
2.77
 50
180.0
  0
MTEXT
  5
202
330
1C1
100
AcDbEntity
  8
PV
  6
Continuous
 62
     0
100
AcDbMText
 10
-79.721636
 20
-48.67479799999999
 30
0.0
 40
4.166999999999998
 41
0.0
 71
     5
 72
     1
  1
\A1;157\U+00B13
  7
MX_DIMTXSTY_2
 73
     1
 44
1.0
1001
ACAD
1000
MTEXTBEGIN
1070
    73
1070
     1
1070
    44
1040
1.0
1070
    74
1070
     0
1000
MTEXTEND
  0
POINT
  5
203
330
1C1
100
AcDbEntity
  8
DEFPOINTS
  6
Continuous
 62
     0
100
AcDbPoint
 10
-1.221636
 20
-6.506058999999997
 30
0.0
  0
POINT
  5
204
330
1C1
100
AcDbEntity
  8
DEFPOINTS
  6
Continuous
 62
     0
100
AcDbPoint
 10
-158.221634
 20
0.193942
 30
0.0
  0
POINT
  5
205
330
1C1
100
AcDbEntity
  8
DEFPOINTS
  6
Continuous
 62
     0
100
AcDbPoint
 10
-158.221634
 20
-51.75829799999998
 30
0.0
  0
ENDBLK
  5
1CC
330
1C1
100
AcDbEntity
  8
0
100
AcDbBlockEnd
  0
BLOCK
  5
1D7
330
1CD
100
AcDbEntity
  8
0
100
AcDbBlockBegin
  2
*D12
 70
     1
 10
0.0
 20
0.0
 30
0.0
  3
*D12
  1

  0
LINE
  5
206
330
1CD
100
AcDbEntity
  8
PV
  6
Continuous
 62
     0
370
    -2
100
AcDbLine
 10
-159.491633
 20
0.1939400000000004
 30
0.0
 11
-179.7968149999999
 21
0.1939400000000061
 31
0.0
  0
LINE
  5
207
330
1CD
100
AcDbEntity
  8
PV
  6
Continuous
 62
     0
370
    -2
100
AcDbLine
 10
-159.491633
 20
18.193939
 30
0.0
 11
-179.7968149999999
 21
18.193939
 31
0.0
  0
LINE
  5
208
330
1CD
100
AcDbEntity
  8
PV
  6
Continuous
 62
     0
370
    -2
100
AcDbLine
 10
-178.596815
 20
2.963940000000004
 30
0.0
 11
-178.596815
 21
15.423939
 31
0.0
  0
INSERT
  5
209
330
1CD
100
AcDbEntity
  8
PV
  6
Continuous
 62
     0
370
    -2
100
AcDbBlockReference
  2
_OPEN30
 10
-178.596815
 20
0.1939400000000058
 30
0.0
 41
2.77
 42
2.77
 43
2.77
 50
270.0
  0
INSERT
  5
20A
330
1CD
100
AcDbEntity
  8
PV
  6
Continuous
 62
     0
370
    -2
100
AcDbBlockReference
  2
_OPEN30
 10
-178.596815
 20
18.193939
 30
0.0
 41
2.77
 42
2.77
 43
2.77
 50
90.0
  0
MTEXT
  5
20B
102
{ACAD_XDICTIONARY
360
6D4
102
}
330
1CD
100
AcDbEntity
  8
PV
  6
Continuous
 62
     0
100
AcDbMText
 10
-181.680315
 20
9.193939499999975
 30
0.0
 40
4.166999999999998
 41
0.0
 71
     5
 72
     1
  1
\A1;\U+220518(\U+220515)\U+00B10.3
 11
0.0000000000000001
 21
1.0
 31
0.0
 73
     1
 44
1.0
1001
ACAD
1000
MTEXTBEGIN
1070
    73
1070
     1
1070
    44
1040
1.0
1070
    74
1070
     0
1000
MTEXTEND
  0
POINT
  5
20C
330
1CD
100
AcDbEntity
  8
DEFPOINTS
  6
Continuous
 62
     0
100
AcDbPoint
 10
-158.221633
 20
0.19394
 30
0.0
  0
POINT
  5
20D
330
1CD
100
AcDbEntity
  8
DEFPOINTS
  6
Continuous
 62
     0
100
AcDbPoint
 10
-158.221633
 20
18.193939
 30
0.0
  0
POINT
  5
20E
330
1CD
100
AcDbEntity
  8
DEFPOINTS
  6
Continuous
 62
     0
100
AcDbPoint
 10
-178.596815
 20
18.193939
 30
0.0
  0
ENDBLK
  5
1D8
330
1CD
100
AcDbEntity
  8
0
100
AcDbBlockEnd
  0
BLOCK
  5
2EA
330
2E8
100
AcDbEntity
  8
0
100
AcDbBlockBegin
  2
GENAXEH
 70
     0
 10
0.0
 20
0.0
 30
0.0
  3
GENAXEH
  1

  0
LINE
  5
2E9
330
2E8
100
AcDbEntity
  8
0
100
AcDbLine
 10
-1.0
 20
0.0
 30
0.0
 11
1.0
 21
0.0
 31
0.0
  0
ENDBLK
  5
2EB
330
2E8
100
AcDbEntity
  8
0
100
AcDbBlockEnd
  0
BLOCK
  5
30B
330
30A
100
AcDbEntity
  8
0
100
AcDbBlockBegin
  2
*D14
 70
     1
 10
0.0
 20
0.0
 30
0.0
  3
*D14
  1

  0
LINE
  5
332
330
30A
100
AcDbEntity
  8
AM_5
 62
     0
370
    -2
100
AcDbLine
 10
-158.221634
 20
-1.07606
 30
0.0
 11
-158.221634
 21
-36.37472600000013
 31
0.0
  0
LINE
  5
333
330
30A
100
AcDbEntity
  8
AM_5
 62
     0
370
    -2
100
AcDbLine
 10
-81.22163399999989
 20
-9.07606225663706
 30
0.0
 11
-81.22163399999989
 21
-36.37472600000013
 31
0.0
  0
LINE
  5
334
330
30A
100
AcDbEntity
  8
AM_5
 62
     0
370
    -2
100
AcDbLine
 10
-155.721634
 20
-35.17472600000014
 30
0.0
 11
-83.72163399999989
 21
-35.17472600000014
 31
0.0
  0
SOLID
  5
335
330
30A
100
AcDbEntity
  8
AM_5
 62
     0
100
AcDbTrace
 10
-155.721634
 20
-34.75805933333347
 30
0.0
 11
-155.721634
 21
-35.5913926666668
 31
0.0
 12
-158.221634
 22
-35.17472600000014
 32
0.0
 13
-158.221634
 23
-35.17472600000014
 33
0.0
  0
SOLID
  5
336
330
30A
100
AcDbEntity
  8
AM_5
 62
     0
100
AcDbTrace
 10
-83.72163399999989
 20
-34.75805933333347
 30
0.0
 11
-83.72163399999989
 21
-35.5913926666668
 31
0.0
 12
-81.22163399999989
 22
-35.17472600000014
 32
0.0
 13
-81.22163399999989
 23
-35.17472600000014
 33
0.0
  0
MTEXT
  5
337
330
30A
100
AcDbEntity
  8
AM_5
 62
     0
100
AcDbMText
 10
-119.7216339999999
 20
-32.09122600000013
 30
0.0
 40
4.166999999999998
 41
0.0
 71
     5
 72
     1
  1
\A1;(77)
 73
     1
 44
1.0
1001
ACAD
1000
MTEXTBEGIN
1070
    73
1070
     1
1070
    44
1040
1.0
1070
    74
1070
     0
1000
MTEXTEND
  0
POINT
  5
338
330
30A
100
AcDbEntity
  8
DEFPOINTS
 62
     0
100
AcDbPoint
 10
-158.221634
 20
0.19394
 30
0.0
  0
POINT
  5
339
330
30A
100
AcDbEntity
  8
DEFPOINTS
 62
     0
100
AcDbPoint
 10
-81.22163399999989
 20
-7.806062256637058
 30
0.0
  0
POINT
  5
33A
330
30A
100
AcDbEntity
  8
DEFPOINTS
 62
     0
100
AcDbPoint
 10
-81.22163399999989
 20
-35.17472600000014
 30
0.0
  0
ENDBLK
  5
30C
330
30A
100
AcDbEntity
  8
0
100
AcDbBlockEnd
  0
BLOCK
  5
33D
330
33C
100
AcDbEntity
  8
0
100
AcDbBlockBegin
  2
*D15
 70
     1
 10
0.0
 20
0.0
 30
0.0
  3
*D15
  1

  0
LINE
  5
390
330
33C
100
AcDbEntity
  8
PV
  6
Continuous
 62
     0
370
    -2
100
AcDbLine
 10
-81.22163399999989
 20
-9.076062256637063
 30
0.0
 11
-81.22163399999989
 21
-36.35435273279275
 31
0.0
  0
LINE
  5
391
330
33C
100
AcDbEntity
  8
PV
  6
Continuous
 62
     0
370
    -2
100
AcDbLine
 10
-158.221634
 20
-1.076060000000002
 30
0.0
 11
-158.221634
 21
-36.35435273279274
 31
0.0
  0
LINE
  5
392
330
33C
100
AcDbEntity
  8
PV
  6
Continuous
 62
     0
370
    -2
100
AcDbLine
 10
-83.99163399999988
 20
-35.15435273279275
 30
0.0
 11
-155.451634
 21
-35.15435273279275
 31
0.0
  0
INSERT
  5
393
330
33C
100
AcDbEntity
  8
PV
  6
Continuous
 62
     0
370
    -2
100
AcDbBlockReference
  2
_OPEN30
 10
-81.22163399999989
 20
-35.15435273279275
 30
0.0
 41
2.77
 42
2.77
 43
2.77
  0
INSERT
  5
394
330
33C
100
AcDbEntity
  8
PV
  6
Continuous
 62
     0
370
    -2
100
AcDbBlockReference
  2
_OPEN30
 10
-158.221634
 20
-35.15435273279275
 30
0.0
 41
2.77
 42
2.77
 43
2.77
 50
180.0
  0
MTEXT
  5
395
330
33C
100
AcDbEntity
  8
PV
  6
Continuous
 62
     0
100
AcDbMText
 10
-119.927404885613
 20
-32.07085273279274
 30
0.0
 40
4.166999999999998
 41
0.0
 71
     5
 72
     1
  1
\A1;(77)
  7
MX_DIMTXSTY_2
 73
     1
 44
1.0
1001
ACAD
1000
MTEXTBEGIN
1070
    73
1070
     1
1070
    44
1040
1.0
1070
    74
1070
     0
1000
MTEXTEND
  0
POINT
  5
396
330
33C
100
AcDbEntity
  8
DEFPOINTS
  6
Continuous
 62
     0
100
AcDbPoint
 10
-81.22163399999989
 20
-7.806062256637063
 30
0.0
  0
POINT
  5
397
330
33C
100
AcDbEntity
  8
DEFPOINTS
  6
Continuous
 62
     0
100
AcDbPoint
 10
-158.221634
 20
0.1939399999999978
 30
0.0
  0
POINT
  5
398
330
33C
100
AcDbEntity
  8
DEFPOINTS
  6
Continuous
 62
     0
100
AcDbPoint
 10
-158.221634
 20
-35.15435273279275
 30
0.0
  0
ENDBLK
  5
33E
330
33C
100
AcDbEntity
  8
0
100
AcDbBlockEnd
  0
BLOCK
  5
546
330
545
100
AcDbEntity
  8
0
 62
     6
 48
0.5
100
AcDbBlockBegin
  2
*D17
 70
     1
 10
0.0
 20
0.0
 30
0.0
  3
*D17
  1

  0
LINE
  5
547
330
545
100
AcDbEntity
  8
DIMENSION
 62
     0
 48
0.5
100
AcDbLine
 10
250.1009081240929
 20
171.730430053686
 30
0.0
 11
250.1009081240929
 21
139.8133484592189
 31
0.0
  0
LINE
  5
548
330
545
100
AcDbEntity
  8
DIMENSION
 62
     0
 48
0.5
100
AcDbLine
 10
233.1009121240929
 20
168.412013458227
 30
0.0
 11
233.1009121240929
 21
139.8133484592189
 31
0.0
  0
LINE
  5
549
330
545
100
AcDbEntity
  8
DIMENSION
 62
     0
 48
0.5
100
AcDbLine
 10
236.0009121240929
 20
141.0133485069026
 30
0.0
 11
247.2009081240929
 21
141.0133485069026
 31
0.0
  0
LINE
  5
54A
330
545
100
AcDbEntity
  8
DIMENSION
 62
     0
 48
0.5
100
AcDbLine
 10
250.1009081240929
 20
141.0133485069026
 30
0.0
 11
267.3936411766646
 21
141.0133485069026
 31
0.0
  0
INSERT
  5
54B
330
545
100
AcDbEntity
  8
DIMENSION
 62
     0
 48
0.5
100
AcDbBlockReference
  2
_OPEN30
 10
233.1009121240929
 20
141.0133485069026
 30
0.0
 41
2.9
 42
2.9
 43
2.9
 50
180.0
  0
INSERT
  5
54C
330
545
100
AcDbEntity
  8
DIMENSION
 62
     0
 48
0.5
100
AcDbBlockReference
  2
_OPEN30
 10
250.1009081240929
 20
141.0133485069026
 30
0.0
 41
2.9
 42
2.9
 43
2.9
  0
MTEXT
  5
54D
330
545
100
AcDbEntity
  8
DIMENSION
 62
     0
 48
0.5
100
AcDbMText
 10
260.2603078433312
 20
144.0133485069026
 30
0.0
 40
4.0
 41
0.0
 71
     5
 72
     1
  1
\A1;17\U+00B11
  7
ULVAC
 73
     1
 44
0.9359251894303499
1001
ACAD
1000
MTEXTBEGIN
1070
    73
1070
     1
1070
    44
1040
0.9359251894303499
1070
    74
1070
     0
1000
MTEXTEND
  0
POINT
  5
54E
330
545
100
AcDbEntity
  8
DEFPOINTS
 62
     0
 48
0.5
100
AcDbPoint
 10
250.1009081240929
 20
173.0004300346126
 30
0.0
  0
POINT
  5
54F
330
545
100
AcDbEntity
  8
DEFPOINTS
 62
     0
 48
0.5
100
AcDbPoint
 10
233.1009121240929
 20
169.6820134391536
 30
0.0
  0
POINT
  5
550
330
545
100
AcDbEntity
  8
DEFPOINTS
 62
     0
 48
0.5
100
AcDbPoint
 10
233.1009121240929
 20
141.0133485069026
 30
0.0
  0
ENDBLK
  5
551
330
545
100
AcDbEntity
  8
0
 62
     6
 48
0.5
100
AcDbBlockEnd
  0
BLOCK
  5
553
330
552
100
AcDbEntity
  8
0
 62
     6
 48
0.5
100
AcDbBlockBegin
  2
*D18
 70
     1
 10
0.0
 20
0.0
 30
0.0
  3
*D18
  1

  0
LINE
  5
554
330
552
100
AcDbEntity
  8
DIMENSION
 62
     0
 48
0.5
100
AcDbLine
 10
233.1009121240929
 20
168.412013458227
 30
0.0
 11
233.1009121240929
 21
139.8133484592189
 31
0.0
  0
LINE
  5
555
330
552
100
AcDbEntity
  8
DIMENSION
 62
     0
 48
0.5
100
AcDbLine
 10
153.1009141240929
 20
167.1120142211665
 30
0.0
 11
153.1009141240929
 21
139.8133484592189
 31
0.0
  0
LINE
  5
556
330
552
100
AcDbEntity
  8
DIMENSION
 62
     0
 48
0.5
100
AcDbLine
 10
230.2009121240929
 20
141.0133485069026
 30
0.0
 11
156.0009141240929
 21
141.0133485069026
 31
0.0
  0
INSERT
  5
557
330
552
100
AcDbEntity
  8
DIMENSION
 62
     0
 48
0.5
100
AcDbBlockReference
  2
_OPEN30
 10
233.1009121240929
 20
141.0133485069026
 30
0.0
 41
2.9
 42
2.9
 43
2.9
  0
INSERT
  5
558
330
552
100
AcDbEntity
  8
DIMENSION
 62
     0
 48
0.5
100
AcDbBlockReference
  2
_OPEN30
 10
153.1009141240929
 20
141.0133485069026
 30
0.0
 41
2.9
 42
2.9
 43
2.9
 50
180.0
  0
MTEXT
  5
559
330
552
100
AcDbEntity
  8
DIMENSION
 62
     0
 48
0.5
100
AcDbMText
 10
193.1009121240929
 20
144.0133485069026
 30
0.0
 40
4.0
 41
0.0
 71
     5
 72
     1
  1
\A1;80\U+00B12
  7
ULVAC
 73
     1
 44
0.9359251894303499
1001
ACAD
1000
MTEXTBEGIN
1070
    73
1070
     1
1070
    44
1040
0.9359251894303499
1070
    74
1070
     0
1000
MTEXTEND
  0
POINT
  5
55A
330
552
100
AcDbEntity
  8
DEFPOINTS
 62
     0
 48
0.5
100
AcDbPoint
 10
233.1009121240929
 20
169.6820134391536
 30
0.0
  0
POINT
  5
55B
330
552
100
AcDbEntity
  8
DEFPOINTS
 62
     0
 48
0.5
100
AcDbPoint
 10
153.1009141240929
 20
168.382014202093
 30
0.0
  0
POINT
  5
55C
330
552
100
AcDbEntity
  8
DEFPOINTS
 62
     0
 48
0.5
100
AcDbPoint
 10
153.1009141240929
 20
141.0133485069026
 30
0.0
  0
ENDBLK
  5
55D
330
552
100
AcDbEntity
  8
0
 62
     6
 48
0.5
100
AcDbBlockEnd
  0
BLOCK
  5
55F
330
55E
100
AcDbEntity
  8
0
 62
     6
 48
0.5
100
AcDbBlockBegin
  2
*D19
 70
     1
 10
0.0
 20
0.0
 30
0.0
  3
*D19
  1

  0
LINE
  5
560
330
55E
100
AcDbEntity
  8
DIMENSION
 62
     0
 48
0.5
100
AcDbLine
 10
233.1009121240929
 20
168.4120152408655
 30
0.0
 11
233.1009121240929
 21
123.2297759468134
 31
0.0
  0
LINE
  5
561
330
55E
100
AcDbEntity
  8
DIMENSION
 62
     0
 48
0.5
100
AcDbLine
 10
76.10091412409295
 20
175.112016003805
 30
0.0
 11
76.10091412409295
 21
123.2297759468134
 31
0.0
  0
LINE
  5
562
330
55E
100
AcDbEntity
  8
DIMENSION
 62
     0
 48
0.5
100
AcDbLine
 10
230.2009121240929
 20
124.4297759944971
 30
0.0
 11
79.00091412409295
 21
124.4297759944971
 31
0.0
  0
INSERT
  5
563
330
55E
100
AcDbEntity
  8
DIMENSION
 62
     0
 48
0.5
100
AcDbBlockReference
  2
_OPEN30
 10
233.1009121240929
 20
124.4297759944971
 30
0.0
 41
2.9
 42
2.9
 43
2.9
  0
INSERT
  5
564
330
55E
100
AcDbEntity
  8
DIMENSION
 62
     0
 48
0.5
100
AcDbBlockReference
  2
_OPEN30
 10
76.10091412409295
 20
124.4297759944971
 30
0.0
 41
2.9
 42
2.9
 43
2.9
 50
180.0
  0
MTEXT
  5
565
330
55E
100
AcDbEntity
  8
DIMENSION
 62
     0
 48
0.5
100
AcDbMText
 10
154.6009121240929
 20
127.4297759944971
 30
0.0
 40
4.0
 41
0.0
 71
     5
 72
     1
  1
\A1;157{}{\H0.75x;\C7;%%p3}
  7
ULVAC
 73
     1
 44
0.9359251894303499
1001
ACAD
1000
MTEXTBEGIN
1070
    73
1070
     1
1070
    44
1040
0.9359251894303499
1070
    74
1070
     0
1000
MTEXTEND
  0
POINT
  5
566
330
55E
100
AcDbEntity
  8
DEFPOINTS
 62
     0
 48
0.5
100
AcDbPoint
 10
233.1009121240929
 20
169.6820152217921
 30
0.0
  0
POINT
  5
567
330
55E
100
AcDbEntity
  8
DEFPOINTS
 62
     0
 48
0.5
100
AcDbPoint
 10
76.10091412409295
 20
176.3820159847315
 30
0.0
  0
POINT
  5
568
330
55E
100
AcDbEntity
  8
DEFPOINTS
 62
     0
 48
0.5
100
AcDbPoint
 10
76.10091412409295
 20
124.4297759944971
 30
0.0
  0
ENDBLK
  5
569
330
55E
100
AcDbEntity
  8
0
 62
     6
 48
0.5
100
AcDbBlockEnd
  0
BLOCK
  5
56B
330
56A
100
AcDbEntity
  8
0
 62
     6
 48
0.5
100
AcDbBlockBegin
  2
*D20
 70
     1
 10
0.0
 20
0.0
 30
0.0
  3
*D20
  1

  0
LINE
  5
56C
330
56A
100
AcDbEntity
  8
DIMENSION
 62
     0
 48
0.5
100
AcDbLine
 10
74.83091471987662
 20
176.3820143554665
 30
0.0
 11
54.52573345499932
 21
176.3820143554666
 31
0.0
  0
LINE
  5
56D
330
56A
100
AcDbEntity
  8
DIMENSION
 62
     0
 48
0.5
100
AcDbLine
 10
74.83091471987662
 20
194.3820133554665
 30
0.0
 11
54.52573345499933
 21
194.3820133554666
 31
0.0
  0
LINE
  5
56E
330
56A
100
AcDbEntity
  8
DIMENSION
 62
     0
 48
0.5
100
AcDbLine
 10
55.72573350268304
 20
179.2820143554666
 30
0.0
 11
55.72573350268305
 21
191.4820133554666
 31
0.0
  0
INSERT
  5
56F
330
56A
100
AcDbEntity
  8
DIMENSION
 62
     0
 48
0.5
100
AcDbBlockReference
  2
_OPEN30
 10
55.72573350268304
 20
176.3820143554666
 30
0.0
 41
2.9
 42
2.9
 43
2.9
 50
270.0
  0
INSERT
  5
570
330
56A
100
AcDbEntity
  8
DIMENSION
 62
     0
 48
0.5
100
AcDbBlockReference
  2
_OPEN30
 10
55.72573350268305
 20
194.3820133554666
 30
0.0
 41
2.9
 42
2.9
 43
2.9
 50
90.0
  0
MTEXT
  5
571
102
{ACAD_XDICTIONARY
360
6FC
102
}
330
56A
100
AcDbEntity
  8
DIMENSION
 62
     0
 48
0.5
100
AcDbMText
 10
52.72573350268302
 20
185.3820138554666
 30
0.0
 40
4.0
 41
0.0
 71
     5
 72
     1
  1
\A1;\U+220518(\U+220515)\U+00B10.3
  7
ULVAC
 11
0.0000000000000001
 21
1.0
 31
0.0
 73
     1
 44
0.9359251894303499
1001
ACAD
1000
MTEXTBEGIN
1070
    73
1070
     1
1070
    44
1040
0.9359251894303499
1070
    74
1070
     0
1000
MTEXTEND
  0
POINT
  5
572
330
56A
100
AcDbEntity
  8
DEFPOINTS
 62
     0
 48
0.5
100
AcDbPoint
 10
76.10091470080313
 20
176.3820143554665
 30
0.0
  0
POINT
  5
573
330
56A
100
AcDbEntity
  8
DEFPOINTS
 62
     0
 48
0.5
100
AcDbPoint
 10
76.10091470080313
 20
194.3820133554665
 30
0.0
  0
POINT
  5
574
330
56A
100
AcDbEntity
  8
DEFPOINTS
 62
     0
 48
0.5
100
AcDbPoint
 10
55.72573350268305
 20
194.3820133554666
 30
0.0
  0
ENDBLK
  5
575
330
56A
100
AcDbEntity
  8
0
 62
     6
 48
0.5
100
AcDbBlockEnd
  0
BLOCK
  5
577
330
576
100
AcDbEntity
  8
0
 48
0.5
100
AcDbBlockBegin
  2
*D21
 70
     1
 10
0.0
 20
0.0
 30
0.0
  3
*D21
  1

  0
LINE
  5
578
330
576
100
AcDbEntity
  8
DIMENSION
 62
     0
100
AcDbLine
 10
76.10091412409295
 20
175.1120143745401
 30
0.0
 11
76.10091412409295
 21
139.813348459219
 31
0.0
  0
LINE
  5
579
330
576
100
AcDbEntity
  8
DIMENSION
 62
     0
100
AcDbLine
 10
153.100914124093
 20
167.112012117903
 30
0.0
 11
153.100914124093
 21
139.813348459219
 31
0.0
  0
LINE
  5
57A
330
576
100
AcDbEntity
  8
DIMENSION
 62
     0
100
AcDbLine
 10
79.00091412409295
 20
141.0133485069027
 30
0.0
 11
150.200914124093
 21
141.0133485069027
 31
0.0
  0
INSERT
  5
57B
330
576
100
AcDbEntity
  8
DIMENSION
 62
     0
100
AcDbBlockReference
  2
_OPEN30
 10
76.10091412409295
 20
141.0133485069027
 30
0.0
 41
2.9
 42
2.9
 43
2.9
 50
180.0
  0
INSERT
  5
57C
330
576
100
AcDbEntity
  8
DIMENSION
 62
     0
100
AcDbBlockReference
  2
_OPEN30
 10
153.100914124093
 20
141.0133485069027
 30
0.0
 41
2.9
 42
2.9
 43
2.9
  0
MTEXT
  5
57D
330
576
100
AcDbEntity
  8
DIMENSION
 62
     0
100
AcDbMText
 10
114.600914124093
 20
144.0133485069027
 30
0.0
 40
4.0
 41
0.0
 71
     5
 72
     1
  1
\A1;(77)
  7
ULVAC
 73
     1
 44
1.0
1001
ACAD
1000
MTEXTBEGIN
1070
    73
1070
     1
1070
    44
1040
1.0
1070
    74
1070
     0
1000
MTEXTEND
  0
POINT
  5
57E
330
576
100
AcDbEntity
  8
DEFPOINTS
 62
     0
100
AcDbPoint
 10
76.10091412409295
 20
176.3820143554666
 30
0.0
  0
POINT
  5
57F
330
576
100
AcDbEntity
  8
DEFPOINTS
 62
     0
100
AcDbPoint
 10
153.100914124093
 20
168.3820120988296
 30
0.0
  0
POINT
  5
580
330
576
100
AcDbEntity
  8
DEFPOINTS
 62
     0
100
AcDbPoint
 10
153.100914124093
 20
141.0133485069027
 30
0.0
  0
ENDBLK
  5
581
330
576
100
AcDbEntity
  8
0
 48
0.5
100
AcDbBlockEnd
  0
BLOCK
  5
585
330
582
100
AcDbEntity
  8
0
 48
0.5
100
AcDbBlockBegin
  2
rev_d
 70
     0
 10
0.0
 20
0.0
 30
0.0
  3
rev_d
  1

  0
LINE
  5
586
330
582
100
AcDbEntity
  8
DIMENSION
370
    35
100
AcDbLine
 10
0.0
 20
0.0
 30
0.0
 11
4.5
 21
0.0
 31
0.0
  0
LINE
  5
587
330
582
100
AcDbEntity
  8
DIMENSION
370
    35
100
AcDbLine
 10
4.5
 20
0.0
 30
0.0
 11
2.25
 21
3.897114317029945
 31
0.0
  0
LINE
  5
588
330
582
100
AcDbEntity
  8
DIMENSION
370
    35
100
AcDbLine
 10
2.25
 20
3.897114317029945
 30
0.0
 11
0.0
 21
0.0
 31
0.0
  0
TEXT
  5
589
330
582
100
AcDbEntity
  8
DIMENSION
100
AcDbText
 10
1.794
 20
0.3990381056766864
 30
0.0
 40
1.8
  1
D
 41
0.76
  7
ULVAC
 72
     1
 11
2.25
 21
1.299038105676686
 31
0.0
100
AcDbText
 73
     2
  0
ENDBLK
  5
58A
330
582
100
AcDbEntity
  8
0
 48
0.5
100
AcDbBlockEnd
  0
BLOCK
  5
58C
330
58B
100
AcDbEntity
  8
0
 48
0.5
100
AcDbBlockBegin
  2
*D23
 70
     1
 10
0.0
 20
0.0
 30
0.0
  3
*D23
  1

  0
LINE
  5
58D
330
58B
100
AcDbEntity
  8
DIMENSION
 62
     0
100
AcDbLine
 10
229.62091289558
 20
210.5820133554666
 30
0.0
 11
276.3008774434693
 21
210.5820133554666
 31
0.0
  0
LINE
  5
58E
330
58B
100
AcDbEntity
  8
DIMENSION
 62
     0
100
AcDbLine
 10
229.62091289558
 20
160.1820133554666
 30
0.0
 11
276.3008774434693
 21
160.1820133554666
 31
0.0
  0
LINE
  5
58F
330
58B
100
AcDbEntity
  8
DIMENSION
 62
     0
100
AcDbLine
 10
275.1008773957856
 20
207.6820133554666
 30
0.0
 11
275.1008773957856
 21
163.0820133554666
 31
0.0
  0
INSERT
  5
590
330
58B
100
AcDbEntity
  8
DIMENSION
 62
     0
100
AcDbBlockReference
  2
_OPEN30
 10
275.1008773957856
 20
210.5820133554666
 30
0.0
 41
2.9
 42
2.9
 43
2.9
 50
90.0
  0
INSERT
  5
591
330
58B
100
AcDbEntity
  8
DIMENSION
 62
     0
100
AcDbBlockReference
  2
_OPEN30
 10
275.1008773957856
 20
160.1820133554666
 30
0.0
 41
2.9
 42
2.9
 43
2.9
 50
270.0
  0
MTEXT
  5
592
330
58B
100
AcDbEntity
  8
DIMENSION
 62
     0
100
AcDbMText
 10
272.1008773957855
 20
185.3820133554666
 30
0.0
 40
4.0
 41
0.0
 71
     5
 72
     1
  1
\A1;%%c50.4{}{\H0.75x;\C7;%%p1}
  7
ULVAC
 11
0.0000000000000001
 21
1.0
 31
0.0
 73
     1
 44
1.0
1001
ACAD
1000
MTEXTBEGIN
1070
    73
1070
     1
1070
    44
1040
1.0
1070
    74
1070
     0
1000
MTEXTEND
  0
POINT
  5
593
330
58B
100
AcDbEntity
  8
DEFPOINTS
 62
     0
100
AcDbPoint
 10
228.3509129146535
 20
210.5820133554666
 30
0.0
  0
POINT
  5
594
330
58B
100
AcDbEntity
  8
DEFPOINTS
 62
     0
100
AcDbPoint
 10
228.3509129146535
 20
160.1820133554666
 30
0.0
  0
POINT
  5
595
330
58B
100
AcDbEntity
  8
DEFPOINTS
 62
     0
100
AcDbPoint
 10
275.1008773957856
 20
160.1820133554666
 30
0.0
  0
ENDBLK
  5
596
330
58B
100
AcDbEntity
  8
0
 48
0.5
100
AcDbBlockEnd
  0
BLOCK
  5
638
330
5B8
100
AcDbEntity
  8
0
100
AcDbBlockBegin
  2
A$C3B137917
 70
     0
 10
0.0
 20
0.0
 30
0.0
  3
A$C3B137917
  1

  0
LINE
  5
5B9
330
5B8
100
AcDbEntity
  8
PROFILE2
 48
0.5
100
AcDbLine
 10
158.159778197329
 20
68.4125615088555
 30
0.0
 11
158.159778197329
 21
66.9125615088555
 31
0.0
  0
LINE
  5
5BA
330
5B8
100
AcDbEntity
  8
PROFILE2
 48
0.5
100
AcDbLine
 10
161.108512197329
 20
50.5206535088555
 30
0.0
 11
161.108512197329
 21
49.0206535088555
 31
0.0
  0
LINE
  5
5BB
330
5B8
100
AcDbEntity
  8
PROFILE2
 48
0.5
100
AcDbLine
 10
161.108512197329
 20
52.97297850885548
 30
0.0
 11
161.108512197329
 21
51.47297850885547
 31
0.0
  0
LINE
  5
5BC
330
5B8
100
AcDbEntity
  8
PROFILE2
 48
0.5
100
AcDbLine
 10
161.108512197329
 20
57.39191450885551
 30
0.0
 11
161.108512197329
 21
55.8919145088555
 31
0.0
  0
LINE
  5
5BD
330
5B8
100
AcDbEntity
  8
PROFILE2
 48
0.5
100
AcDbLine
 10
161.108512197329
 20
72.83149750885548
 30
0.0
 11
161.108512197329
 21
71.33149750885547
 31
0.0
  0
LINE
  5
5BE
330
5B8
100
AcDbEntity
  8
PROFILE2
 48
0.5
100
AcDbLine
 10
161.108512197329
 20
75.28382150885551
 30
0.0
 11
161.108512197329
 21
73.78382150885551
 31
0.0
  0
LINE
  5
5BF
330
5B8
100
AcDbEntity
  8
PROFILE2
 48
0.5
100
AcDbLine
 10
110.108514197329
 20
36.95223750885555
 30
0.0
 11
177.358513197329
 21
36.95223750885555
 31
0.0
  0
LINE
  5
5C0
330
5B8
100
AcDbEntity
  8
PROFILE2
 48
0.5
100
AcDbLine
 10
110.108514197329
 20
87.35223750885547
 30
0.0
 11
177.358513197329
 21
87.35223750885547
 31
0.0
  0
LINE
  5
5C1
330
5B8
100
AcDbEntity
  8
PROFILE2
 48
0.5
100
AcDbLine
 10
25.10851419732901
 20
53.15223850885548
 30
0.0
 11
94.10851419732901
 21
53.15223850885548
 31
0.0
  0
LINE
  5
5C2
330
5B8
100
AcDbEntity
  8
PROFILE2
 48
0.5
100
AcDbLine
 10
25.10851419732901
 20
71.15223750885547
 30
0.0
 11
94.10851419732901
 21
71.15223750885547
 31
0.0
  0
LINE
  5
5C3
330
5B8
100
AcDbEntity
  8
CENTER1
 48
0.5
100
AcDbLine
 10
18.82650119732901
 20
62.15223750885548
 30
0.0
 11
210.727187197329
 21
62.15223750885548
 31
0.0
  0
LINE
  5
5C4
330
5B8
100
AcDbEntity
  8
PROFILE2
 48
0.5
100
AcDbLine
 10
181.358512197329
 20
40.95223750885549
 30
0.0
 11
181.358512197329
 21
46.45223750885548
 31
0.0
  0
LINE
  5
5C5
330
5B8
100
AcDbEntity
  8
PROFILE2
 48
0.5
100
AcDbLine
 10
178.858512197329
 20
40.95223750885549
 30
0.0
 11
178.858512197329
 21
47.5206535088555
 31
0.0
  0
LINE
  5
5C6
330
5B8
100
AcDbEntity
  8
PROFILE2
 48
0.5
100
AcDbLine
 10
181.358512197329
 20
46.45223750885548
 30
0.0
 11
182.108512197329
 21
46.45223750885548
 31
0.0
  0
LINE
  5
5C7
330
5B8
100
AcDbEntity
  8
PROFILE2
 48
0.5
100
AcDbLine
 10
181.358512197329
 20
77.85223850885552
 30
0.0
 11
182.108512197329
 21
77.85223850885552
 31
0.0
  0
LINE
  5
5C8
330
5B8
100
AcDbEntity
  8
PROFILE2
 48
0.5
100
AcDbLine
 10
161.108512197329
 20
75.28382150885551
 30
0.0
 11
198.358508197329
 21
75.28382150885551
 31
0.0
  0
LINE
  5
5C9
330
5B8
100
AcDbEntity
  8
PROFILE2
 48
0.5
100
AcDbLine
 10
161.108512197329
 20
73.78382150885551
 30
0.0
 11
182.108512197329
 21
73.78382150885546
 31
0.0
  0
LINE
  5
5CA
330
5B8
100
AcDbEntity
  8
PROFILE2
 48
0.5
100
AcDbLine
 10
184.5787536833024
 20
73.78382150885546
 30
0.0
 11
198.358508197329
 21
73.78382150885551
 31
0.0
  0
LINE
  5
5CB
330
5B8
100
AcDbEntity
  8
PROFILE2
 48
0.5
100
AcDbLine
 10
161.108512197329
 20
72.83149750885548
 30
0.0
 11
198.358508197329
 21
72.83149750885548
 31
0.0
  0
LINE
  5
5CC
330
5B8
100
AcDbEntity
  8
PROFILE2
 48
0.5
100
AcDbLine
 10
161.108512197329
 20
71.33149750885547
 30
0.0
 11
198.358508197329
 21
71.33149750885547
 31
0.0
  0
LINE
  5
5CD
330
5B8
100
AcDbEntity
  8
PROFILE2
 48
0.5
100
AcDbLine
 10
161.108512197329
 20
57.39191450885551
 30
0.0
 11
198.358508197329
 21
57.39191450885551
 31
0.0
  0
LINE
  5
5CE
330
5B8
100
AcDbEntity
  8
PROFILE2
 48
0.5
100
AcDbLine
 10
161.108512197329
 20
55.8919145088555
 30
0.0
 11
198.358508197329
 21
55.8919145088555
 31
0.0
  0
LINE
  5
5CF
330
5B8
100
AcDbEntity
  8
PROFILE2
 48
0.5
100
AcDbLine
 10
161.108512197329
 20
52.97297850885548
 30
0.0
 11
198.358508197329
 21
52.97297850885548
 31
0.0
  0
LINE
  5
5D0
330
5B8
100
AcDbEntity
  8
PROFILE2
 48
0.5
100
AcDbLine
 10
161.108512197329
 20
51.47297850885547
 30
0.0
 11
198.358508197329
 21
51.47297850885547
 31
0.0
  0
LINE
  5
5D1
330
5B8
100
AcDbEntity
  8
PROFILE2
 48
0.5
100
AcDbLine
 10
161.108512197329
 20
50.5206535088555
 30
0.0
 11
182.108512197329
 21
50.5206535088555
 31
0.0
  0
LINE
  5
5D2
330
5B8
100
AcDbEntity
  8
PROFILE2
 48
0.5
100
AcDbLine
 10
184.5787536833024
 20
50.5206535088555
 30
0.0
 11
198.358508197329
 21
50.5206535088555
 31
0.0
  0
LINE
  5
5D3
330
5B8
100
AcDbEntity
  8
PROFILE2
 48
0.5
100
AcDbLine
 10
161.108512197329
 20
49.0206535088555
 30
0.0
 11
198.358508197329
 21
49.0206535088555
 31
0.0
  0
LINE
  5
5D4
330
5B8
100
AcDbEntity
  8
PROFILE2
 48
0.5
100
AcDbLine
 10
164.108512197329
 20
47.5206535088555
 30
0.0
 11
164.108512197329
 21
49.0206535088555
 31
0.0
  0
LINE
  5
5D5
330
5B8
100
AcDbEntity
  8
PROFILE2
 48
0.5
100
AcDbLine
 10
152.557006197329
 20
62.90223750885548
 30
0.0
 11
182.108512197329
 21
62.90223750885548
 31
0.0
  0
LINE
  5
5D6
330
5B8
100
AcDbEntity
  8
PROFILE2
 48
0.5
100
AcDbLine
 10
152.557006197329
 20
61.40223750885548
 30
0.0
 11
182.108512197329
 21
61.40223750885548
 31
0.0
  0
LINE
  5
5D7
330
5B8
100
AcDbEntity
  8
PROFILE2
 48
0.5
100
AcDbLine
 10
152.557006197329
 20
62.90223750885548
 30
0.0
 11
152.557006197329
 21
61.40223750885548
 31
0.0
  0
LINE
  5
5D8
330
5B8
100
AcDbEntity
  8
PROFILE2
 48
0.5
100
AcDbLine
 10
164.108512197329
 20
76.78382150885551
 30
0.0
 11
178.858513197329
 21
76.78382150885551
 31
0.0
  0
LINE
  5
5D9
330
5B8
100
AcDbEntity
  8
PROFILE2
 48
0.5
100
AcDbLine
 10
164.108512197329
 20
47.5206535088555
 30
0.0
 11
178.858513197329
 21
47.5206535088555
 31
0.0
  0
LINE
  5
5DA
330
5B8
100
AcDbEntity
  8
PROFILE2
 48
0.5
100
AcDbLine
 10
164.108512197329
 20
58.89191450885551
 30
0.0
 11
178.858513197329
 21
58.89191450885551
 31
0.0
  0
LINE
  5
5DB
330
5B8
100
AcDbEntity
  8
PROFILE2
 48
0.5
100
AcDbLine
 10
164.108512197329
 20
59.90223750885547
 30
0.0
 11
178.858513197329
 21
59.90223750885547
 31
0.0
  0
LINE
  5
5DC
330
5B8
100
AcDbEntity
  8
PROFILE2
 48
0.5
100
AcDbLine
 10
164.108512197329
 20
54.39191450885551
 30
0.0
 11
178.858513197329
 21
54.39191450885551
 31
0.0
  0
LINE
  5
5DD
330
5B8
100
AcDbEntity
  8
PROFILE2
 48
0.5
100
AcDbLine
 10
164.108512197329
 20
64.40223750885547
 30
0.0
 11
178.858513197329
 21
64.40223750885547
 31
0.0
  0
LINE
  5
5DE
330
5B8
100
AcDbEntity
  8
PROFILE2
 48
0.5
100
AcDbLine
 10
164.108512197329
 20
65.4125615088555
 30
0.0
 11
178.858513197329
 21
65.4125615088555
 31
0.0
  0
LINE
  5
5DF
330
5B8
100
AcDbEntity
  8
PROFILE2
 48
0.5
100
AcDbLine
 10
164.108512197329
 20
59.90223750885547
 30
0.0
 11
164.108512197329
 21
61.40223750885548
 31
0.0
  0
LINE
  5
5E0
330
5B8
100
AcDbEntity
  8
PROFILE2
 48
0.5
100
AcDbLine
 10
164.108512197329
 20
65.4125615088555
 30
0.0
 11
164.108512197329
 21
66.9125615088555
 31
0.0
  0
LINE
  5
5E1
330
5B8
100
AcDbEntity
  8
PROFILE2
 48
0.5
100
AcDbLine
 10
164.108512197329
 20
69.9125625088555
 30
0.0
 11
178.858513197329
 21
69.9125625088555
 31
0.0
  0
LINE
  5
5E2
330
5B8
100
AcDbEntity
  8
PROFILE2
 48
0.5
100
AcDbLine
 10
164.108512197329
 20
50.5206535088555
 30
0.0
 11
164.108512197329
 21
51.47297850885547
 31
0.0
  0
LINE
  5
5E3
330
5B8
100
AcDbEntity
  8
PROFILE2
 48
0.5
100
AcDbLine
 10
164.108512197329
 20
52.97297850885548
 30
0.0
 11
164.108512197329
 21
55.8919145088555
 31
0.0
  0
LINE
  5
5E4
330
5B8
100
AcDbEntity
  8
PROFILE2
 48
0.5
100
AcDbLine
 10
164.108512197329
 20
57.39191450885551
 30
0.0
 11
164.108512197329
 21
58.89191450885551
 31
0.0
  0
LINE
  5
5E5
330
5B8
100
AcDbEntity
  8
PROFILE2
 48
0.5
100
AcDbLine
 10
164.108512197329
 20
68.4125615088555
 30
0.0
 11
164.108512197329
 21
71.33149750885547
 31
0.0
  0
LINE
  5
5E6
330
5B8
100
AcDbEntity
  8
PROFILE2
 48
0.5
100
AcDbLine
 10
164.108512197329
 20
72.83149750885548
 30
0.0
 11
164.108512197329
 21
73.78382150885551
 31
0.0
  0
LINE
  5
5E7
330
5B8
100
AcDbEntity
  8
PROFILE2
 48
0.5
100
AcDbLine
 10
164.108512197329
 20
75.28382150885551
 30
0.0
 11
164.108512197329
 21
76.78382150885551
 31
0.0
  0
LINE
  5
5E8
330
5B8
100
AcDbEntity
  8
PROFILE2
 48
0.5
100
AcDbLine
 10
164.108512197329
 20
62.90223750885548
 30
0.0
 11
164.108512197329
 21
64.40223750885547
 31
0.0
  0
LINE
  5
5E9
330
5B8
100
AcDbEntity
  8
PROFILE2
 48
0.5
100
AcDbLine
 10
178.858513197329
 20
76.78382150885551
 30
0.0
 11
178.858513197329
 21
83.15223750885548
 31
0.0
  0
LINE
  5
5EA
330
5B8
100
AcDbEntity
  8
PROFILE2
 48
0.5
100
AcDbLine
 10
178.858513197329
 20
72.83149750885548
 30
0.0
 11
178.858513197329
 21
73.78382150885551
 31
0.0
  0
LINE
  5
5EB
330
5B8
100
AcDbEntity
  8
PROFILE2
 48
0.5
100
AcDbLine
 10
178.858513197329
 20
68.4125615088555
 30
0.0
 11
178.858513197329
 21
71.33149750885547
 31
0.0
  0
LINE
  5
5EC
330
5B8
100
AcDbEntity
  8
PROFILE2
 48
0.5
100
AcDbLine
 10
178.858513197329
 20
57.39191450885551
 30
0.0
 11
178.858513197329
 21
66.9125615088555
 31
0.0
  0
LINE
  5
5ED
330
5B8
100
AcDbEntity
  8
PROFILE2
 48
0.5
100
AcDbLine
 10
178.858513197329
 20
50.5206535088555
 30
0.0
 11
178.858513197329
 21
51.47297850885547
 31
0.0
  0
LINE
  5
5EE
330
5B8
100
AcDbEntity
  8
PROFILE2
 48
0.5
100
AcDbLine
 10
178.858513197329
 20
52.97297850885548
 30
0.0
 11
178.858513197329
 21
55.8919145088555
 31
0.0
  0
LINE
  5
5EF
330
5B8
100
AcDbEntity
  8
PROFILE2
 48
0.5
100
AcDbLine
 10
158.119122197329
 20
66.9125615088555
 30
0.0
 11
198.358508197329
 21
66.9125615088555
 31
0.0
  0
LINE
  5
5F0
330
5B8
100
AcDbEntity
  8
PROFILE2
 48
0.5
100
AcDbLine
 10
158.159778197329
 20
68.4125615088555
 30
0.0
 11
198.358508197329
 21
68.4125615088555
 31
0.0
  0
LINE
  5
5F1
330
5B8
100
AcDbEntity
  8
PROFILE2
 48
0.5
100
AcDbLine
 10
182.108512197329
 20
46.45223750885548
 30
0.0
 11
182.108512197329
 21
51.47297850885547
 31
0.0
  0
LINE
  5
5F2
330
5B8
100
AcDbEntity
  8
PROFILE2
 48
0.5
100
AcDbLine
 10
182.108512197329
 20
57.39191450885551
 30
0.0
 11
182.108512197329
 21
66.9125615088555
 31
0.0
  0
LINE
  5
5F3
330
5B8
100
AcDbEntity
  8
PROFILE2
 48
0.5
100
AcDbLine
 10
182.108512197329
 20
52.97297850885548
 30
0.0
 11
182.108512197329
 21
55.8919145088555
 31
0.0
  0
LINE
  5
5F4
330
5B8
100
AcDbEntity
  8
PROFILE2
 48
0.5
100
AcDbLine
 10
182.108512197329
 20
68.4125615088555
 30
0.0
 11
182.108512197329
 21
71.33149750885547
 31
0.0
  0
LINE
  5
5F5
330
5B8
100
AcDbEntity
  8
PROFILE2
 48
0.5
100
AcDbLine
 10
182.108512197329
 20
72.83149750885548
 30
0.0
 11
182.108512197329
 21
77.85223850885557
 31
0.0
  0
LINE
  5
5F6
330
5B8
100
AcDbEntity
  8
PROFILE2
 48
0.5
100
AcDbLine
 10
181.358512197329
 20
77.85223850885552
 30
0.0
 11
181.358512197329
 21
83.15223750885548
 31
0.0
  0
ARC
  5
5F7
330
5B8
100
AcDbEntity
  8
PROFILE2
 48
0.5
100
AcDbCircle
 10
94.10851419732901
 20
45.15223750885548
 30
0.0
 40
8.0
100
AcDbArc
 50
359.999996999999
 51
90.00000299999932
  0
ARC
  5
5F8
330
5B8
100
AcDbEntity
  8
PROFILE2
 48
0.5
100
AcDbCircle
 10
94.10851419732901
 20
79.15223750885548
 30
0.0
 40
8.0
100
AcDbArc
 50
269.9999970000007
 51
359.999996999999
  0
ARC
  5
5F9
102
{ACAD_REACTORS
330
630
102
}
330
5B8
100
AcDbEntity
  8
PROFILE2
 48
0.5
100
AcDbCircle
 10
110.2813073666416
 20
45.12325524234173
 30
0.0
 40
8.172844552987362
100
AcDbArc
 50
179.7968280173311
 51
268.7885460221734
  0
ARC
  5
5FA
330
5B8
100
AcDbEntity
  8
PROFILE2
 48
0.5
100
AcDbCircle
 10
110.2813073759154
 20
79.18121978000849
 30
0.0
 40
8.172844569209463
100
AcDbArc
 50
91.2114608939415
 51
180.2031857187943
  0
ARC
  5
5FB
102
{ACAD_REACTORS
330
635
102
}
330
5B8
100
AcDbEntity
  8
PROFILE2
 48
0.5
100
AcDbCircle
 10
177.1836333165894
 20
83.18092332657144
 30
0.0
 40
4.174978431891339
100
AcDbArc
 50
359.6063210274381
 51
87.59931706065524
  0
ARC
  5
5FC
330
5B8
100
AcDbEntity
  8
PROFILE2
 48
0.5
100
AcDbCircle
 10
177.1766510469406
 20
83.18000619000434
 30
0.0
 40
1.682091375913831
100
AcDbArc
 50
359.0540912156167
 51
83.79324038458049
  0
ARC
  5
5FD
102
{ACAD_REACTORS
330
635
102
}
330
5B8
100
AcDbEntity
  8
PROFILE2
 48
0.5
100
AcDbCircle
 10
177.358513197329
 20
40.95223750885549
 30
0.0
 40
4.0
100
AcDbArc
 50
269.9999970000007
 51
359.999996999999
  0
ARC
  5
5FE
330
5B8
100
AcDbEntity
  8
PROFILE2
 48
0.5
100
AcDbCircle
 10
177.358513197329
 20
40.95223750885549
 30
0.0
 40
1.5
100
AcDbArc
 50
269.9999970000007
 51
359.999996999999
  0
ARC
  5
5FF
330
5B8
100
AcDbEntity
  8
PROFILE2
 48
0.5
100
AcDbCircle
 10
198.358508197329
 20
49.7706535088555
 30
0.0
 40
0.75
100
AcDbArc
 50
269.9999970000007
 51
90.00000299999932
  0
ARC
  5
600
330
5B8
100
AcDbEntity
  8
PROFILE2
 48
0.5
100
AcDbCircle
 10
198.358508197329
 20
52.22297850885547
 30
0.0
 40
0.75
100
AcDbArc
 50
269.9999970000007
 51
90.00000299999932
  0
ARC
  5
601
330
5B8
100
AcDbEntity
  8
PROFILE2
 48
0.5
100
AcDbCircle
 10
198.358508197329
 20
56.6419145088555
 30
0.0
 40
0.75
100
AcDbArc
 50
269.9999970000007
 51
90.00000299999932
  0
ARC
  5
602
330
5B8
100
AcDbEntity
  8
PROFILE2
 48
0.5
100
AcDbCircle
 10
198.358508197329
 20
67.6625615088555
 30
0.0
 40
0.75
100
AcDbArc
 50
269.9999970000007
 51
90.00000299999932
  0
ARC
  5
603
330
5B8
100
AcDbEntity
  8
PROFILE2
 48
0.5
100
AcDbCircle
 10
198.358508197329
 20
72.08149750885548
 30
0.0
 40
0.75
100
AcDbArc
 50
269.9999970000007
 51
90.00000299999932
  0
ARC
  5
604
330
5B8
100
AcDbEntity
  8
PROFILE2
 48
0.5
100
AcDbCircle
 10
198.358508197329
 20
74.53382150885551
 30
0.0
 40
0.75
100
AcDbArc
 50
269.9999970000007
 51
90.00000299999932
  0
LINE
  5
605
102
{ACAD_REACTORS
330
630
102
}
330
5B8
100
AcDbEntity
  8
PROFILE2
 48
0.5
100
AcDbLine
 10
25.10851419732901
 20
71.15223750885547
 30
0.0
 11
25.10851419732901
 21
53.15223850885548
 31
0.0
  0
DIMENSION
  5
606
330
5B8
100
AcDbEntity
  8
DIMENSION
 48
0.5
100
AcDbDimension
  2
*D17
 10
182.108512197329
 20
17.7835726602915
 30
0.0
 11
209.2679079165673
 21
17.7835726602915
 31
0.0
 12
-50.99239992676394
 22
-123.2297758466111
 32
0.0
 70
   128
  1
<>\U+00B11
 71
     5
 41
0.9359251894303499
 42
16.99999600000001
  3
ULVAC$0
100
AcDbAlignedDimension
 13
199.108508197329
 23
49.77065418800146
 33
0.0
 14
182.108512197329
 24
46.45223759254247
 34
0.0
100
AcDbRotatedDimension
1001
ACAD
1000
DSTYLE
1002
{
1070
   146
1040
1.0
1070
    48
1040
0.0
1070
    47
1040
0.0
1070
   147
1040
1.0
1070
    72
1070
     0
1070
    71
1070
     0
1070
   144
1040
1.0
1070
    40
1040
1.0
1002
}
  0
DIMENSION
  5
607
330
5B8
100
AcDbEntity
  8
DIMENSION
 48
0.5
100
AcDbDimension
  2
*D18
 10
102.108514197329
 20
17.7835726602915
 30
0.0
 11
142.108512197329
 21
17.7835726602915
 31
0.0
 12
-50.99239992676394
 22
-123.2297758466111
 32
0.0
 70
   128
  1
<>\U+00B12
 71
     5
 41
0.9359251894303499
 42
79.99999799999997
  3
ULVAC$0
100
AcDbAlignedDimension
 13
182.108512197329
 23
46.45223759254247
 33
0.0
 14
102.108514197329
 24
45.15223835548193
 34
0.0
100
AcDbRotatedDimension
1001
ACAD
1000
DSTYLE
1002
{
1070
   146
1040
1.0
1070
    48
1040
0.0
1070
    47
1040
0.0
1070
   147
1040
1.0
1070
    72
1070
     0
1070
    71
1070
     0
1070
   144
1040
1.0
1070
    40
1040
1.0
1002
}
  0
DIMENSION
  5
608
330
5B8
100
AcDbEntity
  8
DIMENSION
 48
0.5
100
AcDbDimension
  2
*D19
 10
25.10851419732901
 20
1.200000147886044
 30
0.0
 11
103.608512197329
 21
1.200000147886044
 31
0.0
 12
-50.99239992676394
 22
-123.2297758466111
 32
0.0
 70
   128
  1
<>{}{\H0.75x;\C7;%%p3}
 71
     5
 41
0.9359251894303499
 42
156.9999979999999
  3
ULVAC$0
100
AcDbAlignedDimension
 13
182.108512197329
 23
46.45223937518096
 33
0.0
 14
25.10851419732901
 24
53.15224013812041
 34
0.0
100
AcDbRotatedDimension
1001
ACAD
1000
DSTYLE
1002
{
1070
   286
1070
     0
1070
   284
1070
     8
1070
   274
1070
     4
1070
   272
1070
     2
1070
    47
1040
3.0
1070
    48
1040
3.0
1070
   146
1040
1.0
1002
}
1001
GENIUS_GENDTOL_13
1000
TolSmPm
1000

1000
{\H0.75x;$2%%p$P}
1040
157.0
  0
DIMENSION
  5
609
330
5B8
100
AcDbEntity
  8
DIMENSION
 48
0.5
100
AcDbDimension
  2
*D20
 10
4.733333575919111
 20
71.15223750885547
 30
0.0
 11
4.73333357591909
 21
62.15223800885548
 31
0.0
 12
-50.99239992676394
 22
-123.2297758466111
 32
0.0
 70
   128
  1
\U+2205<>(\U+220515)\U+00B10.3
 71
     5
 41
0.9359251894303499
 42
17.999999
  3
ULVAC$0
100
AcDbAlignedDimension
 13
25.10851477403921
 23
53.15223850885548
 33
0.0
 14
25.10851477403921
 24
71.15223750885547
 34
0.0
 50
90.0
100
AcDbRotatedDimension
1001
ACAD
1000
DSTYLE
1002
{
1070
   146
1040
1.0
1070
    48
1040
0.0
1070
    47
1040
0.0
1070
   147
1040
1.0
1070
    72
1070
     0
1070
    71
1070
     0
1070
   144
1040
1.0
1070
    40
1040
1.0
1002
}
  0
ARC
  5
60A
330
5B8
100
AcDbEntity
  8
PROFILE2
 62
     6
 48
0.5
100
AcDbCircle
 10
182.108512197329
 20
74.53382150885551
 30
0.0
 40
3.0
100
AcDbArc
 50
335.8755056148756
 51
345.52248781407
  0
ARC
  5
60B
330
5B8
100
AcDbEntity
  8
PROFILE2
 62
     6
 48
0.5
100
AcDbCircle
 10
182.108512197329
 20
74.53382150885551
 30
0.0
 40
3.0
100
AcDbArc
 50
14.47751218592996
 51
90.0
  0
ARC
  5
60C
330
5B8
100
AcDbEntity
  8
PROFILE2
 62
     6
 48
0.5
100
AcDbCircle
 10
182.108512197329
 20
72.08149750885548
 30
0.0
 40
3.0
100
AcDbArc
 50
270.0
 51
345.52248781407
  0
ARC
  5
60D
330
5B8
100
AcDbEntity
  8
PROFILE2
 62
     6
 48
0.5
100
AcDbCircle
 10
182.108512197329
 20
72.08149750885548
 30
0.0
 40
3.0
100
AcDbArc
 50
14.47751218592996
 51
90.0
  0
ARC
  5
60E
330
5B8
100
AcDbEntity
  8
PROFILE2
 62
     6
 48
0.5
100
AcDbCircle
 10
182.108512197329
 20
62.15223800885553
 30
0.0
 40
3.0
100
AcDbArc
 50
270.0
 51
90.0
  0
CIRCLE
  5
60F
330
5B8
100
AcDbEntity
  8
PROFILE2
 48
0.5
100
AcDbCircle
 10
277.6504817302858
 20
62.15223750885548
 30
0.0
 40
15.7
  0
CIRCLE
  5
610
330
5B8
100
AcDbEntity
  8
PROFILE2
 48
0.5
100
AcDbCircle
 10
277.6504817302858
 20
62.15223750885548
 30
0.0
 40
9.699999999999999
  0
CIRCLE
  5
611
330
5B8
100
AcDbEntity
  8
PROFILE2
 48
0.5
100
AcDbCircle
 10
269.7321627302858
 20
72.08149750885548
 30
0.0
 40
0.75
  0
CIRCLE
  5
612
330
5B8
100
AcDbEntity
  8
PROFILE2
 48
0.5
100
AcDbCircle
 10
280.4765017302857
 20
74.53382150885551
 30
0.0
 40
0.75
  0
CIRCLE
  5
613
330
5B8
100
AcDbEntity
  8
PROFILE2
 48
0.5
100
AcDbCircle
 10
289.0927887302857
 20
67.6625615088555
 30
0.0
 40
0.75
  0
CIRCLE
  5
614
330
5B8
100
AcDbEntity
  8
PROFILE2
 48
0.5
100
AcDbCircle
 10
289.0927887302857
 20
56.6419145088555
 30
0.0
 40
0.75
  0
CIRCLE
  5
615
330
5B8
100
AcDbEntity
  8
PROFILE2
 48
0.5
100
AcDbCircle
 10
280.4765017302857
 20
49.7706535088555
 30
0.0
 40
0.75
  0
CIRCLE
  5
616
330
5B8
100
AcDbEntity
  8
PROFILE2
 48
0.5
100
AcDbCircle
 10
269.7321627302858
 20
52.22297850885547
 30
0.0
 40
0.75
  0
CIRCLE
  5
617
330
5B8
100
AcDbEntity
  8
PROFILE2
 48
0.5
100
AcDbCircle
 10
264.9504847302858
 20
62.15223750885548
 30
0.0
 40
0.75
  0
CIRCLE
  5
618
330
5B8
100
AcDbEntity
  8
PROFILE2
 48
0.5
100
AcDbCircle
 10
264.9504847302858
 20
62.15223750885548
 30
0.0
 40
3.0
  0
CIRCLE
  5
619
330
5B8
100
AcDbEntity
  8
PROFILE2
 48
0.5
100
AcDbCircle
 10
269.7321627302858
 20
72.08149750885548
 30
0.0
 40
3.0
  0
CIRCLE
  5
61A
330
5B8
100
AcDbEntity
  8
PROFILE2
 48
0.5
100
AcDbCircle
 10
280.4765017302857
 20
74.53382150885551
 30
0.0
 40
3.0
  0
CIRCLE
  5
61B
330
5B8
100
AcDbEntity
  8
PROFILE2
 48
0.5
100
AcDbCircle
 10
289.0927887302857
 20
67.6625615088555
 30
0.0
 40
3.0
  0
CIRCLE
  5
61C
330
5B8
100
AcDbEntity
  8
PROFILE2
 48
0.5
100
AcDbCircle
 10
289.0927887302857
 20
56.6419145088555
 30
0.0
 40
3.0
  0
CIRCLE
  5
61D
330
5B8
100
AcDbEntity
  8
PROFILE2
 48
0.5
100
AcDbCircle
 10
280.4765017302857
 20
49.7706535088555
 30
0.0
 40
3.0
  0
CIRCLE
  5
61E
330
5B8
100
AcDbEntity
  8
PROFILE2
 48
0.5
100
AcDbCircle
 10
269.7321627302858
 20
52.22297850885547
 30
0.0
 40
3.0
  0
MTEXT
  5
61F
330
5B8
100
AcDbEntity
  8
TEXT
 48
0.5
100
AcDbMText
 10
260.4267577898904
 20
63.5285675187896
 30
0.0
 40
5.0
 41
0.0
 71
     1
 72
     1
  1
\W0.853;\A1;A
  7
ULVAC
 11
0.0000000000000001
 21
-1.0
 31
0.0
 73
     1
 44
0.999999985694885
1001
ACAD
1000
MTEXTBEGIN
1070
    73
1070
     1
1070
    44
1040
0.999999985694885
1070
    74
1070
     0
1000
MTEXTEND
  0
MTEXT
  5
620
330
5B8
100
AcDbEntity
  8
TEXT
 48
0.5
100
AcDbMText
 10
268.2998437762089
 20
76.34730446958122
 30
0.0
 40
5.0
 41
0.0
 71
     1
 72
     1
  1
\W0.853;\A1;F
  7
ULVAC
 11
-0.7660440678408662
 21
-0.6427880569253124
 31
0.0
 73
     1
 44
0.999999985694885
1001
ACAD
1000
MTEXTBEGIN
1070
    73
1070
     1
1070
    44
1040
0.999999985694885
1070
    74
1070
     0
1000
MTEXTEND
  0
MTEXT
  5
621
330
5B8
100
AcDbEntity
  8
TEXT
 48
0.5
100
AcDbMText
 10
265.898262760989
 20
50.02747856090081
 30
0.0
 40
5.0
 41
0.0
 71
     1
 72
     1
  1
\W0.853;\A1;F
  7
ULVAC
 11
0.7660440678408661
 21
-0.6427880569253127
 31
0.0
 73
     1
 44
0.999999985694885
1001
ACAD
1000
MTEXTBEGIN
1070
    73
1070
     1
1070
    44
1040
0.999999985694885
1070
    74
1070
     0
1000
MTEXTEND
  0
MTEXT
  5
622
330
5B8
100
AcDbEntity
  8
TEXT
 48
0.5
100
AcDbMText
 10
282.9070727244546
 20
78.45917444871071
 30
0.0
 40
5.0
 41
0.0
 71
     1
 72
     1
  1
\W0.853;\A1;P
  7
ULVAC
 11
-0.9659258492011176
 21
0.2588189595935735
 31
0.0
 73
     1
 44
0.999999985694885
1001
ACAD
1000
MTEXTBEGIN
1070
    73
1070
     1
1070
    44
1040
0.999999985694885
1070
    74
1070
     0
1000
MTEXTEND
  0
MTEXT
  5
623
330
5B8
100
AcDbEntity
  8
TEXT
 48
0.5
100
AcDbMText
 10
279.9369237052634
 20
45.12841156385803
 30
0.0
 40
5.0
 41
0.0
 71
     1
 72
     1
  1
\W0.853;\A1;P
  7
ULVAC
 11
0.9659258492011161
 21
0.2588189595935784
 31
0.0
 73
     1
 44
0.999999985694885
1001
ACAD
1000
MTEXTBEGIN
1070
    73
1070
     1
1070
    44
1040
0.999999985694885
1070
    74
1070
     0
1000
MTEXTEND
  0
MTEXT
  5
624
330
5B8
100
AcDbEntity
  8
TEXT
 48
0.5
100
AcDbMText
 10
293.3386886808854
 20
67.97339747405601
 30
0.0
 40
5.0
 41
0.0
 71
     1
 72
     1
  1
\W0.853;\A1;G
  7
ULVAC
 11
-0.4336590242393702
 21
0.9010770503657038
 31
0.0
 73
     1
 44
0.999999985694885
1001
ACAD
1000
MTEXTBEGIN
1070
    73
1070
     1
1070
    44
1040
0.999999985694885
1070
    74
1070
     0
1000
MTEXTEND
  0
MTEXT
  5
625
330
5B8
100
AcDbEntity
  8
TEXT
 48
0.5
100
AcDbMText
 10
291.7646316736996
 20
54.00294453005466
 30
0.0
 40
5.0
 41
0.0
 71
     1
 72
     1
  1
\W0.853;\A1;G
  7
ULVAC
 11
0.5000001748438389
 21
0.8660253028382777
 31
0.0
 73
     1
 44
0.999999985694885
1001
ACAD
1000
MTEXTBEGIN
1070
    73
1070
     1
1070
    44
1040
0.999999985694885
1070
    74
1070
     0
1000
MTEXTEND
  0
ARC
  5
626
330
5B8
100
AcDbEntity
  8
PROFILE2
 62
     6
 48
0.5
100
AcDbCircle
 10
182.108512197329
 20
67.66256200885556
 30
0.0
 40
3.0
100
AcDbArc
 50
293.3085517736431
 51
345.5224779515954
  0
ARC
  5
627
330
5B8
100
AcDbEntity
  8
PROFILE2
 62
     6
 48
0.5
100
AcDbCircle
 10
182.108512197329
 20
67.66256200885556
 30
0.0
 40
3.0
100
AcDbArc
 50
14.47750232345911
 51
47.43320602764744
  0
ARC
  5
628
330
5B8
100
AcDbEntity
  8
PROFILE2
 62
     6
 48
0.5
100
AcDbCircle
 10
182.108512197329
 20
49.77065350885545
 30
0.0
 40
3.0
100
AcDbArc
 50
14.47751218592996
 51
24.12449438512436
  0
ARC
  5
629
330
5B8
100
AcDbEntity
  8
PROFILE2
 62
     6
 48
0.5
100
AcDbCircle
 10
182.108512197329
 20
49.77065350885545
 30
0.0
 40
3.0
100
AcDbArc
 50
270.0
 51
345.52248781407
  0
ARC
  5
62A
330
5B8
100
AcDbEntity
  8
PROFILE2
 62
     6
 48
0.5
100
AcDbCircle
 10
182.108512197329
 20
52.22297750885548
 30
0.0
 40
3.0
100
AcDbArc
 50
14.47751218592996
 51
90.0
  0
ARC
  5
62B
330
5B8
100
AcDbEntity
  8
PROFILE2
 62
     6
 48
0.5
100
AcDbCircle
 10
182.108512197329
 20
52.22297750885548
 30
0.0
 40
3.0
100
AcDbArc
 50
270.0
 51
345.52248781407
  0
ARC
  5
62C
330
5B8
100
AcDbEntity
  8
PROFILE2
 62
     6
 48
0.5
100
AcDbCircle
 10
182.108512197329
 20
56.6419130088554
 30
0.0
 40
3.0
100
AcDbArc
 50
14.47752204840458
 51
66.69144822635766
  0
ARC
  5
62D
330
5B8
100
AcDbEntity
  8
PROFILE2
 62
     6
 48
0.5
100
AcDbCircle
 10
182.108512197329
 20
56.6419130088554
 30
0.0
 40
3.0
100
AcDbArc
 50
312.5667939723531
 51
345.5224976765442
  0
DIMENSION
  5
62E
102
{ACAD_XDICTIONARY
360
62F
102
}
102
{ACAD_REACTORS
330
630
102
}
330
5B8
100
AcDbEntity
  8
DIMENSION
100
AcDbDimension
  2
*D21
 10
102.1085141973291
 20
17.78357266029164
 30
0.0
 11
63.60851419732906
 21
20.78357266029164
 31
0.0
 12
-50.99239992676394
 22
-123.2297758466111
 32
0.0
  1
(<>)
 71
     5
 42
77.00000000000009
  3
ULVAC$0
100
AcDbAlignedDimension
 13
25.10851419732901
 23
53.15223850885548
 33
0.0
 14
102.1085141973291
 24
45.15223625221847
 34
0.0
100
AcDbRotatedDimension
1001
ACAD_DSTYLE_DIMINSPECT
1070
   396
1000
100%
1070
   395
1000

1070
   394
1070
    33
1070
   393
1070
     0
  0
INSERT
  5
631
330
5B8
100
AcDbEntity
  8
PROFILE2
100
AcDbBlockReference
  2
rev_d
 10
217.9298797713713
 20
42.33403823293952
 30
0.0
 50
89.99999999999998
1001
GENIUS_GENOBJ-N-LIB_13
1002
{
1000
OWNER
1000
gen
1002
}
1001
GENIUS_GENODEF_13
1002
{
1000
HIER
1070
     0
1002
}
1002
{
1000
MANEDIT
1070
     0
1002
}
1002
{
1000
NOSEL
1070
     0
1002
}
1002
{
1000
BEHIND
1070
     0
1002
}
1002
{
1000
OTHER
1070
     0
1002
}
1002
{
1000
REACTOR
1002
}
1001
GENIUS_GENOBJ-N-RSBK_13
1002
{
1000
OWNER
1000
gen
1002
}
1001
GENIUS_GENSCALE_13
1042
1.0
  0
CIRCLE
  5
632
330
5B8
100
AcDbEntity
  8
PROFILE2
 48
0.5
100
AcDbCircle
 10
277.6504817302857
 20
62.14852967560884
 30
0.0
 40
25.2
  0
DIMENSION
  5
633
102
{ACAD_XDICTIONARY
360
634
102
}
102
{ACAD_REACTORS
330
635
102
}
330
5B8
100
AcDbEntity
  8
DIMENSION
100
AcDbDimension
  2
*D23
 10
224.1084774690216
 20
36.95223750885549
 30
0.0
 11
221.1084774690216
 21
62.15223750885551
 31
0.0
 12
-50.99239992676394
 22
-123.2297758466111
 32
0.0
  1
%%c<>{}{\H0.75x;\C7;%%p1}
 71
     5
 42
50.39999999999998
  3
ULVAC$0
100
AcDbAlignedDimension
 13
177.3585129878895
 23
87.35223750885547
 33
0.0
 14
177.3585129878895
 24
36.95223750885549
 34
0.0
 50
90.0
100
AcDbRotatedDimension
1001
ACAD_DSTYLE_DIMINSPECT
1070
   396
1000
100%
1070
   395
1000

1070
   394
1070
    33
1070
   393
1070
     0
1001
ACAD
1000
DSTYLE
1002
{
1070
   286
1070
     0
1070
   284
1070
     8
1070
   274
1070
     4
1070
   272
1070
     2
1070
    47
1040
1.0
1070
    48
1040
1.0
1002
}
1001
GENIUS_GENDTOL_13
1000
TolSmPm
1000

1000
{\H0.75x;$2%%p$P}
1040
50.0
  0
ENDBLK
  5
639
330
5B8
100
AcDbEntity
  8
0
100
AcDbBlockEnd
  0
ENDSEC
  0
SECTION
  2
ENTITIES
  0
DIMENSION
  5
33
330
A
100
AcDbEntity
  8
PV
  6
Continuous
 62
     7
100
AcDbDimension
  2
*D12
 10
-178.596815
 20
18.193939
 30
0.0
 11
-178.596815
 21
9.193939499999975
 31
0.0
 70
   160
  1
\U+2205<>(\U+220515)\U+00B10.3
 71
     5
 42
17.999999
  3
MXDIMSTYLE
100
AcDbAlignedDimension
 13
-158.221633
 23
0.19394
 33
0.0
 14
-158.221633
 24
18.193939
 34
0.0
 50
90.0
100
AcDbRotatedDimension
1001
ACAD
1000
DSTYLE
1002
{
1070
     6
1000
_OPEN30
1070
     7
1000
_OPEN30
1070
    41
1040
2.77
1070
   173
1070
     1
1070
   271
1070
     2
1070
   284
1070
     8
1070
   341
1005
26
1002
}
  0
DIMENSION
  5
41
330
A
100
AcDbEntity
  8
PV
  6
Continuous
 62
     7
100
AcDbDimension
  2
*D11
 10
-158.221634
 20
-51.75829799999998
 30
0.0
 11
-79.721636
 21
-51.75829799999998
 31
0.0
 70
   160
  1
<>\U+00B13
 71
     5
 42
156.999998
  3
MXDIMSTYLE
100
AcDbAlignedDimension
 13
-1.221636
 23
-6.506058999999997
 33
0.0
 14
-158.221634
 24
0.193942
 34
0.0
100
AcDbRotatedDimension
1001
ACAD
1000
DSTYLE
1002
{
1070
     6
1000
_OPEN30
1070
     7
1000
_OPEN30
1070
    41
1040
2.77
1070
   173
1070
     1
1070
   271
1070
     2
1070
   284
1070
     8
1070
   340
1005
3B
1070
   341
1005
26
1002
}
  0
DIMENSION
  5
4E
330
A
100
AcDbEntity
  8
PV
  6
Continuous
 62
     7
100
AcDbDimension
  2
*D10
 10
-81.22163399999998
 20
-35.174726
 30
0.0
 11
-41.22163599999999
 21
-35.174726
 31
0.0
 70
   160
  1
<>\U+00B12
 71
     5
 42
79.99999799999997
  3
MXDIMSTYLE
100
AcDbAlignedDimension
 13
-1.221636
 23
-6.506060999999997
 33
0.0
 14
-81.22163399999998
 24
-7.80606
 34
0.0
100
AcDbRotatedDimension
1001
ACAD
1000
DSTYLE
1002
{
1070
     6
1000
_OPEN30
1070
     7
1000
_OPEN30
1070
    41
1040
2.77
1070
   173
1070
     1
1070
   271
1070
     2
1070
   284
1070
     8
1070
   340
1005
3B
1070
   341
1005
26
1002
}
  0
DIMENSION
  5
5C
330
A
100
AcDbEntity
  8
PV
  6
Continuous
 62
     7
100
AcDbDimension
  2
*D9
 10
-1.221636000000001
 20
-35.174726
 30
0.0
 11
26.21556
 21
-35.174726
 31
0.0
 70
   160
  1
<>\U+00B11
 71
     5
 42
16.999996
  3
MXDIMSTYLE
100
AcDbAlignedDimension
 13
15.77836
 23
-3.187643999999998
 33
0.0
 14
-1.221636
 24
-6.506060999999997
 34
0.0
100
AcDbRotatedDimension
1001
ACAD
1000
DSTYLE
1002
{
1070
     6
1000
_OPEN30
1070
     7
1000
_OPEN30
1070
    41
1040
2.77
1070
   173
1070
     1
1070
   271
1070
     2
1070
   284
1070
     8
1070
   341
1005
26
1002
}
  0
LINE
  5
5D
330
A
100
AcDbEntity
  8
PV
  6
Continuous
 62
     7
100
AcDbLine
 10
-158.221634
 20
18.193939
 30
0.0
 11
-158.221634
 21
0.19394
 31
0.0
  0
LINE
  5
5F
330
A
100
AcDbEntity
  8
DEFPOINTS
  6
NON_PLOTING
 62
   254
100
AcDbLine
 10
-217.5
 20
-148.5
 30
0.0
 11
202.5
 21
-148.5
 31
0.0
  0
LINE
  5
60
330
A
100
AcDbEntity
  8
DEFPOINTS
  6
NON_PLOTING
 62
   254
100
AcDbLine
 10
202.5
 20
148.5
 30
0.0
 11
202.5
 21
-148.5
 31
0.0
  0
MTEXT
  5
61
330
A
100
AcDbEntity
  8
FV
  6
Continuous
 62
     7
100
AcDbMText
 10
134.51722
 20
-130.542828
 30
0.0
 40
4.166999999999998
 41
0.0
 71
     1
 72
     1
  1
\A1;{\W0.943;GA0050-010-02D}
 73
     1
 44
1.0
1001
ACAD
1000
MTEXTBEGIN
1070
    73
1070
     1
1070
    44
1040
1.0
1070
    74
1070
     0
1000
MTEXTEND
  0
MTEXT
  5
62
330
A
100
AcDbEntity
  8
FV
  6
Continuous
 62
     7
100
AcDbMText
 10
124.145594
 20
-113.99273
 30
0.0
 40
4.166999999999998
 41
0.0
 71
     1
 72
     1
  1
\W0.904;\A1;WIT-G1
 73
     1
 44
1.0
1001
ACAD
1000
MTEXTBEGIN
1070
    73
1070
     1
1070
    44
1040
1.0
1070
    74
1070
     0
1000
MTEXTEND
  0
MTEXT
  5
63
330
A
100
AcDbEntity
  8
FV
  6
Continuous
 62
     7
100
AcDbMText
 10
120.509985
 20
-133.16095
 30
0.0
 40
2.339710999999998
 41
0.0
 71
     4
 72
     1
  1
\W0.821;\A1;DWG\PNｏ.
 73
     1
 44
1.0
1001
ACAD
1000
MTEXTBEGIN
1070
    73
1070
     1
1070
    44
1040
1.0
1070
    74
1070
     0
1000
MTEXTEND
  0
MTEXT
  5
64
330
A
100
AcDbEntity
  8
FV
  6
Continuous
 62
     7
100
AcDbMText
 10
121.326842
 20
-104.627151
 30
0.0
 40
2.5
 41
0.0
 71
     1
 72
     1
  1
\W0.776;\A1;TITLE
 73
     1
 44
1.0
1001
ACAD
1000
MTEXTBEGIN
1070
    73
1070
     1
1070
    44
1040
1.0
1070
    74
1070
     0
1000
MTEXTEND
  0
LINE
  5
65
330
A
100
AcDbEntity
  8
FV
  6
Continuous
 62
     7
100
AcDbLine
 10
118.5
 20
-127.5
 30
0.0
 11
118.5
 21
-138.5
 31
0.0
  0
LINE
  5
66
330
A
100
AcDbEntity
  8
FV
  6
Continuous
 62
     7
100
AcDbLine
 10
129.5
 20
-138.5
 30
0.0
 11
129.5
 21
-127.5
 31
0.0
  0
LINE
  5
67
330
A
100
AcDbEntity
  8
FV
  6
Continuous
 62
     7
100
AcDbLine
 10
81.5
 20
-113.5
 30
0.0
 11
118.5
 21
-113.5
 31
0.0
  0
LINE
  5
68
330
A
100
AcDbEntity
  8
FV
  6
Continuous
 62
     7
100
AcDbLine
 10
81.5
 20
-102.5
 30
0.0
 11
81.5
 21
-113.5
 31
0.0
  0
LINE
  5
69
330
A
100
AcDbEntity
  8
FV
  6
Continuous
 62
     7
100
AcDbLine
 10
118.5
 20
-102.5
 30
0.0
 11
118.5
 21
-138.5
 31
0.0
  0
LINE
  5
6A
330
A
100
AcDbEntity
  8
FV
  6
Continuous
 62
     7
100
AcDbLine
 10
81.5
 20
-102.5
 30
0.0
 11
192.5
 21
-102.5
 31
0.0
  0
LINE
  5
6B
330
A
100
AcDbEntity
  8
FV
  6
Continuous
 62
     7
100
AcDbLine
 10
118.5
 20
-127.5
 30
0.0
 11
192.5
 21
-127.5
 31
0.0
  0
LINE
  5
6C
330
A
100
AcDbEntity
  8
FV
  6
Continuous
 62
     7
100
AcDbLine
 10
192.5
 20
-138.5
 30
0.0
 11
192.5
 21
-102.5
 31
0.0
  0
LINE
  5
6D
330
A
100
AcDbEntity
  8
FV
  6
Continuous
 62
     7
100
AcDbLine
 10
118.5
 20
-138.5
 30
0.0
 11
192.5
 21
-138.5
 31
0.0
  0
LINE
  5
6E
330
A
100
AcDbEntity
  8
FV
  6
Continuous
 62
     7
100
AcDbLine
 10
115.348124
 20
-108.834601
 30
0.0
 11
115.944752
 21
-108.834601
 31
0.0
  0
LINE
  5
6F
330
A
100
AcDbEntity
  8
FV
  6
Continuous
 62
     7
100
AcDbLine
 10
115.397958
 20
-107.348898
 30
0.0
 11
116.049059
 21
-107.348898
 31
0.0
  0
ARC
  5
70
330
A
100
AcDbEntity
  8
FV
  6
Continuous
 62
     7
100
AcDbCircle
 10
115.434428
 20
-106.006132
 30
0.0
 40
0.366029
100
AcDbArc
 50
230.509944
 51
341.648153
  0
LINE
  5
71
330
A
100
AcDbEntity
  8
FV
  6
Continuous
 62
     7
100
AcDbLine
 10
115.781841
 20
-106.121376
 30
0.0
 11
115.981881
 21
-105.518343
 31
0.0
  0
ARC
  5
72
330
A
100
AcDbEntity
  8
FV
  6
Continuous
 62
     7
100
AcDbCircle
 10
115.994695
 20
-105.536644
 30
0.0
 40
0.018302
100
AcDbArc
 50
90.0
 51
150.00044
  0
ARC
  5
73
330
A
100
AcDbEntity
  8
FV
  6
Continuous
 62
     7
100
AcDbCircle
 10
116.03299
 20
-105.536644
 30
0.0
 40
0.018302
100
AcDbArc
 50
0.0
 51
90.0
  0
LINE
  5
74
330
A
100
AcDbEntity
  8
FV
  6
Continuous
 62
     7
100
AcDbLine
 10
115.994695
 20
-105.518343
 30
0.0
 11
116.03299
 21
-105.518343
 31
0.0
  0
LINE
  5
75
330
A
100
AcDbEntity
  8
FV
  6
Continuous
 62
     7
100
AcDbLine
 10
116.051291
 20
-105.536644
 30
0.0
 11
116.051291
 21
-107.348898
 31
0.0
  0
ELLIPSE
  5
76
330
A
100
AcDbEntity
  8
FV
  6
Continuous
 62
     7
100
AcDbEllipse
 10
113.330789
 20
-108.056075
 30
0.0
 11
2.287679245496093
 21
-0.0000001615248652
 31
0.0
210
0.0
220
0.0
230
0.9999999999999998
 40
0.7216510000000002
 41
0.4426733724477124
 42
5.79210961745623
  0
ELLIPSE
  5
77
330
A
100
AcDbEntity
  8
FV
  6
Continuous
 62
     7
100
AcDbEllipse
 10
112.924818
 20
-108.056075
 30
0.0
 11
3.172930735277038
 21
-0.0000001920919516
 31
0.0
210
0.0
220
0.0
230
1.0
 40
0.799807
 41
0.7704730626730815
 42
5.971377141295467
  0
ARC
  5
78
330
A
100
AcDbEntity
  8
FV
  6
Continuous
 62
     7
100
AcDbCircle
 10
97.124353
 20
-109.158353
 30
0.0
 40
0.00915
100
AcDbArc
 50
350.26092
 51
146.676654
  0
ARC
  5
79
330
A
100
AcDbEntity
  8
FV
  6
Continuous
 62
     7
100
AcDbCircle
 10
96.03757100000001
 20
-109.129
 30
0.0
 40
0.9150719999999999
100
AcDbArc
 50
270.0
 51
326.676654
  0
LINE
  5
7A
330
A
100
AcDbEntity
  8
FV
  6
Continuous
 62
     7
100
AcDbLine
 10
96.80219000000001
 20
-109.631707
 30
0.0
 11
97.11670599999999
 21
-109.153326
 31
0.0
  0
ARC
  5
7B
330
A
100
AcDbEntity
  8
FV
  6
Continuous
 62
     7
100
AcDbCircle
 10
84.893952
 20
-109.540287
 30
0.0
 40
0.457536
100
AcDbArc
 50
202.693278
 51
234.0160490000001
  0
ARC
  5
7C
330
A
100
AcDbEntity
  8
FV
  6
Continuous
 62
     7
100
AcDbCircle
 10
84.850826
 20
-109.437156
 30
0.0
 40
0.457536
100
AcDbArc
 50
180.0
 51
202.693278
  0
ARC
  5
7D
330
A
100
AcDbEntity
  8
FV
  6
Continuous
 62
     7
100
AcDbCircle
 10
85.53687299999998
 20
-110.007122
 30
0.0
 40
0.457536
100
AcDbArc
 50
234.0160490000001
 51
253.917808
  0
ARC
  5
7E
330
A
100
AcDbEntity
  8
FV
  6
Continuous
 62
     7
100
AcDbCircle
 10
86.156912
 20
-110.185878
 30
0.0
 40
0.457536
100
AcDbArc
 50
253.917808
 51
261.606419
  0
LINE
  5
7F
330
A
100
AcDbEntity
  8
FV
  6
Continuous
 62
     7
100
AcDbLine
 10
84.625123
 20
-109.910517
 30
0.0
 11
85.26804399999997
 21
-110.377351
 31
0.0
  0
LINE
  5
80
330
A
100
AcDbEntity
  8
FV
  6
Continuous
 62
     7
100
AcDbLine
 10
85.410129
 20
-110.446752
 30
0.0
 11
86.030168
 21
-110.625508
 31
0.0
  0
LINE
  5
81
330
A
100
AcDbEntity
  8
FV
  6
Continuous
 62
     7
100
AcDbLine
 10
84.471837
 20
-109.716804
 30
0.0
 11
84.42871
 21
-109.613672
 31
0.0
  0
ARC
  5
82
330
A
100
AcDbEntity
  8
FV
  6
Continuous
 62
     7
100
AcDbCircle
 10
89.66149599999999
 20
-109.999903
 30
0.0
 40
0.457536
100
AcDbArc
 50
284.468842
 51
305.135309
  0
ARC
  5
83
330
A
100
AcDbEntity
  8
FV
  6
Continuous
 62
     7
100
AcDbCircle
 10
106.557699
 20
-109.940592
 30
0.0
 40
0.457536
100
AcDbArc
 50
310.291555
 51
29.661659
  0
ARC
  5
84
330
A
100
AcDbEntity
  8
FV
  6
Continuous
 62
     7
100
AcDbCircle
 10
109.343916
 20
-109.702379
 30
0.0
 40
0.457536
100
AcDbArc
 50
211.328693
 51
241.075907
  0
ARC
  5
85
330
A
100
AcDbEntity
  8
FV
  6
Continuous
 62
     7
100
AcDbCircle
 10
106.678646
 20
-110.473882
 30
0.0
 40
0.027452
100
AcDbArc
 50
130.291555
 51
180.0
  0
ARC
  5
86
330
A
100
AcDbEntity
  8
FV
  6
Continuous
 62
     7
100
AcDbCircle
 10
109.743633
 20
-110.477361
 30
0.0
 40
0.027452
100
AcDbArc
 50
0.0
 51
61.07590699999999
  0
ARC
  5
87
330
A
100
AcDbEntity
  8
FV
  6
Continuous
 62
     7
100
AcDbCircle
 10
109.752784
 20
-110.526137
 30
0.0
 40
0.018302
100
AcDbArc
 50
270.0
 51
0.0
  0
LINE
  5
88
330
A
100
AcDbEntity
  8
FV
  6
Continuous
 62
     7
100
AcDbLine
 10
109.771085
 20
-110.526137
 30
0.0
 11
109.771085
 21
-110.477361
 31
0.0
  0
ARC
  5
89
330
A
100
AcDbEntity
  8
FV
  6
Continuous
 62
     7
100
AcDbCircle
 10
106.669495
 20
-110.526137
 30
0.0
 40
0.018302
100
AcDbArc
 50
180.0
 51
270.0
  0
LINE
  5
8A
330
A
100
AcDbEntity
  8
FV
  6
Continuous
 62
     7
100
AcDbLine
 10
106.660893
 20
-110.452943
 30
0.0
 11
106.853577
 21
-110.289584
 31
0.0
  0
LINE
  5
8B
330
A
100
AcDbEntity
  8
FV
  6
Continuous
 62
     7
100
AcDbLine
 10
109.122628
 20
-110.102843
 30
0.0
 11
109.75691
 21
-110.453333
 31
0.0
  0
LINE
  5
8C
330
A
100
AcDbEntity
  8
FV
  6
Continuous
 62
     7
100
AcDbLine
 10
106.651194
 20
-110.526137
 30
0.0
 11
106.651194
 21
-110.473882
 31
0.0
  0
ARC
  5
8D
330
A
100
AcDbEntity
  8
FV
  6
Continuous
 62
     7
100
AcDbCircle
 10
101.775588
 20
-110.526137
 30
0.0
 40
0.018302
100
AcDbArc
 50
180.0
 51
270.0
  0
ARC
  5
8E
330
A
100
AcDbEntity
  8
FV
  6
Continuous
 62
     7
100
AcDbCircle
 10
103.528333
 20
-110.526137
 30
0.0
 40
0.018302
100
AcDbArc
 50
270.0
 51
0.0
  0
ARC
  5
8F
330
A
100
AcDbEntity
  8
FV
  6
Continuous
 62
     7
100
AcDbCircle
 10
101.784739
 20
-110.47637
 30
0.0
 40
0.027452
100
AcDbArc
 50
122.041032
 51
180.0
  0
ARC
  5
90
330
A
100
AcDbEntity
  8
FV
  6
Continuous
 62
     7
100
AcDbCircle
 10
103.519183
 20
-110.474449
 30
0.0
 40
0.027452
100
AcDbArc
 50
0.0
 51
51.641872
  0
ARC
  5
91
330
A
100
AcDbEntity
  8
FV
  6
Continuous
 62
     7
100
AcDbCircle
 10
102.086725
 20
-109.715224
 30
0.0
 40
0.457536
100
AcDbArc
 50
302.041032
 51
329.360044
  0
ARC
  5
92
330
A
100
AcDbEntity
  8
FV
  6
Continuous
 62
     7
100
AcDbCircle
 10
103.616968
 20
-109.933346
 30
0.0
 40
0.457536
100
AcDbArc
 50
149.3600439999999
 51
231.641872
  0
LINE
  5
93
330
A
100
AcDbEntity
  8
FV
  6
Continuous
 62
     7
100
AcDbLine
 10
103.333033
 20
-110.292122
 30
0.0
 11
103.536219
 21
-110.452923
 31
0.0
  0
LINE
  5
94
330
A
100
AcDbEntity
  8
FV
  6
Continuous
 62
     7
100
AcDbLine
 10
101.770175
 20
-110.4531
 30
0.0
 11
102.32946
 21
-110.103062
 31
0.0
  0
LINE
  5
95
330
A
100
AcDbEntity
  8
FV
  6
Continuous
 62
     7
100
AcDbLine
 10
101.757287
 20
-110.526137
 30
0.0
 11
101.757287
 21
-110.47637
 31
0.0
  0
LINE
  5
96
330
A
100
AcDbEntity
  8
FV
  6
Continuous
 62
     7
100
AcDbLine
 10
103.546635
 20
-110.526137
 30
0.0
 11
103.546635
 21
-110.474449
 31
0.0
  0
ARC
  5
97
330
A
100
AcDbEntity
  8
FV
  6
Continuous
 62
     7
100
AcDbCircle
 10
101.69219
 20
-106.587755
 30
0.0
 40
0.457536
100
AcDbArc
 50
329.912962
 51
54.321241
  0
ARC
  5
98
330
A
100
AcDbEntity
  8
FV
  6
Continuous
 62
     7
100
AcDbCircle
 10
103.241769
 20
-106.797489
 30
0.0
 40
0.457536
100
AcDbArc
 50
118.8516
 51
149.912962
  0
ARC
  5
99
330
A
100
AcDbEntity
  8
FV
  6
Continuous
 62
     7
100
AcDbCircle
 10
101.818375
 20
-106.056202
 30
0.0
 40
0.018302
100
AcDbArc
 50
90.0
 51
180.0
  0
ARC
  5
9A
330
A
100
AcDbEntity
  8
FV
  6
Continuous
 62
     7
100
AcDbCircle
 10
103.537767
 20
-106.056202
 30
0.0
 40
0.018302
100
AcDbArc
 50
0.0
 51
90.0
  0
ARC
  5
9B
330
A
100
AcDbEntity
  8
FV
  6
Continuous
 62
     7
100
AcDbCircle
 10
101.827525
 20
-106.087871
 30
0.0
 40
0.027452
100
AcDbArc
 50
180.0
 51
234.321241
  0
ARC
  5
9C
330
A
100
AcDbEntity
  8
FV
  6
Continuous
 62
     7
100
AcDbCircle
 10
103.528616
 20
-106.085737
 30
0.0
 40
0.027452
100
AcDbArc
 50
298.8516
 51
0.0
  0
LINE
  5
9D
330
A
100
AcDbEntity
  8
FV
  6
Continuous
 62
     7
100
AcDbLine
 10
101.811514
 20
-106.110171
 30
0.0
 11
101.959044
 21
-106.216098
 31
0.0
  0
LINE
  5
9E
330
A
100
AcDbEntity
  8
FV
  6
Continuous
 62
     7
100
AcDbLine
 10
103.020989
 20
-106.396746
 30
0.0
 11
103.541863
 21
-106.109782
 31
0.0
  0
LINE
  5
9F
330
A
100
AcDbEntity
  8
FV
  6
Continuous
 62
     7
100
AcDbLine
 10
101.800073
 20
-106.087871
 30
0.0
 11
101.800073
 21
-106.056202
 31
0.0
  0
LINE
  5
A0
330
A
100
AcDbEntity
  8
FV
  6
Continuous
 62
     7
100
AcDbLine
 10
103.556068
 20
-106.085737
 30
0.0
 11
103.556068
 21
-106.056202
 31
0.0
  0
ARC
  5
A1
330
A
100
AcDbEntity
  8
FV
  6
Continuous
 62
     7
100
AcDbCircle
 10
98.63038600000001
 20
-106.083075
 30
0.0
 40
0.027452
100
AcDbArc
 50
300.622597
 51
0.0
  0
ARC
  5
A2
330
A
100
AcDbEntity
  8
FV
  6
Continuous
 62
     7
100
AcDbCircle
 10
98.639536
 20
-106.056202
 30
0.0
 40
0.018302
100
AcDbArc
 50
0.0
 51
90.0
  0
ARC
  5
A3
330
A
100
AcDbEntity
  8
FV
  6
Continuous
 62
     7
100
AcDbCircle
 10
95.67276900000001
 20
-106.056202
 30
0.0
 40
0.018302
100
AcDbArc
 50
90.0
 51
180.0
  0
ARC
  5
A4
330
A
100
AcDbEntity
  8
FV
  6
Continuous
 62
     7
100
AcDbCircle
 10
95.681919
 20
-106.084989
 30
0.0
 40
0.027452
100
AcDbArc
 50
180.0
 51
243.434963
  0
ARC
  5
A5
330
A
100
AcDbEntity
  8
FV
  6
Continuous
 62
     7
100
AcDbCircle
 10
98.67786
 20
-106.618558
 30
0.0
 40
0.457536
100
AcDbArc
 50
120.622597
 51
210.674541
  0
ARC
  5
A6
330
A
100
AcDbEntity
  8
FV
  6
Continuous
 62
     7
100
AcDbCircle
 10
96.04185300000001
 20
-106.807189
 30
0.0
 40
0.457536
100
AcDbArc
 50
30.674541
 51
63.434963
  0
LINE
  5
A7
330
A
100
AcDbEntity
  8
FV
  6
Continuous
 62
     7
100
AcDbLine
 10
98.4448
 20
-106.22483
 30
0.0
 11
98.64436900000001
 21
-106.106699
 31
0.0
  0
LINE
  5
A8
330
A
100
AcDbEntity
  8
FV
  6
Continuous
 62
     7
100
AcDbLine
 10
95.669643
 20
-106.109543
 30
0.0
 11
96.246469
 21
-106.397956
 31
0.0
  0
LINE
  5
A9
330
A
100
AcDbEntity
  8
FV
  6
Continuous
 62
     7
100
AcDbLine
 10
98.657838
 20
-106.083075
 30
0.0
 11
98.657838
 21
-106.056202
 31
0.0
  0
LINE
  5
AA
330
A
100
AcDbEntity
  8
FV
  6
Continuous
 62
     7
100
AcDbLine
 10
95.654468
 20
-106.084989
 30
0.0
 11
95.654468
 21
-106.056202
 31
0.0
  0
LINE
  5
AB
330
A
100
AcDbEntity
  8
FV
  6
Continuous
 62
     7
100
AcDbLine
 10
86.14668499999998
 20
-109.711826
 30
0.0
 11
86.118959
 21
-109.675933
 31
0.0
  0
ARC
  5
AC
330
A
100
AcDbEntity
  8
FV
  6
Continuous
 62
     7
100
AcDbCircle
 10
86.48104299999998
 20
-109.39623
 30
0.0
 40
0.457536
100
AcDbArc
 50
180.0
 51
217.685375
  0
ARC
  5
AD
330
A
100
AcDbEntity
  8
FV
  6
Continuous
 62
     7
100
AcDbCircle
 10
86.508769
 20
-109.432122
 30
0.0
 40
0.457536
100
AcDbArc
 50
217.685375
 51
257.635645
  0
LINE
  5
AE
330
A
100
AcDbEntity
  8
FV
  6
Continuous
 62
     7
100
AcDbLine
 10
86.97445999999997
 20
-110.002608
 30
0.0
 11
86.41079799999998
 21
-109.879046
 31
0.0
  0
ARC
  5
AF
330
A
100
AcDbEntity
  8
FV
  6
Continuous
 62
     7
100
AcDbCircle
 10
88.174492
 20
-101.42686
 30
0.0
 40
8.659302999999999
100
AcDbArc
 50
262.034148
 51
264.348466
  0
ARC
  5
B0
330
A
100
AcDbEntity
  8
FV
  6
Continuous
 62
     7
100
AcDbCircle
 10
89.11505099999997
 20
-109.432122
 30
0.0
 40
0.457536
100
AcDbArc
 50
282.364355
 51
322.314625
  0
ARC
  5
B1
330
A
100
AcDbEntity
  8
FV
  6
Continuous
 62
     7
100
AcDbCircle
 10
89.14277699999997
 20
-109.39623
 30
0.0
 40
0.457536
100
AcDbArc
 50
322.314625
 51
0.0
  0
LINE
  5
B2
330
A
100
AcDbEntity
  8
FV
  6
Continuous
 62
     7
100
AcDbLine
 10
88.64936
 20
-110.002608
 30
0.0
 11
89.21302199999997
 21
-109.879046
 31
0.0
  0
LINE
  5
B3
330
A
100
AcDbEntity
  8
FV
  6
Continuous
 62
     7
100
AcDbLine
 10
89.477136
 20
-109.711826
 30
0.0
 11
89.504862
 21
-109.675933
 31
0.0
  0
ARC
  5
B4
330
A
100
AcDbEntity
  8
FV
  6
Continuous
 62
     7
100
AcDbCircle
 10
83.884523
 20
-106.056202
 30
0.0
 40
0.018302
100
AcDbArc
 50
90.0
 51
180.0
  0
ARC
  5
B5
330
A
100
AcDbEntity
  8
FV
  6
Continuous
 62
     7
100
AcDbCircle
 10
86.53215600000001
 20
-106.056202
 30
0.0
 40
0.018302
100
AcDbArc
 50
0.0
 51
90.0
  0
ARC
  5
B6
330
A
100
AcDbEntity
  8
FV
  6
Continuous
 62
     7
100
AcDbCircle
 10
83.89367299999998
 20
-106.088641
 30
0.0
 40
0.027452
100
AcDbArc
 50
180.0
 51
236.049669
  0
ARC
  5
B7
330
A
100
AcDbEntity
  8
FV
  6
Continuous
 62
     7
100
AcDbCircle
 10
86.523005
 20
-106.088618
 30
0.0
 40
0.027452
100
AcDbArc
 50
303.958257
 51
0.0
  0
ARC
  5
B8
330
A
100
AcDbEntity
  8
FV
  6
Continuous
 62
     7
100
AcDbCircle
 10
83.93575400000001
 20
-106.701632
 30
0.0
 40
0.457536
100
AcDbArc
 50
0.0
 51
56.04966899999999
  0
ARC
  5
B9
330
A
100
AcDbEntity
  8
FV
  6
Continuous
 62
     7
100
AcDbCircle
 10
86.48104299999998
 20
-106.701591
 30
0.0
 40
0.457536
100
AcDbArc
 50
123.958257
 51
180.0
  0
LINE
  5
BA
330
A
100
AcDbEntity
  8
FV
  6
Continuous
 62
     7
100
AcDbLine
 10
86.22546899999996
 20
-106.32209
 30
0.0
 11
86.53834000000001
 21
-106.111388
 31
0.0
  0
LINE
  5
BB
330
A
100
AcDbEntity
  8
FV
  6
Continuous
 62
     7
100
AcDbLine
 10
83.878342
 20
-106.111414
 30
0.0
 11
84.19127600000001
 21
-106.322096
 31
0.0
  0
LINE
  5
BC
330
A
100
AcDbEntity
  8
FV
  6
Continuous
 62
     7
100
AcDbLine
 10
86.550457
 20
-106.088618
 30
0.0
 11
86.550457
 21
-106.056202
 31
0.0
  0
LINE
  5
BD
330
A
100
AcDbEntity
  8
FV
  6
Continuous
 62
     7
100
AcDbLine
 10
83.866221
 20
-106.088641
 30
0.0
 11
83.866221
 21
-106.056202
 31
0.0
  0
ARC
  5
BE
330
A
100
AcDbEntity
  8
FV
  6
Continuous
 62
     7
100
AcDbCircle
 10
89.14277699999997
 20
-106.690224
 30
0.0
 40
0.457536
100
AcDbArc
 50
0.0
 51
53.800364
  0
ARC
  5
BF
330
A
100
AcDbEntity
  8
FV
  6
Continuous
 62
     7
100
AcDbCircle
 10
89.13998599999997
 20
-106.056558
 30
0.0
 40
0.018302
100
AcDbArc
 50
90.0
 51
180.0
  0
ARC
  5
C0
330
A
100
AcDbEntity
  8
FV
  6
Continuous
 62
     7
100
AcDbCircle
 10
89.167438
 20
-106.08459
 30
0.0
 40
0.045754
100
AcDbArc
 50
180.0
 51
233.800364
  0
LINE
  5
C1
330
A
100
AcDbEntity
  8
FV
  6
Continuous
 62
     7
100
AcDbLine
 10
89.140416
 20
-106.121512
 30
0.0
 11
89.41299800000001
 21
-106.321009
 31
0.0
  0
ARC
  5
C2
330
A
100
AcDbEntity
  8
FV
  6
Continuous
 62
     7
100
AcDbCircle
 10
90.85279300000001
 20
-106.08066
 30
0.0
 40
0.045754
100
AcDbArc
 50
303.511375
 51
0.0
  0
ARC
  5
C3
330
A
100
AcDbEntity
  8
FV
  6
Continuous
 62
     7
100
AcDbCircle
 10
90.88024500000001
 20
-106.056558
 30
0.0
 40
0.018302
100
AcDbArc
 50
0.0
 51
90.0
  0
LINE
  5
C4
330
A
100
AcDbEntity
  8
FV
  6
Continuous
 62
     7
100
AcDbLine
 10
90.49012000000001
 20
-106.375686
 30
0.0
 11
90.878054
 21
-106.118808
 31
0.0
  0
ARC
  5
C5
330
A
100
AcDbEntity
  8
FV
  6
Continuous
 62
     7
100
AcDbCircle
 10
90.65731900000001
 20
-106.593417
 30
0.0
 40
0.274522
100
AcDbArc
 50
127.521218
 51
180.0
  0
LINE
  5
C6
330
A
100
AcDbEntity
  8
FV
  6
Continuous
 62
     7
100
AcDbLine
 10
89.12168499999998
 20
-106.08459
 30
0.0
 11
89.12168499999998
 21
-106.056558
 31
0.0
  0
LINE
  5
C7
330
A
100
AcDbEntity
  8
FV
  6
Continuous
 62
     7
100
AcDbLine
 10
90.898547
 20
-106.08066
 30
0.0
 11
90.898547
 21
-106.056558
 31
0.0
  0
LINE
  5
C8
330
A
100
AcDbEntity
  8
FV
  6
Continuous
 62
     7
100
AcDbLine
 10
90.091467
 20
-110.256792
 30
0.0
 11
89.924812
 21
-110.374073
 31
0.0
  0
ARC
  5
C9
330
A
100
AcDbEntity
  8
FV
  6
Continuous
 62
     7
100
AcDbCircle
 10
89.69649399999999
 20
-109.695536
 30
0.0
 40
0.686304
100
AcDbArc
 50
305.135309
 51
0.0
  0
LINE
  5
CA
330
A
100
AcDbEntity
  8
FV
  6
Continuous
 62
     7
100
AcDbLine
 10
90.382797
 20
-109.695536
 30
0.0
 11
90.382797
 21
-106.593417
 31
0.0
  0
ARC
  5
CB
330
A
100
AcDbEntity
  8
FV
  6
Continuous
 62
     7
100
AcDbCircle
 10
94.248688
 20
-109.266261
 30
0.0
 40
0.7778109999999999
100
AcDbArc
 50
180.0
 51
270.0
  0
ARC
  5
CC
330
A
100
AcDbEntity
  8
FV
  6
Continuous
 62
     7
100
AcDbCircle
 10
91.33947799999999
 20
-110.508665
 30
0.0
 40
0.091507
100
AcDbArc
 50
125.135309
 51
180.0
  0
ARC
  5
CD
330
A
100
AcDbEntity
  8
FV
  6
Continuous
 62
     7
100
AcDbCircle
 10
91.15435600000001
 20
-109.687834
 30
0.0
 40
0.686304
100
AcDbArc
 50
305.135309
 51
0.0
  0
ARC
  5
CE
330
A
100
AcDbEntity
  8
FV
  6
Continuous
 62
     7
100
AcDbCircle
 10
91.266273
 20
-110.526137
 30
0.0
 40
0.018302
100
AcDbArc
 50
180.0
 51
270.0
  0
LINE
  5
CF
330
A
100
AcDbEntity
  8
FV
  6
Continuous
 62
     7
100
AcDbLine
 10
91.247971
 20
-110.508665
 30
0.0
 11
91.247971
 21
-110.526137
 31
0.0
  0
LINE
  5
D0
330
A
100
AcDbEntity
  8
FV
  6
Continuous
 62
     7
100
AcDbLine
 10
91.54932999999999
 20
-110.24909
 30
0.0
 11
91.286815
 21
-110.43383
 31
0.0
  0
LINE
  5
D1
330
A
100
AcDbEntity
  8
FV
  6
Continuous
 62
     7
100
AcDbLine
 10
87.32174099999998
 20
-110.044072
 30
0.0
 11
88.30208
 21
-110.044072
 31
0.0
  0
ARC
  5
D2
330
A
100
AcDbEntity
  8
FV
  6
Continuous
 62
     7
100
AcDbCircle
 10
91.566138
 20
-106.600471
 30
0.0
 40
0.274522
100
AcDbArc
 50
0.0
 51
54.823662
  0
ARC
  5
D3
330
A
100
AcDbEntity
  8
FV
  6
Continuous
 62
     7
100
AcDbCircle
 10
93.745399
 20
-106.599909
 30
0.0
 40
0.274522
100
AcDbArc
 50
125.361678
 51
180.0
  0
LINE
  5
D4
330
A
100
AcDbEntity
  8
FV
  6
Continuous
 62
     7
100
AcDbLine
 10
93.96805099999999
 20
-106.105278
 30
0.0
 11
93.586524
 21
-106.376032
 31
0.0
  0
LINE
  5
D5
330
A
100
AcDbEntity
  8
FV
  6
Continuous
 62
     7
100
AcDbLine
 10
91.340005
 20
-106.105238
 30
0.0
 11
91.72428899999999
 21
-106.376082
 31
0.0
  0
ARC
  5
D6
330
A
100
AcDbEntity
  8
FV
  6
Continuous
 62
     7
100
AcDbCircle
 10
91.35510899999999
 20
-106.062049
 30
0.0
 40
0.045754
100
AcDbArc
 50
180.0
 51
250.724866
  0
ARC
  5
D7
330
A
100
AcDbEntity
  8
FV
  6
Continuous
 62
     7
100
AcDbCircle
 10
91.32765699999998
 20
-106.056202
 30
0.0
 40
0.018302
100
AcDbArc
 50
90.0
 51
180.0
  0
ARC
  5
D8
330
A
100
AcDbEntity
  8
FV
  6
Continuous
 62
     7
100
AcDbCircle
 10
93.980309
 20
-106.056202
 30
0.0
 40
0.018302
100
AcDbArc
 50
0.0
 51
90.0
  0
ARC
  5
D9
330
A
100
AcDbEntity
  8
FV
  6
Continuous
 62
     7
100
AcDbCircle
 10
93.952857
 20
-106.062122
 30
0.0
 40
0.045754
100
AcDbArc
 50
289.395874
 51
0.0
  0
LINE
  5
DA
330
A
100
AcDbEntity
  8
FV
  6
Continuous
 62
     7
100
AcDbLine
 10
91.30935499999999
 20
-106.062049
 30
0.0
 11
91.30935499999999
 21
-106.056202
 31
0.0
  0
LINE
  5
DB
330
A
100
AcDbEntity
  8
FV
  6
Continuous
 62
     7
100
AcDbLine
 10
93.99860999999999
 20
-106.062122
 30
0.0
 11
93.99860999999999
 21
-106.056202
 31
0.0
  0
LINE
  5
DC
330
A
100
AcDbEntity
  8
FV
  6
Continuous
 62
     7
100
AcDbLine
 10
89.13998599999997
 20
-106.038257
 30
0.0
 11
90.88024500000001
 21
-106.038257
 31
0.0
  0
ARC
  5
DD
330
A
100
AcDbEntity
  8
FV
  6
Continuous
 62
     7
100
AcDbCircle
 10
87.449329
 20
-101.42686
 30
0.0
 40
9.311391
100
AcDbArc
 50
261.606419
 51
284.468842
  0
ARC
  5
DE
330
A
100
AcDbEntity
  8
FV
  6
Continuous
 62
     7
100
AcDbCircle
 10
87.449329
 20
-101.42686
 30
0.0
 40
8.659302999999999
100
AcDbArc
 50
275.6515339999999
 51
277.965852
  0
LINE
  5
DF
330
A
100
AcDbEntity
  8
FV
  6
Continuous
 62
     7
100
AcDbLine
 10
83.884523
 20
-106.037901
 30
0.0
 11
86.53215600000001
 21
-106.037901
 31
0.0
  0
LINE
  5
E0
330
A
100
AcDbEntity
  8
FV
  6
Continuous
 62
     7
100
AcDbLine
 10
91.266273
 20
-110.544438
 30
0.0
 11
96.89573600000001
 21
-110.544438
 31
0.0
  0
LINE
  5
E1
330
A
100
AcDbEntity
  8
FV
  6
Continuous
 62
     7
100
AcDbLine
 10
96.89573600000001
 20
-110.544438
 30
0.0
 11
97.13337199999999
 21
-109.159901
 31
0.0
  0
LINE
  5
E2
330
A
100
AcDbEntity
  8
FV
  6
Continuous
 62
     7
100
AcDbLine
 10
94.248688
 20
-110.044072
 30
0.0
 11
96.03757100000001
 21
-110.044072
 31
0.0
  0
LINE
  5
E3
330
A
100
AcDbEntity
  8
FV
  6
Continuous
 62
     7
100
AcDbLine
 10
89.600313
 20
-109.39623
 30
0.0
 11
89.600313
 21
-106.690224
 31
0.0
  0
LINE
  5
E4
330
A
100
AcDbEntity
  8
FV
  6
Continuous
 62
     7
100
AcDbLine
 10
91.84065999999999
 20
-109.687834
 30
0.0
 11
91.84065999999999
 21
-106.600471
 31
0.0
  0
LINE
  5
E5
330
A
100
AcDbEntity
  8
FV
  6
Continuous
 62
     7
100
AcDbLine
 10
93.47087700000001
 20
-109.266261
 30
0.0
 11
93.47087700000001
 21
-106.599909
 31
0.0
  0
LINE
  5
E6
330
A
100
AcDbEntity
  8
FV
  6
Continuous
 62
     7
100
AcDbLine
 10
98.79059300000001
 20
-110.544438
 30
0.0
 11
100.54209
 21
-110.544438
 31
0.0
  0
LINE
  5
E7
330
A
100
AcDbEntity
  8
FV
  6
Continuous
 62
     7
100
AcDbLine
 10
98.79059300000001
 20
-110.544438
 30
0.0
 11
96.43537
 21
-106.573772
 31
0.0
  0
LINE
  5
E8
330
A
100
AcDbEntity
  8
FV
  6
Continuous
 62
     7
100
AcDbLine
 10
100.198346
 20
-110.078788
 30
0.0
 11
98.28434300000001
 21
-106.851975
 31
0.0
  0
LINE
  5
E9
330
A
100
AcDbEntity
  8
FV
  6
Continuous
 62
     7
100
AcDbLine
 10
100.198346
 20
-110.078788
 30
0.0
 11
102.08808
 21
-106.817124
 31
0.0
  0
LINE
  5
EA
330
A
100
AcDbEntity
  8
FV
  6
Continuous
 62
     7
100
AcDbLine
 10
100.54209
 20
-110.544438
 30
0.0
 11
102.84588
 21
-106.568119
 31
0.0
  0
LINE
  5
EB
330
A
100
AcDbEntity
  8
FV
  6
Continuous
 62
     7
100
AcDbLine
 10
106.369701
 20
-108.685941
 30
0.0
 11
105.121907
 21
-106.494919
 31
0.0
  0
LINE
  5
EC
330
A
100
AcDbEntity
  8
FV
  6
Continuous
 62
     7
100
AcDbLine
 10
103.824077
 20
-108.685941
 30
0.0
 11
105.121907
 21
-106.494919
 31
0.0
  0
LINE
  5
ED
330
A
100
AcDbEntity
  8
FV
  6
Continuous
 62
     7
100
AcDbLine
 10
101.818375
 20
-106.037901
 30
0.0
 11
103.537767
 21
-106.037901
 31
0.0
  0
LINE
  5
EE
330
A
100
AcDbEntity
  8
FV
  6
Continuous
 62
     7
100
AcDbLine
 10
95.67276900000001
 20
-106.037901
 30
0.0
 11
98.639536
 21
-106.037901
 31
0.0
  0
LINE
  5
EF
330
A
100
AcDbEntity
  8
FV
  6
Continuous
 62
     7
100
AcDbLine
 10
104.79673
 20
-106.037901
 30
0.0
 11
106.577732
 21
-106.037901
 31
0.0
  0
LINE
  5
F0
330
A
100
AcDbEntity
  8
FV
  6
Continuous
 62
     7
100
AcDbLine
 10
106.669495
 20
-110.544438
 30
0.0
 11
109.752784
 21
-110.544438
 31
0.0
  0
LINE
  5
F1
330
A
100
AcDbEntity
  8
FV
  6
Continuous
 62
     7
100
AcDbLine
 10
101.775588
 20
-110.544438
 30
0.0
 11
103.528333
 21
-110.544438
 31
0.0
  0
LINE
  5
F2
330
A
100
AcDbEntity
  8
FV
  6
Continuous
 62
     7
100
AcDbLine
 10
103.223311
 20
-109.700167
 30
0.0
 11
103.525127
 21
-109.190635
 31
0.0
  0
LINE
  5
F3
330
A
100
AcDbEntity
  8
FV
  6
Continuous
 62
     7
100
AcDbLine
 10
106.955281
 20
-109.714168
 30
0.0
 11
106.657127
 21
-109.190635
 31
0.0
  0
LINE
  5
F4
330
A
100
AcDbEntity
  8
FV
  6
Continuous
 62
     7
100
AcDbLine
 10
102.480383
 20
-109.948403
 30
0.0
 11
104.79673
 21
-106.037901
 31
0.0
  0
LINE
  5
F5
330
A
100
AcDbEntity
  8
FV
  6
Continuous
 62
     7
100
AcDbLine
 10
108.953089
 20
-109.940274
 30
0.0
 11
106.577732
 21
-106.037901
 31
0.0
  0
LINE
  5
F6
330
A
100
AcDbEntity
  8
FV
  6
Continuous
 62
     7
100
AcDbLine
 10
86.023507
 20
-109.39623
 30
0.0
 11
86.023507
 21
-106.701591
 31
0.0
  0
LINE
  5
F7
330
A
100
AcDbEntity
  8
FV
  6
Continuous
 62
     7
100
AcDbLine
 10
84.39329
 20
-109.437156
 30
0.0
 11
84.39329
 21
-106.701632
 31
0.0
  0
LINE
  5
F8
330
A
100
AcDbEntity
  8
FV
  6
Continuous
 62
     7
100
AcDbLine
 10
103.824077
 20
-108.685941
 30
0.0
 11
106.369701
 21
-108.685941
 31
0.0
  0
LINE
  5
F9
330
A
100
AcDbEntity
  8
FV
  6
Continuous
 62
     7
100
AcDbLine
 10
103.525127
 20
-109.190635
 30
0.0
 11
106.657127
 21
-109.190635
 31
0.0
  0
LINE
  5
FA
330
A
100
AcDbEntity
  8
FV
  6
Continuous
 62
     7
100
AcDbLine
 10
91.32765699999998
 20
-106.037901
 30
0.0
 11
93.980309
 21
-106.037901
 31
0.0
  0
DIMENSION
  5
114
330
A
100
AcDbEntity
  8
PV
  6
Continuous
 62
     7
100
AcDbDimension
  2
*D7
 10
39.78849799999999
 20
-16.006061
 30
0.0
 11
39.788498
 21
9.193939
 31
0.0
 70
   160
  1
\U+220550.4{\A1;\H0.50x;\S^ ;}\U+00B11
 71
     5
 42
50.4
  3
MXDIMSTYLE
100
AcDbAlignedDimension
 13
-5.971633999999997
 23
34.39393900000001
 33
0.0
 14
-5.97163520943951
 24
-16.00606099999999
 34
0.0
 50
90.0
100
AcDbRotatedDimension
1001
ACAD
1000
DSTYLE
1002
{
1070
     6
1000
_OPEN30
1070
     7
1000
_OPEN30
1070
    41
1040
2.77
1070
    78
1070
     0
1070
   173
1070
     1
1070
   271
1070
     0
1070
   341
1005
26
1002
}
1001
ACAD_DSTYLE_DIMINSPECT
1070
   396
1000
100%
1070
   395
1000

1070
   394
1070
    33
1070
   393
1070
     0
  0
MTEXT
  5
115
330
A
100
AcDbEntity
  8
PV
  6
Continuous
 62
     7
100
AcDbMText
 10
129.684447
 20
1.044645999999997
 30
0.0
 40
5.0
 41
0.0
 71
     1
 72
     1
  1
\W0.853;\A1;G
 11
0.500000174843842
 21
0.8660253028382758
 31
0.0
 73
     1
 44
1.0
1001
ACAD
1000
MTEXTBEGIN
1070
    73
1070
     1
1070
    44
1040
1.0
1070
    74
1070
     0
1000
MTEXTEND
  0
MTEXT
  5
116
330
A
100
AcDbEntity
  8
PV
  6
Continuous
 62
     7
100
AcDbMText
 10
131.258504
 20
15.015099
 30
0.0
 40
5.0
 41
0.0
 71
     1
 72
     1
  1
\W0.853;\A1;G
 11
-0.4336590242393718
 21
0.9010770503657031
 31
0.0
 73
     1
 44
1.0
1001
ACAD
1000
MTEXTBEGIN
1070
    73
1070
     1
1070
    44
1040
1.0
1070
    74
1070
     0
1000
MTEXTEND
  0
MTEXT
  5
117
330
A
100
AcDbEntity
  8
PV
  6
Continuous
 62
     7
100
AcDbMText
 10
117.856739
 20
-7.829886999999997
 30
0.0
 40
5.0
 41
0.0
 71
     1
 72
     1
  1
\W0.853;\A1;P
 11
0.9659258492011172
 21
0.2588189595935755
 31
0.0
 73
     1
 44
1.0
1001
ACAD
1000
MTEXTBEGIN
1070
    73
1070
     1
1070
    44
1040
1.0
1070
    74
1070
     0
1000
MTEXTEND
  0
MTEXT
  5
118
330
A
100
AcDbEntity
  8
PV
  6
Continuous
 62
     7
100
AcDbMText
 10
120.826888
 20
25.500876
 30
0.0
 40
5.0
 41
0.0
 71
     1
 72
     1
  1
\W0.853;\A1;P
 11
-0.9659258492011172
 21
0.2588189595935755
 31
0.0
 73
     1
 44
1.0
1001
ACAD
1000
MTEXTBEGIN
1070
    73
1070
     1
1070
    44
1040
1.0
1070
    74
1070
     0
1000
MTEXTEND
  0
MTEXT
  5
119
330
A
100
AcDbEntity
  8
PV
  6
Continuous
 62
     7
100
AcDbMText
 10
103.818078
 20
-2.93082
 30
0.0
 40
5.0
 41
0.0
 71
     1
 72
     1
  1
\W0.853;\A1;F
 11
0.7660440678408657
 21
-0.642788056925313
 31
0.0
 73
     1
 44
1.0
1001
ACAD
1000
MTEXTBEGIN
1070
    73
1070
     1
1070
    44
1040
1.0
1070
    74
1070
     0
1000
MTEXTEND
  0
MTEXT
  5
11A
330
A
100
AcDbEntity
  8
PV
  6
Continuous
 62
     7
100
AcDbMText
 10
106.219659
 20
23.389006
 30
0.0
 40
5.0
 41
0.0
 71
     1
 72
     1
  1
\W0.853;\A1;F
 11
-0.7660440678408657
 21
-0.642788056925313
 31
0.0
 73
     1
 44
1.0
1001
ACAD
1000
MTEXTBEGIN
1070
    73
1070
     1
1070
    44
1040
1.0
1070
    74
1070
     0
1000
MTEXTEND
  0
MTEXT
  5
11B
330
A
100
AcDbEntity
  8
PV
  6
Continuous
 62
     7
100
AcDbMText
 10
98.34657300000001
 20
10.570269
 30
0.0
 40
5.0
 41
0.0
 71
     1
 72
     1
  1
\W0.853;\A1;A
 11
0.0
 21
-1.0
 31
0.0
 73
     1
 44
1.0
1001
ACAD
1000
MTEXTBEGIN
1070
    73
1070
     1
1070
    44
1040
1.0
1070
    74
1070
     0
1000
MTEXTEND
  0
CIRCLE
  5
11C
330
A
100
AcDbEntity
  8
PV
  6
Continuous
 62
     7
100
AcDbCircle
 10
107.651978
 20
-0.73532
 30
0.0
 40
3.0
  0
CIRCLE
  5
11D
330
A
100
AcDbEntity
  8
PV
  6
Continuous
 62
     7
100
AcDbCircle
 10
118.396317
 20
-3.187645
 30
0.0
 40
3.0
  0
CIRCLE
  5
11E
330
A
100
AcDbEntity
  8
PV
  6
Continuous
 62
     7
100
AcDbCircle
 10
127.012604
 20
3.683616
 30
0.0
 40
3.0
  0
CIRCLE
  5
11F
330
A
100
AcDbEntity
  8
PV
  6
Continuous
 62
     7
100
AcDbCircle
 10
127.012604
 20
14.704263
 30
0.0
 40
3.0
  0
CIRCLE
  5
120
330
A
100
AcDbEntity
  8
PV
  6
Continuous
 62
     7
100
AcDbCircle
 10
118.396317
 20
21.575523
 30
0.0
 40
3.0
  0
CIRCLE
  5
121
330
A
100
AcDbEntity
  8
PV
  6
Continuous
 62
     7
100
AcDbCircle
 10
107.651978
 20
19.123199
 30
0.0
 40
3.0
  0
CIRCLE
  5
122
330
A
100
AcDbEntity
  8
PV
  6
Continuous
 62
     7
100
AcDbCircle
 10
102.8703
 20
9.193939
 30
0.0
 40
3.0
  0
CIRCLE
  5
123
330
A
100
AcDbEntity
  8
PV
  6
Continuous
 62
     7
100
AcDbCircle
 10
102.8703
 20
9.193939
 30
0.0
 40
0.75
  0
CIRCLE
  5
124
330
A
100
AcDbEntity
  8
PV
  6
Continuous
 62
     7
100
AcDbCircle
 10
107.651978
 20
-0.73532
 30
0.0
 40
0.75
  0
CIRCLE
  5
125
330
A
100
AcDbEntity
  8
PV
  6
Continuous
 62
     7
100
AcDbCircle
 10
118.396317
 20
-3.187645
 30
0.0
 40
0.75
  0
CIRCLE
  5
126
330
A
100
AcDbEntity
  8
PV
  6
Continuous
 62
     7
100
AcDbCircle
 10
127.012604
 20
3.683616
 30
0.0
 40
0.75
  0
CIRCLE
  5
127
330
A
100
AcDbEntity
  8
PV
  6
Continuous
 62
     7
100
AcDbCircle
 10
127.012604
 20
14.704263
 30
0.0
 40
0.75
  0
CIRCLE
  5
128
330
A
100
AcDbEntity
  8
PV
  6
Continuous
 62
     7
100
AcDbCircle
 10
118.396317
 20
21.575523
 30
0.0
 40
0.75
  0
CIRCLE
  5
129
330
A
100
AcDbEntity
  8
PV
  6
Continuous
 62
     7
100
AcDbCircle
 10
107.651978
 20
19.123199
 30
0.0
 40
0.75
  0
ARC
  5
12B
330
A
100
AcDbEntity
  8
PV
  6
Continuous
 62
     7
100
AcDbCircle
 10
-7.471635
 20
-10.806061
 30
0.0
 40
3.0
100
AcDbArc
 50
269.999997
 51
0.0
  0
ARC
  5
12C
330
A
100
AcDbEntity
  8
PV
  6
Continuous
 62
     7
100
AcDbCircle
 10
-7.471635
 20
29.193939
 30
0.0
 40
3.0
100
AcDbArc
 50
0.0
 51
90.00000300000001
  0
ARC
  5
12D
330
A
100
AcDbEntity
  8
PV
  6
Continuous
 62
     7
100
AcDbCircle
 10
15.02836
 20
21.575523
 30
0.0
 40
0.75
100
AcDbArc
 50
269.999997
 51
90.00000300000001
  0
ARC
  5
12E
330
A
100
AcDbEntity
  8
PV
  6
Continuous
 62
     7
100
AcDbCircle
 10
15.02836
 20
19.123199
 30
0.0
 40
0.75
100
AcDbArc
 50
269.999997
 51
90.00000300000001
  0
ARC
  5
12F
330
A
100
AcDbEntity
  8
PV
  6
Continuous
 62
     7
100
AcDbCircle
 10
15.02836
 20
14.704263
 30
0.0
 40
0.75
100
AcDbArc
 50
269.999997
 51
90.00000300000001
  0
ARC
  5
130
330
A
100
AcDbEntity
  8
PV
  6
Continuous
 62
     7
100
AcDbCircle
 10
15.02836
 20
3.683616
 30
0.0
 40
0.75
100
AcDbArc
 50
269.999997
 51
90.00000300000001
  0
ARC
  5
131
330
A
100
AcDbEntity
  8
PV
  6
Continuous
 62
     7
100
AcDbCircle
 10
15.02836
 20
-0.73532
 30
0.0
 40
0.75
100
AcDbArc
 50
269.999997
 51
90.00000300000001
  0
ARC
  5
132
330
A
100
AcDbEntity
  8
PV
  6
Continuous
 62
     7
100
AcDbCircle
 10
15.02836
 20
-3.187645
 30
0.0
 40
0.75
100
AcDbArc
 50
269.999997
 51
90.00000300000001
  0
CIRCLE
  5
133
330
A
100
AcDbEntity
  8
PV
  6
Continuous
 62
     7
100
AcDbCircle
 10
115.570297
 20
9.193939
 30
0.0
 40
9.699999999999999
  0
CIRCLE
  5
134
330
A
100
AcDbEntity
  8
PV
  6
Continuous
 62
     7
100
AcDbCircle
 10
115.570297
 20
9.193939
 30
0.0
 40
15.7
  0
ARC
  5
138
330
A
100
AcDbEntity
  8
PV
  6
Continuous
 62
     7
100
AcDbCircle
 10
-5.971635
 20
-12.006061
 30
0.0
 40
4.0
100
AcDbArc
 50
269.999997
 51
359.999997
  0
ARC
  5
139
330
A
100
AcDbEntity
  8
PV
  6
Continuous
 62
     7
100
AcDbCircle
 10
-6.146514880739569
 20
30.22262481771596
 30
0.0
 40
4.174978431891351
100
AcDbArc
 50
359.6063210274389
 51
87.59931706065563
  0
ARC
  5
13A
330
A
100
AcDbEntity
  8
PV
  6
Continuous
 62
     7
100
AcDbCircle
 10
-73.04884082141356
 20
26.222921271153
 30
0.0
 40
8.172844569209479
100
AcDbArc
 50
91.21146089394226
 51
180.2031857187939
  0
ARC
  5
13B
330
A
100
AcDbEntity
  8
PV
  6
Continuous
 62
     7
100
AcDbCircle
 10
-73.22163399999998
 20
-8.006060999999998
 30
0.0
 40
8.0
100
AcDbArc
 50
180.000009
 51
270.000004
  0
ARC
  5
13C
330
A
100
AcDbEntity
  8
PV
  6
Continuous
 62
     7
100
AcDbCircle
 10
-89.221634
 20
26.193939
 30
0.0
 40
8.0
100
AcDbArc
 50
269.999997
 51
359.999997
  0
ARC
  5
13D
330
A
100
AcDbEntity
  8
PV
  6
Continuous
 62
     7
100
AcDbCircle
 10
-89.221634
 20
-7.806060999999997
 30
0.0
 40
8.0
100
AcDbArc
 50
359.999997
 51
90.00000300000001
  0
LINE
  5
13E
330
A
100
AcDbEntity
  8
PV
  6
Continuous
 62
     7
100
AcDbLine
 10
-1.221636
 20
22.325523
 30
0.0
 11
-1.221636
 21
24.89394
 31
0.0
  0
LINE
  5
13F
330
A
100
AcDbEntity
  8
PV
  6
Continuous
 62
     7
100
AcDbLine
 10
-1.971636
 20
24.89394
 30
0.0
 11
-1.971636
 21
30.193939
 31
0.0
  0
LINE
  5
140
330
A
100
AcDbEntity
  8
PV
  6
Continuous
 62
     7
100
AcDbLine
 10
-1.221636
 20
19.873199
 30
0.0
 11
-1.221636
 21
20.825523
 31
0.0
  0
LINE
  5
141
330
A
100
AcDbEntity
  8
PV
  6
Continuous
 62
     7
100
AcDbLine
 10
-1.221636
 20
15.454263
 30
0.0
 11
-1.221636
 21
18.373199
 31
0.0
  0
LINE
  5
142
330
A
100
AcDbEntity
  8
PV
  6
Continuous
 62
     7
100
AcDbLine
 10
-1.221636
 20
0.01468
 30
0.0
 11
-1.221636
 21
2.933615999999998
 31
0.0
  0
LINE
  5
143
330
A
100
AcDbEntity
  8
PV
  6
Continuous
 62
     7
100
AcDbLine
 10
-1.221636
 20
4.433616
 30
0.0
 11
-1.221636
 21
13.954263
 31
0.0
  0
LINE
  5
144
330
A
100
AcDbEntity
  8
PV
  6
Continuous
 62
     7
100
AcDbLine
 10
-1.221636
 20
-2.437645
 30
0.0
 11
-1.221636
 21
-1.485319999999999
 31
0.0
  0
LINE
  5
145
330
A
100
AcDbEntity
  8
PV
  6
Continuous
 62
     7
100
AcDbLine
 10
-1.221636
 20
-6.506060999999997
 30
0.0
 11
-1.221636
 21
-3.937644999999998
 31
0.0
  0
LINE
  5
146
330
A
100
AcDbEntity
  8
PV
  6
Continuous
 62
     7
100
AcDbLine
 10
-25.17037
 20
15.454263
 30
0.0
 11
15.02836
 21
15.454263
 31
0.0
  0
LINE
  5
147
330
A
100
AcDbEntity
  8
PV
  6
Continuous
 62
     7
100
AcDbLine
 10
-25.211026
 20
13.954263
 30
0.0
 11
15.02836
 21
13.954263
 31
0.0
  0
LINE
  5
148
330
A
100
AcDbEntity
  8
PV
  6
Continuous
 62
     7
100
AcDbLine
 10
-4.471635
 20
0.01468
 30
0.0
 11
-4.471635
 21
2.933615999999998
 31
0.0
  0
LINE
  5
149
330
A
100
AcDbEntity
  8
PV
  6
Continuous
 62
     7
100
AcDbLine
 10
-4.471635
 20
-2.437645
 30
0.0
 11
-4.471635
 21
-1.485319999999999
 31
0.0
  0
LINE
  5
14A
330
A
100
AcDbEntity
  8
PV
  6
Continuous
 62
     7
100
AcDbLine
 10
-4.471635
 20
4.433616
 30
0.0
 11
-4.471635
 21
13.954263
 31
0.0
  0
LINE
  5
14B
330
A
100
AcDbEntity
  8
PV
  6
Continuous
 62
     7
100
AcDbLine
 10
-4.471635
 20
15.454263
 30
0.0
 11
-4.471635
 21
18.373199
 31
0.0
  0
LINE
  5
14C
330
A
100
AcDbEntity
  8
PV
  6
Continuous
 62
     7
100
AcDbLine
 10
-4.471635
 20
19.873199
 30
0.0
 11
-4.471635
 21
20.825523
 31
0.0
  0
LINE
  5
14D
330
A
100
AcDbEntity
  8
PV
  6
Continuous
 62
     7
100
AcDbLine
 10
-4.471635
 20
23.825523
 30
0.0
 11
-4.471635
 21
29.193939
 31
0.0
  0
LINE
  5
14E
330
A
100
AcDbEntity
  8
PV
  6
Continuous
 62
     7
100
AcDbLine
 10
-19.221636
 20
9.943939
 30
0.0
 11
-19.221636
 21
11.443939
 31
0.0
  0
LINE
  5
14F
330
A
100
AcDbEntity
  8
PV
  6
Continuous
 62
     7
100
AcDbLine
 10
-19.221636
 20
22.325523
 30
0.0
 11
-19.221636
 21
23.825523
 31
0.0
  0
LINE
  5
150
330
A
100
AcDbEntity
  8
PV
  6
Continuous
 62
     7
100
AcDbLine
 10
-19.221636
 20
19.873199
 30
0.0
 11
-19.221636
 21
20.825523
 31
0.0
  0
LINE
  5
151
330
A
100
AcDbEntity
  8
PV
  6
Continuous
 62
     7
100
AcDbLine
 10
-19.221636
 20
15.454263
 30
0.0
 11
-19.221636
 21
18.373199
 31
0.0
  0
LINE
  5
152
330
A
100
AcDbEntity
  8
PV
  6
Continuous
 62
     7
100
AcDbLine
 10
-19.221636
 20
4.433616
 30
0.0
 11
-19.221636
 21
5.933616
 31
0.0
  0
LINE
  5
153
330
A
100
AcDbEntity
  8
PV
  6
Continuous
 62
     7
100
AcDbLine
 10
-19.221636
 20
0.01468
 30
0.0
 11
-19.221636
 21
2.933615999999998
 31
0.0
  0
LINE
  5
154
330
A
100
AcDbEntity
  8
PV
  6
Continuous
 62
     7
100
AcDbLine
 10
-19.221636
 20
-2.437645
 30
0.0
 11
-19.221636
 21
-1.485319999999999
 31
0.0
  0
LINE
  5
155
330
A
100
AcDbEntity
  8
PV
  6
Continuous
 62
     7
100
AcDbLine
 10
-19.221636
 20
16.954264
 30
0.0
 11
-4.471635
 21
16.954264
 31
0.0
  0
LINE
  5
156
330
A
100
AcDbEntity
  8
PV
  6
Continuous
 62
     7
100
AcDbLine
 10
-19.221636
 20
12.454263
 30
0.0
 11
-19.221636
 21
13.954263
 31
0.0
  0
LINE
  5
157
330
A
100
AcDbEntity
  8
PV
  6
Continuous
 62
     7
100
AcDbLine
 10
-19.221636
 20
6.943939
 30
0.0
 11
-19.221636
 21
8.443939
 31
0.0
  0
LINE
  5
158
330
A
100
AcDbEntity
  8
PV
  6
Continuous
 62
     7
100
AcDbLine
 10
-19.221636
 20
12.454263
 30
0.0
 11
-4.471635
 21
12.454263
 31
0.0
  0
LINE
  5
159
330
A
100
AcDbEntity
  8
PV
  6
Continuous
 62
     7
100
AcDbLine
 10
-19.221636
 20
11.443939
 30
0.0
 11
-4.471635
 21
11.443939
 31
0.0
  0
LINE
  5
15A
330
A
100
AcDbEntity
  8
PV
  6
Continuous
 62
     7
100
AcDbLine
 10
-19.221636
 20
1.433615999999999
 30
0.0
 11
-4.471635
 21
1.433615999999999
 31
0.0
  0
LINE
  5
15B
330
A
100
AcDbEntity
  8
PV
  6
Continuous
 62
     7
100
AcDbLine
 10
-19.221636
 20
6.943939
 30
0.0
 11
-4.471635
 21
6.943939
 31
0.0
  0
LINE
  5
15C
330
A
100
AcDbEntity
  8
PV
  6
Continuous
 62
     7
100
AcDbLine
 10
-19.221636
 20
5.933616
 30
0.0
 11
-4.471635
 21
5.933616
 31
0.0
  0
LINE
  5
15D
330
A
100
AcDbEntity
  8
PV
  6
Continuous
 62
     7
100
AcDbLine
 10
-19.221636
 20
-5.437644999999997
 30
0.0
 11
-4.471635
 21
-5.437644999999997
 31
0.0
  0
LINE
  5
15E
330
A
100
AcDbEntity
  8
PV
  6
Continuous
 62
     7
100
AcDbLine
 10
-19.221636
 20
23.825523
 30
0.0
 11
-4.471635
 21
23.825523
 31
0.0
  0
LINE
  5
15F
330
A
100
AcDbEntity
  8
PV
  6
Continuous
 62
     7
100
AcDbLine
 10
-30.773142
 20
9.943939
 30
0.0
 11
-30.773142
 21
8.443939
 31
0.0
  0
LINE
  5
160
330
A
100
AcDbEntity
  8
PV
  6
Continuous
 62
     7
100
AcDbLine
 10
-30.773142
 20
8.443939
 30
0.0
 11
-1.221636
 21
8.443939
 31
0.0
  0
LINE
  5
161
330
A
100
AcDbEntity
  8
PV
  6
Continuous
 62
     7
100
AcDbLine
 10
-30.773142
 20
9.943939
 30
0.0
 11
-1.221636
 21
9.943939
 31
0.0
  0
LINE
  5
162
330
A
100
AcDbEntity
  8
PV
  6
Continuous
 62
     7
100
AcDbLine
 10
-4.471635
 20
-10.806061
 30
0.0
 11
-4.471635
 21
-5.437644999999997
 31
0.0
  0
LINE
  5
163
330
A
100
AcDbEntity
  8
PV
  6
Continuous
 62
     7
100
AcDbLine
 10
-19.221636
 20
-5.437644999999997
 30
0.0
 11
-19.221636
 21
-3.937644999999998
 31
0.0
  0
LINE
  5
164
330
A
100
AcDbEntity
  8
PV
  6
Continuous
 62
     7
100
AcDbLine
 10
-22.221636
 20
-3.937644999999998
 30
0.0
 11
15.02836
 21
-3.937644999999998
 31
0.0
  0
LINE
  5
165
330
A
100
AcDbEntity
  8
PV
  6
Continuous
 62
     7
100
AcDbLine
 10
-22.221636
 20
-2.437645
 30
0.0
 11
15.02836
 21
-2.437645
 31
0.0
  0
LINE
  5
166
330
A
100
AcDbEntity
  8
PV
  6
Continuous
 62
     7
100
AcDbLine
 10
-22.221636
 20
-1.485319999999999
 30
0.0
 11
15.02836
 21
-1.485319999999999
 31
0.0
  0
LINE
  5
167
330
A
100
AcDbEntity
  8
PV
  6
Continuous
 62
     7
100
AcDbLine
 10
-22.221636
 20
0.01468
 30
0.0
 11
15.02836
 21
0.01468
 31
0.0
  0
LINE
  5
168
330
A
100
AcDbEntity
  8
PV
  6
Continuous
 62
     7
100
AcDbLine
 10
-22.221636
 20
2.933615999999998
 30
0.0
 11
15.02836
 21
2.933615999999998
 31
0.0
  0
LINE
  5
169
330
A
100
AcDbEntity
  8
PV
  6
Continuous
 62
     7
100
AcDbLine
 10
-22.221636
 20
4.433616
 30
0.0
 11
15.02836
 21
4.433616
 31
0.0
  0
LINE
  5
16A
330
A
100
AcDbEntity
  8
PV
  6
Continuous
 62
     7
100
AcDbLine
 10
-22.221636
 20
18.373199
 30
0.0
 11
15.02836
 21
18.373199
 31
0.0
  0
LINE
  5
16B
330
A
100
AcDbEntity
  8
PV
  6
Continuous
 62
     7
100
AcDbLine
 10
-22.221636
 20
19.873199
 30
0.0
 11
15.02836
 21
19.873199
 31
0.0
  0
LINE
  5
16C
330
A
100
AcDbEntity
  8
PV
  6
Continuous
 62
     7
100
AcDbLine
 10
-22.221636
 20
20.825523
 30
0.0
 11
15.02836
 21
20.825523
 31
0.0
  0
LINE
  5
16D
330
A
100
AcDbEntity
  8
PV
  6
Continuous
 62
     7
100
AcDbLine
 10
-22.221636
 20
22.325523
 30
0.0
 11
15.02836
 21
22.325523
 31
0.0
  0
LINE
  5
170
330
A
100
AcDbEntity
  8
PV
  6
Continuous
 62
     7
100
AcDbLine
 10
-1.971636
 20
24.89394
 30
0.0
 11
-1.221636
 21
24.89394
 31
0.0
  0
LINE
  5
171
330
A
100
AcDbEntity
  8
PV
  6
Continuous
 62
     7
100
AcDbLine
 10
-1.971636
 20
-6.506060999999997
 30
0.0
 11
-1.221636
 21
-6.506060999999997
 31
0.0
  0
LINE
  5
172
330
A
100
AcDbEntity
  8
PV
  6
Continuous
 62
     7
100
AcDbLine
 10
-1.971635000000005
 20
-12.00606120943951
 30
0.0
 11
-1.971636
 21
-6.506060999999997
 31
0.0
  0
LINE
  5
173
330
A
100
AcDbEntity
  8
PV
  6
CENTER
 62
     7
100
AcDbLine
 10
-164.503647
 20
9.193939
 30
0.0
 11
27.397039
 21
9.193939
 31
0.0
  0
LINE
  5
174
330
A
100
AcDbEntity
  8
PV
  6
Continuous
 62
     7
100
AcDbLine
 10
-158.221634
 20
18.193939
 30
0.0
 11
-89.221634
 21
18.193939
 31
0.0
  0
LINE
  5
175
330
A
100
AcDbEntity
  8
PV
  6
Continuous
 62
     7
100
AcDbLine
 10
-158.221634
 20
0.19394
 30
0.0
 11
-89.221634
 21
0.19394
 31
0.0
  0
LINE
  5
176
330
A
100
AcDbEntity
  8
PV
  6
Continuous
 62
     7
100
AcDbLine
 10
-73.22163399999998
 20
34.39393900000001
 30
0.0
 11
-5.971635
 21
34.39393900000001
 31
0.0
  0
LINE
  5
177
330
A
100
AcDbEntity
  8
PV
  6
Continuous
 62
     7
100
AcDbLine
 10
-73.22163399999998
 20
-16.00606099999999
 30
0.0
 11
-5.971635
 21
-16.00606099999999
 31
0.0
  0
LINE
  5
178
330
A
100
AcDbEntity
  8
PV
  6
Continuous
 62
     7
100
AcDbLine
 10
-22.221636
 20
22.325523
 30
0.0
 11
-22.221636
 21
20.825523
 31
0.0
  0
LINE
  5
179
330
A
100
AcDbEntity
  8
PV
  6
Continuous
 62
     7
100
AcDbLine
 10
-22.221636
 20
19.873199
 30
0.0
 11
-22.221636
 21
18.373199
 31
0.0
  0
LINE
  5
17A
330
A
100
AcDbEntity
  8
PV
  6
Continuous
 62
     7
100
AcDbLine
 10
-22.221636
 20
4.433616
 30
0.0
 11
-22.221636
 21
2.933615999999998
 31
0.0
  0
LINE
  5
17B
330
A
100
AcDbEntity
  8
PV
  6
Continuous
 62
     7
100
AcDbLine
 10
-22.221636
 20
0.01468
 30
0.0
 11
-22.221636
 21
-1.485319999999999
 31
0.0
  0
LINE
  5
17C
330
A
100
AcDbEntity
  8
PV
  6
Continuous
 62
     7
100
AcDbLine
 10
-22.221636
 20
-2.437645
 30
0.0
 11
-22.221636
 21
-3.937644999999998
 31
0.0
  0
LINE
  5
17D
330
A
100
AcDbEntity
  8
PV
  6
Continuous
 62
     7
100
AcDbLine
 10
-25.17037
 20
15.454263
 30
0.0
 11
-25.17037
 21
13.954263
 31
0.0
  0
DIMENSION
  5
33B
330
A
100
AcDbEntity
  8
PV
  6
Continuous
 62
     7
100
AcDbDimension
  2
*D15
 10
-158.221634
 20
-35.15435273279275
 30
0.0
 11
-119.927404885613
 21
-35.15435273279275
 31
0.0
 70
   160
  1
(<>)
 71
     5
 42
77.00000000000009
  3
MXDIMSTYLE
100
AcDbAlignedDimension
 13
-81.22163399999989
 23
-7.806062256637063
 33
0.0
 14
-158.221634
 24
0.1939399999999978
 34
0.0
100
AcDbRotatedDimension
1001
ACAD
1000
DSTYLE
1002
{
1070
    41
1040
2.77
1070
   173
1070
     1
1070
   271
1070
     2
1070
   340
1005
3B
1070
   341
1005
26
1070
   343
1005
26
1070
   344
1005
26
1002
}
1001
ACAD_DSTYLE_DIMINSPECT
1070
   396
1000
100%
1070
   395
1000

1070
   394
1070
    33
1070
   393
1070
     0
  0
CIRCLE
  5
65E
330
A
100
AcDbEntity
  8
0
  6
Continuous
100
AcDbCircle
 10
115.570297
 20
9.193939
 30
0.0
 40
25.2
  0
ENDSEC
  0
SECTION
  2
OBJECTS
  0
DICTIONARY
  5
19
330
0
100
AcDbDictionary
281
     1
  3
ACAD_2007HEADERVARS_RT
350
6C2
  3
ACAD_COLOR
350
184
  3
ACAD_GROUP
350
1A
  3
ACAD_LAYOUT
350
187
  3
ACAD_MATERIAL
350
183
  3
ACAD_MLEADERSTYLE
350
25E
  3
ACAD_MLINESTYLE
350
1B
  3
ACAD_PLOTSETTINGS
350
188
  3
ACAD_PLOTSTYLENAME
350
181
  3
ACAD_SCALELIST
350
24C
  3
ACAD_TABLESTYLE
350
185
  3
ACAD_VISUALSTYLE
350
238
  3
ACDB_RECOMPOSE_DATA
350
6C0
  3
AcDbVariableDictionary
350
21B
  3
AcmDictionary
350
2BA
  3
AMG
350
263
  3
AMGSNAPSETTINGS
350
300
  3
ASE_INDEX_DICTIONARY
350
218
  3
DWGPROPS
350
6C1
  0
DICTIONARY
  5
5B6
330
2
100
AcDbDictionary
280
     1
281
     1
  3
ACAD_LAYERSTATES
360
5B7
  0
DICTIONARY
  5
3BB
330
14
100
AcDbDictionary
280
     1
281
     1
  3
ADSK_XREC_LAYER_RECONCILED
360
3BC
  0
DICTIONARY
  5
3BD
330
1E
100
AcDbDictionary
280
     1
281
     1
  3
ADSK_XREC_LAYER_RECONCILED
360
3BE
  0
DICTIONARY
  5
3BF
330
1F
100
AcDbDictionary
280
     1
281
     1
  3
ADSK_XREC_LAYER_RECONCILED
360
3C0
  0
DICTIONARY
  5
3C1
330
2FE
100
AcDbDictionary
280
     1
281
     1
  3
ADSK_XREC_LAYER_RECONCILED
360
3C2
  0
DICTIONARY
  5
59D
330
59C
100
AcDbDictionary
280
     1
281
     1
  0
DICTIONARY
  5
59F
330
59E
100
AcDbDictionary
280
     1
281
     1
  0
DICTIONARY
  5
5A1
330
5A0
100
AcDbDictionary
280
     1
281
     1
  0
DICTIONARY
  5
5A3
330
5A2
100
AcDbDictionary
280
     1
281
     1
  0
DICTIONARY
  5
583
330
582
100
AcDbDictionary
280
     1
281
     1
  3
ACAD_SORTENTS
360
584
  0
DICTIONARY
  5
636
330
5B8
100
AcDbDictionary
280
     1
281
     1
  3
ACAD_SORTENTS
360
637
  0
DICTIONARY
  5
6C7
330
2E
100
AcDbDictionary
280
     1
281
     1
  3
ACAD_MTEXT_RT
360
6C8
  0
DICTIONARY
  5
6C9
330
103
100
AcDbDictionary
280
     1
281
     1
  3
ACAD_MTEXT_RT
360
6CA
  0
DICTIONARY
  5
6CB
330
10F
100
AcDbDictionary
280
     1
281
     1
  3
ACAD_MTEXT_RT
360
6CC
  0
DICTIONARY
  5
6FE
330
6B1
100
AcDbDictionary
280
     1
281
     1
  3
ACAD_MTEXT_RT
360
6FF
  0
DICTIONARY
  5
6D2
330
1E4
100
AcDbDictionary
280
     1
281
     1
  3
ACAD_MTEXT_RT
360
6D3
  0
DICTIONARY
  5
6D4
330
20B
100
AcDbDictionary
280
     1
281
     1
  3
ACAD_MTEXT_RT
360
6D5
  0
DICTIONARY
  5
6FC
330
571
100
AcDbDictionary
280
     1
281
     1
  3
ACAD_MTEXT_RT
360
6FD
  0
DICTIONARY
  5
62F
330
62E
100
AcDbDictionary
280
     1
281
     1
  3
ACAD_DIMASSOC
360
630
  0
DICTIONARY
  5
634
330
633
100
AcDbDictionary
280
     1
281
     1
  3
ACAD_DIMASSOC
360
635
  0
DICTIONARY
  5
6C2
102
{ACAD_REACTORS
330
19
102
}
330
19
100
AcDbDictionary
281
     1
  3
DIMARCSYM
350
6C3
  3
DIMLTEX1
350
6C5
  3
DIMLTEX2
350
6C6
  3
DIMLTYPE
350
6C4
  0
DICTIONARY
  5
184
102
{ACAD_REACTORS
330
19
102
}
330
19
100
AcDbDictionary
281
     1
  0
DICTIONARY
  5
1A
102
{ACAD_REACTORS
330
19
102
}
330
19
100
AcDbDictionary
281
     1
  0
DICTIONARY
  5
187
102
{ACAD_REACTORS
330
19
102
}
330
19
100
AcDbDictionary
281
     1
  3
Model
350
189
  3
レイアウト1
350
18A
  0
DICTIONARY
  5
183
102
{ACAD_REACTORS
330
19
102
}
330
19
100
AcDbDictionary
281
     1
  3
ByBlock
350
228
  3
ByLayer
350
220
  3
Global
350
230
  0
DICTIONARY
  5
25E
102
{ACAD_REACTORS
330
19
102
}
330
19
100
AcDbDictionary
281
     1
  3
Standard
350
25F
  0
DICTIONARY
  5
1B
102
{ACAD_REACTORS
330
19
102
}
330
19
100
AcDbDictionary
281
     1
  3
STANDARD
350
1C
  0
DICTIONARY
  5
188
102
{ACAD_REACTORS
330
19
102
}
330
19
100
AcDbDictionary
281
     1
  0
ACDBDICTIONARYWDFLT
  5
181
102
{ACAD_REACTORS
330
19
102
}
330
19
100
AcDbDictionary
281
     1
  3
Normal
350
182
100
AcDbDictionaryWithDefault
340
182
  0
DICTIONARY
  5
24C
102
{ACAD_REACTORS
330
19
102
}
330
19
100
AcDbDictionary
281
     1
  3
A0
350
24D
  3
A1
350
24E
  3
A2
350
24F
  3
A3
350
250
  3
A4
350
251
  3
A5
350
252
  3
A6
350
253
  3
A7
350
254
  3
A8
350
255
  3
A9
350
256
  3
B0
350
257
  3
B1
350
258
  3
B2
350
259
  3
B3
350
25A
  3
B4
350
25B
  3
B5
350
25C
  3
B6
350
25D
  0
DICTIONARY
  5
185
102
{ACAD_REACTORS
330
19
102
}
330
19
100
AcDbDictionary
281
     1
  3
Standard
350
186
  0
DICTIONARY
  5
238
102
{ACAD_REACTORS
330
19
102
}
330
19
100
AcDbDictionary
281
     1
  3
2dWireframe
350
23E
  3
3D Hidden
350
240
  3
3dWireframe
350
23F
  3
Basic
350
23D
  3
Brighten
350
244
  3
ColorChange
350
248
  3
Conceptual
350
241
  3
Dim
350
243
  3
EdgeColorOff
350
24B
  3
Facepattern
350
247
  3
Flat
350
239
  3
FlatWithEdges
350
23A
  3
Gouraud
350
23B
  3
GouraudWithEdges
350
23C
  3
JitterOff
350
249
  3
Linepattern
350
246
  3
OverhangOff
350
24A
  3
Realistic
350
242
  3
Thicken
350
245
  0
XRECORD
  5
6C0
102
{ACAD_REACTORS
330
19
102
}
330
19
100
AcDbXrecord
280
     1
 90
        1
330
186
  0
DICTIONARY
  5
21B
102
{ACAD_REACTORS
330
19
102
}
330
19
100
AcDbDictionary
281
     1
  3
CANNOSCALE
350
3CC
  3
CMLEADERSTYLE
350
3CB
  3
CTABLESTYLE
350
21C
  3
DIMASSOC
350
3D0
  3
INDEXCTL
350
3CE
  3
SORTENTS
350
3CD
  3
XCLIPFRAME
350
6BE
  0
DICTIONARY
  5
2BA
102
{ACAD_REACTORS
330
19
102
}
330
19
100
AcDbDictionary
281
     1
  3
AcmStdDictionary
350
2C4
  0
DICTIONARY
  5
263
102
{ACAD_REACTORS
330
19
102
}
330
19
100
AcDbDictionary
281
     1
  0
DICTIONARY
  5
300
102
{ACAD_REACTORS
330
19
102
}
330
19
100
AcDbDictionary
281
     1
  0
DICTIONARY
  5
218
102
{ACAD_REACTORS
330
19
102
}
330
19
100
AcDbDictionary
281
     1
  3
ASEBlockHierarchyIndexRecord
350
21A
1001
DCO15
1040
1562645664.881
  0
XRECORD
  5
6C1
102
{ACAD_REACTORS
330
19
102
}
330
19
100
AcDbXrecord
280
     1
  1
DWGPROPS COOKIE
  2

  3

  4

  6

  7

  8
UJ30144
  9

300
=
301
=
302
=
303
=
304
=
305
=
306
=
307
=
308
=
309
=
 40
0.0351418055555556
 41
2453888.829837963
 42
2455712.550939781
  1

 90
        0
  0
DICTIONARY
  5
5B7
102
{ACAD_REACTORS
330
5B6
102
}
330
5B6
100
AcDbDictionary
281
     1
  0
XRECORD
  5
3BC
102
{ACAD_REACTORS
330
3BB
102
}
330
3BB
100
AcDbXrecord
280
     1
290
     1
  0
XRECORD
  5
3BE
102
{ACAD_REACTORS
330
3BD
102
}
330
3BD
100
AcDbXrecord
280
     1
290
     1
  0
XRECORD
  5
3C0
102
{ACAD_REACTORS
330
3BF
102
}
330
3BF
100
AcDbXrecord
280
     1
290
     1
  0
XRECORD
  5
3C2
102
{ACAD_REACTORS
330
3C1
102
}
330
3C1
100
AcDbXrecord
280
     1
290
     1
  0
SORTENTSTABLE
  5
584
102
{ACAD_REACTORS
330
583
102
}
330
583
100
AcDbSortentsTable
330
582
  0
SORTENTSTABLE
  5
637
102
{ACAD_REACTORS
330
636
102
}
330
636
100
AcDbSortentsTable
330
5B8
  0
XRECORD
  5
6C8
102
{ACAD_REACTORS
330
6C7
102
}
330
6C7
100
AcDbXrecord
280
     1
 40
20478.0
  1
\A1;\U+220518(\U+220515)\U+00B10.3
  0
XRECORD
  5
6CA
102
{ACAD_REACTORS
330
6C9
102
}
330
6C9
100
AcDbXrecord
280
     1
 40
6502.0
  1
\A1;\U+220525.4
  0
XRECORD
  5
6CC
102
{ACAD_REACTORS
330
6CB
102
}
330
6CB
100
AcDbXrecord
280
     1
 40
41623.0
  1
\A1;\U+220550{\A1;\H0.50x;\S^ ;}\U+00B11.5
  0
XRECORD
  5
6FF
102
{ACAD_REACTORS
330
6FE
102
}
330
6FE
100
AcDbXrecord
280
     1
 40
42381.0
  1
\A1;\U+220550.4{\A1;\H0.50x;\S^ ;}\U+00B11
  0
XRECORD
  5
6D3
102
{ACAD_REACTORS
330
6D2
102
}
330
6D2
100
AcDbXrecord
280
     1
 40
6502.0
  1
\A1;\U+220525.4
  0
XRECORD
  5
6D5
102
{ACAD_REACTORS
330
6D4
102
}
330
6D4
100
AcDbXrecord
280
     1
 40
20478.0
  1
\A1;\U+220518(\U+220515)\U+00B10.3
  0
XRECORD
  5
6FD
102
{ACAD_REACTORS
330
6FC
102
}
330
6FC
100
AcDbXrecord
280
     1
 40
20478.0
  1
\A1;\U+220518(\U+220515)\U+00B10.3
  0
DIMASSOC
  5
630
102
{ACAD_REACTORS
330
62F
102
}
330
62F
100
AcDbDimAssoc
330
62E
 90
        3
 70
     0
 71
     0
  1
AcDbOsnapPointRef
 72
     1
331
605
 73
     0
 91
        0
 40
0.0
 10
0.0
 20
0.0
 30
2.000000000000000E+50
 75
     0
  1
AcDbOsnapPointRef
 72
    13
331
5F9
 73
     0
 91
        0
 40
0.0
 10
0.0
 20
0.0
 30
2.000000000000000E+50
 75
     0
  0
DIMASSOC
  5
635
102
{ACAD_REACTORS
330
634
102
}
330
634
100
AcDbDimAssoc
330
633
 90
        3
 70
     0
 71
     0
  1
AcDbOsnapPointRef
 72
     1
331
5FB
 73
     0
 91
        0
 40
0.0
 10
0.0
 20
0.0
 30
2.000000000000000E+50
 75
     0
  1
AcDbOsnapPointRef
 72
    13
331
5FD
 73
     0
 91
        0
 40
0.0
 10
0.0
 20
0.0
 30
2.000000000000000E+50
 75
     0
  0
XRECORD
  5
6C3
102
{ACAD_REACTORS
330
6C2
102
}
330
6C2
100
AcDbXrecord
280
     1
 70
     1
  0
XRECORD
  5
6C5
102
{ACAD_REACTORS
330
6C2
102
}
330
6C2
100
AcDbXrecord
280
     1
340
11
  0
XRECORD
  5
6C6
102
{ACAD_REACTORS
330
6C2
102
}
330
6C2
100
AcDbXrecord
280
     1
340
11
  0
XRECORD
  5
6C4
102
{ACAD_REACTORS
330
6C2
102
}
330
6C2
100
AcDbXrecord
280
     1
340
11
  0
LAYOUT
  5
189
102
{ACAD_XDICTIONARY
360
6CE
102
}
102
{ACAD_REACTORS
330
187
102
}
330
187
100
AcDbPlotSettings
  1

  2
RICOH imagio Neo 602 RPCS
  4
A4
  6

 40
5.873749732971191
 41
5.873747825622557
 42
5.873748779296875
 43
5.873748779296875
 44
209.9733276367186
 45
296.9259948730469
 46
0.0
 47
0.0
 48
0.0
 49
0.0
140
0.0
141
0.0
142
1.0
143
1.82188819151962
 70
 11952
 72
     1
 73
     1
 74
     0
  7

 75
     0
147
0.5488811029429358
148
267.281669235
149
149.985
100
AcDbLayout
  1
Model
 70
     1
 71
     0
 10
0.0
 20
0.0
 11
12.0
 21
9.0
 12
0.0
 22
0.0
 32
0.0
 14
0.0
 24
0.0
 34
0.0
 15
0.0
 25
0.0
 35
0.0
146
0.0
 13
0.0
 23
0.0
 33
0.0
 16
1.0
 26
0.0
 36
0.0
 17
0.0
 27
1.0
 37
0.0
 76
     0
330
A
331
21D
1001
ACAD_PSEXT
1000
RICOH imagio Neo 602 RPCS
1000
RICOH imagio Neo 602 RPCS
1000
IP_192.168.12.39
1000
RPCS Driver (Windows 2000/XP/Server 2003)
1070
     0
  0
LAYOUT
  5
18A
102
{ACAD_XDICTIONARY
360
6D0
102
}
102
{ACAD_REACTORS
330
187
102
}
330
187
100
AcDbPlotSettings
  1

  2
RICOH imagio Neo 602 RPCS
  4

  6

 40
0.0
 41
0.0
 42
0.0
 43
0.0
 44
0.0
 45
0.0
 46
0.0
 47
0.0
 48
0.0
 49
0.0
140
0.0
141
0.0
142
1.0
143
1.0
 70
   688
 72
     0
 73
     0
 74
     5
  7

 75
    16
147
1.0
148
0.0
149
0.0
100
AcDbLayout
  1
レイアウト1
 70
     0
 71
     1
 10
0.0
 20
0.0
 11
12.0
 21
9.0
 12
0.0
 22
0.0
 32
0.0
 14
1.000000000000000E+20
 24
1.000000000000000E+20
 34
1.000000000000000E+20
 15
-1.000000000000000E+20
 25
-1.000000000000000E+20
 35
-1.000000000000000E+20
146
0.0
 13
0.0
 23
0.0
 33
0.0
 16
1.0
 26
0.0
 36
0.0
 17
0.0
 27
1.0
 37
0.0
 76
     0
330
B
  0
MATERIAL
  5
228
102
{ACAD_XDICTIONARY
360
229
102
}
102
{ACAD_REACTORS
330
183
102
}
330
183
100
AcDbMaterial
  1
ByBlock
 72
     0
 43
0.0208333333333333
 43
0.0
 43
0.0
 43
0.0
 43
0.0
 43
0.0208333333333333
 43
0.0
 43
0.0
 43
0.0
 43
0.0
 43
1.0
 43
0.0
 43
0.0
 43
0.0
 43
0.0
 43
1.0
 77
     0
 47
0.0208333333333333
 47
0.0
 47
0.0
 47
0.0
 47
0.0
 47
0.0208333333333333
 47
0.0
 47
0.0
 47
0.0
 47
0.0
 47
1.0
 47
0.0
 47
0.0
 47
0.0
 47
0.0
 47
1.0
171
     0
 49
0.0208333333333333
 49
0.0
 49
0.0
 49
0.0
 49
0.0
 49
0.0208333333333333
 49
0.0
 49
0.0
 49
0.0
 49
0.0
 49
1.0
 49
0.0
 49
0.0
 49
0.0
 49
0.0
 49
1.0
175
     0
142
0.0208333333333333
142
0.0
142
0.0
142
0.0
142
0.0
142
0.0208333333333333
142
0.0
142
0.0
142
0.0
142
0.0
142
1.0
142
0.0
142
0.0
142
0.0
142
0.0
142
1.0
179
     0
144
0.0208333333333333
144
0.0
144
0.0
144
0.0
144
0.0
144
0.0208333333333333
144
0.0
144
0.0
144
0.0
144
0.0
144
1.0
144
0.0
144
0.0
144
0.0
144
0.0
144
1.0
147
0.0208333333333333
147
0.0
147
0.0
147
0.0
147
0.0
147
0.0208333333333333
147
0.0
147
0.0
147
0.0
147
0.0
147
1.0
147
0.0
147
0.0
147
0.0
147
0.0
147
1.0
  0
MATERIAL
  5
220
102
{ACAD_XDICTIONARY
360
221
102
}
102
{ACAD_REACTORS
330
183
102
}
330
183
100
AcDbMaterial
  1
ByLayer
 72
     0
 43
0.0208333333333333
 43
0.0
 43
0.0
 43
0.0
 43
0.0
 43
0.0208333333333333
 43
0.0
 43
0.0
 43
0.0
 43
0.0
 43
1.0
 43
0.0
 43
0.0
 43
0.0
 43
0.0
 43
1.0
 77
     0
 47
0.0208333333333333
 47
0.0
 47
0.0
 47
0.0
 47
0.0
 47
0.0208333333333333
 47
0.0
 47
0.0
 47
0.0
 47
0.0
 47
1.0
 47
0.0
 47
0.0
 47
0.0
 47
0.0
 47
1.0
171
     0
 49
0.0208333333333333
 49
0.0
 49
0.0
 49
0.0
 49
0.0
 49
0.0208333333333333
 49
0.0
 49
0.0
 49
0.0
 49
0.0
 49
1.0
 49
0.0
 49
0.0
 49
0.0
 49
0.0
 49
1.0
175
     0
142
0.0208333333333333
142
0.0
142
0.0
142
0.0
142
0.0
142
0.0208333333333333
142
0.0
142
0.0
142
0.0
142
0.0
142
1.0
142
0.0
142
0.0
142
0.0
142
0.0
142
1.0
179
     0
144
0.0208333333333333
144
0.0
144
0.0
144
0.0
144
0.0
144
0.0208333333333333
144
0.0
144
0.0
144
0.0
144
0.0
144
1.0
144
0.0
144
0.0
144
0.0
144
0.0
144
1.0
147
0.0208333333333333
147
0.0
147
0.0
147
0.0
147
0.0
147
0.0208333333333333
147
0.0
147
0.0
147
0.0
147
0.0
147
1.0
147
0.0
147
0.0
147
0.0
147
0.0
147
1.0
  0
MATERIAL
  5
230
102
{ACAD_XDICTIONARY
360
231
102
}
102
{ACAD_REACTORS
330
183
102
}
330
183
100
AcDbMaterial
  1
Global
 72
     0
 43
0.0208333333333333
 43
0.0
 43
0.0
 43
0.0
 43
0.0
 43
0.0208333333333333
 43
0.0
 43
0.0
 43
0.0
 43
0.0
 43
1.0
 43
0.0
 43
0.0
 43
0.0
 43
0.0
 43
1.0
 77
     0
 47
0.0208333333333333
 47
0.0
 47
0.0
 47
0.0
 47
0.0
 47
0.0208333333333333
 47
0.0
 47
0.0
 47
0.0
 47
0.0
 47
1.0
 47
0.0
 47
0.0
 47
0.0
 47
0.0
 47
1.0
171
     0
 49
0.0208333333333333
 49
0.0
 49
0.0
 49
0.0
 49
0.0
 49
0.0208333333333333
 49
0.0
 49
0.0
 49
0.0
 49
0.0
 49
1.0
 49
0.0
 49
0.0
 49
0.0
 49
0.0
 49
1.0
175
     0
142
0.0208333333333333
142
0.0
142
0.0
142
0.0
142
0.0
142
0.0208333333333333
142
0.0
142
0.0
142
0.0
142
0.0
142
1.0
142
0.0
142
0.0
142
0.0
142
0.0
142
1.0
179
     0
144
0.0208333333333333
144
0.0
144
0.0
144
0.0
144
0.0
144
0.0208333333333333
144
0.0
144
0.0
144
0.0
144
0.0
144
1.0
144
0.0
144
0.0
144
0.0
144
0.0
144
1.0
147
0.0208333333333333
147
0.0
147
0.0
147
0.0
147
0.0
147
0.0208333333333333
147
0.0
147
0.0
147
0.0
147
0.0
147
1.0
147
0.0
147
0.0
147
0.0
147
0.0
147
1.0
  0
MLEADERSTYLE
  5
25F
102
{ACAD_REACTORS
330
25E
102
}
330
25E
100
AcDbMLeaderStyle
170
     2
171
     1
172
     0
 90
        2
 40
0.0
 41
0.0
173
     1
 91
-1056964608
340
11
 92
       -2
290
     1
 42
2.0
291
     1
 43
0.36
  3
Standard
 44
4.0
300

342
17
174
     1
178
     6
175
     1
176
     0
 93
-1056964608
 45
4.0
292
     0
297
     0
 46
4.0
 94
-1056964608
 47
1.0
 49
1.0
140
1.0
293
     1
141
0.0
294
     1
177
     0
142
1.0
295
     0
296
     0
143
0.125
1001
ACAD_MLEADERVER
1070
     2
  0
MLINESTYLE
  5
1C
102
{ACAD_REACTORS
330
1B
102
}
330
1B
100
AcDbMlineStyle
  2
STANDARD
 70
     0
  3

 62
     0
 51
90.0
 52
90.0
 71
     2
 49
0.5
 62
   256
  6
BYLAYER
 49
-0.5
 62
   256
  6
BYLAYER
  0
ACDBPLACEHOLDER
  5
182
102
{ACAD_REACTORS
330
181
102
}
330
181
  0
SCALE
  5
24D
102
{ACAD_REACTORS
330
24C
102
}
330
24C
100
AcDbScale
 70
     0
300
1:1
140
1.0
141
1.0
290
     1
  0
SCALE
  5
24E
102
{ACAD_REACTORS
330
24C
102
}
330
24C
100
AcDbScale
 70
     0
300
1:2
140
1.0
141
2.0
290
     0
  0
SCALE
  5
24F
102
{ACAD_REACTORS
330
24C
102
}
330
24C
100
AcDbScale
 70
     0
300
1:4
140
1.0
141
4.0
290
     0
  0
SCALE
  5
250
102
{ACAD_REACTORS
330
24C
102
}
330
24C
100
AcDbScale
 70
     0
300
1:5
140
1.0
141
5.0
290
     0
  0
SCALE
  5
251
102
{ACAD_REACTORS
330
24C
102
}
330
24C
100
AcDbScale
 70
     0
300
1:8
140
1.0
141
8.0
290
     0
  0
SCALE
  5
252
102
{ACAD_REACTORS
330
24C
102
}
330
24C
100
AcDbScale
 70
     0
300
1:10
140
1.0
141
10.0
290
     0
  0
SCALE
  5
253
102
{ACAD_REACTORS
330
24C
102
}
330
24C
100
AcDbScale
 70
     0
300
1:16
140
1.0
141
16.0
290
     0
  0
SCALE
  5
254
102
{ACAD_REACTORS
330
24C
102
}
330
24C
100
AcDbScale
 70
     0
300
1:20
140
1.0
141
20.0
290
     0
  0
SCALE
  5
255
102
{ACAD_REACTORS
330
24C
102
}
330
24C
100
AcDbScale
 70
     0
300
1:30
140
1.0
141
30.0
290
     0
  0
SCALE
  5
256
102
{ACAD_REACTORS
330
24C
102
}
330
24C
100
AcDbScale
 70
     0
300
1:40
140
1.0
141
40.0
290
     0
  0
SCALE
  5
257
102
{ACAD_REACTORS
330
24C
102
}
330
24C
100
AcDbScale
 70
     0
300
1:50
140
1.0
141
50.0
290
     0
  0
SCALE
  5
258
102
{ACAD_REACTORS
330
24C
102
}
330
24C
100
AcDbScale
 70
     0
300
1:100
140
1.0
141
100.0
290
     0
  0
SCALE
  5
259
102
{ACAD_REACTORS
330
24C
102
}
330
24C
100
AcDbScale
 70
     0
300
2:1
140
2.0
141
1.0
290
     0
  0
SCALE
  5
25A
102
{ACAD_REACTORS
330
24C
102
}
330
24C
100
AcDbScale
 70
     0
300
4:1
140
4.0
141
1.0
290
     0
  0
SCALE
  5
25B
102
{ACAD_REACTORS
330
24C
102
}
330
24C
100
AcDbScale
 70
     0
300
8:1
140
8.0
141
1.0
290
     0
  0
SCALE
  5
25C
102
{ACAD_REACTORS
330
24C
102
}
330
24C
100
AcDbScale
 70
     0
300
10:1
140
10.0
141
1.0
290
     0
  0
SCALE
  5
25D
102
{ACAD_REACTORS
330
24C
102
}
330
24C
100
AcDbScale
 70
     0
300
100:1
140
100.0
141
1.0
290
     0
  0
TABLESTYLE
  5
186
102
{ACAD_XDICTIONARY
360
3D1
102
}
102
{ACAD_REACTORS
330
185
102
}
330
185
100
AcDbTableStyle
  3
Standard
 70
     0
 71
     0
 40
1.5
 41
1.5
280
     0
281
     0
  7
MX_NOTE_STANDARD
140
4.5
170
     2
 62
     0
 63
     7
283
     0
274
    -2
284
     1
 64
     0
275
    -2
285
     1
 65
     0
276
    -2
286
     1
 66
     0
277
    -2
287
     1
 67
     0
278
    -2
288
     1
 68
     0
279
    -2
289
     1
 69
     0
  7
MX_NOTE_STANDARD
140
6.0
170
     5
 62
     0
 63
     7
283
     0
274
    -2
284
     1
 64
     0
275
    -2
285
     1
 65
     0
276
    -2
286
     1
 66
     0
277
    -2
287
     1
 67
     0
278
    -2
288
     1
 68
     0
279
    -2
289
     1
 69
     0
  7
MX_NOTE_STANDARD
140
4.5
170
     5
 62
     0
 63
     7
283
     0
274
    -2
284
     1
 64
     0
275
    -2
285
     1
 65
     0
276
    -2
286
     1
 66
     0
277
    -2
287
     1
 67
     0
278
    -2
288
     1
 68
     0
279
    -2
289
     1
 69
     0
  0
VISUALSTYLE
  5
23E
102
{ACAD_XDICTIONARY
360
6E0
102
}
102
{ACAD_REACTORS
330
238
102
}
330
238
100
AcDbVisualStyle
  2

 70
     4
 71
     0
 72
     2
 73
     0
 90
        0
 40
-0.6
 41
-30.0
 62
     5
 63
     7
 74
     1
 91
        4
 64
     7
 65
   257
 75
     1
175
     1
 42
1.0
 92
        0
 66
   257
 43
1.0
 76
     1
 77
     6
 78
     2
 67
     7
 79
     5
170
     0
171
     0
290
     0
174
     0
 93
        1
 44
0.0
173
     0
291
     0
 45
0.0
1001
ACAD
1000
AcDbSavedByObjectVersion
1070
     0
  0
VISUALSTYLE
  5
240
102
{ACAD_XDICTIONARY
360
6E4
102
}
102
{ACAD_REACTORS
330
238
102
}
330
238
100
AcDbVisualStyle
  2

 70
     6
 71
     1
 72
     2
 73
     2
 90
        0
 40
-0.6
 41
-30.0
 62
     5
 63
     7
 74
     2
 91
        2
 64
     7
 65
   257
 75
     2
175
     1
 42
179.0
 92
        0
 66
   257
 43
1.0
 76
     1
 77
     6
 78
     2
 67
     7
 79
     3
170
     0
171
     0
290
     0
174
     0
 93
        1
 44
0.0
173
     0
291
     0
 45
0.0
1001
ACAD
1000
AcDbSavedByObjectVersion
1070
     0
  0
VISUALSTYLE
  5
23F
102
{ACAD_XDICTIONARY
360
6E2
102
}
102
{ACAD_REACTORS
330
238
102
}
330
238
100
AcDbVisualStyle
  2

 70
     5
 71
     0
 72
     2
 73
     0
 90
        0
 40
-0.6
 41
-30.0
 62
     5
 63
     7
 74
     1
 91
        4
 64
     7
 65
   257
 75
     1
175
     1
 42
1.0
 92
        0
 66
   257
 43
1.0
 76
     1
 77
     6
 78
     2
 67
     7
 79
     5
170
     0
171
     0
290
     0
174
     0
 93
        1
 44
0.0
173
     0
291
     0
 45
0.0
1001
ACAD
1000
AcDbSavedByObjectVersion
1070
     0
  0
VISUALSTYLE
  5
23D
102
{ACAD_XDICTIONARY
360
6DE
102
}
102
{ACAD_REACTORS
330
238
102
}
330
238
100
AcDbVisualStyle
  2

 70
     7
 71
     1
 72
     0
 73
     1
 90
        0
 40
-0.6
 41
-30.0
 62
     5
 63
     7
 74
     0
 91
        4
 64
     7
 65
   257
 75
     1
175
     1
 42
1.0
 92
        8
 66
     7
 43
1.0
 76
     1
 77
     6
 78
     2
 67
     7
 79
     5
170
     0
171
     0
290
     0
174
     0
 93
        1
 44
0.0
173
     0
291
     1
 45
0.0
1001
ACAD
1000
AcDbSavedByObjectVersion
1070
     0
  0
VISUALSTYLE
  5
244
102
{ACAD_XDICTIONARY
360
6EC
102
}
102
{ACAD_REACTORS
330
238
102
}
330
238
100
AcDbVisualStyle
  2

 70
    12
 71
     2
 72
     2
 73
     0
 90
        0
 40
-0.6
 41
-30.0
 62
     5
 63
     7
 74
     1
 91
        4
 64
     7
 65
   257
 75
     1
175
     1
 42
1.0
 92
        8
 66
     7
 43
1.0
 76
     1
 77
     6
 78
     2
 67
     7
 79
     5
170
     0
171
     0
290
     0
174
     0
 93
        1
 44
50.0
173
     0
291
     1
 45
0.0
1001
ACAD
1000
AcDbSavedByObjectVersion
1070
     0
  0
VISUALSTYLE
  5
248
102
{ACAD_XDICTIONARY
360
6F4
102
}
102
{ACAD_REACTORS
330
238
102
}
330
238
100
AcDbVisualStyle
  2

 70
    16
 71
     2
 72
     2
 73
     3
 90
        0
 40
-0.6
 41
-30.0
 62
     5
 63
     8
 74
     1
 91
        4
 64
     7
 65
   257
 75
     1
175
     1
 42
1.0
 92
        8
 66
     8
 43
1.0
 76
     1
 77
     6
 78
     2
 67
     7
 79
     5
170
     0
171
     0
290
     0
174
     0
 93
        1
 44
0.0
173
     0
291
     1
 45
0.0
1001
ACAD
1000
AcDbSavedByObjectVersion
1070
     0
  0
VISUALSTYLE
  5
241
102
{ACAD_XDICTIONARY
360
6E6
102
}
102
{ACAD_REACTORS
330
238
102
}
330
238
100
AcDbVisualStyle
  2

 70
     9
 71
     3
 72
     2
 73
     0
 90
        0
 40
-0.6
 41
-30.0
 62
     5
 63
     7
 74
     2
 91
        2
 64
     7
 65
   257
 75
     1
175
     1
 42
179.0
 92
        8
 66
     7
 43
1.0
 76
     1
 77
     6
 78
     2
 67
     7
 79
     3
170
     0
171
     0
290
     0
174
     0
 93
        1
 44
0.0
173
     0
291
     0
 45
0.0
1001
ACAD
1000
AcDbSavedByObjectVersion
1070
     0
  0
VISUALSTYLE
  5
243
102
{ACAD_XDICTIONARY
360
6EA
102
}
102
{ACAD_REACTORS
330
238
102
}
330
238
100
AcDbVisualStyle
  2

 70
    11
 71
     2
 72
     2
 73
     0
 90
        0
 40
-0.6
 41
-30.0
 62
     5
 63
     7
 74
     1
 91
        4
 64
     7
 65
   257
 75
     1
175
     1
 42
1.0
 92
        8
 66
     7
 43
1.0
 76
     1
 77
     6
 78
     2
 67
     7
 79
     5
170
     0
171
     0
290
     0
174
     0
 93
        1
 44
-50.0
173
     0
291
     1
 45
0.0
1001
ACAD
1000
AcDbSavedByObjectVersion
1070
     0
  0
VISUALSTYLE
  5
24B
102
{ACAD_XDICTIONARY
360
6FA
102
}
102
{ACAD_REACTORS
330
238
102
}
330
238
100
AcDbVisualStyle
  2

 70
    22
 71
     2
 72
     2
 73
     0
 90
        0
 40
-0.6
 41
-30.0
 62
     5
 63
     7
 74
     1
 91
        4
 64
     7
 65
   257
 75
     1
175
     1
 42
1.0
 92
        8
 66
     7
 43
1.0
 76
     1
 77
     6
 78
     2
 67
     7
 79
     5
170
     0
171
     0
290
     0
174
     0
 93
        1
 44
0.0
173
     0
291
     1
 45
0.0
1001
ACAD
1000
AcDbSavedByObjectVersion
1070
     0
  0
VISUALSTYLE
  5
247
102
{ACAD_XDICTIONARY
360
6F2
102
}
102
{ACAD_REACTORS
330
238
102
}
330
238
100
AcDbVisualStyle
  2

 70
    15
 71
     2
 72
     2
 73
     0
 90
        0
 40
-0.6
 41
-30.0
 62
     5
 63
     7
 74
     1
 91
        4
 64
     7
 65
   257
 75
     1
175
     1
 42
1.0
 92
        8
 66
     7
 43
1.0
 76
     1
 77
     6
 78
     2
 67
     7
 79
     5
170
     0
171
     0
290
     0
174
     0
 93
        1
 44
0.0
173
     0
291
     1
 45
0.0
1001
ACAD
1000
AcDbSavedByObjectVersion
1070
     0
  0
VISUALSTYLE
  5
239
102
{ACAD_XDICTIONARY
360
6D6
102
}
102
{ACAD_REACTORS
330
238
102
}
330
238
100
AcDbVisualStyle
  2

 70
     0
 71
     2
 72
     1
 73
     1
 90
        2
 40
-0.6
 41
30.0
 62
     5
 63
     7
 74
     0
 91
        4
 64
     7
 65
   257
 75
     1
175
     1
 42
1.0
 92
        8
 66
     7
 43
1.0
 76
     1
 77
     6
 78
     2
 67
     7
 79
     5
170
     0
171
     0
290
     0
174
     0
 93
       13
 44
0.0
173
     0
291
     1
 45
0.0
1001
ACAD
1000
AcDbSavedByObjectVersion
1070
     0
  0
VISUALSTYLE
  5
23A
102
{ACAD_XDICTIONARY
360
6D8
102
}
102
{ACAD_REACTORS
330
238
102
}
330
238
100
AcDbVisualStyle
  2

 70
     1
 71
     2
 72
     1
 73
     1
 90
        2
 40
-0.6
 41
30.0
 62
     5
 63
     7
 74
     1
 91
        4
 64
     7
 65
   257
 75
     1
175
     1
 42
1.0
 92
        0
 66
   257
 43
1.0
 76
     1
 77
     6
 78
     2
 67
     7
 79
     5
170
     0
171
     0
290
     0
174
     0
 93
       13
 44
0.0
173
     0
291
     1
 45
0.0
1001
ACAD
1000
AcDbSavedByObjectVersion
1070
     0
  0
VISUALSTYLE
  5
23B
102
{ACAD_XDICTIONARY
360
6DA
102
}
102
{ACAD_REACTORS
330
238
102
}
330
238
100
AcDbVisualStyle
  2

 70
     2
 71
     2
 72
     2
 73
     1
 90
        2
 40
-0.6
 41
30.0
 62
     5
 63
     7
 74
     0
 91
        4
 64
     7
 65
   257
 75
     1
175
     1
 42
1.0
 92
        0
 66
     7
 43
1.0
 76
     1
 77
     6
 78
     2
 67
     7
 79
     5
170
     0
171
     0
290
     0
174
     0
 93
       13
 44
0.0
173
     0
291
     1
 45
0.0
1001
ACAD
1000
AcDbSavedByObjectVersion
1070
     0
  0
VISUALSTYLE
  5
23C
102
{ACAD_XDICTIONARY
360
6DC
102
}
102
{ACAD_REACTORS
330
238
102
}
330
238
100
AcDbVisualStyle
  2

 70
     3
 71
     2
 72
     2
 73
     1
 90
        2
 40
-0.6
 41
30.0
 62
     5
 63
     7
 74
     1
 91
        4
 64
     7
 65
   257
 75
     1
175
     1
 42
1.0
 92
        0
 66
   257
 43
1.0
 76
     1
 77
     6
 78
     2
 67
     7
 79
     5
170
     0
171
     0
290
     0
174
     0
 93
       13
 44
0.0
173
     0
291
     1
 45
0.0
1001
ACAD
1000
AcDbSavedByObjectVersion
1070
     0
  0
VISUALSTYLE
  5
249
102
{ACAD_XDICTIONARY
360
6F6
102
}
102
{ACAD_REACTORS
330
238
102
}
330
238
100
AcDbVisualStyle
  2

 70
    20
 71
     2
 72
     2
 73
     0
 90
        0
 40
-0.6
 41
-30.0
 62
     5
 63
     7
 74
     1
 91
        4
 64
     7
 65
   257
 75
     1
175
     1
 42
1.0
 92
       10
 66
     7
 43
1.0
 76
     1
 77
     6
 78
     2
 67
     7
 79
     5
170
     0
171
     0
290
     0
174
     0
 93
        1
 44
0.0
173
     0
291
     1
 45
0.0
1001
ACAD
1000
AcDbSavedByObjectVersion
1070
     0
  0
VISUALSTYLE
  5
246
102
{ACAD_XDICTIONARY
360
6F0
102
}
102
{ACAD_REACTORS
330
238
102
}
330
238
100
AcDbVisualStyle
  2

 70
    14
 71
     2
 72
     2
 73
     0
 90
        0
 40
-0.6
 41
-30.0
 62
     5
 63
     7
 74
     1
 91
        4
 64
     7
 65
   257
 75
     7
175
     7
 42
1.0
 92
        8
 66
     7
 43
1.0
 76
     1
 77
     6
 78
     2
 67
     7
 79
     5
170
     0
171
     0
290
     0
174
     0
 93
        1
 44
0.0
173
     0
291
     1
 45
0.0
1001
ACAD
1000
AcDbSavedByObjectVersion
1070
     0
  0
VISUALSTYLE
  5
24A
102
{ACAD_XDICTIONARY
360
6F8
102
}
102
{ACAD_REACTORS
330
238
102
}
330
238
100
AcDbVisualStyle
  2

 70
    21
 71
     2
 72
     2
 73
     0
 90
        0
 40
-0.6
 41
-30.0
 62
     5
 63
     7
 74
     1
 91
        4
 64
     7
 65
   257
 75
     1
175
     1
 42
1.0
 92
        9
 66
     7
 43
1.0
 76
     1
 77
     6
 78
     2
 67
     7
 79
     5
170
     0
171
     0
290
     0
174
     0
 93
        1
 44
0.0
173
     0
291
     1
 45
0.0
1001
ACAD
1000
AcDbSavedByObjectVersion
1070
     0
  0
VISUALSTYLE
  5
242
102
{ACAD_XDICTIONARY
360
6E8
102
}
102
{ACAD_REACTORS
330
238
102
}
330
238
100
AcDbVisualStyle
  2

 70
     8
 71
     2
 72
     2
 73
     0
 90
        0
 40
-0.6
 41
-30.0
 62
     5
 63
     7
 74
     1
 91
        0
 64
     7
 65
   257
 75
     1
175
     1
 42
1.0
 92
        8
 66
     8
 43
1.0
 76
     1
 77
     6
 78
     2
 67
     7
 79
     5
170
     0
171
     0
290
     0
174
     0
 93
       13
 44
0.0
173
     0
291
     0
 45
0.0
1001
ACAD
1000
AcDbSavedByObjectVersion
1070
     0
  0
VISUALSTYLE
  5
245
102
{ACAD_XDICTIONARY
360
6EE
102
}
102
{ACAD_REACTORS
330
238
102
}
330
238
100
AcDbVisualStyle
  2

 70
    13
 71
     2
 72
     2
 73
     0
 90
        0
 40
-0.6
 41
-30.0
 62
     5
 63
     7
 74
     1
 91
        4
 64
     7
 65
   257
 75
     1
175
     1
 42
1.0
 92
       12
 66
     7
 43
1.0
 76
     1
 77
     6
 78
     2
 67
     7
 79
     5
170
     0
171
     0
290
     0
174
     0
 93
        1
 44
0.0
173
     0
291
     1
 45
0.0
1001
ACAD
1000
AcDbSavedByObjectVersion
1070
     0
  0
DICTIONARYVAR
  5
3CC
102
{ACAD_REACTORS
330
21B
102
}
330
21B
100
DictionaryVariables
280
     0
  1
1:1
  0
DICTIONARYVAR
  5
3CB
102
{ACAD_REACTORS
330
21B
102
}
330
21B
100
DictionaryVariables
280
     0
  1
STANDARD
  0
DICTIONARYVAR
  5
21C
102
{ACAD_REACTORS
330
21B
102
}
330
21B
100
DictionaryVariables
280
     0
  1
STANDARD
  0
DICTIONARYVAR
  5
3D0
102
{ACAD_REACTORS
330
21B
102
}
330
21B
100
DictionaryVariables
280
     0
  1
1
  0
DICTIONARYVAR
  5
3CE
102
{ACAD_REACTORS
330
21B
102
}
330
21B
100
DictionaryVariables
280
     0
  1
0
  0
DICTIONARYVAR
  5
3CD
102
{ACAD_REACTORS
330
21B
102
}
330
21B
100
DictionaryVariables
280
     0
  1
127
  0
DICTIONARYVAR
  5
6BE
102
{ACAD_REACTORS
330
21B
102
}
330
21B
100
DictionaryVariables
280
     0
  1
2
  0
DICTIONARY
  5
2C4
102
{ACAD_REACTORS
330
2BA
102
}
330
2BA
100
AcDbDictionary
281
     1
  0
XRECORD
  5
21A
102
{ACAD_REACTORS
330
218
102
}
330
218
100
AcDbXrecord
280
     1
330
2C
330
2D
330
39
330
3A
330
47
330
48
330
55
330
56
330
101
330
102
330
10D
330
10E
330
1DC
330
1DD
330
1E6
330
1E7
330
1EE
330
1EF
330
1F7
330
1F8
330
200
330
201
330
209
330
20A
  0
DICTIONARY
  5
6CE
330
189
100
AcDbDictionary
280
     1
281
     1
  3
ACAD_XREC_ROUNDTRIP
360
6CF
  0
DICTIONARY
  5
6D0
330
18A
100
AcDbDictionary
280
     1
281
     1
  3
ACAD_XREC_ROUNDTRIP
360
6D1
  0
DICTIONARY
  5
229
330
228
100
AcDbDictionary
280
     1
281
     1
  3
ACAD_XREC_ROUNDTRIP
360
3E5
  3
BUMPTILE
360
22B
  3
DIFFUSETILE
360
22A
  3
OPACITYTILE
360
22E
  3
REFLECTIONTILE
360
22D
  3
REFRACTIONTILE
360
22F
  3
SPECULARTILE
360
22C
  0
DICTIONARY
  5
221
330
220
100
AcDbDictionary
280
     1
281
     1
  3
ACAD_XREC_ROUNDTRIP
360
3E4
  3
BUMPTILE
360
223
  3
DIFFUSETILE
360
222
  3
OPACITYTILE
360
226
  3
REFLECTIONTILE
360
225
  3
REFRACTIONTILE
360
227
  3
SPECULARTILE
360
224
  0
DICTIONARY
  5
231
330
230
100
AcDbDictionary
280
     1
281
     1
  3
ACAD_XREC_ROUNDTRIP
360
3E6
  3
BUMPTILE
360
233
  3
DIFFUSETILE
360
232
  3
OPACITYTILE
360
236
  3
REFLECTIONTILE
360
235
  3
REFRACTIONTILE
360
237
  3
SPECULARTILE
360
234
  0
DICTIONARY
  5
3D1
330
186
100
AcDbDictionary
280
     1
281
     1
  3
ACAD_ROUNDTRIP_2008_TABLESTYLE_CELLSTYLEMAP
360
6BF
  3
ACAD_XREC_ROUNDTRIP
360
6CD
  0
DICTIONARY
  5
6E0
330
23E
100
AcDbDictionary
280
     1
281
     1
  3
ACAD_XREC_ROUNDTRIP
360
6E1
  0
DICTIONARY
  5
6E4
330
240
100
AcDbDictionary
280
     1
281
     1
  3
ACAD_XREC_ROUNDTRIP
360
6E5
  0
DICTIONARY
  5
6E2
330
23F
100
AcDbDictionary
280
     1
281
     1
  3
ACAD_XREC_ROUNDTRIP
360
6E3
  0
DICTIONARY
  5
6DE
330
23D
100
AcDbDictionary
280
     1
281
     1
  3
ACAD_XREC_ROUNDTRIP
360
6DF
  0
DICTIONARY
  5
6EC
330
244
100
AcDbDictionary
280
     1
281
     1
  3
ACAD_XREC_ROUNDTRIP
360
6ED
  0
DICTIONARY
  5
6F4
330
248
100
AcDbDictionary
280
     1
281
     1
  3
ACAD_XREC_ROUNDTRIP
360
6F5
  0
DICTIONARY
  5
6E6
330
241
100
AcDbDictionary
280
     1
281
     1
  3
ACAD_XREC_ROUNDTRIP
360
6E7
  0
DICTIONARY
  5
6EA
330
243
100
AcDbDictionary
280
     1
281
     1
  3
ACAD_XREC_ROUNDTRIP
360
6EB
  0
DICTIONARY
  5
6FA
330
24B
100
AcDbDictionary
280
     1
281
     1
  3
ACAD_XREC_ROUNDTRIP
360
6FB
  0
DICTIONARY
  5
6F2
330
247
100
AcDbDictionary
280
     1
281
     1
  3
ACAD_XREC_ROUNDTRIP
360
6F3
  0
DICTIONARY
  5
6D6
330
239
100
AcDbDictionary
280
     1
281
     1
  3
ACAD_XREC_ROUNDTRIP
360
6D7
  0
DICTIONARY
  5
6D8
330
23A
100
AcDbDictionary
280
     1
281
     1
  3
ACAD_XREC_ROUNDTRIP
360
6D9
  0
DICTIONARY
  5
6DA
330
23B
100
AcDbDictionary
280
     1
281
     1
  3
ACAD_XREC_ROUNDTRIP
360
6DB
  0
DICTIONARY
  5
6DC
330
23C
100
AcDbDictionary
280
     1
281
     1
  3
ACAD_XREC_ROUNDTRIP
360
6DD
  0
DICTIONARY
  5
6F6
330
249
100
AcDbDictionary
280
     1
281
     1
  3
ACAD_XREC_ROUNDTRIP
360
6F7
  0
DICTIONARY
  5
6F0
330
246
100
AcDbDictionary
280
     1
281
     1
  3
ACAD_XREC_ROUNDTRIP
360
6F1
  0
DICTIONARY
  5
6F8
330
24A
100
AcDbDictionary
280
     1
281
     1
  3
ACAD_XREC_ROUNDTRIP
360
6F9
  0
DICTIONARY
  5
6E8
330
242
100
AcDbDictionary
280
     1
281
     1
  3
ACAD_XREC_ROUNDTRIP
360
6E9
  0
DICTIONARY
  5
6EE
330
245
100
AcDbDictionary
280
     1
281
     1
  3
ACAD_XREC_ROUNDTRIP
360
6EF
  0
XRECORD
  5
6CF
102
{ACAD_REACTORS
330
6CE
102
}
330
6CE
100
AcDbXrecord
280
     1
102
SHADEPLOT
 70
     0
102
SHADEPLOTRESLEVEL
 70
     2
102
SHADEPLOTCUSTOMDPI
 70
   300
  0
XRECORD
  5
6D1
102
{ACAD_REACTORS
330
6D0
102
}
330
6D0
100
AcDbXrecord
280
     1
102
SHADEPLOT
 70
     0
102
SHADEPLOTRESLEVEL
 70
     2
102
SHADEPLOTCUSTOMDPI
 70
   300
  0
XRECORD
  5
3E5
102
{ACAD_REACTORS
330
229
102
}
330
229
100
AcDbXrecord
280
     1
102
MATERIAL
148
0.0
149
0.0
149
0.0
 93
        0
 94
      127
282
     0
 72
     0
 77
     0
171
     0
175
     0
179
     0
273
     0
  0
XRECORD
  5
22B
102
{ACAD_REACTORS
330
229
102
}
330
229
100
AcDbXrecord
280
     1
270
     1
271
     1
  0
XRECORD
  5
22A
102
{ACAD_REACTORS
330
229
102
}
330
229
100
AcDbXrecord
280
     1
270
     1
271
     1
  0
XRECORD
  5
22E
102
{ACAD_REACTORS
330
229
102
}
330
229
100
AcDbXrecord
280
     1
270
     1
271
     1
  0
XRECORD
  5
22D
102
{ACAD_REACTORS
330
229
102
}
330
229
100
AcDbXrecord
280
     1
270
     1
271
     1
  0
XRECORD
  5
22F
102
{ACAD_REACTORS
330
229
102
}
330
229
100
AcDbXrecord
280
     1
270
     1
271
     1
  0
XRECORD
  5
22C
102
{ACAD_REACTORS
330
229
102
}
330
229
100
AcDbXrecord
280
     1
270
     1
271
     1
  0
XRECORD
  5
3E4
102
{ACAD_REACTORS
330
221
102
}
330
221
100
AcDbXrecord
280
     1
102
MATERIAL
148
0.0
149
0.0
149
0.0
 93
        0
 94
      127
282
     0
 72
     0
 77
     0
171
     0
175
     0
179
     0
273
     0
  0
XRECORD
  5
223
102
{ACAD_REACTORS
330
221
102
}
330
221
100
AcDbXrecord
280
     1
270
     1
271
     1
  0
XRECORD
  5
222
102
{ACAD_REACTORS
330
221
102
}
330
221
100
AcDbXrecord
280
     1
270
     1
271
     1
  0
XRECORD
  5
226
102
{ACAD_REACTORS
330
221
102
}
330
221
100
AcDbXrecord
280
     1
270
     1
271
     1
  0
XRECORD
  5
225
102
{ACAD_REACTORS
330
221
102
}
330
221
100
AcDbXrecord
280
     1
270
     1
271
     1
  0
XRECORD
  5
227
102
{ACAD_REACTORS
330
221
102
}
330
221
100
AcDbXrecord
280
     1
270
     1
271
     1
  0
XRECORD
  5
224
102
{ACAD_REACTORS
330
221
102
}
330
221
100
AcDbXrecord
280
     1
270
     1
271
     1
  0
XRECORD
  5
3E6
102
{ACAD_REACTORS
330
231
102
}
330
231
100
AcDbXrecord
280
     1
102
MATERIAL
148
0.0
149
0.0
149
0.0
 93
        0
 94
      127
282
     0
 72
     0
 77
     0
171
     0
175
     0
179
     0
273
     0
  0
XRECORD
  5
233
102
{ACAD_REACTORS
330
231
102
}
330
231
100
AcDbXrecord
280
     1
270
     1
271
     1
  0
XRECORD
  5
232
102
{ACAD_REACTORS
330
231
102
}
330
231
100
AcDbXrecord
280
     1
270
     1
271
     1
  0
XRECORD
  5
236
102
{ACAD_REACTORS
330
231
102
}
330
231
100
AcDbXrecord
280
     1
270
     1
271
     1
  0
XRECORD
  5
235
102
{ACAD_REACTORS
330
231
102
}
330
231
100
AcDbXrecord
280
     1
270
     1
271
     1
  0
XRECORD
  5
237
102
{ACAD_REACTORS
330
231
102
}
330
231
100
AcDbXrecord
280
     1
270
     1
271
     1
  0
XRECORD
  5
234
102
{ACAD_REACTORS
330
231
102
}
330
231
100
AcDbXrecord
280
     1
270
     1
271
     1
  0
CELLSTYLEMAP
  5
6BF
102
{ACAD_REACTORS
330
3D1
102
}
330
3D1
100
AcDbCellStyleMap
 90
        3
300
CELLSTYLE
  1
TABLEFORMAT_BEGIN
 90
        5
170
     1
 91
        0
 92
    32768
 62
   257
 93
        1
300
CONTENTFORMAT
  1
CONTENTFORMAT_BEGIN
 90
        0
 91
        0
 92
        4
 93
        0
300

 40
0.0
140
1.0
 94
        5
 62
     0
340
17
144
6.0
309
CONTENTFORMAT_END
171
     1
301
MARGIN
  1
CELLMARGIN_BEGIN
 40
1.5
 40
1.5
 40
1.5
 40
1.5
 40
0.18
 40
0.18
309
CELLMARGIN_END
 94
        6
 95
        1
302
GRIDFORMAT
  1
GRIDFORMAT_BEGIN
 90
        0
 91
        1
 62
     0
 92
       -2
340
0
 93
        0
 40
0.045
309
GRIDFORMAT_END
 95
        2
302
GRIDFORMAT
  1
GRIDFORMAT_BEGIN
 90
        0
 91
        1
 62
     0
 92
       -2
340
0
 93
        0
 40
0.045
309
GRIDFORMAT_END
 95
        4
302
GRIDFORMAT
  1
GRIDFORMAT_BEGIN
 90
        0
 91
        1
 62
     0
 92
       -2
340
0
 93
        0
 40
0.045
309
GRIDFORMAT_END
 95
        8
302
GRIDFORMAT
  1
GRIDFORMAT_BEGIN
 90
        0
 91
        1
 62
     0
 92
       -2
340
0
 93
        0
 40
0.045
309
GRIDFORMAT_END
 95
       16
302
GRIDFORMAT
  1
GRIDFORMAT_BEGIN
 90
        0
 91
        1
 62
     0
 92
       -2
340
0
 93
        0
 40
0.045
309
GRIDFORMAT_END
 95
       32
302
GRIDFORMAT
  1
GRIDFORMAT_BEGIN
 90
        0
 91
        1
 62
     0
 92
       -2
340
0
 93
        0
 40
0.045
309
GRIDFORMAT_END
309
TABLEFORMAT_END
  1
CELLSTYLE_BEGIN
 90
        1
 91
        1
300
_TITLE
309
CELLSTYLE_END
300
CELLSTYLE
  1
TABLEFORMAT_BEGIN
 90
        5
170
     1
 91
        0
 92
        0
 62
   257
 93
        1
300
CONTENTFORMAT
  1
CONTENTFORMAT_BEGIN
 90
        0
 91
        0
 92
        4
 93
        0
300

 40
0.0
140
1.0
 94
        5
 62
     0
340
17
144
4.5
309
CONTENTFORMAT_END
171
     1
301
MARGIN
  1
CELLMARGIN_BEGIN
 40
1.5
 40
1.5
 40
1.5
 40
1.5
 40
0.18
 40
0.18
309
CELLMARGIN_END
 94
        6
 95
        1
302
GRIDFORMAT
  1
GRIDFORMAT_BEGIN
 90
        0
 91
        1
 62
     0
 92
       -2
340
0
 93
        0
 40
0.045
309
GRIDFORMAT_END
 95
        2
302
GRIDFORMAT
  1
GRIDFORMAT_BEGIN
 90
        0
 91
        1
 62
     0
 92
       -2
340
0
 93
        0
 40
0.045
309
GRIDFORMAT_END
 95
        4
302
GRIDFORMAT
  1
GRIDFORMAT_BEGIN
 90
        0
 91
        1
 62
     0
 92
       -2
340
0
 93
        0
 40
0.045
309
GRIDFORMAT_END
 95
        8
302
GRIDFORMAT
  1
GRIDFORMAT_BEGIN
 90
        0
 91
        1
 62
     0
 92
       -2
340
0
 93
        0
 40
0.045
309
GRIDFORMAT_END
 95
       16
302
GRIDFORMAT
  1
GRIDFORMAT_BEGIN
 90
        0
 91
        1
 62
     0
 92
       -2
340
0
 93
        0
 40
0.045
309
GRIDFORMAT_END
 95
       32
302
GRIDFORMAT
  1
GRIDFORMAT_BEGIN
 90
        0
 91
        1
 62
     0
 92
       -2
340
0
 93
        0
 40
0.045
309
GRIDFORMAT_END
309
TABLEFORMAT_END
  1
CELLSTYLE_BEGIN
 90
        2
 91
        1
300
_HEADER
309
CELLSTYLE_END
300
CELLSTYLE
  1
TABLEFORMAT_BEGIN
 90
        5
170
     1
 91
        0
 92
        0
 62
   257
 93
        1
300
CONTENTFORMAT
  1
CONTENTFORMAT_BEGIN
 90
        0
 91
        0
 92
        4
 93
        0
300

 40
0.0
140
1.0
 94
        2
 62
     0
340
17
144
4.5
309
CONTENTFORMAT_END
171
     1
301
MARGIN
  1
CELLMARGIN_BEGIN
 40
1.5
 40
1.5
 40
1.5
 40
1.5
 40
0.18
 40
0.18
309
CELLMARGIN_END
 94
        6
 95
        1
302
GRIDFORMAT
  1
GRIDFORMAT_BEGIN
 90
        0
 91
        1
 62
     0
 92
       -2
340
0
 93
        0
 40
0.045
309
GRIDFORMAT_END
 95
        2
302
GRIDFORMAT
  1
GRIDFORMAT_BEGIN
 90
        0
 91
        1
 62
     0
 92
       -2
340
0
 93
        0
 40
0.045
309
GRIDFORMAT_END
 95
        4
302
GRIDFORMAT
  1
GRIDFORMAT_BEGIN
 90
        0
 91
        1
 62
     0
 92
       -2
340
0
 93
        0
 40
0.045
309
GRIDFORMAT_END
 95
        8
302
GRIDFORMAT
  1
GRIDFORMAT_BEGIN
 90
        0
 91
        1
 62
     0
 92
       -2
340
0
 93
        0
 40
0.045
309
GRIDFORMAT_END
 95
       16
302
GRIDFORMAT
  1
GRIDFORMAT_BEGIN
 90
        0
 91
        1
 62
     0
 92
       -2
340
0
 93
        0
 40
0.045
309
GRIDFORMAT_END
 95
       32
302
GRIDFORMAT
  1
GRIDFORMAT_BEGIN
 90
        0
 91
        1
 62
     0
 92
       -2
340
0
 93
        0
 40
0.045
309
GRIDFORMAT_END
309
TABLEFORMAT_END
  1
CELLSTYLE_BEGIN
 90
        3
 91
        2
300
_DATA
309
CELLSTYLE_END
  0
XRECORD
  5
6CD
102
{ACAD_REACTORS
330
3D1
102
}
330
3D1
100
AcDbXrecord
280
     1
102
ACAD_ROUNDTRIP_PRE2007_TABLESTYLE
 90
        4
 91
        0
  1

 92
        4
 93
        0
  2

 94
        4
 95
        0
  3

  0
XRECORD
  5
6E1
102
{ACAD_REACTORS
330
6E0
102
}
330
6E0
100
AcDbXrecord
280
     1
102
RTVSPropertyOp0
 70
     1
102
RTVSPropertyOp1
 70
     1
102
RTVSPropertyOp2
 70
     1
102
RTVSPropertyOp3
 70
     1
102
RTVSPropertyOp4
 70
     1
102
RTVSPropertyOp5
 70
     1
102
RTVSPropertyOp6
 70
     1
102
RTVSPropertyOp7
 70
     1
102
RTVSPropertyOp8
 70
     1
102
RTVSPropertyOp9
 70
     1
102
RTVSPropertyOp10
 70
     1
102
RTVSPropertyOp11
 70
     1
102
RTVSPropertyOp12
 70
     1
102
RTVSPropertyOp13
 70
     1
102
RTVSPropertyOp14
 70
     1
102
RTVSPropertyOp15
 70
     1
102
RTVSPropertyOp16
 70
     1
102
RTVSPropertyOp17
 70
     1
102
RTVSPropertyOp18
 70
     1
102
RTVSPropertyOp19
 70
     1
102
RTVSPropertyOp20
 70
     1
102
RTVSPropertyOp21
 70
     1
102
RTVSPropertyOp22
 70
     1
102
RTVSPropertyOp23
 70
     1
102
RTVSPropertyOp24
 70
     1
102
RTVSPropertyOp25
 70
     1
102
RTVSPropertyOp26
 70
     1
102
RTVSPropertyOp27
 70
     1
  0
XRECORD
  5
6E5
102
{ACAD_REACTORS
330
6E4
102
}
330
6E4
100
AcDbXrecord
280
     1
102
RTVSPropertyOp0
 70
     1
102
RTVSPropertyOp1
 70
     1
102
RTVSPropertyOp2
 70
     1
102
RTVSPropertyOp3
 70
     1
102
RTVSPropertyOp4
 70
     1
102
RTVSPropertyOp5
 70
     1
102
RTVSPropertyOp6
 70
     1
102
RTVSPropertyOp7
 70
     1
102
RTVSPropertyOp8
 70
     1
102
RTVSPropertyOp9
 70
     1
102
RTVSPropertyOp10
 70
     1
102
RTVSPropertyOp11
 70
     1
102
RTVSPropertyOp12
 70
     1
102
RTVSPropertyOp13
 70
     1
102
RTVSPropertyOp14
 70
     1
102
RTVSPropertyOp15
 70
     1
102
RTVSPropertyOp16
 70
     1
102
RTVSPropertyOp17
 70
     1
102
RTVSPropertyOp18
 70
     1
102
RTVSPropertyOp19
 70
     1
102
RTVSPropertyOp20
 70
     1
102
RTVSPropertyOp21
 70
     1
102
RTVSPropertyOp22
 70
     1
102
RTVSPropertyOp23
 70
     1
102
RTVSPropertyOp24
 70
     1
102
RTVSPropertyOp25
 70
     1
102
RTVSPropertyOp26
 70
     1
102
RTVSPropertyOp27
 70
     1
  0
XRECORD
  5
6E3
102
{ACAD_REACTORS
330
6E2
102
}
330
6E2
100
AcDbXrecord
280
     1
102
RTVSPropertyOp0
 70
     1
102
RTVSPropertyOp1
 70
     1
102
RTVSPropertyOp2
 70
     1
102
RTVSPropertyOp3
 70
     1
102
RTVSPropertyOp4
 70
     1
102
RTVSPropertyOp5
 70
     1
102
RTVSPropertyOp6
 70
     1
102
RTVSPropertyOp7
 70
     1
102
RTVSPropertyOp8
 70
     1
102
RTVSPropertyOp9
 70
     1
102
RTVSPropertyOp10
 70
     1
102
RTVSPropertyOp11
 70
     1
102
RTVSPropertyOp12
 70
     1
102
RTVSPropertyOp13
 70
     1
102
RTVSPropertyOp14
 70
     1
102
RTVSPropertyOp15
 70
     1
102
RTVSPropertyOp16
 70
     1
102
RTVSPropertyOp17
 70
     1
102
RTVSPropertyOp18
 70
     1
102
RTVSPropertyOp19
 70
     1
102
RTVSPropertyOp20
 70
     1
102
RTVSPropertyOp21
 70
     1
102
RTVSPropertyOp22
 70
     1
102
RTVSPropertyOp23
 70
     1
102
RTVSPropertyOp24
 70
     1
102
RTVSPropertyOp25
 70
     1
102
RTVSPropertyOp26
 70
     1
102
RTVSPropertyOp27
 70
     1
  0
XRECORD
  5
6DF
102
{ACAD_REACTORS
330
6DE
102
}
330
6DE
100
AcDbXrecord
280
     1
102
RTVSPropertyOp0
 70
     1
102
RTVSPropertyOp1
 70
     1
102
RTVSPropertyOp2
 70
     1
102
RTVSPropertyOp3
 70
     1
102
RTVSPropertyOp4
 70
     1
102
RTVSPropertyOp5
 70
     1
102
RTVSPropertyOp6
 70
     1
102
RTVSPropertyOp7
 70
     1
102
RTVSPropertyOp8
 70
     1
102
RTVSPropertyOp9
 70
     1
102
RTVSPropertyOp10
 70
     1
102
RTVSPropertyOp11
 70
     1
102
RTVSPropertyOp12
 70
     1
102
RTVSPropertyOp13
 70
     1
102
RTVSPropertyOp14
 70
     1
102
RTVSPropertyOp15
 70
     1
102
RTVSPropertyOp16
 70
     1
102
RTVSPropertyOp17
 70
     1
102
RTVSPropertyOp18
 70
     1
102
RTVSPropertyOp19
 70
     1
102
RTVSPropertyOp20
 70
     1
102
RTVSPropertyOp21
 70
     1
102
RTVSPropertyOp22
 70
     1
102
RTVSPropertyOp23
 70
     1
102
RTVSPropertyOp24
 70
     1
102
RTVSPropertyOp25
 70
     1
102
RTVSPropertyOp26
 70
     1
102
RTVSPropertyOp27
 70
     1
  0
XRECORD
  5
6ED
102
{ACAD_REACTORS
330
6EC
102
}
330
6EC
100
AcDbXrecord
280
     1
102
RTVSPropertyOp0
 70
     1
102
RTVSPropertyOp1
 70
     1
102
RTVSPropertyOp2
 70
     1
102
RTVSPropertyOp3
 70
     1
102
RTVSPropertyOp4
 70
     1
102
RTVSPropertyOp5
 70
     1
102
RTVSPropertyOp6
 70
     1
102
RTVSPropertyOp7
 70
     1
102
RTVSPropertyOp8
 70
     1
102
RTVSPropertyOp9
 70
     1
102
RTVSPropertyOp10
 70
     1
102
RTVSPropertyOp11
 70
     1
102
RTVSPropertyOp12
 70
     1
102
RTVSPropertyOp13
 70
     1
102
RTVSPropertyOp14
 70
     1
102
RTVSPropertyOp15
 70
     1
102
RTVSPropertyOp16
 70
     1
102
RTVSPropertyOp17
 70
     1
102
RTVSPropertyOp18
 70
     1
102
RTVSPropertyOp19
 70
     1
102
RTVSPropertyOp20
 70
     1
102
RTVSPropertyOp21
 70
     1
102
RTVSPropertyOp22
 70
     1
102
RTVSPropertyOp23
 70
     1
102
RTVSPropertyOp24
 70
     1
102
RTVSPropertyOp25
 70
     1
102
RTVSPropertyOp26
 70
     1
102
RTVSPropertyOp27
 70
     1
  0
XRECORD
  5
6F5
102
{ACAD_REACTORS
330
6F4
102
}
330
6F4
100
AcDbXrecord
280
     1
102
RTVSPropertyOp0
 70
     1
102
RTVSPropertyOp1
 70
     1
102
RTVSPropertyOp2
 70
     1
102
RTVSPropertyOp3
 70
     1
102
RTVSPropertyOp4
 70
     1
102
RTVSPropertyOp5
 70
     1
102
RTVSPropertyOp6
 70
     1
102
RTVSPropertyOp7
 70
     1
102
RTVSPropertyOp8
 70
     1
102
RTVSPropertyOp9
 70
     1
102
RTVSPropertyOp10
 70
     1
102
RTVSPropertyOp11
 70
     1
102
RTVSPropertyOp12
 70
     1
102
RTVSPropertyOp13
 70
     1
102
RTVSPropertyOp14
 70
     1
102
RTVSPropertyOp15
 70
     1
102
RTVSPropertyOp16
 70
     1
102
RTVSPropertyOp17
 70
     1
102
RTVSPropertyOp18
 70
     1
102
RTVSPropertyOp19
 70
     1
102
RTVSPropertyOp20
 70
     1
102
RTVSPropertyOp21
 70
     1
102
RTVSPropertyOp22
 70
     1
102
RTVSPropertyOp23
 70
     1
102
RTVSPropertyOp24
 70
     1
102
RTVSPropertyOp25
 70
     1
102
RTVSPropertyOp26
 70
     1
102
RTVSPropertyOp27
 70
     1
  0
XRECORD
  5
6E7
102
{ACAD_REACTORS
330
6E6
102
}
330
6E6
100
AcDbXrecord
280
     1
102
RTVSPropertyOp0
 70
     1
102
RTVSPropertyOp1
 70
     1
102
RTVSPropertyOp2
 70
     1
102
RTVSPropertyOp3
 70
     1
102
RTVSPropertyOp4
 70
     1
102
RTVSPropertyOp5
 70
     1
102
RTVSPropertyOp6
 70
     1
102
RTVSPropertyOp7
 70
     1
102
RTVSPropertyOp8
 70
     1
102
RTVSPropertyOp9
 70
     1
102
RTVSPropertyOp10
 70
     1
102
RTVSPropertyOp11
 70
     1
102
RTVSPropertyOp12
 70
     1
102
RTVSPropertyOp13
 70
     1
102
RTVSPropertyOp14
 70
     1
102
RTVSPropertyOp15
 70
     1
102
RTVSPropertyOp16
 70
     1
102
RTVSPropertyOp17
 70
     1
102
RTVSPropertyOp18
 70
     1
102
RTVSPropertyOp19
 70
     1
102
RTVSPropertyOp20
 70
     1
102
RTVSPropertyOp21
 70
     1
102
RTVSPropertyOp22
 70
     1
102
RTVSPropertyOp23
 70
     1
102
RTVSPropertyOp24
 70
     1
102
RTVSPropertyOp25
 70
     1
102
RTVSPropertyOp26
 70
     1
102
RTVSPropertyOp27
 70
     1
  0
XRECORD
  5
6EB
102
{ACAD_REACTORS
330
6EA
102
}
330
6EA
100
AcDbXrecord
280
     1
102
RTVSPropertyOp0
 70
     1
102
RTVSPropertyOp1
 70
     1
102
RTVSPropertyOp2
 70
     1
102
RTVSPropertyOp3
 70
     1
102
RTVSPropertyOp4
 70
     1
102
RTVSPropertyOp5
 70
     1
102
RTVSPropertyOp6
 70
     1
102
RTVSPropertyOp7
 70
     1
102
RTVSPropertyOp8
 70
     1
102
RTVSPropertyOp9
 70
     1
102
RTVSPropertyOp10
 70
     1
102
RTVSPropertyOp11
 70
     1
102
RTVSPropertyOp12
 70
     1
102
RTVSPropertyOp13
 70
     1
102
RTVSPropertyOp14
 70
     1
102
RTVSPropertyOp15
 70
     1
102
RTVSPropertyOp16
 70
     1
102
RTVSPropertyOp17
 70
     1
102
RTVSPropertyOp18
 70
     1
102
RTVSPropertyOp19
 70
     1
102
RTVSPropertyOp20
 70
     1
102
RTVSPropertyOp21
 70
     1
102
RTVSPropertyOp22
 70
     1
102
RTVSPropertyOp23
 70
     1
102
RTVSPropertyOp24
 70
     1
102
RTVSPropertyOp25
 70
     1
102
RTVSPropertyOp26
 70
     1
102
RTVSPropertyOp27
 70
     1
  0
XRECORD
  5
6FB
102
{ACAD_REACTORS
330
6FA
102
}
330
6FA
100
AcDbXrecord
280
     1
102
RTVSPropertyOp0
 70
     0
102
RTVSPropertyOp1
 70
     0
102
RTVSPropertyOp2
 70
     0
102
RTVSPropertyOp3
 70
     0
102
RTVSPropertyOp4
 70
     0
102
RTVSPropertyOp5
 70
     0
102
RTVSPropertyOp6
 70
     0
102
RTVSPropertyOp7
 70
     0
102
RTVSPropertyOp8
 70
     0
102
RTVSPropertyOp9
 70
     0
102
RTVSPropertyOp10
 70
     0
102
RTVSPropertyOp11
 70
     0
102
RTVSPropertyOp12
 70
     0
102
RTVSPropertyOp13
 70
     0
102
RTVSPropertyOp14
 70
     2
102
RTVSPropertyOp15
 70
     0
102
RTVSPropertyOp16
 70
     0
102
RTVSPropertyOp17
 70
     0
102
RTVSPropertyOp18
 70
     0
102
RTVSPropertyOp19
 70
     0
102
RTVSPropertyOp20
 70
     0
102
RTVSPropertyOp21
 70
     0
102
RTVSPropertyOp22
 70
     0
102
RTVSPropertyOp23
 70
     0
102
RTVSPropertyOp24
 70
     0
102
RTVSPropertyOp25
 70
     0
102
RTVSPropertyOp26
 70
     0
102
RTVSPropertyOp27
 70
     0
  0
XRECORD
  5
6F3
102
{ACAD_REACTORS
330
6F2
102
}
330
6F2
100
AcDbXrecord
280
     1
102
RTVSPropertyOp0
 70
     1
102
RTVSPropertyOp1
 70
     1
102
RTVSPropertyOp2
 70
     1
102
RTVSPropertyOp3
 70
     1
102
RTVSPropertyOp4
 70
     1
102
RTVSPropertyOp5
 70
     1
102
RTVSPropertyOp6
 70
     1
102
RTVSPropertyOp7
 70
     1
102
RTVSPropertyOp8
 70
     1
102
RTVSPropertyOp9
 70
     1
102
RTVSPropertyOp10
 70
     1
102
RTVSPropertyOp11
 70
     1
102
RTVSPropertyOp12
 70
     1
102
RTVSPropertyOp13
 70
     1
102
RTVSPropertyOp14
 70
     1
102
RTVSPropertyOp15
 70
     1
102
RTVSPropertyOp16
 70
     1
102
RTVSPropertyOp17
 70
     1
102
RTVSPropertyOp18
 70
     1
102
RTVSPropertyOp19
 70
     1
102
RTVSPropertyOp20
 70
     1
102
RTVSPropertyOp21
 70
     1
102
RTVSPropertyOp22
 70
     1
102
RTVSPropertyOp23
 70
     1
102
RTVSPropertyOp24
 70
     1
102
RTVSPropertyOp25
 70
     1
102
RTVSPropertyOp26
 70
     1
102
RTVSPropertyOp27
 70
     1
  0
XRECORD
  5
6D7
102
{ACAD_REACTORS
330
6D6
102
}
330
6D6
100
AcDbXrecord
280
     1
102
RTVSPropertyOp0
 70
     1
102
RTVSPropertyOp1
 70
     1
102
RTVSPropertyOp2
 70
     1
102
RTVSPropertyOp3
 70
     1
102
RTVSPropertyOp4
 70
     1
102
RTVSPropertyOp5
 70
     1
102
RTVSPropertyOp6
 70
     1
102
RTVSPropertyOp7
 70
     1
102
RTVSPropertyOp8
 70
     1
102
RTVSPropertyOp9
 70
     1
102
RTVSPropertyOp10
 70
     1
102
RTVSPropertyOp11
 70
     1
102
RTVSPropertyOp12
 70
     1
102
RTVSPropertyOp13
 70
     1
102
RTVSPropertyOp14
 70
     1
102
RTVSPropertyOp15
 70
     1
102
RTVSPropertyOp16
 70
     1
102
RTVSPropertyOp17
 70
     1
102
RTVSPropertyOp18
 70
     1
102
RTVSPropertyOp19
 70
     1
102
RTVSPropertyOp20
 70
     1
102
RTVSPropertyOp21
 70
     1
102
RTVSPropertyOp22
 70
     1
102
RTVSPropertyOp23
 70
     1
102
RTVSPropertyOp24
 70
     1
102
RTVSPropertyOp25
 70
     1
102
RTVSPropertyOp26
 70
     1
102
RTVSPropertyOp27
 70
     1
  0
XRECORD
  5
6D9
102
{ACAD_REACTORS
330
6D8
102
}
330
6D8
100
AcDbXrecord
280
     1
102
RTVSPropertyOp0
 70
     1
102
RTVSPropertyOp1
 70
     1
102
RTVSPropertyOp2
 70
     1
102
RTVSPropertyOp3
 70
     1
102
RTVSPropertyOp4
 70
     1
102
RTVSPropertyOp5
 70
     1
102
RTVSPropertyOp6
 70
     1
102
RTVSPropertyOp7
 70
     1
102
RTVSPropertyOp8
 70
     1
102
RTVSPropertyOp9
 70
     1
102
RTVSPropertyOp10
 70
     1
102
RTVSPropertyOp11
 70
     1
102
RTVSPropertyOp12
 70
     1
102
RTVSPropertyOp13
 70
     1
102
RTVSPropertyOp14
 70
     1
102
RTVSPropertyOp15
 70
     1
102
RTVSPropertyOp16
 70
     1
102
RTVSPropertyOp17
 70
     1
102
RTVSPropertyOp18
 70
     1
102
RTVSPropertyOp19
 70
     1
102
RTVSPropertyOp20
 70
     1
102
RTVSPropertyOp21
 70
     1
102
RTVSPropertyOp22
 70
     1
102
RTVSPropertyOp23
 70
     1
102
RTVSPropertyOp24
 70
     1
102
RTVSPropertyOp25
 70
     1
102
RTVSPropertyOp26
 70
     1
102
RTVSPropertyOp27
 70
     1
  0
XRECORD
  5
6DB
102
{ACAD_REACTORS
330
6DA
102
}
330
6DA
100
AcDbXrecord
280
     1
102
RTVSPropertyOp0
 70
     1
102
RTVSPropertyOp1
 70
     1
102
RTVSPropertyOp2
 70
     1
102
RTVSPropertyOp3
 70
     1
102
RTVSPropertyOp4
 70
     1
102
RTVSPropertyOp5
 70
     1
102
RTVSPropertyOp6
 70
     1
102
RTVSPropertyOp7
 70
     1
102
RTVSPropertyOp8
 70
     1
102
RTVSPropertyOp9
 70
     1
102
RTVSPropertyOp10
 70
     1
102
RTVSPropertyOp11
 70
     1
102
RTVSPropertyOp12
 70
     1
102
RTVSPropertyOp13
 70
     1
102
RTVSPropertyOp14
 70
     1
102
RTVSPropertyOp15
 70
     1
102
RTVSPropertyOp16
 70
     1
102
RTVSPropertyOp17
 70
     1
102
RTVSPropertyOp18
 70
     1
102
RTVSPropertyOp19
 70
     1
102
RTVSPropertyOp20
 70
     1
102
RTVSPropertyOp21
 70
     1
102
RTVSPropertyOp22
 70
     1
102
RTVSPropertyOp23
 70
     1
102
RTVSPropertyOp24
 70
     1
102
RTVSPropertyOp25
 70
     1
102
RTVSPropertyOp26
 70
     1
102
RTVSPropertyOp27
 70
     1
  0
XRECORD
  5
6DD
102
{ACAD_REACTORS
330
6DC
102
}
330
6DC
100
AcDbXrecord
280
     1
102
RTVSPropertyOp0
 70
     1
102
RTVSPropertyOp1
 70
     1
102
RTVSPropertyOp2
 70
     1
102
RTVSPropertyOp3
 70
     1
102
RTVSPropertyOp4
 70
     1
102
RTVSPropertyOp5
 70
     1
102
RTVSPropertyOp6
 70
     1
102
RTVSPropertyOp7
 70
     1
102
RTVSPropertyOp8
 70
     1
102
RTVSPropertyOp9
 70
     1
102
RTVSPropertyOp10
 70
     1
102
RTVSPropertyOp11
 70
     1
102
RTVSPropertyOp12
 70
     1
102
RTVSPropertyOp13
 70
     1
102
RTVSPropertyOp14
 70
     1
102
RTVSPropertyOp15
 70
     1
102
RTVSPropertyOp16
 70
     1
102
RTVSPropertyOp17
 70
     1
102
RTVSPropertyOp18
 70
     1
102
RTVSPropertyOp19
 70
     1
102
RTVSPropertyOp20
 70
     1
102
RTVSPropertyOp21
 70
     1
102
RTVSPropertyOp22
 70
     1
102
RTVSPropertyOp23
 70
     1
102
RTVSPropertyOp24
 70
     1
102
RTVSPropertyOp25
 70
     1
102
RTVSPropertyOp26
 70
     1
102
RTVSPropertyOp27
 70
     1
  0
XRECORD
  5
6F7
102
{ACAD_REACTORS
330
6F6
102
}
330
6F6
100
AcDbXrecord
280
     1
102
RTVSPropertyOp0
 70
     0
102
RTVSPropertyOp1
 70
     0
102
RTVSPropertyOp2
 70
     0
102
RTVSPropertyOp3
 70
     0
102
RTVSPropertyOp4
 70
     0
102
RTVSPropertyOp5
 70
     0
102
RTVSPropertyOp6
 70
     0
102
RTVSPropertyOp7
 70
     0
102
RTVSPropertyOp8
 70
     0
102
RTVSPropertyOp9
 70
     0
102
RTVSPropertyOp10
 70
     0
102
RTVSPropertyOp11
 70
     0
102
RTVSPropertyOp12
 70
     0
102
RTVSPropertyOp13
 70
     0
102
RTVSPropertyOp14
 70
     2
102
RTVSPropertyOp15
 70
     0
102
RTVSPropertyOp16
 70
     0
102
RTVSPropertyOp17
 70
     0
102
RTVSPropertyOp18
 70
     0
102
RTVSPropertyOp19
 70
     0
102
RTVSPropertyOp20
 70
     0
102
RTVSPropertyOp21
 70
     0
102
RTVSPropertyOp22
 70
     0
102
RTVSPropertyOp23
 70
     0
102
RTVSPropertyOp24
 70
     0
102
RTVSPropertyOp25
 70
     0
102
RTVSPropertyOp26
 70
     0
102
RTVSPropertyOp27
 70
     0
  0
XRECORD
  5
6F1
102
{ACAD_REACTORS
330
6F0
102
}
330
6F0
100
AcDbXrecord
280
     1
102
RTVSPropertyOp0
 70
     1
102
RTVSPropertyOp1
 70
     1
102
RTVSPropertyOp2
 70
     1
102
RTVSPropertyOp3
 70
     1
102
RTVSPropertyOp4
 70
     1
102
RTVSPropertyOp5
 70
     1
102
RTVSPropertyOp6
 70
     1
102
RTVSPropertyOp7
 70
     1
102
RTVSPropertyOp8
 70
     1
102
RTVSPropertyOp9
 70
     1
102
RTVSPropertyOp10
 70
     1
102
RTVSPropertyOp11
 70
     1
102
RTVSPropertyOp12
 70
     1
102
RTVSPropertyOp13
 70
     1
102
RTVSPropertyOp14
 70
     1
102
RTVSPropertyOp15
 70
     1
102
RTVSPropertyOp16
 70
     1
102
RTVSPropertyOp17
 70
     1
102
RTVSPropertyOp18
 70
     1
102
RTVSPropertyOp19
 70
     1
102
RTVSPropertyOp20
 70
     1
102
RTVSPropertyOp21
 70
     1
102
RTVSPropertyOp22
 70
     1
102
RTVSPropertyOp23
 70
     1
102
RTVSPropertyOp24
 70
     1
102
RTVSPropertyOp25
 70
     1
102
RTVSPropertyOp26
 70
     1
102
RTVSPropertyOp27
 70
     1
  0
XRECORD
  5
6F9
102
{ACAD_REACTORS
330
6F8
102
}
330
6F8
100
AcDbXrecord
280
     1
102
RTVSPropertyOp0
 70
     0
102
RTVSPropertyOp1
 70
     0
102
RTVSPropertyOp2
 70
     0
102
RTVSPropertyOp3
 70
     0
102
RTVSPropertyOp4
 70
     0
102
RTVSPropertyOp5
 70
     0
102
RTVSPropertyOp6
 70
     0
102
RTVSPropertyOp7
 70
     0
102
RTVSPropertyOp8
 70
     0
102
RTVSPropertyOp9
 70
     0
102
RTVSPropertyOp10
 70
     0
102
RTVSPropertyOp11
 70
     0
102
RTVSPropertyOp12
 70
     0
102
RTVSPropertyOp13
 70
     0
102
RTVSPropertyOp14
 70
     2
102
RTVSPropertyOp15
 70
     0
102
RTVSPropertyOp16
 70
     0
102
RTVSPropertyOp17
 70
     0
102
RTVSPropertyOp18
 70
     0
102
RTVSPropertyOp19
 70
     0
102
RTVSPropertyOp20
 70
     0
102
RTVSPropertyOp21
 70
     0
102
RTVSPropertyOp22
 70
     0
102
RTVSPropertyOp23
 70
     0
102
RTVSPropertyOp24
 70
     0
102
RTVSPropertyOp25
 70
     0
102
RTVSPropertyOp26
 70
     0
102
RTVSPropertyOp27
 70
     0
  0
XRECORD
  5
6E9
102
{ACAD_REACTORS
330
6E8
102
}
330
6E8
100
AcDbXrecord
280
     1
102
RTVSPropertyOp0
 70
     1
102
RTVSPropertyOp1
 70
     1
102
RTVSPropertyOp2
 70
     1
102
RTVSPropertyOp3
 70
     1
102
RTVSPropertyOp4
 70
     1
102
RTVSPropertyOp5
 70
     1
102
RTVSPropertyOp6
 70
     1
102
RTVSPropertyOp7
 70
     1
102
RTVSPropertyOp8
 70
     1
102
RTVSPropertyOp9
 70
     1
102
RTVSPropertyOp10
 70
     1
102
RTVSPropertyOp11
 70
     1
102
RTVSPropertyOp12
 70
     1
102
RTVSPropertyOp13
 70
     1
102
RTVSPropertyOp14
 70
     1
102
RTVSPropertyOp15
 70
     1
102
RTVSPropertyOp16
 70
     1
102
RTVSPropertyOp17
 70
     1
102
RTVSPropertyOp18
 70
     1
102
RTVSPropertyOp19
 70
     1
102
RTVSPropertyOp20
 70
     1
102
RTVSPropertyOp21
 70
     1
102
RTVSPropertyOp22
 70
     1
102
RTVSPropertyOp23
 70
     1
102
RTVSPropertyOp24
 70
     1
102
RTVSPropertyOp25
 70
     1
102
RTVSPropertyOp26
 70
     1
102
RTVSPropertyOp27
 70
     1
  0
XRECORD
  5
6EF
102
{ACAD_REACTORS
330
6EE
102
}
330
6EE
100
AcDbXrecord
280
     1
102
RTVSPropertyOp0
 70
     1
102
RTVSPropertyOp1
 70
     1
102
RTVSPropertyOp2
 70
     1
102
RTVSPropertyOp3
 70
     1
102
RTVSPropertyOp4
 70
     1
102
RTVSPropertyOp5
 70
     1
102
RTVSPropertyOp6
 70
     1
102
RTVSPropertyOp7
 70
     1
102
RTVSPropertyOp8
 70
     1
102
RTVSPropertyOp9
 70
     1
102
RTVSPropertyOp10
 70
     1
102
RTVSPropertyOp11
 70
     1
102
RTVSPropertyOp12
 70
     1
102
RTVSPropertyOp13
 70
     1
102
RTVSPropertyOp14
 70
     1
102
RTVSPropertyOp15
 70
     1
102
RTVSPropertyOp16
 70
     1
102
RTVSPropertyOp17
 70
     1
102
RTVSPropertyOp18
 70
     1
102
RTVSPropertyOp19
 70
     1
102
RTVSPropertyOp20
 70
     1
102
RTVSPropertyOp21
 70
     1
102
RTVSPropertyOp22
 70
     1
102
RTVSPropertyOp23
 70
     1
102
RTVSPropertyOp24
 70
     1
102
RTVSPropertyOp25
 70
     1
102
RTVSPropertyOp26
 70
     1
102
RTVSPropertyOp27
 70
     1
  0
ENDSEC
  0
EOF
