  0
SECTION
  2
HEADER
  9
$ACADVER
  1
AC1024
  9
$ACADMAINTVER
 70
     6
  9
$DWGCODEPAGE
  3
ANSI_932
  9
$TITLE
  1
VSM-Ｇ-L-5-50
  9
$AUTHOR
  1
UJ12195
  9
$CUSTOMPROPERTYTAG
  1
マネージャ
  9
$CUSTOMPROPERTY
  1

  9
$CUSTOMPROPERTYTAG
  1
会社
  9
$CUSTOMPROPERTY
  1

  9
$CUSTOMPROPERTYTAG
  1
カテゴリ
  9
$CUSTOMPROPERTY
  1

  9
$CUSTOMPROPERTYTAG
  1
部品番号
  9
$CUSTOMPROPERTY
  1
KZ2003-902A
  9
$CUSTOMPROPERTYTAG
  1
説明
  9
$CUSTOMPROPERTY
  1

  9
$CUSTOMPROPERTYTAG
  1
プロジェクト
  9
$CUSTOMPROPERTY
  1

  9
$CUSTOMPROPERTYTAG
  1
設計者
  9
$CUSTOMPROPERTY
  1
UJ12195
  9
$CUSTOMPROPERTYTAG
  1
エンジニア
  9
$CUSTOMPROPERTY
  1

  9
$CUSTOMPROPERTYTAG
  1
責任者
  9
$CUSTOMPROPERTY
  1

  9
$CUSTOMPROPERTYTAG
  1
コスト センター
  9
$CUSTOMPROPERTY
  1

  9
$CUSTOMPROPERTYTAG
  1
ベンダー
  9
$CUSTOMPROPERTY
  1

  9
$CUSTOMPROPERTYTAG
  1
ユーザ ステータス
  9
$CUSTOMPROPERTY
  1

  9
$CUSTOMPROPERTYTAG
  1
設計ステータス
  9
$CUSTOMPROPERTY
  1
作業中
  9
$CUSTOMPROPERTYTAG
  1
確認者
  9
$CUSTOMPROPERTY
  1

  9
$CUSTOMPROPERTYTAG
  1
エンジニアリング承認者
  9
$CUSTOMPROPERTY
  1

  9
$CUSTOMPROPERTYTAG
  1
製造承認者
  9
$CUSTOMPROPERTY
  1

  9
$CUSTOMPROPERTYTAG
  1
図面サイズ
  9
$CUSTOMPROPERTY
  1
A3
  9
$CUSTOMPROPERTYTAG
  1
図面種類
  9
$CUSTOMPROPERTY
  1

  9
$CUSTOMPROPERTYTAG
  1
図面番号
  9
$CUSTOMPROPERTY
  1
KZ2003-902A
  9
$CUSTOMPROPERTYTAG
  1
重量
  9
$CUSTOMPROPERTY
  1
0.103 kg
  9
$CUSTOMPROPERTYTAG
  1
流用元図番
  9
$CUSTOMPROPERTY
  1

  9
$CUSTOMPROPERTYTAG
  1
製図欄1
  9
$CUSTOMPROPERTY
  1

  9
$CUSTOMPROPERTYTAG
  1
製図欄2
  9
$CUSTOMPROPERTY
  1

  9
$CUSTOMPROPERTYTAG
  1
製図者
  9
$CUSTOMPROPERTY
  1

  9
$CUSTOMPROPERTYTAG
  1
RoHS
  9
$CUSTOMPROPERTY
  1
対応
  9
$CUSTOMPROPERTYTAG
  1
ドキュメント番号
  9
$CUSTOMPROPERTY
  1

  9
$CUSTOMPROPERTYTAG
  1
ファイル種別
  9
$CUSTOMPROPERTY
  1
ユニット
  9
$CUSTOMPROPERTYTAG
  1
メーカ型式
  9
$CUSTOMPROPERTY
  1

  9
$CUSTOMPROPERTYTAG
  1
メーカ名
  9
$CUSTOMPROPERTY
  1

  9
$CUSTOMPROPERTYTAG
  1
統一名称
  9
$CUSTOMPROPERTY
  1
測定機器
  9
$CUSTOMPROPERTYTAG
  1
表面処理
  9
$CUSTOMPROPERTY
  1

  9
$CUSTOMPROPERTYTAG
  1
品目コメント
  9
$CUSTOMPROPERTY
  1

  9
$CUSTOMPROPERTYTAG
  1
輸出管理
  9
$CUSTOMPROPERTY
  1
非該当
  9
$INSBASE
 10
0.0
 20
0.0
 30
0.0
  9
$EXTMIN
 10
0.0
 20
0.0
 30
0.0
  9
$EXTMAX
 10
420.0
 20
297.0
 30
0.0
  9
$LIMMIN
 10
0.0
 20
0.0
  9
$LIMMAX
 10
420.0
 20
297.0
  9
$ORTHOMODE
 70
     0
  9
$REGENMODE
 70
     1
  9
$FILLMODE
 70
     1
  9
$QTEXTMODE
 70
     0
  9
$MIRRTEXT
 70
     0
  9
$LTSCALE
 40
1.0
  9
$ATTMODE
 70
     1
  9
$TEXTSIZE
 40
0.2
  9
$TRACEWID
 40
0.05
  9
$TEXTSTYLE
  7
Standard
  9
$CLAYER
  8
0
  9
$CELTYPE
  6
ByLayer
  9
$CECOLOR
 62
   256
  9
$CELTSCALE
 40
1.0
  9
$DISPSILH
 70
     0
  9
$DIMSCALE
 40
1.0
  9
$DIMASZ
 40
1.799999999999999
  9
$DIMEXO
 40
0.0625
  9
$DIMDLI
 40
0.38
  9
$DIMRND
 40
0.0
  9
$DIMDLE
 40
0.0
  9
$DIMEXE
 40
0.18
  9
$DIMTP
 40
0.0
  9
$DIMTM
 40
0.0
  9
$DIMTXT
 40
0.4000000059604645
  9
$DIMCEN
 40
0.09
  9
$DIMTSZ
 40
0.0
  9
$DIMTOL
 70
     0
  9
$DIMLIM
 70
     0
  9
$DIMTIH
 70
     1
  9
$DIMTOH
 70
     1
  9
$DIMSE1
 70
     0
  9
$DIMSE2
 70
     0
  9
$DIMTAD
 70
     0
  9
$DIMZIN
 70
     0
  9
$DIMBLK
  1

  9
$DIMASO
 70
     1
  9
$DIMSHO
 70
     1
  9
$DIMPOST
  1

  9
$DIMAPOST
  1

  9
$DIMALT
 70
     0
  9
$DIMALTD
 70
     2
  9
$DIMALTF
 40
25.4
  9
$DIMLFAC
 40
1.0
  9
$DIMTOFL
 70
     0
  9
$DIMTVP
 40
0.0
  9
$DIMTIX
 70
     0
  9
$DIMSOXD
 70
     0
  9
$DIMSAH
 70
     0
  9
$DIMBLK1
  1

  9
$DIMBLK2
  1

  9
$DIMSTYLE
  2
Standard
  9
$DIMCLRD
 70
     0
  9
$DIMCLRE
 70
     0
  9
$DIMCLRT
 70
     0
  9
$DIMTFAC
 40
1.0
  9
$DIMGAP
 40
0.09
  9
$DIMJUST
 70
     0
  9
$DIMSD1
 70
     0
  9
$DIMSD2
 70
     0
  9
$DIMTOLJ
 70
     1
  9
$DIMTZIN
 70
     0
  9
$DIMALTZ
 70
     0
  9
$DIMALTTZ
 70
     0
  9
$DIMUPT
 70
     0
  9
$DIMDEC
 70
     4
  9
$DIMTDEC
 70
     4
  9
$DIMALTU
 70
     2
  9
$DIMALTTD
 70
     2
  9
$DIMTXSTY
  7
Standard
  9
$DIMAUNIT
 70
     0
  9
$DIMADEC
 70
     0
  9
$DIMALTRND
 40
0.0
  9
$DIMAZIN
 70
     0
  9
$DIMDSEP
 70
    46
  9
$DIMATFIT
 70
     3
  9
$DIMFRAC
 70
     0
  9
$DIMLDRBLK
  1

  9
$DIMLUNIT
 70
     2
  9
$DIMLWD
 70
    -2
  9
$DIMLWE
 70
    -2
  9
$DIMTMOVE
 70
     0
  9
$DIMFXL
 40
1.0
  9
$DIMFXLON
 70
     0
  9
$DIMJOGANG
 40
0.7853981633974483
  9
$DIMTFILL
 70
     0
  9
$DIMTFILLCLR
 70
     0
  9
$DIMARCSYM
 70
     0
  9
$DIMLTYPE
  6

  9
$DIMLTEX1
  6

  9
$DIMLTEX2
  6

  9
$DIMTXTDIRECTION
 70
     0
  9
$LUNITS
 70
     2
  9
$LUPREC
 70
     4
  9
$SKETCHINC
 40
0.1
  9
$FILLETRAD
 40
0.0
  9
$AUNITS
 70
     0
  9
$AUPREC
 70
     0
  9
$MENU
  1
.
  9
$ELEVATION
 40
0.0
  9
$PELEVATION
 40
0.0
  9
$THICKNESS
 40
0.0
  9
$LIMCHECK
 70
     0
  9
$CHAMFERA
 40
0.0
  9
$CHAMFERB
 40
0.0
  9
$CHAMFERC
 40
0.0
  9
$CHAMFERD
 40
0.0
  9
$SKPOLY
 70
     0
  9
$TDCREATE
 40
2456401.460203519
  9
$TDUCREATE
 40
2456401.085203519
  9
$TDUPDATE
 40
2456401.460203519
  9
$TDUUPDATE
 40
2456401.085203519
  9
$TDINDWG
 40
0.0000495023
  9
$TDUSRTIMER
 40
0.0000495023
  9
$USRTIMER
 70
     1
  9
$ANGBASE
 50
0.0
  9
$ANGDIR
 70
     0
  9
$PDMODE
 70
     0
  9
$PDSIZE
 40
0.0
  9
$PLINEWID
 40
0.0
  9
$SPLFRAME
 70
     0
  9
$SPLINETYPE
 70
     6
  9
$SPLINESEGS
 70
     8
  9
$HANDSEED
  5
AA3
  9
$SURFTAB1
 70
     6
  9
$SURFTAB2
 70
     6
  9
$SURFTYPE
 70
     6
  9
$SURFU
 70
     6
  9
$SURFV
 70
     6
  9
$UCSBASE
  2

  9
$UCSNAME
  2

  9
$UCSORG
 10
0.0
 20
0.0
 30
0.0
  9
$UCSXDIR
 10
1.0
 20
0.0
 30
0.0
  9
$UCSYDIR
 10
0.0
 20
1.0
 30
0.0
  9
$UCSORTHOREF
  2

  9
$UCSORTHOVIEW
 70
     0
  9
$UCSORGTOP
 10
0.0
 20
0.0
 30
0.0
  9
$UCSORGBOTTOM
 10
0.0
 20
0.0
 30
0.0
  9
$UCSORGLEFT
 10
0.0
 20
0.0
 30
0.0
  9
$UCSORGRIGHT
 10
0.0
 20
0.0
 30
0.0
  9
$UCSORGFRONT
 10
0.0
 20
0.0
 30
0.0
  9
$UCSORGBACK
 10
0.0
 20
0.0
 30
0.0
  9
$PUCSBASE
  2

  9
$PUCSNAME
  2

  9
$PUCSORG
 10
0.0
 20
0.0
 30
0.0
  9
$PUCSXDIR
 10
1.0
 20
0.0
 30
0.0
  9
$PUCSYDIR
 10
0.0
 20
1.0
 30
0.0
  9
$PUCSORTHOREF
  2

  9
$PUCSORTHOVIEW
 70
     0
  9
$PUCSORGTOP
 10
0.0
 20
0.0
 30
0.0
  9
$PUCSORGBOTTOM
 10
0.0
 20
0.0
 30
0.0
  9
$PUCSORGLEFT
 10
0.0
 20
0.0
 30
0.0
  9
$PUCSORGRIGHT
 10
0.0
 20
0.0
 30
0.0
  9
$PUCSORGFRONT
 10
0.0
 20
0.0
 30
0.0
  9
$PUCSORGBACK
 10
0.0
 20
0.0
 30
0.0
  9
$USERI1
 70
     0
  9
$USERI2
 70
     0
  9
$USERI3
 70
     0
  9
$USERI4
 70
     0
  9
$USERI5
 70
     0
  9
$USERR1
 40
0.0
  9
$USERR2
 40
0.0
  9
$USERR3
 40
0.0
  9
$USERR4
 40
0.0
  9
$USERR5
 40
0.0
  9
$WORLDVIEW
 70
     1
  9
$SHADEDGE
 70
     3
  9
$SHADEDIF
 70
    70
  9
$TILEMODE
 70
     1
  9
$MAXACTVP
 70
    64
  9
$PINSBASE
 10
0.0
 20
0.0
 30
0.0
  9
$PLIMCHECK
 70
     0
  9
$PEXTMIN
 10
0.0
 20
0.0
 30
0.0
  9
$PEXTMAX
 10
420.0
 20
297.0
 30
0.0
  9
$PLIMMIN
 10
0.0
 20
0.0
  9
$PLIMMAX
 10
420.0
 20
297.0
  9
$UNITMODE
 70
     0
  9
$VISRETAIN
 70
     1
  9
$PLINEGEN
 70
     0
  9
$PSLTSCALE
 70
     1
  9
$TREEDEPTH
 70
  3020
  9
$CMLSTYLE
  2
Standard
  9
$CMLJUST
 70
     0
  9
$CMLSCALE
 40
1.0
  9
$PROXYGRAPHICS
 70
     1
  9
$MEASUREMENT
 70
     1
  9
$CELWEIGHT
370
    -1
  9
$ENDCAPS
280
     0
  9
$JOINSTYLE
280
     0
  9
$LWDISPLAY
290
     0
  9
$INSUNITS
 70
     4
  9
$HYPERLINKBASE
  1

  9
$STYLESHEET
  1

  9
$XEDIT
290
     1
  9
$CEPSNTYPE
380
     0
  9
$PSTYLEMODE
290
     1
  9
$FINGERPRINTGUID
  2
{FFEBDAB7-70A9-4F9B-9494-C89F14534EB1}
  9
$VERSIONGUID
  2
{59809D50-3436-4351-92F0-401A6F1273CE}
  9
$EXTNAMES
290
     1
  9
$PSVPSCALE
 40
0.0
  9
$OLESTARTUP
290
     0
  9
$SORTENTS
280
   127
  9
$INDEXCTL
280
     0
  9
$HIDETEXT
280
     1
  9
$XCLIPFRAME
280
     2
  9
$HALOGAP
280
     0
  9
$OBSCOLOR
 70
   257
  9
$OBSLTYPE
280
     0
  9
$INTERSECTIONDISPLAY
280
     0
  9
$INTERSECTIONCOLOR
 70
   257
  9
$DIMASSOC
280
     1
  9
$PROJECTNAME
  1

  9
$CAMERADISPLAY
290
     0
  9
$LENSLENGTH
 40
50.0
  9
$CAMERAHEIGHT
 40
0.0
  9
$STEPSPERSEC
 40
2.0
  9
$STEPSIZE
 40
6.0
  9
$3DDWFPREC
 40
2.0
  9
$PSOLWIDTH
 40
0.25
  9
$PSOLHEIGHT
 40
4.0
  9
$LOFTANG1
 40
1.570796326794896
  9
$LOFTANG2
 40
1.570796326794896
  9
$LOFTMAG1
 40
0.0
  9
$LOFTMAG2
 40
0.0
  9
$LOFTPARAM
 70
     7
  9
$LOFTNORMALS
280
     1
  9
$LATITUDE
 40
37.795
  9
$LONGITUDE
 40
-122.394
  9
$NORTHDIRECTION
 40
0.0
  9
$TIMEZONE
 70
 -8000
  9
$LIGHTGLYPHDISPLAY
280
     1
  9
$TILEMODELIGHTSYNCH
280
     1
  9
$CMATERIAL
347
11
  9
$SOLIDHIST
280
     1
  9
$SHOWHIST
280
     1
  9
$DWFFRAME
280
     2
  9
$DGNFRAME
280
     0
  9
$REALWORLDSCALE
290
     1
  9
$INTERFERECOLOR
 62
     1
  9
$INTERFEREOBJVS
345
33
  9
$INTERFEREVPVS
346
30
  9
$CSHADOW
280
     0
  9
$SHADOWPLANELOCATION
 40
0.0
  0
ENDSEC
  0
SECTION
  2
CLASSES
  0
CLASS
  1
ACDBDICTIONARYWDFLT
  2
AcDbDictionaryWithDefault
  3
ObjectDBX Classes
 90
        0
 91
        1
280
     0
281
     0
  0
CLASS
  1
MATERIAL
  2
AcDbMaterial
  3
ObjectDBX Classes
 90
     1153
 91
        3
280
     0
281
     0
  0
CLASS
  1
VISUALSTYLE
  2
AcDbVisualStyle
  3
ObjectDBX Classes
 90
     4095
 91
       19
280
     0
281
     0
  0
CLASS
  1
SCALE
  2
AcDbScale
  3
ObjectDBX Classes
 90
     1153
 91
       33
280
     0
281
     0
  0
CLASS
  1
TABLESTYLE
  2
AcDbTableStyle
  3
ObjectDBX Classes
 90
     4095
 91
        1
280
     0
281
     0
  0
CLASS
  1
MLEADERSTYLE
  2
AcDbMLeaderStyle
  3
ACDB_MLEADERSTYLE_CLASS
 90
     4095
 91
        1
280
     0
281
     0
  0
CLASS
  1
DICTIONARYVAR
  2
AcDbDictionaryVar
  3
ObjectDBX Classes
 90
        0
 91
        3
280
     0
281
     0
  0
CLASS
  1
CELLSTYLEMAP
  2
AcDbCellStyleMap
  3
ObjectDBX Classes
 90
     1152
 91
        1
280
     0
281
     0
  0
ENDSEC
  0
SECTION
  2
TABLES
  0
TABLE
  2
VPORT
  5
8
330
0
100
AcDbSymbolTable
 70
     1
  0
VPORT
  5
62
330
8
100
AcDbSymbolTableRecord
100
AcDbViewportTableRecord
  2
*Active
 70
     0
 10
0.0
 20
0.0
 11
1.0
 21
1.0
 12
210.0
 22
148.5
 13
0.0
 23
0.0
 14
1.0
 24
1.0
 15
0.0
 25
0.0
 16
0.0
 26
0.0
 36
1.0
 17
0.0
 27
0.0
 37
0.0
 40
297.0
 41
1.414141414141414
 42
50.0
 43
0.0
 44
0.0
 50
0.0
 51
0.0
 71
     0
 72
   100
 73
     1
 74
     1
 75
     0
 76
     0
 77
     0
 78
     0
281
     0
 65
     1
110
0.0
120
0.0
130
0.0
111
1.0
121
0.0
131
0.0
112
0.0
122
1.0
132
0.0
 79
     0
146
0.0
 60
     3
 61
     5
292
     1
282
     1
141
0.0
142
0.0
 63
   250
421
  3355443
  0
ENDTAB
  0
TABLE
  2
LTYPE
  5
5
330
0
100
AcDbSymbolTable
 70
    59
  0
LTYPE
  5
66
330
5
100
AcDbSymbolTableRecord
100
AcDbLinetypeTableRecord
  2
ByBlock
 70
     0
  3

 72
    65
 73
     0
 40
0.0
  0
LTYPE
  5
67
330
5
100
AcDbSymbolTableRecord
100
AcDbLinetypeTableRecord
  2
ByLayer
 70
     0
  3

 72
    65
 73
     0
 40
0.0
  0
LTYPE
  5
68
330
5
100
AcDbSymbolTableRecord
100
AcDbLinetypeTableRecord
  2
Continuous
 70
     0
  3
Solid line
 72
    65
 73
     0
 40
0.0
  0
LTYPE
  5
7F
330
5
100
AcDbSymbolTableRecord
100
AcDbLinetypeTableRecord
  2
CHAIN
 70
     0
  3
Chain ____ _ ____ _ ____ _ ____ _ ____ _ ____
 72
    65
 73
     4
 40
0.3543
 49
0.2362
 74
     0
 49
-0.0295
 74
     0
 49
0.0591
 74
     0
 49
-0.0295
 74
     0
  0
LTYPE
  5
80
330
5
100
AcDbSymbolTableRecord
100
AcDbLinetypeTableRecord
  2
DASH_DOT
 70
     0
  3
Dash dot __ . __ . __ . __ . __ . __ . __ . __
 72
    65
 73
     4
 40
0.37
 49
0.24
 74
     0
 49
-0.06
 74
     0
 49
0.01
 74
     0
 49
-0.06
 74
     0
  0
LTYPE
  5
81
330
5
100
AcDbSymbolTableRecord
100
AcDbLinetypeTableRecord
  2
DASH_DOUBLE_DOT
 70
     0
  3
Dash Double-Dot __ . . __ . . __ . . __ . .
 72
    65
 73
     6
 40
0.4398
 49
0.24
 74
     0
 49
-0.06
 74
     0
 49
0.0098
 74
     0
 49
-0.06
 74
     0
 49
0.01
 74
     0
 49
-0.06
 74
     0
  0
LTYPE
  5
82
330
5
100
AcDbSymbolTableRecord
100
AcDbLinetypeTableRecord
  2
DASH_TRIPLE_DOT
 70
     0
  3
Dash Triple-Dot _ . . . _ . . . _ . . . _
 72
    65
 73
     8
 40
0.51
 49
0.24
 74
     0
 49
-0.06
 74
     0
 49
0.01
 74
     0
 49
-0.06
 74
     0
 49
0.01
 74
     0
 49
-0.06
 74
     0
 49
0.01
 74
     0
 49
-0.06
 74
     0
  0
LTYPE
  5
83
330
5
100
AcDbSymbolTableRecord
100
AcDbLinetypeTableRecord
  2
DASHED
 70
     0
  3
Dashed __ __ __ __ __ __ __ __ __ __ __ __ __ _
 72
    65
 73
     2
 40
0.2067
 49
0.1654
 74
     0
 49
-0.0413
 74
     0
  0
LTYPE
  5
84
330
5
100
AcDbSymbolTableRecord
100
AcDbLinetypeTableRecord
  2
DASHED_SPACE
 70
     0
  3
Dashed Space __ __ __ __ __ __ __ __ __ __ __ _
 72
    65
 73
     2
 40
0.0826
 49
0.0413
 74
     0
 49
-0.0413
 74
     0
  0
LTYPE
  5
85
330
5
100
AcDbSymbolTableRecord
100
AcDbLinetypeTableRecord
  2
DOTTED
 70
     0
  3
Dotted . . . . . . . . . . . . . . . . . . . . 
 72
    65
 73
     2
 40
0.0482
 49
0.0069
 74
     0
 49
-0.0413
 74
     0
  0
LTYPE
  5
86
330
5
100
AcDbSymbolTableRecord
100
AcDbLinetypeTableRecord
  2
DOUBLE_DASH_CHAIN
 70
     0
  3
Double Dash Chain ___ _ _ ___ _ _ ___ _ _ ___ _
 72
    65
 73
     6
 40
1.240299999999999
 49
0.6614
 74
     0
 49
-0.0827
 74
     0
 49
0.1654
 74
     0
 49
-0.0827
 74
     0
 49
0.1654
 74
     0
 49
-0.0827
 74
     0
  0
LTYPE
  5
87
330
5
100
AcDbSymbolTableRecord
100
AcDbLinetypeTableRecord
  2
DOUBLE_DASH_DOT
 70
     0
  3
Double Dash Dot __ __ . __ __ . __ __ . __ _
 72
    65
 73
     6
 40
0.67
 49
0.24
 74
     0
 49
-0.06
 74
     0
 49
0.24
 74
     0
 49
-0.06
 74
     0
 49
0.01
 74
     0
 49
-0.06
 74
     0
  0
LTYPE
  5
88
330
5
100
AcDbSymbolTableRecord
100
AcDbLinetypeTableRecord
  2
DOUBLE_DASH_DOUBLE_DOT
 70
     0
  3
Double-dash double-dot _ _ . . _ _ . . _
 72
    65
 73
     8
 40
0.7400000000000001
 49
0.24
 74
     0
 49
-0.06
 74
     0
 49
0.24
 74
     0
 49
-0.06
 74
     0
 49
0.01
 74
     0
 49
-0.06
 74
     0
 49
0.01
 74
     0
 49
-0.06
 74
     0
  0
LTYPE
  5
89
330
5
100
AcDbSymbolTableRecord
100
AcDbLinetypeTableRecord
  2
DOUBLE_DASH_TRIPLE_DOT
 70
     0
  3
Double Dash Triple Dot __ __ . . . __ __ . . .
 72
    65
 73
    10
 40
0.8100000000000001
 49
0.24
 74
     0
 49
-0.06
 74
     0
 49
0.24
 74
     0
 49
-0.06
 74
     0
 49
0.01
 74
     0
 49
-0.06
 74
     0
 49
0.01
 74
     0
 49
-0.06
 74
     0
 49
0.01
 74
     0
 49
-0.06
 74
     0
  0
LTYPE
  5
8A
330
5
100
AcDbSymbolTableRecord
100
AcDbLinetypeTableRecord
  2
LONG_DASH_DOTTED
 70
     0
  3
Long Dash Dotted ____ . ____ . ____ . ____ . _
 72
    65
 73
     4
 40
0.61
 49
0.48
 74
     0
 49
-0.06
 74
     0
 49
0.01
 74
     0
 49
-0.06
 74
     0
  0
LTYPE
  5
8B
330
5
100
AcDbSymbolTableRecord
100
AcDbLinetypeTableRecord
  2
LONG_DASH_DOUBLE_DOT
 70
     0
  3
Long Dash Double Dot ____ . . ____ . . ____ . .
 72
    65
 73
     6
 40
0.3345
 49
0.2362
 74
     0
 49
-0.0295
 74
     0
 49
0.0049
 74
     0
 49
-0.0295
 74
     0
 49
0.0049
 74
     0
 49
-0.0295
 74
     0
  0
LTYPE
  5
8C
330
5
100
AcDbSymbolTableRecord
100
AcDbLinetypeTableRecord
  2
LONG_DASH_TRIPLE_DOT
 70
     0
  3
Long Dash Triple Dot ____ ... ____ ... ____
 72
    65
 73
     8
 40
0.75
 49
0.48
 74
     0
 49
-0.06
 74
     0
 49
0.01
 74
     0
 49
-0.06
 74
     0
 49
0.01
 74
     0
 49
-0.06
 74
     0
 49
0.01
 74
     0
 49
-0.06
 74
     0
  0
LTYPE
  5
8D
330
5
100
AcDbSymbolTableRecord
100
AcDbLinetypeTableRecord
  2
BORDER
 70
     0
  3
Border __ __ . __ __ . __ __ . __ __ . __ __ .
 72
    65
 73
     6
 40
44.45
 49
12.7
 74
     0
 49
-6.349999999999999
 74
     0
 49
12.7
 74
     0
 49
-6.349999999999999
 74
     0
 49
0.0
 74
     0
 49
-6.349999999999999
 74
     0
  0
LTYPE
  5
8E
330
5
100
AcDbSymbolTableRecord
100
AcDbLinetypeTableRecord
  2
BORDER2
 70
     0
  3
Border (.5x) __.__.__.__.__.__.__.__.__.__.__.
 72
    65
 73
     6
 40
22.225
 49
6.349999999999999
 74
     0
 49
-3.174999999999999
 74
     0
 49
6.349999999999999
 74
     0
 49
-3.174999999999999
 74
     0
 49
0.0
 74
     0
 49
-3.174999999999999
 74
     0
  0
LTYPE
  5
8F
330
5
100
AcDbSymbolTableRecord
100
AcDbLinetypeTableRecord
  2
BORDERX2
 70
     0
  3
Border (2x) ____  ____  .  ____  ____  .  ___
 72
    65
 73
     6
 40
88.9
 49
25.4
 74
     0
 49
-12.7
 74
     0
 49
25.4
 74
     0
 49
-12.7
 74
     0
 49
0.0
 74
     0
 49
-12.7
 74
     0
  0
LTYPE
  5
90
330
5
100
AcDbSymbolTableRecord
100
AcDbLinetypeTableRecord
  2
CENTER
 70
     0
  3
Center ____ _ ____ _ ____ _ ____ _ ____ _ ____
 72
    65
 73
     4
 40
50.8
 49
31.75
 74
     0
 49
-6.349999999999999
 74
     0
 49
6.349999999999999
 74
     0
 49
-6.349999999999999
 74
     0
  0
LTYPE
  5
91
330
5
100
AcDbSymbolTableRecord
100
AcDbLinetypeTableRecord
  2
CENTER2
 70
     0
  3
Center (.5x) ___ _ ___ _ ___ _ ___ _ ___ _ ___
 72
    65
 73
     4
 40
28.575
 49
19.05
 74
     0
 49
-3.174999999999999
 74
     0
 49
3.174999999999999
 74
     0
 49
-3.174999999999999
 74
     0
  0
LTYPE
  5
92
330
5
100
AcDbSymbolTableRecord
100
AcDbLinetypeTableRecord
  2
CENTERX2
 70
     0
  3
Center (2x) ________  __  ________  __  _____
 72
    65
 73
     4
 40
101.6
 49
63.5
 74
     0
 49
-12.7
 74
     0
 49
12.7
 74
     0
 49
-12.7
 74
     0
  0
LTYPE
  5
93
330
5
100
AcDbSymbolTableRecord
100
AcDbLinetypeTableRecord
  2
DASHDOT
 70
     0
  3
Dash dot __ . __ . __ . __ . __ . __ . __ . __
 72
    65
 73
     4
 40
25.4
 49
12.7
 74
     0
 49
-6.349999999999999
 74
     0
 49
0.0
 74
     0
 49
-6.349999999999999
 74
     0
  0
LTYPE
  5
94
330
5
100
AcDbSymbolTableRecord
100
AcDbLinetypeTableRecord
  2
DASHDOT2
 70
     0
  3
Dash dot (.5x) _._._._._._._._._._._._._._._.
 72
    65
 73
     4
 40
12.7
 49
6.349999999999999
 74
     0
 49
-3.174999999999999
 74
     0
 49
0.0
 74
     0
 49
-3.174999999999999
 74
     0
  0
LTYPE
  5
95
330
5
100
AcDbSymbolTableRecord
100
AcDbLinetypeTableRecord
  2
DASHDOTX2
 70
     0
  3
Dash dot (2x) ____  .  ____  .  ____  .  ___
 72
    65
 73
     4
 40
50.8
 49
25.4
 74
     0
 49
-12.7
 74
     0
 49
0.0
 74
     0
 49
-12.7
 74
     0
  0
LTYPE
  5
96
330
5
100
AcDbSymbolTableRecord
100
AcDbLinetypeTableRecord
  2
DASHED2
 70
     0
  3
Dashed (.5x) _ _ _ _ _ _ _ _ _ _ _ _ _ _ _ _ _
 72
    65
 73
     2
 40
9.524999999999998
 49
6.349999999999999
 74
     0
 49
-3.174999999999999
 74
     0
  0
LTYPE
  5
97
330
5
100
AcDbSymbolTableRecord
100
AcDbLinetypeTableRecord
  2
DASHEDX2
 70
     0
  3
Dashed (2x) ____  ____  ____  ____  ____  ___
 72
    65
 73
     2
 40
38.1
 49
25.4
 74
     0
 49
-12.7
 74
     0
  0
LTYPE
  5
98
330
5
100
AcDbSymbolTableRecord
100
AcDbLinetypeTableRecord
  2
DIVIDE
 70
     0
  3
Divide ____ . . ____ . . ____ . . ____ . . ____
 72
    65
 73
     6
 40
31.75
 49
12.7
 74
     0
 49
-6.349999999999999
 74
     0
 49
0.0
 74
     0
 49
-6.349999999999999
 74
     0
 49
0.0
 74
     0
 49
-6.349999999999999
 74
     0
  0
LTYPE
  5
99
330
5
100
AcDbSymbolTableRecord
100
AcDbLinetypeTableRecord
  2
DIVIDE2
 70
     0
  3
Divide (.5x) __..__..__..__..__..__..__..__.._
 72
    65
 73
     6
 40
15.875
 49
6.349999999999999
 74
     0
 49
-3.174999999999999
 74
     0
 49
0.0
 74
     0
 49
-3.174999999999999
 74
     0
 49
0.0
 74
     0
 49
-3.174999999999999
 74
     0
  0
LTYPE
  5
9A
330
5
100
AcDbSymbolTableRecord
100
AcDbLinetypeTableRecord
  2
DIVIDEX2
 70
     0
  3
Divide (2x) ________  .  .  ________  .  .  _
 72
    65
 73
     6
 40
63.49999999999999
 49
25.4
 74
     0
 49
-12.7
 74
     0
 49
0.0
 74
     0
 49
-12.7
 74
     0
 49
0.0
 74
     0
 49
-12.7
 74
     0
  0
LTYPE
  5
9B
330
5
100
AcDbSymbolTableRecord
100
AcDbLinetypeTableRecord
  2
DOT2
 70
     0
  3
Dot (.5x) .....................................
 72
    65
 73
     2
 40
3.174999999999999
 49
0.0
 74
     0
 49
-3.174999999999999
 74
     0
  0
LTYPE
  5
9C
330
5
100
AcDbSymbolTableRecord
100
AcDbLinetypeTableRecord
  2
DOTX2
 70
     0
  3
Dot (2x) .  .  .  .  .  .  .  .  .  .  .  .  . 
 72
    65
 73
     2
 40
12.7
 49
0.0
 74
     0
 49
-12.7
 74
     0
  0
LTYPE
  5
9D
330
5
100
AcDbSymbolTableRecord
100
AcDbLinetypeTableRecord
  2
HIDDEN
 70
     0
  3
Hidden __ __ __ __ __ __ __ __ __ __ __ __ __ _
 72
    65
 73
     2
 40
9.524999999999998
 49
6.349999999999999
 74
     0
 49
-3.174999999999999
 74
     0
  0
LTYPE
  5
9E
330
5
100
AcDbSymbolTableRecord
100
AcDbLinetypeTableRecord
  2
HIDDEN2
 70
     0
  3
Hidden (.5x) _ _ _ _ _ _ _ _ _ _ _ _ _ _ _ _ _
 72
    65
 73
     2
 40
4.762499999999999
 49
3.174999999999999
 74
     0
 49
-1.587499999999999
 74
     0
  0
LTYPE
  5
9F
330
5
100
AcDbSymbolTableRecord
100
AcDbLinetypeTableRecord
  2
HIDDENX2
 70
     0
  3
Hidden (2x) ____ ____ ____ ____ ____ ____ ____
 72
    65
 73
     2
 40
19.05
 49
12.7
 74
     0
 49
-6.349999999999999
 74
     0
  0
LTYPE
  5
A0
330
5
100
AcDbSymbolTableRecord
100
AcDbLinetypeTableRecord
  2
PHANTOM
 70
     0
  3
Phantom ______  __  __  ______  __  __  ______
 72
    65
 73
     6
 40
63.5
 49
31.75
 74
     0
 49
-6.349999999999999
 74
     0
 49
6.349999999999999
 74
     0
 49
-6.349999999999999
 74
     0
 49
6.349999999999999
 74
     0
 49
-6.349999999999999
 74
     0
  0
LTYPE
  5
A1
330
5
100
AcDbSymbolTableRecord
100
AcDbLinetypeTableRecord
  2
PHANTOM2
 70
     0
  3
Phantom (.5x) ___ _ _ ___ _ _ ___ _ _ ___ _ _
 72
    65
 73
     6
 40
31.75
 49
15.875
 74
     0
 49
-3.174999999999999
 74
     0
 49
3.174999999999999
 74
     0
 49
-3.174999999999999
 74
     0
 49
3.174999999999999
 74
     0
 49
-3.174999999999999
 74
     0
  0
LTYPE
  5
A2
330
5
100
AcDbSymbolTableRecord
100
AcDbLinetypeTableRecord
  2
PHANTOMX2
 70
     0
  3
Phantom (2x) ____________    ____    ____   _
 72
    65
 73
     6
 40
127.0
 49
63.5
 74
     0
 49
-12.7
 74
     0
 49
12.7
 74
     0
 49
-12.7
 74
     0
 49
12.7
 74
     0
 49
-12.7
 74
     0
  0
LTYPE
  5
A3
330
5
100
AcDbSymbolTableRecord
100
AcDbLinetypeTableRecord
  2
ACAD_ISO02W100
 70
     0
  3
ISO dash __ __ __ __ __ __ __ __ __ __ __ __ __
 72
    65
 73
     2
 40
15.0
 49
12.0
 74
     0
 49
-3.0
 74
     0
  0
LTYPE
  5
A4
330
5
100
AcDbSymbolTableRecord
100
AcDbLinetypeTableRecord
  2
ACAD_ISO03W100
 70
     0
  3
ISO dash space __    __    __    __    __    __
 72
    65
 73
     2
 40
30.0
 49
12.0
 74
     0
 49
-18.0
 74
     0
  0
LTYPE
  5
A5
330
5
100
AcDbSymbolTableRecord
100
AcDbLinetypeTableRecord
  2
ACAD_ISO04W100
 70
     0
  3
ISO long-dash dot ____ . ____ . ____ . ____ . _
 72
    65
 73
     4
 40
30.0
 49
24.0
 74
     0
 49
-3.0
 74
     0
 49
0.0
 74
     0
 49
-3.0
 74
     0
  0
LTYPE
  5
A6
330
5
100
AcDbSymbolTableRecord
100
AcDbLinetypeTableRecord
  2
ACAD_ISO05W100
 70
     0
  3
ISO long-dash double-dot ____ .. ____ .. ____ .
 72
    65
 73
     6
 40
33.0
 49
24.0
 74
     0
 49
-3.0
 74
     0
 49
0.0
 74
     0
 49
-3.0
 74
     0
 49
0.0
 74
     0
 49
-3.0
 74
     0
  0
LTYPE
  5
A7
330
5
100
AcDbSymbolTableRecord
100
AcDbLinetypeTableRecord
  2
ACAD_ISO06W100
 70
     0
  3
ISO long-dash triple-dot ____ ... ____ ... ____
 72
    65
 73
     8
 40
36.0
 49
24.0
 74
     0
 49
-3.0
 74
     0
 49
0.0
 74
     0
 49
-3.0
 74
     0
 49
0.0
 74
     0
 49
-3.0
 74
     0
 49
0.0
 74
     0
 49
-3.0
 74
     0
  0
LTYPE
  5
A8
330
5
100
AcDbSymbolTableRecord
100
AcDbLinetypeTableRecord
  2
ACAD_ISO07W100
 70
     0
  3
ISO dot . . . . . . . . . . . . . . . . . . . .
 72
    65
 73
     2
 40
3.0
 49
0.0
 74
     0
 49
-3.0
 74
     0
  0
LTYPE
  5
A9
330
5
100
AcDbSymbolTableRecord
100
AcDbLinetypeTableRecord
  2
ACAD_ISO08W100
 70
     0
  3
ISO long-dash short-dash ____ __ ____ __ ____ _
 72
    65
 73
     4
 40
36.0
 49
24.0
 74
     0
 49
-3.0
 74
     0
 49
6.0
 74
     0
 49
-3.0
 74
     0
  0
LTYPE
  5
AA
330
5
100
AcDbSymbolTableRecord
100
AcDbLinetypeTableRecord
  2
ACAD_ISO09W100
 70
     0
  3
ISO long-dash double-short-dash ____ __ __ ____
 72
    65
 73
     6
 40
45.0
 49
24.0
 74
     0
 49
-3.0
 74
     0
 49
6.0
 74
     0
 49
-3.0
 74
     0
 49
6.0
 74
     0
 49
-3.0
 74
     0
  0
LTYPE
  5
AB
330
5
100
AcDbSymbolTableRecord
100
AcDbLinetypeTableRecord
  2
ACAD_ISO10W100
 70
     0
  3
ISO dash dot __ . __ . __ . __ . __ . __ . __ .
 72
    65
 73
     4
 40
18.0
 49
12.0
 74
     0
 49
-3.0
 74
     0
 49
0.0
 74
     0
 49
-3.0
 74
     0
  0
LTYPE
  5
AC
330
5
100
AcDbSymbolTableRecord
100
AcDbLinetypeTableRecord
  2
ACAD_ISO11W100
 70
     0
  3
ISO double-dash dot __ __ . __ __ . __ __ . __ 
 72
    65
 73
     6
 40
33.0
 49
12.0
 74
     0
 49
-3.0
 74
     0
 49
12.0
 74
     0
 49
-3.0
 74
     0
 49
0.0
 74
     0
 49
-3.0
 74
     0
  0
LTYPE
  5
AD
330
5
100
AcDbSymbolTableRecord
100
AcDbLinetypeTableRecord
  2
ACAD_ISO12W100
 70
     0
  3
ISO dash double-dot __ . . __ . . __ . . __ . .
 72
    65
 73
     6
 40
21.0
 49
12.0
 74
     0
 49
-3.0
 74
     0
 49
0.0
 74
     0
 49
-3.0
 74
     0
 49
0.0
 74
     0
 49
-3.0
 74
     0
  0
LTYPE
  5
AE
330
5
100
AcDbSymbolTableRecord
100
AcDbLinetypeTableRecord
  2
ACAD_ISO13W100
 70
     0
  3
ISO double-dash double-dot __ __ . . __ __ . . 
 72
    65
 73
     8
 40
36.0
 49
12.0
 74
     0
 49
-3.0
 74
     0
 49
12.0
 74
     0
 49
-3.0
 74
     0
 49
0.0
 74
     0
 49
-3.0
 74
     0
 49
0.0
 74
     0
 49
-3.0
 74
     0
  0
LTYPE
  5
AF
330
5
100
AcDbSymbolTableRecord
100
AcDbLinetypeTableRecord
  2
ACAD_ISO14W100
 70
     0
  3
ISO dash triple-dot __ . . . __ . . . __ . . . 
 72
    65
 73
     8
 40
24.0
 49
12.0
 74
     0
 49
-3.0
 74
     0
 49
0.0
 74
     0
 49
-3.0
 74
     0
 49
0.0
 74
     0
 49
-3.0
 74
     0
 49
0.0
 74
     0
 49
-3.0
 74
     0
  0
LTYPE
  5
B0
330
5
100
AcDbSymbolTableRecord
100
AcDbLinetypeTableRecord
  2
ACAD_ISO15W100
 70
     0
  3
ISO double-dash triple-dot __ __ . . . __ __ . 
 72
    65
 73
    10
 40
39.0
 49
12.0
 74
     0
 49
-3.0
 74
     0
 49
12.0
 74
     0
 49
-3.0
 74
     0
 49
0.0
 74
     0
 49
-3.0
 74
     0
 49
0.0
 74
     0
 49
-3.0
 74
     0
 49
0.0
 74
     0
 49
-3.0
 74
     0
  0
LTYPE
  5
B3
330
5
100
AcDbSymbolTableRecord
100
AcDbLinetypeTableRecord
  2
FENCELINE1
 70
     0
  3
Fenceline circle ----0-----0----0-----0----0---
 72
    65
 73
     4
 40
36.83
 49
6.349999999999999
 74
     0
 49
-2.54
 74
     4
 75
   133
340
B2
 46
2.54
 50
0.0
 44
-2.54
 45
0.0
 49
-2.54
 74
     0
 49
25.4
 74
     0
  0
LTYPE
  5
B4
330
5
100
AcDbSymbolTableRecord
100
AcDbLinetypeTableRecord
  2
FENCELINE2
 70
     0
  3
Fenceline square ----[]-----[]----[]-----[]----
 72
    65
 73
     4
 40
36.83
 49
6.349999999999999
 74
     0
 49
-2.54
 74
     4
 75
   132
340
B2
 46
2.54
 50
0.0
 44
-2.54
 45
0.0
 49
-2.54
 74
     0
 49
25.4
 74
     0
  0
LTYPE
  5
B5
330
5
100
AcDbSymbolTableRecord
100
AcDbLinetypeTableRecord
  2
TRACKS
 70
     0
  3
Tracks -|-|-|-|-|-|-|-|-|-|-|-|-|-|-|-|-|-|-|-|
 72
    65
 73
     2
 40
7.62
 49
3.81
 74
     4
 75
   130
340
B2
 46
6.349999999999999
 50
0.0
 44
0.0
 45
0.0
 49
3.81
 74
     0
  0
LTYPE
  5
B6
330
5
100
AcDbSymbolTableRecord
100
AcDbLinetypeTableRecord
  2
BATTING
 70
     0
  3
Batting SSSSSSSSSSSSSSSSSSSSSSSSSSSSSSSSSSSSSSS
 72
    65
 73
     4
 40
10.16254
 49
0.00254
 74
     0
 49
-2.54
 74
     4
 75
   134
340
B2
 46
2.54
 50
0.0
 44
-2.54
 45
0.0
 49
-5.08
 74
     4
 75
   134
340
B2
 46
2.54
 50
180.0
 44
2.54
 45
0.0
 49
-2.54
 74
     0
  0
LTYPE
  5
B7
330
5
100
AcDbSymbolTableRecord
100
AcDbLinetypeTableRecord
  2
HOT_WATER_SUPPLY
 70
     0
  3
Hot water supply ---- HW ---- HW ---- HW ----
 72
    65
 73
     3
 40
22.86
 49
12.7
 74
     0
 49
-5.08
 74
     2
 75
     0
340
60
 46
2.54
 50
0.0
 44
-2.54
 45
-1.27
  9
HW
 49
-5.08
 74
     0
  0
LTYPE
  5
B8
330
5
100
AcDbSymbolTableRecord
100
AcDbLinetypeTableRecord
  2
GAS_LINE
 70
     0
  3
Gas line ----GAS----GAS----GAS----GAS----GAS---
 72
    65
 73
     3
 40
24.13
 49
12.7
 74
     0
 49
-5.08
 74
     2
 75
     0
340
60
 46
2.54
 50
0.0
 44
-2.54
 45
-1.27
  9
GAS
 49
-6.349999999999999
 74
     0
  0
LTYPE
  5
B9
330
5
100
AcDbSymbolTableRecord
100
AcDbLinetypeTableRecord
  2
ZIGZAG
 70
     0
  3
Zig zag /\/\/\/\/\/\/\/\/\/\/\/\/\/\/\/\/\/\/\/
 72
    65
 73
     4
 40
20.32254
 49
0.00254
 74
     0
 49
-5.08
 74
     4
 75
   131
340
B2
 46
5.08
 50
0.0
 44
-5.08
 45
0.0
 49
-10.16
 74
     4
 75
   131
340
B2
 46
5.08
 50
180.0
 44
5.08
 45
0.0
 49
-5.08
 74
     0
  0
LTYPE
  5
D8
330
5
100
AcDbSymbolTableRecord
100
AcDbLinetypeTableRecord
  2
NON_PLOTING_ACAD
 70
     0
  3

 72
    65
 73
     0
 40
0.0
  0
ENDTAB
  0
TABLE
  2
LAYER
  5
2
330
0
100
AcDbSymbolTable
 70
    32
  0
LAYER
  5
5F
330
2
100
AcDbSymbolTableRecord
100
AcDbLayerTableRecord
  2
0
 70
     0
 62
     7
  6
Continuous
370
    -3
390
F
347
21
  0
LAYER
  5
BE
330
2
100
AcDbSymbolTableRecord
100
AcDbLayerTableRecord
  2
スケッチ(細線)
 70
     0
 62
    30
420
 16744448
  6
Continuous
370
    18
390
F
347
21
  0
LAYER
  5
C2
330
2
100
AcDbSymbolTableRecord
100
AcDbLayerTableRecord
  2
一点鎖線(細線)
 70
     0
 62
    16
420
  8388608
  6
CHAIN
370
    18
390
F
347
21
  0
LAYER
  5
C5
330
2
100
AcDbSymbolTableRecord
100
AcDbLayerTableRecord
  2
実線(細線)
 70
     0
 62
    16
420
  8388608
  6
Continuous
370
    18
390
F
347
21
  0
LAYER
  5
C6
330
2
100
AcDbSymbolTableRecord
100
AcDbLayerTableRecord
  2
実線(太線)
 70
     0
 62
    98
420
    16128
  6
Continuous
370
    70
390
F
347
21
  0
LAYER
  5
C7
330
2
100
AcDbSymbolTableRecord
100
AcDbLayerTableRecord
  2
実線(中線)
 70
     0
 62
     5
420
      255
  6
Continuous
370
    35
390
F
347
21
  0
LAYER
  5
C8
330
2
100
AcDbSymbolTableRecord
100
AcDbLayerTableRecord
  2
寸法(細線)
 70
     0
 62
     7
  6
Continuous
370
    18
390
F
347
21
  0
LAYER
  5
406
330
2
100
AcDbSymbolTableRecord
100
AcDbLayerTableRecord
  2
Defpoints
 70
     0
 62
     7
  6
Continuous
290
     0
370
    -3
390
F
347
21
  0
ENDTAB
  0
TABLE
  2
STYLE
  5
3
330
0
100
AcDbSymbolTable
 70
    26
  0
STYLE
  5
60
330
3
100
AcDbSymbolTableRecord
100
AcDbTextStyleTableRecord
  2
Standard
 70
     0
 40
0.0
 41
1.0
 50
0.0
 71
     0
 42
0.2
  3
TAHOMA.TTF
  4

1001
ACAD
1000
Tahoma
1071
      256
  0
STYLE
  5
65
330
3
100
AcDbSymbolTableRecord
100
AcDbTextStyleTableRecord
  2
Annotative
 70
     0
 40
0.0
 41
1.0
 50
0.0
 71
     0
 42
0.2
  3
txt
  4

1001
AcadAnnotative
1000
AnnotativeData
1002
{
1070
     1
1070
     1
1002
}
  0
STYLE
  5
B2
330
3
100
AcDbSymbolTableRecord
100
AcDbTextStyleTableRecord
  2

 70
     1
 40
0.0
 41
1.0
 50
0.0
 71
     0
 42
0.2
  3
ltypeshp.shx
  4

  0
STYLE
  5
D9
330
3
100
AcDbSymbolTableRecord
100
AcDbTextStyleTableRecord
  2
Label Text (ULVAC)
 70
     0
 40
0.0
 41
1.0
 50
0.0
 71
     0
 42
0.2
  3
TAHOMA.TTF
  4

1001
ACAD
1000
Tahoma
1071
      256
  0
STYLE
  5
DA
330
3
100
AcDbSymbolTableRecord
100
AcDbTextStyleTableRecord
  2
Note Text (JIS)
 70
     0
 40
0.0
 41
1.0
 50
0.0
 71
     0
 42
0.2
  3
TAHOMA.TTF
  4

1001
ACAD
1000
Tahoma
1071
      256
  0
STYLE
  5
DB
330
3
100
AcDbSymbolTableRecord
100
AcDbTextStyleTableRecord
  2
Note Text (ULVAC)
 70
     0
 40
0.0
 41
1.0
 50
0.0
 71
     0
 42
0.2
  3
TAHOMA.TTF
  4

1001
ACAD
1000
Tahoma
1071
      256
  0
STYLE
  5
DC
330
3
100
AcDbSymbolTableRecord
100
AcDbTextStyleTableRecord
  2
Note Text (ULVAC_Balloon)
 70
     0
 40
0.0
 41
1.0
 50
0.0
 71
     0
 42
0.2
  3
TAHOMA.TTF
  4

1001
ACAD
1000
Tahoma
1071
      256
  0
STYLE
  5
DD
330
3
100
AcDbSymbolTableRecord
100
AcDbTextStyleTableRecord
  2
Note Text (ULVAC_寸法-下線)
 70
     0
 40
0.0
 41
1.0
 50
0.0
 71
     0
 42
0.2
  3
TAHOMA.TTF
  4

1001
ACAD
1000
Tahoma
1071
      256
  0
STYLE
  5
DE
330
3
100
AcDbSymbolTableRecord
100
AcDbTextStyleTableRecord
  2
Note Text (ULVAC_寸法)
 70
     0
 40
0.0
 41
1.0
 50
0.0
 71
     0
 42
0.2
  3
TAHOMA.TTF
  4

1001
ACAD
1000
Tahoma
1071
      256
  0
STYLE
  5
DF
330
3
100
AcDbSymbolTableRecord
100
AcDbTextStyleTableRecord
  2
ULVAC
 70
     0
 40
0.0
 41
1.0
 50
0.0
 71
     0
 42
0.2
  3
MS Gothic.ttf
  4

1001
ACAD
1000
MS Gothic
1071
      256
  0
STYLE
  5
E0
330
3
100
AcDbSymbolTableRecord
100
AcDbTextStyleTableRecord
  2
図枠シンボル用(高さ2.0)
 70
     0
 40
0.0
 41
0.8000000119209289
 50
0.0
 71
     0
 42
0.2
  3
TAHOMA.TTF
  4

1001
ACAD
1000
Tahoma
1071
      256
  0
STYLE
  5
E1
330
3
100
AcDbSymbolTableRecord
100
AcDbTextStyleTableRecord
  2
図枠シンボル用(高さ3.2)
 70
     0
 40
0.0
 41
1.0
 50
0.0
 71
     0
 42
0.2
  3
TAHOMA.TTF
  4

1001
ACAD
1000
Tahoma
1071
      256
  0
STYLE
  5
E2
330
3
100
AcDbSymbolTableRecord
100
AcDbTextStyleTableRecord
  2
図枠用
 70
     0
 40
0.0
 41
1.0
 50
0.0
 71
     0
 42
0.2
  3
TAHOMA.TTF
  4

1001
ACAD
1000
Tahoma
1071
      256
  0
STYLE
  5
E3
330
3
100
AcDbSymbolTableRecord
100
AcDbTextStyleTableRecord
  2
部品表用
 70
     0
 40
0.0
 41
0.75
 50
0.0
 71
     0
 42
0.2
  3
TAHOMA.TTF
  4

1001
ACAD
1000
Tahoma
1071
      256
  0
STYLE
  5
252
330
3
100
AcDbSymbolTableRecord
100
AcDbTextStyleTableRecord
  2
文字スタイル35
 70
     0
 40
0.0
 41
1.0
 50
0.0
 71
     0
 42
0.2
  3
TAHOMA.TTF
  4

1001
ACAD
1000
Tahoma
1071
      256
  0
STYLE
  5
25B
330
3
100
AcDbSymbolTableRecord
100
AcDbTextStyleTableRecord
  2
文字スタイル211
 70
     0
 40
0.0
 41
0.5
 50
0.0
 71
     0
 42
0.2
  3
TAHOMA.TTF
  4

1001
ACAD
1000
Tahoma
1071
      256
  0
STYLE
  5
25F
330
3
100
AcDbSymbolTableRecord
100
AcDbTextStyleTableRecord
  2
文字スタイル60
 70
     0
 40
0.0
 41
1.0
 50
0.0
 71
     0
 42
0.2
  3
TAHOMA.TTF
  4

1001
ACAD
1000
Tahoma
1071
      256
  0
STYLE
  5
261
330
3
100
AcDbSymbolTableRecord
100
AcDbTextStyleTableRecord
  2
文字スタイル206
 70
     0
 40
0.0
 41
1.0
 50
0.0
 71
     0
 42
0.2
  3
TAHOMA.TTF
  4

1001
ACAD
1000
Tahoma
1071
      256
  0
STYLE
  5
263
330
3
100
AcDbSymbolTableRecord
100
AcDbTextStyleTableRecord
  2
文字スタイル205
 70
     0
 40
0.0
 41
1.0
 50
0.0
 71
     0
 42
0.2
  3
TAHOMA.TTF
  4

1001
ACAD
1000
Tahoma
1071
      256
  0
STYLE
  5
266
330
3
100
AcDbSymbolTableRecord
100
AcDbTextStyleTableRecord
  2
文字スタイル207
 70
     0
 40
0.0
 41
1.0
 50
0.0
 71
     0
 42
0.2
  3
TAHOMA.TTF
  4

1001
ACAD
1000
Tahoma
1071
      256
  0
STYLE
  5
268
330
3
100
AcDbSymbolTableRecord
100
AcDbTextStyleTableRecord
  2
文字スタイル208
 70
     0
 40
0.0
 41
1.0
 50
0.0
 71
     0
 42
0.2
  3
TAHOMA.TTF
  4

1001
ACAD
1000
Tahoma
1071
      256
  0
STYLE
  5
26A
330
3
100
AcDbSymbolTableRecord
100
AcDbTextStyleTableRecord
  2
文字スタイル107
 70
     0
 40
0.0
 41
1.0
 50
0.0
 71
     0
 42
0.2
  3
TAHOMA.TTF
  4

1001
ACAD
1000
Tahoma
1071
      256
  0
STYLE
  5
271
330
3
100
AcDbSymbolTableRecord
100
AcDbTextStyleTableRecord
  2
文字スタイル204
 70
     0
 40
0.0
 41
1.0
 50
0.0
 71
     0
 42
0.2
  3
TAHOMA.TTF
  4

1001
ACAD
1000
Tahoma
1071
      256
  0
STYLE
  5
273
330
3
100
AcDbSymbolTableRecord
100
AcDbTextStyleTableRecord
  2
文字スタイル32
 70
     0
 40
0.0
 41
1.0
 50
0.0
 71
     0
 42
0.2
  3
TAHOMA.TTF
  4

1001
ACAD
1000
Tahoma
1071
      256
  0
STYLE
  5
275
330
3
100
AcDbSymbolTableRecord
100
AcDbTextStyleTableRecord
  2
文字スタイル228
 70
     0
 40
0.0
 41
1.0
 50
0.0
 71
     0
 42
0.2
  3
TAHOMA.TTF
  4

1001
ACAD
1000
Tahoma
1071
      256
  0
STYLE
  5
279
330
3
100
AcDbSymbolTableRecord
100
AcDbTextStyleTableRecord
  2
文字スタイル117
 70
     0
 40
0.0
 41
1.0
 50
0.0
 71
     0
 42
0.2
  3
MS Gothic.ttf
  4

1001
ACAD
1000
MS Gothic
1071
      256
  0
ENDTAB
  0
TABLE
  2
VIEW
  5
6
330
0
100
AcDbSymbolTable
 70
     0
  0
ENDTAB
  0
TABLE
  2
UCS
  5
7
330
0
100
AcDbSymbolTable
 70
     0
  0
ENDTAB
  0
TABLE
  2
APPID
  5
9
330
0
100
AcDbSymbolTable
 70
     4
  0
APPID
  5
61
330
9
100
AcDbSymbolTableRecord
100
AcDbRegAppTableRecord
  2
ACAD
 70
     0
  0
APPID
  5
69
330
9
100
AcDbSymbolTableRecord
100
AcDbRegAppTableRecord
  2
AcadAnnotative
 70
     0
  0
APPID
  5
255
330
9
100
AcDbSymbolTableRecord
100
AcDbRegAppTableRecord
  2
AcadAnnoPO
 70
     0
  0
APPID
  5
8FF
330
9
100
AcDbSymbolTableRecord
100
AcDbRegAppTableRecord
  2
ACAD_DSTYLE_DIMRADIAL_EXTENSION
 70
     0
  0
ENDTAB
  0
TABLE
  2
DIMSTYLE
  5
A
330
0
100
AcDbSymbolTable
 70
    15
100
AcDbDimStyleTable
 71
     2
340
EA
340
63
  0
DIMSTYLE
105
63
330
A
100
AcDbSymbolTableRecord
100
AcDbDimStyleTableRecord
  2
Standard
 70
     0
340
60
  0
DIMSTYLE
105
64
330
A
100
AcDbSymbolTableRecord
100
AcDbDimStyleTableRecord
  2
Annotative
 70
     0
340
60
1001
AcadAnnotative
1000
AnnotativeData
1002
{
1070
     1
1070
     1
1002
}
  0
DIMSTYLE
105
EA
102
{ACAD_REACTORS
330
405
330
4E8
330
5C4
330
6A6
330
789
330
865
330
912
102
}
330
A
100
AcDbSymbolTableRecord
100
AcDbDimStyleTableRecord
  2
Default (ULVAC)
 70
     0
 41
2.900000095367431
 42
1.27
 43
6.5
 44
1.199999999999999
 45
0.00000001
 46
10.0
 73
     0
 74
     0
 77
     1
 78
     8
 79
     2
140
3.5
143
0.03937
146
0.7999999863760812
147
0.8
171
     3
172
     1
176
   256
177
   256
178
   256
179
     2
271
     2
272
     3
274
     3
284
     8
340
DE
341
E4
342
E4
371
    -1
372
    -1
  0
DIMSTYLE
105
EB
330
A
100
AcDbSymbolTableRecord
100
AcDbDimStyleTableRecord
  2
Default (ULVAC)$7
 70
     0
 41
2.900000095367431
 42
1.27
 43
6.5
 44
1.199999999999999
 45
0.00000001
 46
10.0
 73
     0
 74
     0
 77
     1
 78
     8
 79
     2
140
3.5
143
0.03937
146
0.7999999863760812
147
0.8
171
     3
172
     1
176
   256
177
   256
178
   256
179
     2
271
     2
272
     3
274
     3
284
     8
340
DE
341
E4
342
E4
371
    -1
372
    -1
  0
DIMSTYLE
105
EC
330
A
100
AcDbSymbolTableRecord
100
AcDbDimStyleTableRecord
  2
Ｍｉｓｃｅｌｌａｎｅｏｕｓ　Ｏｂｊｅｃｔ (ULVAC)
 70
     0
 41
5.800000190734863
 42
1.27
 43
6.5
 44
1.199999999999999
 45
0.00000001
 46
10.0
 73
     0
 74
     0
 77
     1
 78
     8
 79
     2
140
6.0
143
0.03937
146
0.75
147
0.8
171
     3
172
     1
176
   256
177
   256
178
   256
179
     2
271
     2
272
     3
274
     3
284
     8
286
     8
340
D9
341
E4
342
E4
371
    -1
372
    -1
  0
DIMSTYLE
105
ED
330
A
100
AcDbSymbolTableRecord
100
AcDbDimStyleTableRecord
  2
Ｍｉｓｃｅｌｌａｎｅｏｕｓ　Ｏｂｊｅｃｔ (ULVAC)$7
 70
     0
 41
2.900000095367431
 42
1.27
 43
6.5
 44
1.199999999999999
 45
0.00000001
 46
10.0
 73
     0
 74
     0
 77
     1
 78
     8
 79
     2
140
6.0
143
0.03937
146
0.75
147
0.8
171
     3
172
     1
176
   256
177
   256
178
   256
179
     2
271
     2
272
     3
274
     3
284
     8
286
     8
340
D9
341
E4
342
E4
371
    -1
372
    -1
  0
DIMSTYLE
105
EE
330
A
100
AcDbSymbolTableRecord
100
AcDbDimStyleTableRecord
  2
下線付き寸法 (ULVAC)
 70
     0
 41
2.900000095367431
 42
1.27
 43
6.5
 44
1.199999999999999
 45
0.00000001
 46
10.0
 73
     0
 74
     0
 77
     1
 78
     8
 79
     2
140
3.5
143
0.03937
146
0.7999999863760812
147
0.8
171
     3
172
     1
176
   256
177
   256
178
   256
179
     2
271
     2
272
     3
274
     3
284
     8
340
DD
341
E4
342
E4
371
    -1
372
    -1
  0
DIMSTYLE
105
EF
330
A
100
AcDbSymbolTableRecord
100
AcDbDimStyleTableRecord
  2
下線付き寸法 (ULVAC)$7
 70
     0
 41
2.900000095367431
 42
1.27
 43
6.5
 44
1.199999999999999
 45
0.00000001
 46
10.0
 73
     0
 74
     0
 77
     1
 78
     8
 79
     2
140
3.5
143
0.03937
146
0.7999999863760812
147
0.8
171
     3
172
     1
176
   256
177
   256
178
   256
179
     2
271
     2
272
     3
274
     3
284
     8
340
DD
341
E4
342
E4
371
    -1
372
    -1
  0
DIMSTYLE
105
F0
330
A
100
AcDbSymbolTableRecord
100
AcDbDimStyleTableRecord
  2
斜め注記_水平寸法 (ULVAC)
 70
     0
 41
2.900000095367431
 42
1.27
 43
6.5
 44
1.199999999999999
 45
0.00000001
 46
10.0
 77
     1
 78
     8
 79
     2
140
3.5
143
0.03937
146
0.7999999863760812
147
0.8
171
     3
172
     1
176
   256
177
   256
178
   256
179
     2
271
     2
272
     3
274
     3
284
     8
340
DE
341
E4
342
E4
371
    -1
372
    -1
  0
DIMSTYLE
105
F1
330
A
100
AcDbSymbolTableRecord
100
AcDbDimStyleTableRecord
  2
斜め注記_水平寸法 (ULVAC)$7
 70
     0
 41
2.900000095367431
 42
1.27
 43
6.5
 44
1.199999999999999
 45
0.00000001
 46
10.0
 77
     1
 78
     8
 79
     2
140
3.5
143
0.03937
146
0.7999999863760812
147
0.8
171
     3
172
     1
176
   256
177
   256
178
   256
179
     2
271
     2
272
     3
274
     3
284
     8
340
DE
341
E4
342
E4
371
    -1
372
    -1
  0
DIMSTYLE
105
F2
330
A
100
AcDbSymbolTableRecord
100
AcDbDimStyleTableRecord
  2
Alternate (ULVAC)
 70
     0
 41
2.900000095367431
340
60
342
F3
  0
DIMSTYLE
105
FA
330
A
100
AcDbSymbolTableRecord
100
AcDbDimStyleTableRecord
  2
Alternate (ULVAC_Balloon)
 70
     0
 41
2.900000095367431
340
60
342
F3
  0
DIMSTYLE
105
105
330
A
100
AcDbSymbolTableRecord
100
AcDbDimStyleTableRecord
  2
Datum (ULVAC)
 70
     0
 41
2.25
340
60
342
F3
  0
DIMSTYLE
105
106
330
A
100
AcDbSymbolTableRecord
100
AcDbDimStyleTableRecord
  2
General (ULVAC_Balloon)
 70
     0
 41
2.900000095367431
340
60
342
F3
  0
DIMSTYLE
105
115
330
A
100
AcDbSymbolTableRecord
100
AcDbDimStyleTableRecord
  2
Large (ISO)
 70
     0
 41
5.0
340
60
342
F3
  0
ENDTAB
  0
TABLE
  2
BLOCK_RECORD
  5
1
330
0
100
AcDbSymbolTable
 70
    15
  0
BLOCK_RECORD
  5
77
330
1
100
AcDbSymbolTableRecord
100
AcDbBlockTableRecord
  2
*Model_Space
340
7A
 70
     0
280
     1
281
     0
  0
BLOCK_RECORD
  5
73
330
1
100
AcDbSymbolTableRecord
100
AcDbBlockTableRecord
  2
*Paper_Space
340
76
 70
     0
280
     1
281
     0
  0
BLOCK_RECORD
  5
7B
330
1
100
AcDbSymbolTableRecord
100
AcDbBlockTableRecord
  2
*Paper_Space0
340
7E
 70
     0
280
     1
281
     0
  0
BLOCK_RECORD
  5
E4
330
1
100
AcDbSymbolTableRecord
100
AcDbBlockTableRecord
  2
Open-1
340
0
102
{BLKREFS
331
4E2
331
4E3
331
5BE
331
5BF
331
6A0
331
6A1
331
783
331
784
331
85F
331
860
331
90B
331
90C
331
9EE
331
9EF
102
}
 70
     0
280
     1
281
     0
  0
BLOCK_RECORD
  5
F3
330
1
100
AcDbSymbolTableRecord
100
AcDbBlockTableRecord
  2
_Closed
340
0
 70
     0
280
     1
281
     0
  0
BLOCK_RECORD
  5
FB
330
1
100
AcDbSymbolTableRecord
100
AcDbBlockTableRecord
  2
DatumFilled45
340
0
 70
     0
280
     1
281
     0
  0
BLOCK_RECORD
  5
107
330
1
100
AcDbSymbolTableRecord
100
AcDbBlockTableRecord
  2
Filled-1
340
0
 70
     0
280
     1
281
     0
  0
BLOCK_RECORD
  5
116
330
1
100
AcDbSymbolTableRecord
100
AcDbBlockTableRecord
  2
IPSTAMP_EJ
340
0
102
{BLKREFS
331
3FD
102
}
 70
     0
280
     1
281
     0
  0
BLOCK_RECORD
  5
11C
330
1
100
AcDbSymbolTableRecord
100
AcDbBlockTableRecord
  2
図面枠 ゾーン図枠(A3)
340
0
102
{BLKREFS
331
16D
102
}
 70
     0
280
     1
281
     0
  0
BLOCK_RECORD
  5
16E
330
1
100
AcDbSymbolTableRecord
100
AcDbBlockTableRecord
  2
表題欄 ULVAC表題欄
340
0
102
{BLKREFS
331
27D
102
}
 70
     0
280
     1
281
     0
  0
BLOCK_RECORD
  5
407
330
1
100
AcDbSymbolTableRecord
100
AcDbBlockTableRecord
  2
*D8
340
0
 70
     0
280
     1
281
     0
  0
BLOCK_RECORD
  5
4E9
330
1
100
AcDbSymbolTableRecord
100
AcDbBlockTableRecord
  2
*D9
340
0
 70
     0
280
     1
281
     0
  0
BLOCK_RECORD
  5
5C5
330
1
100
AcDbSymbolTableRecord
100
AcDbBlockTableRecord
  2
*D10
340
0
 70
     0
280
     1
281
     0
  0
BLOCK_RECORD
  5
6A7
330
1
100
AcDbSymbolTableRecord
100
AcDbBlockTableRecord
  2
*D11
340
0
 70
     0
280
     1
281
     0
  0
BLOCK_RECORD
  5
78A
330
1
100
AcDbSymbolTableRecord
100
AcDbBlockTableRecord
  2
*D12
340
0
 70
     0
280
     1
281
     0
  0
BLOCK_RECORD
  5
867
330
1
100
AcDbSymbolTableRecord
100
AcDbBlockTableRecord
  2
*D13
340
0
 70
     0
280
     1
281
     0
  0
BLOCK_RECORD
  5
913
330
1
100
AcDbSymbolTableRecord
100
AcDbBlockTableRecord
  2
*D14
340
0
 70
     0
280
     1
281
     0
  0
ENDTAB
  0
ENDSEC
  0
SECTION
  2
BLOCKS
  0
BLOCK
  5
78
330
77
100
AcDbEntity
  8
0
100
AcDbBlockBegin
  2
*Model_Space
 70
     0
 10
0.0
 20
0.0
 30
0.0
  3
*Model_Space
  1

  0
ENDBLK
  5
79
330
77
100
AcDbEntity
  8
0
100
AcDbBlockEnd
  0
BLOCK
  5
74
330
73
100
AcDbEntity
 67
     1
  8
0
100
AcDbBlockBegin
  2
*Paper_Space
 70
     0
 10
0.0
 20
0.0
 30
0.0
  3
*Paper_Space
  1

  0
ENDBLK
  5
75
330
73
100
AcDbEntity
 67
     1
  8
0
100
AcDbBlockEnd
  0
BLOCK
  5
7C
330
7B
100
AcDbEntity
 67
     1
  8
0
100
AcDbBlockBegin
  2
*Paper_Space0
 70
     0
 10
0.0
 20
0.0
 30
0.0
  3
*Paper_Space0
  1

  0
ENDBLK
  5
7D
330
7B
100
AcDbEntity
 67
     1
  8
0
100
AcDbBlockEnd
  0
BLOCK
  5
E5
330
E4
100
AcDbEntity
  8
0
100
AcDbBlockBegin
  2
Open-1
 70
     0
 10
0.0
 20
0.0
 30
0.0
  3
Open-1
  1

  0
LINE
  5
E7
330
E4
100
AcDbEntity
  8
0
 62
     0
100
AcDbLine
 10
-1.0
 20
0.0
 30
0.0
 11
0.0
 21
0.0
 31
0.0
  0
LINE
  5
E8
330
E4
100
AcDbEntity
  8
0
 62
     0
100
AcDbLine
 10
-1.0
 20
-0.2758620689655173
 30
0.0
 11
0.0
 21
0.0
 31
0.0
  0
LINE
  5
E9
330
E4
100
AcDbEntity
  8
0
 62
     0
100
AcDbLine
 10
0.0
 20
0.0
 30
0.0
 11
-1.0
 21
0.2758620689655173
 31
0.0
  0
ENDBLK
  5
E6
330
E4
100
AcDbEntity
  8
0
100
AcDbBlockEnd
  0
BLOCK
  5
F8
330
F3
100
AcDbEntity
  8
0
100
AcDbBlockBegin
  2
_Closed
 70
     0
 10
0.0
 20
0.0
 30
0.0
  3
_Closed
  1

  0
LINE
  5
F4
330
F3
100
AcDbEntity
  8
0
  6
ByBlock
 62
     0
370
    -2
100
AcDbLine
 10
-1.0
 20
0.1666666666666666
 30
0.0
 11
0.0
 21
0.0
 31
0.0
  0
LINE
  5
F5
330
F3
100
AcDbEntity
  8
0
  6
ByBlock
 62
     0
370
    -2
100
AcDbLine
 10
0.0
 20
0.0
 30
0.0
 11
-1.0
 21
-0.1666666666666666
 31
0.0
  0
LINE
  5
F6
330
F3
100
AcDbEntity
  8
0
  6
ByBlock
 62
     0
370
    -2
100
AcDbLine
 10
-1.0
 20
0.1666666666666666
 30
0.0
 11
-1.0
 21
-0.1666666666666666
 31
0.0
  0
LINE
  5
F7
330
F3
100
AcDbEntity
  8
0
  6
ByBlock
 62
     0
370
    -2
100
AcDbLine
 10
0.0
 20
0.0
 30
0.0
 11
-1.0
 21
0.0
 31
0.0
  0
ENDBLK
  5
F9
330
F3
100
AcDbEntity
  8
0
100
AcDbBlockEnd
  0
BLOCK
  5
FC
330
FB
100
AcDbEntity
  8
0
100
AcDbBlockBegin
  2
DatumFilled45
 70
     0
 10
0.0
 20
0.0
 30
0.0
  3
DatumFilled45
  1

  0
POLYLINE
  5
FE
330
FB
100
AcDbEntity
  8
0
 62
     0
100
AcDb2dPolyline
 66
     1
 10
0.0
 20
0.0
 30
0.0
 70
   128
  0
VERTEX
  5
FF
330
FE
100
AcDbEntity
  8
0
 62
     0
100
AcDbVertex
100
AcDb2dVertex
 10
0.0
 20
1.0
 30
0.0
  0
VERTEX
  5
100
330
FE
100
AcDbEntity
  8
0
 62
     0
100
AcDbVertex
100
AcDb2dVertex
 10
0.0
 20
-1.0
 30
0.0
  0
VERTEX
  5
102
330
FE
100
AcDbEntity
  8
0
 62
     0
100
AcDbVertex
100
AcDb2dVertex
 10
-1.0
 20
0.0
 30
0.0
  0
VERTEX
  5
103
330
FE
100
AcDbEntity
  8
0
 62
     0
100
AcDbVertex
100
AcDb2dVertex
 10
0.0
 20
1.0
 30
0.0
  0
SEQEND
  5
101
330
FE
100
AcDbEntity
  8
0
 62
     0
  0
SOLID
  5
104
330
FB
100
AcDbEntity
  8
0
 62
     0
100
AcDbTrace
 10
0.0
 20
1.0
 30
0.0
 11
0.0
 21
-1.0
 31
0.0
 12
-1.0
 22
0.0
 32
0.0
 13
0.0
 23
1.0
 33
0.0
  0
ENDBLK
  5
FD
330
FB
100
AcDbEntity
  8
0
100
AcDbBlockEnd
  0
BLOCK
  5
108
330
107
100
AcDbEntity
  8
0
100
AcDbBlockBegin
  2
Filled-1
 70
     0
 10
0.0
 20
0.0
 30
0.0
  3
Filled-1
  1

  0
LINE
  5
10A
330
107
100
AcDbEntity
  8
0
 62
     0
100
AcDbLine
 10
-1.0
 20
0.0
 30
0.0
 11
0.0
 21
0.0
 31
0.0
  0
POLYLINE
  5
10B
330
107
100
AcDbEntity
  8
0
 62
     0
100
AcDb2dPolyline
 66
     1
 10
0.0
 20
0.0
 30
0.0
 70
   128
  0
VERTEX
  5
10C
330
10B
100
AcDbEntity
  8
0
 62
     0
100
AcDbVertex
100
AcDb2dVertex
 10
-1.0
 20
-0.1
 30
0.0
  0
VERTEX
  5
10D
330
10B
100
AcDbEntity
  8
0
 62
     0
100
AcDbVertex
100
AcDb2dVertex
 10
0.0
 20
0.0
 30
0.0
  0
VERTEX
  5
10F
330
10B
100
AcDbEntity
  8
0
 62
     0
100
AcDbVertex
100
AcDb2dVertex
 10
-1.0
 20
0.1
 30
0.0
  0
VERTEX
  5
110
330
10B
100
AcDbEntity
  8
0
 62
     0
100
AcDbVertex
100
AcDb2dVertex
 10
-1.0
 20
-0.1
 30
0.0
  0
SEQEND
  5
10E
330
10B
100
AcDbEntity
  8
0
 62
     0
  0
SOLID
  5
111
330
107
100
AcDbEntity
  8
0
 62
     0
100
AcDbTrace
 10
-1.0
 20
-0.1
 30
0.0
 11
0.0
 21
0.0
 31
0.0
 12
-1.0
 22
0.1
 32
0.0
 13
-1.0
 23
-0.1
 33
0.0
  0
LINE
  5
112
330
107
100
AcDbEntity
  8
0
 62
     0
100
AcDbLine
 10
-1.0
 20
-0.1
 30
0.0
 11
0.0
 21
0.0
 31
0.0
  0
LINE
  5
113
330
107
100
AcDbEntity
  8
0
 62
     0
100
AcDbLine
 10
0.0
 20
0.0
 30
0.0
 11
-1.0
 21
0.1
 31
0.0
  0
LINE
  5
114
330
107
100
AcDbEntity
  8
0
 62
     0
100
AcDbLine
 10
-1.0
 20
0.1
 30
0.0
 11
-1.0
 21
-0.1
 31
0.0
  0
ENDBLK
  5
109
330
107
100
AcDbEntity
  8
0
100
AcDbBlockEnd
  0
BLOCK
  5
117
330
116
100
AcDbEntity
  8
0
100
AcDbBlockBegin
  2
IPSTAMP_EJ
 70
     0
 10
0.0
 20
0.0
 30
0.0
  3
IPSTAMP_EJ
  1

  0
MTEXT
  5
119
330
116
100
AcDbEntity
  8
寸法(細線)
 62
     7
100
AcDbMText
 10
1.999999999999992
 20
0.4935540896567581
 30
0.0
 40
2.199999988079071
 41
101.2525
 46
0.0
 71
     7
 72
     1
  1
\fＭＳ ゴシック|b0|i0;\W0.91;\H2.2000;\fTahoma|b0|i0;\W0.91;\H2.2000;当図面の知的所有権はアルバックに帰属します。\P当社の書面による許可無き複写、製作及び他者への漏洩は禁止します。
  7
ULVAC
 73
     2
 44
0.9461999535560607
  0
MTEXT
  5
11B
330
116
100
AcDbEntity
  8
寸法(細線)
 62
     7
100
AcDbMText
 10
1.999999999999992
 20
6.878575599090988
 30
0.0
 40
2.199999988079071
 41
101.2524999999999
 46
0.0
 71
     7
 72
     1
  1
\fＭＳ ゴシック|b0|i0;\H2.2000;\fTahoma|b0|i0;\H2.2000;THIS DRAWING　IS PROPERTY OF ULVAC INC.\PTHIS INFORMATION IS NOT TO BE COPIED, REPRODUCED\POR DIVULGED WITHOUT WRITTEN PERMISSION FROM ULVAC INC.
  7
ULVAC
 73
     2
 44
0.996000051498413
  0
ENDBLK
  5
118
330
116
100
AcDbEntity
  8
0
100
AcDbBlockEnd
  0
BLOCK
  5
11D
330
11C
100
AcDbEntity
  8
0
100
AcDbBlockBegin
  2
図面枠 ゾーン図枠(A3)
 70
     0
 10
0.0
 20
0.0
 30
0.0
  3
図面枠 ゾーン図枠(A3)
  1

  0
LINE
  5
11F
330
11C
100
AcDbEntity
  8
実線(太線)
100
AcDbLine
 10
25.00000000000022
 20
287.0000000000008
 30
0.0
 11
409.9999999999995
 21
287.0000000000001
 31
0.0
  0
LINE
  5
120
330
11C
100
AcDbEntity
  8
実線(太線)
100
AcDbLine
 10
409.9999999999995
 20
287.0000000000001
 30
0.0
 11
409.9999999999995
 21
9.99999999999968
 31
0.0
  0
LINE
  5
121
330
11C
100
AcDbEntity
  8
実線(太線)
100
AcDbLine
 10
409.9999999999995
 20
9.999999999999666
 30
0.0
 11
25.00000000000035
 21
9.999999999999324
 31
0.0
  0
LINE
  5
122
330
11C
100
AcDbEntity
  8
実線(太線)
100
AcDbLine
 10
25.00000000000034
 20
9.999999999999324
 30
0.0
 11
25.00000000000022
 21
287.0000000000008
 31
0.0
  0
LINE
  5
123
330
11C
100
AcDbEntity
  8
実線(細線)
100
AcDbLine
 10
210.0
 20
292.0
 30
0.0
 11
209.9999999999996
 21
282.0
 31
0.0
  0
LINE
  5
124
330
11C
100
AcDbEntity
  8
実線(細線)
100
AcDbLine
 10
20.0000000000001
 20
148.4999999999999
 30
0.0
 11
30.00000000000004
 21
148.4999999999999
 31
0.0
  0
LINE
  5
125
330
11C
100
AcDbEntity
  8
実線(細線)
100
AcDbLine
 10
210.0000000000002
 20
5.000000000000277
 30
0.0
 11
210.0
 21
14.99999999999945
 31
0.0
  0
LINE
  5
126
330
11C
100
AcDbEntity
  8
実線(細線)
100
AcDbLine
 10
414.9999999999995
 20
148.5000000000002
 30
0.0
 11
404.9999999999995
 21
148.5000000000002
 31
0.0
  0
LINE
  5
127
330
11C
100
AcDbEntity
  8
実線(細線)
100
AcDbLine
 10
52.49999999999959
 20
286.9999999999999
 30
0.0
 11
52.49999999999993
 21
291.9999999999999
 31
0.0
  0
LINE
  5
128
330
11C
100
AcDbEntity
  8
実線(細線)
100
AcDbLine
 10
367.4999999999999
 20
292.0000000000001
 30
0.0
 11
367.4999999999999
 21
286.9999999999998
 31
0.0
  0
LINE
  5
129
330
11C
100
AcDbEntity
  8
実線(細線)
100
AcDbLine
 10
104.9999999999996
 20
287.0
 30
0.0
 11
105.0
 21
292.0
 31
0.0
  0
LINE
  5
12A
330
11C
100
AcDbEntity
  8
実線(細線)
100
AcDbLine
 10
157.4999999999996
 20
287.0
 30
0.0
 11
157.4999999999999
 21
292.0
 31
0.0
  0
LINE
  5
12B
330
11C
100
AcDbEntity
  8
実線(細線)
100
AcDbLine
 10
209.9999999999996
 20
287.0
 30
0.0
 11
210.0
 21
292.0
 31
0.0
  0
LINE
  5
12C
330
11C
100
AcDbEntity
  8
実線(細線)
100
AcDbLine
 10
262.4999999999996
 20
287.0
 30
0.0
 11
262.4999999999999
 21
292.0000000000001
 31
0.0
  0
LINE
  5
12D
330
11C
100
AcDbEntity
  8
実線(細線)
100
AcDbLine
 10
314.9999999999995
 20
287.0
 30
0.0
 11
314.9999999999999
 21
292.0000000000001
 31
0.0
  0
LINE
  5
12E
330
11C
100
AcDbEntity
  8
実線(細線)
100
AcDbLine
 10
25.0
 20
247.4999999999999
 30
0.0
 11
19.99999999999999
 21
247.4999999999999
 31
0.0
  0
LINE
  5
12F
330
11C
100
AcDbEntity
  8
実線(細線)
100
AcDbLine
 10
20.0000000000002
 20
49.49999999999988
 30
0.0
 11
25.00000000000009
 21
49.49999999999988
 31
0.0
  0
LINE
  5
130
330
11C
100
AcDbEntity
  8
実線(細線)
100
AcDbLine
 10
25.00000000000003
 20
197.9999999999998
 30
0.0
 11
20.00000000000004
 21
197.9999999999998
 31
0.0
  0
LINE
  5
131
330
11C
100
AcDbEntity
  8
実線(細線)
100
AcDbLine
 10
25.00000000000004
 20
148.4999999999999
 30
0.0
 11
20.0000000000001
 21
148.4999999999999
 31
0.0
  0
LINE
  5
132
330
11C
100
AcDbEntity
  8
実線(細線)
100
AcDbLine
 10
25.00000000000007
 20
98.99999999999989
 30
0.0
 11
20.00000000000015
 21
98.99999999999989
 31
0.0
  0
LINE
  5
133
330
11C
100
AcDbEntity
  8
実線(細線)
100
AcDbLine
 10
52.5
 20
9.999999999999316
 30
0.0
 11
52.50000000000017
 21
5.000000000000238
 31
0.0
  0
LINE
  5
134
330
11C
100
AcDbEntity
  8
実線(細線)
100
AcDbLine
 10
367.5000000000001
 20
5.000000000000316
 30
0.0
 11
367.5
 21
9.999999999999587
 31
0.0
  0
LINE
  5
135
330
11C
100
AcDbEntity
  8
実線(細線)
100
AcDbLine
 10
105.0
 20
9.999999999999362
 30
0.0
 11
105.0000000000002
 21
5.000000000000252
 31
0.0
  0
LINE
  5
136
330
11C
100
AcDbEntity
  8
実線(細線)
100
AcDbLine
 10
157.5
 20
9.999999999999406
 30
0.0
 11
157.5000000000001
 21
5.000000000000264
 31
0.0
  0
LINE
  5
137
330
11C
100
AcDbEntity
  8
実線(細線)
100
AcDbLine
 10
210.0
 20
9.999999999999451
 30
0.0
 11
210.0000000000002
 21
5.000000000000277
 31
0.0
  0
LINE
  5
138
330
11C
100
AcDbEntity
  8
実線(細線)
100
AcDbLine
 10
262.5
 20
9.999999999999495
 30
0.0
 11
262.5000000000002
 21
5.000000000000291
 31
0.0
  0
LINE
  5
139
330
11C
100
AcDbEntity
  8
実線(細線)
100
AcDbLine
 10
315.0
 20
9.999999999999541
 30
0.0
 11
315.0000000000002
 21
5.000000000000302
 31
0.0
  0
LINE
  5
13A
330
11C
100
AcDbEntity
  8
実線(細線)
100
AcDbLine
 10
409.9999999999995
 20
247.5000000000002
 30
0.0
 11
414.9999999999995
 21
247.5000000000002
 31
0.0
  0
LINE
  5
13B
330
11C
100
AcDbEntity
  8
実線(細線)
100
AcDbLine
 10
414.9999999999995
 20
49.50000000000025
 30
0.0
 11
409.9999999999995
 21
49.50000000000028
 31
0.0
  0
LINE
  5
13C
330
11C
100
AcDbEntity
  8
実線(細線)
100
AcDbLine
 10
414.9999999999995
 20
198.0000000000002
 30
0.0
 11
409.9999999999995
 21
198.0000000000002
 31
0.0
  0
LINE
  5
13D
330
11C
100
AcDbEntity
  8
実線(細線)
100
AcDbLine
 10
414.9999999999995
 20
148.5000000000002
 30
0.0
 11
409.9999999999995
 21
148.5000000000002
 31
0.0
  0
LINE
  5
13E
330
11C
100
AcDbEntity
  8
実線(細線)
100
AcDbLine
 10
414.9999999999995
 20
99.00000000000027
 30
0.0
 11
409.9999999999995
 21
99.00000000000028
 31
0.0
  0
LINE
  5
13F
330
11C
100
AcDbEntity
  8
実線(細線)
100
AcDbLine
 10
407.5000000000001
 20
122.0000000000001
 30
0.0
 11
410.0
 21
122.0000000000001
 31
0.0
  0
LINE
  5
140
330
11C
100
AcDbEntity
  8
実線(細線)
100
AcDbLine
 10
410.0
 20
117.0000000000001
 30
0.0
 11
408.5
 21
117.0000000000001
 31
0.0
  0
LINE
  5
141
330
11C
100
AcDbEntity
  8
実線(細線)
100
AcDbLine
 10
407.5000000000001
 20
112.0000000000001
 30
0.0
 11
410.0
 21
112.0000000000001
 31
0.0
  0
LINE
  5
142
330
11C
100
AcDbEntity
  8
実線(細線)
100
AcDbLine
 10
410.0
 20
107.0
 30
0.0
 11
408.5
 21
107.0
 31
0.0
  0
LINE
  5
143
330
11C
100
AcDbEntity
  8
実線(細線)
100
AcDbLine
 10
410.0
 20
102.0000000000001
 30
0.0
 11
407.5000000000001
 21
102.0000000000001
 31
0.0
  0
LINE
  5
144
330
11C
100
AcDbEntity
  8
実線(細線)
100
AcDbLine
 10
408.5
 20
97.00000000000011
 30
0.0
 11
410.0
 21
97.00000000000011
 31
0.0
  0
LINE
  5
145
330
11C
100
AcDbEntity
  8
実線(細線)
100
AcDbLine
 10
410.0
 20
92.00000000000015
 30
0.0
 11
407.5000000000001
 21
92.00000000000011
 31
0.0
  0
LINE
  5
146
330
11C
100
AcDbEntity
  8
実線(細線)
100
AcDbLine
 10
409.9999999999995
 20
287.0000000000001
 30
0.0
 11
409.9999999999995
 21
292.0000000000001
 31
0.0
  0
LINE
  5
147
330
11C
100
AcDbEntity
  8
実線(細線)
100
AcDbLine
 10
409.9999999999995
 20
287.0000000000001
 30
0.0
 11
414.9999999999995
 21
287.0000000000001
 31
0.0
  0
LINE
  5
148
330
11C
100
AcDbEntity
  8
実線(細線)
100
AcDbLine
 10
409.9999999999995
 20
9.999999999999623
 30
0.0
 11
414.9999999999995
 21
9.999999999999625
 31
0.0
  0
LINE
  5
149
330
11C
100
AcDbEntity
  8
実線(細線)
100
AcDbLine
 10
409.9999999999995
 20
9.999999999999623
 30
0.0
 11
409.9999999999995
 21
4.999999999999572
 31
0.0
  0
LINE
  5
14A
330
11C
100
AcDbEntity
  8
実線(細線)
100
AcDbLine
 10
25.00000000000011
 20
9.999999999999294
 30
0.0
 11
25.00000000000011
 21
4.999999999999479
 31
0.0
  0
LINE
  5
14B
330
11C
100
AcDbEntity
  8
実線(細線)
100
AcDbLine
 10
25.00000000000011
 20
9.999999999999294
 30
0.0
 11
20.00000000000024
 21
9.999999999999287
 31
0.0
  0
LINE
  5
14C
330
11C
100
AcDbEntity
  8
実線(細線)
100
AcDbLine
 10
24.99999999999998
 20
286.9999999999998
 30
0.0
 11
19.99999999999995
 21
286.9999999999998
 31
0.0
  0
LINE
  5
14D
330
11C
100
AcDbEntity
  8
実線(細線)
100
AcDbLine
 10
24.99999999999998
 20
286.9999999999998
 30
0.0
 11
24.99999999999998
 21
291.9999999999999
 31
0.0
  0
MTEXT
  5
14E
330
11C
100
AcDbEntity
  8
寸法(細線)
100
AcDbMText
 10
22.00000000000022
 20
267.2500000000009
 30
0.0
 40
3.499999940395355
 41
0.0
 46
0.0
 71
     5
 72
     1
  1
\fTahoma|b0|i0;\H3.5000;A
  7
図枠用
 73
     1
 44
1.0
  0
MTEXT
  5
150
330
11C
100
AcDbEntity
  8
寸法(細線)
100
AcDbMText
 10
22.00000000000025
 20
222.7500000000008
 30
0.0
 40
3.499999940395355
 41
0.0
 46
0.0
 71
     5
 72
     1
  1
\fTahoma|b0|i0;\H3.5000;B
  7
図枠用
 73
     1
 44
1.0
  0
MTEXT
  5
151
330
11C
100
AcDbEntity
  8
寸法(細線)
100
AcDbMText
 10
22.00000000000027
 20
173.2500000000008
 30
0.0
 40
3.499999940395355
 41
0.0
 46
0.0
 71
     5
 72
     1
  1
\fTahoma|b0|i0;\H3.5000;C
  7
図枠用
 73
     1
 44
1.0
  0
MTEXT
  5
152
330
11C
100
AcDbEntity
  8
寸法(細線)
100
AcDbMText
 10
22.00000000000031
 20
123.7500000000008
 30
0.0
 40
3.499999940395355
 41
0.0
 46
0.0
 71
     5
 72
     1
  1
\fTahoma|b0|i0;\H3.5000;D
  7
図枠用
 73
     1
 44
1.0
  0
MTEXT
  5
153
330
11C
100
AcDbEntity
  8
寸法(細線)
100
AcDbMText
 10
22.00000000000033
 20
74.25000000000085
 30
0.0
 40
3.499999940395355
 41
0.0
 46
0.0
 71
     5
 72
     1
  1
\fTahoma|b0|i0;\H3.5000;E
  7
図枠用
 73
     1
 44
1.0
  0
MTEXT
  5
154
330
11C
100
AcDbEntity
  8
寸法(細線)
100
AcDbMText
 10
22.00000000000035
 20
29.75000000000085
 30
0.0
 40
3.499999940395355
 41
0.0
 46
0.0
 71
     5
 72
     1
  1
\fTahoma|b0|i0;\H3.5000;F
  7
図枠用
 73
     1
 44
1.0
  0
MTEXT
  5
155
330
11C
100
AcDbEntity
  8
寸法(細線)
100
AcDbMText
 10
412.9999999999994
 20
267.2500000000013
 30
0.0
 40
3.499999940395355
 41
0.0
 46
0.0
 71
     5
 72
     1
  1
\fTahoma|b0|i0;\H3.5000;A
  7
図枠用
 73
     1
 44
1.0
  0
MTEXT
  5
156
330
11C
100
AcDbEntity
  8
寸法(細線)
100
AcDbMText
 10
412.9999999999994
 20
222.7500000000012
 30
0.0
 40
3.499999940395355
 41
0.0
 46
0.0
 71
     5
 72
     1
  1
\fTahoma|b0|i0;\H3.5000;B
  7
図枠用
 73
     1
 44
1.0
  0
MTEXT
  5
157
330
11C
100
AcDbEntity
  8
寸法(細線)
100
AcDbMText
 10
412.9999999999994
 20
173.2500000000012
 30
0.0
 40
3.499999940395355
 41
0.0
 46
0.0
 71
     5
 72
     1
  1
\fTahoma|b0|i0;\H3.5000;C
  7
図枠用
 73
     1
 44
1.0
  0
MTEXT
  5
158
330
11C
100
AcDbEntity
  8
寸法(細線)
100
AcDbMText
 10
412.9999999999994
 20
123.7500000000012
 30
0.0
 40
3.499999940395355
 41
0.0
 46
0.0
 71
     5
 72
     1
  1
\fTahoma|b0|i0;\H3.5000;D
  7
図枠用
 73
     1
 44
1.0
  0
MTEXT
  5
159
330
11C
100
AcDbEntity
  8
寸法(細線)
100
AcDbMText
 10
412.9999999999994
 20
74.25000000000122
 30
0.0
 40
3.499999940395355
 41
0.0
 46
0.0
 71
     5
 72
     1
  1
\fTahoma|b0|i0;\H3.5000;E
  7
図枠用
 73
     1
 44
1.0
  0
MTEXT
  5
15A
330
11C
100
AcDbEntity
  8
寸法(細線)
100
AcDbMText
 10
412.9999999999994
 20
29.75000000000122
 30
0.0
 40
3.499999940395355
 41
0.0
 46
0.0
 71
     5
 72
     1
  1
\fTahoma|b0|i0;\H3.5000;F
  7
図枠用
 73
     1
 44
1.0
  0
MTEXT
  5
15B
330
11C
100
AcDbEntity
  8
寸法(細線)
100
AcDbMText
 10
38.74999999999995
 20
290.0000000000001
 30
0.0
 40
3.499999940395355
 41
0.0
 46
0.0
 71
     5
 72
     1
  1
\fTahoma|b0|i0;\H3.5000;1
  7
図枠用
 73
     1
 44
1.0
  0
MTEXT
  5
15C
330
11C
100
AcDbEntity
  8
寸法(細線)
100
AcDbMText
 10
78.7499999999997
 20
290.000000000001
 30
0.0
 40
3.499999940395355
 41
0.0
 46
0.0
 71
     5
 72
     1
  1
\fTahoma|b0|i0;\H3.5000;2
  7
図枠用
 73
     1
 44
1.0
  0
MTEXT
  5
15D
330
11C
100
AcDbEntity
  8
寸法(細線)
100
AcDbMText
 10
131.2499999999997
 20
290.000000000001
 30
0.0
 40
3.499999940395355
 41
0.0
 46
0.0
 71
     5
 72
     1
  1
\fTahoma|b0|i0;\H3.5000;3
  7
図枠用
 73
     1
 44
1.0
  0
MTEXT
  5
15E
330
11C
100
AcDbEntity
  8
寸法(細線)
100
AcDbMText
 10
183.7499999999997
 20
290.000000000001
 30
0.0
 40
3.499999940395355
 41
0.0
 46
0.0
 71
     5
 72
     1
  1
\fTahoma|b0|i0;\H3.5000;4
  7
図枠用
 73
     1
 44
1.0
  0
MTEXT
  5
15F
330
11C
100
AcDbEntity
  8
寸法(細線)
100
AcDbMText
 10
236.2499999999997
 20
290.000000000001
 30
0.0
 40
3.499999940395355
 41
0.0
 46
0.0
 71
     5
 72
     1
  1
\fTahoma|b0|i0;\H3.5000;5
  7
図枠用
 73
     1
 44
1.0
  0
MTEXT
  5
160
330
11C
100
AcDbEntity
  8
寸法(細線)
100
AcDbMText
 10
288.7499999999997
 20
290.0000000000011
 30
0.0
 40
3.499999940395355
 41
0.0
 46
0.0
 71
     5
 72
     1
  1
\fTahoma|b0|i0;\H3.5000;6
  7
図枠用
 73
     1
 44
1.0
  0
MTEXT
  5
161
330
11C
100
AcDbEntity
  8
寸法(細線)
100
AcDbMText
 10
341.2499999999997
 20
290.0000000000011
 30
0.0
 40
3.499999940395355
 41
0.0
 46
0.0
 71
     5
 72
     1
  1
\fTahoma|b0|i0;\H3.5000;7
  7
図枠用
 73
     1
 44
1.0
  0
MTEXT
  5
162
330
11C
100
AcDbEntity
  8
寸法(細線)
100
AcDbMText
 10
388.75
 20
290.0000000000001
 30
0.0
 40
3.499999940395355
 41
0.0
 46
0.0
 71
     5
 72
     1
  1
\fTahoma|b0|i0;\H3.5000;8
  7
図枠用
 73
     1
 44
1.0
  0
MTEXT
  5
163
330
11C
100
AcDbEntity
  8
寸法(細線)
100
AcDbMText
 10
38.75000000000018
 20
7.000000000000222
 30
0.0
 40
3.499999940395355
 41
0.0
 46
0.0
 71
     5
 72
     1
  1
\fTahoma|b0|i0;\H3.5000;1
  7
図枠用
 73
     1
 44
1.0
  0
MTEXT
  5
164
330
11C
100
AcDbEntity
  8
寸法(細線)
100
AcDbMText
 10
78.75000000000017
 20
7.000000000000231
 30
0.0
 40
3.499999940395355
 41
0.0
 46
0.0
 71
     5
 72
     1
  1
\fTahoma|b0|i0;\H3.5000;2
  7
図枠用
 73
     1
 44
1.0
  0
MTEXT
  5
165
330
11C
100
AcDbEntity
  8
寸法(細線)
100
AcDbMText
 10
131.2500000000001
 20
7.000000000000243
 30
0.0
 40
3.499999940395355
 41
0.0
 46
0.0
 71
     5
 72
     1
  1
\fTahoma|b0|i0;\H3.5000;3
  7
図枠用
 73
     1
 44
1.0
  0
MTEXT
  5
166
330
11C
100
AcDbEntity
  8
寸法(細線)
100
AcDbMText
 10
183.7500000000001
 20
7.000000000000257
 30
0.0
 40
3.499999940395355
 41
0.0
 46
0.0
 71
     5
 72
     1
  1
\fTahoma|b0|i0;\H3.5000;4
  7
図枠用
 73
     1
 44
1.0
  0
MTEXT
  5
167
330
11C
100
AcDbEntity
  8
寸法(細線)
100
AcDbMText
 10
236.2500000000002
 20
7.00000000000027
 30
0.0
 40
3.499999940395355
 41
0.0
 46
0.0
 71
     5
 72
     1
  1
\fTahoma|b0|i0;\H3.5000;5
  7
図枠用
 73
     1
 44
1.0
  0
MTEXT
  5
168
330
11C
100
AcDbEntity
  8
寸法(細線)
100
AcDbMText
 10
288.7500000000002
 20
7.000000000000282
 30
0.0
 40
3.499999940395355
 41
0.0
 46
0.0
 71
     5
 72
     1
  1
\fTahoma|b0|i0;\H3.5000;6
  7
図枠用
 73
     1
 44
1.0
  0
MTEXT
  5
169
330
11C
100
AcDbEntity
  8
寸法(細線)
100
AcDbMText
 10
341.2500000000001
 20
7.000000000000295
 30
0.0
 40
3.499999940395355
 41
0.0
 46
0.0
 71
     5
 72
     1
  1
\fTahoma|b0|i0;\H3.5000;7
  7
図枠用
 73
     1
 44
1.0
  0
MTEXT
  5
16A
330
11C
100
AcDbEntity
  8
寸法(細線)
100
AcDbMText
 10
388.7500000000001
 20
7.000000000000307
 30
0.0
 40
3.499999940395355
 41
0.0
 46
0.0
 71
     5
 72
     1
  1
\fTahoma|b0|i0;\H3.5000;8
  7
図枠用
 73
     1
 44
1.0
  0
MTEXT
  5
16B
330
11C
100
AcDbEntity
  8
寸法(細線)
100
AcDbMText
 10
407.0000000000001
 20
122.0000000000001
 30
0.0
 40
2.5
 41
0.0
 46
0.0
 71
     6
 72
     1
  1
\fTahoma|b0|i0;\H2.5000;30
  7
図枠用
 73
     1
 44
1.0
  0
MTEXT
  5
16C
330
11C
100
AcDbEntity
  8
寸法(細線)
100
AcDbMText
 10
407.0000000000001
 20
92.00000000000015
 30
0.0
 40
2.5
 41
0.0
 46
0.0
 71
     6
 72
     1
  1
\fTahoma|b0|i0;\H2.5000;0
  7
図枠用
 73
     1
 44
1.0
  0
ENDBLK
  5
11E
330
11C
100
AcDbEntity
  8
0
100
AcDbBlockEnd
  0
BLOCK
  5
16F
330
16E
100
AcDbEntity
  8
0
100
AcDbBlockBegin
  2
表題欄 ULVAC表題欄
 70
     2
 10
0.0
 20
0.0
 30
0.0
  3
表題欄 ULVAC表題欄
  1

  0
ARC
  5
171
330
16E
100
AcDbEntity
  8
実線(中線)
 62
    30
420
 16744448
100
AcDbCircle
 10
84.27558773894885
 20
27.5247436245494
 30
0.0
 40
0.0183014339639688
100
AcDbArc
 50
180.0
 51
270.0
  0
LINE
  5
172
330
16E
100
AcDbEntity
  8
実線(細線)
 62
    16
420
  8388608
100
AcDbLine
 10
101.0
 20
64.00000000000002
 30
0.0
 11
175.0
 21
64.00000000000002
 31
0.0
  0
LINE
  5
173
330
16E
100
AcDbEntity
  8
実線(中線)
 62
    30
420
 16744448
100
AcDbLine
 10
97.84812375940266
 20
29.21627969267353
 30
0.0
 11
98.44475148772023
 21
29.21627969267353
 31
0.0
  0
LINE
  5
174
330
16E
100
AcDbEntity
  8
実線(中線)
 62
    30
420
 16744448
100
AcDbLine
 10
97.89795783593971
 20
30.70198198760917
 30
0.0
 11
98.54905912726128
 21
30.70198198760917
 31
0.0
  0
ARC
  5
175
330
16E
100
AcDbEntity
  8
実線(中線)
 62
    30
420
 16744448
100
AcDbCircle
 10
97.93442782922472
 20
32.04474871228086
 30
0.0
 40
0.3660286792793762
100
AcDbArc
 50
230.5099444785507
 51
341.6481534344288
  0
LINE
  5
176
330
16E
100
AcDbEntity
  8
実線(中線)
 62
    30
420
 16744448
100
AcDbLine
 10
98.28184064101055
 20
31.92950404966227
 30
0.0
 11
98.48188037700067
 21
32.53253733181278
 31
0.0
  0
ARC
  5
177
330
16E
100
AcDbEntity
  8
実線(中線)
 62
    30
420
 16744448
100
AcDbCircle
 10
98.49469441312841
 20
32.5142358936634
 30
0.0
 40
0.0183014339639688
100
AcDbArc
 50
90.0
 51
150.0004403131238
  0
ARC
  5
178
330
16E
100
AcDbEntity
  8
実線(中線)
 62
    30
420
 16744448
100
AcDbCircle
 10
98.53298965919742
 20
32.5142358936634
 30
0.0
 40
0.0183014339639688
100
AcDbArc
 50
0.0
 51
90.0
  0
LINE
  5
179
330
16E
100
AcDbEntity
  8
実線(中線)
 62
    30
420
 16744448
100
AcDbLine
 10
98.49469441312841
 20
32.53253732762737
 30
0.0
 11
98.53298965919742
 21
32.53253732762737
 31
0.0
  0
LINE
  5
17A
330
16E
100
AcDbEntity
  8
実線(中線)
 62
    30
420
 16744448
100
AcDbLine
 10
98.55129109316139
 20
32.5142358936634
 30
0.0
 11
98.55129109316139
 21
30.70198198808359
 31
0.0
  0
ELLIPSE
  5
17B
330
16E
100
AcDbEntity
  8
実線(中線)
 62
    30
420
 16744448
100
AcDbEllipse
 10
95.83078854543702
 20
29.99480545972057
 30
0.0
 11
2.287679245496095
 21
-0.0000001615248652
 31
0.0
210
0.0
220
0.0
230
1.0
 40
0.7216510581970215
 41
0.4426733724477117
 42
5.792109617456223
  0
ELLIPSE
  5
17C
330
16E
100
AcDbEntity
  8
実線(中線)
 62
    30
420
 16744448
100
AcDbEllipse
 10
95.42481819728806
 20
29.9948055263647
 30
0.0
 11
3.172930735277039
 21
-0.0000001920919516
 31
0.0
210
0.0
220
0.0
230
0.9999999999999996
 40
0.7998068702141572
 41
0.770473062673082
 42
5.971377141295471
  0
ARC
  5
17D
330
16E
100
AcDbEntity
  8
実線(中線)
 62
    30
420
 16744448
100
AcDbCircle
 10
79.62435242190972
 20
28.89252710812938
 30
0.0
 40
0.0091507169819844
100
AcDbArc
 50
350.2609202919642
 51
146.6766537949536
  0
ARC
  5
17E
330
16E
100
AcDbEntity
  8
実線(中線)
 62
    30
420
 16744448
100
AcDbCircle
 10
78.53757075927382
 20
28.92188017709042
 30
0.0
 40
0.9150716981984398
100
AcDbArc
 50
270.0
 51
326.6766537949552
  0
LINE
  5
17F
330
16E
100
AcDbEntity
  8
実線(中線)
 62
    30
420
 16744448
100
AcDbLine
 10
79.30218964726363
 20
28.41917333511093
 30
0.0
 11
79.61670623302982
 21
28.89755417654918
 31
0.0
  0
ARC
  5
180
330
16E
100
AcDbEntity
  8
実線(中線)
 62
    30
420
 16744448
100
AcDbCircle
 10
67.39395212294069
 20
28.51059288744523
 30
0.0
 40
0.45753584909922
100
AcDbArc
 50
202.6932775652488
 51
234.016048948011
  0
ARC
  5
181
330
16E
100
AcDbEntity
  8
実線(中線)
 62
    30
420
 16744448
100
AcDbCircle
 10
67.35082535844461
 20
28.61372472329687
 30
0.0
 40
0.45753584909922
100
AcDbArc
 50
180.0
 51
202.6932775652483
  0
ARC
  5
182
330
16E
100
AcDbEntity
  8
実線(中線)
 62
    30
420
 16744448
100
AcDbCircle
 10
68.03687324893042
 20
28.04375843927431
 30
0.0
 40
0.45753584909922
100
AcDbArc
 50
234.016048948011
 51
253.9178076732257
  0
ARC
  5
183
330
16E
100
AcDbEntity
  8
実線(中線)
 62
    30
420
 16744448
100
AcDbCircle
 10
68.65691216124449
 20
27.8650021488154
 30
0.0
 40
0.45753584909922
100
AcDbArc
 50
253.9178076732257
 51
261.6064190568143
  0
LINE
  5
184
330
16E
100
AcDbEntity
  8
実線(中線)
 62
    30
420
 16744448
100
AcDbLine
 10
67.1251229917923
 20
28.14036329454787
 30
0.0
 11
67.76804411778202
 21
27.67352884637695
 31
0.0
  0
LINE
  5
185
330
16E
100
AcDbEntity
  8
実線(中線)
 62
    30
420
 16744448
100
AcDbLine
 10
67.91012848565586
 20
27.6041281193538
 30
0.0
 11
68.53016739796993
 21
27.42537182889489
 31
0.0
  0
LINE
  5
186
330
16E
100
AcDbEntity
  8
実線(中線)
 62
    30
420
 16744448
100
AcDbLine
 10
66.97183716153287
 20
28.33407656364875
 30
0.0
 11
66.92871039703678
 21
28.43720839950039
 31
0.0
  0
ARC
  5
187
330
16E
100
AcDbEntity
  8
実線(中線)
 62
    30
420
 16744448
100
AcDbCircle
 10
72.16149525790462
 20
28.05097770043659
 30
0.0
 40
0.45753584909922
100
AcDbArc
 50
284.4688421409731
 51
305.1353088422771
  0
ARC
  5
188
330
16E
100
AcDbEntity
  8
実線(中線)
 62
    30
420
 16744448
100
AcDbCircle
 10
89.05769860544758
 20
28.11028785285529
 30
0.0
 40
0.45753584909922
100
AcDbArc
 50
310.2915552042222
 51
29.66165865504882
  0
ARC
  5
189
330
16E
100
AcDbEntity
  8
実線(中線)
 62
    30
420
 16744448
100
AcDbCircle
 10
91.8439153618978
 20
28.3485009693514
 30
0.0
 40
0.45753584909922
100
AcDbArc
 50
211.3286928667025
 51
241.0759065697376
  0
ARC
  5
18A
330
16E
100
AcDbEntity
  8
実線(中線)
 62
    30
420
 16744448
100
AcDbCircle
 10
89.17864579648707
 20
27.57699790295103
 30
0.0
 40
0.0274521509459532
100
AcDbArc
 50
130.291555204206
 51
180.0
  0
ARC
  5
18B
330
16E
100
AcDbEntity
  8
実線(中線)
 62
    30
420
 16744448
100
AcDbCircle
 10
92.24363297572486
 20
27.57351905830347
 30
0.0
 40
0.0274521509459532
100
AcDbArc
 50
0.0
 51
61.0759065697549
  0
ARC
  5
18C
330
16E
100
AcDbEntity
  8
実線(中線)
 62
    30
420
 16744448
100
AcDbCircle
 10
92.25278369270684
 20
27.5247436245494
 30
0.0
 40
0.0183014339639688
100
AcDbArc
 50
270.0
 51
0.0
  0
LINE
  5
18D
330
16E
100
AcDbEntity
  8
実線(中線)
 62
    30
420
 16744448
100
AcDbLine
 10
92.27108512667081
 20
27.5247436245494
 30
0.0
 11
92.27108512667081
 21
27.57351905830347
 31
0.0
  0
ARC
  5
18E
330
16E
100
AcDbEntity
  8
実線(中線)
 62
    30
420
 16744448
100
AcDbCircle
 10
89.16949507950509
 20
27.5247436245494
 30
0.0
 40
0.0183014339639688
100
AcDbArc
 50
180.0
 51
270.0
  0
LINE
  5
18F
330
16E
100
AcDbEntity
  8
実線(中線)
 62
    30
420
 16744448
100
AcDbLine
 10
89.16089311189947
 20
27.59793740584612
 30
0.0
 11
89.35357668190734
 21
27.76129613793728
 31
0.0
  0
LINE
  5
190
330
16E
100
AcDbEntity
  8
実線(中線)
 62
    30
420
 16744448
100
AcDbLine
 10
91.62262792802708
 20
27.94803758173417
 30
0.0
 11
92.25691022175709
 21
27.5975468615605
 31
0.0
  0
LINE
  5
191
330
16E
100
AcDbEntity
  8
実線(中線)
 62
    30
420
 16744448
100
AcDbLine
 10
89.15119364554113
 20
27.5247436245494
 30
0.0
 11
89.15119364554113
 21
27.57699790295103
 31
0.0
  0
ARC
  5
192
330
16E
100
AcDbEntity
  8
実線(中線)
 62
    30
420
 16744448
100
AcDbCircle
 10
71.64277704169482
 20
28.65465006208192
 30
0.0
 40
0.45753584909922
100
AcDbArc
 50
322.3146252338702
 51
0.0
  0
ARC
  5
193
330
16E
100
AcDbEntity
  8
実線(中線)
 62
    30
420
 16744448
100
AcDbCircle
 10
86.02833312952185
 20
27.5247436245494
 30
0.0
 40
0.0183014339639688
100
AcDbArc
 50
270.0
 51
0.0
  0
ARC
  5
194
330
16E
100
AcDbEntity
  8
実線(中線)
 62
    30
420
 16744448
100
AcDbCircle
 10
84.28473845593082
 20
27.57450998447851
 30
0.0
 40
0.0274521509459532
100
AcDbArc
 50
122.0410322243592
 51
180.0
  0
ARC
  5
195
330
16E
100
AcDbEntity
  8
実線(中線)
 62
    30
420
 16744448
100
AcDbCircle
 10
86.01918241253988
 20
27.57643084749162
 30
0.0
 40
0.0274521509459532
100
AcDbArc
 50
0.0
 51
51.64187206940002
  0
ARC
  5
196
330
16E
100
AcDbEntity
  8
実線(中線)
 62
    30
420
 16744448
100
AcDbCircle
 10
84.58672493286892
 20
28.33565647970111
 30
0.0
 40
0.45753584909922
100
AcDbArc
 50
302.0410322243666
 51
329.3600439739087
  0
ARC
  5
197
330
16E
100
AcDbEntity
  8
実線(中線)
 62
    30
420
 16744448
100
AcDbCircle
 10
86.11696815315427
 20
28.11753414107857
 30
0.0
 40
0.45753584909922
100
AcDbArc
 50
149.3600439739066
 51
231.6418720693948
  0
LINE
  5
198
330
16E
100
AcDbEntity
  8
実線(中線)
 62
    30
420
 16744448
100
AcDbLine
 10
85.83303289530602
 20
27.75875869241805
 30
0.0
 11
86.03621852801078
 21
27.59795737441125
 31
0.0
  0
LINE
  5
199
330
16E
100
AcDbEntity
  8
実線(中線)
 62
    30
420
 16744448
100
AcDbLine
 10
84.27017436358694
 20
27.59778030475473
 30
0.0
 11
84.82945980526723
 21
27.94781780843079
 31
0.0
  0
LINE
  5
19A
330
16E
100
AcDbEntity
  8
実線(中線)
 62
    30
420
 16744448
100
AcDbLine
 10
84.25728630498488
 20
27.5247436245494
 30
0.0
 11
84.25728630498488
 21
27.57450998447851
 31
0.0
  0
LINE
  5
19B
330
16E
100
AcDbEntity
  8
実線(中線)
 62
    30
420
 16744448
100
AcDbLine
 10
86.04663456348582
 20
27.5247436245494
 30
0.0
 11
86.04663456348582
 21
27.57643084749162
 31
0.0
  0
ARC
  5
19C
330
16E
100
AcDbEntity
  8
実線(中線)
 62
    30
420
 16744448
100
AcDbCircle
 10
84.192190067495
 20
31.46312572501129
 30
0.0
 40
0.45753584909922
100
AcDbArc
 50
329.9129623574227
 51
54.32124068791902
  0
ARC
  5
19D
330
16E
100
AcDbEntity
  8
実線(中線)
 62
    30
420
 16744448
100
AcDbCircle
 10
85.74176900249989
 20
31.2533912647587
 30
0.0
 40
0.45753584909922
100
AcDbArc
 50
118.8516001623718
 51
149.9129623574241
  0
ARC
  5
19E
330
16E
100
AcDbEntity
  8
実線(中線)
 62
    30
420
 16744448
100
AcDbCircle
 10
84.31837437727899
 20
31.99467806086975
 30
0.0
 40
0.0183014339639688
100
AcDbArc
 50
90.0
 51
180.0
  0
ARC
  5
19F
330
16E
100
AcDbEntity
  8
実線(中線)
 62
    30
420
 16744448
100
AcDbCircle
 10
86.03776626485185
 20
31.99467806086975
 30
0.0
 40
0.0183014339639688
100
AcDbArc
 50
0.0
 51
90.0
  0
ARC
  5
1A0
330
16E
100
AcDbEntity
  8
実線(中線)
 62
    30
420
 16744448
100
AcDbCircle
 10
84.32752509426098
 20
31.96300912108265
 30
0.0
 40
0.0274521509459532
100
AcDbArc
 50
180.0
 51
234.3212406879244
  0
ARC
  5
1A1
330
16E
100
AcDbEntity
  8
実線(中線)
 62
    30
420
 16744448
100
AcDbCircle
 10
86.02861554786985
 20
31.96514294886514
 30
0.0
 40
0.0274521509459532
100
AcDbArc
 50
298.8516001623457
 51
0.0
  0
LINE
  5
1A2
330
16E
100
AcDbEntity
  8
実線(中線)
 62
    30
420
 16744448
100
AcDbLine
 10
84.31151389856683
 20
31.94070974432
 30
0.0
 11
84.45904332906421
 21
31.83478200438893
 31
0.0
  0
LINE
  5
1A3
330
16E
100
AcDbEntity
  8
実線(中線)
 62
    30
420
 16744448
100
AcDbLine
 10
85.52098843040127
 20
31.65413431484781
 30
0.0
 11
86.04186238219575
 21
31.94109836585978
 31
0.0
  0
LINE
  5
1A4
330
16E
100
AcDbEntity
  8
実線(中線)
 62
    30
420
 16744448
100
AcDbLine
 10
84.30007294331502
 20
31.96300912108265
 30
0.0
 11
84.30007294331502
 21
31.99467806086975
 31
0.0
  0
LINE
  5
1A5
330
16E
100
AcDbEntity
  8
実線(中線)
 62
    30
420
 16744448
100
AcDbLine
 10
86.0560676988158
 20
31.96514294886514
 30
0.0
 11
86.05606769881582
 21
31.99467806086975
 31
0.0
  0
ARC
  5
1A6
330
16E
100
AcDbEntity
  8
実線(中線)
 62
    30
420
 16744448
100
AcDbCircle
 10
81.13038553552586
 20
31.96780524655786
 30
0.0
 40
0.0274521509459532
100
AcDbArc
 50
300.6225974401171
 51
0.0
  0
ARC
  5
1A7
330
16E
100
AcDbEntity
  8
実線(中線)
 62
    30
420
 16744448
100
AcDbCircle
 10
81.13953625250786
 20
31.99467806086975
 30
0.0
 40
0.0183014339639688
100
AcDbArc
 50
0.0
 51
90.0
  0
ARC
  5
1A8
330
16E
100
AcDbEntity
  8
実線(中線)
 62
    30
420
 16744448
100
AcDbCircle
 10
78.17276885600548
 20
31.99467806086975
 30
0.0
 40
0.0183014339639688
100
AcDbArc
 50
90.0
 51
180.0
  0
ARC
  5
1A9
330
16E
100
AcDbEntity
  8
実線(中線)
 62
    30
420
 16744448
100
AcDbCircle
 10
78.18191957298748
 20
31.9658908444527
 30
0.0
 40
0.0274521509459532
100
AcDbArc
 50
180.0
 51
243.434963122501
  0
ARC
  5
1AA
330
16E
100
AcDbEntity
  8
実線(中線)
 62
    30
420
 16744448
100
AcDbCircle
 10
81.17786013180882
 20
31.43232204972165
 30
0.0
 40
0.45753584909922
100
AcDbArc
 50
120.6225974401335
 51
210.6745406927814
  0
ARC
  5
1AB
330
16E
100
AcDbEntity
  8
実線(中線)
 62
    30
420
 16744448
100
AcDbCircle
 10
78.54185231873228
 20
31.24369158334538
 30
0.0
 40
0.45753584909922
100
AcDbArc
 50
30.67454069278085
 51
63.43496312249693
  0
LINE
  5
1AC
330
16E
100
AcDbEntity
  8
実線(中線)
 62
    30
420
 16744448
100
AcDbLine
 10
80.94480013091056
 20
31.82605049572503
 30
0.0
 11
81.14436913557975
 21
31.94418153979765
 31
0.0
  0
LINE
  5
1AD
330
16E
100
AcDbEntity
  8
実線(中線)
 62
    30
420
 16744448
100
AcDbLine
 10
78.16964260398677
 20
31.94133689113118
 30
0.0
 11
78.746468468744
 21
31.65292413870398
 31
0.0
  0
LINE
  5
1AE
330
16E
100
AcDbEntity
  8
実線(中線)
 62
    30
420
 16744448
100
AcDbLine
 10
81.15783768647181
 20
31.96780524655786
 30
0.0
 11
81.15783768647183
 21
31.99467806086975
 31
0.0
  0
LINE
  5
1AF
330
16E
100
AcDbEntity
  8
実線(中線)
 62
    30
420
 16744448
100
AcDbLine
 10
78.15446742204152
 20
31.9658908444527
 30
0.0
 11
78.15446742204151
 21
31.99467806086975
 31
0.0
  0
LINE
  5
1B0
330
16E
100
AcDbEntity
  8
実線(中線)
 62
    30
420
 16744448
100
AcDbLine
 10
68.64668466049228
 20
28.33905465601379
 30
0.0
 11
68.61895858679445
 21
28.37494693477318
 31
0.0
  0
ARC
  5
1B1
330
16E
100
AcDbEntity
  8
実線(中線)
 62
    30
420
 16744448
100
AcDbCircle
 10
68.98104312616995
 20
28.6546500623141
 30
0.0
 40
0.45753584909922
100
AcDbArc
 50
180.0
 51
217.6853747661298
  0
ARC
  5
1B2
330
16E
100
AcDbEntity
  8
実線(中線)
 62
    30
420
 16744448
100
AcDbCircle
 10
69.00876919986778
 20
28.61875778355472
 30
0.0
 40
0.45753584909922
100
AcDbArc
 50
217.6853747661303
 51
257.6356445680838
  0
LINE
  5
1B3
330
16E
100
AcDbEntity
  8
実線(中線)
 62
    30
420
 16744448
100
AcDbLine
 10
69.47446024900478
 20
28.04827257217615
 30
0.0
 11
68.91079810856232
 21
28.1718341676209
 31
0.0
  0
ARC
  5
1B4
330
16E
100
AcDbEntity
  8
実線(中線)
 62
    30
420
 16744448
100
AcDbCircle
 10
70.67449137095358
 20
36.62402065216547
 30
0.0
 40
8.659303079641354
100
AcDbArc
 50
262.0341483339005
 51
264.3484656952616
  0
ARC
  5
1B5
330
16E
100
AcDbEntity
  8
実線(中線)
 62
    30
420
 16744448
100
AcDbCircle
 10
71.61505096799699
 20
28.61875778332253
 30
0.0
 40
0.45753584909922
100
AcDbArc
 50
282.3643554319162
 51
322.3146252338702
  0
LINE
  5
1B6
330
16E
100
AcDbEntity
  8
実線(中線)
 62
    30
420
 16744448
100
AcDbLine
 10
71.14935991886001
 20
28.04827257194397
 30
0.0
 11
71.71302205930246
 21
28.17183416738871
 31
0.0
  0
LINE
  5
1B7
330
16E
100
AcDbEntity
  8
実線(中線)
 62
    30
420
 16744448
100
AcDbLine
 10
71.97713550737249
 20
28.3390546557816
 30
0.0
 11
72.00486158107032
 21
28.37494693454099
 31
0.0
  0
ARC
  5
1B8
330
16E
100
AcDbEntity
  8
実線(中線)
 62
    30
420
 16744448
100
AcDbCircle
 10
66.38452228749603
 20
31.99467806086975
 30
0.0
 40
0.0183014339639688
100
AcDbArc
 50
90.0
 51
180.0
  0
ARC
  5
1B9
330
16E
100
AcDbEntity
  8
実線(中線)
 62
    30
420
 16744448
100
AcDbCircle
 10
69.03215554149929
 20
31.99467806086975
 30
0.0
 40
0.0183014339639688
100
AcDbArc
 50
0.0
 51
90.0
  0
ARC
  5
1BA
330
16E
100
AcDbEntity
  8
実線(中線)
 62
    30
420
 16744448
100
AcDbCircle
 10
66.393673004478
 20
31.96223884050724
 30
0.0
 40
0.0274521509459532
100
AcDbArc
 50
180.0
 51
236.0496694967511
  0
ARC
  5
1BB
330
16E
100
AcDbEntity
  8
実線(中線)
 62
    30
420
 16744448
100
AcDbCircle
 10
69.02300482451733
 20
31.96226226991751
 30
0.0
 40
0.0274521509459532
100
AcDbArc
 50
303.9582570957597
 51
0.0
  0
ARC
  5
1BC
330
16E
100
AcDbEntity
  8
実線(中線)
 62
    30
420
 16744448
100
AcDbCircle
 10
66.43575366024615
 20
31.34924854232643
 30
0.0
 40
0.45753584909922
100
AcDbArc
 50
0.0
 51
56.04966949675489
  0
ARC
  5
1BD
330
16E
100
AcDbEntity
  8
実線(中線)
 62
    30
420
 16744448
100
AcDbCircle
 10
68.98104312616995
 20
31.34928915611249
 30
0.0
 40
0.45753584909922
100
AcDbArc
 50
123.9582570957582
 51
180.0
  0
LINE
  5
1BE
330
16E
100
AcDbEntity
  8
実線(中線)
 62
    30
420
 16744448
100
AcDbLine
 10
68.72546874408427
 20
31.728789865509
 30
0.0
 11
69.03833928744247
 21
31.93949222735371
 31
0.0
  0
LINE
  5
1BF
330
16E
100
AcDbEntity
  8
実線(中線)
 62
    30
420
 16744448
100
AcDbLine
 10
66.37834169182427
 20
31.93946667671298
 30
0.0
 11
66.69127553780831
 21
31.72878460556424
 31
0.0
  0
LINE
  5
1C0
330
16E
100
AcDbEntity
  8
実線(中線)
 62
    30
420
 16744448
100
AcDbLine
 10
69.05045697546327
 20
31.96226226991751
 30
0.0
 11
69.05045697546326
 21
31.99467806086975
 31
0.0
  0
LINE
  5
1C1
330
16E
100
AcDbEntity
  8
実線(中線)
 62
    30
420
 16744448
100
AcDbLine
 10
66.36622085353207
 20
31.96223884050724
 30
0.0
 11
66.36622085353207
 21
31.99467806086975
 31
0.0
  0
ARC
  5
1C2
330
16E
100
AcDbEntity
  8
実線(中線)
 62
    30
420
 16744448
100
AcDbCircle
 10
71.64277704169482
 20
31.3606561027313
 30
0.0
 40
0.45753584909922
100
AcDbArc
 50
0.0
 51
53.80036358700198
  0
ARC
  5
1C3
330
16E
100
AcDbEntity
  8
実線(中線)
 62
    30
420
 16744448
100
AcDbCircle
 10
71.63998588454899
 20
31.9943218972282
 30
0.0
 40
0.0183014339639688
100
AcDbArc
 50
90.0
 51
180.0
  0
ARC
  5
1C4
330
16E
100
AcDbEntity
  8
実線(中線)
 62
    30
420
 16744448
100
AcDbCircle
 10
71.66743803549493
 20
31.96628981285427
 30
0.0
 40
0.045753584909922
100
AcDbArc
 50
180.0
 51
233.8003635870046
  0
LINE
  5
1C5
330
16E
100
AcDbEntity
  8
実線(中線)
 62
    30
420
 16744448
100
AcDbLine
 10
71.64041594322876
 20
31.92936831421639
 30
0.0
 11
71.91299796435668
 21
31.72987108911013
 31
0.0
  0
ARC
  5
1C6
330
16E
100
AcDbEntity
  8
実線(中線)
 62
    30
420
 16744448
100
AcDbCircle
 10
73.35279295775212
 20
31.97022069802315
 30
0.0
 40
0.045753584909922
100
AcDbArc
 50
303.51137547322
 51
0.0
  0
ARC
  5
1C7
330
16E
100
AcDbEntity
  8
実線(中線)
 62
    30
420
 16744448
100
AcDbCircle
 10
73.38024510869807
 20
31.9943218972282
 30
0.0
 40
0.0183014339639688
100
AcDbArc
 50
0.0
 51
90.0
  0
LINE
  5
1C8
330
16E
100
AcDbEntity
  8
実線(中線)
 62
    30
420
 16744448
100
AcDbLine
 10
72.99011988461498
 20
31.6751939266935
 30
0.0
 11
73.3780536279056
 21
31.932072446746
 31
0.0
  0
ARC
  5
1C9
330
16E
100
AcDbEntity
  8
実線(中線)
 62
    30
420
 16744448
100
AcDbCircle
 10
73.15731863392499
 20
31.45746327339655
 30
0.0
 40
0.2745215094595321
100
AcDbArc
 50
127.5212181517733
 51
180.0
  0
LINE
  5
1CA
330
16E
100
AcDbEntity
  8
実線(中線)
 62
    30
420
 16744448
100
AcDbLine
 10
71.62168445058501
 20
31.96628981285427
 30
0.0
 11
71.62168445058501
 21
31.9943218972282
 31
0.0
  0
LINE
  5
1CB
330
16E
100
AcDbEntity
  8
実線(中線)
 62
    30
420
 16744448
100
AcDbLine
 10
73.39854654266204
 20
31.97022069802315
 30
0.0
 11
73.39854654266204
 21
31.99432189746041
 31
0.0
  0
LINE
  5
1CC
330
16E
100
AcDbEntity
  8
実線(中線)
 62
    30
420
 16744448
100
AcDbLine
 10
72.59146757722937
 20
27.79408848941074
 30
0.0
 11
72.42481140884644
 21
27.67680707376458
 31
0.0
  0
ARC
  5
1CD
330
16E
100
AcDbEntity
  8
実線(中線)
 62
    30
420
 16744448
100
AcDbCircle
 10
72.19649335081664
 20
28.35534442941878
 30
0.0
 40
0.6863037736488302
100
AcDbArc
 50
305.1353088422752
 51
0.0
  0
LINE
  5
1CE
330
16E
100
AcDbEntity
  8
実線(中線)
 62
    30
420
 16744448
100
AcDbLine
 10
72.88279712446547
 20
28.35534442941878
 30
0.0
 11
72.88279712446545
 21
31.45746327339655
 31
0.0
  0
ARC
  5
1CF
330
16E
100
AcDbEntity
  8
実線(中線)
 62
    30
420
 16744448
100
AcDbCircle
 10
76.74868815350068
 20
28.78461942236065
 30
0.0
 40
0.7778109434686743
100
AcDbArc
 50
180.0
 51
270.0
  0
ARC
  5
1D0
330
16E
100
AcDbEntity
  8
実線(中線)
 62
    30
420
 16744448
100
AcDbCircle
 10
73.83947809277427
 20
27.54221574463317
 30
0.0
 40
0.0915071698198441
100
AcDbArc
 50
125.1353088422695
 51
180.0
  0
ARC
  5
1D1
330
16E
100
AcDbEntity
  8
実線(中線)
 62
    30
420
 16744448
100
AcDbCircle
 10
73.65435566865783
 20
28.36304625455042
 30
0.0
 40
0.6863037736488302
100
AcDbArc
 50
305.1353088422752
 51
0.0
  0
ARC
  5
1D2
330
16E
100
AcDbEntity
  8
実線(中線)
 62
    30
420
 16744448
100
AcDbCircle
 10
73.76627235691841
 20
27.5247436245494
 30
0.0
 40
0.0183014339639688
100
AcDbArc
 50
180.0
 51
270.0
  0
LINE
  5
1D3
330
16E
100
AcDbEntity
  8
実線(中線)
 62
    30
420
 16744448
100
AcDbLine
 10
73.74797092295441
 20
27.54221574463317
 30
0.0
 11
73.74797092295444
 21
27.5247436245494
 31
0.0
  0
LINE
  5
1D4
330
16E
100
AcDbEntity
  8
実線(中線)
 62
    30
420
 16744448
100
AcDbLine
 10
74.04932989507054
 20
27.80179031454239
 30
0.0
 11
73.78681486258591
 21
27.61704986996758
 31
0.0
  0
LINE
  5
1D5
330
16E
100
AcDbEntity
  8
実線(中線)
 62
    30
420
 16744448
100
AcDbLine
 10
69.82174042894166
 20
28.00680847791886
 30
0.0
 11
70.80207974126944
 21
28.00680847791886
 31
0.0
  0
ARC
  5
1D6
330
16E
100
AcDbEntity
  8
実線(中線)
 62
    30
420
 16744448
100
AcDbCircle
 10
74.06613793284711
 20
31.45040875412931
 30
0.0
 40
0.2745215094595321
100
AcDbArc
 50
0.0
 51
54.82366186721004
  0
ARC
  5
1D7
330
16E
100
AcDbEntity
  8
実線(中線)
 62
    30
420
 16744448
100
AcDbCircle
 10
76.24539871949155
 20
31.45097171384709
 30
0.0
 40
0.2745215094595321
100
AcDbArc
 50
125.361678350404
 51
180.0
  0
LINE
  5
1D8
330
16E
100
AcDbEntity
  8
実線(中線)
 62
    30
420
 16744448
100
AcDbLine
 10
76.46805079253937
 20
31.94560175465337
 30
0.0
 11
76.08652327938663
 21
31.6748481388842
 31
0.0
  0
LINE
  5
1D9
330
16E
100
AcDbEntity
  8
実線(中線)
 62
    30
420
 16744448
100
AcDbLine
 10
73.84000521587914
 20
31.94564226299743
 30
0.0
 11
74.22428834819081
 21
31.67479793676197
 31
0.0
  0
ARC
  5
1DA
330
16E
100
AcDbEntity
  8
実線(中線)
 62
    30
420
 16744448
100
AcDbCircle
 10
73.85510869171993
 20
31.98883109893494
 30
0.0
 40
0.045753584909922
100
AcDbArc
 50
180.0
 51
250.724866313083
  0
ARC
  5
1DB
330
16E
100
AcDbEntity
  8
実線(中線)
 62
    30
420
 16744448
100
AcDbCircle
 10
73.82765654077397
 20
31.99467806086975
 30
0.0
 40
0.0183014339639688
100
AcDbArc
 50
90.0
 51
180.0
  0
ARC
  5
1DC
330
16E
100
AcDbEntity
  8
実線(中線)
 62
    30
420
 16744448
100
AcDbCircle
 10
76.48030848871029
 20
31.99467806086975
 30
0.0
 40
0.0183014339639688
100
AcDbArc
 50
0.0
 51
90.0
  0
ARC
  5
1DD
330
16E
100
AcDbEntity
  8
実線(中線)
 62
    30
420
 16744448
100
AcDbCircle
 10
76.45285633776431
 20
31.98875866691779
 30
0.0
 40
0.045753584909922
100
AcDbArc
 50
289.3958740160664
 51
0.0
  0
LINE
  5
1DE
330
16E
100
AcDbEntity
  8
実線(中線)
 62
    30
420
 16744448
100
AcDbLine
 10
73.80935510681
 20
31.98883109893494
 30
0.0
 11
73.80935510681
 21
31.99467806086975
 31
0.0
  0
LINE
  5
1DF
330
16E
100
AcDbEntity
  8
実線(中線)
 62
    30
420
 16744448
100
AcDbLine
 10
76.49860992267424
 20
31.98875866691779
 30
0.0
 11
76.49860992267426
 21
31.99467806086975
 31
0.0
  0
LINE
  5
1E0
330
16E
100
AcDbEntity
  8
実線(中線)
 62
    30
420
 16744448
100
AcDbLine
 10
71.63998588454899
 20
32.01262333119217
 30
0.0
 11
73.38024510844869
 21
32.01262333119217
 31
0.0
  0
ARC
  5
1E1
330
16E
100
AcDbEntity
  8
実線(中線)
 62
    30
420
 16744448
100
AcDbCircle
 10
69.94932879691119
 20
36.62402065193328
 30
0.0
 40
9.311390711220958
100
AcDbArc
 50
261.606419056422
 51
284.4688421434992
  0
ARC
  5
1E2
330
16E
100
AcDbEntity
  8
実線(中線)
 62
    30
420
 16744448
100
AcDbCircle
 10
69.94932879691119
 20
36.62402065193328
 30
0.0
 40
8.659303079641354
100
AcDbArc
 50
275.6515343203391
 51
277.9658516660997
  0
LINE
  5
1E3
330
16E
100
AcDbEntity
  8
実線(中線)
 62
    30
420
 16744448
100
AcDbLine
 10
66.38452228749603
 20
32.01297949483372
 30
0.0
 11
69.03215554149929
 21
32.01297949483372
 31
0.0
  0
LINE
  5
1E4
330
16E
100
AcDbEntity
  8
実線(中線)
 62
    30
420
 16744448
100
AcDbLine
 10
73.76627235691841
 20
27.50644219058543
 30
0.0
 11
79.39573596762361
 21
27.50644219058543
 31
0.0
  0
LINE
  5
1E5
330
16E
100
AcDbEntity
  8
実線(中線)
 62
    30
420
 16744448
100
AcDbLine
 10
79.39573596762361
 20
27.50644219058543
 30
0.0
 11
79.63337126167155
 21
28.89097915766671
 31
0.0
  0
LINE
  5
1E6
330
16E
100
AcDbEntity
  8
実線(中線)
 62
    30
420
 16744448
100
AcDbLine
 10
76.74868815350068
 20
28.00680847889197
 30
0.0
 11
78.53757075927382
 21
28.00680847889199
 31
0.0
  0
LINE
  5
1E7
330
16E
100
AcDbEntity
  8
実線(中線)
 62
    30
420
 16744448
100
AcDbLine
 10
72.10031289079404
 20
28.65465006208192
 30
0.0
 11
72.10031289079404
 21
31.3606561027313
 31
0.0
  0
LINE
  5
1E8
330
16E
100
AcDbEntity
  8
実線(中線)
 62
    30
420
 16744448
100
AcDbLine
 10
74.34065944230666
 20
28.36304625455042
 30
0.0
 11
74.34065944230666
 21
31.45040875412931
 31
0.0
  0
LINE
  5
1E9
330
16E
100
AcDbEntity
  8
実線(中線)
 62
    30
420
 16744448
100
AcDbLine
 10
75.970877210032
 20
28.78461942236065
 30
0.0
 11
75.970877210032
 21
31.45097171384709
 31
0.0
  0
LINE
  5
1EA
330
16E
100
AcDbEntity
  8
実線(中線)
 62
    30
420
 16744448
100
AcDbLine
 10
81.29059265303792
 20
27.50644219058543
 30
0.0
 11
83.04208972205046
 21
27.50644219058543
 31
0.0
  0
LINE
  5
1EB
330
16E
100
AcDbEntity
  8
実線(中線)
 62
    30
420
 16744448
100
AcDbLine
 10
81.29059265303792
 20
27.50644219058543
 30
0.0
 11
78.93536931524605
 21
31.47710843506291
 31
0.0
  0
LINE
  5
1EC
330
16E
100
AcDbEntity
  8
実線(中線)
 62
    30
420
 16744448
100
AcDbLine
 10
82.69834535238855
 20
27.97209274530761
 30
0.0
 11
80.78434313529506
 21
31.19890519800412
 31
0.0
  0
LINE
  5
1ED
330
16E
100
AcDbEntity
  8
実線(中線)
 62
    30
420
 16744448
100
AcDbLine
 10
82.69834535238855
 20
27.97209274530761
 30
0.0
 11
84.58807975905026
 21
31.23375614260938
 31
0.0
  0
LINE
  5
1EE
330
16E
100
AcDbEntity
  8
実線(中線)
 62
    30
420
 16744448
100
AcDbLine
 10
83.04208972205046
 20
27.50644219058543
 30
0.0
 11
85.34587931094463
 21
31.48276084716059
 31
0.0
  0
LINE
  5
1EF
330
16E
100
AcDbEntity
  8
実線(中線)
 62
    30
420
 16744448
100
AcDbLine
 10
88.86970121536245
 20
29.36493950247829
 30
0.0
 11
87.6219069054278
 21
31.55596132119024
 31
0.0
  0
LINE
  5
1F0
330
16E
100
AcDbEntity
  8
実線(中線)
 62
    30
420
 16744448
100
AcDbLine
 10
86.32407702236561
 20
29.36493950247829
 30
0.0
 11
87.6219069054278
 21
31.55596132119024
 31
0.0
  0
LINE
  5
1F1
330
16E
100
AcDbEntity
  8
実線(中線)
 62
    30
420
 16744448
100
AcDbLine
 10
84.31837437727899
 20
32.01297949483372
 30
0.0
 11
86.03776626485185
 21
32.01297949483372
 31
0.0
  0
LINE
  5
1F2
330
16E
100
AcDbEntity
  8
実線(中線)
 62
    30
420
 16744448
100
AcDbLine
 10
78.17276885600548
 20
32.01297949483372
 30
0.0
 11
81.13953625250786
 21
32.01297949483372
 31
0.0
  0
LINE
  5
1F3
330
16E
100
AcDbEntity
  8
実線(中線)
 62
    30
420
 16744448
100
AcDbLine
 10
87.29672971284328
 20
32.01297949483372
 30
0.0
 11
89.07773148723482
 21
32.01297949483372
 31
0.0
  0
LINE
  5
1F4
330
16E
100
AcDbEntity
  8
実線(中線)
 62
    30
420
 16744448
100
AcDbLine
 10
89.16949507950509
 20
27.50644219058543
 30
0.0
 11
92.25278369270684
 21
27.50644219058543
 31
0.0
  0
LINE
  5
1F5
330
16E
100
AcDbEntity
  8
実線(中線)
 62
    30
420
 16744448
100
AcDbLine
 10
84.27558773894885
 20
27.50644219058543
 30
0.0
 11
86.02833312952185
 21
27.50644219058543
 31
0.0
  0
LINE
  5
1F6
330
16E
100
AcDbEntity
  8
実線(中線)
 62
    30
420
 16744448
100
AcDbLine
 10
85.72331033412112
 20
28.35071341701234
 30
0.0
 11
86.02512634851606
 21
28.86024512174984
 31
0.0
  0
LINE
  5
1F7
330
16E
100
AcDbEntity
  8
実線(中線)
 62
    30
420
 16744448
100
AcDbLine
 10
89.45528027106034
 20
28.33671195135086
 30
0.0
 11
89.15712636610749
 21
28.86024512174984
 31
0.0
  0
LINE
  5
1F8
330
16E
100
AcDbEntity
  8
実線(中線)
 62
    30
420
 16744448
100
AcDbLine
 10
84.98038275190209
 20
28.10247720376735
 30
0.0
 11
87.29672971284328
 21
32.01297949483372
 31
0.0
  0
LINE
  5
1F9
330
16E
100
AcDbEntity
  8
実線(中線)
 62
    30
420
 16744448
100
AcDbLine
 10
91.45308890045084
 20
28.11060660152442
 30
0.0
 11
89.07773148723482
 21
32.01297949483372
 31
0.0
  0
LINE
  5
1FA
330
16E
100
AcDbEntity
  8
実線(中線)
 62
    30
420
 16744448
100
AcDbLine
 10
68.52350727707075
 20
28.6546500623141
 30
0.0
 11
68.52350727707073
 21
31.34928915611249
 31
0.0
  0
LINE
  5
1FB
330
16E
100
AcDbEntity
  8
実線(中線)
 62
    30
420
 16744448
100
AcDbLine
 10
66.89328950934537
 20
28.61372472329687
 30
0.0
 11
66.89328950934537
 21
31.34924854232643
 31
0.0
  0
LINE
  5
1FC
330
16E
100
AcDbEntity
  8
実線(中線)
 62
    30
420
 16744448
100
AcDbLine
 10
86.32407702236561
 20
29.36493950247829
 30
0.0
 11
88.86970121536245
 21
29.36493950247829
 31
0.0
  0
LINE
  5
1FD
330
16E
100
AcDbEntity
  8
実線(中線)
 62
    30
420
 16744448
100
AcDbLine
 10
86.02512634851606
 20
28.86024512174984
 30
0.0
 11
89.15712636610749
 21
28.86024512174984
 31
0.0
  0
LINE
  5
1FE
330
16E
100
AcDbEntity
  8
実線(中線)
 62
    30
420
 16744448
100
AcDbLine
 10
73.82765654077397
 20
32.01297949483372
 30
0.0
 11
76.48030848871029
 21
32.01297949483372
 31
0.0
  0
CIRCLE
  5
1FF
330
16E
100
AcDbEntity
  8
実線(中線)
 62
     5
420
      255
100
AcDbCircle
 10
85.34770202636719
 20
41.00000000000001
 30
0.0
 40
3.199999809265137
  0
CIRCLE
  5
200
330
16E
100
AcDbEntity
  8
実線(中線)
 62
     5
420
      255
100
AcDbCircle
 10
85.34770202636719
 20
41.00000000000001
 30
0.0
 40
1.59999942779541
  0
LINE
  5
201
330
16E
100
AcDbEntity
  8
実線(細線)
 62
    16
420
  8388608
100
AcDbLine
 10
80.00000000000005
 20
46.00000000000001
 30
0.0
 11
80.00000000000005
 21
36.00000000000001
 31
0.0
  0
LINE
  5
202
330
16E
100
AcDbEntity
  8
実線(細線)
 62
    16
420
  8388608
100
AcDbLine
 10
77.00000000000001
 20
25.0
 30
0.0
 11
77.00000000000001
 21
0.0
 31
0.0
  0
LINE
  5
203
330
16E
100
AcDbEntity
  8
実線(細線)
 62
    16
420
  8388608
100
AcDbLine
 10
15.99999999999999
 20
36.00000000000001
 30
0.0
 11
16.0
 21
11.00000000000001
 31
0.0
  0
LINE
  5
204
330
16E
100
AcDbEntity
  8
実線(細線)
 62
    16
420
  8388608
100
AcDbLine
 10
32.0
 20
46.00000000000001
 30
0.0
 11
32.0
 21
11.00000000000001
 31
0.0
  0
LINE
  5
205
330
16E
100
AcDbEntity
  8
実線(細線)
 62
    16
420
  8388608
100
AcDbLine
 10
48.0
 20
36.00000000000001
 30
0.0
 11
48.0
 21
11.00000000000001
 31
0.0
  0
LINE
  5
206
330
16E
100
AcDbEntity
  8
実線(細線)
 62
    16
420
  8388608
100
AcDbLine
 10
101.0
 20
52.00000000000001
 30
0.0
 11
175.0
 21
52.00000000000001
 31
0.0
  0
LINE
  5
207
330
16E
100
AcDbEntity
  8
実線(細線)
 62
    16
420
  8388608
100
AcDbLine
 10
101.0
 20
58.0
 30
0.0
 11
175.0
 21
58.0
 31
0.0
  0
LINE
  5
208
330
16E
100
AcDbEntity
  8
実線(細線)
 62
    16
420
  8388608
100
AcDbLine
 10
0.0
 20
64.00000000000002
 30
0.0
 11
101.0
 21
64.00000000000002
 31
0.0
  0
LINE
  5
209
330
16E
100
AcDbEntity
  8
実線(細線)
 62
    16
420
  8388608
100
AcDbLine
 10
138.0
 20
64.00000000000002
 30
0.0
 11
138.0
 21
41.00000000000001
 31
0.0
  0
LINE
  5
20A
330
16E
100
AcDbEntity
  8
実線(細線)
 62
    16
420
  8388608
100
AcDbLine
 10
64.0
 20
18.0
 30
0.0
 11
101.0
 21
18.0
 31
0.0
  0
LINE
  5
20B
330
16E
100
AcDbEntity
  8
実線(細線)
 62
    16
420
  8388608
100
AcDbLine
 10
166.75
 20
2.75
 30
0.0
 11
172.25
 21
8.250000000000014
 31
0.0
  0
LINE
  5
20C
330
16E
100
AcDbEntity
  8
実線(細線)
 62
    16
420
  8388608
100
AcDbLine
 10
116.0
 20
64.00000000000002
 30
0.0
 11
116.0
 21
41.00000000000001
 31
0.0
  0
LINE
  5
20D
330
16E
100
AcDbEntity
  8
実線(細線)
 62
    16
420
  8388608
100
AcDbLine
 10
101.0
 20
41.00000000000001
 30
0.0
 11
175.0
 21
41.00000000000001
 31
0.0
  0
LINE
  5
20E
330
16E
100
AcDbEntity
  8
実線(細線)
 62
    16
420
  8388608
100
AcDbLine
 10
70.00000000000006
 20
46.00000000000001
 30
0.0
 11
70.00000000000006
 21
36.00000000000001
 31
0.0
  0
LINE
  5
20F
330
16E
100
AcDbEntity
  8
実線(細線)
 62
    16
420
  8388608
100
AcDbLine
 10
0.0
 20
46.00000000000001
 30
0.0
 11
175.0
 21
46.00000000000001
 31
0.0
  0
LINE
  5
210
330
16E
100
AcDbEntity
  8
実線(細線)
 62
    16
420
  8388608
100
AcDbLine
 10
64.0
 20
25.0
 30
0.0
 11
101.0
 21
25.0
 31
0.0
  0
LINE
  5
211
330
16E
100
AcDbEntity
  8
実線(細線)
 62
    16
420
  8388608
100
AcDbLine
 10
64.0
 20
36.00000000000001
 30
0.0
 11
64.0
 21
11.00000000000001
 31
0.0
  0
LINE
  5
212
330
16E
100
AcDbEntity
  8
実線(細線)
 62
    16
420
  8388608
100
AcDbLine
 10
164.0
 20
0.0
 30
0.0
 11
164.0
 21
11.00000000000001
 31
0.0
  0
LINE
  5
213
330
16E
100
AcDbEntity
  8
一点鎖線(細線)
 62
    16
420
  8388608
 48
8.889559745788574
100
AcDbLine
 10
85.34770202636719
 20
45.00000000000001
 30
0.0
 11
85.34770202636719
 21
37.00000000000001
 31
0.0
  0
LINE
  5
214
330
16E
100
AcDbEntity
  8
実線(中線)
 62
     5
420
      255
100
AcDbLine
 10
91.74761638830341
 20
42.60041782533405
 30
0.0
 11
99.74757236725373
 21
44.20040875367137
 31
0.0
  0
LINE
  5
215
330
16E
100
AcDbEntity
  8
実線(中線)
 62
     5
420
      255
100
AcDbLine
 10
91.74773936403063
 20
39.40040357563385
 30
0.0
 11
99.74775519287641
 21
37.80040067731945
 31
0.0
  0
LINE
  5
216
330
16E
100
AcDbEntity
  8
実線(中線)
 62
     5
420
      255
100
AcDbLine
 10
91.74769592285157
 20
42.59999084472656
 30
0.0
 11
91.74769592285157
 21
39.39999389648438
 31
0.0
  0
LINE
  5
217
330
16E
100
AcDbEntity
  8
実線(中線)
 62
     5
420
      255
100
AcDbLine
 10
99.74769592285156
 20
44.1999969482422
 30
0.0
 11
99.74769592285156
 21
37.79998779296875
 31
0.0
  0
LINE
  5
218
330
16E
100
AcDbEntity
  8
一点鎖線(細線)
 62
    16
420
  8388608
 48
18.34603500366211
100
AcDbLine
 10
81.00000000000001
 20
41.00000000000001
 30
0.0
 11
100.5
 21
41.00000000000001
 31
0.0
  0
LINE
  5
219
330
16E
100
AcDbEntity
  8
実線(細線)
 62
    16
420
  8388608
100
AcDbLine
 10
0.0
 20
27.00000000000001
 30
0.0
 11
64.0
 21
27.00000000000001
 31
0.0
  0
LINE
  5
21A
330
16E
100
AcDbEntity
  8
実線(細線)
 62
    16
420
  8388608
100
AcDbLine
 10
101.0
 20
64.00000000000002
 30
0.0
 11
101.0
 21
11.00000000000001
 31
0.0
  0
LINE
  5
21B
330
16E
100
AcDbEntity
  8
実線(細線)
 62
    16
420
  8388608
100
AcDbLine
 10
0.0
 20
82.00000000000001
 30
0.0
 11
0.0
 21
0.0
 31
0.0
  0
LINE
  5
21C
330
16E
100
AcDbEntity
  8
実線(細線)
 62
    16
420
  8388608
100
AcDbLine
 10
0.0
 20
36.00000000000001
 30
0.0
 11
175.0
 21
36.00000000000001
 31
0.0
  0
LINE
  5
21D
330
16E
100
AcDbEntity
  8
実線(細線)
 62
    16
420
  8388608
100
AcDbLine
 10
0.0
 20
11.00000000000001
 30
0.0
 11
175.0
 21
11.00000000000001
 31
0.0
  0
LINE
  5
21E
330
16E
100
AcDbEntity
  8
実線(細線)
 62
    16
420
  8388608
100
AcDbLine
 10
175.0
 20
0.0
 30
0.0
 11
175.0
 21
64.00000000000002
 31
0.0
  0
LINE
  5
21F
330
16E
100
AcDbEntity
  8
実線(細線)
 62
    16
420
  8388608
100
AcDbLine
 10
0.0
 20
0.0
 30
0.0
 11
175.0
 21
0.0
 31
0.0
  0
LINE
  5
220
330
16E
100
AcDbEntity
  8
実線(細線)
 62
    16
420
  8388608
100
AcDbLine
 10
0.0
 20
55.00000000000001
 30
0.0
 11
101.0
 21
55.00000000000001
 31
0.0
  0
LINE
  5
221
330
16E
100
AcDbEntity
  8
実線(細線)
 62
    16
420
  8388608
100
AcDbLine
 10
15.99999999999999
 20
46.00000000000001
 30
0.0
 11
16.00000054486772
 21
55.00000000000001
 31
0.0
  0
LINE
  5
222
330
16E
100
AcDbEntity
  8
実線(細線)
 62
    16
420
  8388608
100
AcDbLine
 10
102.0
 20
47.10000000000001
 30
0.0
 11
106.5
 21
47.10000000000001
 31
0.0
  0
LINE
  5
223
330
16E
100
AcDbEntity
  8
実線(細線)
 62
    16
420
  8388608
100
AcDbLine
 10
106.5
 20
47.10000000000001
 30
0.0
 11
104.25
 21
50.99711431702999
 31
0.0
  0
LINE
  5
224
330
16E
100
AcDbEntity
  8
実線(細線)
 62
    16
420
  8388608
100
AcDbLine
 10
104.25
 20
50.99711431702999
 30
0.0
 11
102.0
 21
47.10000000000001
 31
0.0
  0
LINE
  5
225
330
16E
100
AcDbEntity
  8
実線(細線)
 62
    16
420
  8388608
100
AcDbLine
 10
102.0
 20
53.10000000000002
 30
0.0
 11
106.5
 21
53.10000000000002
 31
0.0
  0
LINE
  5
226
330
16E
100
AcDbEntity
  8
実線(細線)
 62
    16
420
  8388608
100
AcDbLine
 10
106.5
 20
53.10000000000002
 30
0.0
 11
104.25
 21
56.99711431702998
 31
0.0
  0
LINE
  5
227
330
16E
100
AcDbEntity
  8
実線(細線)
 62
    16
420
  8388608
100
AcDbLine
 10
104.25
 20
56.99711431702998
 30
0.0
 11
102.0
 21
53.10000000000002
 31
0.0
  0
LINE
  5
228
330
16E
100
AcDbEntity
  8
実線(細線)
 62
    16
420
  8388608
100
AcDbLine
 10
102.0
 20
59.10000000000001
 30
0.0
 11
106.5
 21
59.10000000000001
 31
0.0
  0
LINE
  5
229
330
16E
100
AcDbEntity
  8
実線(細線)
 62
    16
420
  8388608
100
AcDbLine
 10
106.5
 20
59.10000000000001
 30
0.0
 11
104.25
 21
62.99711431702998
 31
0.0
  0
LINE
  5
22A
330
16E
100
AcDbEntity
  8
実線(細線)
 62
    16
420
  8388608
100
AcDbLine
 10
104.25
 20
62.99711431702998
 30
0.0
 11
102.0
 21
59.10000000000001
 31
0.0
  0
LINE
  5
22B
330
16E
100
AcDbEntity
  8
実線(細線)
 62
    16
420
  8388608
100
AcDbLine
 10
108.5
 20
49.00000000000002
 30
0.0
 11
109.5
 21
49.00000000000002
 31
0.0
  0
LINE
  5
22C
330
16E
100
AcDbEntity
  8
実線(細線)
 62
    16
420
  8388608
100
AcDbLine
 10
108.5
 20
49.00000000000002
 30
0.0
 11
107.5
 21
49.00000000000002
 31
0.0
  0
LINE
  5
22D
330
16E
100
AcDbEntity
  8
実線(細線)
 62
    16
420
  8388608
100
AcDbLine
 10
108.5
 20
55.0
 30
0.0
 11
109.5
 21
55.0
 31
0.0
  0
LINE
  5
22E
330
16E
100
AcDbEntity
  8
実線(細線)
 62
    16
420
  8388608
100
AcDbLine
 10
108.5
 20
55.0
 30
0.0
 11
107.5
 21
55.0
 31
0.0
  0
LINE
  5
22F
330
16E
100
AcDbEntity
  8
実線(細線)
 62
    16
420
  8388608
100
AcDbLine
 10
108.5
 20
61.00000000000001
 30
0.0
 11
109.5
 21
61.00000000000001
 31
0.0
  0
LINE
  5
230
330
16E
100
AcDbEntity
  8
実線(細線)
 62
    16
420
  8388608
100
AcDbLine
 10
108.5
 20
61.00000000000001
 30
0.0
 11
107.5
 21
61.00000000000001
 31
0.0
  0
LINE
  5
231
330
16E
100
AcDbEntity
  8
実線(細線)
 62
    16
420
  8388608
100
AcDbLine
 10
16.00000054486772
 20
55.00000000000001
 30
0.0
 11
16.00000054486773
 21
64.00000000000002
 31
0.0
  0
LINE
  5
232
330
16E
100
AcDbEntity
  8
スケッチ(細線)
100
AcDbLine
 10
0.0
 20
64.00000000000002
 30
0.0
 11
16.00000054486772
 21
55.00000000000001
 31
0.0
  0
LINE
  5
233
330
16E
100
AcDbEntity
  8
実線(細線)
 62
    16
420
  8388608
100
AcDbLine
 10
51.75
 20
64.00000000000002
 30
0.0
 11
51.75
 21
55.0
 31
0.0
  0
LINE
  5
234
330
16E
100
AcDbEntity
  8
実線(細線)
 62
    16
420
  8388608
100
AcDbLine
 10
75.75000000000001
 20
64.00000000000002
 30
0.0
 11
75.75000000000001
 21
55.0
 31
0.0
  0
LINE
  5
235
330
16E
100
AcDbEntity
  8
実線(細線)
 62
    16
420
  8388608
100
AcDbLine
 10
70.00000000000006
 20
46.00000000000001
 30
0.0
 11
70.00000000000006
 21
55.00000000000001
 31
0.0
  0
LINE
  5
236
330
16E
100
AcDbEntity
  8
実線(細線)
 62
    16
420
  8388608
100
AcDbLine
 10
80.00000000000005
 20
46.00000000000001
 30
0.0
 11
80.00000000000005
 21
55.00000000000001
 31
0.0
  0
LINE
  5
237
330
16E
100
AcDbEntity
  8
実線(細線)
 62
    16
420
  8388608
100
AcDbLine
 10
7.0
 20
82.00000000000001
 30
0.0
 11
0.0
 21
82.00000000000001
 31
0.0
  0
LINE
  5
238
330
16E
100
AcDbEntity
  8
スケッチ(細線)
100
AcDbLine
 10
0.0
 20
55.00000000000001
 30
0.0
 11
16.00000054486772
 21
63.81484849977758
 31
0.0
  0
MTEXT
  5
239
330
16E
100
AcDbEntity
  8
寸法(細線)
100
AcDbMText
 10
1.999999999999999
 20
5.103187435617057
 30
0.0
 40
2.5
 41
0.0
 46
0.0
 71
     4
 72
     1
  1
\fTahoma|b0|i0;\H2.5000;MFG\PNo.
  7
図枠用
 73
     2
 44
0.9878841638565063
  0
MTEXT
  5
23A
330
16E
100
AcDbEntity
  8
寸法(細線)
100
AcDbMText
 10
7.999999999999998
 20
33.75000000000002
 30
0.0
 40
2.5
 41
0.0
 46
0.0
 71
     5
 72
     1
  1
\fTahoma|b0|i0;\W0.90;\H2.5000;APPRV
  7
図枠用
 73
     1
 44
1.0
  0
MTEXT
  5
23B
330
16E
100
AcDbEntity
  8
寸法(細線)
100
AcDbMText
 10
24.0
 20
33.75000000000002
 30
0.0
 40
2.5
 41
0.0
 46
0.0
 71
     5
 72
     1
  1
\fTahoma|b0|i0;\W0.90;\H2.5000;CHECK
  7
図枠用
 73
     1
 44
1.0
  0
MTEXT
  5
23C
330
16E
100
AcDbEntity
  8
寸法(細線)
100
AcDbMText
 10
40.0
 20
33.75000000000002
 30
0.0
 40
2.5
 41
0.0
 46
0.0
 71
     5
 72
     1
  1
\fTahoma|b0|i0;\W0.90;\H2.5000;DESIG
  7
図枠用
 73
     1
 44
1.0
  0
MTEXT
  5
23D
330
16E
100
AcDbEntity
  8
寸法(細線)
100
AcDbMText
 10
56.00000000000001
 20
33.75000000000002
 30
0.0
 40
2.5
 41
0.0
 46
0.0
 71
     5
 72
     1
  1
\fTahoma|b0|i0;\W0.90;\H2.5000;DRAW
  7
図枠用
 73
     1
 44
1.0
  0
MTEXT
  5
23E
330
16E
100
AcDbEntity
  8
寸法(細線)
100
AcDbMText
 10
7.999999999999999
 20
29.25000000000001
 30
0.0
 40
3.000000119209289
 41
0.0
 46
0.0
 71
     5
 72
     1
  1
\fTahoma|b0|i0;\W0.80;\H3.0000;承  認
  7
図枠用
 73
     1
 44
1.0
  0
MTEXT
  5
23F
330
16E
100
AcDbEntity
  8
寸法(細線)
100
AcDbMText
 10
24.0
 20
29.25000000000001
 30
0.0
 40
3.000000119209289
 41
0.0
 46
0.0
 71
     5
 72
     1
  1
\fTahoma|b0|i0;\W0.80;\H3.0000;検  図
  7
図枠用
 73
     1
 44
1.0
  0
MTEXT
  5
240
330
16E
100
AcDbEntity
  8
寸法(細線)
100
AcDbMText
 10
40.0
 20
29.25000000000001
 30
0.0
 40
3.000000119209289
 41
0.0
 46
0.0
 71
     5
 72
     1
  1
\fTahoma|b0|i0;\W0.80;\H3.0000;設  計
  7
図枠用
 73
     1
 44
1.0
  0
MTEXT
  5
241
330
16E
100
AcDbEntity
  8
寸法(細線)
100
AcDbMText
 10
56.00000000000001
 20
29.25000000000001
 30
0.0
 40
3.000000119209289
 41
0.0
 46
0.0
 71
     5
 72
     1
  1
\fTahoma|b0|i0;\W0.80;\H3.0000;製  図
  7
図枠用
 73
     1
 44
1.0
  0
MTEXT
  5
242
330
16E
100
AcDbEntity
  8
寸法(細線)
100
AcDbMText
 10
16.0
 20
40.51053474719327
 30
0.0
 40
3.000000119209289
 41
0.0
 46
0.0
 71
     5
 72
     1
  1
\fTahoma|b0|i0;\W0.95;\H3.0000;TOLERANCES   \PUNLESS NOTED
  7
図枠用
 73
     2
 44
0.8959999680519104
  0
MTEXT
  5
243
330
16E
100
AcDbEntity
  8
寸法(細線)
100
AcDbMText
 10
51.00000000000003
 20
40.57009716580313
 30
0.0
 40
3.000000119209289
 41
0.0
 46
0.0
 71
     5
 72
     1
  1
\fTahoma|b0|i0;\H3.0000;JIS B 0419- mH級\PJIS B 0408- B  級
  7
図枠用
 73
     2
 44
0.8959999680519104
  0
MTEXT
  5
244
330
16E
100
AcDbEntity
  8
寸法(細線)
100
AcDbMText
 10
7.999999999999998
 20
50.50000000000001
 30
0.0
 40
3.000000119209289
 41
0.0
 46
0.0
 71
     5
 72
     1
  1
\fTahoma|b0|i0;\W0.70;\H3.0000;流用元図番
  7
図枠用
 73
     1
 44
1.0
  0
MTEXT
  5
245
330
16E
100
AcDbEntity
  8
寸法(細線)
100
AcDbMText
 10
79.00000000000002
 20
5.103187435617057
 30
0.0
 40
2.5
 41
0.0
 46
0.0
 71
     4
 72
     1
  1
\fTahoma|b0|i0;\H2.5000;DWG\PNo.
  7
図枠用
 73
     2
 44
0.9878841638565063
  0
MTEXT
  5
246
330
16E
100
AcDbEntity
  8
寸法(細線)
100
AcDbMText
 10
70.5
 20
21.5
 30
0.0
 40
2.5
 41
0.0
 46
0.0
 71
     5
 72
     1
  1
\fTahoma|b0|i0;\H2.5000;SCALE
  7
図枠用
 73
     1
 44
1.0
  0
MTEXT
  5
247
330
16E
100
AcDbEntity
  8
寸法(細線)
100
AcDbMText
 10
70.5
 20
14.50000000000001
 30
0.0
 40
2.5
 41
0.0
 46
0.0
 71
     5
 72
     1
  1
\fTahoma|b0|i0;\H2.5000;DATE
  7
図枠用
 73
     1
 44
1.0
  0
MTEXT
  5
248
330
16E
100
AcDbEntity
  8
寸法(細線)
100
AcDbMText
 10
104.0
 20
33.00000000000002
 30
0.0
 40
2.5
 41
0.0
 46
0.0
 71
     4
 72
     1
  1
\fTahoma|b0|i0;\H2.5000;TITLE
  7
図枠用
 73
     1
 44
1.0
  0
MTEXT
  5
249
330
16E
100
AcDbEntity
  8
寸法(細線)
100
AcDbMText
 10
108.5
 20
43.50000000000001
 30
0.0
 40
3.000000119209289
 41
0.0
 46
0.0
 71
     5
 72
     1
  1
\fTahoma|b0|i0;\H3.0000;MARK
  7
図枠用
 73
     1
 44
1.0
  0
MTEXT
  5
24A
330
16E
100
AcDbEntity
  8
寸法(細線)
100
AcDbMText
 10
127.0
 20
43.50000000000001
 30
0.0
 40
3.000000119209289
 41
0.0
 46
0.0
 71
     5
 72
     1
  1
\fTahoma|b0|i0;\H3.0000;DATE
  7
図枠用
 73
     1
 44
1.0
  0
MTEXT
  5
24B
330
16E
100
AcDbEntity
  8
寸法(細線)
100
AcDbMText
 10
156.5
 20
43.50000000000001
 30
0.0
 40
3.000000119209289
 41
0.0
 46
0.0
 71
     5
 72
     1
  1
\fTahoma|b0|i0;\H3.0000;REMARKS
  7
図枠用
 73
     1
 44
1.0
  0
MTEXT
  5
24C
330
16E
100
AcDbEntity
  8
寸法(細線)
100
AcDbMText
 10
138.0
 20
38.50000000000001
 30
0.0
 40
3.000000119209289
 41
0.0
 46
0.0
 71
     5
 72
     1
  1
\fTahoma|b0|i0;\W1.20;\H3.0000;REVISION
  7
図枠用
 73
     1
 44
1.0
  0
MTEXT
  5
24D
330
16E
100
AcDbEntity
  8
寸法(細線)
100
AcDbMText
 10
8.000000272433862
 20
59.50000000000001
 30
0.0
 40
5.0
 41
0.0
 46
0.0
 71
     5
 72
     1
  1
\fTahoma|b0|i0;\H5.0000;貼
  7
図枠用
 73
     1
 44
1.0
  0
MTEXT
  5
24E
330
16E
100
AcDbEntity
  8
寸法(細線)
100
AcDbMText
 10
18.00000054486772
 20
61.75
 30
0.0
 40
2.5
 41
0.0
 46
0.0
 71
     4
 72
     1
  1
\fTahoma|b0|i0;\W0.90;\H2.5000;DWG.No
  7
図枠用
 73
     1
 44
1.0
  0
MTEXT
  5
24F
330
16E
100
AcDbEntity
  8
寸法(細線)
100
AcDbMText
 10
53.75
 20
61.75
 30
0.0
 40
2.5
 41
0.0
 46
0.0
 71
     4
 72
     1
  1
\fTahoma|b0|i0;\W0.90;\H2.5000;DATE
  7
図枠用
 73
     1
 44
1.0
  0
MTEXT
  5
250
330
16E
100
AcDbEntity
  8
寸法(細線)
100
AcDbMText
 10
77.75000000000002
 20
61.75
 30
0.0
 40
2.5
 41
0.0
 46
0.0
 71
     4
 72
     1
  1
\fTahoma|b0|i0;\W0.90;\H2.5000;NAME
  7
図枠用
 73
     1
 44
1.0
  0
MTEXT
  5
251
330
16E
100
AcDbEntity
  8
寸法(細線)
100
AcDbMText
 10
75.00000000000006
 20
49.99108584473532
 30
0.0
 40
3.000000119209289
 41
0.0
 46
0.0
 71
     5
 72
     1
  1
\fTahoma|b0|i0;\H3.0000;計算\P重量
  7
図枠用
 73
     2
 44
0.7799999713897705
  0
ATTDEF
  5
253
102
{ACAD_XDICTIONARY
360
9FA
102
}
330
16E
100
AcDbEntity
  8
寸法(細線)
100
AcDbText
 10
18.00000054486772
 20
49.25000000000001
 30
0.0
 40
2.5
  1

  7
文字スタイル35
 11
18.00000054486772
 21
50.50000000000001
 31
0.0
100
AcDbAttributeDefinition
280
     0
  3
流用元図番
  2
流用元図番
 70
     0
 74
     2
280
     0
  0
ATTDEF
  5
256
102
{ACAD_XDICTIONARY
360
9FD
102
}
330
16E
100
AcDbEntity
  8
寸法(細線)
100
AcDbText
 10
113.0
 20
47.75000000000001
 30
0.0
 40
2.5
  1

  7
文字スタイル35
 72
     1
 11
113.0
 21
49.00000000000002
 31
0.0
100
AcDbAttributeDefinition
280
     0
  3
<変更来歴B-COUNT>
  2
<変更来歴B-COUNT>
 70
     0
 74
     2
280
     0
  0
ATTDEF
  5
257
102
{ACAD_XDICTIONARY
360
A00
102
}
330
16E
100
AcDbEntity
  8
寸法(細線)
100
AcDbText
 10
113.0
 20
53.75
 30
0.0
 40
2.5
  1

  7
文字スタイル35
 72
     1
 11
113.0
 21
55.0
 31
0.0
100
AcDbAttributeDefinition
280
     0
  3
<変更来歴C-COUNT>
  2
<変更来歴C-COUNT>
 70
     0
 74
     2
280
     0
  0
ATTDEF
  5
258
102
{ACAD_XDICTIONARY
360
A03
102
}
330
16E
100
AcDbEntity
  8
寸法(細線)
100
AcDbText
 10
113.0
 20
59.75000000000001
 30
0.0
 40
2.5
  1

  7
文字スタイル35
 72
     1
 11
113.0
 21
61.00000000000001
 31
0.0
100
AcDbAttributeDefinition
280
     0
  3
<変更来歴D-COUNT>
  2
<変更来歴D-COUNT>
 70
     0
 74
     2
280
     0
  0
ATTDEF
  5
259
102
{ACAD_XDICTIONARY
360
A06
102
}
330
16E
100
AcDbEntity
  8
寸法(細線)
100
AcDbText
 10
127.0
 20
59.75000000000001
 30
0.0
 40
2.5
  1

  7
文字スタイル35
 72
     1
 11
127.0
 21
61.00000000000001
 31
0.0
100
AcDbAttributeDefinition
280
     0
  3
<変更来歴D-DATE>
  2
<変更来歴D-DATE>
 70
     0
 74
     2
280
     0
  0
ATTDEF
  5
25A
102
{ACAD_XDICTIONARY
360
A09
102
}
330
16E
100
AcDbEntity
  8
寸法(細線)
100
AcDbText
 10
127.0
 20
53.75
 30
0.0
 40
2.5
  1

  7
文字スタイル35
 72
     1
 11
127.0
 21
55.0
 31
0.0
100
AcDbAttributeDefinition
280
     0
  3
<変更来歴C-DATE>
  2
<変更来歴C-DATE>
 70
     0
 74
     2
280
     0
  0
ATTDEF
  5
25C
102
{ACAD_XDICTIONARY
360
A0C
102
}
330
16E
100
AcDbEntity
  8
寸法(細線)
100
AcDbText
 10
139.0
 20
47.75000000000001
 30
0.0
 40
2.5
  1

 41
0.5
  7
文字スタイル211
 11
139.0
 21
49.00000000000002
 31
0.0
100
AcDbAttributeDefinition
280
     0
  3
<変更来歴B-REMARKS>
  2
<変更来歴B-REMARKS>
 70
     0
 74
     2
280
     0
  0
ATTDEF
  5
25D
102
{ACAD_XDICTIONARY
360
A0F
102
}
330
16E
100
AcDbEntity
  8
寸法(細線)
100
AcDbText
 10
139.0
 20
53.75
 30
0.0
 40
2.5
  1

 41
0.5
  7
文字スタイル211
 11
139.0
 21
55.0
 31
0.0
100
AcDbAttributeDefinition
280
     0
  3
<変更来歴C-REMARKS>
  2
<変更来歴C-REMARKS>
 70
     0
 74
     2
280
     0
  0
ATTDEF
  5
25E
102
{ACAD_XDICTIONARY
360
A12
102
}
330
16E
100
AcDbEntity
  8
寸法(細線)
100
AcDbText
 10
139.0
 20
59.75000000000001
 30
0.0
 40
2.5
  1

 41
0.5
  7
文字スタイル211
 11
139.0
 21
61.00000000000001
 31
0.0
100
AcDbAttributeDefinition
280
     0
  3
<変更来歴D-REMARKS>
  2
<変更来歴D-REMARKS>
 70
     0
 74
     2
280
     0
  0
ATTDEF
  5
260
102
{ACAD_XDICTIONARY
360
A15
102
}
330
16E
100
AcDbEntity
  8
寸法(細線)
100
AcDbText
 10
71.85493629698474
 20
38.90000006556512
 30
0.0
 40
4.199999868869781
  1
A3
  7
文字スタイル60
100
AcDbAttributeDefinition
280
     0
  3
シート サイズ
  2
シート_サイズ_001
 70
     0
280
     0
  0
ATTDEF
  5
262
102
{ACAD_XDICTIONARY
360
A18
102
}
330
16E
100
AcDbEntity
  8
寸法(細線)
100
AcDbText
 10
105.4218271234998
 20
2.950000047683722
 30
0.0
 40
5.099999904632568
  1
KZ2003-902A
  7
文字スタイル206
100
AcDbAttributeDefinition
280
     0
  3
図面番号
  2
図面番号_001
 70
     0
280
     0
  0
ATTDEF
  5
264
102
{ACAD_XDICTIONARY
360
A1B
102
}
330
16E
100
AcDbEntity
  8
寸法(細線)
100
AcDbText
 10
86.26192064338122
 20
20.14546670238791
 30
0.0
 40
2.70000010728836
  1
1:1
  7
文字スタイル205
100
AcDbAttributeDefinition
280
     0
  3
<尺度>
  2
<尺度>_001
 70
     0
280
     0
  0
ATTDEF
  5
265
102
{ACAD_XDICTIONARY
360
A1E
102
}
330
16E
100
AcDbEntity
  8
寸法(細線)
100
AcDbText
 10
80.14758226997988
 20
13.46574882471458
 30
0.0
 40
2.5
  1
2013/04/18
  7
文字スタイル35
100
AcDbAttributeDefinition
280
     0
  3
作成日
  2
作成日_001
 70
     0
280
     0
  0
ATTDEF
  5
267
102
{ACAD_XDICTIONARY
360
A21
102
}
330
16E
100
AcDbEntity
  8
寸法(細線)
100
AcDbText
 10
119.3992147678303
 20
16.85144388635661
 30
0.0
 40
4.300000071525573
  1
VSM-Ｇ-L-5-50
  7
文字スタイル207
100
AcDbAttributeDefinition
280
     0
  3
タイトル
  2
タイトル_001
 70
     0
280
     0
  0
ATTDEF
  5
269
102
{ACAD_XDICTIONARY
360
A24
102
}
330
16E
100
AcDbEntity
  8
寸法(細線)
100
AcDbText
 10
131.9943181562491
 20
24.54431817562066
 30
0.0
 40
2.800000011920928
  1
外観図
  7
文字スタイル208
100
AcDbAttributeDefinition
280
     0
  3
<サブタイトル>
  2
<サブタイトル>_001
 70
     0
280
     0
  0
ATTDEF
  5
26B
102
{ACAD_XDICTIONARY
360
A27
102
}
330
16E
100
AcDbEntity
  8
寸法(細線)
100
AcDbText
 10
103.4569845218799
 20
47.59999996423722
 30
0.0
 40
1.800000071525573
  1
B
  7
文字スタイル107
100
AcDbAttributeDefinition
280
     0
  3
<変更来歴B-MARK>
  2
<変更来歴B-MARK>_001
 70
     0
280
     0
  0
ATTDEF
  5
26C
102
{ACAD_XDICTIONARY
360
A2A
102
}
330
16E
100
AcDbEntity
  8
寸法(細線)
100
AcDbText
 10
103.4872061483326
 20
53.59999996423723
 30
0.0
 40
1.800000071525573
  1
C
  7
文字スタイル107
100
AcDbAttributeDefinition
280
     0
  3
<変更来歴C-MARK>
  2
<変更来歴C-MARK>_001
 70
     0
280
     0
  0
ATTDEF
  5
26D
102
{ACAD_XDICTIONARY
360
A2D
102
}
330
16E
100
AcDbEntity
  8
寸法(細線)
100
AcDbText
 10
103.3578575871149
 20
59.59999996423722
 30
0.0
 40
1.800000071525573
  1
D
  7
文字スタイル107
100
AcDbAttributeDefinition
280
     0
  3
<変更来歴D-MARK>
  2
<変更来歴D-MARK>_001
 70
     0
280
     0
  0
ATTDEF
  5
26E
102
{ACAD_XDICTIONARY
360
A30
102
}
330
16E
100
AcDbEntity
  8
寸法(細線)
100
AcDbText
 10
127.0
 20
47.75000000000001
 30
0.0
 40
2.5
  1

  7
文字スタイル35
 72
     1
 11
127.0
 21
49.00000000000002
 31
0.0
100
AcDbAttributeDefinition
280
     0
  3
<変更来歴B-DATE>
  2
<変更来歴B-DATE>
 70
     0
 74
     2
280
     0
  0
ATTDEF
  5
26F
102
{ACAD_XDICTIONARY
360
A33
102
}
330
16E
100
AcDbEntity
  8
寸法(細線)
100
AcDbText
 10
20.00000054486773
 20
56.00000000000001
 30
0.0
 40
2.5
  1

  7
文字スタイル35
 11
20.00000054486773
 21
57.25000000000001
 31
0.0
100
AcDbAttributeDefinition
280
     0
  3
<貼DWG.No>
  2
<貼DWG.No>
 70
     0
 74
     2
280
     0
  0
ATTDEF
  5
270
102
{ACAD_XDICTIONARY
360
A36
102
}
330
16E
100
AcDbEntity
  8
寸法(細線)
100
AcDbText
 10
63.75
 20
56.00000000000001
 30
0.0
 40
2.5
  1

  7
文字スタイル35
 72
     1
 11
63.75
 21
57.25000000000001
 31
0.0
100
AcDbAttributeDefinition
280
     0
  3
<貼DATE>
  2
<貼DATE>
 70
     0
 74
     2
280
     0
  0
ATTDEF
  5
272
102
{ACAD_XDICTIONARY
360
A39
102
}
330
16E
100
AcDbEntity
  8
寸法(細線)
100
AcDbText
 10
88.37500000000003
 20
56.09999997913838
 30
0.0
 40
2.300000041723251
  1

  7
文字スタイル204
 72
     1
 11
88.37500000000003
 21
57.25000000000001
 31
0.0
100
AcDbAttributeDefinition
280
     0
  3
<貼NAME>
  2
<貼NAME>
 70
     0
 74
     2
280
     0
  0
ATTDEF
  5
274
102
{ACAD_XDICTIONARY
360
A3C
102
}
330
16E
100
AcDbEntity
  8
寸法(細線)
100
AcDbText
 10
82.61114810828482
 20
49.35862990763463
 30
0.0
 40
3.000000119209289
  1
0.103 kg
  7
文字スタイル32
100
AcDbAttributeDefinition
280
     0
  3
重量
  2
重量_001
 70
     0
280
     0
  0
ATTDEF
  5
276
102
{ACAD_XDICTIONARY
360
A3F
102
}
330
16E
100
AcDbEntity
  8
寸法(細線)
100
AcDbText
 10
56.00000000000001
 20
17.8000000268221
 30
0.0
 40
2.399999946355819
  1

  7
文字スタイル228
 72
     1
 11
56.00000000000001
 21
19.00000000000001
 31
0.0
100
AcDbAttributeDefinition
280
     0
  3
製図欄2
  2
製図欄2
 70
     0
 74
     2
280
     0
  0
ATTDEF
  5
277
102
{ACAD_XDICTIONARY
360
A42
102
}
330
16E
100
AcDbEntity
  8
寸法(細線)
100
AcDbText
 10
56.00000000000001
 20
13.8000000268221
 30
0.0
 40
2.399999946355819
  1

  7
文字スタイル228
 72
     1
 11
56.00000000000001
 21
15.00000000000001
 31
0.0
100
AcDbAttributeDefinition
280
     0
  3
製図者
  2
製図者
 70
     0
 74
     2
280
     0
  0
ATTDEF
  5
278
102
{ACAD_XDICTIONARY
360
A45
102
}
330
16E
100
AcDbEntity
  8
寸法(細線)
100
AcDbText
 10
56.00000000000001
 20
21.80000002682211
 30
0.0
 40
2.399999946355819
  1

  7
文字スタイル228
 72
     1
 11
56.00000000000001
 21
23.00000000000002
 31
0.0
100
AcDbAttributeDefinition
280
     0
  3
製図欄1
  2
製図欄1
 70
     0
 74
     2
280
     0
  0
ATTDEF
  5
27A
102
{ACAD_XDICTIONARY
360
A48
102
}
330
16E
100
AcDbEntity
  8
寸法(細線)
100
AcDbText
 10
172.2157360094453
 20
1.499999940395355
 30
0.0
 40
3.000000119209289
  1
1
  7
文字スタイル117
100
AcDbAttributeDefinition
280
     0
  3
シートの数
  2
シートの数_001
 70
     0
280
     0
  0
ATTDEF
  5
27C
102
{ACAD_XDICTIONARY
360
A4B
102
}
330
16E
100
AcDbEntity
  8
寸法(細線)
100
AcDbText
 10
167.7157360094453
 20
6.499999940395369
 30
0.0
 40
3.000000119209289
  1
1
  7
文字スタイル117
100
AcDbAttributeDefinition
280
     0
  3
シート番号
  2
シート番号_001
 70
     0
280
     0
  0
ENDBLK
  5
170
330
16E
100
AcDbEntity
  8
0
100
AcDbBlockEnd
  0
BLOCK
  5
408
330
407
100
AcDbEntity
  8
0
100
AcDbBlockBegin
  2
*D8
 70
     1
 10
0.0
 20
0.0
 30
0.0
  3
*D8
  1

  0
LINE
  5
4DF
330
407
100
AcDbEntity
  8
寸法(細線)
100
AcDbLine
 10
148.1951323704519
 20
159.2973543890262
 30
0.0
 11
148.1951323704519
 21
129.6695680883608
 31
0.0
  0
LINE
  5
4E0
330
407
100
AcDbEntity
  8
寸法(細線)
100
AcDbLine
 10
191.1951323704531
 20
149.2973543890262
 30
0.0
 11
191.1951323704531
 21
129.6695680883608
 31
0.0
  0
LINE
  5
4E1
330
407
100
AcDbEntity
  8
寸法(細線)
100
AcDbLine
 10
151.0951324658193
 20
130.8695680883608
 30
0.0
 11
188.2951322750856
 21
130.8695680883608
 31
0.0
  0
INSERT
  5
4E2
330
407
100
AcDbEntity
  8
寸法(細線)
100
AcDbBlockReference
  2
Open-1
 10
148.1951323704519
 20
130.8695680883608
 30
0.0
 41
2.900000095367431
 42
2.900000095367431
 43
2.900000095367431
 50
180.0
  0
INSERT
  5
4E3
330
407
100
AcDbEntity
  8
寸法(細線)
100
AcDbBlockReference
  2
Open-1
 10
191.1951323704531
 20
130.8695680883608
 30
0.0
 41
2.900000095367431
 42
2.900000095367431
 43
2.900000095367431
  0
MTEXT
  5
4E4
330
407
100
AcDbEntity
  8
寸法(細線)
100
AcDbMText
 10
167.2505386834142
 20
135.3153034812419
 30
0.0
 40
3.5
 41
0.0
 46
0.0
 71
     1
 72
     1
  1
\A1;43
  7
Note Text (ULVAC_寸法)
 73
     1
 44
1.0
  0
POINT
  5
4E5
330
407
100
AcDbEntity
  8
Defpoints
 62
     0
100
AcDbPoint
 10
148.1951323704519
 20
160.5673543890262
 30
0.0
  0
POINT
  5
4E6
330
407
100
AcDbEntity
  8
Defpoints
 62
     0
100
AcDbPoint
 10
191.1951323704531
 20
150.5673543890262
 30
0.0
  0
POINT
  5
4E7
330
407
100
AcDbEntity
  8
Defpoints
 62
     0
100
AcDbPoint
 10
191.1951323704531
 20
130.8695680883608
 30
0.0
  0
ENDBLK
  5
409
330
407
100
AcDbEntity
  8
0
100
AcDbBlockEnd
  0
BLOCK
  5
4EA
330
4E9
100
AcDbEntity
  8
0
100
AcDbBlockBegin
  2
*D9
 70
     1
 10
0.0
 20
0.0
 30
0.0
  3
*D9
  1

  0
LINE
  5
5BB
330
4E9
100
AcDbEntity
  8
寸法(細線)
100
AcDbLine
 10
148.1951323704519
 20
159.2973543890262
 30
0.0
 11
148.1951323704519
 21
113.0576221463914
 31
0.0
  0
LINE
  5
5BC
330
4E9
100
AcDbEntity
  8
寸法(細線)
100
AcDbLine
 10
247.8951323704519
 20
124.7079558297151
 30
0.0
 11
247.8951323704519
 21
113.0576221463914
 31
0.0
  0
LINE
  5
5BD
330
4E9
100
AcDbEntity
  8
寸法(細線)
100
AcDbLine
 10
151.0951324658193
 20
114.2576221463914
 30
0.0
 11
244.9951322750845
 21
114.2576221463914
 31
0.0
  0
INSERT
  5
5BE
330
4E9
100
AcDbEntity
  8
寸法(細線)
100
AcDbBlockReference
  2
Open-1
 10
148.1951323704519
 20
114.2576221463914
 30
0.0
 41
2.900000095367431
 42
2.900000095367431
 43
2.900000095367431
 50
180.0
  0
INSERT
  5
5BF
330
4E9
100
AcDbEntity
  8
寸法(細線)
100
AcDbBlockReference
  2
Open-1
 10
247.8951323704519
 20
114.2576221463914
 30
0.0
 41
2.900000095367431
 42
2.900000095367431
 43
2.900000095367431
  0
MTEXT
  5
5C0
330
4E9
100
AcDbEntity
  8
寸法(細線)
100
AcDbMText
 10
193.540263330828
 20
118.6963058267138
 30
0.0
 40
3.5
 41
0.0
 46
0.0
 71
     1
 72
     1
  1
\A1;99.7
  7
Note Text (ULVAC_寸法)
 73
     1
 44
1.0
  0
POINT
  5
5C1
330
4E9
100
AcDbEntity
  8
Defpoints
 62
     0
100
AcDbPoint
 10
148.1951323704519
 20
160.5673543890262
 30
0.0
  0
POINT
  5
5C2
330
4E9
100
AcDbEntity
  8
Defpoints
 62
     0
100
AcDbPoint
 10
247.8951323704519
 20
125.9779558297152
 30
0.0
  0
POINT
  5
5C3
330
4E9
100
AcDbEntity
  8
Defpoints
 62
     0
100
AcDbPoint
 10
247.8951323704519
 20
114.2576221463914
 30
0.0
  0
ENDBLK
  5
4EB
330
4E9
100
AcDbEntity
  8
0
100
AcDbBlockEnd
  0
BLOCK
  5
5C6
330
5C5
100
AcDbEntity
  8
0
100
AcDbBlockBegin
  2
*D10
 70
     1
 10
0.0
 20
0.0
 30
0.0
  3
*D10
  1

  0
LINE
  5
69D
330
5C5
100
AcDbEntity
  8
寸法(細線)
100
AcDbLine
 10
229.9651323704568
 20
215.9089442587783
 30
0.0
 11
284.6366661136556
 21
215.9089442587783
 31
0.0
  0
LINE
  5
69E
330
5C5
100
AcDbEntity
  8
寸法(細線)
100
AcDbLine
 10
229.965132370447
 20
248.9089442587771
 30
0.0
 11
284.6366661136556
 21
248.9089442587771
 31
0.0
  0
LINE
  5
69F
330
5C5
100
AcDbEntity
  8
寸法(細線)
100
AcDbLine
 10
283.4366661136556
 20
218.8089443541457
 30
0.0
 11
283.4366661136556
 21
246.0089441634097
 31
0.0
  0
INSERT
  5
6A0
330
5C5
100
AcDbEntity
  8
寸法(細線)
100
AcDbBlockReference
  2
Open-1
 10
283.4366661136556
 20
215.9089442587783
 30
0.0
 41
2.900000095367431
 42
2.900000095367431
 43
2.900000095367431
 50
270.0
  0
INSERT
  5
6A1
330
5C5
100
AcDbEntity
  8
寸法(細線)
100
AcDbBlockReference
  2
Open-1
 10
283.4366661136556
 20
248.9089442587771
 30
0.0
 41
2.900000095367431
 42
2.900000095367431
 43
2.900000095367431
 50
90.0
  0
MTEXT
  5
6A2
330
5C5
100
AcDbEntity
  8
寸法(細線)
100
AcDbMText
 10
278.647747376248
 20
228.2919194099026
 30
0.0
 40
3.5
 41
0.0
 46
0.0
 71
     1
 72
     1
  1
\A1;{Ø}33
  7
Note Text (ULVAC_寸法)
 11
0.0000000000000001
 21
1.0
 31
0.0
 73
     1
 44
1.0
  0
POINT
  5
6A3
330
5C5
100
AcDbEntity
  8
Defpoints
 62
     0
100
AcDbPoint
 10
228.6951323704568
 20
215.9089442587783
 30
0.0
  0
POINT
  5
6A4
330
5C5
100
AcDbEntity
  8
Defpoints
 62
     0
100
AcDbPoint
 10
228.695132370447
 20
248.9089442587771
 30
0.0
  0
POINT
  5
6A5
330
5C5
100
AcDbEntity
  8
Defpoints
 62
     0
100
AcDbPoint
 10
283.4366661136556
 20
248.9089442587771
 30
0.0
  0
ENDBLK
  5
5C7
330
5C5
100
AcDbEntity
  8
0
100
AcDbBlockEnd
  0
BLOCK
  5
6A8
330
6A7
100
AcDbEntity
  8
0
100
AcDbBlockBegin
  2
*D11
 70
     1
 10
0.0
 20
0.0
 30
0.0
  3
*D11
  1

  0
LINE
  5
780
330
6A7
100
AcDbEntity
  8
寸法(細線)
100
AcDbLine
 10
146.9251323704519
 20
160.5673543890262
 30
0.0
 11
133.7257917905234
 21
160.5673543890262
 31
0.0
  0
LINE
  5
781
330
6A7
100
AcDbEntity
  8
寸法(細線)
100
AcDbLine
 10
146.9251323704519
 20
170.5673543890262
 30
0.0
 11
133.7257917905234
 21
170.5673543890262
 31
0.0
  0
LINE
  5
782
330
6A7
100
AcDbEntity
  8
寸法(細線)
100
AcDbLine
 10
134.9257917905234
 20
163.4673544843936
 30
0.0
 11
134.9257917905234
 21
167.6673542936588
 31
0.0
  0
INSERT
  5
783
330
6A7
100
AcDbEntity
  8
寸法(細線)
100
AcDbBlockReference
  2
Open-1
 10
134.9257917905234
 20
160.5673543890262
 30
0.0
 41
2.900000095367431
 42
2.900000095367431
 43
2.900000095367431
 50
270.0
  0
INSERT
  5
784
330
6A7
100
AcDbEntity
  8
寸法(細線)
100
AcDbBlockReference
  2
Open-1
 10
134.9257917905234
 20
170.5673543890262
 30
0.0
 41
2.900000095367431
 42
2.900000095367431
 43
2.900000095367431
 50
90.0
  0
MTEXT
  5
785
330
6A7
100
AcDbEntity
  8
寸法(細線)
100
AcDbMText
 10
130.4824069684952
 20
161.3598325622969
 30
0.0
 40
3.5
 41
0.0
 46
0.0
 71
     1
 72
     1
  1
\A1;{M}10
  7
Note Text (ULVAC_寸法)
 11
0.0000000000000001
 21
1.0
 31
0.0
 73
     1
 44
1.0
  0
POINT
  5
786
330
6A7
100
AcDbEntity
  8
Defpoints
 62
     0
100
AcDbPoint
 10
148.1951323704519
 20
160.5673543890262
 30
0.0
  0
POINT
  5
787
330
6A7
100
AcDbEntity
  8
Defpoints
 62
     0
100
AcDbPoint
 10
148.1951323704519
 20
170.5673543890262
 30
0.0
  0
POINT
  5
788
330
6A7
100
AcDbEntity
  8
Defpoints
 62
     0
100
AcDbPoint
 10
134.9257917905234
 20
170.5673543890262
 30
0.0
  0
ENDBLK
  5
6A9
330
6A7
100
AcDbEntity
  8
0
100
AcDbBlockEnd
  0
BLOCK
  5
78B
330
78A
100
AcDbEntity
  8
0
100
AcDbBlockBegin
  2
*D12
 70
     1
 10
0.0
 20
0.0
 30
0.0
  3
*D12
  1

  0
LINE
  5
85C
330
78A
100
AcDbEntity
  8
寸法(細線)
100
AcDbLine
 10
256.2586779671785
 20
241.9339442587855
 30
0.0
 11
256.2586779671785
 21
262.4779282028403
 31
0.0
  0
LINE
  5
85D
330
78A
100
AcDbEntity
  8
寸法(細線)
100
AcDbLine
 10
148.1951323704504
 20
238.6789442587544
 30
0.0
 11
148.1951323704504
 21
262.4779282028403
 31
0.0
  0
LINE
  5
85E
330
78A
100
AcDbEntity
  8
寸法(細線)
100
AcDbLine
 10
253.3586778718111
 20
261.2779282028403
 30
0.0
 11
151.0951324658178
 21
261.2779282028403
 31
0.0
  0
INSERT
  5
85F
330
78A
100
AcDbEntity
  8
寸法(細線)
100
AcDbBlockReference
  2
Open-1
 10
256.2586779671785
 20
261.2779282028403
 30
0.0
 41
2.900000095367431
 42
2.900000095367431
 43
2.900000095367431
  0
INSERT
  5
860
330
78A
100
AcDbEntity
  8
寸法(細線)
100
AcDbBlockReference
  2
Open-1
 10
148.1951323704504
 20
261.2779282028403
 30
0.0
 41
2.900000095367431
 42
2.900000095367431
 43
2.900000095367431
 50
180.0
  0
MTEXT
  5
861
330
78A
100
AcDbEntity
  8
寸法(細線)
100
AcDbMText
 10
196.7030636644491
 20
265.7377670208389
 30
0.0
 40
3.5
 41
0.0
 46
0.0
 71
     1
 72
     1
  1
\A1;108.1
  7
Note Text (ULVAC_寸法)
 73
     1
 44
1.0
  0
POINT
  5
862
330
78A
100
AcDbEntity
  8
Defpoints
 62
     0
100
AcDbPoint
 10
256.2586779671785
 20
240.6639442587855
 30
0.0
  0
POINT
  5
863
330
78A
100
AcDbEntity
  8
Defpoints
 62
     0
100
AcDbPoint
 10
148.1951323704504
 20
237.4089442587544
 30
0.0
  0
POINT
  5
864
330
78A
100
AcDbEntity
  8
Defpoints
 62
     0
100
AcDbPoint
 10
148.1951323704504
 20
261.2779282028403
 30
0.0
  0
ENDBLK
  5
78C
330
78A
100
AcDbEntity
  8
0
100
AcDbBlockEnd
  0
BLOCK
  5
868
330
867
100
AcDbEntity
  8
0
100
AcDbBlockBegin
  2
*D13
 70
     1
 10
0.0
 20
0.0
 30
0.0
  3
*D13
  1

  0
LINE
  5
908
330
867
100
AcDbEntity
  8
寸法(細線)
100
AcDbLine
 10
87.32406570407514
 20
162.0380210289368
 30
0.0
 11
85.12917965943087
 21
160.1426382696618
 31
0.0
  0
LINE
  5
909
330
867
100
AcDbEntity
  8
寸法(細線)
100
AcDbLine
 10
95.49812395278562
 20
169.0966877491157
 30
0.0
 11
118.9193560090071
 21
189.3219744097435
 31
0.0
  0
LINE
  5
90A
330
867
100
AcDbEntity
  8
寸法(細線)
100
AcDbLine
 10
89.51895174871939
 20
163.9334037882118
 30
0.0
 11
93.30323790814134
 21
167.2013049898407
 31
0.0
  0
INSERT
  5
90B
330
867
100
AcDbEntity
  8
寸法(細線)
100
AcDbBlockReference
  2
Open-1
 10
89.51895174871939
 20
163.9334037882118
 30
0.0
 41
2.900000095367431
 42
2.900000095367431
 43
2.900000095367431
 50
40.81208372617629
  0
INSERT
  5
90C
330
867
100
AcDbEntity
  8
寸法(細線)
100
AcDbBlockReference
  2
Open-1
 10
93.30323790814134
 20
167.2013049898407
 30
0.0
 41
2.900000095367431
 42
2.900000095367431
 43
2.900000095367431
 50
220.8120837261763
  0
MTEXT
  5
90D
330
867
100
AcDbEntity
  8
寸法(細線)
100
AcDbMText
 10
110.8000286681514
 20
188.3484087692035
 30
0.0
 40
3.5
 41
0.0
 46
0.0
 71
     1
 72
     1
  1
\A1;∅5
  7
Note Text (ULVAC_寸法)
 11
0.7568572318843897
 21
0.6535802403257761
 31
0.0
 73
     1
 44
1.0
  0
POINT
  5
90E
330
867
100
AcDbEntity
  8
Defpoints
 62
     0
100
AcDbPoint
 10
93.30323790814134
 20
167.2013049898407
 30
0.0
  0
POINT
  5
90F
330
867
100
AcDbEntity
  8
Defpoints
 62
     0
100
AcDbPoint
 10
89.51895174871939
 20
163.9334037882118
 30
0.0
  0
ENDBLK
  5
869
330
867
100
AcDbEntity
  8
0
100
AcDbBlockEnd
  0
BLOCK
  5
914
330
913
100
AcDbEntity
  8
0
100
AcDbBlockBegin
  2
*D14
 70
     1
 10
0.0
 20
0.0
 30
0.0
  3
*D14
  1

  0
LINE
  5
9EB
330
913
100
AcDbEntity
  8
寸法(細線)
100
AcDbLine
 10
341.0063101266568
 20
128.8843543890263
 30
0.0
 11
380.7947861789866
 21
128.8843543890263
 31
0.0
  0
LINE
  5
9EC
330
913
100
AcDbEntity
  8
寸法(細線)
100
AcDbLine
 10
355.8313101266459
 20
165.5673543890262
 30
0.0
 11
380.7947861789866
 21
165.5673543890262
 31
0.0
  0
LINE
  5
9ED
330
913
100
AcDbEntity
  8
寸法(細線)
100
AcDbLine
 10
379.5947861789866
 20
131.7843544843937
 30
0.0
 11
379.5947861789866
 21
162.6673542936588
 31
0.0
  0
INSERT
  5
9EE
330
913
100
AcDbEntity
  8
寸法(細線)
100
AcDbBlockReference
  2
Open-1
 10
379.5947861789866
 20
128.8843543890263
 30
0.0
 41
2.900000095367431
 42
2.900000095367431
 43
2.900000095367431
 50
270.0
  0
INSERT
  5
9EF
330
913
100
AcDbEntity
  8
寸法(細線)
100
AcDbBlockReference
  2
Open-1
 10
379.5947861789866
 20
165.5673543890262
 30
0.0
 41
2.900000095367431
 42
2.900000095367431
 43
2.900000095367431
 50
90.0
  0
MTEXT
  5
9F0
330
913
100
AcDbEntity
  8
寸法(細線)
100
AcDbMText
 10
375.1490507861054
 20
142.7562439121961
 30
0.0
 40
3.5
 41
0.0
 46
0.0
 71
     1
 72
     1
  1
\A1;36.7
  7
Note Text (ULVAC_寸法)
 11
0.0000000000000001
 21
1.0
 31
0.0
 73
     1
 44
1.0
  0
POINT
  5
9F1
330
913
100
AcDbEntity
  8
Defpoints
 62
     0
100
AcDbPoint
 10
339.7363101266568
 20
128.8843543890263
 30
0.0
  0
POINT
  5
9F2
330
913
100
AcDbEntity
  8
Defpoints
 62
     0
100
AcDbPoint
 10
354.561310126646
 20
165.5673543890262
 30
0.0
  0
POINT
  5
9F3
330
913
100
AcDbEntity
  8
Defpoints
 62
     0
100
AcDbPoint
 10
379.5947861789866
 20
165.5673543890262
 30
0.0
  0
ENDBLK
  5
915
330
913
100
AcDbEntity
  8
0
100
AcDbBlockEnd
  0
ENDSEC
  0
SECTION
  2
ENTITIES
  0
INSERT
  5
16D
330
77
100
AcDbEntity
  8
0
100
AcDbBlockReference
  2
図面枠 ゾーン図枠(A3)
 10
0.0
 20
0.0
 30
0.0
  0
INSERT
  5
27D
330
77
100
AcDbEntity
  8
0
100
AcDbBlockReference
 66
     1
  2
表題欄 ULVAC表題欄
 10
234.9999999999996
 20
9.999999999999623
 30
0.0
  0
ATTRIB
  5
27F
102
{ACAD_XDICTIONARY
360
A4E
102
}
330
27D
100
AcDbEntity
  8
寸法(細線)
100
AcDbText
 10
253.0000005448673
 20
59.24999999999965
 30
0.0
 40
2.5
  1

  7
文字スタイル35
 11
253.0000005448673
 21
60.49999999999965
 31
0.0
100
AcDbAttribute
280
     0
  2
流用元図番
 70
     0
 74
     2
280
     0
  0
ATTRIB
  5
280
102
{ACAD_XDICTIONARY
360
A51
102
}
330
27D
100
AcDbEntity
  8
寸法(細線)
100
AcDbText
 10
347.9999999999995
 20
57.74999999999963
 30
0.0
 40
2.5
  1

  7
文字スタイル35
 72
     1
 11
347.9999999999995
 21
58.99999999999963
 31
0.0
100
AcDbAttribute
280
     0
  2
<変更来歴B-COUNT>
 70
     0
 74
     2
280
     0
  0
ATTRIB
  5
281
102
{ACAD_XDICTIONARY
360
A54
102
}
330
27D
100
AcDbEntity
  8
寸法(細線)
100
AcDbText
 10
347.9999999999995
 20
63.74999999999964
 30
0.0
 40
2.5
  1

  7
文字スタイル35
 72
     1
 11
347.9999999999995
 21
64.99999999999963
 31
0.0
100
AcDbAttribute
280
     0
  2
<変更来歴C-COUNT>
 70
     0
 74
     2
280
     0
  0
ATTRIB
  5
282
102
{ACAD_XDICTIONARY
360
A57
102
}
330
27D
100
AcDbEntity
  8
寸法(細線)
100
AcDbText
 10
347.9999999999995
 20
69.74999999999965
 30
0.0
 40
2.5
  1

  7
文字スタイル35
 72
     1
 11
347.9999999999995
 21
70.99999999999965
 31
0.0
100
AcDbAttribute
280
     0
  2
<変更来歴D-COUNT>
 70
     0
 74
     2
280
     0
  0
ATTRIB
  5
283
102
{ACAD_XDICTIONARY
360
A5A
102
}
330
27D
100
AcDbEntity
  8
寸法(細線)
100
AcDbText
 10
361.9999999999996
 20
69.74999999999965
 30
0.0
 40
2.5
  1

  7
文字スタイル35
 72
     1
 11
361.9999999999996
 21
70.99999999999965
 31
0.0
100
AcDbAttribute
280
     0
  2
<変更来歴D-DATE>
 70
     0
 74
     2
280
     0
  0
ATTRIB
  5
284
102
{ACAD_XDICTIONARY
360
A5D
102
}
330
27D
100
AcDbEntity
  8
寸法(細線)
100
AcDbText
 10
361.9999999999996
 20
63.74999999999964
 30
0.0
 40
2.5
  1

  7
文字スタイル35
 72
     1
 11
361.9999999999996
 21
64.99999999999963
 31
0.0
100
AcDbAttribute
280
     0
  2
<変更来歴C-DATE>
 70
     0
 74
     2
280
     0
  0
ATTRIB
  5
285
102
{ACAD_XDICTIONARY
360
A60
102
}
330
27D
100
AcDbEntity
  8
寸法(細線)
100
AcDbText
 10
373.9999999999995
 20
57.74999999999963
 30
0.0
 40
2.5
  1

 41
0.5
  7
文字スタイル211
 11
373.9999999999995
 21
58.99999999999963
 31
0.0
100
AcDbAttribute
280
     0
  2
<変更来歴B-REMARKS>
 70
     0
 74
     2
280
     0
  0
ATTRIB
  5
286
102
{ACAD_XDICTIONARY
360
A63
102
}
330
27D
100
AcDbEntity
  8
寸法(細線)
100
AcDbText
 10
373.9999999999995
 20
63.74999999999964
 30
0.0
 40
2.5
  1

 41
0.5
  7
文字スタイル211
 11
373.9999999999995
 21
64.99999999999963
 31
0.0
100
AcDbAttribute
280
     0
  2
<変更来歴C-REMARKS>
 70
     0
 74
     2
280
     0
  0
ATTRIB
  5
287
102
{ACAD_XDICTIONARY
360
A66
102
}
330
27D
100
AcDbEntity
  8
寸法(細線)
100
AcDbText
 10
373.9999999999995
 20
69.74999999999965
 30
0.0
 40
2.5
  1

 41
0.5
  7
文字スタイル211
 11
373.9999999999995
 21
70.99999999999965
 31
0.0
100
AcDbAttribute
280
     0
  2
<変更来歴D-REMARKS>
 70
     0
 74
     2
280
     0
  0
ATTRIB
  5
288
102
{ACAD_XDICTIONARY
360
A69
102
}
330
27D
100
AcDbEntity
  8
寸法(細線)
100
AcDbText
 10
306.8549362969843
 20
48.90000006556475
 30
0.0
 40
4.199999868869781
  1
A3
  7
文字スタイル60
100
AcDbAttribute
280
     0
  2
シート_サイズ_001
 70
     0
280
     0
  0
ATTRIB
  5
289
102
{ACAD_XDICTIONARY
360
A6C
102
}
330
27D
100
AcDbEntity
  8
寸法(細線)
100
AcDbText
 10
340.4218271234995
 20
12.95000004768334
 30
0.0
 40
5.099999904632568
  1
KZ2003-902A
  7
文字スタイル206
100
AcDbAttribute
280
     0
  2
図面番号_001
 70
     0
280
     0
  0
ATTRIB
  5
28A
102
{ACAD_XDICTIONARY
360
A6F
102
}
330
27D
100
AcDbEntity
  8
寸法(細線)
100
AcDbText
 10
321.2619206433808
 20
30.14546670238753
 30
0.0
 40
2.70000010728836
  1
1:1
  7
文字スタイル205
100
AcDbAttribute
280
     0
  2
<尺度>_001
 70
     0
280
     0
  0
ATTRIB
  5
28B
102
{ACAD_XDICTIONARY
360
A72
102
}
330
27D
100
AcDbEntity
  8
寸法(細線)
100
AcDbText
 10
315.1475822699794
 20
23.46574882471421
 30
0.0
 40
2.5
  1
2013/04/18
  7
文字スタイル35
100
AcDbAttribute
280
     0
  2
作成日_001
 70
     0
280
     0
  0
ATTRIB
  5
28D
102
{ACAD_XDICTIONARY
360
A75
102
}
330
27D
100
AcDbEntity
  8
寸法(細線)
100
AcDbText
 10
354.3992147678299
 20
26.85144388635623
 30
0.0
 40
4.300000071525573
  1
VSM-Ｇ-L-5-50
  7
文字スタイル207
100
AcDbAttribute
280
     0
  2
タイトル_001
 70
     0
280
     0
  0
ATTRIB
  5
28E
102
{ACAD_XDICTIONARY
360
A78
102
}
330
27D
100
AcDbEntity
  8
寸法(細線)
100
AcDbText
 10
366.9943181562487
 20
34.54431817562028
 30
0.0
 40
2.800000011920928
  1
外観図
  7
文字スタイル208
100
AcDbAttribute
280
     0
  2
<サブタイトル>_001
 70
     0
280
     0
  0
ATTRIB
  5
28F
102
{ACAD_XDICTIONARY
360
A7B
102
}
330
27D
100
AcDbEntity
  8
寸法(細線)
100
AcDbText
 10
338.4569845218795
 20
57.59999996423686
 30
0.0
 40
1.800000071525573
  1
B
  7
文字スタイル107
100
AcDbAttribute
280
     0
  2
<変更来歴B-MARK>_001
 70
     0
280
     0
  0
ATTRIB
  5
290
102
{ACAD_XDICTIONARY
360
A7E
102
}
330
27D
100
AcDbEntity
  8
寸法(細線)
100
AcDbText
 10
338.4872061483322
 20
63.59999996423685
 30
0.0
 40
1.800000071525573
  1
C
  7
文字スタイル107
100
AcDbAttribute
280
     0
  2
<変更来歴C-MARK>_001
 70
     0
280
     0
  0
ATTRIB
  5
291
102
{ACAD_XDICTIONARY
360
A81
102
}
330
27D
100
AcDbEntity
  8
寸法(細線)
100
AcDbText
 10
338.3578575871145
 20
69.59999996423684
 30
0.0
 40
1.800000071525573
  1
D
  7
文字スタイル107
100
AcDbAttribute
280
     0
  2
<変更来歴D-MARK>_001
 70
     0
280
     0
  0
ATTRIB
  5
292
102
{ACAD_XDICTIONARY
360
A84
102
}
330
27D
100
AcDbEntity
  8
寸法(細線)
100
AcDbText
 10
361.9999999999996
 20
57.74999999999963
 30
0.0
 40
2.5
  1

  7
文字スタイル35
 72
     1
 11
361.9999999999996
 21
58.99999999999963
 31
0.0
100
AcDbAttribute
280
     0
  2
<変更来歴B-DATE>
 70
     0
 74
     2
280
     0
  0
ATTRIB
  5
293
102
{ACAD_XDICTIONARY
360
A87
102
}
330
27D
100
AcDbEntity
  8
寸法(細線)
100
AcDbText
 10
255.0000005448673
 20
65.99999999999965
 30
0.0
 40
2.5
  1

  7
文字スタイル35
 11
255.0000005448673
 21
67.24999999999965
 31
0.0
100
AcDbAttribute
280
     0
  2
<貼DWG.No>
 70
     0
 74
     2
280
     0
  0
ATTRIB
  5
294
102
{ACAD_XDICTIONARY
360
A8A
102
}
330
27D
100
AcDbEntity
  8
寸法(細線)
100
AcDbText
 10
298.7499999999995
 20
65.99999999999965
 30
0.0
 40
2.5
  1

  7
文字スタイル35
 72
     1
 11
298.7499999999995
 21
67.24999999999965
 31
0.0
100
AcDbAttribute
280
     0
  2
<貼DATE>
 70
     0
 74
     2
280
     0
  0
ATTRIB
  5
295
102
{ACAD_XDICTIONARY
360
A8D
102
}
330
27D
100
AcDbEntity
  8
寸法(細線)
100
AcDbText
 10
323.3749999999997
 20
66.09999997913802
 30
0.0
 40
2.300000041723251
  1

  7
文字スタイル204
 72
     1
 11
323.3749999999997
 21
67.24999999999965
 31
0.0
100
AcDbAttribute
280
     0
  2
<貼NAME>
 70
     0
 74
     2
280
     0
  0
ATTRIB
  5
296
102
{ACAD_XDICTIONARY
360
A90
102
}
330
27D
100
AcDbEntity
  8
寸法(細線)
100
AcDbText
 10
317.6111481082844
 20
59.35862990763426
 30
0.0
 40
3.000000119209289
  1
0.103 kg
  7
文字スタイル32
100
AcDbAttribute
280
     0
  2
重量_001
 70
     0
280
     0
  0
ATTRIB
  5
297
102
{ACAD_XDICTIONARY
360
A93
102
}
330
27D
100
AcDbEntity
  8
寸法(細線)
100
AcDbText
 10
290.9999999999996
 20
27.80000002682172
 30
0.0
 40
2.399999946355819
  1

  7
文字スタイル228
 72
     1
 11
290.9999999999996
 21
28.99999999999963
 31
0.0
100
AcDbAttribute
280
     0
  2
製図欄2
 70
     0
 74
     2
280
     0
  0
ATTRIB
  5
298
102
{ACAD_XDICTIONARY
360
A96
102
}
330
27D
100
AcDbEntity
  8
寸法(細線)
100
AcDbText
 10
290.9999999999996
 20
23.80000002682173
 30
0.0
 40
2.399999946355819
  1

  7
文字スタイル228
 72
     1
 11
290.9999999999996
 21
24.99999999999964
 31
0.0
100
AcDbAttribute
280
     0
  2
製図者
 70
     0
 74
     2
280
     0
  0
ATTRIB
  5
299
102
{ACAD_XDICTIONARY
360
A99
102
}
330
27D
100
AcDbEntity
  8
寸法(細線)
100
AcDbText
 10
290.9999999999996
 20
31.80000002682173
 30
0.0
 40
2.399999946355819
  1

  7
文字スタイル228
 72
     1
 11
290.9999999999996
 21
32.99999999999964
 31
0.0
100
AcDbAttribute
280
     0
  2
製図欄1
 70
     0
 74
     2
280
     0
  0
ATTRIB
  5
29A
102
{ACAD_XDICTIONARY
360
A9C
102
}
330
27D
100
AcDbEntity
  8
寸法(細線)
100
AcDbText
 10
407.2157360094449
 20
11.49999994039498
 30
0.0
 40
3.000000119209289
  1
1
  7
文字スタイル117
100
AcDbAttribute
280
     0
  2
シートの数_001
 70
     0
280
     0
  0
ATTRIB
  5
29B
102
{ACAD_XDICTIONARY
360
A9F
102
}
330
27D
100
AcDbEntity
  8
寸法(細線)
100
AcDbText
 10
402.7157360094449
 20
16.49999994039499
 30
0.0
 40
3.000000119209289
  1
1
  7
文字スタイル117
100
AcDbAttribute
280
     0
  2
シート番号_001
 70
     0
280
     0
  0
SEQEND
  5
27E
330
27D
100
AcDbEntity
  8
0
  0
ARC
  5
29C
330
77
100
AcDbEntity
  8
実線(中線)
100
AcDbCircle
 10
91.41109482843038
 20
165.5673543890262
 30
0.0
 40
16.49999999999999
100
AcDbArc
 50
245.3800226713428
 51
294.6199773286571
  0
ARC
  5
29D
330
77
100
AcDbEntity
  8
実線(中線)
100
AcDbCircle
 10
91.41109482843038
 20
165.5673543890262
 30
0.0
 40
16.5
100
AcDbArc
 50
65.38002267134294
 51
114.6199773286572
  0
LINE
  5
29E
330
77
100
AcDbEntity
  8
実線(中線)
100
AcDbLine
 10
83.15609482843038
 20
151.2808231445288
 30
0.0
 11
83.15609482843038
 21
151.0673543890263
 31
0.0
  0
LINE
  5
29F
330
77
100
AcDbEntity
  8
実線(中線)
100
AcDbLine
 10
99.6660948284304
 20
151.0673543890263
 30
0.0
 11
99.28510270244224
 21
151.0673543890263
 31
0.0
  0
LINE
  5
2A0
330
77
100
AcDbEntity
  8
実線(中線)
100
AcDbLine
 10
83.53708695441854
 20
151.0673543890263
 30
0.0
 11
83.15609482843038
 21
151.0673543890263
 31
0.0
  0
LINE
  5
2A1
330
77
100
AcDbEntity
  8
実線(中線)
100
AcDbLine
 10
99.6660948284304
 20
151.2808231445289
 30
0.0
 11
99.6660948284304
 21
151.0673543890263
 31
0.0
  0
LINE
  5
2A2
330
77
100
AcDbEntity
  8
実線(中線)
100
AcDbLine
 10
94.58609482843042
 20
135.1573543890262
 30
0.0
 11
88.23609482843039
 21
135.1573543890262
 31
0.0
  0
LINE
  5
2A3
330
77
100
AcDbEntity
  8
実線(中線)
100
AcDbLine
 10
94.58609482843042
 20
128.8843543890263
 30
0.0
 11
88.23609482843039
 21
128.8843543890263
 31
0.0
  0
LINE
  5
2A4
330
77
100
AcDbEntity
  8
実線(中線)
100
AcDbLine
 10
94.58609482843042
 20
135.1573543890262
 30
0.0
 11
94.58609482843042
 21
128.8843543890263
 31
0.0
  0
LINE
  5
2A5
330
77
100
AcDbEntity
  8
実線(中線)
100
AcDbLine
 10
88.23609482843039
 20
135.1573543890262
 30
0.0
 11
88.23609482843039
 21
128.8843543890263
 31
0.0
  0
LINE
  5
2A6
330
77
100
AcDbEntity
  8
実線(中線)
100
AcDbLine
 10
94.58609482843042
 20
136.6573543890262
 30
0.0
 11
88.23609482843039
 21
136.6573543890262
 31
0.0
  0
LINE
  5
2A7
330
77
100
AcDbEntity
  8
実線(中線)
100
AcDbLine
 10
94.58609482843042
 20
139.4573543890263
 30
0.0
 11
94.58609482843042
 21
136.6573543890262
 31
0.0
  0
LINE
  5
2A8
330
77
100
AcDbEntity
  8
実線(中線)
100
AcDbLine
 10
88.23609482843039
 20
139.4573543890263
 30
0.0
 11
88.23609482843039
 21
136.6573543890262
 31
0.0
  0
LINE
  5
2A9
330
77
100
AcDbEntity
  8
実線(中線)
100
AcDbLine
 10
96.1760948284304
 20
139.4573543890263
 30
0.0
 11
86.6460948284304
 21
139.4573543890263
 31
0.0
  0
LINE
  5
2AA
330
77
100
AcDbEntity
  8
実線(中線)
100
AcDbLine
 10
96.1760948284304
 20
147.2573543890263
 30
0.0
 11
96.1760948284304
 21
139.4573543890263
 31
0.0
  0
LINE
  5
2AB
330
77
100
AcDbEntity
  8
実線(中線)
100
AcDbLine
 10
86.6460948284304
 20
147.2573543890263
 30
0.0
 11
86.6460948284304
 21
139.4573543890263
 31
0.0
  0
LINE
  5
2AC
330
77
100
AcDbEntity
  8
実線(中線)
100
AcDbLine
 10
97.7610948284304
 20
147.2573543890263
 30
0.0
 11
85.06109482843042
 21
147.2573543890263
 31
0.0
  0
LINE
  5
2AD
330
77
100
AcDbEntity
  8
実線(中線)
100
AcDbLine
 10
97.7610948284304
 20
150.338188292355
 30
0.0
 11
97.7610948284304
 21
147.2573543890263
 31
0.0
  0
LINE
  5
2AE
330
77
100
AcDbEntity
  8
実線(中線)
100
AcDbLine
 10
85.06109482843042
 20
150.338188292355
 30
0.0
 11
85.06109482843042
 21
147.2573543890263
 31
0.0
  0
LINE
  5
2AF
330
77
100
AcDbEntity
  8
実線(中線)
100
AcDbLine
 10
94.0110948284304
 20
136.6573543890262
 30
0.0
 11
94.0110948284304
 21
135.1573543890262
 31
0.0
  0
LINE
  5
2B0
330
77
100
AcDbEntity
  8
実線(中線)
100
AcDbLine
 10
88.81109482843042
 20
136.6573543890262
 30
0.0
 11
88.81109482843042
 21
135.1573543890262
 31
0.0
  0
SPLINE
  5
2B1
330
77
100
AcDbEntity
  8
実線(中線)
100
AcDbSpline
210
0.0
220
0.0
230
1.0
 70
    28
 71
     2
 72
     6
 73
     3
 74
     0
 42
0.0000000001
 43
0.0000000001
 40
0.0
 40
0.0
 40
0.0
 40
0.385608406565739
 40
0.385608406565739
 40
0.385608406565739
 10
87.50596999047704
 20
180.5673543890262
 30
0.0
 41
1.0
 10
86.06798718049411
 20
180.5673543890262
 30
0.0
 41
1.01644878116968
 10
84.5372312859966
 20
180.5673543890262
 30
0.0
 41
1.024275806615335
  0
SPLINE
  5
2B2
330
77
100
AcDbEntity
  8
実線(中線)
100
AcDbSpline
210
0.0
220
0.0
230
1.0
 70
    28
 71
     2
 72
     6
 73
     3
 74
     0
 42
0.0000000001
 43
0.0000000001
 40
1.085736525908709
 40
1.085736525908709
 40
1.085736525908709
 40
1.471344932474448
 40
1.471344932474448
 40
1.471344932474448
 10
98.28495837086414
 20
180.5673543890262
 30
0.0
 41
1.024275806615335
 10
96.75420247636665
 20
180.5673543890262
 30
0.0
 41
1.01644878116968
 10
95.3162196663837
 20
180.5673543890262
 30
0.0
 41
1.0
  0
SPLINE
  5
2B3
330
77
100
AcDbEntity
  8
実線(中線)
100
AcDbSpline
210
0.0
220
0.0
230
1.0
 70
    28
 71
     2
 72
     6
 73
     3
 74
     0
 42
0.0000000001
 43
0.0000000001
 40
0.0
 40
0.0
 40
0.0
 40
0.3856084065657391
 40
0.3856084065657391
 40
0.3856084065657391
 10
95.31621966638372
 20
150.5673543890262
 30
0.0
 41
1.0
 10
96.75420247636665
 20
150.5673543890262
 30
0.0
 41
1.01644878116968
 10
98.28495837086414
 20
150.5673543890262
 30
0.0
 41
1.024275806615335
  0
ARC
  5
2B4
330
77
100
AcDbEntity
  8
実線(中線)
100
AcDbCircle
 10
91.41109482843038
 20
165.5673543890262
 30
0.0
 40
16.5
100
AcDbArc
 50
294.6199773286571
 51
65.3800226713429
  0
ARC
  5
2B5
330
77
100
AcDbEntity
  8
実線(中線)
100
AcDbCircle
 10
91.41109482843038
 20
165.5673543890262
 30
0.0
 40
15.5
100
AcDbArc
 50
284.5925506020334
 51
75.4074493979666
  0
ARC
  5
2B6
330
77
100
AcDbEntity
  8
実線(中線)
100
AcDbCircle
 10
91.41109482843038
 20
165.5673543890262
 30
0.0
 40
15.5
100
AcDbArc
 50
104.5925506020335
 51
255.4074493979666
  0
ARC
  5
2B7
330
77
100
AcDbEntity
  8
実線(中線)
100
AcDbCircle
 10
91.41109482843038
 20
165.5673543890262
 30
0.0
 40
16.5
100
AcDbArc
 50
114.6199773286571
 51
245.380022671343
  0
SPLINE
  5
2B8
330
77
100
AcDbEntity
  8
実線(中線)
100
AcDbSpline
210
0.0
220
0.0
230
1.0
 70
    28
 71
     2
 72
     6
 73
     3
 74
     0
 42
0.0000000001
 43
0.0000000001
 40
1.08573652590871
 40
1.08573652590871
 40
1.08573652590871
 40
1.471344932474449
 40
1.471344932474449
 40
1.471344932474449
 10
84.53723128599662
 20
150.5673543890262
 30
0.0
 41
1.024275806615335
 10
86.06798718049411
 20
150.5673543890262
 30
0.0
 41
1.01644878116968
 10
87.50596999047704
 20
150.5673543890262
 30
0.0
 41
1.0
  0
LINE
  5
2B9
330
77
100
AcDbEntity
  8
実線(中線)
100
AcDbLine
 10
95.3162196663837
 20
180.5673543890262
 30
0.0
 11
87.50596999047704
 21
180.5673543890262
 31
0.0
  0
LINE
  5
2BA
330
77
100
AcDbEntity
  8
実線(中線)
100
AcDbLine
 10
87.50596999047704
 20
150.5673543890262
 30
0.0
 11
95.31621966638372
 21
150.5673543890262
 31
0.0
  0
CIRCLE
  5
2BB
330
77
100
AcDbEntity
  8
実線(中線)
100
AcDbCircle
 10
91.41109482843038
 20
165.5673543890262
 30
0.0
 40
2.499999999999999
  0
CIRCLE
  5
2BC
330
77
100
AcDbEntity
  8
実線(中線)
100
AcDbCircle
 10
91.41109482843038
 20
165.5673543890262
 30
0.0
 40
4.999999999999999
  0
LINE
  5
2BD
330
77
100
AcDbEntity
  8
実線(中線)
100
AcDbLine
 10
228.695132370454
 20
180.5673543890262
 30
0.0
 11
222.695132370454
 21
180.5673543890262
 31
0.0
  0
LINE
  5
2BE
330
77
100
AcDbEntity
  8
実線(中線)
100
AcDbLine
 10
222.6951323704519
 20
182.0673543890262
 30
0.0
 11
222.695132370454
 21
180.5673543890262
 31
0.0
  0
SPLINE
  5
2BF
330
77
100
AcDbEntity
  8
実線(中線)
100
AcDbSpline
210
0.0
220
0.0
230
1.0
 70
    28
 71
     2
 72
     6
 73
     3
 74
     0
 42
0.0000000001
 43
0.0000000001
 40
0.0
 40
0.0
 40
0.0
 40
0.3856084065657387
 40
0.3856084065657387
 40
0.3856084065657387
 10
229.6951323704531
 20
180.5673543890262
 30
0.0
 41
1.0
 10
229.3328418938203
 20
180.5673543890262
 30
0.0
 41
1.016448781169682
 10
228.695132370454
 20
180.5673543890262
 30
0.0
 41
1.024275806615337
  0
LINE
  5
2C0
330
77
100
AcDbEntity
  8
実線(中線)
100
AcDbLine
 10
228.695132370454
 20
150.5673543890262
 30
0.0
 11
228.6951323704539
 21
180.5673543890262
 31
0.0
  0
SPLINE
  5
2C1
330
77
100
AcDbEntity
  8
実線(中線)
100
AcDbSpline
210
0.0
220
0.0
230
1.0
 70
    28
 71
     2
 72
     6
 73
     3
 74
     0
 42
0.0000000001
 43
0.0000000001
 40
1.08573652590871
 40
1.08573652590871
 40
1.08573652590871
 40
1.471344932474449
 40
1.471344932474449
 40
1.471344932474449
 10
228.695132370454
 20
150.5673543890262
 30
0.0
 41
1.024275806615337
 10
229.3328418938203
 20
150.5673543890262
 30
0.0
 41
1.016448781169682
 10
229.6951323704531
 20
150.5673543890262
 30
0.0
 41
1.0
  0
LINE
  5
2C2
330
77
100
AcDbEntity
  8
実線(中線)
100
AcDbLine
 10
229.6951323704531
 20
180.5673543890262
 30
0.0
 11
229.6951323704531
 21
150.5673543890262
 31
0.0
  0
LINE
  5
2C3
330
77
100
AcDbEntity
  8
実線(中線)
100
AcDbLine
 10
216.6951323704519
 20
149.0673543890262
 30
0.0
 11
216.6951323704519
 21
182.0673543890262
 31
0.0
  0
LINE
  5
2C4
330
77
100
AcDbEntity
  8
実線(中線)
100
AcDbLine
 10
222.695132370454
 20
150.5673543890262
 30
0.0
 11
222.6951323704519
 21
149.0673543890262
 31
0.0
  0
LINE
  5
2C5
330
77
100
AcDbEntity
  8
実線(中線)
100
AcDbLine
 10
222.695132370454
 20
150.5673543890262
 30
0.0
 11
228.695132370454
 21
150.5673543890262
 31
0.0
  0
LINE
  5
2C6
330
77
100
AcDbEntity
  8
実線(中線)
100
AcDbLine
 10
222.6951323704519
 20
149.0673543890262
 30
0.0
 11
216.6951323704519
 21
149.0673543890262
 31
0.0
  0
LINE
  5
2C7
330
77
100
AcDbEntity
  8
実線(中線)
100
AcDbLine
 10
222.6951323704519
 20
182.0673543890262
 30
0.0
 11
216.6951323704519
 21
182.0673543890262
 31
0.0
  0
SPLINE
  5
2C8
330
77
100
AcDbEntity
  8
実線(中線)
100
AcDbSpline
210
0.0
220
0.0
230
1.0
 70
    28
 71
     2
 72
     6
 73
     3
 74
     0
 42
0.0000000001
 43
0.0000000001
 40
0.0
 40
0.0
 40
0.0
 40
0.3527443632412909
 40
0.3527443632412909
 40
0.3527443632412909
 10
198.195132370453
 20
150.5673543890262
 30
0.0
 41
1.0
 10
198.5574228470866
 20
150.5673543890262
 30
0.0
 41
1.011646623330435
 10
199.1951323704539
 20
150.5673543890262
 30
0.0
 41
1.0146203964515
  0
LINE
  5
2C9
330
77
100
AcDbEntity
  8
実線(中線)
100
AcDbLine
 10
199.1951323704539
 20
180.5673543890262
 30
0.0
 11
199.1951323704539
 21
150.5673543890262
 31
0.0
  0
SPLINE
  5
2CA
330
77
100
AcDbEntity
  8
実線(中線)
100
AcDbSpline
210
0.0
220
0.0
230
1.0
 70
    28
 71
     2
 72
     6
 73
     3
 74
     0
 42
0.0000000001
 43
0.0000000001
 40
0.5946444723613679
 40
0.5946444723613679
 40
0.5946444723613679
 40
0.9473888356025547
 40
0.9473888356025547
 40
0.9473888356025547
 10
199.1951323704539
 20
180.5673543890262
 30
0.0
 41
1.014620396451498
 10
198.5574228470869
 20
180.5673543890262
 30
0.0
 41
1.011646623330432
 10
198.195132370453
 20
180.5673543890262
 30
0.0
 41
1.0
  0
LINE
  5
2CB
330
77
100
AcDbEntity
  8
実線(中線)
100
AcDbLine
 10
198.1951323704531
 20
150.5673543890262
 30
0.0
 11
198.1951323704531
 21
180.5673543890262
 31
0.0
  0
LINE
  5
2CC
330
77
100
AcDbEntity
  8
実線(中線)
100
AcDbLine
 10
199.1951323704539
 20
150.5673543890262
 30
0.0
 11
202.1951323704539
 21
150.5673543890262
 31
0.0
  0
LINE
  5
2CD
330
77
100
AcDbEntity
  8
実線(中線)
100
AcDbLine
 10
202.1951323704519
 20
149.0673543890262
 30
0.0
 11
202.1951323704539
 21
150.5673543890262
 31
0.0
  0
LINE
  5
2CE
330
77
100
AcDbEntity
  8
実線(中線)
100
AcDbLine
 10
202.1951323704539
 20
180.5673543890262
 30
0.0
 11
202.1951323704519
 21
182.0673543890262
 31
0.0
  0
LINE
  5
2CF
330
77
100
AcDbEntity
  8
実線(中線)
100
AcDbLine
 10
202.1951323704539
 20
180.5673543890262
 30
0.0
 11
199.1951323704539
 21
180.5673543890262
 31
0.0
  0
LINE
  5
2D0
330
77
100
AcDbEntity
  8
実線(中線)
100
AcDbLine
 10
216.6951323704519
 20
149.0673543890262
 30
0.0
 11
216.6951323704519
 21
182.0673543890262
 31
0.0
  0
LINE
  5
2D1
330
77
100
AcDbEntity
  8
実線(中線)
100
AcDbLine
 10
216.6951323704519
 20
149.0673543890262
 30
0.0
 11
202.1951323704519
 21
149.0673543890262
 31
0.0
  0
LINE
  5
2D2
330
77
100
AcDbEntity
  8
実線(中線)
100
AcDbLine
 10
216.6951323704519
 20
182.0673543890262
 30
0.0
 11
202.1951323704519
 21
182.0673543890262
 31
0.0
  0
LINE
  5
2D3
330
77
100
AcDbEntity
  8
実線(中線)
100
AcDbLine
 10
256.2586779671832
 20
163.6651135481284
 30
0.0
 11
256.2586779671834
 21
162.2508999857553
 31
0.0
  0
LINE
  5
2D4
330
77
100
AcDbEntity
  8
実線(中線)
100
AcDbLine
 10
256.2586779671832
 20
163.6651135481284
 30
0.0
 11
245.9956915295562
 21
173.9280999857553
 31
0.0
  0
LINE
  5
2D5
330
77
100
AcDbEntity
  8
実線(中線)
100
AcDbLine
 10
245.9956915295562
 20
173.9280999857553
 30
0.0
 11
244.5814779671835
 21
173.9280999857553
 31
0.0
  0
LINE
  5
2D6
330
77
100
AcDbEntity
  8
実線(中線)
100
AcDbLine
 10
244.5814779671835
 20
173.9280999857553
 30
0.0
 11
256.2586779671834
 21
162.2508999857553
 31
0.0
  0
LINE
  5
2D7
330
77
100
AcDbEntity
  8
実線(中線)
100
AcDbLine
 10
254.6351323704544
 20
160.6273543890262
 30
0.0
 11
256.2586779671834
 21
162.2508999857553
 31
0.0
  0
LINE
  5
2D8
330
77
100
AcDbEntity
  8
実線(中線)
100
AcDbLine
 10
254.6351323704544
 20
151.0673543890263
 30
0.0
 11
254.6351323704544
 21
160.6273543890262
 31
0.0
  0
LINE
  5
2D9
330
77
100
AcDbEntity
  8
実線(中線)
100
AcDbLine
 10
244.5814779671835
 20
173.9280999857553
 30
0.0
 11
242.9551323704544
 21
172.3017543890262
 31
0.0
  0
LINE
  5
2DA
330
77
100
AcDbEntity
  8
実線(中線)
100
AcDbLine
 10
242.9551323704544
 20
172.3017543890262
 30
0.0
 11
234.6951323704544
 21
172.3017543890262
 31
0.0
  0
LINE
  5
2DB
330
77
100
AcDbEntity
  8
実線(中線)
100
AcDbLine
 10
234.6951323704544
 20
172.3017543890262
 30
0.0
 11
234.6951323704544
 21
158.8173543890262
 31
0.0
  0
LINE
  5
2DC
330
77
100
AcDbEntity
  8
実線(中線)
100
AcDbLine
 10
234.6951323704544
 20
158.8173543890262
 30
0.0
 11
238.1251323704544
 21
158.8173543890262
 31
0.0
  0
LINE
  5
2DD
330
77
100
AcDbEntity
  8
実線(中線)
100
AcDbLine
 10
238.1251323704544
 20
158.8173543890262
 30
0.0
 11
238.1251323704544
 21
151.0673543890263
 31
0.0
  0
LINE
  5
2DE
330
77
100
AcDbEntity
  8
実線(中線)
100
AcDbLine
 10
238.1251323704544
 20
151.0673543890263
 30
0.0
 11
254.6351323704544
 21
151.0673543890263
 31
0.0
  0
LINE
  5
2DF
330
77
100
AcDbEntity
  8
実線(中線)
100
AcDbLine
 10
251.0701323704519
 20
135.1573543890262
 30
0.0
 11
244.7201323704519
 21
135.1573543890262
 31
0.0
  0
LINE
  5
2E0
330
77
100
AcDbEntity
  8
実線(中線)
100
AcDbLine
 10
251.0701323704519
 20
128.8843543890263
 30
0.0
 11
244.7201323704519
 21
128.8843543890263
 31
0.0
  0
LINE
  5
2E1
330
77
100
AcDbEntity
  8
実線(中線)
100
AcDbLine
 10
251.0701323704519
 20
135.1573543890262
 30
0.0
 11
251.0701323704519
 21
128.8843543890263
 31
0.0
  0
LINE
  5
2E2
330
77
100
AcDbEntity
  8
実線(中線)
100
AcDbLine
 10
244.7201323704519
 20
135.1573543890262
 30
0.0
 11
244.7201323704519
 21
128.8843543890263
 31
0.0
  0
LINE
  5
2E3
330
77
100
AcDbEntity
  8
実線(中線)
100
AcDbLine
 10
251.0701323704519
 20
136.6573543890262
 30
0.0
 11
244.7201323704519
 21
136.6573543890262
 31
0.0
  0
LINE
  5
2E4
330
77
100
AcDbEntity
  8
実線(中線)
100
AcDbLine
 10
251.0701323704519
 20
139.4573543890263
 30
0.0
 11
251.0701323704519
 21
136.6573543890262
 31
0.0
  0
LINE
  5
2E5
330
77
100
AcDbEntity
  8
実線(中線)
100
AcDbLine
 10
244.7201323704519
 20
139.4573543890263
 30
0.0
 11
244.7201323704519
 21
136.6573543890262
 31
0.0
  0
LINE
  5
2E6
330
77
100
AcDbEntity
  8
実線(中線)
100
AcDbLine
 10
252.6601323704519
 20
139.4573543890263
 30
0.0
 11
243.1301323704519
 21
139.4573543890263
 31
0.0
  0
LINE
  5
2E7
330
77
100
AcDbEntity
  8
実線(中線)
100
AcDbLine
 10
252.6601323704519
 20
147.2573543890263
 30
0.0
 11
252.6601323704519
 21
139.4573543890263
 31
0.0
  0
LINE
  5
2E8
330
77
100
AcDbEntity
  8
実線(中線)
100
AcDbLine
 10
243.1301323704519
 20
147.2573543890263
 30
0.0
 11
243.1301323704519
 21
139.4573543890263
 31
0.0
  0
LINE
  5
2E9
330
77
100
AcDbEntity
  8
実線(中線)
100
AcDbLine
 10
254.2451323704519
 20
147.2573543890263
 30
0.0
 11
241.5451323704519
 21
147.2573543890263
 31
0.0
  0
LINE
  5
2EA
330
77
100
AcDbEntity
  8
実線(中線)
100
AcDbLine
 10
254.2451323704519
 20
151.0673543890263
 30
0.0
 11
254.2451323704519
 21
147.2573543890263
 31
0.0
  0
LINE
  5
2EB
330
77
100
AcDbEntity
  8
実線(中線)
100
AcDbLine
 10
241.5451323704519
 20
151.0673543890263
 30
0.0
 11
241.5451323704519
 21
147.2573543890263
 31
0.0
  0
LINE
  5
2EC
330
77
100
AcDbEntity
  8
実線(中線)
100
AcDbLine
 10
250.4951323704519
 20
136.6573543890262
 30
0.0
 11
250.4951323704519
 21
135.1573543890262
 31
0.0
  0
LINE
  5
2ED
330
77
100
AcDbEntity
  8
実線(中線)
100
AcDbLine
 10
245.2951323704519
 20
136.6573543890262
 30
0.0
 11
245.2951323704519
 21
135.1573543890262
 31
0.0
  0
SPLINE
  5
2EE
330
77
100
AcDbEntity
  8
実線(中線)
100
AcDbSpline
210
0.0
220
0.0
230
1.0
 70
    28
 71
     2
 72
     6
 73
     3
 74
     0
 42
0.0000000001
 43
0.0000000001
 40
0.0
 40
0.0
 40
0.0
 40
0.385608406565738
 40
0.385608406565738
 40
0.385608406565738
 10
198.1951323704531
 20
180.5673543890262
 30
0.0
 41
1.0
 10
197.8328418938203
 20
180.5673543890262
 30
0.0
 41
1.016448781169684
 10
197.1951323704539
 20
180.5673543890262
 30
0.0
 41
1.02427580661534
  0
LINE
  5
2EF
330
77
100
AcDbEntity
  8
実線(中線)
100
AcDbLine
 10
197.1951323704539
 20
150.5673543890262
 30
0.0
 11
197.1951323704539
 21
180.5673543890262
 31
0.0
  0
SPLINE
  5
2F0
330
77
100
AcDbEntity
  8
実線(中線)
100
AcDbSpline
210
0.0
220
0.0
230
1.0
 70
    28
 71
     2
 72
     6
 73
     3
 74
     0
 42
0.0000000001
 43
0.0000000001
 40
1.085736525908713
 40
1.085736525908713
 40
1.085736525908713
 40
1.471344932474451
 40
1.471344932474451
 40
1.471344932474451
 10
197.1951323704539
 20
150.5673543890262
 30
0.0
 41
1.02427580661534
 10
197.8328418938203
 20
150.5673543890262
 30
0.0
 41
1.016448781169684
 10
198.1951323704531
 20
150.5673543890262
 30
0.0
 41
1.0
  0
LINE
  5
2F1
330
77
100
AcDbEntity
  8
実線(中線)
100
AcDbLine
 10
198.1951323704531
 20
180.5673543890262
 30
0.0
 11
198.1951323704531
 21
150.5673543890262
 31
0.0
  0
SPLINE
  5
2F2
330
77
100
AcDbEntity
  8
実線(中線)
100
AcDbSpline
210
0.0
220
0.0
230
1.0
 70
    28
 71
     2
 72
     6
 73
     3
 74
     0
 42
0.0000000001
 43
0.0000000001
 40
1.085736525908709
 40
1.085736525908709
 40
1.085736525908709
 40
1.471344932474448
 40
1.471344932474448
 40
1.471344932474448
 10
192.1951323704539
 20
180.5673543890262
 30
0.0
 41
1.024275806615335
 10
191.5574228470867
 20
180.5673543890262
 30
0.0
 41
1.01644878116968
 10
191.1951323704531
 20
180.5673543890262
 30
0.0
 41
1.0
  0
SPLINE
  5
2F3
330
77
100
AcDbEntity
  8
実線(中線)
100
AcDbSpline
210
0.0
220
0.0
230
1.0
 70
    28
 71
     2
 72
     6
 73
     3
 74
     0
 42
0.0000000001
 43
0.0000000001
 40
0.0
 40
0.0
 40
0.0
 40
0.3856084065657391
 40
0.3856084065657391
 40
0.3856084065657391
 10
191.1951323704531
 20
150.5673543890262
 30
0.0
 41
1.0
 10
191.5574228470867
 20
150.5673543890262
 30
0.0
 41
1.01644878116968
 10
192.1951323704539
 20
150.5673543890262
 30
0.0
 41
1.024275806615335
  0
LINE
  5
2F4
330
77
100
AcDbEntity
  8
実線(中線)
100
AcDbLine
 10
192.1951323704539
 20
180.5673543890262
 30
0.0
 11
192.1951323704539
 21
150.5673543890262
 31
0.0
  0
LINE
  5
2F5
330
77
100
AcDbEntity
  8
実線(中線)
100
AcDbLine
 10
191.1951323704531
 20
150.5673543890262
 30
0.0
 11
191.1951323704531
 21
180.5673543890262
 31
0.0
  0
LINE
  5
2F6
330
77
100
AcDbEntity
  8
実線(中線)
100
AcDbLine
 10
197.1951323704539
 20
180.5673543890262
 30
0.0
 11
192.1951323704539
 21
180.5673543890262
 31
0.0
  0
LINE
  5
2F7
330
77
100
AcDbEntity
  8
実線(中線)
100
AcDbLine
 10
192.1951323704539
 20
150.5673543890262
 30
0.0
 11
197.1951323704539
 21
150.5673543890262
 31
0.0
  0
LINE
  5
2F8
330
77
100
AcDbEntity
  8
実線(中線)
100
AcDbLine
 10
189.1951323704519
 20
170.5673543890262
 30
0.0
 11
189.1951323704519
 21
160.5673543890262
 31
0.0
  0
LINE
  5
2F9
330
77
100
AcDbEntity
  8
実線(中線)
100
AcDbLine
 10
191.1951323704519
 20
161.5673543890262
 30
0.0
 11
189.1951323704519
 21
161.5673543890262
 31
0.0
  0
LINE
  5
2FA
330
77
100
AcDbEntity
  8
実線(中線)
100
AcDbLine
 10
191.1951323704519
 20
169.5673543890262
 30
0.0
 11
189.1951323704519
 21
169.5673543890262
 31
0.0
  0
LINE
  5
2FB
330
77
100
AcDbEntity
  8
実線(中線)
100
AcDbLine
 10
148.1951323704519
 20
160.5673543890262
 30
0.0
 11
148.1951323704519
 21
170.5673543890262
 31
0.0
  0
LINE
  5
2FC
330
77
100
AcDbEntity
  8
実線(中線)
100
AcDbLine
 10
189.1951323704519
 20
160.5673543890262
 30
0.0
 11
148.1951323704519
 21
160.5673543890262
 31
0.0
  0
LINE
  5
2FD
330
77
100
AcDbEntity
  8
実線(中線)
100
AcDbLine
 10
189.1951323704519
 20
170.5673543890262
 30
0.0
 11
148.1951323704519
 21
170.5673543890262
 31
0.0
  0
SPLINE
  5
2FE
330
77
100
AcDbEntity
  8
実線(中線)
100
AcDbSpline
210
0.0
220
0.0
230
1.0
 70
    28
 71
     2
 72
     6
 73
     3
 74
     0
 42
0.0000000001
 43
0.0000000001
 40
0.0
 40
0.0
 40
0.0
 40
0.1392743633508593
 40
0.1392743633508593
 40
0.1392743633508593
 10
234.695132370453
 20
172.0673543890262
 30
0.0
 41
1.0
 10
234.4725563468005
 20
172.0673543890262
 30
0.0
 41
1.010758758896776
 10
234.1951323704533
 20
172.0673543890262
 30
0.0
 41
1.018018140093497
  0
LINE
  5
2FF
330
77
100
AcDbEntity
  8
実線(中線)
100
AcDbLine
 10
234.1951323704533
 20
159.0673543890262
 30
0.0
 11
234.1951323704533
 21
172.0673543890262
 31
0.0
  0
SPLINE
  5
300
330
77
100
AcDbEntity
  8
実線(中線)
100
AcDbSpline
210
0.0
220
0.0
230
1.0
 70
    28
 71
     2
 72
     6
 73
     3
 74
     0
 42
0.0000000001
 43
0.0000000001
 40
0.7171175007053474
 40
0.7171175007053474
 40
0.7171175007053474
 40
0.856391864056207
 40
0.856391864056207
 40
0.856391864056207
 10
234.1951323704533
 20
159.0673543890262
 30
0.0
 41
1.018018140093497
 10
234.4725563468005
 20
159.0673543890262
 30
0.0
 41
1.010758758896776
 10
234.695132370453
 20
159.0673543890262
 30
0.0
 41
1.0
  0
SPLINE
  5
301
330
77
100
AcDbEntity
  8
実線(中線)
100
AcDbSpline
210
0.0
220
0.0
230
1.0
 70
    28
 71
     2
 72
     6
 73
     3
 74
     0
 42
0.0000000001
 43
0.0000000001
 40
0.0
 40
0.0
 40
0.0
 40
0.1392743633508574
 40
0.1392743633508574
 40
0.1392743633508574
 10
229.6951323704531
 20
159.0673543890262
 30
0.0
 41
1.0
 10
229.9177083941058
 20
159.0673543890262
 30
0.0
 41
1.010758758896776
 10
230.1951323704533
 20
159.0673543890262
 30
0.0
 41
1.018018140093497
  0
LINE
  5
302
330
77
100
AcDbEntity
  8
実線(中線)
100
AcDbLine
 10
230.1951323704533
 20
172.0673543890262
 30
0.0
 11
230.1951323704533
 21
159.0673543890262
 31
0.0
  0
SPLINE
  5
303
330
77
100
AcDbEntity
  8
実線(中線)
100
AcDbSpline
210
0.0
220
0.0
230
1.0
 70
    28
 71
     2
 72
     6
 73
     3
 74
     0
 42
0.0000000001
 43
0.0000000001
 40
0.7171175007053501
 40
0.7171175007053501
 40
0.7171175007053501
 40
0.8563918640562071
 40
0.8563918640562071
 40
0.8563918640562071
 10
230.1951323704533
 20
172.0673543890262
 30
0.0
 41
1.018018140093497
 10
229.9177083941058
 20
172.0673543890262
 30
0.0
 41
1.010758758896776
 10
229.6951323704531
 20
172.0673543890262
 30
0.0
 41
1.0
  0
LINE
  5
304
330
77
100
AcDbEntity
  8
実線(中線)
100
AcDbLine
 10
230.1951323704533
 20
159.0673543890262
 30
0.0
 11
234.1951323704533
 21
159.0673543890262
 31
0.0
  0
LINE
  5
305
330
77
100
AcDbEntity
  8
実線(中線)
100
AcDbLine
 10
234.1951323704533
 20
172.0673543890262
 30
0.0
 11
230.1951323704533
 21
172.0673543890262
 31
0.0
  0
SPLINE
  5
306
330
77
100
AcDbEntity
  8
実線(中線)
100
AcDbSpline
210
0.0
220
0.0
230
1.0
 70
    28
 71
     2
 72
     6
 73
     3
 74
     0
 42
0.0000000001
 43
0.0000000001
 40
1.08573652590871
 40
1.08573652590871
 40
1.08573652590871
 40
1.471344932474449
 40
1.471344932474449
 40
1.471344932474449
 10
343.4351736690791
 20
180.5673543890262
 30
0.0
 41
1.024275806615337
 10
341.9044177745821
 20
180.5673543890262
 30
0.0
 41
1.016448781169682
 10
340.4664349645993
 20
180.5673543890262
 30
0.0
 41
1.0
  0
ARC
  5
307
330
77
100
AcDbEntity
  8
実線(中線)
100
AcDbCircle
 10
336.5613101266459
 20
165.5673543890262
 30
0.0
 40
15.5
100
AcDbArc
 50
302.1799850181376
 51
75.40744939796652
  0
SPLINE
  5
308
330
77
100
AcDbEntity
  8
実線(中線)
100
AcDbSpline
210
0.0
220
0.0
230
1.0
 70
    28
 71
     2
 72
     6
 73
     3
 74
     0
 42
0.0000000001
 43
0.0000000001
 40
0.3187780099463495
 40
0.3187780099463495
 40
0.3187780099463495
 40
0.3856084065657387
 40
0.3856084065657387
 40
0.3856084065657387
 10
342.9113101266455
 20
150.5673543890262
 30
0.0
 41
1.021303807744974
 10
343.1715541183683
 20
150.5673543890262
 30
0.0
 41
1.022919292581989
 10
343.4351736690791
 20
150.5673543890262
 30
0.0
 41
1.024275806615337
  0
ARC
  5
309
330
77
100
AcDbEntity
  8
実線(中線)
100
AcDbCircle
 10
336.5613101266469
 20
165.5673543890232
 30
0.0
 40
16.49999999999662
100
AcDbArc
 50
294.6199773286567
 51
298.5035101170807
  0
ARC
  5
30A
330
77
100
AcDbEntity
  8
実線(中線)
100
AcDbCircle
 10
336.5613101266454
 20
165.5673543890262
 30
0.0
 40
16.5
100
AcDbArc
 50
300.0200503493715
 51
65.38002267134306
  0
SPLINE
  5
30B
330
77
100
AcDbEntity
  8
実線(中線)
100
AcDbSpline
210
0.0
220
0.0
230
1.0
 70
    28
 71
     2
 72
     6
 73
     3
 74
     0
 42
0.0000000001
 43
0.0000000001
 40
0.0
 40
0.0
 40
0.0
 40
0.3856084065657387
 40
0.3856084065657387
 40
0.3856084065657387
 10
332.6561852886926
 20
180.5673543890262
 30
0.0
 41
1.0
 10
331.2182024787095
 20
180.5673543890262
 30
0.0
 41
1.016448781169682
 10
329.6874465842116
 20
180.5673543890262
 30
0.0
 41
1.024275806615337
  0
ARC
  5
30C
330
77
100
AcDbEntity
  8
実線(中線)
100
AcDbCircle
 10
336.5613101266454
 20
165.5673543890262
 30
0.0
 40
16.5
100
AcDbArc
 50
114.6199773286572
 51
239.9799496506285
  0
ARC
  5
30D
330
77
100
AcDbEntity
  8
実線(中線)
100
AcDbCircle
 10
336.5613101266461
 20
165.5673543890278
 30
0.0
 40
16.50000000000173
100
AcDbArc
 50
241.49648988292
 51
245.3800226713428
  0
SPLINE
  5
30E
330
77
100
AcDbEntity
  8
実線(中線)
100
AcDbSpline
210
0.0
220
0.0
230
1.0
 70
    28
 71
     2
 72
     6
 73
     3
 74
     0
 42
0.0000000001
 43
0.0000000001
 40
1.08573652590871
 40
1.08573652590871
 40
1.08573652590871
 40
1.152566922528096
 40
1.152566922528096
 40
1.152566922528096
 10
329.6874465842116
 20
150.5673543890262
 30
0.0
 41
1.024275806615337
 10
329.9510661349225
 20
150.5673543890262
 30
0.0
 41
1.02291929258199
 10
330.2113101266455
 20
150.5673543890262
 30
0.0
 41
1.021303807744974
  0
ARC
  5
30F
330
77
100
AcDbEntity
  8
実線(中線)
100
AcDbCircle
 10
336.5613101266459
 20
165.5673543890262
 30
0.0
 40
15.5
100
AcDbArc
 50
104.5925506020332
 51
237.8200149818621
  0
LINE
  5
310
330
77
100
AcDbEntity
  8
実線(中線)
100
AcDbLine
 10
340.4664349645993
 20
180.5673543890262
 30
0.0
 11
332.6561852886926
 21
180.5673543890262
 31
0.0
  0
ARC
  5
311
330
77
100
AcDbEntity
  8
実線(中線)
100
AcDbCircle
 10
336.5613101266418
 20
165.5673543890262
 30
0.0
 40
16.5
100
AcDbArc
 50
65.38002267134283
 51
114.6199773286572
  0
ARC
  5
312
330
77
100
AcDbEntity
  8
実線(中線)
100
AcDbCircle
 10
336.5613101266433
 20
165.5673543890229
 30
0.0
 40
16.49999999999639
100
AcDbArc
 50
292.6343343406507
 51
294.6199773286573
  0
ARC
  5
313
330
77
100
AcDbEntity
  8
実線(中線)
100
AcDbCircle
 10
336.5613101266382
 20
165.5673543890177
 30
0.0
 40
16.49999999999073
100
AcDbArc
 50
245.3800226713425
 51
247.3656656593496
  0
LINE
  5
314
330
77
100
AcDbEntity
  8
実線(中線)
100
AcDbLine
 10
328.3063101266618
 20
162.2508999857553
 30
0.0
 11
344.8163101266618
 21
162.2508999857553
 31
0.0
  0
LINE
  5
315
330
77
100
AcDbEntity
  8
実線(中線)
100
AcDbLine
 10
344.8163101266618
 20
162.2508999857553
 30
0.0
 11
343.8163101266618
 21
163.6651135481284
 31
0.0
  0
LINE
  5
316
330
77
100
AcDbEntity
  8
実線(中線)
100
AcDbLine
 10
343.8163101266618
 20
163.6651135481284
 30
0.0
 11
329.3063101266617
 21
163.6651135481284
 31
0.0
  0
LINE
  5
317
330
77
100
AcDbEntity
  8
実線(中線)
100
AcDbLine
 10
329.3063101266617
 20
163.6651135481284
 30
0.0
 11
328.3063101266618
 21
162.2508999857553
 31
0.0
  0
LINE
  5
318
330
77
100
AcDbEntity
  8
実線(中線)
100
AcDbLine
 10
329.3063101266617
 20
163.6651135481284
 30
0.0
 11
329.3063101266556
 21
173.9280999857553
 31
0.0
  0
LINE
  5
319
330
77
100
AcDbEntity
  8
実線(中線)
100
AcDbLine
 10
329.3063101266556
 20
173.9280999857553
 30
0.0
 11
328.3063101266548
 21
173.9280999857553
 31
0.0
  0
LINE
  5
31A
330
77
100
AcDbEntity
  8
実線(中線)
100
AcDbLine
 10
328.3063101266548
 20
173.9280999857553
 30
0.0
 11
328.3063101266618
 21
162.2508999857553
 31
0.0
  0
LINE
  5
31B
330
77
100
AcDbEntity
  8
実線(中線)
100
AcDbLine
 10
329.3063101266556
 20
173.9280999857553
 30
0.0
 11
343.8163101266557
 21
173.9280999857553
 31
0.0
  0
LINE
  5
31C
330
77
100
AcDbEntity
  8
実線(中線)
100
AcDbLine
 10
343.8163101266557
 20
173.9280999857553
 30
0.0
 11
344.8163101266548
 21
173.9280999857553
 31
0.0
  0
LINE
  5
31D
330
77
100
AcDbEntity
  8
実線(中線)
100
AcDbLine
 10
344.8163101266618
 20
162.2508999857553
 30
0.0
 11
344.8163101266548
 21
173.9280999857553
 31
0.0
  0
LINE
  5
31E
330
77
100
AcDbEntity
  8
実線(中線)
100
AcDbLine
 10
343.8163101266557
 20
173.9280999857553
 30
0.0
 11
343.8163101266618
 21
163.6651135481284
 31
0.0
  0
LINE
  5
31F
330
77
100
AcDbEntity
  8
実線(中線)
100
AcDbLine
 10
344.8163101266608
 20
160.6273543890262
 30
0.0
 11
344.8163101266618
 21
162.2508999857553
 31
0.0
  0
LINE
  5
320
330
77
100
AcDbEntity
  8
実線(中線)
100
AcDbLine
 10
344.8163101266608
 20
151.0673543890263
 30
0.0
 11
344.8163101266608
 21
160.6273543890262
 31
0.0
  0
LINE
  5
321
330
77
100
AcDbEntity
  8
実線(中線)
100
AcDbLine
 10
328.3063101266607
 20
160.6273543890262
 30
0.0
 11
328.3063101266618
 21
162.2508999857553
 31
0.0
  0
LINE
  5
322
330
77
100
AcDbEntity
  8
実線(中線)
100
AcDbLine
 10
328.3063101266607
 20
160.6273543890262
 30
0.0
 11
344.8163101266608
 21
160.6273543890262
 31
0.0
  0
LINE
  5
323
330
77
100
AcDbEntity
  8
実線(中線)
100
AcDbLine
 10
328.3063101266607
 20
151.0673543890263
 30
0.0
 11
328.3063101266607
 21
160.6273543890262
 31
0.0
  0
LINE
  5
324
330
77
100
AcDbEntity
  8
実線(中線)
100
AcDbLine
 10
328.3063101266607
 20
151.0673543890263
 30
0.0
 11
344.8163101266608
 21
151.0673543890263
 31
0.0
  0
LINE
  5
325
330
77
100
AcDbEntity
  8
実線(中線)
100
AcDbLine
 10
339.7363101266568
 20
135.1573543890262
 30
0.0
 11
333.3863101266567
 21
135.1573543890262
 31
0.0
  0
LINE
  5
326
330
77
100
AcDbEntity
  8
実線(中線)
100
AcDbLine
 10
339.7363101266568
 20
128.8843543890263
 30
0.0
 11
333.3863101266567
 21
128.8843543890263
 31
0.0
  0
LINE
  5
327
330
77
100
AcDbEntity
  8
実線(中線)
100
AcDbLine
 10
339.7363101266568
 20
135.1573543890262
 30
0.0
 11
339.7363101266568
 21
128.8843543890263
 31
0.0
  0
LINE
  5
328
330
77
100
AcDbEntity
  8
実線(中線)
100
AcDbLine
 10
333.3863101266567
 20
135.1573543890262
 30
0.0
 11
333.3863101266567
 21
128.8843543890263
 31
0.0
  0
LINE
  5
329
330
77
100
AcDbEntity
  8
実線(中線)
100
AcDbLine
 10
339.7363101266568
 20
136.6573543890262
 30
0.0
 11
333.3863101266567
 21
136.6573543890262
 31
0.0
  0
LINE
  5
32A
330
77
100
AcDbEntity
  8
実線(中線)
100
AcDbLine
 10
339.7363101266568
 20
139.4573543890263
 30
0.0
 11
339.7363101266568
 21
136.6573543890262
 31
0.0
  0
LINE
  5
32B
330
77
100
AcDbEntity
  8
実線(中線)
100
AcDbLine
 10
333.3863101266567
 20
139.4573543890263
 30
0.0
 11
333.3863101266567
 21
136.6573543890262
 31
0.0
  0
LINE
  5
32C
330
77
100
AcDbEntity
  8
実線(中線)
100
AcDbLine
 10
341.3263101266568
 20
139.4573543890263
 30
0.0
 11
331.7963101266567
 21
139.4573543890263
 31
0.0
  0
LINE
  5
32D
330
77
100
AcDbEntity
  8
実線(中線)
100
AcDbLine
 10
341.3263101266568
 20
147.2573543890263
 30
0.0
 11
341.3263101266568
 21
139.4573543890263
 31
0.0
  0
LINE
  5
32E
330
77
100
AcDbEntity
  8
実線(中線)
100
AcDbLine
 10
331.7963101266567
 20
147.2573543890263
 30
0.0
 11
331.7963101266567
 21
139.4573543890263
 31
0.0
  0
LINE
  5
32F
330
77
100
AcDbEntity
  8
実線(中線)
100
AcDbLine
 10
342.9113101266568
 20
147.2573543890263
 30
0.0
 11
330.2113101266568
 21
147.2573543890263
 31
0.0
  0
LINE
  5
330
330
77
100
AcDbEntity
  8
実線(中線)
100
AcDbLine
 10
342.9113101266568
 20
151.0673543890263
 30
0.0
 11
342.9113101266568
 21
147.2573543890263
 31
0.0
  0
LINE
  5
331
330
77
100
AcDbEntity
  8
実線(中線)
100
AcDbLine
 10
330.2113101266568
 20
151.0673543890263
 30
0.0
 11
330.2113101266568
 21
147.2573543890263
 31
0.0
  0
LINE
  5
332
330
77
100
AcDbEntity
  8
実線(中線)
100
AcDbLine
 10
339.1613101266568
 20
136.6573543890262
 30
0.0
 11
339.1613101266568
 21
135.1573543890262
 31
0.0
  0
LINE
  5
333
330
77
100
AcDbEntity
  8
実線(中線)
100
AcDbLine
 10
333.9613101266568
 20
136.6573543890262
 30
0.0
 11
333.9613101266568
 21
135.1573543890262
 31
0.0
  0
SPLINE
  5
334
330
77
100
AcDbEntity
  8
実線(中線)
100
AcDbSpline
210
0.0
220
0.0
230
1.0
 70
    12
 71
     2
 72
     6
 73
     3
 74
     0
 42
0.0000000001
 43
0.0000000001
 40
1.08573652590871
 40
1.08573652590871
 40
1.08573652590871
 40
1.471344932474449
 40
1.471344932474449
 40
1.471344932474449
 10
228.6951323704499
 20
239.2828078012165
 30
0.0
 41
1.024275806615337
 10
229.3328418938171
 20
237.7520519067192
 30
0.0
 41
1.016448781169682
 10
229.6951323704508
 20
236.3140690967364
 30
0.0
 41
1.0
  0
LINE
  5
335
330
77
100
AcDbEntity
  8
実線(中線)
100
AcDbLine
 10
229.6951323704473
 20
247.9089442587786
 30
0.0
 11
229.6951323704508
 21
236.3140690967364
 31
0.0
  0
LINE
  5
336
330
77
100
AcDbEntity
  8
実線(中線)
100
AcDbLine
 10
228.6951323704499
 20
239.2828078012165
 30
0.0
 11
228.695132370447
 21
248.9089442587783
 31
0.0
  0
SPLINE
  5
337
330
77
100
AcDbEntity
  8
実線(中線)
100
AcDbSpline
210
0.0
220
0.0
230
1.0
 70
    12
 71
     2
 72
     6
 73
     3
 74
     0
 42
0.0000000001
 43
0.0000000001
 40
0.0
 40
0.0
 40
0.0
 40
0.3856084065657387
 40
0.3856084065657387
 40
0.3856084065657387
 10
229.6951323704531
 20
228.5038194208297
 30
0.0
 41
1.0
 10
229.3328418938203
 20
227.0658366108467
 30
0.0
 41
1.016448781169682
 10
228.695132370454
 20
225.535080716349
 30
0.0
 41
1.024275806615337
  0
LINE
  5
338
330
77
100
AcDbEntity
  8
実線(中線)
100
AcDbLine
 10
228.6951323704568
 20
215.9089442587784
 30
0.0
 11
228.6951323704539
 21
225.535080716349
 31
0.0
  0
LINE
  5
339
330
77
100
AcDbEntity
  8
実線(中線)
100
AcDbLine
 10
229.6951323704531
 20
228.5038194208297
 30
0.0
 11
229.6951323704565
 21
216.9089442587786
 31
0.0
  0
LINE
  5
33A
330
77
100
AcDbEntity
  8
実線(中線)
100
AcDbLine
 10
229.6951323704473
 20
247.9089442587786
 30
0.0
 11
228.695132370447
 21
248.9089442587783
 31
0.0
  0
LINE
  5
33B
330
77
100
AcDbEntity
  8
実線(中線)
100
AcDbLine
 10
229.6951323704565
 20
216.9089442587786
 30
0.0
 11
228.6951323704568
 21
215.9089442587783
 31
0.0
  0
LINE
  5
33C
330
77
100
AcDbEntity
  8
実線(中線)
100
AcDbLine
 10
222.6951323704499
 20
239.2828078012148
 30
0.0
 11
228.6951323704499
 21
239.2828078012165
 31
0.0
  0
LINE
  5
33D
330
77
100
AcDbEntity
  8
実線(中線)
100
AcDbLine
 10
228.695132370454
 20
225.535080716349
 30
0.0
 11
222.695132370454
 21
225.5350807163472
 31
0.0
  0
LINE
  5
33E
330
77
100
AcDbEntity
  8
実線(中線)
100
AcDbLine
 10
229.6951323704508
 20
236.3140690967364
 30
0.0
 11
229.6951323704531
 21
228.5038194208297
 31
0.0
  0
LINE
  5
33F
330
77
100
AcDbEntity
  8
実線(中線)
100
AcDbLine
 10
222.6951323704499
 20
239.2828078012148
 30
0.0
 11
222.695132370454
 21
225.5350807163472
 31
0.0
  0
SPLINE
  5
340
330
77
100
AcDbEntity
  8
実線(中線)
100
AcDbSpline
210
0.0
220
0.0
230
1.0
 70
     8
 71
     3
 72
    22
 73
    18
 74
     0
 42
0.0000000001
 43
0.0000000001
 40
0.1507142981654379
 40
0.1507142981654379
 40
0.1507142981654379
 40
0.1507142981654379
 40
0.1883928641065431
 40
0.1883928641065431
 40
0.2260714300476484
 40
0.2260714300476484
 40
0.2637500131892621
 40
0.2637500131892621
 40
0.3014285963308758
 40
0.3014285963308758
 40
0.3391071794724895
 40
0.3391071794724895
 40
0.3767857626141031
 40
0.3767857626141031
 40
0.4144643285552085
 40
0.4144643285552085
 40
0.4521428944963139
 40
0.4521428944963139
 40
0.4521428944963139
 40
0.4521428944963139
 10
220.695132370447
 20
248.9089442587759
 30
0.0
 10
220.695132370447
 20
248.908944258776
 30
0.0
 10
220.6700258382071
 20
248.9073630076973
 30
0.0
 10
220.5679625821274
 20
248.9016467820329
 30
0.0
 10
220.491007560793
 20
248.8975934450027
 30
0.0
 10
220.3134707019507
 20
248.8899781144803
 30
0.0
 10
220.20104363178
 20
248.8859215246
 30
0.0
 10
219.9546734108172
 20
248.880197859361
 30
0.0
 10
219.8207276475857
 20
248.8786133507766
 30
0.0
 10
219.5695370933083
 20
248.8786133507765
 30
0.0
 10
219.4355913300769
 20
248.8801978593608
 30
0.0
 10
219.1892211091141
 20
248.8859215245998
 30
0.0
 10
219.0767940389433
 20
248.8899781144799
 30
0.0
 10
218.8992571801009
 20
248.8975934450022
 30
0.0
 10
218.8223021587667
 20
248.9016467820324
 30
0.0
 10
218.7202389026869
 20
248.9073630076967
 30
0.0
 10
218.695132370447
 20
248.9089442587754
 30
0.0
 10
218.695132370447
 20
248.9089442587754
 30
0.0
  0
LINE
  5
341
330
77
100
AcDbEntity
  8
実線(中線)
100
AcDbLine
 10
216.6951323704568
 20
215.9089442587748
 30
0.0
 11
216.695132370447
 21
248.9089442587747
 31
0.0
  0
LINE
  5
342
330
77
100
AcDbEntity
  8
実線(中線)
100
AcDbLine
 10
228.6951323704568
 20
215.9089442587783
 30
0.0
 11
216.6951323704568
 21
215.9089442587748
 31
0.0
  0
LINE
  5
343
330
77
100
AcDbEntity
  8
実線(中線)
100
AcDbLine
 10
228.695132370447
 20
248.9089442587783
 30
0.0
 11
220.695132370447
 21
248.9089442587759
 31
0.0
  0
LINE
  5
344
330
77
100
AcDbEntity
  8
実線(中線)
100
AcDbLine
 10
218.695132370447
 20
248.9089442587754
 30
0.0
 11
216.695132370447
 21
248.9089442587748
 31
0.0
  0
LINE
  5
345
330
77
100
AcDbEntity
  8
実線(中線)
100
AcDbLine
 10
199.1951323704539
 20
225.5350807163402
 30
0.0
 11
199.1951323704568
 21
215.9089442587696
 31
0.0
  0
SPLINE
  5
346
330
77
100
AcDbEntity
  8
実線(中線)
100
AcDbSpline
210
0.0
220
0.0
230
1.0
 70
    12
 71
     2
 72
     6
 73
     3
 74
     0
 42
0.0000000001
 43
0.0000000001
 40
0.5946444723613679
 40
0.5946444723613679
 40
0.5946444723613679
 40
0.9473888356025547
 40
0.9473888356025547
 40
0.9473888356025547
 10
199.1951323704539
 20
225.5350807163402
 30
0.0
 41
1.014620396451498
 10
198.5574228470869
 20
227.0658366108373
 30
0.0
 41
1.011646623330432
 10
198.195132370453
 20
228.5038194208204
 30
0.0
 41
1.0
  0
LINE
  5
347
330
77
100
AcDbEntity
  8
実線(中線)
100
AcDbLine
 10
198.1951323704565
 20
216.9089442587692
 30
0.0
 11
198.1951323704531
 21
228.5038194208204
 31
0.0
  0
LINE
  5
348
330
77
100
AcDbEntity
  8
実線(中線)
100
AcDbLine
 10
198.1951323704507
 20
236.314069096727
 30
0.0
 11
198.1951323704473
 21
247.9089442587692
 31
0.0
  0
SPLINE
  5
349
330
77
100
AcDbEntity
  8
実線(中線)
100
AcDbSpline
210
0.0
220
0.0
230
1.0
 70
    12
 71
     2
 72
     6
 73
     3
 74
     0
 42
0.0000000001
 43
0.0000000001
 40
0.0
 40
0.0
 40
0.0
 40
0.352744363241289
 40
0.352744363241289
 40
0.352744363241289
 10
198.1951323704507
 20
236.314069096727
 30
0.0
 41
1.0
 10
198.5574228470834
 20
237.7520519067099
 30
0.0
 41
1.011646623330454
 10
199.1951323704499
 20
239.2828078012077
 30
0.0
 41
1.014620396451524
  0
LINE
  5
34A
330
77
100
AcDbEntity
  8
実線(中線)
100
AcDbLine
 10
199.195132370447
 20
248.9089442587695
 30
0.0
 11
199.1951323704499
 21
239.2828078012077
 31
0.0
  0
LINE
  5
34B
330
77
100
AcDbEntity
  8
実線(中線)
100
AcDbLine
 10
198.1951323704565
 20
216.9089442587693
 30
0.0
 11
199.1951323704568
 21
215.9089442587696
 31
0.0
  0
LINE
  5
34C
330
77
100
AcDbEntity
  8
実線(中線)
100
AcDbLine
 10
198.1951323704473
 20
247.9089442587692
 30
0.0
 11
199.195132370447
 21
248.9089442587695
 31
0.0
  0
LINE
  5
34D
330
77
100
AcDbEntity
  8
実線(中線)
100
AcDbLine
 10
198.195132370453
 20
228.5038194208204
 30
0.0
 11
198.1951323704507
 21
236.314069096727
 31
0.0
  0
LINE
  5
34E
330
77
100
AcDbEntity
  8
実線(中線)
100
AcDbLine
 10
199.1951323704499
 20
239.2828078012077
 30
0.0
 11
202.1951323704499
 21
239.2828078012087
 31
0.0
  0
LINE
  5
34F
330
77
100
AcDbEntity
  8
実線(中線)
100
AcDbLine
 10
202.195132370454
 20
225.5350807163412
 30
0.0
 11
202.1951323704499
 21
239.2828078012087
 31
0.0
  0
LINE
  5
350
330
77
100
AcDbEntity
  8
実線(中線)
100
AcDbLine
 10
202.1951323704539
 20
225.5350807163411
 30
0.0
 11
199.1951323704539
 21
225.5350807163402
 31
0.0
  0
LINE
  5
351
330
77
100
AcDbEntity
  8
実線(中線)
100
AcDbLine
 10
216.6951323704568
 20
215.9089442587748
 30
0.0
 11
216.695132370447
 21
248.9089442587747
 31
0.0
  0
LINE
  5
352
330
77
100
AcDbEntity
  8
実線(中線)
100
AcDbLine
 10
216.6951323704568
 20
215.9089442587748
 30
0.0
 11
199.1951323704568
 21
215.9089442587696
 31
0.0
  0
LINE
  5
353
330
77
100
AcDbEntity
  8
実線(中線)
100
AcDbLine
 10
216.695132370447
 20
248.9089442587747
 30
0.0
 11
199.195132370447
 21
248.9089442587695
 31
0.0
  0
LINE
  5
354
330
77
100
AcDbEntity
  8
実線(中線)
100
AcDbLine
 10
256.2586779671785
 20
240.6639442587855
 30
0.0
 11
256.2586779671788
 21
239.6639442587859
 31
0.0
  0
LINE
  5
355
330
77
100
AcDbEntity
  8
実線(中線)
100
AcDbLine
 10
256.2586779671788
 20
239.6639442587859
 30
0.0
 11
256.2586779671832
 21
225.1539442587859
 31
0.0
  0
LINE
  5
356
330
77
100
AcDbEntity
  8
実線(中線)
100
AcDbLine
 10
256.2586779671832
 20
225.1539442587859
 30
0.0
 11
256.2586779671834
 21
224.1539442587855
 31
0.0
  0
LINE
  5
357
330
77
100
AcDbEntity
  8
実線(中線)
100
AcDbLine
 10
256.2586779671832
 20
225.1539442587859
 30
0.0
 11
245.9956915295562
 21
225.1539442587859
 31
0.0
  0
LINE
  5
358
330
77
100
AcDbEntity
  8
実線(中線)
100
AcDbLine
 10
245.9956915295562
 20
225.1539442587859
 30
0.0
 11
244.5814779671835
 21
224.1539442587856
 31
0.0
  0
LINE
  5
359
330
77
100
AcDbEntity
  8
実線(中線)
100
AcDbLine
 10
244.5814779671835
 20
224.1539442587856
 30
0.0
 11
256.2586779671834
 21
224.1539442587855
 31
0.0
  0
LINE
  5
35A
330
77
100
AcDbEntity
  8
実線(中線)
100
AcDbLine
 10
245.9956915295562
 20
225.1539442587859
 30
0.0
 11
245.9956915295519
 21
239.6639442587859
 31
0.0
  0
LINE
  5
35B
330
77
100
AcDbEntity
  8
実線(中線)
100
AcDbLine
 10
245.9956915295519
 20
239.6639442587859
 30
0.0
 11
244.5814779671785
 21
240.6639442587855
 31
0.0
  0
LINE
  5
35C
330
77
100
AcDbEntity
  8
実線(中線)
100
AcDbLine
 10
244.5814779671785
 20
240.6639442587855
 30
0.0
 11
244.5814779671835
 21
224.1539442587856
 31
0.0
  0
LINE
  5
35D
330
77
100
AcDbEntity
  8
実線(中線)
100
AcDbLine
 10
256.2586779671785
 20
240.6639442587855
 30
0.0
 11
244.5814779671785
 21
240.6639442587855
 31
0.0
  0
LINE
  5
35E
330
77
100
AcDbEntity
  8
実線(中線)
100
AcDbLine
 10
245.9956915295519
 20
239.6639442587859
 30
0.0
 11
256.2586779671788
 21
239.6639442587859
 31
0.0
  0
LINE
  5
35F
330
77
100
AcDbEntity
  8
実線(中線)
100
AcDbLine
 10
242.9551323704495
 20
240.6639442587846
 30
0.0
 11
234.6951323704494
 21
240.6639442587821
 31
0.0
  0
LINE
  5
360
330
77
100
AcDbEntity
  8
実線(中線)
100
AcDbLine
 10
244.5814779671785
 20
240.6639442587855
 30
0.0
 11
242.9551323704495
 21
240.6639442587846
 31
0.0
  0
LINE
  5
361
330
77
100
AcDbEntity
  8
実線(中線)
100
AcDbLine
 10
242.9551323704544
 20
224.1539442587845
 30
0.0
 11
242.9551323704495
 21
240.6639442587846
 31
0.0
  0
LINE
  5
362
330
77
100
AcDbEntity
  8
実線(中線)
100
AcDbLine
 10
244.5814779671835
 20
224.1539442587856
 30
0.0
 11
242.9551323704544
 21
224.1539442587845
 31
0.0
  0
LINE
  5
363
330
77
100
AcDbEntity
  8
実線(中線)
100
AcDbLine
 10
234.6951323704544
 20
224.1539442587821
 30
0.0
 11
234.6951323704494
 21
240.6639442587821
 31
0.0
  0
LINE
  5
364
330
77
100
AcDbEntity
  8
実線(中線)
100
AcDbLine
 10
242.9551323704544
 20
224.1539442587845
 30
0.0
 11
234.6951323704544
 21
224.1539442587821
 31
0.0
  0
SPLINE
  5
365
330
77
100
AcDbEntity
  8
実線(中線)
100
AcDbSpline
210
0.0
220
0.0
230
1.0
 70
    12
 71
     2
 72
     6
 73
     3
 74
     0
 42
0.0000000001
 43
0.0000000001
 40
0.0
 40
0.0
 40
0.0
 40
0.385608406565738
 40
0.385608406565738
 40
0.385608406565738
 10
198.1951323704531
 20
228.5038194208204
 30
0.0
 41
1.0
 10
197.8328418938203
 20
227.0658366108373
 30
0.0
 41
1.016448781169684
 10
197.1951323704539
 20
225.5350807163396
 30
0.0
 41
1.02427580661534
  0
LINE
  5
366
330
77
100
AcDbEntity
  8
実線(中線)
100
AcDbLine
 10
197.1951323704568
 20
215.908944258769
 30
0.0
 11
197.1951323704539
 21
225.5350807163397
 31
0.0
  0
LINE
  5
367
330
77
100
AcDbEntity
  8
実線(中線)
100
AcDbLine
 10
198.1951323704531
 20
228.5038194208204
 30
0.0
 11
198.1951323704565
 21
216.9089442587692
 31
0.0
  0
SPLINE
  5
368
330
77
100
AcDbEntity
  8
実線(中線)
100
AcDbSpline
210
0.0
220
0.0
230
1.0
 70
    12
 71
     2
 72
     6
 73
     3
 74
     0
 42
0.0000000001
 43
0.0000000001
 40
1.085736525908713
 40
1.085736525908713
 40
1.085736525908713
 40
1.471344932474451
 40
1.471344932474451
 40
1.471344932474451
 10
197.1951323704499
 20
239.2828078012072
 30
0.0
 41
1.024275806615339
 10
197.8328418938171
 20
237.7520519067099
 30
0.0
 41
1.016448781169683
 10
198.1951323704507
 20
236.314069096727
 30
0.0
 41
1.0
  0
SPLINE
  5
369
330
77
100
AcDbEntity
  8
実線(中線)
100
AcDbSpline
210
0.0
220
0.0
230
1.0
 70
    12
 71
     2
 72
     6
 73
     3
 74
     0
 42
0.0000000001
 43
0.0000000001
 40
0.0
 40
0.0
 40
0.0
 40
0.385608406565739
 40
0.385608406565739
 40
0.385608406565739
 10
191.1951323704507
 20
236.314069096725
 30
0.0
 41
1.0
 10
191.5574228470836
 20
237.752051906708
 30
0.0
 41
1.01644878116968
 10
192.1951323704499
 20
239.2828078012057
 30
0.0
 41
1.024275806615335
  0
SPLINE
  5
36A
330
77
100
AcDbEntity
  8
実線(中線)
100
AcDbSpline
210
0.0
220
0.0
230
1.0
 70
    12
 71
     2
 72
     6
 73
     3
 74
     0
 42
0.0000000001
 43
0.0000000001
 40
1.085736525908709
 40
1.085736525908709
 40
1.085736525908709
 40
1.471344932474448
 40
1.471344932474448
 40
1.471344932474448
 10
192.1951323704539
 20
225.5350807163381
 30
0.0
 41
1.024275806615335
 10
191.5574228470867
 20
227.0658366108354
 30
0.0
 41
1.01644878116968
 10
191.1951323704531
 20
228.5038194208183
 30
0.0
 41
1.0
  0
LINE
  5
36B
330
77
100
AcDbEntity
  8
実線(中線)
100
AcDbLine
 10
198.1951323704473
 20
247.9089442587692
 30
0.0
 11
198.1951323704507
 21
236.314069096727
 31
0.0
  0
LINE
  5
36C
330
77
100
AcDbEntity
  8
実線(中線)
100
AcDbLine
 10
197.1951323704499
 20
239.2828078012072
 30
0.0
 11
197.195132370447
 21
248.9089442587689
 31
0.0
  0
LINE
  5
36D
330
77
100
AcDbEntity
  8
実線(中線)
100
AcDbLine
 10
192.1951323704539
 20
225.5350807163381
 30
0.0
 11
192.1951323704568
 21
215.9089442587675
 31
0.0
  0
LINE
  5
36E
330
77
100
AcDbEntity
  8
実線(中線)
100
AcDbLine
 10
191.1951323704565
 20
216.9089442587672
 30
0.0
 11
191.1951323704531
 21
228.5038194208183
 31
0.0
  0
LINE
  5
36F
330
77
100
AcDbEntity
  8
実線(中線)
100
AcDbLine
 10
191.1951323704507
 20
236.314069096725
 30
0.0
 11
191.1951323704473
 21
247.9089442587672
 31
0.0
  0
LINE
  5
370
330
77
100
AcDbEntity
  8
実線(中線)
100
AcDbLine
 10
192.195132370447
 20
248.9089442587675
 30
0.0
 11
192.1951323704499
 21
239.2828078012056
 31
0.0
  0
LINE
  5
371
330
77
100
AcDbEntity
  8
実線(中線)
100
AcDbLine
 10
198.1951323704565
 20
216.9089442587693
 30
0.0
 11
197.1951323704568
 21
215.908944258769
 31
0.0
  0
LINE
  5
372
330
77
100
AcDbEntity
  8
実線(中線)
100
AcDbLine
 10
198.1951323704473
 20
247.9089442587692
 30
0.0
 11
197.195132370447
 21
248.9089442587689
 31
0.0
  0
LINE
  5
373
330
77
100
AcDbEntity
  8
実線(中線)
100
AcDbLine
 10
191.1951323704565
 20
216.9089442587672
 30
0.0
 11
192.1951323704568
 21
215.9089442587675
 31
0.0
  0
LINE
  5
374
330
77
100
AcDbEntity
  8
実線(中線)
100
AcDbLine
 10
191.1951323704473
 20
247.9089442587672
 30
0.0
 11
192.195132370447
 21
248.9089442587675
 31
0.0
  0
LINE
  5
375
330
77
100
AcDbEntity
  8
実線(中線)
100
AcDbLine
 10
198.1951323704507
 20
236.314069096727
 30
0.0
 11
198.1951323704531
 21
228.5038194208204
 31
0.0
  0
LINE
  5
376
330
77
100
AcDbEntity
  8
実線(中線)
100
AcDbLine
 10
192.1951323704499
 20
239.2828078012057
 30
0.0
 11
197.1951323704499
 21
239.2828078012072
 31
0.0
  0
LINE
  5
377
330
77
100
AcDbEntity
  8
実線(中線)
100
AcDbLine
 10
191.1951323704531
 20
228.5038194208183
 30
0.0
 11
191.1951323704507
 21
236.314069096725
 31
0.0
  0
LINE
  5
378
330
77
100
AcDbEntity
  8
実線(中線)
100
AcDbLine
 10
197.1951323704539
 20
225.5350807163396
 30
0.0
 11
192.1951323704539
 21
225.5350807163381
 31
0.0
  0
LINE
  5
379
330
77
100
AcDbEntity
  8
実線(中線)
100
AcDbLine
 10
189.1951323704504
 20
237.4089442587666
 30
0.0
 11
189.1951323704534
 21
227.4089442587666
 31
0.0
  0
LINE
  5
37A
330
77
100
AcDbEntity
  8
実線(中線)
100
AcDbLine
 10
191.1951323704531
 20
228.4089442587672
 30
0.0
 11
189.1951323704531
 21
228.4089442587666
 31
0.0
  0
LINE
  5
37B
330
77
100
AcDbEntity
  8
実線(中線)
100
AcDbLine
 10
191.1951323704507
 20
236.4089442587672
 30
0.0
 11
189.1951323704507
 21
236.4089442587666
 31
0.0
  0
LINE
  5
37C
330
77
100
AcDbEntity
  8
実線(中線)
100
AcDbLine
 10
148.1951323704534
 20
227.4089442587544
 30
0.0
 11
148.1951323704504
 21
237.4089442587544
 31
0.0
  0
LINE
  5
37D
330
77
100
AcDbEntity
  8
実線(中線)
100
AcDbLine
 10
189.1951323704534
 20
227.4089442587666
 30
0.0
 11
148.1951323704534
 21
227.4089442587544
 31
0.0
  0
LINE
  5
37E
330
77
100
AcDbEntity
  8
実線(中線)
100
AcDbLine
 10
189.1951323704504
 20
237.4089442587666
 30
0.0
 11
148.1951323704504
 21
237.4089442587544
 31
0.0
  0
LINE
  5
37F
330
77
100
AcDbEntity
  8
実線(中線)
100
AcDbLine
 10
197.195132370447
 20
248.9089442587689
 30
0.0
 11
192.195132370447
 21
248.9089442587675
 31
0.0
  0
LINE
  5
380
330
77
100
AcDbEntity
  8
実線(中線)
100
AcDbLine
 10
197.1951323704568
 20
215.908944258769
 30
0.0
 11
192.1951323704568
 21
215.9089442587675
 31
0.0
  0
SPLINE
  5
381
330
77
100
AcDbEntity
  8
実線(中線)
100
AcDbSpline
210
0.0
220
0.0
230
1.0
 70
    12
 71
     2
 72
     6
 73
     3
 74
     0
 42
0.0000000001
 43
0.0000000001
 40
0.0
 40
0.0
 40
0.0
 40
0.1392743633508593
 40
0.1392743633508593
 40
0.1392743633508593
 10
234.695132370453
 20
228.6672868720081
 30
0.0
 41
1.0
 10
234.4725563468005
 20
228.221142288248
 30
0.0
 41
1.010758758896776
 10
234.1951323704533
 20
227.7452547322375
 30
0.0
 41
1.018018140093497
  0
LINE
  5
382
330
77
100
AcDbEntity
  8
実線(中線)
100
AcDbLine
 10
234.1951323704543
 20
224.4089442587799
 30
0.0
 11
234.1951323704533
 21
227.7452547322375
 31
0.0
  0
LINE
  5
383
330
77
100
AcDbEntity
  8
実線(中線)
100
AcDbLine
 10
234.1951323704505
 20
237.0726337853263
 30
0.0
 11
234.1951323704495
 21
240.40894425878
 31
0.0
  0
SPLINE
  5
384
330
77
100
AcDbEntity
  8
実線(中線)
100
AcDbSpline
210
0.0
220
0.0
230
1.0
 70
    12
 71
     2
 72
     6
 73
     3
 74
     0
 42
0.0000000001
 43
0.0000000001
 40
0.7171175007053466
 40
0.7171175007053466
 40
0.7171175007053466
 40
0.8563918640562068
 40
0.8563918640562068
 40
0.8563918640562068
 10
234.1951323704505
 20
237.0726337853263
 30
0.0
 41
1.018018140093493
 10
234.472556346798
 20
236.5967462293159
 30
0.0
 41
1.010758758896774
 10
234.6951323704508
 20
236.1506016455559
 30
0.0
 41
1.0
  0
LINE
  5
385
330
77
100
AcDbEntity
  8
実線(中線)
100
AcDbLine
 10
230.1951323704495
 20
240.4089442587788
 30
0.0
 11
230.1951323704506
 21
237.0726337853251
 31
0.0
  0
LINE
  5
386
330
77
100
AcDbEntity
  8
実線(中線)
100
AcDbLine
 10
230.1951323704533
 20
227.7452547322363
 30
0.0
 11
230.1951323704543
 21
224.4089442587787
 31
0.0
  0
SPLINE
  5
387
330
77
100
AcDbEntity
  8
実線(中線)
100
AcDbSpline
210
0.0
220
0.0
230
1.0
 70
    12
 71
     2
 72
     6
 73
     3
 74
     0
 42
0.0000000001
 43
0.0000000001
 40
0.7171175007053501
 40
0.7171175007053501
 40
0.7171175007053501
 40
0.8563918640562071
 40
0.8563918640562071
 40
0.8563918640562071
 10
230.1951323704533
 20
227.7452547322363
 30
0.0
 41
1.018018140093497
 10
229.9177083941058
 20
228.2211422882466
 30
0.0
 41
1.010758758896776
 10
229.6951323704531
 20
228.6672868720066
 30
0.0
 41
1.0
  0
SPLINE
  5
388
330
77
100
AcDbEntity
  8
実線(中線)
100
AcDbSpline
210
0.0
220
0.0
230
1.0
 70
    12
 71
     2
 72
     6
 73
     3
 74
     0
 42
0.0000000001
 43
0.0000000001
 40
0.0
 40
0.0
 40
0.0
 40
0.1392743633508574
 40
0.1392743633508574
 40
0.1392743633508574
 10
229.6951323704508
 20
236.1506016455545
 30
0.0
 41
1.0
 10
229.9177083941033
 20
236.5967462293145
 30
0.0
 41
1.010758758896777
 10
230.1951323704506
 20
237.0726337853251
 30
0.0
 41
1.018018140093498
  0
LINE
  5
389
330
77
100
AcDbEntity
  8
実線(中線)
100
AcDbLine
 10
234.6951323704542
 20
224.9089442587801
 30
0.0
 11
234.1951323704543
 21
224.4089442587799
 31
0.0
  0
LINE
  5
38A
330
77
100
AcDbEntity
  8
実線(中線)
100
AcDbLine
 10
234.6951323704497
 20
239.9089442587801
 30
0.0
 11
234.1951323704495
 21
240.40894425878
 31
0.0
  0
LINE
  5
38B
330
77
100
AcDbEntity
  8
実線(中線)
100
AcDbLine
 10
229.6951323704542
 20
224.9089442587786
 30
0.0
 11
230.1951323704543
 21
224.4089442587787
 31
0.0
  0
LINE
  5
38C
330
77
100
AcDbEntity
  8
実線(中線)
100
AcDbLine
 10
229.6951323704497
 20
239.9089442587786
 30
0.0
 11
230.1951323704495
 21
240.4089442587787
 31
0.0
  0
LINE
  5
38D
330
77
100
AcDbEntity
  8
実線(中線)
100
AcDbLine
 10
230.1951323704506
 20
237.0726337853251
 30
0.0
 11
234.1951323704505
 21
237.0726337853263
 31
0.0
  0
LINE
  5
38E
330
77
100
AcDbEntity
  8
実線(中線)
100
AcDbLine
 10
234.1951323704533
 20
227.7452547322375
 30
0.0
 11
230.1951323704533
 21
227.7452547322363
 31
0.0
  0
LINE
  5
38F
330
77
100
AcDbEntity
  8
実線(中線)
100
AcDbLine
 10
234.1951323704495
 20
240.40894425878
 30
0.0
 11
230.1951323704495
 21
240.4089442587787
 31
0.0
  0
LINE
  5
390
330
77
100
AcDbEntity
  8
実線(中線)
100
AcDbLine
 10
234.1951323704543
 20
224.4089442587799
 30
0.0
 11
230.1951323704543
 21
224.4089442587787
 31
0.0
  0
SPLINE
  5
391
330
77
100
AcDbEntity
  8
実線(中線)
100
AcDbSpline
210
0.0
220
0.0
230
1.0
 70
    12
 71
     2
 72
     6
 73
     3
 74
     0
 42
0.0000000001
 43
0.0000000001
 40
1.08573652590871
 40
1.08573652590871
 40
1.08573652590871
 40
1.471344932474449
 40
1.471344932474449
 40
1.471344932474449
 10
98.68160463767765
 20
69.4728608817026
 30
0.0
 41
1.024275806615337
 10
97.1482680359373
 20
69.83744553602168
 30
0.0
 41
1.016448781169682
 10
95.87528258698201
 20
70.27659509217677
 30
0.0
 41
1.0
  0
ELLIPSE
  5
392
330
77
100
AcDbEntity
  8
実線(中線)
100
AcDbEllipse
 10
93.11394233268519
 20
59.6234069174033
 30
0.0
 11
7.749999999999203
 21
-13.42339375865926
 31
0.0
210
0.0
220
0.0
230
1.0
 40
0.5773502691896258
 41
5.752475198051745
 42
8.384691743102674
  0
SPLINE
  5
393
330
77
100
AcDbEntity
  8
実線(中線)
100
AcDbSpline
210
0.0
220
0.0
230
1.0
 70
    12
 71
     2
 72
     6
 73
     3
 74
     0
 42
0.0000000001
 43
0.0000000001
 40
0.0
 40
0.0
 40
0.0
 40
0.3856084065657387
 40
0.3856084065657387
 40
0.3856084065657387
 10
95.87528258698201
 20
45.78169766434498
 30
0.0
 41
1.0
 10
97.14826803593732
 20
45.34254810818989
 30
0.0
 41
1.016448781169682
 10
98.68160463767765
 20
44.97796345387081
 30
0.0
 41
1.024275806615337
  0
ELLIPSE
  5
394
330
77
100
AcDbEntity
  8
実線(中線)
100
AcDbEllipse
 10
93.82104911387173
 20
60.03165520786716
 30
0.0
 11
8.250000000000003
 21
-14.28941916244324
 31
0.0
210
0.0
220
0.0
230
0.9999999999999998
 40
0.5773502691896258
 41
5.927486809933562
 42
8.209680131220506
  0
SPLINE
  5
395
330
77
100
AcDbEntity
  8
実線(中線)
100
AcDbSpline
210
0.0
220
0.0
230
1.0
 70
    12
 71
     2
 72
     6
 73
     3
 74
     0
 42
0.0000000001
 43
0.0000000001
 40
0.0
 40
0.0
 40
0.0
 40
0.3856084065657387
 40
0.3856084065657387
 40
0.3856084065657387
 10
90.35260207838836
 20
73.46511617046161
 30
0.0
 41
1.0
 10
89.59197273500642
 20
74.20007466209042
 30
0.0
 41
1.016448781169682
 10
88.96049359006584
 20
75.08534696186351
 30
0.0
 41
1.024275806615337
  0
ELLIPSE
  5
396
330
77
100
AcDbEntity
  8
実線(中線)
100
AcDbEllipse
 10
93.82104911387173
 20
60.03165520786716
 30
0.0
 11
-8.250000000000007
 21
14.28941916244323
 31
0.0
210
0.0
220
0.0
230
1.0
 40
0.5773502691896259
 41
5.927486809933562
 42
7.068583470577035
  0
ELLIPSE
  5
397
330
77
100
AcDbEntity
  8
実線(中線)
100
AcDbEllipse
 10
93.11394233268519
 20
59.6234069174033
 30
0.0
 11
-7.750000000000004
 21
13.42339375865879
 31
0.0
210
0.0
220
0.0
230
0.9999999999999998
 40
0.5773502691896258
 41
5.752475198051502
 42
7.101005536904068
  0
LINE
  5
398
330
77
100
AcDbEntity
  8
実線(中線)
100
AcDbLine
 10
82.1537872242937
 20
65.95125541959316
 30
0.0
 11
82.1537872242937
 21
66.76775200052088
 31
0.0
  0
LINE
  5
399
330
77
100
AcDbEntity
  8
実線(中線)
100
AcDbLine
 10
102.9242453247969
 20
71.92235062448578
 30
0.0
 11
98.68160463767765
 21
69.4728608817026
 31
0.0
  0
LINE
  5
39A
330
77
100
AcDbEntity
  8
実線(中線)
100
AcDbLine
 10
102.9242453247969
 20
71.92235062448578
 30
0.0
 11
93.20313427718511
 21
77.53483670464669
 31
0.0
  0
LINE
  5
39B
330
77
100
AcDbEntity
  8
実線(中線)
100
AcDbLine
 10
88.96049359006584
 20
75.08534696186351
 30
0.0
 11
93.20313427718511
 21
77.53483670464669
 31
0.0
  0
LINE
  5
39C
330
77
100
AcDbEntity
  8
実線(中線)
100
AcDbLine
 10
95.87528258698201
 20
70.27659509217677
 30
0.0
 11
90.35260207838836
 21
73.46511617046161
 31
0.0
  0
ELLIPSE
  5
39D
330
77
100
AcDbEntity
  8
実線(中線)
100
AcDbEllipse
 10
98.06368980099103
 20
62.48114495065035
 30
0.0
 11
-8.250000000000007
 21
14.28941916244323
 31
0.0
210
0.0
220
0.0
230
1.0
 40
0.5773502691896259
 41
5.068087477630712
 42
5.927486809933562
  0
SPLINE
  5
39E
330
77
100
AcDbEntity
  8
実線(中線)
100
AcDbSpline
210
0.0
220
0.0
230
1.0
 70
     8
 71
     3
 72
    22
 73
    18
 74
     0
 42
0.0000000001
 43
0.0000000001
 40
0.1507142981654379
 40
0.1507142981654379
 40
0.1507142981654379
 40
0.1507142981654379
 40
0.1883928641065431
 40
0.1883928641065431
 40
0.2260714300476484
 40
0.2260714300476484
 40
0.2637500131892621
 40
0.2637500131892621
 40
0.3014285963308758
 40
0.3014285963308758
 40
0.3391071794724895
 40
0.3391071794724895
 40
0.3767857626141031
 40
0.3767857626141031
 40
0.4144643285552085
 40
0.4144643285552085
 40
0.4521428944963139
 40
0.4521428944963139
 40
0.4521428944963139
 40
0.4521428944963139
 10
111.1451652529421
 20
56.56154473892432
 30
0.0
 10
111.1451652529421
 20
56.66409280647491
 30
0.0
 10
111.1618001387805
 20
56.78435432310004
 30
0.0
 10
111.2299277773344
 20
57.02951560335479
 30
0.0
 10
111.2814770526657
 20
57.15438346044168
 30
0.0
 10
111.4016297176103
 20
57.37492976345888
 30
0.0
 10
111.4782592191042
 20
57.48531750515603
 30
0.0
 10
111.6484220305257
 20
57.67156868226308
 30
0.0
 10
111.742015571253
 20
57.74739809447268
 30
0.0
 10
111.9196341155525
 20
57.84994620883709
 30
0.0
 10
112.0154684898095
 20
57.88348305433572
 30
0.0
 10
112.1937257862385
 20
57.89839232028722
 30
0.0
 10
112.276092172158
 20
57.87980089698821
 30
0.0
 10
112.4070145408093
 20
57.80421283220443
 30
0.0
 10
112.4642961003417
 20
57.74217848692225
 30
0.0
 10
112.5405077027558
 20
57.58035150629496
 30
0.0
 10
112.5593788153152
 20
57.48058938740264
 30
0.0
 10
112.5593788153152
 20
57.37804131985206
 30
0.0
  0
SPLINE
  5
39F
330
77
100
AcDbEntity
  8
実線(中線)
100
AcDbSpline
210
0.0
220
0.0
230
1.0
 70
     8
 71
     3
 72
    23
 73
    19
 74
     0
 42
0.0000000001
 43
0.0000000001
 40
0.4521428944963139
 40
0.4521428944963139
 40
0.4521428944963139
 40
0.4521428944963139
 40
0.4898214604374192
 40
0.4898214604374192
 40
0.5275000263785246
 40
0.5275000263785246
 40
0.5651786095201383
 40
0.5651786095201383
 40
0.6028571926617519
 40
0.6028571926617519
 40
0.6028571926617519
 40
0.6405357758033655
 40
0.6405357758033655
 40
0.6782143589449793
 40
0.6782143589449793
 40
0.7158929248860846
 40
0.7158929248860846
 40
0.7535714908271898
 40
0.7535714908271898
 40
0.7535714908271898
 40
0.7535714908271898
 10
112.5593788153152
 20
57.37804131985206
 30
0.0
 10
112.5593788153152
 20
57.27549325230149
 30
0.0
 10
112.5405077027558
 20
57.15652282177572
 30
0.0
 10
112.4642961003417
 20
56.91602882023177
 30
0.0
 10
112.4070145408093
 20
56.79447049897142
 30
0.0
 10
112.276092172158
 20
56.58014208728837
 30
0.0
 10
112.1937257862385
 20
56.47306653735869
 30
0.0
 10
112.0154684898095
 20
56.29148871334966
 30
0.0
 10
111.9196341155525
 20
56.21695304698165
 30
0.0
 10
111.8308248434028
 20
56.16567898979944
 30
0.0
 10
111.742015571253
 20
56.11440493261722
 30
0.0
 10
111.6484220305257
 20
56.07957434127702
 30
0.0
 10
111.4782592191042
 20
56.05999172222751
 30
0.0
 10
111.4016297176103
 20
56.07527095375904
 30
0.0
 10
111.2814770526657
 20
56.14464112720867
 30
0.0
 10
111.2299277773344
 20
56.20336593666431
 30
0.0
 10
111.1618001387805
 20
56.3605256385808
 30
0.0
 10
111.1451652529421
 20
56.45899667137375
 30
0.0
 10
111.1451652529421
 20
56.56154473892432
 30
0.0
  0
ELLIPSE
  5
3A0
330
77
100
AcDbEntity
  8
実線(中線)
100
AcDbEllipse
 10
102.3063304881103
 20
64.93063469343351
 30
0.0
 11
8.250000000000003
 21
-14.28941916244323
 31
0.0
210
0.0
220
0.0
230
0.9999999999999998
 40
0.5773502691896259
 41
0.0000000000000036
 42
3.141592653589796
  0
LINE
  5
3A1
330
77
100
AcDbEntity
  8
実線(中線)
100
AcDbLine
 10
93.11747786659111
 20
47.37391696203509
 30
0.0
 11
95.87528258698201
 21
45.78169766434498
 31
0.0
  0
LINE
  5
3A2
330
77
100
AcDbEntity
  8
実線(中線)
100
AcDbLine
 10
85.57104911387172
 20
74.3210743703104
 30
0.0
 11
94.05633048811029
 21
79.22005385587675
 31
0.0
  0
LINE
  5
3A3
330
77
100
AcDbEntity
  8
実線(中線)
100
AcDbLine
 10
102.0710491138717
 20
45.74223604542392
 30
0.0
 11
110.5563304881103
 21
50.64121553099028
 31
0.0
  0
ELLIPSE
  5
3A4
330
77
100
AcDbEntity
  8
実線(中線)
100
AcDbEllipse
 10
114.6806991588748
 20
72.07497977655117
 30
0.0
 11
-8.249999999999976
 21
14.28941916244317
 31
0.0
210
0.0
220
0.0
230
0.9999999999999998
 40
0.577350269189626
 41
5.927486809933558
 42
6.283185307179585
  0
SPLINE
  5
3A5
330
77
100
AcDbEntity
  8
実線(中線)
100
AcDbSpline
210
0.0
220
0.0
230
1.0
 70
    12
 71
     2
 72
     6
 73
     3
 74
     0
 42
0.0000000001
 43
0.0000000001
 40
0.5946444723613679
 40
0.5946444723613679
 40
0.5946444723613679
 40
0.9473888356025547
 40
0.9473888356025547
 40
0.9473888356025547
 10
109.820143635069
 20
87.12867153054746
 30
0.0
 41
1.014620396451498
 10
111.353480236809
 20
86.76408687622842
 30
0.0
 41
1.011646623330432
 10
112.6264656857646
 20
86.32493732007331
 30
0.0
 41
1.0
  0
ELLIPSE
  5
3A6
330
77
100
AcDbEntity
  8
実線(中線)
100
AcDbEllipse
 10
115.3878059400614
 20
72.48322806701499
 30
0.0
 11
-7.750000000000806
 21
13.42339375865832
 31
0.0
210
0.0
220
0.0
230
1.0
 40
0.577350269189626
 41
3.926990816987
 42
5.243099089512599
  0
SPLINE
  5
3A7
330
77
100
AcDbEntity
  8
実線(中線)
100
AcDbSpline
210
0.0
220
0.0
230
1.0
 70
    12
 71
     2
 72
     6
 73
     3
 74
     0
 42
0.0000000001
 43
0.0000000001
 40
0.0
 40
0.0
 40
0.0
 40
0.352744363241289
 40
0.352744363241289
 40
0.352744363241289
 10
118.1491461943582
 20
83.13641624178846
 30
0.0
 41
1.0
 10
118.9097755377401
 20
82.40145775015976
 30
0.0
 41
1.011646623330454
 10
119.5412546826807
 20
81.51618545038656
 30
0.0
 41
1.014620396451524
  0
ELLIPSE
  5
3A8
330
77
100
AcDbEntity
  8
実線(中線)
100
AcDbEllipse
 10
114.6806991588749
 20
72.07497977655112
 30
0.0
 11
8.250000000000005
 21
-14.28941916244323
 31
0.0
210
0.0
220
0.0
230
1.0
 40
0.5773502691896261
 41
0.0
 42
1.926494824040918
  0
LINE
  5
3A9
330
77
100
AcDbEntity
  8
実線(中線)
100
AcDbLine
 10
126.3479610484529
 20
66.15537956482512
 30
0.0
 11
126.3479610484529
 21
65.33888298389739
 31
0.0
  0
LINE
  5
3AA
330
77
100
AcDbEntity
  8
実線(中線)
100
AcDbLine
 10
112.6264656857646
 20
86.32493732007331
 30
0.0
 11
118.1491461943582
 21
83.13641624178846
 31
0.0
  0
LINE
  5
3AB
330
77
100
AcDbEntity
  8
実線(中線)
100
AcDbLine
 10
119.5412546826807
 20
81.51618545038656
 30
0.0
 11
117.4199343391211
 21
80.29144057899495
 31
0.0
  0
ELLIPSE
  5
3AC
330
77
100
AcDbEntity
  8
実線(中線)
100
AcDbEllipse
 10
112.5593788153152
 20
70.85023490515952
 30
0.0
 11
-8.25000000000001
 21
14.28941916244323
 31
0.0
210
0.0
220
0.0
230
1.0
 40
0.577350269189626
 41
5.068087477630713
 42
5.927486809933563
  0
LINE
  5
3AD
330
77
100
AcDbEntity
  8
実線(中線)
100
AcDbLine
 10
107.6988232915093
 20
85.90392665915587
 30
0.0
 11
109.820143635069
 21
87.12867153054746
 31
0.0
  0
ELLIPSE
  5
3AE
330
77
100
AcDbEntity
  8
実線(中線)
100
AcDbEllipse
 10
102.3063304881103
 20
64.93063469343351
 30
0.0
 11
8.249999999999998
 21
-14.28941916244323
 31
0.0
210
0.0
220
0.0
230
1.0
 40
0.577350269189626
 41
0.0000000000000035
 42
3.141592653589796
  0
LINE
  5
3AF
330
77
100
AcDbEntity
  8
実線(中線)
100
AcDbLine
 10
94.05633048811029
 20
79.22005385587675
 30
0.0
 11
106.4306991588748
 21
86.36439893899435
 31
0.0
  0
LINE
  5
3B0
330
77
100
AcDbEntity
  8
実線(中線)
100
AcDbLine
 10
110.5563304881103
 20
50.64121553099028
 30
0.0
 11
122.9306991588748
 21
57.78556061410789
 31
0.0
  0
LINE
  5
3B1
330
77
100
AcDbEntity
  8
実線(中線)
100
AcDbLine
 10
68.49351263018505
 20
49.44110079558556
 30
0.0
 11
80.16784558757496
 21
42.70092152002718
 31
0.0
  0
LINE
  5
3B2
330
77
100
AcDbEntity
  8
実線(中線)
100
AcDbLine
 10
80.16784558757496
 20
42.70092152002717
 30
0.0
 11
79.46073880638842
 21
44.26387034887029
 31
0.0
  0
LINE
  5
3B3
330
77
100
AcDbEntity
  8
実線(中線)
100
AcDbLine
 10
79.46073880638842
 20
44.26387034887029
 30
0.0
 11
69.2006194113716
 21
50.18755304350094
 31
0.0
  0
LINE
  5
3B4
330
77
100
AcDbEntity
  8
実線(中線)
100
AcDbLine
 10
69.2006194113716
 20
50.18755304350094
 30
0.0
 11
68.49351263018505
 21
49.44110079558556
 31
0.0
  0
LINE
  5
3B5
330
77
100
AcDbEntity
  8
実線(中線)
100
AcDbLine
 10
69.2006194113716
 20
50.18755304350094
 30
0.0
 11
76.45764671664315
 21
62.75709304814592
 31
0.0
  0
LINE
  5
3B6
330
77
100
AcDbEntity
  8
実線(中線)
100
AcDbLine
 10
76.45764671664315
 20
62.75709304814592
 30
0.0
 11
76.75053993545661
 21
63.7426916077994
 31
0.0
  0
LINE
  5
3B7
330
77
100
AcDbEntity
  8
実線(中線)
100
AcDbLine
 10
76.75053993545661
 20
63.7426916077994
 30
0.0
 11
68.49351263018505
 21
49.44110079558556
 31
0.0
  0
LINE
  5
3B8
330
77
100
AcDbEntity
  8
実線(中線)
100
AcDbLine
 10
76.45764671664315
 20
62.75709304814592
 30
0.0
 11
86.71776611165997
 21
56.83341035351526
 31
0.0
  0
LINE
  5
3B9
330
77
100
AcDbEntity
  8
実線(中線)
100
AcDbLine
 10
86.71776611165997
 20
56.83341035351526
 30
0.0
 11
88.42487289284651
 21
57.00251233224102
 31
0.0
  0
LINE
  5
3BA
330
77
100
AcDbEntity
  8
実線(中線)
100
AcDbLine
 10
88.42487289284651
 20
57.00251233224102
 30
0.0
 11
76.75053993545661
 21
63.74269160779942
 31
0.0
  0
LINE
  5
3BB
330
77
100
AcDbEntity
  8
実線(中線)
100
AcDbLine
 10
80.16784558757496
 20
42.70092152002717
 30
0.0
 11
88.42487289284651
 21
57.00251233224102
 31
0.0
  0
LINE
  5
3BC
330
77
100
AcDbEntity
  8
実線(中線)
100
AcDbLine
 10
86.71776611165997
 20
56.83341035351526
 30
0.0
 11
79.46073880638842
 21
44.2638703488703
 31
0.0
  0
LINE
  5
3BD
330
77
100
AcDbEntity
  8
実線(中線)
100
AcDbLine
 10
81.31586568858764
 20
42.03811180567242
 30
0.0
 11
80.16784558757496
 21
42.70092152002717
 31
0.0
  0
LINE
  5
3BE
330
77
100
AcDbEntity
  8
実線(中線)
100
AcDbLine
 10
81.31586568858764
 20
34.23240449200336
 30
0.0
 11
81.31586568858764
 21
42.03811180567242
 31
0.0
  0
LINE
  5
3BF
330
77
100
AcDbEntity
  8
実線(中線)
100
AcDbLine
 10
92.99019864597754
 20
40.97258376756172
 30
0.0
 11
81.31586568858764
 21
34.23240449200336
 31
0.0
  0
LINE
  5
3C0
330
77
100
AcDbEntity
  8
実線(中線)
100
AcDbLine
 10
92.99019864597754
 20
47.30043226975159
 30
0.0
 11
92.99019864597754
 21
40.97258376756172
 31
0.0
  0
LINE
  5
3C1
330
77
100
AcDbEntity
  8
実線(中線)
100
AcDbLine
 10
95.4155749054474
 20
48.70072390604264
 30
0.0
 11
92.99019864597754
 21
47.30043226975159
 31
0.0
  0
LINE
  5
3C2
330
77
100
AcDbEntity
  8
実線(中線)
100
AcDbLine
 10
95.4155749054474
 20
59.71069040190446
 30
0.0
 11
95.4155749054474
 21
48.70072390604264
 31
0.0
  0
LINE
  5
3C3
330
77
100
AcDbEntity
  8
実線(中線)
100
AcDbLine
 10
89.57487289284655
 20
56.33855952267296
 30
0.0
 11
95.4155749054474
 21
59.71069040190446
 31
0.0
  0
LINE
  5
3C4
330
77
100
AcDbEntity
  8
実線(中線)
100
AcDbLine
 10
88.42487289284651
 20
57.00251233224102
 30
0.0
 11
89.57487289284655
 21
56.33855952267296
 31
0.0
  0
LINE
  5
3C5
330
77
100
AcDbEntity
  8
実線(中線)
100
AcDbLine
 10
69.64153273119773
 20
40.97258376756173
 30
0.0
 11
69.64153273119774
 21
48.7782910812308
 31
0.0
  0
LINE
  5
3C6
330
77
100
AcDbEntity
  8
実線(中線)
100
AcDbLine
 10
69.64153273119773
 20
40.97258376756173
 30
0.0
 11
81.31586568858764
 21
34.23240449200336
 31
0.0
  0
LINE
  5
3C7
330
77
100
AcDbEntity
  8
実線(中線)
100
AcDbLine
 10
83.7412419480575
 20
66.45086967746284
 30
0.0
 11
95.4155749054474
 21
59.71069040190446
 31
0.0
  0
LINE
  5
3C8
330
77
100
AcDbEntity
  8
実線(中線)
100
AcDbLine
 10
77.90053993545661
 20
63.07873879823134
 30
0.0
 11
83.7412419480575
 21
66.45086967746284
 31
0.0
  0
ELLIPSE
  5
3C9
330
77
100
AcDbEntity
  8
実線(中線)
100
AcDbEllipse
 10
80.24459891509001
 20
27.36362700494887
 30
0.0
 11
-3.174999999999998
 21
-0.0000000000000003
 31
0.0
210
0.0
220
0.0
230
1.0
 40
0.5773502691896259
 41
5.942570972737016
 42
9.765392295211947
  0
ELLIPSE
  5
3CA
330
77
100
AcDbEntity
  8
実線(中線)
100
AcDbEllipse
 10
80.24459891509001
 20
27.36362700494887
 30
0.0
 11
-2.6
 21
0.0
 31
0.0
210
0.0
220
0.0
230
1.0
 40
0.5773502691896257
 41
0.0000000000000003
 42
3.141592653589793
  0
ELLIPSE
  5
3CB
330
77
100
AcDbEntity
  8
実線(中線)
100
AcDbEllipse
 10
80.24459891509001
 20
22.24174395278925
 30
0.0
 11
-3.174999999999999
 21
-0.0000000000000033
 31
0.0
210
0.0
220
0.0
230
1.0
 40
0.5773502691896258
 41
0.0
 42
3.141592653589786
  0
LINE
  5
3CC
330
77
100
AcDbEntity
  8
実線(中線)
100
AcDbLine
 10
83.41959891509004
 20
27.36362700494887
 30
0.0
 11
83.41959891509004
 21
22.24174395278924
 31
0.0
  0
LINE
  5
3CD
330
77
100
AcDbEntity
  8
実線(中線)
100
AcDbLine
 10
77.06959891509002
 20
27.36362700494887
 30
0.0
 11
77.06959891509002
 21
22.24174395278924
 31
0.0
  0
ELLIPSE
  5
3CE
330
77
100
AcDbEntity
  8
実線(中線)
100
AcDbEllipse
 10
80.24459891509001
 20
28.58837187634046
 30
0.0
 11
-3.174999999999999
 21
0.0
 31
0.0
210
0.0
220
0.0
230
1.0
 40
0.5773502691896258
 41
0.0000000000000007
 42
3.141592653589793
  0
LINE
  5
3CF
330
77
100
AcDbEntity
  8
実線(中線)
100
AcDbLine
 10
83.41959891509004
 20
28.82317253012553
 30
0.0
 11
83.41959891509004
 21
28.58837187634046
 31
0.0
  0
LINE
  5
3D0
330
77
100
AcDbEntity
  8
実線(中線)
100
AcDbLine
 10
77.06959891509002
 20
28.82317253012553
 30
0.0
 11
77.06959891509002
 21
28.58837187634046
 31
0.0
  0
ELLIPSE
  5
3D1
330
77
100
AcDbEntity
  8
実線(中線)
100
AcDbEllipse
 10
80.24459891509001
 20
30.8745623029381
 30
0.0
 11
-4.765
 21
-0.0000000000000026
 31
0.0
210
0.0
220
0.0
230
1.0
 40
0.5773502691896258
 41
0.0
 42
3.141592653589793
  0
LINE
  5
3D2
330
77
100
AcDbEntity
  8
実線(中線)
100
AcDbLine
 10
85.00959891509001
 20
34.81992694562475
 30
0.0
 11
85.00959891509001
 21
30.8745623029381
 31
0.0
  0
LINE
  5
3D3
330
77
100
AcDbEntity
  8
実線(中線)
100
AcDbLine
 10
75.47959891509002
 20
34.81992694562475
 30
0.0
 11
75.47959891509002
 21
30.8745623029381
 31
0.0
  0
ELLIPSE
  5
3D4
330
77
100
AcDbEntity
  8
実線(中線)
100
AcDbEllipse
 10
80.24459891509001
 20
37.24323563417435
 30
0.0
 11
-6.349999999999998
 21
-0.0000000000000028
 31
0.0
210
0.0
220
0.0
230
1.0
 40
0.5773502691896258
 41
0.0
 42
3.141592653589793
  0
LINE
  5
3D5
330
77
100
AcDbEntity
  8
実線(中線)
100
AcDbLine
 10
86.59459891509001
 20
37.28008254130473
 30
0.0
 11
86.59459891509001
 21
37.24323563417435
 31
0.0
  0
LINE
  5
3D6
330
77
100
AcDbEntity
  8
実線(中線)
100
AcDbLine
 10
73.89459891509003
 20
38.51707486141024
 30
0.0
 11
73.89459891509003
 21
37.24323563417435
 31
0.0
  0
LINE
  5
3D7
330
77
100
AcDbEntity
  8
実線(中線)
100
AcDbLine
 10
82.84459891509001
 20
27.53629060571542
 30
0.0
 11
82.84459891509001
 21
27.36362700494887
 31
0.0
  0
LINE
  5
3D8
330
77
100
AcDbEntity
  8
実線(中線)
100
AcDbLine
 10
77.64459891509003
 20
27.53629060571542
 30
0.0
 11
77.64459891509003
 21
27.36362700494887
 31
0.0
  0
SPLINE
  5
3D9
330
77
100
AcDbEntity
  8
実線(中線)
100
AcDbSpline
210
0.0
220
0.0
230
1.0
 70
    12
 71
     2
 72
     6
 73
     3
 74
     0
 42
0.0000000001
 43
0.0000000001
 40
0.0
 40
0.0
 40
0.0
 40
0.385608406565738
 40
0.385608406565738
 40
0.385608406565738
 10
112.6264656857646
 20
86.32493732007331
 30
0.0
 41
1.0
 10
111.8658363423826
 20
87.05989581170213
 30
0.0
 41
1.016448781169684
 10
111.2343571974421
 20
87.9451681114752
 30
0.0
 41
1.02427580661534
  0
ELLIPSE
  5
3DA
330
77
100
AcDbEntity
  8
実線(中線)
100
AcDbEllipse
 10
116.0949127212479
 20
72.89147635747891
 30
0.0
 11
-8.249999999999978
 21
14.28941916244318
 31
0.0
210
0.0
220
0.0
230
0.9999999999999998
 40
0.5773502691896259
 41
5.927486809933561
 42
6.36900050869056
  0
SPLINE
  5
3DB
330
77
100
AcDbEntity
  8
実線(中線)
100
AcDbSpline
210
0.0
220
0.0
230
1.0
 70
    12
 71
     2
 72
     6
 73
     3
 74
     0
 42
0.0000000001
 43
0.0000000001
 40
1.085736525908713
 40
1.085736525908713
 40
1.085736525908713
 40
1.471344932474451
 40
1.471344932474451
 40
1.471344932474451
 10
120.9554682450539
 20
82.33268203131428
 30
0.0
 41
1.024275806615339
 10
119.4221316433135
 20
82.69726668563336
 30
0.0
 41
1.016448781169683
 10
118.1491461943582
 20
83.13641624178846
 30
0.0
 41
1.0
  0
SPLINE
  5
3DC
330
77
100
AcDbEntity
  8
実線(中線)
100
AcDbSpline
210
0.0
220
0.0
230
1.0
 70
    12
 71
     2
 72
     6
 73
     3
 74
     0
 42
0.0000000001
 43
0.0000000001
 40
0.0
 40
0.0
 40
0.0
 40
0.385608406565739
 40
0.385608406565739
 40
0.385608406565739
 10
123.0988936626641
 20
85.99415427503549
 30
0.0
 41
1.0
 10
123.859523006046
 20
85.25919578340667
 30
0.0
 41
1.01644878116968
 10
124.4910021509866
 20
84.3739234836336
 30
0.0
 41
1.024275806615335
  0
SPLINE
  5
3DD
330
77
100
AcDbEntity
  8
実線(中線)
100
AcDbSpline
210
0.0
220
0.0
230
1.0
 70
    12
 71
     2
 72
     6
 73
     3
 74
     0
 42
0.0000000001
 43
0.0000000001
 40
1.085736525908709
 40
1.085736525908709
 40
1.085736525908709
 40
1.471344932474448
 40
1.471344932474448
 40
1.471344932474448
 10
114.7698911033748
 20
89.9864095637945
 30
0.0
 41
1.024275806615335
 10
116.3032277051151
 20
89.62182490947542
 30
0.0
 41
1.01644878116968
 10
117.5762131540704
 20
89.18267535332033
 30
0.0
 41
1.0
  0
ELLIPSE
  5
3DE
330
77
100
AcDbEntity
  8
実線(中線)
100
AcDbEllipse
 10
115.3878059400614
 20
72.48322806701499
 30
0.0
 11
7.749999999999207
 21
-13.42339375865926
 31
0.0
210
0.0
220
0.0
230
1.0
 40
0.577350269189626
 41
0.7853981633976215
 42
2.101506435923086
  0
ELLIPSE
  5
3DF
330
77
100
AcDbEntity
  8
実線(中線)
100
AcDbEllipse
 10
116.094912721248
 20
72.89147635747885
 30
0.0
 11
8.250000000000008
 21
-14.28941916244322
 31
0.0
210
0.0
220
0.0
230
0.9999999999999998
 40
0.577350269189626
 41
6.197370105668618
 42
8.209680131220505
  0
ELLIPSE
  5
3E0
330
77
100
AcDbEntity
  8
実線(中線)
100
AcDbEllipse
 10
119.6304466271807
 20
74.93271780979819
 30
0.0
 11
-8.249999999999992
 21
14.28941916244321
 31
0.0
210
0.0
220
0.0
230
0.9999999999999998
 40
0.577350269189626
 41
5.927486809933562
 42
6.283185307179586
  0
ELLIPSE
  5
3E1
330
77
100
AcDbEntity
  8
実線(中線)
100
AcDbEllipse
 10
120.3375534083672
 20
75.34096610026203
 30
0.0
 11
-7.750000000000805
 21
13.42339375865833
 31
0.0
210
0.0
220
0.0
230
1.0
 40
0.5773502691896261
 41
3.926990816986998
 42
5.243099089512599
  0
ELLIPSE
  5
3E2
330
77
100
AcDbEntity
  8
実線(中線)
100
AcDbEllipse
 10
119.6304466271807
 20
74.93271780979816
 30
0.0
 11
8.250000000000005
 21
-14.28941916244323
 31
0.0
210
0.0
220
0.0
230
1.0
 40
0.5773502691896259
 41
0.0
 42
1.926494824040918
  0
LINE
  5
3E3
330
77
100
AcDbEntity
  8
実線(中線)
100
AcDbLine
 10
131.2977085167587
 20
69.01311759807216
 30
0.0
 11
131.2977085167587
 21
68.19662101714444
 31
0.0
  0
LINE
  5
3E4
330
77
100
AcDbEntity
  8
実線(中線)
100
AcDbLine
 10
118.1491461943582
 20
83.13641624178846
 30
0.0
 11
112.6264656857646
 21
86.32493732007331
 31
0.0
  0
LINE
  5
3E5
330
77
100
AcDbEntity
  8
実線(中線)
100
AcDbLine
 10
124.4910021509866
 20
84.3739234836336
 30
0.0
 11
120.9554682450539
 21
82.33268203131428
 31
0.0
  0
LINE
  5
3E6
330
77
100
AcDbEntity
  8
実線(中線)
100
AcDbLine
 10
117.5762131540704
 20
89.18267535332033
 30
0.0
 11
123.0988936626641
 21
85.99415427503549
 31
0.0
  0
LINE
  5
3E7
330
77
100
AcDbEntity
  8
実線(中線)
100
AcDbLine
 10
111.2343571974421
 20
87.9451681114752
 30
0.0
 11
114.7698911033748
 21
89.9864095637945
 31
0.0
  0
ELLIPSE
  5
3E8
330
77
100
AcDbEntity
  8
実線(中線)
100
AcDbEllipse
 10
150.7431449993888
 20
92.89564259020814
 30
0.0
 11
2.5
 21
-4.330127018922191
 31
0.0
210
0.0
220
0.0
230
1.0
 40
0.577350269189626
 41
0.0000000000000018
 42
3.141592653589794
  0
LINE
  5
3E9
330
77
100
AcDbEntity
  8
実線(中線)
100
AcDbLine
 10
125.1732537839278
 20
83.90636170570857
 30
0.0
 11
148.2431449993888
 21
97.22576960913032
 31
0.0
  0
LINE
  5
3EA
330
77
100
AcDbEntity
  8
実線(中線)
100
AcDbLine
 10
130.1732537839278
 20
75.24610766786421
 30
0.0
 11
153.2431449993888
 21
88.56551557128595
 31
0.0
  0
LINE
  5
3EB
330
77
100
AcDbEntity
  8
実線(中線)
100
AcDbLine
 10
124.344912721248
 20
58.60205719503562
 30
0.0
 11
127.8804466271807
 21
60.64329864735494
 31
0.0
  0
LINE
  5
3EC
330
77
100
AcDbEntity
  8
実線(中線)
100
AcDbLine
 10
107.844912721248
 20
87.18089551992209
 30
0.0
 11
111.3804466271807
 21
89.2221369722414
 31
0.0
  0
SPLINE
  5
3ED
330
77
100
AcDbEntity
  8
実線(中線)
100
AcDbSpline
210
0.0
220
0.0
230
1.0
 70
    12
 71
     2
 72
     6
 73
     3
 74
     0
 42
0.0000000001
 43
0.0000000001
 40
0.0688031234153684
 40
0.0688031234153684
 40
0.0688031234153684
 40
0.1392743633508593
 40
0.1392743633508593
 40
0.1392743633508593
 10
86.78012462078319
 20
64.696369948329
 30
0.0
 41
1.009775885563597
 10
86.70499216052967
 20
64.84240002969407
 30
0.0
 41
1.014344975974925
 10
86.63423532777748
 20
64.99746066281211
 30
0.0
 41
1.018018140093497
  0
ELLIPSE
  5
3EE
330
77
100
AcDbEntity
  8
実線(中線)
100
AcDbEllipse
 10
89.93196181734525
 20
57.78628961031693
 30
0.0
 11
-3.999999999999437
 21
6.928203230274528
 31
0.0
210
0.0
220
0.0
230
0.9999999999999998
 40
0.5773502691896258
 41
6.120155632337151
 42
6.175035479687808
  0
ELLIPSE
  5
3EF
330
77
100
AcDbEntity
  8
実線(中線)
100
AcDbEllipse
 10
89.93196181734573
 20
57.78628961031592
 30
0.0
 11
-4.000000000000418
 21
6.928203230275272
 31
0.0
210
0.0
220
0.0
230
1.0
 40
0.5773502691896259
 41
3.678867442907657
 42
4.175114191066212
  0
ELLIPSE
  5
3F0
330
77
100
AcDbEntity
  8
実線(中線)
100
AcDbEllipse
 10
89.93196181734587
 20
57.78628961031603
 30
0.0
 11
-3.999999999999845
 21
6.928203230275232
 31
0.0
210
0.0
220
0.0
230
1.0
 40
0.5773502691896257
 41
4.820538807876467
 42
4.875418655227119
  0
SPLINE
  5
3F1
330
77
100
AcDbEntity
  8
実線(中線)
100
AcDbSpline
210
0.0
220
0.0
230
1.0
 70
    12
 71
     2
 72
     6
 73
     3
 74
     0
 42
0.0000000001
 43
0.0000000001
 40
0.7171175007053466
 40
0.7171175007053466
 40
0.7171175007053466
 40
0.7875887406408407
 40
0.7875887406408407
 40
0.7875887406408407
 10
93.22968830691396
 20
61.18957410988016
 30
0.0
 41
1.018018140093493
 10
92.9611154120997
 20
61.23042558631663
 30
0.0
 41
1.014344975974922
 10
92.70818389174197
 20
61.2738033324689
 30
0.0
 41
1.009775885563595
  0
ELLIPSE
  5
3F2
330
77
100
AcDbEntity
  8
実線(中線)
100
AcDbEllipse
 10
92.76038894209191
 20
59.41928277217137
 30
0.0
 11
4.000000000000002
 21
-6.928203230275508
 31
0.0
210
0.0
220
0.0
230
0.9999999999999998
 40
0.5773502691896259
 41
0.0
 42
1.733826001637325
  0
ELLIPSE
  5
3F3
330
77
100
AcDbEntity
  8
実線(中線)
100
AcDbEllipse
 10
92.76038894209191
 20
59.41928277217137
 30
0.0
 11
-4.000000000000004
 21
6.928203230275513
 31
0.0
210
0.0
220
0.0
230
1.0
 40
0.5773502691896259
 41
6.120155632337161
 42
6.283185307179587
  0
SPLINE
  5
3F4
330
77
100
AcDbEntity
  8
実線(中線)
100
AcDbSpline
210
0.0
220
0.0
230
1.0
 70
    12
 71
     2
 72
     6
 73
     3
 74
     0
 42
0.0000000001
 43
0.0000000001
 40
0.7171175007053501
 40
0.7171175007053501
 40
0.7171175007053501
 40
0.8563918640562071
 40
0.8563918640562071
 40
0.8563918640562071
 10
89.46266245252369
 20
66.63045382466757
 30
0.0
 41
1.018018140093497
 10
89.99533414539991
 20
66.54943140755077
 30
0.0
 41
1.010758758896776
 10
90.46819102162059
 20
66.45815992508547
 30
0.0
 41
1.0
  0
ELLIPSE
  5
3F5
330
77
100
AcDbEntity
  8
実線(中線)
100
AcDbEllipse
 10
93.11394233268519
 20
59.6234069174033
 30
0.0
 11
-3.750000000000393
 21
6.495190528383065
 31
0.0
210
0.0
220
0.0
230
1.0
 40
0.577350269189626
 41
3.926990816986998
 42
4.975472321975968
  0
SPLINE
  5
3F6
330
77
100
AcDbEntity
  8
実線(中線)
100
AcDbSpline
210
0.0
220
0.0
230
1.0
 70
    12
 71
     2
 72
     6
 73
     3
 74
     0
 42
0.0000000001
 43
0.0000000001
 40
0.0
 40
0.0
 40
0.0
 40
0.1392743633508574
 40
0.1392743633508574
 40
0.1392743633508574
 10
95.75969364374977
 20
63.40310946178157
 30
0.0
 41
1.0
 10
95.9177804886618
 20
63.1301054170074
 30
0.0
 41
1.010758758896777
 10
96.05811543166014
 20
62.82256727173561
 30
0.0
 41
1.018018140093498
  0
LINE
  5
3F7
330
77
100
AcDbEntity
  8
実線(中線)
100
AcDbLine
 10
98.4172431915843
 20
56.56154473892432
 30
0.0
 11
98.4172431915843
 21
56.15329644846046
 31
0.0
  0
LINE
  5
3F8
330
77
100
AcDbEntity
  8
実線(中線)
100
AcDbLine
 10
96.05811543166014
 20
62.82256727173561
 30
0.0
 11
93.22968830691396
 21
61.18957410988016
 31
0.0
  0
LINE
  5
3F9
330
77
100
AcDbEntity
  8
実線(中線)
100
AcDbLine
 10
90.46819102162059
 20
66.45815992508547
 30
0.0
 11
95.75969364374977
 21
63.40310946178157
 31
0.0
  0
LINE
  5
3FA
330
77
100
AcDbEntity
  8
実線(中線)
100
AcDbLine
 10
86.63423532777748
 20
64.99746066281211
 30
0.0
 11
89.46266245252369
 21
66.63045382466757
 31
0.0
  0
LINE
  5
3FB
330
77
100
AcDbEntity
  8
実線(中線)
100
AcDbLine
 10
95.4155749054474
 20
51.71465079582915
 30
0.0
 11
96.76038894209192
 21
52.49107954189586
 31
0.0
  0
LINE
  5
3FC
330
77
100
AcDbEntity
  8
実線(中線)
100
AcDbLine
 10
86.34034833397514
 20
64.95027490590084
 30
0.0
 11
88.76038894209191
 21
66.34748600244688
 31
0.0
  0
INSERT
  5
3FD
330
77
100
AcDbEntity
  8
0
100
AcDbBlockReference
  2
IPSTAMP_EJ
 10
234.1165249890567
 20
74.15732322552002
 30
0.0
  0
LINE
  5
3FE
330
77
100
AcDbEntity
  8
一点鎖線(細線)
  6
CHAIN
 48
23.99096870422363
100
AcDbLine
 10
112.5373494243909
 20
165.5673543890262
 30
0.0
 11
69.48636266706673
 21
165.5673543890262
 31
0.0
  0
LINE
  5
3FF
330
77
100
AcDbEntity
  8
一点鎖線(細線)
  6
CHAIN
 48
23.99096870422363
100
AcDbLine
 10
91.41109482843038
 20
188.5613352055509
 30
0.0
 11
91.41109482843038
 21
125.1807153281121
 31
0.0
  0
LINE
  5
400
330
77
100
AcDbEntity
  8
一点鎖線(細線)
  6
CHAIN
 48
23.99096870422363
100
AcDbLine
 10
354.561310126646
 20
165.5673543890262
 30
0.0
 11
317.0295365216811
 21
165.5673543890262
 31
0.0
  0
LINE
  5
401
330
77
100
AcDbEntity
  8
一点鎖線(細線)
  6
CHAIN
 48
23.99096870422363
100
AcDbLine
 10
336.5613101266459
 20
183.3792719451313
 30
0.0
 11
336.5613101266459
 21
125.1807153281121
 31
0.0
  0
LINE
  5
402
330
77
100
AcDbEntity
  8
一点鎖線(細線)
  6
CHAIN
 48
23.99096870422363
100
AcDbLine
 10
246.8723729171527
 20
165.5673543890262
 30
0.0
 11
145.6951323704519
 21
165.5673543890262
 31
0.0
  0
LINE
  5
403
330
77
100
AcDbEntity
  8
一点鎖線(細線)
  6
CHAIN
 48
23.99096870422363
100
AcDbLine
 10
258.8309803497428
 20
232.4089442587872
 30
0.0
 11
145.6951323704519
 21
232.4089442587537
 31
0.0
  0
LINE
  5
404
330
77
100
AcDbEntity
  8
一点鎖線(細線)
  6
CHAIN
 48
23.99096870422363
100
AcDbLine
 10
247.8951323704519
 20
165.8399809098653
 30
0.0
 11
247.8951323704519
 21
125.9779558297152
 31
0.0
  0
DIMENSION
  5
405
330
77
100
AcDbEntity
  8
寸法(細線)
100
AcDbDimension
280
     0
  2
*D8
 10
191.1951323704531
 20
130.8695680883608
 30
0.0
 11
169.6951323704525
 21
130.8695680883608
 31
0.0
 70
   160
  1
<>
 42
43.00000000000117
 73
     0
 74
     0
 75
     0
  3
Default (ULVAC)
100
AcDbAlignedDimension
 13
148.1951323704519
 23
160.5673543890262
 33
0.0
 14
191.1951323704531
 24
150.5673543890262
 34
0.0
 50
180.0
100
AcDbRotatedDimension
1001
ACAD
1000
DSTYLE
1002
{
1070
   172
1070
     0
1070
   289
1070
     1
1070
   271
1070
     2
1070
   272
1070
     3
1070
    48
1040
0.0
1070
    47
1040
0.0
1002
}
  0
DIMENSION
  5
4E8
330
77
100
AcDbEntity
  8
寸法(細線)
100
AcDbDimension
280
     0
  2
*D9
 10
247.8951323704519
 20
114.2576221463914
 30
0.0
 11
198.0451323704519
 21
114.2576221463914
 31
0.0
 70
   160
  1
<>
 42
99.69999999999998
 73
     0
 74
     0
 75
     0
  3
Default (ULVAC)
100
AcDbAlignedDimension
 13
148.1951323704519
 23
160.5673543890262
 33
0.0
 14
247.8951323704519
 24
125.9779558297152
 34
0.0
 50
180.0
100
AcDbRotatedDimension
1001
ACAD
1000
DSTYLE
1002
{
1070
   172
1070
     0
1070
   289
1070
     1
1070
   271
1070
     2
1070
   272
1070
     3
1070
    48
1040
0.0
1070
    47
1040
0.0
1002
}
  0
DIMENSION
  5
5C4
330
77
100
AcDbEntity
  8
寸法(細線)
100
AcDbDimension
280
     0
  2
*D10
 10
283.4366661136556
 20
248.9089442587771
 30
0.0
 11
283.4366661136556
 21
232.4089442587945
 31
0.0
 70
   160
  1
{Ø}<>
 42
32.99999999999881
 73
     0
 74
     0
 75
     0
  3
Default (ULVAC)
100
AcDbAlignedDimension
 13
228.6951323704568
 23
215.9089442587783
 33
0.0
 14
228.695132370447
 24
248.9089442587771
 34
0.0
 50
90.0
100
AcDbRotatedDimension
1001
ACAD
1000
DSTYLE
1002
{
1070
   172
1070
     0
1070
   289
1070
     1
1070
   271
1070
     2
1070
   272
1070
     3
1070
    48
1040
0.0
1070
    47
1040
0.0
1002
}
  0
DIMENSION
  5
6A6
330
77
100
AcDbEntity
  8
寸法(細線)
100
AcDbDimension
280
     0
  2
*D11
 10
134.9257917905234
 20
170.5673543890262
 30
0.0
 11
134.9257917905234
 21
165.5673543890262
 31
0.0
 70
   160
  1
{M}<>
 42
10.0
 73
     0
 74
     0
 75
     0
  3
Default (ULVAC)
100
AcDbAlignedDimension
 13
148.1951323704519
 23
160.5673543890262
 33
0.0
 14
148.1951323704519
 24
170.5673543890262
 34
0.0
 50
90.0
100
AcDbRotatedDimension
1001
ACAD
1000
DSTYLE
1002
{
1070
   172
1070
     0
1070
   289
1070
     1
1070
   271
1070
     2
1070
   272
1070
     3
1070
    48
1040
0.0
1070
    47
1040
0.0
1002
}
  0
DIMENSION
  5
789
330
77
100
AcDbEntity
  8
寸法(細線)
100
AcDbDimension
280
     0
  2
*D12
 10
148.1951323704504
 20
261.2779282028403
 30
0.0
 11
202.2269051688145
 21
261.2779282028403
 31
0.0
 70
   160
  1
<>
 42
108.0635455967281
 73
     0
 74
     0
 75
     0
  3
Default (ULVAC)
100
AcDbAlignedDimension
 13
256.2586779671785
 23
240.6639442587855
 33
0.0
 14
148.1951323704504
 24
237.4089442587544
 34
0.0
 50
180.0
100
AcDbRotatedDimension
1001
ACAD
1000
DSTYLE
1002
{
1070
   172
1070
     0
1070
   289
1070
     1
1070
   271
1070
     1
1070
   272
1070
     3
1070
    48
1040
0.0
1070
    47
1040
0.0
1002
}
  0
DIMENSION
  5
865
330
77
100
AcDbEntity
  8
寸法(細線)
100
AcDbDimension
280
     0
  2
*D13
 10
89.51895174871939
 20
163.9334037882118
 30
0.0
 11
116.0503089628836
 21
186.8444233222781
 31
0.0
 70
   163
  1
<>
 42
5.0
 73
     0
 74
     0
 75
     0
  3
Default (ULVAC)
100
AcDbDiametricDimension
 15
93.30323790814134
 25
167.2013049898407
 35
0.0
 40
0.0
1001
ACAD
1000
DSTYLE
1002
{
1070
   144
1040
1.0
1070
   289
1070
     2
1070
   271
1070
     2
1070
   272
1070
     3
1070
    48
1040
0.0
1070
    47
1040
0.0
1002
}
1001
ACAD_DSTYLE_DIMRADIAL_EXTENSION
1070
   387
1070
     1
1070
   388
1040
0.0
1070
   390
1040
0.0
  0
MTEXT
  5
910
102
{ACAD_REACTORS
330
911
102
}
330
77
100
AcDbEntity
  8
寸法(細線)
100
AcDbMText
 10
265.2804773588759
 20
119.5705732306511
 30
0.0
 40
3.499999940395355
 41
17.15680718421936
 46
0.0
 71
     1
 72
     1
  1
{SMA905}
  7
Note Text (ULVAC_寸法)
 73
     1
 44
1.5
  0
LEADER
  5
911
330
77
100
AcDbEntity
  8
寸法(細線)
100
AcDbLeader
  3
Default (ULVAC)$7
 73
     0
 74
     0
 75
     1
 40
3.643384759981733
 41
16.72901247534838
 76
     3
 10
251.0701323704519
 20
132.0208543890262
 30
0.0
 10
262.3804772635085
 20
114.9051735190256
 30
0.0
 10
265.2804773588759
 20
114.9051735190256
 30
0.0
340
910
213
0.0
223
-1.022014951643844
233
0.0
1001
ACAD
1000
DSTYLE
1002
{
1070
   147
1040
0.0
1070
    77
1070
     1
1002
}
  0
DIMENSION
  5
912
330
77
100
AcDbEntity
  8
寸法(細線)
100
AcDbDimension
280
     0
  2
*D14
 10
379.5947861789866
 20
165.5673543890262
 30
0.0
 11
379.5947861789865
 21
147.2258543890262
 31
0.0
 70
   160
  1
<>
 42
36.68299999999997
 73
     0
 74
     0
 75
     0
  3
Default (ULVAC)
100
AcDbAlignedDimension
 13
339.7363101266568
 23
128.8843543890263
 33
0.0
 14
354.561310126646
 24
165.5673543890262
 34
0.0
 50
90.0
100
AcDbRotatedDimension
1001
ACAD
1000
DSTYLE
1002
{
1070
   172
1070
     0
1070
   289
1070
     1
1070
   271
1070
     1
1070
   272
1070
     3
1070
    48
1040
0.0
1070
    47
1040
0.0
1002
}
  0
ENDSEC
  0
SECTION
  2
OBJECTS
  0
DICTIONARY
  5
C
330
0
100
AcDbDictionary
281
     1
  3
ACAD_COLOR
350
6E
  3
ACAD_GROUP
350
D
  3
ACAD_LAYOUT
350
6D
  3
ACAD_MATERIAL
350
10
  3
ACAD_MLEADERSTYLE
350
71
  3
ACAD_MLINESTYLE
350
6A
  3
ACAD_PLOTSETTINGS
350
6C
  3
ACAD_PLOTSTYLENAME
350
E
  3
ACAD_SCALELIST
350
3D
  3
ACAD_TABLESTYLE
350
6F
  3
ACAD_VISUALSTYLE
350
29
  3
ACDB_RECOMPOSE_DATA
350
AA2
  3
AcDbVariableDictionary
350
9F4
  0
DICTIONARY
  5
9FA
330
253
100
AcDbDictionary
280
     1
281
     1
  3
ACAD_MLATT
360
9FC
  3
ACAD_XREC_ROUNDTRIP
360
9FB
  0
DICTIONARY
  5
9FD
330
256
100
AcDbDictionary
280
     1
281
     1
  3
ACAD_MLATT
360
9FF
  3
ACAD_XREC_ROUNDTRIP
360
9FE
  0
DICTIONARY
  5
A00
330
257
100
AcDbDictionary
280
     1
281
     1
  3
ACAD_MLATT
360
A02
  3
ACAD_XREC_ROUNDTRIP
360
A01
  0
DICTIONARY
  5
A03
330
258
100
AcDbDictionary
280
     1
281
     1
  3
ACAD_MLATT
360
A05
  3
ACAD_XREC_ROUNDTRIP
360
A04
  0
DICTIONARY
  5
A06
330
259
100
AcDbDictionary
280
     1
281
     1
  3
ACAD_MLATT
360
A08
  3
ACAD_XREC_ROUNDTRIP
360
A07
  0
DICTIONARY
  5
A09
330
25A
100
AcDbDictionary
280
     1
281
     1
  3
ACAD_MLATT
360
A0B
  3
ACAD_XREC_ROUNDTRIP
360
A0A
  0
DICTIONARY
  5
A0C
330
25C
100
AcDbDictionary
280
     1
281
     1
  3
ACAD_MLATT
360
A0E
  3
ACAD_XREC_ROUNDTRIP
360
A0D
  0
DICTIONARY
  5
A0F
330
25D
100
AcDbDictionary
280
     1
281
     1
  3
ACAD_MLATT
360
A11
  3
ACAD_XREC_ROUNDTRIP
360
A10
  0
DICTIONARY
  5
A12
330
25E
100
AcDbDictionary
280
     1
281
     1
  3
ACAD_MLATT
360
A14
  3
ACAD_XREC_ROUNDTRIP
360
A13
  0
DICTIONARY
  5
A15
330
260
100
AcDbDictionary
280
     1
281
     1
  3
ACAD_MLATT
360
A17
  3
ACAD_XREC_ROUNDTRIP
360
A16
  0
DICTIONARY
  5
A18
330
262
100
AcDbDictionary
280
     1
281
     1
  3
ACAD_MLATT
360
A1A
  3
ACAD_XREC_ROUNDTRIP
360
A19
  0
DICTIONARY
  5
A1B
330
264
100
AcDbDictionary
280
     1
281
     1
  3
ACAD_MLATT
360
A1D
  3
ACAD_XREC_ROUNDTRIP
360
A1C
  0
DICTIONARY
  5
A1E
330
265
100
AcDbDictionary
280
     1
281
     1
  3
ACAD_MLATT
360
A20
  3
ACAD_XREC_ROUNDTRIP
360
A1F
  0
DICTIONARY
  5
A21
330
267
100
AcDbDictionary
280
     1
281
     1
  3
ACAD_MLATT
360
A23
  3
ACAD_XREC_ROUNDTRIP
360
A22
  0
DICTIONARY
  5
A24
330
269
100
AcDbDictionary
280
     1
281
     1
  3
ACAD_MLATT
360
A26
  3
ACAD_XREC_ROUNDTRIP
360
A25
  0
DICTIONARY
  5
A27
330
26B
100
AcDbDictionary
280
     1
281
     1
  3
ACAD_MLATT
360
A29
  3
ACAD_XREC_ROUNDTRIP
360
A28
  0
DICTIONARY
  5
A2A
330
26C
100
AcDbDictionary
280
     1
281
     1
  3
ACAD_MLATT
360
A2C
  3
ACAD_XREC_ROUNDTRIP
360
A2B
  0
DICTIONARY
  5
A2D
330
26D
100
AcDbDictionary
280
     1
281
     1
  3
ACAD_MLATT
360
A2F
  3
ACAD_XREC_ROUNDTRIP
360
A2E
  0
DICTIONARY
  5
A30
330
26E
100
AcDbDictionary
280
     1
281
     1
  3
ACAD_MLATT
360
A32
  3
ACAD_XREC_ROUNDTRIP
360
A31
  0
DICTIONARY
  5
A33
330
26F
100
AcDbDictionary
280
     1
281
     1
  3
ACAD_MLATT
360
A35
  3
ACAD_XREC_ROUNDTRIP
360
A34
  0
DICTIONARY
  5
A36
330
270
100
AcDbDictionary
280
     1
281
     1
  3
ACAD_MLATT
360
A38
  3
ACAD_XREC_ROUNDTRIP
360
A37
  0
DICTIONARY
  5
A39
330
272
100
AcDbDictionary
280
     1
281
     1
  3
ACAD_MLATT
360
A3B
  3
ACAD_XREC_ROUNDTRIP
360
A3A
  0
DICTIONARY
  5
A3C
330
274
100
AcDbDictionary
280
     1
281
     1
  3
ACAD_MLATT
360
A3E
  3
ACAD_XREC_ROUNDTRIP
360
A3D
  0
DICTIONARY
  5
A3F
330
276
100
AcDbDictionary
280
     1
281
     1
  3
ACAD_MLATT
360
A41
  3
ACAD_XREC_ROUNDTRIP
360
A40
  0
DICTIONARY
  5
A42
330
277
100
AcDbDictionary
280
     1
281
     1
  3
ACAD_MLATT
360
A44
  3
ACAD_XREC_ROUNDTRIP
360
A43
  0
DICTIONARY
  5
A45
330
278
100
AcDbDictionary
280
     1
281
     1
  3
ACAD_MLATT
360
A47
  3
ACAD_XREC_ROUNDTRIP
360
A46
  0
DICTIONARY
  5
A48
330
27A
100
AcDbDictionary
280
     1
281
     1
  3
ACAD_MLATT
360
A4A
  3
ACAD_XREC_ROUNDTRIP
360
A49
  0
DICTIONARY
  5
A4B
330
27C
100
AcDbDictionary
280
     1
281
     1
  3
ACAD_MLATT
360
A4D
  3
ACAD_XREC_ROUNDTRIP
360
A4C
  0
DICTIONARY
  5
A4E
330
27F
100
AcDbDictionary
280
     1
281
     1
  3
ACAD_MLATT
360
A50
  3
ACAD_XREC_ROUNDTRIP
360
A4F
  0
DICTIONARY
  5
A51
330
280
100
AcDbDictionary
280
     1
281
     1
  3
ACAD_MLATT
360
A53
  3
ACAD_XREC_ROUNDTRIP
360
A52
  0
DICTIONARY
  5
A54
330
281
100
AcDbDictionary
280
     1
281
     1
  3
ACAD_MLATT
360
A56
  3
ACAD_XREC_ROUNDTRIP
360
A55
  0
DICTIONARY
  5
A57
330
282
100
AcDbDictionary
280
     1
281
     1
  3
ACAD_MLATT
360
A59
  3
ACAD_XREC_ROUNDTRIP
360
A58
  0
DICTIONARY
  5
A5A
330
283
100
AcDbDictionary
280
     1
281
     1
  3
ACAD_MLATT
360
A5C
  3
ACAD_XREC_ROUNDTRIP
360
A5B
  0
DICTIONARY
  5
A5D
330
284
100
AcDbDictionary
280
     1
281
     1
  3
ACAD_MLATT
360
A5F
  3
ACAD_XREC_ROUNDTRIP
360
A5E
  0
DICTIONARY
  5
A60
330
285
100
AcDbDictionary
280
     1
281
     1
  3
ACAD_MLATT
360
A62
  3
ACAD_XREC_ROUNDTRIP
360
A61
  0
DICTIONARY
  5
A63
330
286
100
AcDbDictionary
280
     1
281
     1
  3
ACAD_MLATT
360
A65
  3
ACAD_XREC_ROUNDTRIP
360
A64
  0
DICTIONARY
  5
A66
330
287
100
AcDbDictionary
280
     1
281
     1
  3
ACAD_MLATT
360
A68
  3
ACAD_XREC_ROUNDTRIP
360
A67
  0
DICTIONARY
  5
A69
330
288
100
AcDbDictionary
280
     1
281
     1
  3
ACAD_MLATT
360
A6B
  3
ACAD_XREC_ROUNDTRIP
360
A6A
  0
DICTIONARY
  5
A6C
330
289
100
AcDbDictionary
280
     1
281
     1
  3
ACAD_MLATT
360
A6E
  3
ACAD_XREC_ROUNDTRIP
360
A6D
  0
DICTIONARY
  5
A6F
330
28A
100
AcDbDictionary
280
     1
281
     1
  3
ACAD_MLATT
360
A71
  3
ACAD_XREC_ROUNDTRIP
360
A70
  0
DICTIONARY
  5
A72
330
28B
100
AcDbDictionary
280
     1
281
     1
  3
ACAD_MLATT
360
A74
  3
ACAD_XREC_ROUNDTRIP
360
A73
  0
DICTIONARY
  5
A75
330
28D
100
AcDbDictionary
280
     1
281
     1
  3
ACAD_MLATT
360
A77
  3
ACAD_XREC_ROUNDTRIP
360
A76
  0
DICTIONARY
  5
A78
330
28E
100
AcDbDictionary
280
     1
281
     1
  3
ACAD_MLATT
360
A7A
  3
ACAD_XREC_ROUNDTRIP
360
A79
  0
DICTIONARY
  5
A7B
330
28F
100
AcDbDictionary
280
     1
281
     1
  3
ACAD_MLATT
360
A7D
  3
ACAD_XREC_ROUNDTRIP
360
A7C
  0
DICTIONARY
  5
A7E
330
290
100
AcDbDictionary
280
     1
281
     1
  3
ACAD_MLATT
360
A80
  3
ACAD_XREC_ROUNDTRIP
360
A7F
  0
DICTIONARY
  5
A81
330
291
100
AcDbDictionary
280
     1
281
     1
  3
ACAD_MLATT
360
A83
  3
ACAD_XREC_ROUNDTRIP
360
A82
  0
DICTIONARY
  5
A84
330
292
100
AcDbDictionary
280
     1
281
     1
  3
ACAD_MLATT
360
A86
  3
ACAD_XREC_ROUNDTRIP
360
A85
  0
DICTIONARY
  5
A87
330
293
100
AcDbDictionary
280
     1
281
     1
  3
ACAD_MLATT
360
A89
  3
ACAD_XREC_ROUNDTRIP
360
A88
  0
DICTIONARY
  5
A8A
330
294
100
AcDbDictionary
280
     1
281
     1
  3
ACAD_MLATT
360
A8C
  3
ACAD_XREC_ROUNDTRIP
360
A8B
  0
DICTIONARY
  5
A8D
330
295
100
AcDbDictionary
280
     1
281
     1
  3
ACAD_MLATT
360
A8F
  3
ACAD_XREC_ROUNDTRIP
360
A8E
  0
DICTIONARY
  5
A90
330
296
100
AcDbDictionary
280
     1
281
     1
  3
ACAD_MLATT
360
A92
  3
ACAD_XREC_ROUNDTRIP
360
A91
  0
DICTIONARY
  5
A93
330
297
100
AcDbDictionary
280
     1
281
     1
  3
ACAD_MLATT
360
A95
  3
ACAD_XREC_ROUNDTRIP
360
A94
  0
DICTIONARY
  5
A96
330
298
100
AcDbDictionary
280
     1
281
     1
  3
ACAD_MLATT
360
A98
  3
ACAD_XREC_ROUNDTRIP
360
A97
  0
DICTIONARY
  5
A99
330
299
100
AcDbDictionary
280
     1
281
     1
  3
ACAD_MLATT
360
A9B
  3
ACAD_XREC_ROUNDTRIP
360
A9A
  0
DICTIONARY
  5
A9C
330
29A
100
AcDbDictionary
280
     1
281
     1
  3
ACAD_MLATT
360
A9E
  3
ACAD_XREC_ROUNDTRIP
360
A9D
  0
DICTIONARY
  5
A9F
330
29B
100
AcDbDictionary
280
     1
281
     1
  3
ACAD_MLATT
360
AA1
  3
ACAD_XREC_ROUNDTRIP
360
AA0
  0
DICTIONARY
  5
6E
102
{ACAD_REACTORS
330
C
102
}
330
C
100
AcDbDictionary
281
     1
  0
DICTIONARY
  5
D
102
{ACAD_REACTORS
330
C
102
}
330
C
100
AcDbDictionary
281
     1
  0
DICTIONARY
  5
6D
102
{ACAD_REACTORS
330
C
102
}
330
C
100
AcDbDictionary
281
     1
  3
Layout1
350
76
  3
Layout2
350
7E
  3
Model
350
7A
  0
DICTIONARY
  5
10
102
{ACAD_REACTORS
330
C
102
}
330
C
100
AcDbDictionary
281
     1
  3
ByBlock
350
19
  3
ByLayer
350
11
  3
Global
350
21
  0
DICTIONARY
  5
71
102
{ACAD_REACTORS
330
C
102
}
330
C
100
AcDbDictionary
281
     1
  3
Standard
350
72
  0
DICTIONARY
  5
6A
102
{ACAD_REACTORS
330
C
102
}
330
C
100
AcDbDictionary
281
     1
  3
Standard
350
6B
  0
DICTIONARY
  5
6C
102
{ACAD_REACTORS
330
C
102
}
330
C
100
AcDbDictionary
281
     1
  0
ACDBDICTIONARYWDFLT
  5
E
102
{ACAD_REACTORS
330
C
102
}
330
C
100
AcDbDictionary
281
     1
  3
Normal
350
F
100
AcDbDictionaryWithDefault
340
F
  0
DICTIONARY
  5
3D
102
{ACAD_REACTORS
330
C
102
}
330
C
100
AcDbDictionary
281
     1
  3
A0
350
3E
  3
A1
350
3F
  3
A2
350
40
  3
A3
350
41
  3
A4
350
42
  3
A5
350
43
  3
A6
350
44
  3
A7
350
45
  3
A8
350
46
  3
A9
350
47
  3
B0
350
48
  3
B1
350
49
  3
B2
350
4A
  3
B3
350
4B
  3
B4
350
4C
  3
B5
350
4D
  3
B6
350
4E
  3
B7
350
4F
  3
B8
350
50
  3
B9
350
51
  3
C0
350
52
  3
C1
350
53
  3
C2
350
54
  3
C3
350
55
  3
C4
350
56
  3
C5
350
57
  3
C6
350
58
  3
C7
350
59
  3
C8
350
5A
  3
C9
350
5B
  3
D0
350
5C
  3
D1
350
5D
  3
D2
350
5E
  0
DICTIONARY
  5
6F
102
{ACAD_REACTORS
330
C
102
}
330
C
100
AcDbDictionary
281
     1
  3
Standard
350
70
  0
DICTIONARY
  5
29
102
{ACAD_REACTORS
330
C
102
}
330
C
100
AcDbDictionary
281
     1
  3
2dWireframe
350
2F
  3
3D Hidden
350
31
  3
3dWireframe
350
30
  3
Basic
350
2E
  3
Brighten
350
35
  3
ColorChange
350
39
  3
Conceptual
350
32
  3
Dim
350
34
  3
EdgeColorOff
350
3C
  3
Facepattern
350
38
  3
Flat
350
2A
  3
FlatWithEdges
350
2B
  3
Gouraud
350
2C
  3
GouraudWithEdges
350
2D
  3
JitterOff
350
3A
  3
Linepattern
350
37
  3
OverhangOff
350
3B
  3
Realistic
350
33
  3
Thicken
350
36
  0
XRECORD
  5
AA2
102
{ACAD_REACTORS
330
C
102
}
330
C
100
AcDbXrecord
280
     1
 90
        1
330
70
330
253
330
256
330
257
330
258
330
259
330
25A
330
25C
330
25D
330
25E
330
260
330
262
330
264
330
265
330
267
330
269
330
26B
330
26C
330
26D
330
26E
330
26F
330
270
330
272
330
274
330
276
330
277
330
278
330
27A
330
27C
330
27F
330
280
330
281
330
282
330
283
330
284
330
285
330
286
330
287
330
288
330
289
330
28A
330
28B
330
28D
330
28E
330
28F
330
290
330
291
330
292
330
293
330
294
330
295
330
296
330
297
330
298
330
299
330
29A
330
29B
330
865
  0
DICTIONARY
  5
9F4
102
{ACAD_REACTORS
330
C
102
}
330
C
100
AcDbDictionary
281
     1
  3
CANNOSCALE
350
9F7
  3
CMLEADERSTYLE
350
9F6
  3
CTABLESTYLE
350
9F5
  0
XRECORD
  5
9FC
102
{ACAD_REACTORS
330
9FA
102
}
330
9FA
100
AcDbXrecord
280
     1
 70
     4
 70
     0
 70
     0
 40
1.0
  2
流用元図番
  1
Embedded Object
 10
18.00000054486772
 20
50.50000000000001
 30
0.0
 40
2.5
 41
0.0
 46
0.0
 71
     4
 72
     5
  1

  7
文字スタイル35
 73
     1
 44
1.0
  0
XRECORD
  5
9FB
102
{ACAD_REACTORS
330
9FA
102
}
330
9FA
100
AcDbXrecord
280
     1
102
ACAD_MATT_HEIGHT
140
2.5
  0
XRECORD
  5
9FF
102
{ACAD_REACTORS
330
9FD
102
}
330
9FD
100
AcDbXrecord
280
     1
 70
     4
 70
     0
 70
     0
 40
1.0
  2
<変更来歴B-COUNT>
  1
Embedded Object
 10
113.0
 20
49.00000000000002
 30
0.0
 40
2.5
 41
0.0
 46
0.0
 71
     5
 72
     5
  1

  7
文字スタイル35
 73
     1
 44
1.0
  0
XRECORD
  5
9FE
102
{ACAD_REACTORS
330
9FD
102
}
330
9FD
100
AcDbXrecord
280
     1
102
ACAD_MATT_HEIGHT
140
2.5
  0
XRECORD
  5
A02
102
{ACAD_REACTORS
330
A00
102
}
330
A00
100
AcDbXrecord
280
     1
 70
     4
 70
     0
 70
     0
 40
1.0
  2
<変更来歴C-COUNT>
  1
Embedded Object
 10
113.0
 20
55.0
 30
0.0
 40
2.5
 41
0.0
 46
0.0
 71
     5
 72
     5
  1

  7
文字スタイル35
 73
     1
 44
1.0
  0
XRECORD
  5
A01
102
{ACAD_REACTORS
330
A00
102
}
330
A00
100
AcDbXrecord
280
     1
102
ACAD_MATT_HEIGHT
140
2.5
  0
XRECORD
  5
A05
102
{ACAD_REACTORS
330
A03
102
}
330
A03
100
AcDbXrecord
280
     1
 70
     4
 70
     0
 70
     0
 40
1.0
  2
<変更来歴D-COUNT>
  1
Embedded Object
 10
113.0
 20
61.00000000000001
 30
0.0
 40
2.5
 41
0.0
 46
0.0
 71
     5
 72
     5
  1

  7
文字スタイル35
 73
     1
 44
1.0
  0
XRECORD
  5
A04
102
{ACAD_REACTORS
330
A03
102
}
330
A03
100
AcDbXrecord
280
     1
102
ACAD_MATT_HEIGHT
140
2.5
  0
XRECORD
  5
A08
102
{ACAD_REACTORS
330
A06
102
}
330
A06
100
AcDbXrecord
280
     1
 70
     4
 70
     0
 70
     0
 40
1.0
  2
<変更来歴D-DATE>
  1
Embedded Object
 10
127.0
 20
61.00000000000001
 30
0.0
 40
2.5
 41
0.0
 46
0.0
 71
     5
 72
     5
  1

  7
文字スタイル35
 73
     1
 44
1.0
  0
XRECORD
  5
A07
102
{ACAD_REACTORS
330
A06
102
}
330
A06
100
AcDbXrecord
280
     1
102
ACAD_MATT_HEIGHT
140
2.5
  0
XRECORD
  5
A0B
102
{ACAD_REACTORS
330
A09
102
}
330
A09
100
AcDbXrecord
280
     1
 70
     4
 70
     0
 70
     0
 40
1.0
  2
<変更来歴C-DATE>
  1
Embedded Object
 10
127.0
 20
55.0
 30
0.0
 40
2.5
 41
0.0
 46
0.0
 71
     5
 72
     5
  1

  7
文字スタイル35
 73
     1
 44
1.0
  0
XRECORD
  5
A0A
102
{ACAD_REACTORS
330
A09
102
}
330
A09
100
AcDbXrecord
280
     1
102
ACAD_MATT_HEIGHT
140
2.5
  0
XRECORD
  5
A0E
102
{ACAD_REACTORS
330
A0C
102
}
330
A0C
100
AcDbXrecord
280
     1
 70
     4
 70
     0
 70
     0
 40
1.0
  2
<変更来歴B-REMARKS>
  1
Embedded Object
 10
139.0
 20
49.00000000000002
 30
0.0
 40
2.5
 41
0.0
 46
0.0
 71
     4
 72
     5
  1
\W0.5000;
  7
文字スタイル211
 73
     1
 44
1.0
  0
XRECORD
  5
A0D
102
{ACAD_REACTORS
330
A0C
102
}
330
A0C
100
AcDbXrecord
280
     1
102
ACAD_MATT_HEIGHT
140
2.5
  0
XRECORD
  5
A11
102
{ACAD_REACTORS
330
A0F
102
}
330
A0F
100
AcDbXrecord
280
     1
 70
     4
 70
     0
 70
     0
 40
1.0
  2
<変更来歴C-REMARKS>
  1
Embedded Object
 10
139.0
 20
55.0
 30
0.0
 40
2.5
 41
0.0
 46
0.0
 71
     4
 72
     5
  1
\W0.5000;
  7
文字スタイル211
 73
     1
 44
1.0
  0
XRECORD
  5
A10
102
{ACAD_REACTORS
330
A0F
102
}
330
A0F
100
AcDbXrecord
280
     1
102
ACAD_MATT_HEIGHT
140
2.5
  0
XRECORD
  5
A14
102
{ACAD_REACTORS
330
A12
102
}
330
A12
100
AcDbXrecord
280
     1
 70
     4
 70
     0
 70
     0
 40
1.0
  2
<変更来歴D-REMARKS>
  1
Embedded Object
 10
139.0
 20
61.00000000000001
 30
0.0
 40
2.5
 41
0.0
 46
0.0
 71
     4
 72
     5
  1
\W0.5000;
  7
文字スタイル211
 73
     1
 44
1.0
  0
XRECORD
  5
A13
102
{ACAD_REACTORS
330
A12
102
}
330
A12
100
AcDbXrecord
280
     1
102
ACAD_MATT_HEIGHT
140
2.5
  0
XRECORD
  5
A17
102
{ACAD_REACTORS
330
A15
102
}
330
A15
100
AcDbXrecord
280
     1
 70
     4
 70
     0
 70
     0
 40
1.0
  2
シート_サイズ
  1
Embedded Object
 10
75.00000000000006
 20
41.00000000000001
 30
0.0
 40
4.199999868869781
 41
0.0
 46
0.0
 71
     5
 72
     5
  1
A3
  7
文字スタイル60
 73
     1
 44
1.0
  0
XRECORD
  5
A16
102
{ACAD_REACTORS
330
A15
102
}
330
A15
100
AcDbXrecord
280
     1
102
ACAD_MATT_HEIGHT
140
4.199999868869781
  0
XRECORD
  5
A1A
102
{ACAD_REACTORS
330
A18
102
}
330
A18
100
AcDbXrecord
280
     1
 70
     4
 70
     0
 70
     0
 40
1.0
  2
図面番号
  1
Embedded Object
 10
126.5
 20
5.500000000000007
 30
0.0
 40
5.099999904632568
 41
0.0
 46
0.0
 71
     5
 72
     5
  1
KZ2003-902A
  7
文字スタイル206
 73
     1
 44
1.0
  0
XRECORD
  5
A19
102
{ACAD_REACTORS
330
A18
102
}
330
A18
100
AcDbXrecord
280
     1
102
ACAD_MATT_HEIGHT
140
5.099999904632568
  0
XRECORD
  5
A1D
102
{ACAD_REACTORS
330
A1B
102
}
330
A1B
100
AcDbXrecord
280
     1
 70
     4
 70
     0
 70
     0
 40
1.0
  2
<尺度>
  1
Embedded Object
 10
89.00000000000003
 20
21.5
 30
0.0
 40
2.70000010728836
 41
0.0
 46
0.0
 71
     5
 72
     5
  1
1:1
  7
文字スタイル205
 73
     1
 44
1.0
  0
XRECORD
  5
A1C
102
{ACAD_REACTORS
330
A1B
102
}
330
A1B
100
AcDbXrecord
280
     1
102
ACAD_MATT_HEIGHT
140
2.70000010728836
  0
XRECORD
  5
A20
102
{ACAD_REACTORS
330
A1E
102
}
330
A1E
100
AcDbXrecord
280
     1
 70
     4
 70
     0
 70
     0
 40
1.0
  2
作成日
  1
Embedded Object
 10
89.00000000000003
 20
14.50000000000001
 30
0.0
 40
2.5
 41
0.0
 46
0.0
 71
     5
 72
     5
  1
2013/04/18
  7
文字スタイル35
 73
     1
 44
1.0
  0
XRECORD
  5
A1F
102
{ACAD_REACTORS
330
A1E
102
}
330
A1E
100
AcDbXrecord
280
     1
102
ACAD_MATT_HEIGHT
140
2.5
  0
XRECORD
  5
A23
102
{ACAD_REACTORS
330
A21
102
}
330
A21
100
AcDbXrecord
280
     1
 70
     4
 70
     0
 70
     0
 40
1.0
  2
タイトル
  1
Embedded Object
 10
138.0
 20
19.00000000000001
 30
0.0
 40
4.300000071525573
 41
0.0
 46
0.0
 71
     5
 72
     5
  1
VSM-Ｇ-L-5-50
  7
文字スタイル207
 73
     1
 44
1.0
  0
XRECORD
  5
A22
102
{ACAD_REACTORS
330
A21
102
}
330
A21
100
AcDbXrecord
280
     1
102
ACAD_MATT_HEIGHT
140
4.300000071525573
  0
XRECORD
  5
A26
102
{ACAD_REACTORS
330
A24
102
}
330
A24
100
AcDbXrecord
280
     1
 70
     4
 70
     0
 70
     0
 40
1.0
  2
<サブタイトル>
  1
Embedded Object
 10
138.0
 20
26.00000000000001
 30
0.0
 40
2.800000011920928
 41
0.0
 46
0.0
 71
     5
 72
     5
  1
外観図
  7
文字スタイル208
 73
     1
 44
1.0
  0
XRECORD
  5
A25
102
{ACAD_REACTORS
330
A24
102
}
330
A24
100
AcDbXrecord
280
     1
102
ACAD_MATT_HEIGHT
140
2.800000011920928
  0
XRECORD
  5
A29
102
{ACAD_REACTORS
330
A27
102
}
330
A27
100
AcDbXrecord
280
     1
 70
     4
 70
     0
 70
     0
 40
1.0
  2
<変更来歴B-MARK>
  1
Embedded Object
 10
104.25
 20
48.50000000000001
 30
0.0
 40
1.800000071525573
 41
0.0
 46
0.0
 71
     5
 72
     5
  1
B
  7
文字スタイル107
 73
     1
 44
1.0
  0
XRECORD
  5
A28
102
{ACAD_REACTORS
330
A27
102
}
330
A27
100
AcDbXrecord
280
     1
102
ACAD_MATT_HEIGHT
140
1.800000071525573
  0
XRECORD
  5
A2C
102
{ACAD_REACTORS
330
A2A
102
}
330
A2A
100
AcDbXrecord
280
     1
 70
     4
 70
     0
 70
     0
 40
1.0
  2
<変更来歴C-MARK>
  1
Embedded Object
 10
104.25
 20
54.50000000000001
 30
0.0
 40
1.800000071525573
 41
0.0
 46
0.0
 71
     5
 72
     5
  1
C
  7
文字スタイル107
 73
     1
 44
1.0
  0
XRECORD
  5
A2B
102
{ACAD_REACTORS
330
A2A
102
}
330
A2A
100
AcDbXrecord
280
     1
102
ACAD_MATT_HEIGHT
140
1.800000071525573
  0
XRECORD
  5
A2F
102
{ACAD_REACTORS
330
A2D
102
}
330
A2D
100
AcDbXrecord
280
     1
 70
     4
 70
     0
 70
     0
 40
1.0
  2
<変更来歴D-MARK>
  1
Embedded Object
 10
104.25
 20
60.5
 30
0.0
 40
1.800000071525573
 41
0.0
 46
0.0
 71
     5
 72
     5
  1
D
  7
文字スタイル107
 73
     1
 44
1.0
  0
XRECORD
  5
A2E
102
{ACAD_REACTORS
330
A2D
102
}
330
A2D
100
AcDbXrecord
280
     1
102
ACAD_MATT_HEIGHT
140
1.800000071525573
  0
XRECORD
  5
A32
102
{ACAD_REACTORS
330
A30
102
}
330
A30
100
AcDbXrecord
280
     1
 70
     4
 70
     0
 70
     0
 40
1.0
  2
<変更来歴B-DATE>
  1
Embedded Object
 10
127.0
 20
49.00000000000002
 30
0.0
 40
2.5
 41
0.0
 46
0.0
 71
     5
 72
     5
  1

  7
文字スタイル35
 73
     1
 44
1.0
  0
XRECORD
  5
A31
102
{ACAD_REACTORS
330
A30
102
}
330
A30
100
AcDbXrecord
280
     1
102
ACAD_MATT_HEIGHT
140
2.5
  0
XRECORD
  5
A35
102
{ACAD_REACTORS
330
A33
102
}
330
A33
100
AcDbXrecord
280
     1
 70
     4
 70
     0
 70
     0
 40
1.0
  2
<貼DWG.No>
  1
Embedded Object
 10
20.00000054486773
 20
57.25000000000001
 30
0.0
 40
2.5
 41
0.0
 46
0.0
 71
     4
 72
     5
  1

  7
文字スタイル35
 73
     1
 44
1.0
  0
XRECORD
  5
A34
102
{ACAD_REACTORS
330
A33
102
}
330
A33
100
AcDbXrecord
280
     1
102
ACAD_MATT_HEIGHT
140
2.5
  0
XRECORD
  5
A38
102
{ACAD_REACTORS
330
A36
102
}
330
A36
100
AcDbXrecord
280
     1
 70
     4
 70
     0
 70
     0
 40
1.0
  2
<貼DATE>
  1
Embedded Object
 10
63.75
 20
57.25000000000001
 30
0.0
 40
2.5
 41
0.0
 46
0.0
 71
     5
 72
     5
  1

  7
文字スタイル35
 73
     1
 44
1.0
  0
XRECORD
  5
A37
102
{ACAD_REACTORS
330
A36
102
}
330
A36
100
AcDbXrecord
280
     1
102
ACAD_MATT_HEIGHT
140
2.5
  0
XRECORD
  5
A3B
102
{ACAD_REACTORS
330
A39
102
}
330
A39
100
AcDbXrecord
280
     1
 70
     4
 70
     0
 70
     0
 40
1.0
  2
<貼NAME>
  1
Embedded Object
 10
88.37500000000003
 20
57.25000000000001
 30
0.0
 40
2.300000041723251
 41
0.0
 46
0.0
 71
     5
 72
     5
  1

  7
文字スタイル204
 73
     1
 44
1.0
  0
XRECORD
  5
A3A
102
{ACAD_REACTORS
330
A39
102
}
330
A39
100
AcDbXrecord
280
     1
102
ACAD_MATT_HEIGHT
140
2.300000041723251
  0
XRECORD
  5
A3E
102
{ACAD_REACTORS
330
A3C
102
}
330
A3C
100
AcDbXrecord
280
     1
 70
     4
 70
     0
 70
     0
 40
1.0
  2
重量
  1
Embedded Object
 10
90.50000000000004
 20
50.50000000000001
 30
0.0
 40
3.000000119209289
 41
0.0
 46
0.0
 71
     5
 72
     5
  1
0.103 kg
  7
文字スタイル32
 73
     1
 44
1.0
  0
XRECORD
  5
A3D
102
{ACAD_REACTORS
330
A3C
102
}
330
A3C
100
AcDbXrecord
280
     1
102
ACAD_MATT_HEIGHT
140
3.000000119209289
  0
XRECORD
  5
A41
102
{ACAD_REACTORS
330
A3F
102
}
330
A3F
100
AcDbXrecord
280
     1
 70
     4
 70
     0
 70
     0
 40
1.0
  2
製図欄2
  1
Embedded Object
 10
56.00000000000001
 20
19.00000000000001
 30
0.0
 40
2.399999946355819
 41
0.0
 46
0.0
 71
     5
 72
     5
  1

  7
文字スタイル228
 73
     1
 44
1.5
  0
XRECORD
  5
A40
102
{ACAD_REACTORS
330
A3F
102
}
330
A3F
100
AcDbXrecord
280
     1
102
ACAD_MATT_HEIGHT
140
2.399999946355819
  0
XRECORD
  5
A44
102
{ACAD_REACTORS
330
A42
102
}
330
A42
100
AcDbXrecord
280
     1
 70
     4
 70
     0
 70
     0
 40
1.0
  2
製図者
  1
Embedded Object
 10
56.00000000000001
 20
15.00000000000001
 30
0.0
 40
2.399999946355819
 41
0.0
 46
0.0
 71
     5
 72
     5
  1

  7
文字スタイル228
 73
     1
 44
1.5
  0
XRECORD
  5
A43
102
{ACAD_REACTORS
330
A42
102
}
330
A42
100
AcDbXrecord
280
     1
102
ACAD_MATT_HEIGHT
140
2.399999946355819
  0
XRECORD
  5
A47
102
{ACAD_REACTORS
330
A45
102
}
330
A45
100
AcDbXrecord
280
     1
 70
     4
 70
     0
 70
     0
 40
1.0
  2
製図欄1
  1
Embedded Object
 10
56.00000000000001
 20
23.00000000000002
 30
0.0
 40
2.399999946355819
 41
0.0
 46
0.0
 71
     5
 72
     5
  1

  7
文字スタイル228
 73
     1
 44
1.5
  0
XRECORD
  5
A46
102
{ACAD_REACTORS
330
A45
102
}
330
A45
100
AcDbXrecord
280
     1
102
ACAD_MATT_HEIGHT
140
2.399999946355819
  0
XRECORD
  5
A4A
102
{ACAD_REACTORS
330
A48
102
}
330
A48
100
AcDbXrecord
280
     1
 70
     4
 70
     0
 70
     0
 40
1.0
  2
シートの数
  1
Embedded Object
 10
173.0
 20
3.0
 30
0.0
 40
3.000000119209289
 41
0.0
 46
0.0
 71
     5
 72
     5
  1
1 
  7
文字スタイル117
 73
     1
 44
1.5
  0
XRECORD
  5
A49
102
{ACAD_REACTORS
330
A48
102
}
330
A48
100
AcDbXrecord
280
     1
102
ACAD_MATT_HEIGHT
140
3.000000119209289
  0
XRECORD
  5
A4D
102
{ACAD_REACTORS
330
A4B
102
}
330
A4B
100
AcDbXrecord
280
     1
 70
     4
 70
     0
 70
     0
 40
1.0
  2
シート番号
  1
Embedded Object
 10
168.5
 20
8.000000000000014
 30
0.0
 40
3.000000119209289
 41
0.0
 46
0.0
 71
     5
 72
     5
  1
1 
  7
文字スタイル117
 73
     1
 44
1.5
  0
XRECORD
  5
A4C
102
{ACAD_REACTORS
330
A4B
102
}
330
A4B
100
AcDbXrecord
280
     1
102
ACAD_MATT_HEIGHT
140
3.000000119209289
  0
XRECORD
  5
A50
102
{ACAD_REACTORS
330
A4E
102
}
330
A4E
100
AcDbXrecord
280
     1
 70
     2
 70
     0
 70
     0
 40
1.0
  2
流用元図番
  1
Embedded Object
 10
253.0000005448673
 20
60.49999999999965
 30
0.0
 40
2.5
 41
0.0
 46
0.0
 71
     4
 72
     5
  1

  7
文字スタイル35
 73
     1
 44
1.0
  0
XRECORD
  5
A4F
102
{ACAD_REACTORS
330
A4E
102
}
330
A4E
100
AcDbXrecord
280
     1
102
ACAD_MATT_HEIGHT
140
2.5
  0
XRECORD
  5
A53
102
{ACAD_REACTORS
330
A51
102
}
330
A51
100
AcDbXrecord
280
     1
 70
     2
 70
     0
 70
     0
 40
1.0
  2
<変更来歴B-COUNT>
  1
Embedded Object
 10
347.9999999999995
 20
58.99999999999963
 30
0.0
 40
2.5
 41
0.0
 46
0.0
 71
     5
 72
     5
  1

  7
文字スタイル35
 73
     1
 44
1.0
  0
XRECORD
  5
A52
102
{ACAD_REACTORS
330
A51
102
}
330
A51
100
AcDbXrecord
280
     1
102
ACAD_MATT_HEIGHT
140
2.5
  0
XRECORD
  5
A56
102
{ACAD_REACTORS
330
A54
102
}
330
A54
100
AcDbXrecord
280
     1
 70
     2
 70
     0
 70
     0
 40
1.0
  2
<変更来歴C-COUNT>
  1
Embedded Object
 10
347.9999999999995
 20
64.99999999999963
 30
0.0
 40
2.5
 41
0.0
 46
0.0
 71
     5
 72
     5
  1

  7
文字スタイル35
 73
     1
 44
1.0
  0
XRECORD
  5
A55
102
{ACAD_REACTORS
330
A54
102
}
330
A54
100
AcDbXrecord
280
     1
102
ACAD_MATT_HEIGHT
140
2.5
  0
XRECORD
  5
A59
102
{ACAD_REACTORS
330
A57
102
}
330
A57
100
AcDbXrecord
280
     1
 70
     2
 70
     0
 70
     0
 40
1.0
  2
<変更来歴D-COUNT>
  1
Embedded Object
 10
347.9999999999995
 20
70.99999999999965
 30
0.0
 40
2.5
 41
0.0
 46
0.0
 71
     5
 72
     5
  1

  7
文字スタイル35
 73
     1
 44
1.0
  0
XRECORD
  5
A58
102
{ACAD_REACTORS
330
A57
102
}
330
A57
100
AcDbXrecord
280
     1
102
ACAD_MATT_HEIGHT
140
2.5
  0
XRECORD
  5
A5C
102
{ACAD_REACTORS
330
A5A
102
}
330
A5A
100
AcDbXrecord
280
     1
 70
     2
 70
     0
 70
     0
 40
1.0
  2
<変更来歴D-DATE>
  1
Embedded Object
 10
361.9999999999996
 20
70.99999999999965
 30
0.0
 40
2.5
 41
0.0
 46
0.0
 71
     5
 72
     5
  1

  7
文字スタイル35
 73
     1
 44
1.0
  0
XRECORD
  5
A5B
102
{ACAD_REACTORS
330
A5A
102
}
330
A5A
100
AcDbXrecord
280
     1
102
ACAD_MATT_HEIGHT
140
2.5
  0
XRECORD
  5
A5F
102
{ACAD_REACTORS
330
A5D
102
}
330
A5D
100
AcDbXrecord
280
     1
 70
     2
 70
     0
 70
     0
 40
1.0
  2
<変更来歴C-DATE>
  1
Embedded Object
 10
361.9999999999996
 20
64.99999999999963
 30
0.0
 40
2.5
 41
0.0
 46
0.0
 71
     5
 72
     5
  1

  7
文字スタイル35
 73
     1
 44
1.0
  0
XRECORD
  5
A5E
102
{ACAD_REACTORS
330
A5D
102
}
330
A5D
100
AcDbXrecord
280
     1
102
ACAD_MATT_HEIGHT
140
2.5
  0
XRECORD
  5
A62
102
{ACAD_REACTORS
330
A60
102
}
330
A60
100
AcDbXrecord
280
     1
 70
     2
 70
     0
 70
     0
 40
1.0
  2
<変更来歴B-REMARKS>
  1
Embedded Object
 10
373.9999999999995
 20
58.99999999999963
 30
0.0
 40
2.5
 41
0.0
 46
0.0
 71
     4
 72
     5
  1
\W0.5000;
  7
文字スタイル211
 73
     1
 44
1.0
  0
XRECORD
  5
A61
102
{ACAD_REACTORS
330
A60
102
}
330
A60
100
AcDbXrecord
280
     1
102
ACAD_MATT_HEIGHT
140
2.5
  0
XRECORD
  5
A65
102
{ACAD_REACTORS
330
A63
102
}
330
A63
100
AcDbXrecord
280
     1
 70
     2
 70
     0
 70
     0
 40
1.0
  2
<変更来歴C-REMARKS>
  1
Embedded Object
 10
373.9999999999995
 20
64.99999999999963
 30
0.0
 40
2.5
 41
0.0
 46
0.0
 71
     4
 72
     5
  1
\W0.5000;
  7
文字スタイル211
 73
     1
 44
1.0
  0
XRECORD
  5
A64
102
{ACAD_REACTORS
330
A63
102
}
330
A63
100
AcDbXrecord
280
     1
102
ACAD_MATT_HEIGHT
140
2.5
  0
XRECORD
  5
A68
102
{ACAD_REACTORS
330
A66
102
}
330
A66
100
AcDbXrecord
280
     1
 70
     2
 70
     0
 70
     0
 40
1.0
  2
<変更来歴D-REMARKS>
  1
Embedded Object
 10
373.9999999999995
 20
70.99999999999965
 30
0.0
 40
2.5
 41
0.0
 46
0.0
 71
     4
 72
     5
  1
\W0.5000;
  7
文字スタイル211
 73
     1
 44
1.0
  0
XRECORD
  5
A67
102
{ACAD_REACTORS
330
A66
102
}
330
A66
100
AcDbXrecord
280
     1
102
ACAD_MATT_HEIGHT
140
2.5
  0
XRECORD
  5
A6B
102
{ACAD_REACTORS
330
A69
102
}
330
A69
100
AcDbXrecord
280
     1
 70
     2
 70
     0
 70
     0
 40
1.0
  2
シート_サイズ
  1
Embedded Object
 10
309.9999999999996
 20
50.99999999999965
 30
0.0
 40
4.199999868869781
 41
0.0
 46
0.0
 71
     5
 72
     5
  1
A3
  7
文字スタイル60
 73
     1
 44
1.0
  0
XRECORD
  5
A6A
102
{ACAD_REACTORS
330
A69
102
}
330
A69
100
AcDbXrecord
280
     1
102
ACAD_MATT_HEIGHT
140
4.199999868869781
  0
XRECORD
  5
A6E
102
{ACAD_REACTORS
330
A6C
102
}
330
A6C
100
AcDbXrecord
280
     1
 70
     2
 70
     0
 70
     0
 40
1.0
  2
図面番号
  1
Embedded Object
 10
361.4999999999997
 20
15.49999999999963
 30
0.0
 40
5.099999904632568
 41
0.0
 46
0.0
 71
     5
 72
     5
  1
KZ2003-902A
  7
文字スタイル206
 73
     1
 44
1.0
  0
XRECORD
  5
A6D
102
{ACAD_REACTORS
330
A6C
102
}
330
A6C
100
AcDbXrecord
280
     1
102
ACAD_MATT_HEIGHT
140
5.099999904632568
  0
XRECORD
  5
A71
102
{ACAD_REACTORS
330
A6F
102
}
330
A6F
100
AcDbXrecord
280
     1
 70
     2
 70
     0
 70
     0
 40
1.0
  2
<尺度>
  1
Embedded Object
 10
323.9999999999997
 20
31.49999999999963
 30
0.0
 40
2.70000010728836
 41
0.0
 46
0.0
 71
     5
 72
     5
  1
1:1
  7
文字スタイル205
 73
     1
 44
1.0
  0
XRECORD
  5
A70
102
{ACAD_REACTORS
330
A6F
102
}
330
A6F
100
AcDbXrecord
280
     1
102
ACAD_MATT_HEIGHT
140
2.70000010728836
  0
XRECORD
  5
A74
102
{ACAD_REACTORS
330
A72
102
}
330
A72
100
AcDbXrecord
280
     1
 70
     2
 70
     0
 70
     0
 40
1.0
  2
作成日
  1
Embedded Object
 10
323.9999999999997
 20
24.49999999999964
 30
0.0
 40
2.5
 41
0.0
 46
0.0
 71
     5
 72
     5
  1
2013/04/18
  7
文字スタイル35
 73
     1
 44
1.0
  0
XRECORD
  5
A73
102
{ACAD_REACTORS
330
A72
102
}
330
A72
100
AcDbXrecord
280
     1
102
ACAD_MATT_HEIGHT
140
2.5
  0
XRECORD
  5
A77
102
{ACAD_REACTORS
330
A75
102
}
330
A75
100
AcDbXrecord
280
     1
 70
     2
 70
     0
 70
     0
 40
1.0
  2
タイトル
  1
Embedded Object
 10
372.9999999999995
 20
28.99999999999964
 30
0.0
 40
4.300000071525573
 41
0.0
 46
0.0
 71
     5
 72
     5
  1
VSM-Ｇ-L-5-50
  7
文字スタイル207
 73
     1
 44
1.0
  0
XRECORD
  5
A76
102
{ACAD_REACTORS
330
A75
102
}
330
A75
100
AcDbXrecord
280
     1
102
ACAD_MATT_HEIGHT
140
4.300000071525573
  0
XRECORD
  5
A7A
102
{ACAD_REACTORS
330
A78
102
}
330
A78
100
AcDbXrecord
280
     1
 70
     2
 70
     0
 70
     0
 40
1.0
  2
<サブタイトル>
  1
Embedded Object
 10
372.9999999999995
 20
35.99999999999963
 30
0.0
 40
2.800000011920928
 41
0.0
 46
0.0
 71
     5
 72
     5
  1
外観図
  7
文字スタイル208
 73
     1
 44
1.0
  0
XRECORD
  5
A79
102
{ACAD_REACTORS
330
A78
102
}
330
A78
100
AcDbXrecord
280
     1
102
ACAD_MATT_HEIGHT
140
2.800000011920928
  0
XRECORD
  5
A7D
102
{ACAD_REACTORS
330
A7B
102
}
330
A7B
100
AcDbXrecord
280
     1
 70
     2
 70
     0
 70
     0
 40
1.0
  2
<変更来歴B-MARK>
  1
Embedded Object
 10
339.2499999999996
 20
58.49999999999965
 30
0.0
 40
1.800000071525573
 41
0.0
 46
0.0
 71
     5
 72
     5
  1
B
  7
文字スタイル107
 73
     1
 44
1.0
  0
XRECORD
  5
A7C
102
{ACAD_REACTORS
330
A7B
102
}
330
A7B
100
AcDbXrecord
280
     1
102
ACAD_MATT_HEIGHT
140
1.800000071525573
  0
XRECORD
  5
A80
102
{ACAD_REACTORS
330
A7E
102
}
330
A7E
100
AcDbXrecord
280
     1
 70
     2
 70
     0
 70
     0
 40
1.0
  2
<変更来歴C-MARK>
  1
Embedded Object
 10
339.2499999999996
 20
64.49999999999963
 30
0.0
 40
1.800000071525573
 41
0.0
 46
0.0
 71
     5
 72
     5
  1
C
  7
文字スタイル107
 73
     1
 44
1.0
  0
XRECORD
  5
A7F
102
{ACAD_REACTORS
330
A7E
102
}
330
A7E
100
AcDbXrecord
280
     1
102
ACAD_MATT_HEIGHT
140
1.800000071525573
  0
XRECORD
  5
A83
102
{ACAD_REACTORS
330
A81
102
}
330
A81
100
AcDbXrecord
280
     1
 70
     2
 70
     0
 70
     0
 40
1.0
  2
<変更来歴D-MARK>
  1
Embedded Object
 10
339.2499999999996
 20
70.49999999999963
 30
0.0
 40
1.800000071525573
 41
0.0
 46
0.0
 71
     5
 72
     5
  1
D
  7
文字スタイル107
 73
     1
 44
1.0
  0
XRECORD
  5
A82
102
{ACAD_REACTORS
330
A81
102
}
330
A81
100
AcDbXrecord
280
     1
102
ACAD_MATT_HEIGHT
140
1.800000071525573
  0
XRECORD
  5
A86
102
{ACAD_REACTORS
330
A84
102
}
330
A84
100
AcDbXrecord
280
     1
 70
     2
 70
     0
 70
     0
 40
1.0
  2
<変更来歴B-DATE>
  1
Embedded Object
 10
361.9999999999996
 20
58.99999999999963
 30
0.0
 40
2.5
 41
0.0
 46
0.0
 71
     5
 72
     5
  1

  7
文字スタイル35
 73
     1
 44
1.0
  0
XRECORD
  5
A85
102
{ACAD_REACTORS
330
A84
102
}
330
A84
100
AcDbXrecord
280
     1
102
ACAD_MATT_HEIGHT
140
2.5
  0
XRECORD
  5
A89
102
{ACAD_REACTORS
330
A87
102
}
330
A87
100
AcDbXrecord
280
     1
 70
     2
 70
     0
 70
     0
 40
1.0
  2
<貼DWG.No>
  1
Embedded Object
 10
255.0000005448673
 20
67.24999999999965
 30
0.0
 40
2.5
 41
0.0
 46
0.0
 71
     4
 72
     5
  1

  7
文字スタイル35
 73
     1
 44
1.0
  0
XRECORD
  5
A88
102
{ACAD_REACTORS
330
A87
102
}
330
A87
100
AcDbXrecord
280
     1
102
ACAD_MATT_HEIGHT
140
2.5
  0
XRECORD
  5
A8C
102
{ACAD_REACTORS
330
A8A
102
}
330
A8A
100
AcDbXrecord
280
     1
 70
     2
 70
     0
 70
     0
 40
1.0
  2
<貼DATE>
  1
Embedded Object
 10
298.7499999999995
 20
67.24999999999965
 30
0.0
 40
2.5
 41
0.0
 46
0.0
 71
     5
 72
     5
  1

  7
文字スタイル35
 73
     1
 44
1.0
  0
XRECORD
  5
A8B
102
{ACAD_REACTORS
330
A8A
102
}
330
A8A
100
AcDbXrecord
280
     1
102
ACAD_MATT_HEIGHT
140
2.5
  0
XRECORD
  5
A8F
102
{ACAD_REACTORS
330
A8D
102
}
330
A8D
100
AcDbXrecord
280
     1
 70
     2
 70
     0
 70
     0
 40
1.0
  2
<貼NAME>
  1
Embedded Object
 10
323.3749999999997
 20
67.24999999999965
 30
0.0
 40
2.300000041723251
 41
0.0
 46
0.0
 71
     5
 72
     5
  1

  7
文字スタイル204
 73
     1
 44
1.0
  0
XRECORD
  5
A8E
102
{ACAD_REACTORS
330
A8D
102
}
330
A8D
100
AcDbXrecord
280
     1
102
ACAD_MATT_HEIGHT
140
2.300000041723251
  0
XRECORD
  5
A92
102
{ACAD_REACTORS
330
A90
102
}
330
A90
100
AcDbXrecord
280
     1
 70
     2
 70
     0
 70
     0
 40
1.0
  2
重量
  1
Embedded Object
 10
325.4999999999996
 20
60.49999999999965
 30
0.0
 40
3.000000119209289
 41
0.0
 46
0.0
 71
     5
 72
     5
  1
0.103 kg
  7
文字スタイル32
 73
     1
 44
1.0
  0
XRECORD
  5
A91
102
{ACAD_REACTORS
330
A90
102
}
330
A90
100
AcDbXrecord
280
     1
102
ACAD_MATT_HEIGHT
140
3.000000119209289
  0
XRECORD
  5
A95
102
{ACAD_REACTORS
330
A93
102
}
330
A93
100
AcDbXrecord
280
     1
 70
     2
 70
     0
 70
     0
 40
1.0
  2
製図欄2
  1
Embedded Object
 10
290.9999999999996
 20
28.99999999999963
 30
0.0
 40
2.399999946355819
 41
0.0
 46
0.0
 71
     5
 72
     5
  1

  7
文字スタイル228
 73
     1
 44
1.5
  0
XRECORD
  5
A94
102
{ACAD_REACTORS
330
A93
102
}
330
A93
100
AcDbXrecord
280
     1
102
ACAD_MATT_HEIGHT
140
2.399999946355819
  0
XRECORD
  5
A98
102
{ACAD_REACTORS
330
A96
102
}
330
A96
100
AcDbXrecord
280
     1
 70
     2
 70
     0
 70
     0
 40
1.0
  2
製図者
  1
Embedded Object
 10
290.9999999999996
 20
24.99999999999964
 30
0.0
 40
2.399999946355819
 41
0.0
 46
0.0
 71
     5
 72
     5
  1

  7
文字スタイル228
 73
     1
 44
1.5
  0
XRECORD
  5
A97
102
{ACAD_REACTORS
330
A96
102
}
330
A96
100
AcDbXrecord
280
     1
102
ACAD_MATT_HEIGHT
140
2.399999946355819
  0
XRECORD
  5
A9B
102
{ACAD_REACTORS
330
A99
102
}
330
A99
100
AcDbXrecord
280
     1
 70
     2
 70
     0
 70
     0
 40
1.0
  2
製図欄1
  1
Embedded Object
 10
290.9999999999996
 20
32.99999999999964
 30
0.0
 40
2.399999946355819
 41
0.0
 46
0.0
 71
     5
 72
     5
  1

  7
文字スタイル228
 73
     1
 44
1.5
  0
XRECORD
  5
A9A
102
{ACAD_REACTORS
330
A99
102
}
330
A99
100
AcDbXrecord
280
     1
102
ACAD_MATT_HEIGHT
140
2.399999946355819
  0
XRECORD
  5
A9E
102
{ACAD_REACTORS
330
A9C
102
}
330
A9C
100
AcDbXrecord
280
     1
 70
     2
 70
     0
 70
     0
 40
1.0
  2
シートの数
  1
Embedded Object
 10
407.9999999999995
 20
12.99999999999962
 30
0.0
 40
3.000000119209289
 41
0.0
 46
0.0
 71
     5
 72
     5
  1
1 
  7
文字スタイル117
 73
     1
 44
1.5
  0
XRECORD
  5
A9D
102
{ACAD_REACTORS
330
A9C
102
}
330
A9C
100
AcDbXrecord
280
     1
102
ACAD_MATT_HEIGHT
140
3.000000119209289
  0
XRECORD
  5
AA1
102
{ACAD_REACTORS
330
A9F
102
}
330
A9F
100
AcDbXrecord
280
     1
 70
     2
 70
     0
 70
     0
 40
1.0
  2
シート番号
  1
Embedded Object
 10
403.4999999999995
 20
17.99999999999964
 30
0.0
 40
3.000000119209289
 41
0.0
 46
0.0
 71
     5
 72
     5
  1
1 
  7
文字スタイル117
 73
     1
 44
1.5
  0
XRECORD
  5
AA0
102
{ACAD_REACTORS
330
A9F
102
}
330
A9F
100
AcDbXrecord
280
     1
102
ACAD_MATT_HEIGHT
140
3.000000119209289
  0
LAYOUT
  5
76
102
{ACAD_REACTORS
330
6D
102
}
330
6D
100
AcDbPlotSettings
  1

  2

  4

  6

 40
0.0
 41
0.0
 42
0.0
 43
0.0
 44
0.0
 45
0.0
 46
0.0
 47
0.0
 48
0.0
 49
0.0
140
0.0
141
0.0
142
1.0
143
1.0
 70
   688
 72
     0
 73
     0
 74
     5
  7

 75
    16
147
1.0
 76
     0
 77
     2
 78
   300
148
0.0
149
0.0
100
AcDbLayout
  1
Layout1
 70
     1
 71
     1
 10
0.0
 20
0.0
 11
12.0
 21
9.0
 12
0.0
 22
0.0
 32
0.0
 14
0.0
 24
0.0
 34
0.0
 15
0.0
 25
0.0
 35
0.0
146
0.0
 13
0.0
 23
0.0
 33
0.0
 16
1.0
 26
0.0
 36
0.0
 17
0.0
 27
1.0
 37
0.0
 76
     0
330
73
  0
LAYOUT
  5
7E
102
{ACAD_REACTORS
330
6D
102
}
330
6D
100
AcDbPlotSettings
  1

  2

  4

  6

 40
0.0
 41
0.0
 42
0.0
 43
0.0
 44
0.0
 45
0.0
 46
0.0
 47
0.0
 48
0.0
 49
0.0
140
0.0
141
0.0
142
1.0
143
1.0
 70
   688
 72
     0
 73
     0
 74
     5
  7

 75
    16
147
1.0
 76
     0
 77
     2
 78
   300
148
0.0
149
0.0
100
AcDbLayout
  1
Layout2
 70
     1
 71
     2
 10
0.0
 20
0.0
 11
12.0
 21
9.0
 12
0.0
 22
0.0
 32
0.0
 14
0.0
 24
0.0
 34
0.0
 15
0.0
 25
0.0
 35
0.0
146
0.0
 13
0.0
 23
0.0
 33
0.0
 16
1.0
 26
0.0
 36
0.0
 17
0.0
 27
1.0
 37
0.0
 76
     0
330
7B
  0
LAYOUT
  5
7A
102
{ACAD_REACTORS
330
6D
102
}
330
6D
100
AcDbPlotSettings
  1

  2

  4

  6

 40
0.0
 41
0.0
 42
0.0
 43
0.0
 44
0.0
 45
0.0
 46
0.0
 47
0.0
 48
0.0
 49
0.0
140
0.0
141
0.0
142
1.0
143
1.0
 70
  1712
 72
     0
 73
     0
 74
     0
  7

 75
     0
147
1.0
 76
     0
 77
     2
 78
   300
148
0.0
149
0.0
100
AcDbLayout
  1
Model
 70
     1
 71
     0
 10
0.0
 20
0.0
 11
12.0
 21
9.0
 12
0.0
 22
0.0
 32
0.0
 14
0.0
 24
0.0
 34
0.0
 15
0.0
 25
0.0
 35
0.0
146
0.0
 13
0.0
 23
0.0
 33
0.0
 16
1.0
 26
0.0
 36
0.0
 17
0.0
 27
1.0
 37
0.0
 76
     0
330
77
  0
MATERIAL
  5
19
102
{ACAD_XDICTIONARY
360
1A
102
}
102
{ACAD_REACTORS
330
10
102
}
330
10
100
AcDbMaterial
  1
ByBlock
 72
     0
 43
0.0208333333333333
 43
0.0
 43
0.0
 43
0.0
 43
0.0
 43
0.0208333333333333
 43
0.0
 43
0.0
 43
0.0
 43
0.0
 43
1.0
 43
0.0
 43
0.0
 43
0.0
 43
0.0
 43
1.0
 77
     0
 47
0.0208333333333333
 47
0.0
 47
0.0
 47
0.0
 47
0.0
 47
0.0208333333333333
 47
0.0
 47
0.0
 47
0.0
 47
0.0
 47
1.0
 47
0.0
 47
0.0
 47
0.0
 47
0.0
 47
1.0
171
     0
 49
0.0208333333333333
 49
0.0
 49
0.0
 49
0.0
 49
0.0
 49
0.0208333333333333
 49
0.0
 49
0.0
 49
0.0
 49
0.0
 49
1.0
 49
0.0
 49
0.0
 49
0.0
 49
0.0
 49
1.0
175
     0
142
0.0208333333333333
142
0.0
142
0.0
142
0.0
142
0.0
142
0.0208333333333333
142
0.0
142
0.0
142
0.0
142
0.0
142
1.0
142
0.0
142
0.0
142
0.0
142
0.0
142
1.0
179
     0
144
0.0208333333333333
144
0.0
144
0.0
144
0.0
144
0.0
144
0.0208333333333333
144
0.0
144
0.0
144
0.0
144
0.0
144
1.0
144
0.0
144
0.0
144
0.0
144
0.0
144
1.0
147
0.0208333333333333
147
0.0
147
0.0
147
0.0
147
0.0
147
0.0208333333333333
147
0.0
147
0.0
147
0.0
147
0.0
147
1.0
147
0.0
147
0.0
147
0.0
147
0.0
147
1.0
  0
MATERIAL
  5
11
102
{ACAD_XDICTIONARY
360
12
102
}
102
{ACAD_REACTORS
330
10
102
}
330
10
100
AcDbMaterial
  1
ByLayer
 72
     0
 43
0.0208333333333333
 43
0.0
 43
0.0
 43
0.0
 43
0.0
 43
0.0208333333333333
 43
0.0
 43
0.0
 43
0.0
 43
0.0
 43
1.0
 43
0.0
 43
0.0
 43
0.0
 43
0.0
 43
1.0
 77
     0
 47
0.0208333333333333
 47
0.0
 47
0.0
 47
0.0
 47
0.0
 47
0.0208333333333333
 47
0.0
 47
0.0
 47
0.0
 47
0.0
 47
1.0
 47
0.0
 47
0.0
 47
0.0
 47
0.0
 47
1.0
171
     0
 49
0.0208333333333333
 49
0.0
 49
0.0
 49
0.0
 49
0.0
 49
0.0208333333333333
 49
0.0
 49
0.0
 49
0.0
 49
0.0
 49
1.0
 49
0.0
 49
0.0
 49
0.0
 49
0.0
 49
1.0
175
     0
142
0.0208333333333333
142
0.0
142
0.0
142
0.0
142
0.0
142
0.0208333333333333
142
0.0
142
0.0
142
0.0
142
0.0
142
1.0
142
0.0
142
0.0
142
0.0
142
0.0
142
1.0
179
     0
144
0.0208333333333333
144
0.0
144
0.0
144
0.0
144
0.0
144
0.0208333333333333
144
0.0
144
0.0
144
0.0
144
0.0
144
1.0
144
0.0
144
0.0
144
0.0
144
0.0
144
1.0
147
0.0208333333333333
147
0.0
147
0.0
147
0.0
147
0.0
147
0.0208333333333333
147
0.0
147
0.0
147
0.0
147
0.0
147
1.0
147
0.0
147
0.0
147
0.0
147
0.0
147
1.0
  0
MATERIAL
  5
21
102
{ACAD_XDICTIONARY
360
22
102
}
102
{ACAD_REACTORS
330
10
102
}
330
10
100
AcDbMaterial
  1
Global
 72
     0
 43
0.0208333333333333
 43
0.0
 43
0.0
 43
0.0
 43
0.0
 43
0.0208333333333333
 43
0.0
 43
0.0
 43
0.0
 43
0.0
 43
1.0
 43
0.0
 43
0.0
 43
0.0
 43
0.0
 43
1.0
 77
     0
 47
0.0208333333333333
 47
0.0
 47
0.0
 47
0.0
 47
0.0
 47
0.0208333333333333
 47
0.0
 47
0.0
 47
0.0
 47
0.0
 47
1.0
 47
0.0
 47
0.0
 47
0.0
 47
0.0
 47
1.0
171
     0
 49
0.0208333333333333
 49
0.0
 49
0.0
 49
0.0
 49
0.0
 49
0.0208333333333333
 49
0.0
 49
0.0
 49
0.0
 49
0.0
 49
1.0
 49
0.0
 49
0.0
 49
0.0
 49
0.0
 49
1.0
175
     0
142
0.0208333333333333
142
0.0
142
0.0
142
0.0
142
0.0
142
0.0208333333333333
142
0.0
142
0.0
142
0.0
142
0.0
142
1.0
142
0.0
142
0.0
142
0.0
142
0.0
142
1.0
179
     0
144
0.0208333333333333
144
0.0
144
0.0
144
0.0
144
0.0
144
0.0208333333333333
144
0.0
144
0.0
144
0.0
144
0.0
144
1.0
144
0.0
144
0.0
144
0.0
144
0.0
144
1.0
147
0.0208333333333333
147
0.0
147
0.0
147
0.0
147
0.0
147
0.0208333333333333
147
0.0
147
0.0
147
0.0
147
0.0
147
1.0
147
0.0
147
0.0
147
0.0
147
0.0
147
1.0
  0
MLEADERSTYLE
  5
72
102
{ACAD_REACTORS
330
71
102
}
330
71
100
AcDbMLeaderStyle
179
     2
170
     2
171
     1
172
     0
 90
        2
 40
0.0
 41
0.0
173
     1
 91
-1056964608
340
66
 92
       -2
290
     1
 42
0.09
291
     1
 43
0.36
  3
Standard
 44
0.18
300

342
60
174
     1
178
     6
175
     1
176
     0
 93
-1056964608
 45
0.18
292
     0
297
     0
 46
0.18
 94
-1056964608
 47
1.0
 49
1.0
140
1.0
293
     1
141
0.0
294
     1
177
     0
142
1.0
295
     1
296
     0
143
0.125
271
     0
272
     9
273
     9
  0
MLINESTYLE
  5
6B
102
{ACAD_REACTORS
330
6A
102
}
330
6A
100
AcDbMlineStyle
  2
STANDARD
 70
     0
  3

 62
   256
 51
90.0
 52
90.0
 71
     2
 49
0.5
 62
   256
  6
BYLAYER
 49
-0.5
 62
   256
  6
BYLAYER
  0
ACDBPLACEHOLDER
  5
F
102
{ACAD_REACTORS
330
E
102
}
330
E
  0
SCALE
  5
3E
102
{ACAD_REACTORS
330
3D
102
}
330
3D
100
AcDbScale
 70
     0
300
1:1
140
1.0
141
1.0
290
     1
  0
SCALE
  5
3F
102
{ACAD_REACTORS
330
3D
102
}
330
3D
100
AcDbScale
 70
     0
300
1:2
140
1.0
141
2.0
290
     0
  0
SCALE
  5
40
102
{ACAD_REACTORS
330
3D
102
}
330
3D
100
AcDbScale
 70
     0
300
1:4
140
1.0
141
4.0
290
     0
  0
SCALE
  5
41
102
{ACAD_REACTORS
330
3D
102
}
330
3D
100
AcDbScale
 70
     0
300
1:5
140
1.0
141
5.0
290
     0
  0
SCALE
  5
42
102
{ACAD_REACTORS
330
3D
102
}
330
3D
100
AcDbScale
 70
     0
300
1:8
140
1.0
141
8.0
290
     0
  0
SCALE
  5
43
102
{ACAD_REACTORS
330
3D
102
}
330
3D
100
AcDbScale
 70
     0
300
1:10
140
1.0
141
10.0
290
     0
  0
SCALE
  5
44
102
{ACAD_REACTORS
330
3D
102
}
330
3D
100
AcDbScale
 70
     0
300
1:16
140
1.0
141
16.0
290
     0
  0
SCALE
  5
45
102
{ACAD_REACTORS
330
3D
102
}
330
3D
100
AcDbScale
 70
     0
300
1:20
140
1.0
141
20.0
290
     0
  0
SCALE
  5
46
102
{ACAD_REACTORS
330
3D
102
}
330
3D
100
AcDbScale
 70
     0
300
1:30
140
1.0
141
30.0
290
     0
  0
SCALE
  5
47
102
{ACAD_REACTORS
330
3D
102
}
330
3D
100
AcDbScale
 70
     0
300
1:40
140
1.0
141
40.0
290
     0
  0
SCALE
  5
48
102
{ACAD_REACTORS
330
3D
102
}
330
3D
100
AcDbScale
 70
     0
300
1:50
140
1.0
141
50.0
290
     0
  0
SCALE
  5
49
102
{ACAD_REACTORS
330
3D
102
}
330
3D
100
AcDbScale
 70
     0
300
1:100
140
1.0
141
100.0
290
     0
  0
SCALE
  5
4A
102
{ACAD_REACTORS
330
3D
102
}
330
3D
100
AcDbScale
 70
     0
300
2:1
140
2.0
141
1.0
290
     0
  0
SCALE
  5
4B
102
{ACAD_REACTORS
330
3D
102
}
330
3D
100
AcDbScale
 70
     0
300
4:1
140
4.0
141
1.0
290
     0
  0
SCALE
  5
4C
102
{ACAD_REACTORS
330
3D
102
}
330
3D
100
AcDbScale
 70
     0
300
8:1
140
8.0
141
1.0
290
     0
  0
SCALE
  5
4D
102
{ACAD_REACTORS
330
3D
102
}
330
3D
100
AcDbScale
 70
     0
300
10:1
140
10.0
141
1.0
290
     0
  0
SCALE
  5
4E
102
{ACAD_REACTORS
330
3D
102
}
330
3D
100
AcDbScale
 70
     0
300
100:1
140
100.0
141
1.0
290
     0
  0
SCALE
  5
4F
102
{ACAD_REACTORS
330
3D
102
}
330
3D
100
AcDbScale
 70
     0
300
1/128" = 1'-0"
140
0.0078125
141
12.0
290
     0
  0
SCALE
  5
50
102
{ACAD_REACTORS
330
3D
102
}
330
3D
100
AcDbScale
 70
     0
300
1/64" = 1'-0"
140
0.015625
141
12.0
290
     0
  0
SCALE
  5
51
102
{ACAD_REACTORS
330
3D
102
}
330
3D
100
AcDbScale
 70
     0
300
1/32" = 1'-0"
140
0.03125
141
12.0
290
     0
  0
SCALE
  5
52
102
{ACAD_REACTORS
330
3D
102
}
330
3D
100
AcDbScale
 70
     0
300
1/16" = 1'-0"
140
0.0625
141
12.0
290
     0
  0
SCALE
  5
53
102
{ACAD_REACTORS
330
3D
102
}
330
3D
100
AcDbScale
 70
     0
300
3/32" = 1'-0"
140
0.09375
141
12.0
290
     0
  0
SCALE
  5
54
102
{ACAD_REACTORS
330
3D
102
}
330
3D
100
AcDbScale
 70
     0
300
1/8" = 1'-0"
140
0.125
141
12.0
290
     0
  0
SCALE
  5
55
102
{ACAD_REACTORS
330
3D
102
}
330
3D
100
AcDbScale
 70
     0
300
3/16" = 1'-0"
140
0.1875
141
12.0
290
     0
  0
SCALE
  5
56
102
{ACAD_REACTORS
330
3D
102
}
330
3D
100
AcDbScale
 70
     0
300
1/4" = 1'-0"
140
0.25
141
12.0
290
     0
  0
SCALE
  5
57
102
{ACAD_REACTORS
330
3D
102
}
330
3D
100
AcDbScale
 70
     0
300
3/8" = 1'-0"
140
0.375
141
12.0
290
     0
  0
SCALE
  5
58
102
{ACAD_REACTORS
330
3D
102
}
330
3D
100
AcDbScale
 70
     0
300
1/2" = 1'-0"
140
0.5
141
12.0
290
     0
  0
SCALE
  5
59
102
{ACAD_REACTORS
330
3D
102
}
330
3D
100
AcDbScale
 70
     0
300
3/4" = 1'-0"
140
0.75
141
12.0
290
     0
  0
SCALE
  5
5A
102
{ACAD_REACTORS
330
3D
102
}
330
3D
100
AcDbScale
 70
     0
300
1" = 1'-0"
140
1.0
141
12.0
290
     0
  0
SCALE
  5
5B
102
{ACAD_REACTORS
330
3D
102
}
330
3D
100
AcDbScale
 70
     0
300
1-1/2" = 1'-0"
140
1.5
141
12.0
290
     0
  0
SCALE
  5
5C
102
{ACAD_REACTORS
330
3D
102
}
330
3D
100
AcDbScale
 70
     0
300
3" = 1'-0"
140
3.0
141
12.0
290
     0
  0
SCALE
  5
5D
102
{ACAD_REACTORS
330
3D
102
}
330
3D
100
AcDbScale
 70
     0
300
6" = 1'-0"
140
6.0
141
12.0
290
     0
  0
SCALE
  5
5E
102
{ACAD_REACTORS
330
3D
102
}
330
3D
100
AcDbScale
 70
     0
300
1'-0" = 1'-0"
140
12.0
141
12.0
290
     0
  0
TABLESTYLE
  5
70
102
{ACAD_XDICTIONARY
360
9F8
102
}
102
{ACAD_REACTORS
330
6F
102
}
330
6F
100
AcDbTableStyle
280
     0
  3
Standard
 70
     0
 71
     0
 40
0.06
 41
0.06
280
     0
281
     0
  7
Standard
140
0.18
170
     2
 62
     0
 63
     7
283
     0
 90
      512
 91
        0
  1

274
    -2
284
     1
 64
     0
275
    -2
285
     1
 65
     0
276
    -2
286
     1
 66
     0
277
    -2
287
     1
 67
     0
278
    -2
288
     1
 68
     0
279
    -2
289
     1
 69
     0
  7
Standard
140
0.25
170
     5
 62
     0
 63
     7
283
     0
 90
      512
 91
        0
  1

274
    -2
284
     1
 64
     0
275
    -2
285
     1
 65
     0
276
    -2
286
     1
 66
     0
277
    -2
287
     1
 67
     0
278
    -2
288
     1
 68
     0
279
    -2
289
     1
 69
     0
  7
Standard
140
0.18
170
     5
 62
     0
 63
     7
283
     0
 90
      512
 91
        0
  1

274
    -2
284
     1
 64
     0
275
    -2
285
     1
 65
     0
276
    -2
286
     1
 66
     0
277
    -2
287
     1
 67
     0
278
    -2
288
     1
 68
     0
279
    -2
289
     1
 69
     0
  0
VISUALSTYLE
  5
2F
102
{ACAD_REACTORS
330
29
102
}
330
29
100
AcDbVisualStyle
  2
2dWireframe
 70
     4
177
     2
291
     0
 71
     0
176
     1
 72
     2
176
     1
 73
     0
176
     1
 90
        0
176
     1
 40
0.6
176
     1
 41
30.0
176
     1
 63
     7
421
 16777215
176
     1
 74
     1
176
     1
 91
        4
176
     1
 64
     7
176
     1
 65
   257
176
     1
 75
     1
176
     1
175
     1
176
     1
 42
1.0
176
     1
 92
        0
176
     1
 66
   257
176
     1
 43
1.0
176
     1
 76
     1
176
     1
 77
     6
176
     1
 78
     2
176
     1
 67
     7
176
     1
 79
     5
176
     1
170
     0
176
     1
171
     0
176
     1
290
     0
176
     1
 93
        1
176
     1
 44
0.0
176
     1
173
     0
176
     1
  0
VISUALSTYLE
  5
31
102
{ACAD_REACTORS
330
29
102
}
330
29
100
AcDbVisualStyle
  2
3D Hidden
 70
     6
177
     2
291
     0
 71
     1
176
     1
 72
     2
176
     1
 73
     2
176
     1
 90
        0
176
     1
 40
0.6
176
     1
 41
30.0
176
     1
 63
     7
421
 16777215
176
     1
 74
     2
176
     1
 91
        2
176
     1
 64
     7
176
     1
 65
   257
176
     1
 75
     2
176
     1
175
     1
176
     1
 42
179.0
176
     1
 92
        0
176
     1
 66
   257
176
     1
 43
1.0
176
     1
 76
     1
176
     1
 77
     6
176
     1
 78
     2
176
     1
 67
     7
176
     1
 79
     3
176
     1
170
     0
176
     1
171
     0
176
     1
290
     0
176
     1
 93
        1
176
     1
 44
0.0
176
     1
173
     0
176
     1
  0
VISUALSTYLE
  5
30
102
{ACAD_REACTORS
330
29
102
}
330
29
100
AcDbVisualStyle
  2
3dWireframe
 70
     5
177
     2
291
     0
 71
     0
176
     1
 72
     2
176
     1
 73
     0
176
     1
 90
        0
176
     1
 40
0.6
176
     1
 41
30.0
176
     1
 63
     7
421
 16777215
176
     1
 74
     1
176
     1
 91
        4
176
     1
 64
     7
176
     1
 65
   257
176
     1
 75
     1
176
     1
175
     1
176
     1
 42
1.0
176
     1
 92
        0
176
     1
 66
   257
176
     1
 43
1.0
176
     1
 76
     1
176
     1
 77
     6
176
     1
 78
     2
176
     1
 67
     7
176
     1
 79
     5
176
     1
170
     0
176
     1
171
     0
176
     1
290
     0
176
     1
 93
        1
176
     1
 44
0.0
176
     1
173
     0
176
     1
  0
VISUALSTYLE
  5
2E
102
{ACAD_REACTORS
330
29
102
}
330
29
100
AcDbVisualStyle
  2
Basic
 70
     7
177
     2
291
     1
 71
     1
176
     1
 72
     0
176
     1
 73
     1
176
     1
 90
        0
176
     1
 40
0.6
176
     1
 41
30.0
176
     1
 63
     7
421
 16777215
176
     1
 74
     0
176
     1
 91
        4
176
     1
 64
     7
176
     1
 65
   257
176
     1
 75
     1
176
     1
175
     1
176
     1
 42
1.0
176
     1
 92
        8
176
     1
 66
     7
176
     1
 43
1.0
176
     1
 76
     1
176
     1
 77
     6
176
     1
 78
     2
176
     1
 67
     7
176
     1
 79
     5
176
     1
170
     0
176
     1
171
     0
176
     1
290
     0
176
     1
 93
        1
176
     1
 44
0.0
176
     1
173
     0
176
     1
  0
VISUALSTYLE
  5
35
102
{ACAD_REACTORS
330
29
102
}
330
29
100
AcDbVisualStyle
  2
Brighten
 70
    12
177
     2
291
     1
 71
     2
176
     1
 72
     2
176
     1
 73
     0
176
     1
 90
        0
176
     1
 40
0.6
176
     1
 41
30.0
176
     1
 63
     7
421
 16777215
176
     1
 74
     1
176
     1
 91
        4
176
     1
 64
     7
176
     1
 65
   257
176
     1
 75
     1
176
     1
175
     1
176
     1
 42
1.0
176
     1
 92
        8
176
     1
 66
     7
176
     1
 43
1.0
176
     1
 76
     1
176
     1
 77
     6
176
     1
 78
     2
176
     1
 67
     7
176
     1
 79
     5
176
     1
170
     0
176
     1
171
     0
176
     1
290
     0
176
     1
 93
        1
176
     1
 44
50.0
176
     1
173
     0
176
     1
  0
VISUALSTYLE
  5
39
102
{ACAD_REACTORS
330
29
102
}
330
29
100
AcDbVisualStyle
  2
ColorChange
 70
    16
177
     2
291
     1
 71
     2
176
     1
 72
     2
176
     1
 73
     3
176
     1
 90
        0
176
     1
 40
0.6
176
     1
 41
30.0
176
     1
 63
     8
421
  8421504
176
     1
 74
     1
176
     1
 91
        4
176
     1
 64
     7
176
     1
 65
   257
176
     1
 75
     1
176
     1
175
     1
176
     1
 42
1.0
176
     1
 92
        8
176
     1
 66
     8
424
  8421504
176
     1
 43
1.0
176
     1
 76
     1
176
     1
 77
     6
176
     1
 78
     2
176
     1
 67
     7
176
     1
 79
     5
176
     1
170
     0
176
     1
171
     0
176
     1
290
     0
176
     1
 93
        1
176
     1
 44
0.0
176
     1
173
     0
176
     1
  0
VISUALSTYLE
  5
32
102
{ACAD_REACTORS
330
29
102
}
330
29
100
AcDbVisualStyle
  2
Conceptual
 70
     9
177
     2
291
     0
 71
     3
176
     1
 72
     2
176
     1
 73
     0
176
     1
 90
        0
176
     1
 40
0.6
176
     1
 41
30.0
176
     1
 63
     7
421
 16777215
176
     1
 74
     2
176
     1
 91
        2
176
     1
 64
     7
176
     1
 65
   257
176
     1
 75
     1
176
     1
175
     1
176
     1
 42
179.0
176
     1
 92
        8
176
     1
 66
     7
176
     1
 43
1.0
176
     1
 76
     1
176
     1
 77
     6
176
     1
 78
     2
176
     1
 67
     7
176
     1
 79
     3
176
     1
170
     0
176
     1
171
     0
176
     1
290
     0
176
     1
 93
        1
176
     1
 44
0.0
176
     1
173
     0
176
     1
  0
VISUALSTYLE
  5
34
102
{ACAD_REACTORS
330
29
102
}
330
29
100
AcDbVisualStyle
  2
Dim
 70
    11
177
     2
291
     1
 71
     2
176
     1
 72
     2
176
     1
 73
     0
176
     1
 90
        0
176
     1
 40
0.6
176
     1
 41
30.0
176
     1
 63
     7
421
 16777215
176
     1
 74
     1
176
     1
 91
        4
176
     1
 64
     7
176
     1
 65
   257
176
     1
 75
     1
176
     1
175
     1
176
     1
 42
1.0
176
     1
 92
        8
176
     1
 66
     7
176
     1
 43
1.0
176
     1
 76
     1
176
     1
 77
     6
176
     1
 78
     2
176
     1
 67
     7
176
     1
 79
     5
176
     1
170
     0
176
     1
171
     0
176
     1
290
     0
176
     1
 93
        1
176
     1
 44
-50.0
176
     1
173
     0
176
     1
  0
VISUALSTYLE
  5
3C
102
{ACAD_REACTORS
330
29
102
}
330
29
100
AcDbVisualStyle
  2
EdgeColorOff
 70
    22
177
     2
291
     1
 71
     2
176
     0
 72
     2
176
     0
 73
     0
176
     0
 90
        0
176
     0
 40
0.6
176
     0
 41
30.0
176
     0
 63
     7
421
 16777215
176
     0
 74
     1
176
     0
 91
        4
176
     0
 64
     7
176
     0
 65
   257
176
     0
 75
     1
176
     0
175
     1
176
     0
 42
1.0
176
     0
 92
        8
176
     2
 66
     7
176
     0
 43
1.0
176
     0
 76
     1
176
     0
 77
     6
176
     0
 78
     2
176
     0
 67
     7
176
     0
 79
     5
176
     0
170
     0
176
     0
171
     0
176
     0
290
     0
176
     0
 93
        1
176
     0
 44
0.0
176
     0
173
     0
176
     0
  0
VISUALSTYLE
  5
38
102
{ACAD_REACTORS
330
29
102
}
330
29
100
AcDbVisualStyle
  2
Facepattern
 70
    15
177
     2
291
     1
 71
     2
176
     1
 72
     2
176
     1
 73
     0
176
     1
 90
        0
176
     1
 40
0.6
176
     1
 41
30.0
176
     1
 63
     7
421
 16777215
176
     1
 74
     1
176
     1
 91
        4
176
     1
 64
     7
176
     1
 65
   257
176
     1
 75
     1
176
     1
175
     1
176
     1
 42
1.0
176
     1
 92
        8
176
     1
 66
     7
176
     1
 43
1.0
176
     1
 76
     1
176
     1
 77
     6
176
     1
 78
     2
176
     1
 67
     7
176
     1
 79
     5
176
     1
170
     0
176
     1
171
     0
176
     1
290
     0
176
     1
 93
        1
176
     1
 44
0.0
176
     1
173
     0
176
     1
  0
VISUALSTYLE
  5
2A
102
{ACAD_REACTORS
330
29
102
}
330
29
100
AcDbVisualStyle
  2
Flat
 70
     0
177
     2
291
     1
 71
     2
176
     1
 72
     1
176
     1
 73
     1
176
     1
 90
        2
176
     1
 40
0.6
176
     1
 41
30.0
176
     1
 63
     7
421
 16777215
176
     1
 74
     0
176
     1
 91
        4
176
     1
 64
     7
176
     1
 65
   257
176
     1
 75
     1
176
     1
175
     1
176
     1
 42
1.0
176
     1
 92
        8
176
     1
 66
     7
176
     1
 43
1.0
176
     1
 76
     1
176
     1
 77
     6
176
     1
 78
     2
176
     1
 67
     7
176
     1
 79
     5
176
     1
170
     0
176
     1
171
     0
176
     1
290
     0
176
     1
 93
       13
176
     1
 44
0.0
176
     1
173
     0
176
     1
  0
VISUALSTYLE
  5
2B
102
{ACAD_REACTORS
330
29
102
}
330
29
100
AcDbVisualStyle
  2
FlatWithEdges
 70
     1
177
     2
291
     1
 71
     2
176
     1
 72
     1
176
     1
 73
     1
176
     1
 90
        2
176
     1
 40
0.6
176
     1
 41
30.0
176
     1
 63
     7
421
 16777215
176
     1
 74
     1
176
     1
 91
        4
176
     1
 64
     7
176
     1
 65
   257
176
     1
 75
     1
176
     1
175
     1
176
     1
 42
1.0
176
     1
 92
        0
176
     1
 66
   257
176
     1
 43
1.0
176
     1
 76
     1
176
     1
 77
     6
176
     1
 78
     2
176
     1
 67
     7
176
     1
 79
     5
176
     1
170
     0
176
     1
171
     0
176
     1
290
     0
176
     1
 93
       13
176
     1
 44
0.0
176
     1
173
     0
176
     1
  0
VISUALSTYLE
  5
2C
102
{ACAD_REACTORS
330
29
102
}
330
29
100
AcDbVisualStyle
  2
Gouraud
 70
     2
177
     2
291
     1
 71
     2
176
     1
 72
     2
176
     1
 73
     1
176
     1
 90
        2
176
     1
 40
0.6
176
     1
 41
30.0
176
     1
 63
     7
421
 16777215
176
     1
 74
     0
176
     1
 91
        4
176
     1
 64
     7
176
     1
 65
   257
176
     1
 75
     1
176
     1
175
     1
176
     1
 42
1.0
176
     1
 92
        0
176
     1
 66
     7
176
     1
 43
1.0
176
     1
 76
     1
176
     1
 77
     6
176
     1
 78
     2
176
     1
 67
     7
176
     1
 79
     5
176
     1
170
     0
176
     1
171
     0
176
     1
290
     0
176
     1
 93
       13
176
     1
 44
0.0
176
     1
173
     0
176
     1
  0
VISUALSTYLE
  5
2D
102
{ACAD_REACTORS
330
29
102
}
330
29
100
AcDbVisualStyle
  2
GouraudWithEdges
 70
     3
177
     2
291
     1
 71
     2
176
     1
 72
     2
176
     1
 73
     1
176
     1
 90
        2
176
     1
 40
0.6
176
     1
 41
30.0
176
     1
 63
     7
421
 16777215
176
     1
 74
     1
176
     1
 91
        4
176
     1
 64
     7
176
     1
 65
   257
176
     1
 75
     1
176
     1
175
     1
176
     1
 42
1.0
176
     1
 92
        0
176
     1
 66
   257
176
     1
 43
1.0
176
     1
 76
     1
176
     1
 77
     6
176
     1
 78
     2
176
     1
 67
     7
176
     1
 79
     5
176
     1
170
     0
176
     1
171
     0
176
     1
290
     0
176
     1
 93
       13
176
     1
 44
0.0
176
     1
173
     0
176
     1
  0
VISUALSTYLE
  5
3A
102
{ACAD_REACTORS
330
29
102
}
330
29
100
AcDbVisualStyle
  2
JitterOff
 70
    20
177
     2
291
     1
 71
     2
176
     0
 72
     2
176
     0
 73
     0
176
     0
 90
        0
176
     0
 40
0.6
176
     0
 41
30.0
176
     0
 63
     7
421
 16777215
176
     0
 74
     1
176
     0
 91
        4
176
     0
 64
     7
176
     0
 65
   257
176
     0
 75
     1
176
     0
175
     1
176
     0
 42
1.0
176
     0
 92
       10
176
     2
 66
     7
176
     0
 43
1.0
176
     0
 76
     1
176
     0
 77
     6
176
     0
 78
     2
176
     0
 67
     7
176
     0
 79
     5
176
     0
170
     0
176
     0
171
     0
176
     0
290
     0
176
     0
 93
        1
176
     0
 44
0.0
176
     0
173
     0
176
     0
  0
VISUALSTYLE
  5
37
102
{ACAD_REACTORS
330
29
102
}
330
29
100
AcDbVisualStyle
  2
Linepattern
 70
    14
177
     2
291
     1
 71
     2
176
     1
 72
     2
176
     1
 73
     0
176
     1
 90
        0
176
     1
 40
0.6
176
     1
 41
30.0
176
     1
 63
     7
421
 16777215
176
     1
 74
     1
176
     1
 91
        4
176
     1
 64
     7
176
     1
 65
   257
176
     1
 75
     7
176
     1
175
     7
176
     1
 42
1.0
176
     1
 92
        8
176
     1
 66
     7
176
     1
 43
1.0
176
     1
 76
     1
176
     1
 77
     6
176
     1
 78
     2
176
     1
 67
     7
176
     1
 79
     5
176
     1
170
     0
176
     1
171
     0
176
     1
290
     0
176
     1
 93
        1
176
     1
 44
0.0
176
     1
173
     0
176
     1
  0
VISUALSTYLE
  5
3B
102
{ACAD_REACTORS
330
29
102
}
330
29
100
AcDbVisualStyle
  2
OverhangOff
 70
    21
177
     2
291
     1
 71
     2
176
     0
 72
     2
176
     0
 73
     0
176
     0
 90
        0
176
     0
 40
0.6
176
     0
 41
30.0
176
     0
 63
     7
421
 16777215
176
     0
 74
     1
176
     0
 91
        4
176
     0
 64
     7
176
     0
 65
   257
176
     0
 75
     1
176
     0
175
     1
176
     0
 42
1.0
176
     0
 92
        9
176
     2
 66
     7
176
     0
 43
1.0
176
     0
 76
     1
176
     0
 77
     6
176
     0
 78
     2
176
     0
 67
     7
176
     0
 79
     5
176
     0
170
     0
176
     0
171
     0
176
     0
290
     0
176
     0
 93
        1
176
     0
 44
0.0
176
     0
173
     0
176
     0
  0
VISUALSTYLE
  5
33
102
{ACAD_REACTORS
330
29
102
}
330
29
100
AcDbVisualStyle
  2
Realistic
 70
     8
177
     2
291
     0
 71
     2
176
     1
 72
     2
176
     1
 73
     0
176
     1
 90
        0
176
     1
 40
0.6
176
     1
 41
30.0
176
     1
 63
     7
421
 16777215
176
     1
 74
     1
176
     1
 91
        0
176
     1
 64
     7
176
     1
 65
   257
176
     1
 75
     1
176
     1
175
     1
176
     1
 42
1.0
176
     1
 92
        8
176
     1
 66
     8
424
  7895160
176
     1
 43
1.0
176
     1
 76
     1
176
     1
 77
     6
176
     1
 78
     2
176
     1
 67
     7
176
     1
 79
     5
176
     1
170
     0
176
     1
171
     0
176
     1
290
     0
176
     1
 93
       13
176
     1
 44
0.0
176
     1
173
     0
176
     1
  0
VISUALSTYLE
  5
36
102
{ACAD_REACTORS
330
29
102
}
330
29
100
AcDbVisualStyle
  2
Thicken
 70
    13
177
     2
291
     1
 71
     2
176
     1
 72
     2
176
     1
 73
     0
176
     1
 90
        0
176
     1
 40
0.6
176
     1
 41
30.0
176
     1
 63
     7
421
 16777215
176
     1
 74
     1
176
     1
 91
        4
176
     1
 64
     7
176
     1
 65
   257
176
     1
 75
     1
176
     1
175
     1
176
     1
 42
1.0
176
     1
 92
       12
176
     1
 66
     7
176
     1
 43
1.0
176
     1
 76
     1
176
     1
 77
     6
176
     1
 78
     2
176
     1
 67
     7
176
     1
 79
     5
176
     1
170
     0
176
     1
171
     0
176
     1
290
     0
176
     1
 93
        1
176
     1
 44
0.0
176
     1
173
     0
176
     1
  0
DICTIONARYVAR
  5
9F7
102
{ACAD_REACTORS
330
9F4
102
}
330
9F4
100
DictionaryVariables
280
     0
  1
1:1
  0
DICTIONARYVAR
  5
9F6
102
{ACAD_REACTORS
330
9F4
102
}
330
9F4
100
DictionaryVariables
280
     0
  1
STANDARD
  0
DICTIONARYVAR
  5
9F5
102
{ACAD_REACTORS
330
9F4
102
}
330
9F4
100
DictionaryVariables
280
     0
  1
STANDARD
  0
DICTIONARY
  5
1A
330
19
100
AcDbDictionary
280
     1
281
     1
  3
BUMPTILE
360
1C
  3
DIFFUSETILE
360
1B
  3
OPACITYTILE
360
1F
  3
REFLECTIONTILE
360
1E
  3
REFRACTIONTILE
360
20
  3
SPECULARTILE
360
1D
  0
DICTIONARY
  5
12
330
11
100
AcDbDictionary
280
     1
281
     1
  3
BUMPTILE
360
14
  3
DIFFUSETILE
360
13
  3
OPACITYTILE
360
17
  3
REFLECTIONTILE
360
16
  3
REFRACTIONTILE
360
18
  3
SPECULARTILE
360
15
  0
DICTIONARY
  5
22
330
21
100
AcDbDictionary
280
     1
281
     1
  3
BUMPTILE
360
24
  3
DIFFUSETILE
360
23
  3
OPACITYTILE
360
27
  3
REFLECTIONTILE
360
26
  3
REFRACTIONTILE
360
28
  3
SPECULARTILE
360
25
  0
DICTIONARY
  5
9F8
330
70
100
AcDbDictionary
280
     1
281
     1
  3
ACAD_ROUNDTRIP_2008_TABLESTYLE_CELLSTYLEMAP
360
9F9
  0
XRECORD
  5
1C
102
{ACAD_REACTORS
330
1A
102
}
330
1A
100
AcDbXrecord
280
     1
270
     1
271
     1
  0
XRECORD
  5
1B
102
{ACAD_REACTORS
330
1A
102
}
330
1A
100
AcDbXrecord
280
     1
270
     1
271
     1
  0
XRECORD
  5
1F
102
{ACAD_REACTORS
330
1A
102
}
330
1A
100
AcDbXrecord
280
     1
270
     1
271
     1
  0
XRECORD
  5
1E
102
{ACAD_REACTORS
330
1A
102
}
330
1A
100
AcDbXrecord
280
     1
270
     1
271
     1
  0
XRECORD
  5
20
102
{ACAD_REACTORS
330
1A
102
}
330
1A
100
AcDbXrecord
280
     1
270
     1
271
     1
  0
XRECORD
  5
1D
102
{ACAD_REACTORS
330
1A
102
}
330
1A
100
AcDbXrecord
280
     1
270
     1
271
     1
  0
XRECORD
  5
14
102
{ACAD_REACTORS
330
12
102
}
330
12
100
AcDbXrecord
280
     1
270
     1
271
     1
  0
XRECORD
  5
13
102
{ACAD_REACTORS
330
12
102
}
330
12
100
AcDbXrecord
280
     1
270
     1
271
     1
  0
XRECORD
  5
17
102
{ACAD_REACTORS
330
12
102
}
330
12
100
AcDbXrecord
280
     1
270
     1
271
     1
  0
XRECORD
  5
16
102
{ACAD_REACTORS
330
12
102
}
330
12
100
AcDbXrecord
280
     1
270
     1
271
     1
  0
XRECORD
  5
18
102
{ACAD_REACTORS
330
12
102
}
330
12
100
AcDbXrecord
280
     1
270
     1
271
     1
  0
XRECORD
  5
15
102
{ACAD_REACTORS
330
12
102
}
330
12
100
AcDbXrecord
280
     1
270
     1
271
     1
  0
XRECORD
  5
24
102
{ACAD_REACTORS
330
22
102
}
330
22
100
AcDbXrecord
280
     1
270
     1
271
     1
  0
XRECORD
  5
23
102
{ACAD_REACTORS
330
22
102
}
330
22
100
AcDbXrecord
280
     1
270
     1
271
     1
  0
XRECORD
  5
27
102
{ACAD_REACTORS
330
22
102
}
330
22
100
AcDbXrecord
280
     1
270
     1
271
     1
  0
XRECORD
  5
26
102
{ACAD_REACTORS
330
22
102
}
330
22
100
AcDbXrecord
280
     1
270
     1
271
     1
  0
XRECORD
  5
28
102
{ACAD_REACTORS
330
22
102
}
330
22
100
AcDbXrecord
280
     1
270
     1
271
     1
  0
XRECORD
  5
25
102
{ACAD_REACTORS
330
22
102
}
330
22
100
AcDbXrecord
280
     1
270
     1
271
     1
  0
CELLSTYLEMAP
  5
9F9
102
{ACAD_REACTORS
330
9F8
102
}
330
9F8
100
AcDbCellStyleMap
 90
        3
300
CELLSTYLE
  1
TABLEFORMAT_BEGIN
 90
        5
170
     1
 91
        0
 92
    32768
 62
   257
 93
        1
300
CONTENTFORMAT
  1
CONTENTFORMAT_BEGIN
 90
        0
 91
        0
 92
      512
 93
        0
300

 40
0.0
140
1.0
 94
        5
 62
     0
340
60
144
0.25
309
CONTENTFORMAT_END
171
     0
 94
        0
309
TABLEFORMAT_END
  1
CELLSTYLE_BEGIN
 90
        1
 91
        1
300
_TITLE
309
CELLSTYLE_END
300
CELLSTYLE
  1
TABLEFORMAT_BEGIN
 90
        5
170
     1
 91
        0
 92
        0
 62
   257
 93
        1
300
CONTENTFORMAT
  1
CONTENTFORMAT_BEGIN
 90
        0
 91
        0
 92
      512
 93
        0
300

 40
0.0
140
1.0
 94
        5
 62
     0
340
60
144
0.18
309
CONTENTFORMAT_END
171
     0
 94
        0
309
TABLEFORMAT_END
  1
CELLSTYLE_BEGIN
 90
        2
 91
        1
300
_HEADER
309
CELLSTYLE_END
300
CELLSTYLE
  1
TABLEFORMAT_BEGIN
 90
        5
170
     1
 91
        0
 92
        0
 62
   257
 93
        1
300
CONTENTFORMAT
  1
CONTENTFORMAT_BEGIN
 90
        0
 91
        0
 92
      512
 93
        0
300

 40
0.0
140
1.0
 94
        2
 62
     0
340
60
144
0.18
309
CONTENTFORMAT_END
171
     0
 94
        0
309
TABLEFORMAT_END
  1
CELLSTYLE_BEGIN
 90
        3
 91
        2
300
_DATA
309
CELLSTYLE_END
  0
ENDSEC
  0
EOF
