  0
SECTION
  2
HEADER
  9
$ACADVER
  1
AC1024
  9
$ACADMAINTVER
 70
     6
  9
$DWGCODEPAGE
  3
ANSI_932
  9
$TITLE
  1
ASM外形寸法図
  9
$AUTHOR
  1
UJ12195
  9
$CUSTOMPROPERTYTAG
  1
マネージャ
  9
$CUSTOMPROPERTY
  1

  9
$CUSTOMPROPERTYTAG
  1
会社
  9
$CUSTOMPROPERTY
  1

  9
$CUSTOMPROPERTYTAG
  1
カテゴリ
  9
$CUSTOMPROPERTY
  1

  9
$CUSTOMPROPERTYTAG
  1
部品番号
  9
$CUSTOMPROPERTY
  1
KZ2003-908A
  9
$CUSTOMPROPERTYTAG
  1
説明
  9
$CUSTOMPROPERTY
  1

  9
$CUSTOMPROPERTYTAG
  1
プロジェクト
  9
$CUSTOMPROPERTY
  1

  9
$CUSTOMPROPERTYTAG
  1
設計者
  9
$CUSTOMPROPERTY
  1
UJ12195
  9
$CUSTOMPROPERTYTAG
  1
エンジニア
  9
$CUSTOMPROPERTY
  1

  9
$CUSTOMPROPERTYTAG
  1
責任者
  9
$CUSTOMPROPERTY
  1

  9
$CUSTOMPROPERTYTAG
  1
コスト センター
  9
$CUSTOMPROPERTY
  1

  9
$CUSTOMPROPERTYTAG
  1
ベンダー
  9
$CUSTOMPROPERTY
  1

  9
$CUSTOMPROPERTYTAG
  1
ユーザ ステータス
  9
$CUSTOMPROPERTY
  1

  9
$CUSTOMPROPERTYTAG
  1
設計ステータス
  9
$CUSTOMPROPERTY
  1
作業中
  9
$CUSTOMPROPERTYTAG
  1
確認者
  9
$CUSTOMPROPERTY
  1

  9
$CUSTOMPROPERTYTAG
  1
エンジニアリング承認者
  9
$CUSTOMPROPERTY
  1

  9
$CUSTOMPROPERTYTAG
  1
製造承認者
  9
$CUSTOMPROPERTY
  1

  9
$CUSTOMPROPERTYTAG
  1
図面サイズ
  9
$CUSTOMPROPERTY
  1
A3
  9
$CUSTOMPROPERTYTAG
  1
図面種類
  9
$CUSTOMPROPERTY
  1

  9
$CUSTOMPROPERTYTAG
  1
図面番号
  9
$CUSTOMPROPERTY
  1
KZ2003-908A
  9
$CUSTOMPROPERTYTAG
  1
重量
  9
$CUSTOMPROPERTY
  1

  9
$CUSTOMPROPERTYTAG
  1
流用元図番
  9
$CUSTOMPROPERTY
  1

  9
$CUSTOMPROPERTYTAG
  1
製図欄1
  9
$CUSTOMPROPERTY
  1

  9
$CUSTOMPROPERTYTAG
  1
製図欄2
  9
$CUSTOMPROPERTY
  1

  9
$CUSTOMPROPERTYTAG
  1
製図者
  9
$CUSTOMPROPERTY
  1

  9
$CUSTOMPROPERTYTAG
  1
RoHS
  9
$CUSTOMPROPERTY
  1
対応
  9
$CUSTOMPROPERTYTAG
  1
ドキュメント番号
  9
$CUSTOMPROPERTY
  1

  9
$CUSTOMPROPERTYTAG
  1
ファイル種別
  9
$CUSTOMPROPERTY
  1
購入品
  9
$CUSTOMPROPERTYTAG
  1
メーカ型式
  9
$CUSTOMPROPERTY
  1
74-UV
  9
$CUSTOMPROPERTYTAG
  1
メーカ名
  9
$CUSTOMPROPERTY
  1
Ｏｃｅａｎ＿Ｏｐｔｉｃｓ
  9
$CUSTOMPROPERTYTAG
  1
統一名称
  9
$CUSTOMPROPERTY
  1
測定機器
  9
$CUSTOMPROPERTYTAG
  1
表面処理
  9
$CUSTOMPROPERTY
  1

  9
$CUSTOMPROPERTYTAG
  1
品目コメント
  9
$CUSTOMPROPERTY
  1

  9
$CUSTOMPROPERTYTAG
  1
輸出管理
  9
$CUSTOMPROPERTY
  1
非該当
  9
$INSBASE
 10
0.0
 20
0.0
 30
0.0
  9
$EXTMIN
 10
0.0
 20
0.0
 30
0.0
  9
$EXTMAX
 10
210.0
 20
148.5
 30
0.0
  9
$LIMMIN
 10
0.0
 20
0.0
  9
$LIMMAX
 10
210.0
 20
148.5
  9
$ORTHOMODE
 70
     0
  9
$REGENMODE
 70
     1
  9
$FILLMODE
 70
     1
  9
$QTEXTMODE
 70
     0
  9
$MIRRTEXT
 70
     0
  9
$LTSCALE
 40
0.5
  9
$ATTMODE
 70
     1
  9
$TEXTSIZE
 40
0.2
  9
$TRACEWID
 40
0.05
  9
$TEXTSTYLE
  7
Standard
  9
$CLAYER
  8
0
  9
$CELTYPE
  6
ByLayer
  9
$CECOLOR
 62
   256
  9
$CELTSCALE
 40
1.0
  9
$DISPSILH
 70
     0
  9
$DIMSCALE
 40
1.0
  9
$DIMASZ
 40
1.799999999999999
  9
$DIMEXO
 40
0.0625
  9
$DIMDLI
 40
0.38
  9
$DIMRND
 40
0.0
  9
$DIMDLE
 40
0.0
  9
$DIMEXE
 40
0.18
  9
$DIMTP
 40
0.0
  9
$DIMTM
 40
0.0
  9
$DIMTXT
 40
0.4000000059604645
  9
$DIMCEN
 40
0.09
  9
$DIMTSZ
 40
0.0
  9
$DIMTOL
 70
     0
  9
$DIMLIM
 70
     0
  9
$DIMTIH
 70
     1
  9
$DIMTOH
 70
     1
  9
$DIMSE1
 70
     0
  9
$DIMSE2
 70
     0
  9
$DIMTAD
 70
     0
  9
$DIMZIN
 70
     0
  9
$DIMBLK
  1

  9
$DIMASO
 70
     1
  9
$DIMSHO
 70
     1
  9
$DIMPOST
  1

  9
$DIMAPOST
  1

  9
$DIMALT
 70
     0
  9
$DIMALTD
 70
     2
  9
$DIMALTF
 40
25.4
  9
$DIMLFAC
 40
1.0
  9
$DIMTOFL
 70
     0
  9
$DIMTVP
 40
0.0
  9
$DIMTIX
 70
     0
  9
$DIMSOXD
 70
     0
  9
$DIMSAH
 70
     0
  9
$DIMBLK1
  1

  9
$DIMBLK2
  1

  9
$DIMSTYLE
  2
Standard
  9
$DIMCLRD
 70
     0
  9
$DIMCLRE
 70
     0
  9
$DIMCLRT
 70
     0
  9
$DIMTFAC
 40
1.0
  9
$DIMGAP
 40
0.09
  9
$DIMJUST
 70
     0
  9
$DIMSD1
 70
     0
  9
$DIMSD2
 70
     0
  9
$DIMTOLJ
 70
     1
  9
$DIMTZIN
 70
     0
  9
$DIMALTZ
 70
     0
  9
$DIMALTTZ
 70
     0
  9
$DIMUPT
 70
     0
  9
$DIMDEC
 70
     4
  9
$DIMTDEC
 70
     4
  9
$DIMALTU
 70
     2
  9
$DIMALTTD
 70
     2
  9
$DIMTXSTY
  7
Standard
  9
$DIMAUNIT
 70
     0
  9
$DIMADEC
 70
     0
  9
$DIMALTRND
 40
0.0
  9
$DIMAZIN
 70
     0
  9
$DIMDSEP
 70
    46
  9
$DIMATFIT
 70
     3
  9
$DIMFRAC
 70
     0
  9
$DIMLDRBLK
  1

  9
$DIMLUNIT
 70
     2
  9
$DIMLWD
 70
    -2
  9
$DIMLWE
 70
    -2
  9
$DIMTMOVE
 70
     0
  9
$DIMFXL
 40
1.0
  9
$DIMFXLON
 70
     0
  9
$DIMJOGANG
 40
0.7853981633974483
  9
$DIMTFILL
 70
     0
  9
$DIMTFILLCLR
 70
     0
  9
$DIMARCSYM
 70
     0
  9
$DIMLTYPE
  6

  9
$DIMLTEX1
  6

  9
$DIMLTEX2
  6

  9
$DIMTXTDIRECTION
 70
     0
  9
$LUNITS
 70
     2
  9
$LUPREC
 70
     4
  9
$SKETCHINC
 40
0.1
  9
$FILLETRAD
 40
0.0
  9
$AUNITS
 70
     0
  9
$AUPREC
 70
     0
  9
$MENU
  1
.
  9
$ELEVATION
 40
0.0
  9
$PELEVATION
 40
0.0
  9
$THICKNESS
 40
0.0
  9
$LIMCHECK
 70
     0
  9
$CHAMFERA
 40
0.0
  9
$CHAMFERB
 40
0.0
  9
$CHAMFERC
 40
0.0
  9
$CHAMFERD
 40
0.0
  9
$SKPOLY
 70
     0
  9
$TDCREATE
 40
2456402.687954768
  9
$TDUCREATE
 40
2456402.312954768
  9
$TDUPDATE
 40
2456402.687954768
  9
$TDUUPDATE
 40
2456402.312954768
  9
$TDINDWG
 40
0.0001017824
  9
$TDUSRTIMER
 40
0.0001017824
  9
$USRTIMER
 70
     1
  9
$ANGBASE
 50
0.0
  9
$ANGDIR
 70
     0
  9
$PDMODE
 70
     0
  9
$PDSIZE
 40
0.0
  9
$PLINEWID
 40
0.0
  9
$SPLFRAME
 70
     0
  9
$SPLINETYPE
 70
     6
  9
$SPLINESEGS
 70
     8
  9
$HANDSEED
  5
948
  9
$SURFTAB1
 70
     6
  9
$SURFTAB2
 70
     6
  9
$SURFTYPE
 70
     6
  9
$SURFU
 70
     6
  9
$SURFV
 70
     6
  9
$UCSBASE
  2

  9
$UCSNAME
  2

  9
$UCSORG
 10
0.0
 20
0.0
 30
0.0
  9
$UCSXDIR
 10
1.0
 20
0.0
 30
0.0
  9
$UCSYDIR
 10
0.0
 20
1.0
 30
0.0
  9
$UCSORTHOREF
  2

  9
$UCSORTHOVIEW
 70
     0
  9
$UCSORGTOP
 10
0.0
 20
0.0
 30
0.0
  9
$UCSORGBOTTOM
 10
0.0
 20
0.0
 30
0.0
  9
$UCSORGLEFT
 10
0.0
 20
0.0
 30
0.0
  9
$UCSORGRIGHT
 10
0.0
 20
0.0
 30
0.0
  9
$UCSORGFRONT
 10
0.0
 20
0.0
 30
0.0
  9
$UCSORGBACK
 10
0.0
 20
0.0
 30
0.0
  9
$PUCSBASE
  2

  9
$PUCSNAME
  2

  9
$PUCSORG
 10
0.0
 20
0.0
 30
0.0
  9
$PUCSXDIR
 10
1.0
 20
0.0
 30
0.0
  9
$PUCSYDIR
 10
0.0
 20
1.0
 30
0.0
  9
$PUCSORTHOREF
  2

  9
$PUCSORTHOVIEW
 70
     0
  9
$PUCSORGTOP
 10
0.0
 20
0.0
 30
0.0
  9
$PUCSORGBOTTOM
 10
0.0
 20
0.0
 30
0.0
  9
$PUCSORGLEFT
 10
0.0
 20
0.0
 30
0.0
  9
$PUCSORGRIGHT
 10
0.0
 20
0.0
 30
0.0
  9
$PUCSORGFRONT
 10
0.0
 20
0.0
 30
0.0
  9
$PUCSORGBACK
 10
0.0
 20
0.0
 30
0.0
  9
$USERI1
 70
     0
  9
$USERI2
 70
     0
  9
$USERI3
 70
     0
  9
$USERI4
 70
     0
  9
$USERI5
 70
     0
  9
$USERR1
 40
0.0
  9
$USERR2
 40
0.0
  9
$USERR3
 40
0.0
  9
$USERR4
 40
0.0
  9
$USERR5
 40
0.0
  9
$WORLDVIEW
 70
     1
  9
$SHADEDGE
 70
     3
  9
$SHADEDIF
 70
    70
  9
$TILEMODE
 70
     1
  9
$MAXACTVP
 70
    64
  9
$PINSBASE
 10
0.0
 20
0.0
 30
0.0
  9
$PLIMCHECK
 70
     0
  9
$PEXTMIN
 10
0.0
 20
0.0
 30
0.0
  9
$PEXTMAX
 10
210.0
 20
148.5
 30
0.0
  9
$PLIMMIN
 10
0.0
 20
0.0
  9
$PLIMMAX
 10
210.0
 20
148.5
  9
$UNITMODE
 70
     0
  9
$VISRETAIN
 70
     1
  9
$PLINEGEN
 70
     0
  9
$PSLTSCALE
 70
     1
  9
$TREEDEPTH
 70
  3020
  9
$CMLSTYLE
  2
Standard
  9
$CMLJUST
 70
     0
  9
$CMLSCALE
 40
1.0
  9
$PROXYGRAPHICS
 70
     1
  9
$MEASUREMENT
 70
     1
  9
$CELWEIGHT
370
    -1
  9
$ENDCAPS
280
     0
  9
$JOINSTYLE
280
     0
  9
$LWDISPLAY
290
     0
  9
$INSUNITS
 70
     4
  9
$HYPERLINKBASE
  1

  9
$STYLESHEET
  1

  9
$XEDIT
290
     1
  9
$CEPSNTYPE
380
     0
  9
$PSTYLEMODE
290
     1
  9
$FINGERPRINTGUID
  2
{F45FF692-C818-4FF3-9D3F-AA4253A641BF}
  9
$VERSIONGUID
  2
{F71B1E20-D9A0-4942-B08A-B2A52F75977F}
  9
$EXTNAMES
290
     1
  9
$PSVPSCALE
 40
0.0
  9
$OLESTARTUP
290
     0
  9
$SORTENTS
280
   127
  9
$INDEXCTL
280
     0
  9
$HIDETEXT
280
     1
  9
$XCLIPFRAME
280
     2
  9
$HALOGAP
280
     0
  9
$OBSCOLOR
 70
   257
  9
$OBSLTYPE
280
     0
  9
$INTERSECTIONDISPLAY
280
     0
  9
$INTERSECTIONCOLOR
 70
   257
  9
$DIMASSOC
280
     1
  9
$PROJECTNAME
  1

  9
$CAMERADISPLAY
290
     0
  9
$LENSLENGTH
 40
50.0
  9
$CAMERAHEIGHT
 40
0.0
  9
$STEPSPERSEC
 40
2.0
  9
$STEPSIZE
 40
6.0
  9
$3DDWFPREC
 40
2.0
  9
$PSOLWIDTH
 40
0.25
  9
$PSOLHEIGHT
 40
4.0
  9
$LOFTANG1
 40
1.570796326794896
  9
$LOFTANG2
 40
1.570796326794896
  9
$LOFTMAG1
 40
0.0
  9
$LOFTMAG2
 40
0.0
  9
$LOFTPARAM
 70
     7
  9
$LOFTNORMALS
280
     1
  9
$LATITUDE
 40
37.795
  9
$LONGITUDE
 40
-122.394
  9
$NORTHDIRECTION
 40
0.0
  9
$TIMEZONE
 70
 -8000
  9
$LIGHTGLYPHDISPLAY
280
     1
  9
$TILEMODELIGHTSYNCH
280
     1
  9
$CMATERIAL
347
11
  9
$SOLIDHIST
280
     1
  9
$SHOWHIST
280
     1
  9
$DWFFRAME
280
     2
  9
$DGNFRAME
280
     0
  9
$REALWORLDSCALE
290
     1
  9
$INTERFERECOLOR
 62
     1
  9
$INTERFEREOBJVS
345
33
  9
$INTERFEREVPVS
346
30
  9
$CSHADOW
280
     0
  9
$SHADOWPLANELOCATION
 40
0.0
  0
ENDSEC
  0
SECTION
  2
CLASSES
  0
CLASS
  1
ACDBDICTIONARYWDFLT
  2
AcDbDictionaryWithDefault
  3
ObjectDBX Classes
 90
        0
 91
        1
280
     0
281
     0
  0
CLASS
  1
MATERIAL
  2
AcDbMaterial
  3
ObjectDBX Classes
 90
     1153
 91
        3
280
     0
281
     0
  0
CLASS
  1
VISUALSTYLE
  2
AcDbVisualStyle
  3
ObjectDBX Classes
 90
     4095
 91
       19
280
     0
281
     0
  0
CLASS
  1
SCALE
  2
AcDbScale
  3
ObjectDBX Classes
 90
     1153
 91
       33
280
     0
281
     0
  0
CLASS
  1
TABLESTYLE
  2
AcDbTableStyle
  3
ObjectDBX Classes
 90
     4095
 91
        1
280
     0
281
     0
  0
CLASS
  1
MLEADERSTYLE
  2
AcDbMLeaderStyle
  3
ACDB_MLEADERSTYLE_CLASS
 90
     4095
 91
        1
280
     0
281
     0
  0
CLASS
  1
DICTIONARYVAR
  2
AcDbDictionaryVar
  3
ObjectDBX Classes
 90
        0
 91
        3
280
     0
281
     0
  0
CLASS
  1
CELLSTYLEMAP
  2
AcDbCellStyleMap
  3
ObjectDBX Classes
 90
     1152
 91
        1
280
     0
281
     0
  0
ENDSEC
  0
SECTION
  2
TABLES
  0
TABLE
  2
VPORT
  5
8
330
0
100
AcDbSymbolTable
 70
     1
  0
VPORT
  5
62
330
8
100
AcDbSymbolTableRecord
100
AcDbViewportTableRecord
  2
*Active
 70
     0
 10
0.0
 20
0.0
 11
1.0
 21
1.0
 12
105.0
 22
74.25
 13
0.0
 23
0.0
 14
1.0
 24
1.0
 15
0.0
 25
0.0
 16
0.0
 26
0.0
 36
1.0
 17
0.0
 27
0.0
 37
0.0
 40
148.5
 41
1.414141414141414
 42
50.0
 43
0.0
 44
0.0
 50
0.0
 51
0.0
 71
     0
 72
   100
 73
     1
 74
     1
 75
     0
 76
     0
 77
     0
 78
     0
281
     0
 65
     1
110
0.0
120
0.0
130
0.0
111
1.0
121
0.0
131
0.0
112
0.0
122
1.0
132
0.0
 79
     0
146
0.0
 60
     3
 61
     5
292
     1
282
     1
141
0.0
142
0.0
 63
   250
421
  3355443
  0
ENDTAB
  0
TABLE
  2
LTYPE
  5
5
330
0
100
AcDbSymbolTable
 70
    59
  0
LTYPE
  5
66
330
5
100
AcDbSymbolTableRecord
100
AcDbLinetypeTableRecord
  2
ByBlock
 70
     0
  3

 72
    65
 73
     0
 40
0.0
  0
LTYPE
  5
67
330
5
100
AcDbSymbolTableRecord
100
AcDbLinetypeTableRecord
  2
ByLayer
 70
     0
  3

 72
    65
 73
     0
 40
0.0
  0
LTYPE
  5
68
330
5
100
AcDbSymbolTableRecord
100
AcDbLinetypeTableRecord
  2
Continuous
 70
     0
  3
Solid line
 72
    65
 73
     0
 40
0.0
  0
LTYPE
  5
7F
330
5
100
AcDbSymbolTableRecord
100
AcDbLinetypeTableRecord
  2
CHAIN
 70
     0
  3
Chain ____ _ ____ _ ____ _ ____ _ ____ _ ____
 72
    65
 73
     4
 40
0.3543
 49
0.2362
 74
     0
 49
-0.0295
 74
     0
 49
0.0591
 74
     0
 49
-0.0295
 74
     0
  0
LTYPE
  5
80
330
5
100
AcDbSymbolTableRecord
100
AcDbLinetypeTableRecord
  2
DASH_DOT
 70
     0
  3
Dash dot __ . __ . __ . __ . __ . __ . __ . __
 72
    65
 73
     4
 40
0.37
 49
0.24
 74
     0
 49
-0.06
 74
     0
 49
0.01
 74
     0
 49
-0.06
 74
     0
  0
LTYPE
  5
81
330
5
100
AcDbSymbolTableRecord
100
AcDbLinetypeTableRecord
  2
DASH_DOUBLE_DOT
 70
     0
  3
Dash Double-Dot __ . . __ . . __ . . __ . .
 72
    65
 73
     6
 40
0.4398
 49
0.24
 74
     0
 49
-0.06
 74
     0
 49
0.0098
 74
     0
 49
-0.06
 74
     0
 49
0.01
 74
     0
 49
-0.06
 74
     0
  0
LTYPE
  5
82
330
5
100
AcDbSymbolTableRecord
100
AcDbLinetypeTableRecord
  2
DASH_TRIPLE_DOT
 70
     0
  3
Dash Triple-Dot _ . . . _ . . . _ . . . _
 72
    65
 73
     8
 40
0.51
 49
0.24
 74
     0
 49
-0.06
 74
     0
 49
0.01
 74
     0
 49
-0.06
 74
     0
 49
0.01
 74
     0
 49
-0.06
 74
     0
 49
0.01
 74
     0
 49
-0.06
 74
     0
  0
LTYPE
  5
83
330
5
100
AcDbSymbolTableRecord
100
AcDbLinetypeTableRecord
  2
DASHED
 70
     0
  3
Dashed __ __ __ __ __ __ __ __ __ __ __ __ __ _
 72
    65
 73
     2
 40
0.2067
 49
0.1654
 74
     0
 49
-0.0413
 74
     0
  0
LTYPE
  5
84
330
5
100
AcDbSymbolTableRecord
100
AcDbLinetypeTableRecord
  2
DASHED_SPACE
 70
     0
  3
Dashed Space __ __ __ __ __ __ __ __ __ __ __ _
 72
    65
 73
     2
 40
0.0826
 49
0.0413
 74
     0
 49
-0.0413
 74
     0
  0
LTYPE
  5
85
330
5
100
AcDbSymbolTableRecord
100
AcDbLinetypeTableRecord
  2
DOTTED
 70
     0
  3
Dotted . . . . . . . . . . . . . . . . . . . . 
 72
    65
 73
     2
 40
0.0482
 49
0.0069
 74
     0
 49
-0.0413
 74
     0
  0
LTYPE
  5
86
330
5
100
AcDbSymbolTableRecord
100
AcDbLinetypeTableRecord
  2
DOUBLE_DASH_CHAIN
 70
     0
  3
Double Dash Chain ___ _ _ ___ _ _ ___ _ _ ___ _
 72
    65
 73
     6
 40
1.240299999999999
 49
0.6614
 74
     0
 49
-0.0827
 74
     0
 49
0.1654
 74
     0
 49
-0.0827
 74
     0
 49
0.1654
 74
     0
 49
-0.0827
 74
     0
  0
LTYPE
  5
87
330
5
100
AcDbSymbolTableRecord
100
AcDbLinetypeTableRecord
  2
DOUBLE_DASH_DOT
 70
     0
  3
Double Dash Dot __ __ . __ __ . __ __ . __ _
 72
    65
 73
     6
 40
0.67
 49
0.24
 74
     0
 49
-0.06
 74
     0
 49
0.24
 74
     0
 49
-0.06
 74
     0
 49
0.01
 74
     0
 49
-0.06
 74
     0
  0
LTYPE
  5
88
330
5
100
AcDbSymbolTableRecord
100
AcDbLinetypeTableRecord
  2
DOUBLE_DASH_DOUBLE_DOT
 70
     0
  3
Double-dash double-dot _ _ . . _ _ . . _
 72
    65
 73
     8
 40
0.7400000000000001
 49
0.24
 74
     0
 49
-0.06
 74
     0
 49
0.24
 74
     0
 49
-0.06
 74
     0
 49
0.01
 74
     0
 49
-0.06
 74
     0
 49
0.01
 74
     0
 49
-0.06
 74
     0
  0
LTYPE
  5
89
330
5
100
AcDbSymbolTableRecord
100
AcDbLinetypeTableRecord
  2
DOUBLE_DASH_TRIPLE_DOT
 70
     0
  3
Double Dash Triple Dot __ __ . . . __ __ . . .
 72
    65
 73
    10
 40
0.8100000000000001
 49
0.24
 74
     0
 49
-0.06
 74
     0
 49
0.24
 74
     0
 49
-0.06
 74
     0
 49
0.01
 74
     0
 49
-0.06
 74
     0
 49
0.01
 74
     0
 49
-0.06
 74
     0
 49
0.01
 74
     0
 49
-0.06
 74
     0
  0
LTYPE
  5
8A
330
5
100
AcDbSymbolTableRecord
100
AcDbLinetypeTableRecord
  2
LONG_DASH_DOTTED
 70
     0
  3
Long Dash Dotted ____ . ____ . ____ . ____ . _
 72
    65
 73
     4
 40
0.61
 49
0.48
 74
     0
 49
-0.06
 74
     0
 49
0.01
 74
     0
 49
-0.06
 74
     0
  0
LTYPE
  5
8B
330
5
100
AcDbSymbolTableRecord
100
AcDbLinetypeTableRecord
  2
LONG_DASH_DOUBLE_DOT
 70
     0
  3
Long Dash Double Dot ____ . . ____ . . ____ . .
 72
    65
 73
     6
 40
0.3345
 49
0.2362
 74
     0
 49
-0.0295
 74
     0
 49
0.0049
 74
     0
 49
-0.0295
 74
     0
 49
0.0049
 74
     0
 49
-0.0295
 74
     0
  0
LTYPE
  5
8C
330
5
100
AcDbSymbolTableRecord
100
AcDbLinetypeTableRecord
  2
LONG_DASH_TRIPLE_DOT
 70
     0
  3
Long Dash Triple Dot ____ ... ____ ... ____
 72
    65
 73
     8
 40
0.75
 49
0.48
 74
     0
 49
-0.06
 74
     0
 49
0.01
 74
     0
 49
-0.06
 74
     0
 49
0.01
 74
     0
 49
-0.06
 74
     0
 49
0.01
 74
     0
 49
-0.06
 74
     0
  0
LTYPE
  5
8D
330
5
100
AcDbSymbolTableRecord
100
AcDbLinetypeTableRecord
  2
BORDER
 70
     0
  3
Border __ __ . __ __ . __ __ . __ __ . __ __ .
 72
    65
 73
     6
 40
44.45
 49
12.7
 74
     0
 49
-6.349999999999999
 74
     0
 49
12.7
 74
     0
 49
-6.349999999999999
 74
     0
 49
0.0
 74
     0
 49
-6.349999999999999
 74
     0
  0
LTYPE
  5
8E
330
5
100
AcDbSymbolTableRecord
100
AcDbLinetypeTableRecord
  2
BORDER2
 70
     0
  3
Border (.5x) __.__.__.__.__.__.__.__.__.__.__.
 72
    65
 73
     6
 40
22.225
 49
6.349999999999999
 74
     0
 49
-3.174999999999999
 74
     0
 49
6.349999999999999
 74
     0
 49
-3.174999999999999
 74
     0
 49
0.0
 74
     0
 49
-3.174999999999999
 74
     0
  0
LTYPE
  5
8F
330
5
100
AcDbSymbolTableRecord
100
AcDbLinetypeTableRecord
  2
BORDERX2
 70
     0
  3
Border (2x) ____  ____  .  ____  ____  .  ___
 72
    65
 73
     6
 40
88.9
 49
25.4
 74
     0
 49
-12.7
 74
     0
 49
25.4
 74
     0
 49
-12.7
 74
     0
 49
0.0
 74
     0
 49
-12.7
 74
     0
  0
LTYPE
  5
90
330
5
100
AcDbSymbolTableRecord
100
AcDbLinetypeTableRecord
  2
CENTER
 70
     0
  3
Center ____ _ ____ _ ____ _ ____ _ ____ _ ____
 72
    65
 73
     4
 40
50.8
 49
31.75
 74
     0
 49
-6.349999999999999
 74
     0
 49
6.349999999999999
 74
     0
 49
-6.349999999999999
 74
     0
  0
LTYPE
  5
91
330
5
100
AcDbSymbolTableRecord
100
AcDbLinetypeTableRecord
  2
CENTER2
 70
     0
  3
Center (.5x) ___ _ ___ _ ___ _ ___ _ ___ _ ___
 72
    65
 73
     4
 40
28.575
 49
19.05
 74
     0
 49
-3.174999999999999
 74
     0
 49
3.174999999999999
 74
     0
 49
-3.174999999999999
 74
     0
  0
LTYPE
  5
92
330
5
100
AcDbSymbolTableRecord
100
AcDbLinetypeTableRecord
  2
CENTERX2
 70
     0
  3
Center (2x) ________  __  ________  __  _____
 72
    65
 73
     4
 40
101.6
 49
63.5
 74
     0
 49
-12.7
 74
     0
 49
12.7
 74
     0
 49
-12.7
 74
     0
  0
LTYPE
  5
93
330
5
100
AcDbSymbolTableRecord
100
AcDbLinetypeTableRecord
  2
DASHDOT
 70
     0
  3
Dash dot __ . __ . __ . __ . __ . __ . __ . __
 72
    65
 73
     4
 40
25.4
 49
12.7
 74
     0
 49
-6.349999999999999
 74
     0
 49
0.0
 74
     0
 49
-6.349999999999999
 74
     0
  0
LTYPE
  5
94
330
5
100
AcDbSymbolTableRecord
100
AcDbLinetypeTableRecord
  2
DASHDOT2
 70
     0
  3
Dash dot (.5x) _._._._._._._._._._._._._._._.
 72
    65
 73
     4
 40
12.7
 49
6.349999999999999
 74
     0
 49
-3.174999999999999
 74
     0
 49
0.0
 74
     0
 49
-3.174999999999999
 74
     0
  0
LTYPE
  5
95
330
5
100
AcDbSymbolTableRecord
100
AcDbLinetypeTableRecord
  2
DASHDOTX2
 70
     0
  3
Dash dot (2x) ____  .  ____  .  ____  .  ___
 72
    65
 73
     4
 40
50.8
 49
25.4
 74
     0
 49
-12.7
 74
     0
 49
0.0
 74
     0
 49
-12.7
 74
     0
  0
LTYPE
  5
96
330
5
100
AcDbSymbolTableRecord
100
AcDbLinetypeTableRecord
  2
DASHED2
 70
     0
  3
Dashed (.5x) _ _ _ _ _ _ _ _ _ _ _ _ _ _ _ _ _
 72
    65
 73
     2
 40
9.524999999999998
 49
6.349999999999999
 74
     0
 49
-3.174999999999999
 74
     0
  0
LTYPE
  5
97
330
5
100
AcDbSymbolTableRecord
100
AcDbLinetypeTableRecord
  2
DASHEDX2
 70
     0
  3
Dashed (2x) ____  ____  ____  ____  ____  ___
 72
    65
 73
     2
 40
38.1
 49
25.4
 74
     0
 49
-12.7
 74
     0
  0
LTYPE
  5
98
330
5
100
AcDbSymbolTableRecord
100
AcDbLinetypeTableRecord
  2
DIVIDE
 70
     0
  3
Divide ____ . . ____ . . ____ . . ____ . . ____
 72
    65
 73
     6
 40
31.75
 49
12.7
 74
     0
 49
-6.349999999999999
 74
     0
 49
0.0
 74
     0
 49
-6.349999999999999
 74
     0
 49
0.0
 74
     0
 49
-6.349999999999999
 74
     0
  0
LTYPE
  5
99
330
5
100
AcDbSymbolTableRecord
100
AcDbLinetypeTableRecord
  2
DIVIDE2
 70
     0
  3
Divide (.5x) __..__..__..__..__..__..__..__.._
 72
    65
 73
     6
 40
15.875
 49
6.349999999999999
 74
     0
 49
-3.174999999999999
 74
     0
 49
0.0
 74
     0
 49
-3.174999999999999
 74
     0
 49
0.0
 74
     0
 49
-3.174999999999999
 74
     0
  0
LTYPE
  5
9A
330
5
100
AcDbSymbolTableRecord
100
AcDbLinetypeTableRecord
  2
DIVIDEX2
 70
     0
  3
Divide (2x) ________  .  .  ________  .  .  _
 72
    65
 73
     6
 40
63.49999999999999
 49
25.4
 74
     0
 49
-12.7
 74
     0
 49
0.0
 74
     0
 49
-12.7
 74
     0
 49
0.0
 74
     0
 49
-12.7
 74
     0
  0
LTYPE
  5
9B
330
5
100
AcDbSymbolTableRecord
100
AcDbLinetypeTableRecord
  2
DOT2
 70
     0
  3
Dot (.5x) .....................................
 72
    65
 73
     2
 40
3.174999999999999
 49
0.0
 74
     0
 49
-3.174999999999999
 74
     0
  0
LTYPE
  5
9C
330
5
100
AcDbSymbolTableRecord
100
AcDbLinetypeTableRecord
  2
DOTX2
 70
     0
  3
Dot (2x) .  .  .  .  .  .  .  .  .  .  .  .  . 
 72
    65
 73
     2
 40
12.7
 49
0.0
 74
     0
 49
-12.7
 74
     0
  0
LTYPE
  5
9D
330
5
100
AcDbSymbolTableRecord
100
AcDbLinetypeTableRecord
  2
HIDDEN
 70
     0
  3
Hidden __ __ __ __ __ __ __ __ __ __ __ __ __ _
 72
    65
 73
     2
 40
9.524999999999998
 49
6.349999999999999
 74
     0
 49
-3.174999999999999
 74
     0
  0
LTYPE
  5
9E
330
5
100
AcDbSymbolTableRecord
100
AcDbLinetypeTableRecord
  2
HIDDEN2
 70
     0
  3
Hidden (.5x) _ _ _ _ _ _ _ _ _ _ _ _ _ _ _ _ _
 72
    65
 73
     2
 40
4.762499999999999
 49
3.174999999999999
 74
     0
 49
-1.587499999999999
 74
     0
  0
LTYPE
  5
9F
330
5
100
AcDbSymbolTableRecord
100
AcDbLinetypeTableRecord
  2
HIDDENX2
 70
     0
  3
Hidden (2x) ____ ____ ____ ____ ____ ____ ____
 72
    65
 73
     2
 40
19.05
 49
12.7
 74
     0
 49
-6.349999999999999
 74
     0
  0
LTYPE
  5
A0
330
5
100
AcDbSymbolTableRecord
100
AcDbLinetypeTableRecord
  2
PHANTOM
 70
     0
  3
Phantom ______  __  __  ______  __  __  ______
 72
    65
 73
     6
 40
63.5
 49
31.75
 74
     0
 49
-6.349999999999999
 74
     0
 49
6.349999999999999
 74
     0
 49
-6.349999999999999
 74
     0
 49
6.349999999999999
 74
     0
 49
-6.349999999999999
 74
     0
  0
LTYPE
  5
A1
330
5
100
AcDbSymbolTableRecord
100
AcDbLinetypeTableRecord
  2
PHANTOM2
 70
     0
  3
Phantom (.5x) ___ _ _ ___ _ _ ___ _ _ ___ _ _
 72
    65
 73
     6
 40
31.75
 49
15.875
 74
     0
 49
-3.174999999999999
 74
     0
 49
3.174999999999999
 74
     0
 49
-3.174999999999999
 74
     0
 49
3.174999999999999
 74
     0
 49
-3.174999999999999
 74
     0
  0
LTYPE
  5
A2
330
5
100
AcDbSymbolTableRecord
100
AcDbLinetypeTableRecord
  2
PHANTOMX2
 70
     0
  3
Phantom (2x) ____________    ____    ____   _
 72
    65
 73
     6
 40
127.0
 49
63.5
 74
     0
 49
-12.7
 74
     0
 49
12.7
 74
     0
 49
-12.7
 74
     0
 49
12.7
 74
     0
 49
-12.7
 74
     0
  0
LTYPE
  5
A3
330
5
100
AcDbSymbolTableRecord
100
AcDbLinetypeTableRecord
  2
ACAD_ISO02W100
 70
     0
  3
ISO dash __ __ __ __ __ __ __ __ __ __ __ __ __
 72
    65
 73
     2
 40
15.0
 49
12.0
 74
     0
 49
-3.0
 74
     0
  0
LTYPE
  5
A4
330
5
100
AcDbSymbolTableRecord
100
AcDbLinetypeTableRecord
  2
ACAD_ISO03W100
 70
     0
  3
ISO dash space __    __    __    __    __    __
 72
    65
 73
     2
 40
30.0
 49
12.0
 74
     0
 49
-18.0
 74
     0
  0
LTYPE
  5
A5
330
5
100
AcDbSymbolTableRecord
100
AcDbLinetypeTableRecord
  2
ACAD_ISO04W100
 70
     0
  3
ISO long-dash dot ____ . ____ . ____ . ____ . _
 72
    65
 73
     4
 40
30.0
 49
24.0
 74
     0
 49
-3.0
 74
     0
 49
0.0
 74
     0
 49
-3.0
 74
     0
  0
LTYPE
  5
A6
330
5
100
AcDbSymbolTableRecord
100
AcDbLinetypeTableRecord
  2
ACAD_ISO05W100
 70
     0
  3
ISO long-dash double-dot ____ .. ____ .. ____ .
 72
    65
 73
     6
 40
33.0
 49
24.0
 74
     0
 49
-3.0
 74
     0
 49
0.0
 74
     0
 49
-3.0
 74
     0
 49
0.0
 74
     0
 49
-3.0
 74
     0
  0
LTYPE
  5
A7
330
5
100
AcDbSymbolTableRecord
100
AcDbLinetypeTableRecord
  2
ACAD_ISO06W100
 70
     0
  3
ISO long-dash triple-dot ____ ... ____ ... ____
 72
    65
 73
     8
 40
36.0
 49
24.0
 74
     0
 49
-3.0
 74
     0
 49
0.0
 74
     0
 49
-3.0
 74
     0
 49
0.0
 74
     0
 49
-3.0
 74
     0
 49
0.0
 74
     0
 49
-3.0
 74
     0
  0
LTYPE
  5
A8
330
5
100
AcDbSymbolTableRecord
100
AcDbLinetypeTableRecord
  2
ACAD_ISO07W100
 70
     0
  3
ISO dot . . . . . . . . . . . . . . . . . . . .
 72
    65
 73
     2
 40
3.0
 49
0.0
 74
     0
 49
-3.0
 74
     0
  0
LTYPE
  5
A9
330
5
100
AcDbSymbolTableRecord
100
AcDbLinetypeTableRecord
  2
ACAD_ISO08W100
 70
     0
  3
ISO long-dash short-dash ____ __ ____ __ ____ _
 72
    65
 73
     4
 40
36.0
 49
24.0
 74
     0
 49
-3.0
 74
     0
 49
6.0
 74
     0
 49
-3.0
 74
     0
  0
LTYPE
  5
AA
330
5
100
AcDbSymbolTableRecord
100
AcDbLinetypeTableRecord
  2
ACAD_ISO09W100
 70
     0
  3
ISO long-dash double-short-dash ____ __ __ ____
 72
    65
 73
     6
 40
45.0
 49
24.0
 74
     0
 49
-3.0
 74
     0
 49
6.0
 74
     0
 49
-3.0
 74
     0
 49
6.0
 74
     0
 49
-3.0
 74
     0
  0
LTYPE
  5
AB
330
5
100
AcDbSymbolTableRecord
100
AcDbLinetypeTableRecord
  2
ACAD_ISO10W100
 70
     0
  3
ISO dash dot __ . __ . __ . __ . __ . __ . __ .
 72
    65
 73
     4
 40
18.0
 49
12.0
 74
     0
 49
-3.0
 74
     0
 49
0.0
 74
     0
 49
-3.0
 74
     0
  0
LTYPE
  5
AC
330
5
100
AcDbSymbolTableRecord
100
AcDbLinetypeTableRecord
  2
ACAD_ISO11W100
 70
     0
  3
ISO double-dash dot __ __ . __ __ . __ __ . __ 
 72
    65
 73
     6
 40
33.0
 49
12.0
 74
     0
 49
-3.0
 74
     0
 49
12.0
 74
     0
 49
-3.0
 74
     0
 49
0.0
 74
     0
 49
-3.0
 74
     0
  0
LTYPE
  5
AD
330
5
100
AcDbSymbolTableRecord
100
AcDbLinetypeTableRecord
  2
ACAD_ISO12W100
 70
     0
  3
ISO dash double-dot __ . . __ . . __ . . __ . .
 72
    65
 73
     6
 40
21.0
 49
12.0
 74
     0
 49
-3.0
 74
     0
 49
0.0
 74
     0
 49
-3.0
 74
     0
 49
0.0
 74
     0
 49
-3.0
 74
     0
  0
LTYPE
  5
AE
330
5
100
AcDbSymbolTableRecord
100
AcDbLinetypeTableRecord
  2
ACAD_ISO13W100
 70
     0
  3
ISO double-dash double-dot __ __ . . __ __ . . 
 72
    65
 73
     8
 40
36.0
 49
12.0
 74
     0
 49
-3.0
 74
     0
 49
12.0
 74
     0
 49
-3.0
 74
     0
 49
0.0
 74
     0
 49
-3.0
 74
     0
 49
0.0
 74
     0
 49
-3.0
 74
     0
  0
LTYPE
  5
AF
330
5
100
AcDbSymbolTableRecord
100
AcDbLinetypeTableRecord
  2
ACAD_ISO14W100
 70
     0
  3
ISO dash triple-dot __ . . . __ . . . __ . . . 
 72
    65
 73
     8
 40
24.0
 49
12.0
 74
     0
 49
-3.0
 74
     0
 49
0.0
 74
     0
 49
-3.0
 74
     0
 49
0.0
 74
     0
 49
-3.0
 74
     0
 49
0.0
 74
     0
 49
-3.0
 74
     0
  0
LTYPE
  5
B0
330
5
100
AcDbSymbolTableRecord
100
AcDbLinetypeTableRecord
  2
ACAD_ISO15W100
 70
     0
  3
ISO double-dash triple-dot __ __ . . . __ __ . 
 72
    65
 73
    10
 40
39.0
 49
12.0
 74
     0
 49
-3.0
 74
     0
 49
12.0
 74
     0
 49
-3.0
 74
     0
 49
0.0
 74
     0
 49
-3.0
 74
     0
 49
0.0
 74
     0
 49
-3.0
 74
     0
 49
0.0
 74
     0
 49
-3.0
 74
     0
  0
LTYPE
  5
B3
330
5
100
AcDbSymbolTableRecord
100
AcDbLinetypeTableRecord
  2
FENCELINE1
 70
     0
  3
Fenceline circle ----0-----0----0-----0----0---
 72
    65
 73
     4
 40
36.83
 49
6.349999999999999
 74
     0
 49
-2.54
 74
     4
 75
   133
340
B2
 46
2.54
 50
0.0
 44
-2.54
 45
0.0
 49
-2.54
 74
     0
 49
25.4
 74
     0
  0
LTYPE
  5
B4
330
5
100
AcDbSymbolTableRecord
100
AcDbLinetypeTableRecord
  2
FENCELINE2
 70
     0
  3
Fenceline square ----[]-----[]----[]-----[]----
 72
    65
 73
     4
 40
36.83
 49
6.349999999999999
 74
     0
 49
-2.54
 74
     4
 75
   132
340
B2
 46
2.54
 50
0.0
 44
-2.54
 45
0.0
 49
-2.54
 74
     0
 49
25.4
 74
     0
  0
LTYPE
  5
B5
330
5
100
AcDbSymbolTableRecord
100
AcDbLinetypeTableRecord
  2
TRACKS
 70
     0
  3
Tracks -|-|-|-|-|-|-|-|-|-|-|-|-|-|-|-|-|-|-|-|
 72
    65
 73
     2
 40
7.62
 49
3.81
 74
     4
 75
   130
340
B2
 46
6.349999999999999
 50
0.0
 44
0.0
 45
0.0
 49
3.81
 74
     0
  0
LTYPE
  5
B6
330
5
100
AcDbSymbolTableRecord
100
AcDbLinetypeTableRecord
  2
BATTING
 70
     0
  3
Batting SSSSSSSSSSSSSSSSSSSSSSSSSSSSSSSSSSSSSSS
 72
    65
 73
     4
 40
10.16254
 49
0.00254
 74
     0
 49
-2.54
 74
     4
 75
   134
340
B2
 46
2.54
 50
0.0
 44
-2.54
 45
0.0
 49
-5.08
 74
     4
 75
   134
340
B2
 46
2.54
 50
180.0
 44
2.54
 45
0.0
 49
-2.54
 74
     0
  0
LTYPE
  5
B7
330
5
100
AcDbSymbolTableRecord
100
AcDbLinetypeTableRecord
  2
HOT_WATER_SUPPLY
 70
     0
  3
Hot water supply ---- HW ---- HW ---- HW ----
 72
    65
 73
     3
 40
22.86
 49
12.7
 74
     0
 49
-5.08
 74
     2
 75
     0
340
60
 46
2.54
 50
0.0
 44
-2.54
 45
-1.27
  9
HW
 49
-5.08
 74
     0
  0
LTYPE
  5
B8
330
5
100
AcDbSymbolTableRecord
100
AcDbLinetypeTableRecord
  2
GAS_LINE
 70
     0
  3
Gas line ----GAS----GAS----GAS----GAS----GAS---
 72
    65
 73
     3
 40
24.13
 49
12.7
 74
     0
 49
-5.08
 74
     2
 75
     0
340
60
 46
2.54
 50
0.0
 44
-2.54
 45
-1.27
  9
GAS
 49
-6.349999999999999
 74
     0
  0
LTYPE
  5
B9
330
5
100
AcDbSymbolTableRecord
100
AcDbLinetypeTableRecord
  2
ZIGZAG
 70
     0
  3
Zig zag /\/\/\/\/\/\/\/\/\/\/\/\/\/\/\/\/\/\/\/
 72
    65
 73
     4
 40
20.32254
 49
0.00254
 74
     0
 49
-5.08
 74
     4
 75
   131
340
B2
 46
5.08
 50
0.0
 44
-5.08
 45
0.0
 49
-10.16
 74
     4
 75
   131
340
B2
 46
5.08
 50
180.0
 44
5.08
 45
0.0
 49
-5.08
 74
     0
  0
LTYPE
  5
D8
330
5
100
AcDbSymbolTableRecord
100
AcDbLinetypeTableRecord
  2
NON_PLOTING_ACAD
 70
     0
  3

 72
    65
 73
     0
 40
0.0
  0
ENDTAB
  0
TABLE
  2
LAYER
  5
2
330
0
100
AcDbSymbolTable
 70
    32
  0
LAYER
  5
5F
330
2
100
AcDbSymbolTableRecord
100
AcDbLayerTableRecord
  2
0
 70
     0
 62
     7
  6
Continuous
370
    -3
390
F
347
21
  0
LAYER
  5
BE
330
2
100
AcDbSymbolTableRecord
100
AcDbLayerTableRecord
  2
スケッチ(細線)
 70
     0
 62
    30
420
 16744448
  6
Continuous
370
    18
390
F
347
21
  0
LAYER
  5
C2
330
2
100
AcDbSymbolTableRecord
100
AcDbLayerTableRecord
  2
一点鎖線(細線)
 70
     0
 62
    16
420
  8388608
  6
CHAIN
370
    18
390
F
347
21
  0
LAYER
  5
C5
330
2
100
AcDbSymbolTableRecord
100
AcDbLayerTableRecord
  2
実線(細線)
 70
     0
 62
    16
420
  8388608
  6
Continuous
370
    18
390
F
347
21
  0
LAYER
  5
C6
330
2
100
AcDbSymbolTableRecord
100
AcDbLayerTableRecord
  2
実線(太線)
 70
     0
 62
    98
420
    16128
  6
Continuous
370
    70
390
F
347
21
  0
LAYER
  5
C7
330
2
100
AcDbSymbolTableRecord
100
AcDbLayerTableRecord
  2
実線(中線)
 70
     0
 62
     5
420
      255
  6
Continuous
370
    35
390
F
347
21
  0
LAYER
  5
C8
330
2
100
AcDbSymbolTableRecord
100
AcDbLayerTableRecord
  2
寸法(細線)
 70
     0
 62
     7
  6
Continuous
370
    18
390
F
347
21
  0
LAYER
  5
D5
330
2
100
AcDbSymbolTableRecord
100
AcDbLayerTableRecord
  2
破線(細線)
 70
     0
 62
    16
420
  8388608
  6
DASHED
370
    18
390
F
347
21
  0
LAYER
  5
358
330
2
100
AcDbSymbolTableRecord
100
AcDbLayerTableRecord
  2
Defpoints
 70
     0
 62
     7
  6
Continuous
290
     0
370
    -3
390
F
347
21
  0
ENDTAB
  0
TABLE
  2
STYLE
  5
3
330
0
100
AcDbSymbolTable
 70
    26
  0
STYLE
  5
60
330
3
100
AcDbSymbolTableRecord
100
AcDbTextStyleTableRecord
  2
Standard
 70
     0
 40
0.0
 41
1.0
 50
0.0
 71
     0
 42
0.2
  3
TAHOMA.TTF
  4

1001
ACAD
1000
Tahoma
1071
      256
  0
STYLE
  5
65
330
3
100
AcDbSymbolTableRecord
100
AcDbTextStyleTableRecord
  2
Annotative
 70
     0
 40
0.0
 41
1.0
 50
0.0
 71
     0
 42
0.2
  3
txt
  4

1001
AcadAnnotative
1000
AnnotativeData
1002
{
1070
     1
1070
     1
1002
}
  0
STYLE
  5
B2
330
3
100
AcDbSymbolTableRecord
100
AcDbTextStyleTableRecord
  2

 70
     1
 40
0.0
 41
1.0
 50
0.0
 71
     0
 42
0.2
  3
ltypeshp.shx
  4

  0
STYLE
  5
D9
330
3
100
AcDbSymbolTableRecord
100
AcDbTextStyleTableRecord
  2
Label Text (ULVAC)
 70
     0
 40
0.0
 41
1.0
 50
0.0
 71
     0
 42
0.2
  3
TAHOMA.TTF
  4

1001
ACAD
1000
Tahoma
1071
      256
  0
STYLE
  5
DA
330
3
100
AcDbSymbolTableRecord
100
AcDbTextStyleTableRecord
  2
Note Text (JIS)
 70
     0
 40
0.0
 41
1.0
 50
0.0
 71
     0
 42
0.2
  3
TAHOMA.TTF
  4

1001
ACAD
1000
Tahoma
1071
      256
  0
STYLE
  5
DB
330
3
100
AcDbSymbolTableRecord
100
AcDbTextStyleTableRecord
  2
Note Text (ULVAC)
 70
     0
 40
0.0
 41
1.0
 50
0.0
 71
     0
 42
0.2
  3
TAHOMA.TTF
  4

1001
ACAD
1000
Tahoma
1071
      256
  0
STYLE
  5
DC
330
3
100
AcDbSymbolTableRecord
100
AcDbTextStyleTableRecord
  2
Note Text (ULVAC_Balloon)
 70
     0
 40
0.0
 41
1.0
 50
0.0
 71
     0
 42
0.2
  3
TAHOMA.TTF
  4

1001
ACAD
1000
Tahoma
1071
      256
  0
STYLE
  5
DD
330
3
100
AcDbSymbolTableRecord
100
AcDbTextStyleTableRecord
  2
Note Text (ULVAC_寸法-下線)
 70
     0
 40
0.0
 41
1.0
 50
0.0
 71
     0
 42
0.2
  3
TAHOMA.TTF
  4

1001
ACAD
1000
Tahoma
1071
      256
  0
STYLE
  5
DE
330
3
100
AcDbSymbolTableRecord
100
AcDbTextStyleTableRecord
  2
Note Text (ULVAC_寸法)
 70
     0
 40
0.0
 41
1.0
 50
0.0
 71
     0
 42
0.2
  3
TAHOMA.TTF
  4

1001
ACAD
1000
Tahoma
1071
      256
  0
STYLE
  5
DF
330
3
100
AcDbSymbolTableRecord
100
AcDbTextStyleTableRecord
  2
ULVAC
 70
     0
 40
0.0
 41
1.0
 50
0.0
 71
     0
 42
0.2
  3
MS Gothic.ttf
  4

1001
ACAD
1000
MS Gothic
1071
      256
  0
STYLE
  5
E0
330
3
100
AcDbSymbolTableRecord
100
AcDbTextStyleTableRecord
  2
図枠シンボル用(高さ2.0)
 70
     0
 40
0.0
 41
0.8000000119209289
 50
0.0
 71
     0
 42
0.2
  3
TAHOMA.TTF
  4

1001
ACAD
1000
Tahoma
1071
      256
  0
STYLE
  5
E1
330
3
100
AcDbSymbolTableRecord
100
AcDbTextStyleTableRecord
  2
図枠シンボル用(高さ3.2)
 70
     0
 40
0.0
 41
1.0
 50
0.0
 71
     0
 42
0.2
  3
TAHOMA.TTF
  4

1001
ACAD
1000
Tahoma
1071
      256
  0
STYLE
  5
E2
330
3
100
AcDbSymbolTableRecord
100
AcDbTextStyleTableRecord
  2
図枠用
 70
     0
 40
0.0
 41
1.0
 50
0.0
 71
     0
 42
0.2
  3
TAHOMA.TTF
  4

1001
ACAD
1000
Tahoma
1071
      256
  0
STYLE
  5
E3
330
3
100
AcDbSymbolTableRecord
100
AcDbTextStyleTableRecord
  2
部品表用
 70
     0
 40
0.0
 41
0.75
 50
0.0
 71
     0
 42
0.2
  3
TAHOMA.TTF
  4

1001
ACAD
1000
Tahoma
1071
      256
  0
STYLE
  5
252
330
3
100
AcDbSymbolTableRecord
100
AcDbTextStyleTableRecord
  2
文字スタイル35
 70
     0
 40
0.0
 41
1.0
 50
0.0
 71
     0
 42
0.2
  3
TAHOMA.TTF
  4

1001
ACAD
1000
Tahoma
1071
      256
  0
STYLE
  5
25B
330
3
100
AcDbSymbolTableRecord
100
AcDbTextStyleTableRecord
  2
文字スタイル211
 70
     0
 40
0.0
 41
0.5
 50
0.0
 71
     0
 42
0.2
  3
TAHOMA.TTF
  4

1001
ACAD
1000
Tahoma
1071
      256
  0
STYLE
  5
25F
330
3
100
AcDbSymbolTableRecord
100
AcDbTextStyleTableRecord
  2
文字スタイル60
 70
     0
 40
0.0
 41
1.0
 50
0.0
 71
     0
 42
0.2
  3
TAHOMA.TTF
  4

1001
ACAD
1000
Tahoma
1071
      256
  0
STYLE
  5
261
330
3
100
AcDbSymbolTableRecord
100
AcDbTextStyleTableRecord
  2
文字スタイル206
 70
     0
 40
0.0
 41
1.0
 50
0.0
 71
     0
 42
0.2
  3
TAHOMA.TTF
  4

1001
ACAD
1000
Tahoma
1071
      256
  0
STYLE
  5
263
330
3
100
AcDbSymbolTableRecord
100
AcDbTextStyleTableRecord
  2
文字スタイル205
 70
     0
 40
0.0
 41
1.0
 50
0.0
 71
     0
 42
0.2
  3
TAHOMA.TTF
  4

1001
ACAD
1000
Tahoma
1071
      256
  0
STYLE
  5
266
330
3
100
AcDbSymbolTableRecord
100
AcDbTextStyleTableRecord
  2
文字スタイル207
 70
     0
 40
0.0
 41
1.0
 50
0.0
 71
     0
 42
0.2
  3
TAHOMA.TTF
  4

1001
ACAD
1000
Tahoma
1071
      256
  0
STYLE
  5
268
330
3
100
AcDbSymbolTableRecord
100
AcDbTextStyleTableRecord
  2
文字スタイル208
 70
     0
 40
0.0
 41
1.0
 50
0.0
 71
     0
 42
0.2
  3
TAHOMA.TTF
  4

1001
ACAD
1000
Tahoma
1071
      256
  0
STYLE
  5
26A
330
3
100
AcDbSymbolTableRecord
100
AcDbTextStyleTableRecord
  2
文字スタイル107
 70
     0
 40
0.0
 41
1.0
 50
0.0
 71
     0
 42
0.2
  3
TAHOMA.TTF
  4

1001
ACAD
1000
Tahoma
1071
      256
  0
STYLE
  5
271
330
3
100
AcDbSymbolTableRecord
100
AcDbTextStyleTableRecord
  2
文字スタイル204
 70
     0
 40
0.0
 41
1.0
 50
0.0
 71
     0
 42
0.2
  3
TAHOMA.TTF
  4

1001
ACAD
1000
Tahoma
1071
      256
  0
STYLE
  5
273
330
3
100
AcDbSymbolTableRecord
100
AcDbTextStyleTableRecord
  2
文字スタイル32
 70
     0
 40
0.0
 41
1.0
 50
0.0
 71
     0
 42
0.2
  3
TAHOMA.TTF
  4

1001
ACAD
1000
Tahoma
1071
      256
  0
STYLE
  5
275
330
3
100
AcDbSymbolTableRecord
100
AcDbTextStyleTableRecord
  2
文字スタイル228
 70
     0
 40
0.0
 41
1.0
 50
0.0
 71
     0
 42
0.2
  3
TAHOMA.TTF
  4

1001
ACAD
1000
Tahoma
1071
      256
  0
STYLE
  5
279
330
3
100
AcDbSymbolTableRecord
100
AcDbTextStyleTableRecord
  2
文字スタイル117
 70
     0
 40
0.0
 41
1.0
 50
0.0
 71
     0
 42
0.2
  3
MS Gothic.ttf
  4

1001
ACAD
1000
MS Gothic
1071
      256
  0
ENDTAB
  0
TABLE
  2
VIEW
  5
6
330
0
100
AcDbSymbolTable
 70
     0
  0
ENDTAB
  0
TABLE
  2
UCS
  5
7
330
0
100
AcDbSymbolTable
 70
     0
  0
ENDTAB
  0
TABLE
  2
APPID
  5
9
330
0
100
AcDbSymbolTable
 70
     3
  0
APPID
  5
61
330
9
100
AcDbSymbolTableRecord
100
AcDbRegAppTableRecord
  2
ACAD
 70
     0
  0
APPID
  5
69
330
9
100
AcDbSymbolTableRecord
100
AcDbRegAppTableRecord
  2
AcadAnnotative
 70
     0
  0
APPID
  5
255
330
9
100
AcDbSymbolTableRecord
100
AcDbRegAppTableRecord
  2
AcadAnnoPO
 70
     0
  0
ENDTAB
  0
TABLE
  2
DIMSTYLE
  5
A
330
0
100
AcDbSymbolTable
 70
    15
100
AcDbDimStyleTable
 71
     2
340
EA
340
63
  0
DIMSTYLE
105
63
330
A
100
AcDbSymbolTableRecord
100
AcDbDimStyleTableRecord
  2
Standard
 70
     0
340
60
  0
DIMSTYLE
105
64
330
A
100
AcDbSymbolTableRecord
100
AcDbDimStyleTableRecord
  2
Annotative
 70
     0
340
60
1001
AcadAnnotative
1000
AnnotativeData
1002
{
1070
     1
1070
     1
1002
}
  0
DIMSTYLE
105
EA
102
{ACAD_REACTORS
330
357
330
42E
330
510
330
5F2
330
6CE
330
7B0
102
}
330
A
100
AcDbSymbolTableRecord
100
AcDbDimStyleTableRecord
  2
Default (ULVAC)
 70
     0
 40
0.5
 41
2.900000095367431
 42
1.27
 43
6.5
 44
1.199999999999999
 45
0.00000001
 46
10.0
 73
     0
 74
     0
 77
     1
 78
     8
 79
     2
140
3.5
143
0.03937
146
0.7999999863760812
147
0.8
171
     3
172
     1
176
   256
177
   256
178
   256
179
     2
271
     2
272
     3
274
     3
284
     8
340
DE
341
E4
342
E4
371
    -1
372
    -1
  0
DIMSTYLE
105
EB
330
A
100
AcDbSymbolTableRecord
100
AcDbDimStyleTableRecord
  2
Default (ULVAC)$7
 70
     0
 40
0.5
 41
2.900000095367431
 42
1.27
 43
6.5
 44
1.199999999999999
 45
0.00000001
 46
10.0
 73
     0
 74
     0
 77
     1
 78
     8
 79
     2
140
3.5
143
0.03937
146
0.7999999863760812
147
0.8
171
     3
172
     1
176
   256
177
   256
178
   256
179
     2
271
     2
272
     3
274
     3
284
     8
340
DE
341
E4
342
E4
371
    -1
372
    -1
  0
DIMSTYLE
105
EC
330
A
100
AcDbSymbolTableRecord
100
AcDbDimStyleTableRecord
  2
Ｍｉｓｃｅｌｌａｎｅｏｕｓ　Ｏｂｊｅｃｔ (ULVAC)
 70
     0
 40
0.5
 41
5.800000190734863
 42
1.27
 43
6.5
 44
1.199999999999999
 45
0.00000001
 46
10.0
 73
     0
 74
     0
 77
     1
 78
     8
 79
     2
140
6.0
143
0.03937
146
0.75
147
0.8
171
     3
172
     1
176
   256
177
   256
178
   256
179
     2
271
     2
272
     3
274
     3
284
     8
286
     8
340
D9
341
E4
342
E4
371
    -1
372
    -1
  0
DIMSTYLE
105
ED
330
A
100
AcDbSymbolTableRecord
100
AcDbDimStyleTableRecord
  2
Ｍｉｓｃｅｌｌａｎｅｏｕｓ　Ｏｂｊｅｃｔ (ULVAC)$7
 70
     0
 40
0.5
 41
2.900000095367431
 42
1.27
 43
6.5
 44
1.199999999999999
 45
0.00000001
 46
10.0
 73
     0
 74
     0
 77
     1
 78
     8
 79
     2
140
6.0
143
0.03937
146
0.75
147
0.8
171
     3
172
     1
176
   256
177
   256
178
   256
179
     2
271
     2
272
     3
274
     3
284
     8
286
     8
340
D9
341
E4
342
E4
371
    -1
372
    -1
  0
DIMSTYLE
105
EE
330
A
100
AcDbSymbolTableRecord
100
AcDbDimStyleTableRecord
  2
下線付き寸法 (ULVAC)
 70
     0
 40
0.5
 41
2.900000095367431
 42
1.27
 43
6.5
 44
1.199999999999999
 45
0.00000001
 46
10.0
 73
     0
 74
     0
 77
     1
 78
     8
 79
     2
140
3.5
143
0.03937
146
0.7999999863760812
147
0.8
171
     3
172
     1
176
   256
177
   256
178
   256
179
     2
271
     2
272
     3
274
     3
284
     8
340
DD
341
E4
342
E4
371
    -1
372
    -1
  0
DIMSTYLE
105
EF
330
A
100
AcDbSymbolTableRecord
100
AcDbDimStyleTableRecord
  2
下線付き寸法 (ULVAC)$7
 70
     0
 40
0.5
 41
2.900000095367431
 42
1.27
 43
6.5
 44
1.199999999999999
 45
0.00000001
 46
10.0
 73
     0
 74
     0
 77
     1
 78
     8
 79
     2
140
3.5
143
0.03937
146
0.7999999863760812
147
0.8
171
     3
172
     1
176
   256
177
   256
178
   256
179
     2
271
     2
272
     3
274
     3
284
     8
340
DD
341
E4
342
E4
371
    -1
372
    -1
  0
DIMSTYLE
105
F0
330
A
100
AcDbSymbolTableRecord
100
AcDbDimStyleTableRecord
  2
斜め注記_水平寸法 (ULVAC)
 70
     0
 40
0.5
 41
2.900000095367431
 42
1.27
 43
6.5
 44
1.199999999999999
 45
0.00000001
 46
10.0
 77
     1
 78
     8
 79
     2
140
3.5
143
0.03937
146
0.7999999863760812
147
0.8
171
     3
172
     1
176
   256
177
   256
178
   256
179
     2
271
     2
272
     3
274
     3
284
     8
340
DE
341
E4
342
E4
371
    -1
372
    -1
  0
DIMSTYLE
105
F1
330
A
100
AcDbSymbolTableRecord
100
AcDbDimStyleTableRecord
  2
斜め注記_水平寸法 (ULVAC)$7
 70
     0
 40
0.5
 41
2.900000095367431
 42
1.27
 43
6.5
 44
1.199999999999999
 45
0.00000001
 46
10.0
 77
     1
 78
     8
 79
     2
140
3.5
143
0.03937
146
0.7999999863760812
147
0.8
171
     3
172
     1
176
   256
177
   256
178
   256
179
     2
271
     2
272
     3
274
     3
284
     8
340
DE
341
E4
342
E4
371
    -1
372
    -1
  0
DIMSTYLE
105
F2
330
A
100
AcDbSymbolTableRecord
100
AcDbDimStyleTableRecord
  2
Alternate (ULVAC)
 70
     0
 40
0.5
 41
2.900000095367431
340
60
342
F3
  0
DIMSTYLE
105
FA
330
A
100
AcDbSymbolTableRecord
100
AcDbDimStyleTableRecord
  2
Alternate (ULVAC_Balloon)
 70
     0
 40
0.5
 41
2.900000095367431
340
60
342
F3
  0
DIMSTYLE
105
105
330
A
100
AcDbSymbolTableRecord
100
AcDbDimStyleTableRecord
  2
Datum (ULVAC)
 70
     0
 40
0.5
 41
2.25
340
60
342
F3
  0
DIMSTYLE
105
106
330
A
100
AcDbSymbolTableRecord
100
AcDbDimStyleTableRecord
  2
General (ULVAC_Balloon)
 70
     0
 40
0.5
 41
2.900000095367431
340
60
342
F3
  0
DIMSTYLE
105
115
330
A
100
AcDbSymbolTableRecord
100
AcDbDimStyleTableRecord
  2
Large (ISO)
 70
     0
 40
0.5
 41
5.0
340
60
342
F3
  0
ENDTAB
  0
TABLE
  2
BLOCK_RECORD
  5
1
330
0
100
AcDbSymbolTable
 70
    14
  0
BLOCK_RECORD
  5
77
330
1
100
AcDbSymbolTableRecord
100
AcDbBlockTableRecord
  2
*Model_Space
340
7A
 70
     0
280
     1
281
     0
  0
BLOCK_RECORD
  5
73
330
1
100
AcDbSymbolTableRecord
100
AcDbBlockTableRecord
  2
*Paper_Space
340
76
 70
     0
280
     1
281
     0
  0
BLOCK_RECORD
  5
7B
330
1
100
AcDbSymbolTableRecord
100
AcDbBlockTableRecord
  2
*Paper_Space0
340
7E
 70
     0
280
     1
281
     0
  0
BLOCK_RECORD
  5
E4
330
1
100
AcDbSymbolTableRecord
100
AcDbBlockTableRecord
  2
Open-1
340
0
102
{BLKREFS
331
428
331
429
331
50A
331
50B
331
5EC
331
5ED
331
6C8
331
6C9
331
7AA
331
7AB
331
88D
331
88E
102
}
 70
     0
280
     1
281
     0
  0
BLOCK_RECORD
  5
F3
330
1
100
AcDbSymbolTableRecord
100
AcDbBlockTableRecord
  2
_Closed
340
0
 70
     0
280
     1
281
     0
  0
BLOCK_RECORD
  5
FB
330
1
100
AcDbSymbolTableRecord
100
AcDbBlockTableRecord
  2
DatumFilled45
340
0
 70
     0
280
     1
281
     0
  0
BLOCK_RECORD
  5
107
330
1
100
AcDbSymbolTableRecord
100
AcDbBlockTableRecord
  2
Filled-1
340
0
 70
     0
280
     1
281
     0
  0
BLOCK_RECORD
  5
116
330
1
100
AcDbSymbolTableRecord
100
AcDbBlockTableRecord
  2
IPSTAMP_EJ
340
0
102
{BLKREFS
331
896
102
}
 70
     0
280
     1
281
     0
  0
BLOCK_RECORD
  5
11C
330
1
100
AcDbSymbolTableRecord
100
AcDbBlockTableRecord
  2
図面枠 ゾーン図枠(A3)
340
0
102
{BLKREFS
331
16D
102
}
 70
     0
280
     1
281
     0
  0
BLOCK_RECORD
  5
16E
330
1
100
AcDbSymbolTableRecord
100
AcDbBlockTableRecord
  2
表題欄 ULVAC表題欄
340
0
102
{BLKREFS
331
27D
102
}
 70
     0
280
     1
281
     0
  0
BLOCK_RECORD
  5
359
330
1
100
AcDbSymbolTableRecord
100
AcDbBlockTableRecord
  2
*D8
340
0
 70
     0
280
     1
281
     0
  0
BLOCK_RECORD
  5
42F
330
1
100
AcDbSymbolTableRecord
100
AcDbBlockTableRecord
  2
*D9
340
0
 70
     0
280
     1
281
     0
  0
BLOCK_RECORD
  5
511
330
1
100
AcDbSymbolTableRecord
100
AcDbBlockTableRecord
  2
*D10
340
0
 70
     0
280
     1
281
     0
  0
BLOCK_RECORD
  5
5F3
330
1
100
AcDbSymbolTableRecord
100
AcDbBlockTableRecord
  2
*D11
340
0
 70
     0
280
     1
281
     0
  0
BLOCK_RECORD
  5
6CF
330
1
100
AcDbSymbolTableRecord
100
AcDbBlockTableRecord
  2
*D12
340
0
 70
     0
280
     1
281
     0
  0
BLOCK_RECORD
  5
7B1
330
1
100
AcDbSymbolTableRecord
100
AcDbBlockTableRecord
  2
*D13
340
0
 70
     0
280
     1
281
     0
  0
ENDTAB
  0
ENDSEC
  0
SECTION
  2
BLOCKS
  0
BLOCK
  5
78
330
77
100
AcDbEntity
  8
0
100
AcDbBlockBegin
  2
*Model_Space
 70
     0
 10
0.0
 20
0.0
 30
0.0
  3
*Model_Space
  1

  0
ENDBLK
  5
79
330
77
100
AcDbEntity
  8
0
100
AcDbBlockEnd
  0
BLOCK
  5
74
330
73
100
AcDbEntity
 67
     1
  8
0
100
AcDbBlockBegin
  2
*Paper_Space
 70
     0
 10
0.0
 20
0.0
 30
0.0
  3
*Paper_Space
  1

  0
ENDBLK
  5
75
330
73
100
AcDbEntity
 67
     1
  8
0
100
AcDbBlockEnd
  0
BLOCK
  5
7C
330
7B
100
AcDbEntity
 67
     1
  8
0
100
AcDbBlockBegin
  2
*Paper_Space0
 70
     0
 10
0.0
 20
0.0
 30
0.0
  3
*Paper_Space0
  1

  0
ENDBLK
  5
7D
330
7B
100
AcDbEntity
 67
     1
  8
0
100
AcDbBlockEnd
  0
BLOCK
  5
E5
330
E4
100
AcDbEntity
  8
0
100
AcDbBlockBegin
  2
Open-1
 70
     0
 10
0.0
 20
0.0
 30
0.0
  3
Open-1
  1

  0
LINE
  5
E7
330
E4
100
AcDbEntity
  8
0
 62
     0
100
AcDbLine
 10
-1.0
 20
0.0
 30
0.0
 11
0.0
 21
0.0
 31
0.0
  0
LINE
  5
E8
330
E4
100
AcDbEntity
  8
0
 62
     0
100
AcDbLine
 10
-1.0
 20
-0.2758620689655173
 30
0.0
 11
0.0
 21
0.0
 31
0.0
  0
LINE
  5
E9
330
E4
100
AcDbEntity
  8
0
 62
     0
100
AcDbLine
 10
0.0
 20
0.0
 30
0.0
 11
-1.0
 21
0.2758620689655173
 31
0.0
  0
ENDBLK
  5
E6
330
E4
100
AcDbEntity
  8
0
100
AcDbBlockEnd
  0
BLOCK
  5
F8
330
F3
100
AcDbEntity
  8
0
100
AcDbBlockBegin
  2
_Closed
 70
     0
 10
0.0
 20
0.0
 30
0.0
  3
_Closed
  1

  0
LINE
  5
F4
330
F3
100
AcDbEntity
  8
0
  6
ByBlock
 62
     0
370
    -2
100
AcDbLine
 10
-1.0
 20
0.1666666666666666
 30
0.0
 11
0.0
 21
0.0
 31
0.0
  0
LINE
  5
F5
330
F3
100
AcDbEntity
  8
0
  6
ByBlock
 62
     0
370
    -2
100
AcDbLine
 10
0.0
 20
0.0
 30
0.0
 11
-1.0
 21
-0.1666666666666666
 31
0.0
  0
LINE
  5
F6
330
F3
100
AcDbEntity
  8
0
  6
ByBlock
 62
     0
370
    -2
100
AcDbLine
 10
-1.0
 20
0.1666666666666666
 30
0.0
 11
-1.0
 21
-0.1666666666666666
 31
0.0
  0
LINE
  5
F7
330
F3
100
AcDbEntity
  8
0
  6
ByBlock
 62
     0
370
    -2
100
AcDbLine
 10
0.0
 20
0.0
 30
0.0
 11
-1.0
 21
0.0
 31
0.0
  0
ENDBLK
  5
F9
330
F3
100
AcDbEntity
  8
0
100
AcDbBlockEnd
  0
BLOCK
  5
FC
330
FB
100
AcDbEntity
  8
0
100
AcDbBlockBegin
  2
DatumFilled45
 70
     0
 10
0.0
 20
0.0
 30
0.0
  3
DatumFilled45
  1

  0
POLYLINE
  5
FE
330
FB
100
AcDbEntity
  8
0
 62
     0
100
AcDb2dPolyline
 66
     1
 10
0.0
 20
0.0
 30
0.0
 70
   128
  0
VERTEX
  5
FF
330
FE
100
AcDbEntity
  8
0
 62
     0
100
AcDbVertex
100
AcDb2dVertex
 10
0.0
 20
1.0
 30
0.0
  0
VERTEX
  5
100
330
FE
100
AcDbEntity
  8
0
 62
     0
100
AcDbVertex
100
AcDb2dVertex
 10
0.0
 20
-1.0
 30
0.0
  0
VERTEX
  5
102
330
FE
100
AcDbEntity
  8
0
 62
     0
100
AcDbVertex
100
AcDb2dVertex
 10
-1.0
 20
0.0
 30
0.0
  0
VERTEX
  5
103
330
FE
100
AcDbEntity
  8
0
 62
     0
100
AcDbVertex
100
AcDb2dVertex
 10
0.0
 20
1.0
 30
0.0
  0
SEQEND
  5
101
330
FE
100
AcDbEntity
  8
0
 62
     0
  0
SOLID
  5
104
330
FB
100
AcDbEntity
  8
0
 62
     0
100
AcDbTrace
 10
0.0
 20
1.0
 30
0.0
 11
0.0
 21
-1.0
 31
0.0
 12
-1.0
 22
0.0
 32
0.0
 13
0.0
 23
1.0
 33
0.0
  0
ENDBLK
  5
FD
330
FB
100
AcDbEntity
  8
0
100
AcDbBlockEnd
  0
BLOCK
  5
108
330
107
100
AcDbEntity
  8
0
100
AcDbBlockBegin
  2
Filled-1
 70
     0
 10
0.0
 20
0.0
 30
0.0
  3
Filled-1
  1

  0
LINE
  5
10A
330
107
100
AcDbEntity
  8
0
 62
     0
100
AcDbLine
 10
-1.0
 20
0.0
 30
0.0
 11
0.0
 21
0.0
 31
0.0
  0
POLYLINE
  5
10B
330
107
100
AcDbEntity
  8
0
 62
     0
100
AcDb2dPolyline
 66
     1
 10
0.0
 20
0.0
 30
0.0
 70
   128
  0
VERTEX
  5
10C
330
10B
100
AcDbEntity
  8
0
 62
     0
100
AcDbVertex
100
AcDb2dVertex
 10
-1.0
 20
-0.1
 30
0.0
  0
VERTEX
  5
10D
330
10B
100
AcDbEntity
  8
0
 62
     0
100
AcDbVertex
100
AcDb2dVertex
 10
0.0
 20
0.0
 30
0.0
  0
VERTEX
  5
10F
330
10B
100
AcDbEntity
  8
0
 62
     0
100
AcDbVertex
100
AcDb2dVertex
 10
-1.0
 20
0.1
 30
0.0
  0
VERTEX
  5
110
330
10B
100
AcDbEntity
  8
0
 62
     0
100
AcDbVertex
100
AcDb2dVertex
 10
-1.0
 20
-0.1
 30
0.0
  0
SEQEND
  5
10E
330
10B
100
AcDbEntity
  8
0
 62
     0
  0
SOLID
  5
111
330
107
100
AcDbEntity
  8
0
 62
     0
100
AcDbTrace
 10
-1.0
 20
-0.1
 30
0.0
 11
0.0
 21
0.0
 31
0.0
 12
-1.0
 22
0.1
 32
0.0
 13
-1.0
 23
-0.1
 33
0.0
  0
LINE
  5
112
330
107
100
AcDbEntity
  8
0
 62
     0
100
AcDbLine
 10
-1.0
 20
-0.1
 30
0.0
 11
0.0
 21
0.0
 31
0.0
  0
LINE
  5
113
330
107
100
AcDbEntity
  8
0
 62
     0
100
AcDbLine
 10
0.0
 20
0.0
 30
0.0
 11
-1.0
 21
0.1
 31
0.0
  0
LINE
  5
114
330
107
100
AcDbEntity
  8
0
 62
     0
100
AcDbLine
 10
-1.0
 20
0.1
 30
0.0
 11
-1.0
 21
-0.1
 31
0.0
  0
ENDBLK
  5
109
330
107
100
AcDbEntity
  8
0
100
AcDbBlockEnd
  0
BLOCK
  5
117
330
116
100
AcDbEntity
  8
0
100
AcDbBlockBegin
  2
IPSTAMP_EJ
 70
     0
 10
0.0
 20
0.0
 30
0.0
  3
IPSTAMP_EJ
  1

  0
MTEXT
  5
119
330
116
100
AcDbEntity
  8
寸法(細線)
 62
     7
100
AcDbMText
 10
1.999999999999992
 20
0.4935540896567581
 30
0.0
 40
2.199999988079071
 41
101.2525
 46
0.0
 71
     7
 72
     1
  1
\fＭＳ ゴシック|b0|i0;\W0.91;\H2.2000;\fTahoma|b0|i0;\W0.91;\H2.2000;当図面の知的所有権はアルバックに帰属します。\P当社の書面による許可無き複写、製作及び他者への漏洩は禁止します。
  7
ULVAC
 73
     2
 44
0.9461999535560607
  0
MTEXT
  5
11B
330
116
100
AcDbEntity
  8
寸法(細線)
 62
     7
100
AcDbMText
 10
1.999999999999992
 20
6.878575599090988
 30
0.0
 40
2.199999988079071
 41
101.2524999999999
 46
0.0
 71
     7
 72
     1
  1
\fＭＳ ゴシック|b0|i0;\H2.2000;\fTahoma|b0|i0;\H2.2000;THIS DRAWING　IS PROPERTY OF ULVAC INC.\PTHIS INFORMATION IS NOT TO BE COPIED, REPRODUCED\POR DIVULGED WITHOUT WRITTEN PERMISSION FROM ULVAC INC.
  7
ULVAC
 73
     2
 44
0.996000051498413
  0
ENDBLK
  5
118
330
116
100
AcDbEntity
  8
0
100
AcDbBlockEnd
  0
BLOCK
  5
11D
330
11C
100
AcDbEntity
  8
0
100
AcDbBlockBegin
  2
図面枠 ゾーン図枠(A3)
 70
     0
 10
0.0
 20
0.0
 30
0.0
  3
図面枠 ゾーン図枠(A3)
  1

  0
LINE
  5
11F
330
11C
100
AcDbEntity
  8
実線(太線)
100
AcDbLine
 10
25.00000000000022
 20
287.0000000000008
 30
0.0
 11
409.9999999999995
 21
287.0000000000001
 31
0.0
  0
LINE
  5
120
330
11C
100
AcDbEntity
  8
実線(太線)
100
AcDbLine
 10
409.9999999999995
 20
287.0000000000001
 30
0.0
 11
409.9999999999995
 21
9.99999999999968
 31
0.0
  0
LINE
  5
121
330
11C
100
AcDbEntity
  8
実線(太線)
100
AcDbLine
 10
409.9999999999995
 20
9.999999999999666
 30
0.0
 11
25.00000000000035
 21
9.999999999999324
 31
0.0
  0
LINE
  5
122
330
11C
100
AcDbEntity
  8
実線(太線)
100
AcDbLine
 10
25.00000000000034
 20
9.999999999999324
 30
0.0
 11
25.00000000000022
 21
287.0000000000008
 31
0.0
  0
LINE
  5
123
330
11C
100
AcDbEntity
  8
実線(細線)
100
AcDbLine
 10
210.0
 20
292.0
 30
0.0
 11
209.9999999999996
 21
282.0
 31
0.0
  0
LINE
  5
124
330
11C
100
AcDbEntity
  8
実線(細線)
100
AcDbLine
 10
20.0000000000001
 20
148.4999999999999
 30
0.0
 11
30.00000000000004
 21
148.4999999999999
 31
0.0
  0
LINE
  5
125
330
11C
100
AcDbEntity
  8
実線(細線)
100
AcDbLine
 10
210.0000000000002
 20
5.000000000000277
 30
0.0
 11
210.0
 21
14.99999999999945
 31
0.0
  0
LINE
  5
126
330
11C
100
AcDbEntity
  8
実線(細線)
100
AcDbLine
 10
414.9999999999995
 20
148.5000000000002
 30
0.0
 11
404.9999999999995
 21
148.5000000000002
 31
0.0
  0
LINE
  5
127
330
11C
100
AcDbEntity
  8
実線(細線)
100
AcDbLine
 10
52.49999999999959
 20
286.9999999999999
 30
0.0
 11
52.49999999999993
 21
291.9999999999999
 31
0.0
  0
LINE
  5
128
330
11C
100
AcDbEntity
  8
実線(細線)
100
AcDbLine
 10
367.4999999999999
 20
292.0000000000001
 30
0.0
 11
367.4999999999999
 21
286.9999999999998
 31
0.0
  0
LINE
  5
129
330
11C
100
AcDbEntity
  8
実線(細線)
100
AcDbLine
 10
104.9999999999996
 20
287.0
 30
0.0
 11
105.0
 21
292.0
 31
0.0
  0
LINE
  5
12A
330
11C
100
AcDbEntity
  8
実線(細線)
100
AcDbLine
 10
157.4999999999996
 20
287.0
 30
0.0
 11
157.4999999999999
 21
292.0
 31
0.0
  0
LINE
  5
12B
330
11C
100
AcDbEntity
  8
実線(細線)
100
AcDbLine
 10
209.9999999999996
 20
287.0
 30
0.0
 11
210.0
 21
292.0
 31
0.0
  0
LINE
  5
12C
330
11C
100
AcDbEntity
  8
実線(細線)
100
AcDbLine
 10
262.4999999999996
 20
287.0
 30
0.0
 11
262.4999999999999
 21
292.0000000000001
 31
0.0
  0
LINE
  5
12D
330
11C
100
AcDbEntity
  8
実線(細線)
100
AcDbLine
 10
314.9999999999995
 20
287.0
 30
0.0
 11
314.9999999999999
 21
292.0000000000001
 31
0.0
  0
LINE
  5
12E
330
11C
100
AcDbEntity
  8
実線(細線)
100
AcDbLine
 10
25.0
 20
247.4999999999999
 30
0.0
 11
19.99999999999999
 21
247.4999999999999
 31
0.0
  0
LINE
  5
12F
330
11C
100
AcDbEntity
  8
実線(細線)
100
AcDbLine
 10
20.0000000000002
 20
49.49999999999988
 30
0.0
 11
25.00000000000009
 21
49.49999999999988
 31
0.0
  0
LINE
  5
130
330
11C
100
AcDbEntity
  8
実線(細線)
100
AcDbLine
 10
25.00000000000003
 20
197.9999999999998
 30
0.0
 11
20.00000000000004
 21
197.9999999999998
 31
0.0
  0
LINE
  5
131
330
11C
100
AcDbEntity
  8
実線(細線)
100
AcDbLine
 10
25.00000000000004
 20
148.4999999999999
 30
0.0
 11
20.0000000000001
 21
148.4999999999999
 31
0.0
  0
LINE
  5
132
330
11C
100
AcDbEntity
  8
実線(細線)
100
AcDbLine
 10
25.00000000000007
 20
98.99999999999989
 30
0.0
 11
20.00000000000015
 21
98.99999999999989
 31
0.0
  0
LINE
  5
133
330
11C
100
AcDbEntity
  8
実線(細線)
100
AcDbLine
 10
52.5
 20
9.999999999999316
 30
0.0
 11
52.50000000000017
 21
5.000000000000238
 31
0.0
  0
LINE
  5
134
330
11C
100
AcDbEntity
  8
実線(細線)
100
AcDbLine
 10
367.5000000000001
 20
5.000000000000316
 30
0.0
 11
367.5
 21
9.999999999999587
 31
0.0
  0
LINE
  5
135
330
11C
100
AcDbEntity
  8
実線(細線)
100
AcDbLine
 10
105.0
 20
9.999999999999362
 30
0.0
 11
105.0000000000002
 21
5.000000000000252
 31
0.0
  0
LINE
  5
136
330
11C
100
AcDbEntity
  8
実線(細線)
100
AcDbLine
 10
157.5
 20
9.999999999999406
 30
0.0
 11
157.5000000000001
 21
5.000000000000264
 31
0.0
  0
LINE
  5
137
330
11C
100
AcDbEntity
  8
実線(細線)
100
AcDbLine
 10
210.0
 20
9.999999999999451
 30
0.0
 11
210.0000000000002
 21
5.000000000000277
 31
0.0
  0
LINE
  5
138
330
11C
100
AcDbEntity
  8
実線(細線)
100
AcDbLine
 10
262.5
 20
9.999999999999495
 30
0.0
 11
262.5000000000002
 21
5.000000000000291
 31
0.0
  0
LINE
  5
139
330
11C
100
AcDbEntity
  8
実線(細線)
100
AcDbLine
 10
315.0
 20
9.999999999999541
 30
0.0
 11
315.0000000000002
 21
5.000000000000302
 31
0.0
  0
LINE
  5
13A
330
11C
100
AcDbEntity
  8
実線(細線)
100
AcDbLine
 10
409.9999999999995
 20
247.5000000000002
 30
0.0
 11
414.9999999999995
 21
247.5000000000002
 31
0.0
  0
LINE
  5
13B
330
11C
100
AcDbEntity
  8
実線(細線)
100
AcDbLine
 10
414.9999999999995
 20
49.50000000000025
 30
0.0
 11
409.9999999999995
 21
49.50000000000028
 31
0.0
  0
LINE
  5
13C
330
11C
100
AcDbEntity
  8
実線(細線)
100
AcDbLine
 10
414.9999999999995
 20
198.0000000000002
 30
0.0
 11
409.9999999999995
 21
198.0000000000002
 31
0.0
  0
LINE
  5
13D
330
11C
100
AcDbEntity
  8
実線(細線)
100
AcDbLine
 10
414.9999999999995
 20
148.5000000000002
 30
0.0
 11
409.9999999999995
 21
148.5000000000002
 31
0.0
  0
LINE
  5
13E
330
11C
100
AcDbEntity
  8
実線(細線)
100
AcDbLine
 10
414.9999999999995
 20
99.00000000000027
 30
0.0
 11
409.9999999999995
 21
99.00000000000028
 31
0.0
  0
LINE
  5
13F
330
11C
100
AcDbEntity
  8
実線(細線)
100
AcDbLine
 10
407.5000000000001
 20
122.0000000000001
 30
0.0
 11
410.0
 21
122.0000000000001
 31
0.0
  0
LINE
  5
140
330
11C
100
AcDbEntity
  8
実線(細線)
100
AcDbLine
 10
410.0
 20
117.0000000000001
 30
0.0
 11
408.5
 21
117.0000000000001
 31
0.0
  0
LINE
  5
141
330
11C
100
AcDbEntity
  8
実線(細線)
100
AcDbLine
 10
407.5000000000001
 20
112.0000000000001
 30
0.0
 11
410.0
 21
112.0000000000001
 31
0.0
  0
LINE
  5
142
330
11C
100
AcDbEntity
  8
実線(細線)
100
AcDbLine
 10
410.0
 20
107.0
 30
0.0
 11
408.5
 21
107.0
 31
0.0
  0
LINE
  5
143
330
11C
100
AcDbEntity
  8
実線(細線)
100
AcDbLine
 10
410.0
 20
102.0000000000001
 30
0.0
 11
407.5000000000001
 21
102.0000000000001
 31
0.0
  0
LINE
  5
144
330
11C
100
AcDbEntity
  8
実線(細線)
100
AcDbLine
 10
408.5
 20
97.00000000000011
 30
0.0
 11
410.0
 21
97.00000000000011
 31
0.0
  0
LINE
  5
145
330
11C
100
AcDbEntity
  8
実線(細線)
100
AcDbLine
 10
410.0
 20
92.00000000000015
 30
0.0
 11
407.5000000000001
 21
92.00000000000011
 31
0.0
  0
LINE
  5
146
330
11C
100
AcDbEntity
  8
実線(細線)
100
AcDbLine
 10
409.9999999999995
 20
287.0000000000001
 30
0.0
 11
409.9999999999995
 21
292.0000000000001
 31
0.0
  0
LINE
  5
147
330
11C
100
AcDbEntity
  8
実線(細線)
100
AcDbLine
 10
409.9999999999995
 20
287.0000000000001
 30
0.0
 11
414.9999999999995
 21
287.0000000000001
 31
0.0
  0
LINE
  5
148
330
11C
100
AcDbEntity
  8
実線(細線)
100
AcDbLine
 10
409.9999999999995
 20
9.999999999999623
 30
0.0
 11
414.9999999999995
 21
9.999999999999625
 31
0.0
  0
LINE
  5
149
330
11C
100
AcDbEntity
  8
実線(細線)
100
AcDbLine
 10
409.9999999999995
 20
9.999999999999623
 30
0.0
 11
409.9999999999995
 21
4.999999999999572
 31
0.0
  0
LINE
  5
14A
330
11C
100
AcDbEntity
  8
実線(細線)
100
AcDbLine
 10
25.00000000000011
 20
9.999999999999294
 30
0.0
 11
25.00000000000011
 21
4.999999999999479
 31
0.0
  0
LINE
  5
14B
330
11C
100
AcDbEntity
  8
実線(細線)
100
AcDbLine
 10
25.00000000000011
 20
9.999999999999294
 30
0.0
 11
20.00000000000024
 21
9.999999999999287
 31
0.0
  0
LINE
  5
14C
330
11C
100
AcDbEntity
  8
実線(細線)
100
AcDbLine
 10
24.99999999999998
 20
286.9999999999998
 30
0.0
 11
19.99999999999995
 21
286.9999999999998
 31
0.0
  0
LINE
  5
14D
330
11C
100
AcDbEntity
  8
実線(細線)
100
AcDbLine
 10
24.99999999999998
 20
286.9999999999998
 30
0.0
 11
24.99999999999998
 21
291.9999999999999
 31
0.0
  0
MTEXT
  5
14E
330
11C
100
AcDbEntity
  8
寸法(細線)
100
AcDbMText
 10
22.00000000000022
 20
267.2500000000009
 30
0.0
 40
3.499999940395355
 41
0.0
 46
0.0
 71
     5
 72
     1
  1
\fTahoma|b0|i0;\H3.5000;A
  7
図枠用
 73
     1
 44
1.0
  0
MTEXT
  5
150
330
11C
100
AcDbEntity
  8
寸法(細線)
100
AcDbMText
 10
22.00000000000025
 20
222.7500000000008
 30
0.0
 40
3.499999940395355
 41
0.0
 46
0.0
 71
     5
 72
     1
  1
\fTahoma|b0|i0;\H3.5000;B
  7
図枠用
 73
     1
 44
1.0
  0
MTEXT
  5
151
330
11C
100
AcDbEntity
  8
寸法(細線)
100
AcDbMText
 10
22.00000000000027
 20
173.2500000000008
 30
0.0
 40
3.499999940395355
 41
0.0
 46
0.0
 71
     5
 72
     1
  1
\fTahoma|b0|i0;\H3.5000;C
  7
図枠用
 73
     1
 44
1.0
  0
MTEXT
  5
152
330
11C
100
AcDbEntity
  8
寸法(細線)
100
AcDbMText
 10
22.00000000000031
 20
123.7500000000008
 30
0.0
 40
3.499999940395355
 41
0.0
 46
0.0
 71
     5
 72
     1
  1
\fTahoma|b0|i0;\H3.5000;D
  7
図枠用
 73
     1
 44
1.0
  0
MTEXT
  5
153
330
11C
100
AcDbEntity
  8
寸法(細線)
100
AcDbMText
 10
22.00000000000033
 20
74.25000000000085
 30
0.0
 40
3.499999940395355
 41
0.0
 46
0.0
 71
     5
 72
     1
  1
\fTahoma|b0|i0;\H3.5000;E
  7
図枠用
 73
     1
 44
1.0
  0
MTEXT
  5
154
330
11C
100
AcDbEntity
  8
寸法(細線)
100
AcDbMText
 10
22.00000000000035
 20
29.75000000000085
 30
0.0
 40
3.499999940395355
 41
0.0
 46
0.0
 71
     5
 72
     1
  1
\fTahoma|b0|i0;\H3.5000;F
  7
図枠用
 73
     1
 44
1.0
  0
MTEXT
  5
155
330
11C
100
AcDbEntity
  8
寸法(細線)
100
AcDbMText
 10
412.9999999999994
 20
267.2500000000013
 30
0.0
 40
3.499999940395355
 41
0.0
 46
0.0
 71
     5
 72
     1
  1
\fTahoma|b0|i0;\H3.5000;A
  7
図枠用
 73
     1
 44
1.0
  0
MTEXT
  5
156
330
11C
100
AcDbEntity
  8
寸法(細線)
100
AcDbMText
 10
412.9999999999994
 20
222.7500000000012
 30
0.0
 40
3.499999940395355
 41
0.0
 46
0.0
 71
     5
 72
     1
  1
\fTahoma|b0|i0;\H3.5000;B
  7
図枠用
 73
     1
 44
1.0
  0
MTEXT
  5
157
330
11C
100
AcDbEntity
  8
寸法(細線)
100
AcDbMText
 10
412.9999999999994
 20
173.2500000000012
 30
0.0
 40
3.499999940395355
 41
0.0
 46
0.0
 71
     5
 72
     1
  1
\fTahoma|b0|i0;\H3.5000;C
  7
図枠用
 73
     1
 44
1.0
  0
MTEXT
  5
158
330
11C
100
AcDbEntity
  8
寸法(細線)
100
AcDbMText
 10
412.9999999999994
 20
123.7500000000012
 30
0.0
 40
3.499999940395355
 41
0.0
 46
0.0
 71
     5
 72
     1
  1
\fTahoma|b0|i0;\H3.5000;D
  7
図枠用
 73
     1
 44
1.0
  0
MTEXT
  5
159
330
11C
100
AcDbEntity
  8
寸法(細線)
100
AcDbMText
 10
412.9999999999994
 20
74.25000000000122
 30
0.0
 40
3.499999940395355
 41
0.0
 46
0.0
 71
     5
 72
     1
  1
\fTahoma|b0|i0;\H3.5000;E
  7
図枠用
 73
     1
 44
1.0
  0
MTEXT
  5
15A
330
11C
100
AcDbEntity
  8
寸法(細線)
100
AcDbMText
 10
412.9999999999994
 20
29.75000000000122
 30
0.0
 40
3.499999940395355
 41
0.0
 46
0.0
 71
     5
 72
     1
  1
\fTahoma|b0|i0;\H3.5000;F
  7
図枠用
 73
     1
 44
1.0
  0
MTEXT
  5
15B
330
11C
100
AcDbEntity
  8
寸法(細線)
100
AcDbMText
 10
38.74999999999995
 20
290.0000000000001
 30
0.0
 40
3.499999940395355
 41
0.0
 46
0.0
 71
     5
 72
     1
  1
\fTahoma|b0|i0;\H3.5000;1
  7
図枠用
 73
     1
 44
1.0
  0
MTEXT
  5
15C
330
11C
100
AcDbEntity
  8
寸法(細線)
100
AcDbMText
 10
78.7499999999997
 20
290.000000000001
 30
0.0
 40
3.499999940395355
 41
0.0
 46
0.0
 71
     5
 72
     1
  1
\fTahoma|b0|i0;\H3.5000;2
  7
図枠用
 73
     1
 44
1.0
  0
MTEXT
  5
15D
330
11C
100
AcDbEntity
  8
寸法(細線)
100
AcDbMText
 10
131.2499999999997
 20
290.000000000001
 30
0.0
 40
3.499999940395355
 41
0.0
 46
0.0
 71
     5
 72
     1
  1
\fTahoma|b0|i0;\H3.5000;3
  7
図枠用
 73
     1
 44
1.0
  0
MTEXT
  5
15E
330
11C
100
AcDbEntity
  8
寸法(細線)
100
AcDbMText
 10
183.7499999999997
 20
290.000000000001
 30
0.0
 40
3.499999940395355
 41
0.0
 46
0.0
 71
     5
 72
     1
  1
\fTahoma|b0|i0;\H3.5000;4
  7
図枠用
 73
     1
 44
1.0
  0
MTEXT
  5
15F
330
11C
100
AcDbEntity
  8
寸法(細線)
100
AcDbMText
 10
236.2499999999997
 20
290.000000000001
 30
0.0
 40
3.499999940395355
 41
0.0
 46
0.0
 71
     5
 72
     1
  1
\fTahoma|b0|i0;\H3.5000;5
  7
図枠用
 73
     1
 44
1.0
  0
MTEXT
  5
160
330
11C
100
AcDbEntity
  8
寸法(細線)
100
AcDbMText
 10
288.7499999999997
 20
290.0000000000011
 30
0.0
 40
3.499999940395355
 41
0.0
 46
0.0
 71
     5
 72
     1
  1
\fTahoma|b0|i0;\H3.5000;6
  7
図枠用
 73
     1
 44
1.0
  0
MTEXT
  5
161
330
11C
100
AcDbEntity
  8
寸法(細線)
100
AcDbMText
 10
341.2499999999997
 20
290.0000000000011
 30
0.0
 40
3.499999940395355
 41
0.0
 46
0.0
 71
     5
 72
     1
  1
\fTahoma|b0|i0;\H3.5000;7
  7
図枠用
 73
     1
 44
1.0
  0
MTEXT
  5
162
330
11C
100
AcDbEntity
  8
寸法(細線)
100
AcDbMText
 10
388.75
 20
290.0000000000001
 30
0.0
 40
3.499999940395355
 41
0.0
 46
0.0
 71
     5
 72
     1
  1
\fTahoma|b0|i0;\H3.5000;8
  7
図枠用
 73
     1
 44
1.0
  0
MTEXT
  5
163
330
11C
100
AcDbEntity
  8
寸法(細線)
100
AcDbMText
 10
38.75000000000018
 20
7.000000000000222
 30
0.0
 40
3.499999940395355
 41
0.0
 46
0.0
 71
     5
 72
     1
  1
\fTahoma|b0|i0;\H3.5000;1
  7
図枠用
 73
     1
 44
1.0
  0
MTEXT
  5
164
330
11C
100
AcDbEntity
  8
寸法(細線)
100
AcDbMText
 10
78.75000000000017
 20
7.000000000000231
 30
0.0
 40
3.499999940395355
 41
0.0
 46
0.0
 71
     5
 72
     1
  1
\fTahoma|b0|i0;\H3.5000;2
  7
図枠用
 73
     1
 44
1.0
  0
MTEXT
  5
165
330
11C
100
AcDbEntity
  8
寸法(細線)
100
AcDbMText
 10
131.2500000000001
 20
7.000000000000243
 30
0.0
 40
3.499999940395355
 41
0.0
 46
0.0
 71
     5
 72
     1
  1
\fTahoma|b0|i0;\H3.5000;3
  7
図枠用
 73
     1
 44
1.0
  0
MTEXT
  5
166
330
11C
100
AcDbEntity
  8
寸法(細線)
100
AcDbMText
 10
183.7500000000001
 20
7.000000000000257
 30
0.0
 40
3.499999940395355
 41
0.0
 46
0.0
 71
     5
 72
     1
  1
\fTahoma|b0|i0;\H3.5000;4
  7
図枠用
 73
     1
 44
1.0
  0
MTEXT
  5
167
330
11C
100
AcDbEntity
  8
寸法(細線)
100
AcDbMText
 10
236.2500000000002
 20
7.00000000000027
 30
0.0
 40
3.499999940395355
 41
0.0
 46
0.0
 71
     5
 72
     1
  1
\fTahoma|b0|i0;\H3.5000;5
  7
図枠用
 73
     1
 44
1.0
  0
MTEXT
  5
168
330
11C
100
AcDbEntity
  8
寸法(細線)
100
AcDbMText
 10
288.7500000000002
 20
7.000000000000282
 30
0.0
 40
3.499999940395355
 41
0.0
 46
0.0
 71
     5
 72
     1
  1
\fTahoma|b0|i0;\H3.5000;6
  7
図枠用
 73
     1
 44
1.0
  0
MTEXT
  5
169
330
11C
100
AcDbEntity
  8
寸法(細線)
100
AcDbMText
 10
341.2500000000001
 20
7.000000000000295
 30
0.0
 40
3.499999940395355
 41
0.0
 46
0.0
 71
     5
 72
     1
  1
\fTahoma|b0|i0;\H3.5000;7
  7
図枠用
 73
     1
 44
1.0
  0
MTEXT
  5
16A
330
11C
100
AcDbEntity
  8
寸法(細線)
100
AcDbMText
 10
388.7500000000001
 20
7.000000000000307
 30
0.0
 40
3.499999940395355
 41
0.0
 46
0.0
 71
     5
 72
     1
  1
\fTahoma|b0|i0;\H3.5000;8
  7
図枠用
 73
     1
 44
1.0
  0
MTEXT
  5
16B
330
11C
100
AcDbEntity
  8
寸法(細線)
100
AcDbMText
 10
407.0000000000001
 20
122.0000000000001
 30
0.0
 40
2.5
 41
0.0
 46
0.0
 71
     6
 72
     1
  1
\fTahoma|b0|i0;\H2.5000;30
  7
図枠用
 73
     1
 44
1.0
  0
MTEXT
  5
16C
330
11C
100
AcDbEntity
  8
寸法(細線)
100
AcDbMText
 10
407.0000000000001
 20
92.00000000000015
 30
0.0
 40
2.5
 41
0.0
 46
0.0
 71
     6
 72
     1
  1
\fTahoma|b0|i0;\H2.5000;0
  7
図枠用
 73
     1
 44
1.0
  0
ENDBLK
  5
11E
330
11C
100
AcDbEntity
  8
0
100
AcDbBlockEnd
  0
BLOCK
  5
16F
330
16E
100
AcDbEntity
  8
0
100
AcDbBlockBegin
  2
表題欄 ULVAC表題欄
 70
     2
 10
0.0
 20
0.0
 30
0.0
  3
表題欄 ULVAC表題欄
  1

  0
ARC
  5
171
330
16E
100
AcDbEntity
  8
実線(中線)
 62
    30
420
 16744448
100
AcDbCircle
 10
84.27558773894885
 20
27.5247436245494
 30
0.0
 40
0.0183014339639688
100
AcDbArc
 50
180.0
 51
270.0
  0
LINE
  5
172
330
16E
100
AcDbEntity
  8
実線(細線)
 62
    16
420
  8388608
100
AcDbLine
 10
101.0
 20
64.00000000000002
 30
0.0
 11
175.0
 21
64.00000000000002
 31
0.0
  0
LINE
  5
173
330
16E
100
AcDbEntity
  8
実線(中線)
 62
    30
420
 16744448
100
AcDbLine
 10
97.84812375940266
 20
29.21627969267353
 30
0.0
 11
98.44475148772023
 21
29.21627969267353
 31
0.0
  0
LINE
  5
174
330
16E
100
AcDbEntity
  8
実線(中線)
 62
    30
420
 16744448
100
AcDbLine
 10
97.89795783593971
 20
30.70198198760917
 30
0.0
 11
98.54905912726128
 21
30.70198198760917
 31
0.0
  0
ARC
  5
175
330
16E
100
AcDbEntity
  8
実線(中線)
 62
    30
420
 16744448
100
AcDbCircle
 10
97.93442782922472
 20
32.04474871228086
 30
0.0
 40
0.3660286792793762
100
AcDbArc
 50
230.5099444785507
 51
341.6481534344288
  0
LINE
  5
176
330
16E
100
AcDbEntity
  8
実線(中線)
 62
    30
420
 16744448
100
AcDbLine
 10
98.28184064101055
 20
31.92950404966227
 30
0.0
 11
98.48188037700067
 21
32.53253733181278
 31
0.0
  0
ARC
  5
177
330
16E
100
AcDbEntity
  8
実線(中線)
 62
    30
420
 16744448
100
AcDbCircle
 10
98.49469441312841
 20
32.5142358936634
 30
0.0
 40
0.0183014339639688
100
AcDbArc
 50
90.0
 51
150.0004403131238
  0
ARC
  5
178
330
16E
100
AcDbEntity
  8
実線(中線)
 62
    30
420
 16744448
100
AcDbCircle
 10
98.53298965919742
 20
32.5142358936634
 30
0.0
 40
0.0183014339639688
100
AcDbArc
 50
0.0
 51
90.0
  0
LINE
  5
179
330
16E
100
AcDbEntity
  8
実線(中線)
 62
    30
420
 16744448
100
AcDbLine
 10
98.49469441312841
 20
32.53253732762737
 30
0.0
 11
98.53298965919742
 21
32.53253732762737
 31
0.0
  0
LINE
  5
17A
330
16E
100
AcDbEntity
  8
実線(中線)
 62
    30
420
 16744448
100
AcDbLine
 10
98.55129109316139
 20
32.5142358936634
 30
0.0
 11
98.55129109316139
 21
30.70198198808359
 31
0.0
  0
ELLIPSE
  5
17B
330
16E
100
AcDbEntity
  8
実線(中線)
 62
    30
420
 16744448
100
AcDbEllipse
 10
95.83078854543702
 20
29.99480545972057
 30
0.0
 11
2.287679245496095
 21
-0.0000001615248652
 31
0.0
210
0.0
220
0.0
230
1.0
 40
0.7216510581970215
 41
0.4426733724477117
 42
5.792109617456223
  0
ELLIPSE
  5
17C
330
16E
100
AcDbEntity
  8
実線(中線)
 62
    30
420
 16744448
100
AcDbEllipse
 10
95.42481819728806
 20
29.9948055263647
 30
0.0
 11
3.172930735277039
 21
-0.0000001920919516
 31
0.0
210
0.0
220
0.0
230
0.9999999999999996
 40
0.7998068702141572
 41
0.770473062673082
 42
5.971377141295471
  0
ARC
  5
17D
330
16E
100
AcDbEntity
  8
実線(中線)
 62
    30
420
 16744448
100
AcDbCircle
 10
79.62435242190972
 20
28.89252710812938
 30
0.0
 40
0.0091507169819844
100
AcDbArc
 50
350.2609202919642
 51
146.6766537949536
  0
ARC
  5
17E
330
16E
100
AcDbEntity
  8
実線(中線)
 62
    30
420
 16744448
100
AcDbCircle
 10
78.53757075927382
 20
28.92188017709042
 30
0.0
 40
0.9150716981984398
100
AcDbArc
 50
270.0
 51
326.6766537949552
  0
LINE
  5
17F
330
16E
100
AcDbEntity
  8
実線(中線)
 62
    30
420
 16744448
100
AcDbLine
 10
79.30218964726363
 20
28.41917333511093
 30
0.0
 11
79.61670623302982
 21
28.89755417654918
 31
0.0
  0
ARC
  5
180
330
16E
100
AcDbEntity
  8
実線(中線)
 62
    30
420
 16744448
100
AcDbCircle
 10
67.39395212294069
 20
28.51059288744523
 30
0.0
 40
0.45753584909922
100
AcDbArc
 50
202.6932775652488
 51
234.016048948011
  0
ARC
  5
181
330
16E
100
AcDbEntity
  8
実線(中線)
 62
    30
420
 16744448
100
AcDbCircle
 10
67.35082535844461
 20
28.61372472329687
 30
0.0
 40
0.45753584909922
100
AcDbArc
 50
180.0
 51
202.6932775652483
  0
ARC
  5
182
330
16E
100
AcDbEntity
  8
実線(中線)
 62
    30
420
 16744448
100
AcDbCircle
 10
68.03687324893042
 20
28.04375843927431
 30
0.0
 40
0.45753584909922
100
AcDbArc
 50
234.016048948011
 51
253.9178076732257
  0
ARC
  5
183
330
16E
100
AcDbEntity
  8
実線(中線)
 62
    30
420
 16744448
100
AcDbCircle
 10
68.65691216124449
 20
27.8650021488154
 30
0.0
 40
0.45753584909922
100
AcDbArc
 50
253.9178076732257
 51
261.6064190568143
  0
LINE
  5
184
330
16E
100
AcDbEntity
  8
実線(中線)
 62
    30
420
 16744448
100
AcDbLine
 10
67.1251229917923
 20
28.14036329454787
 30
0.0
 11
67.76804411778202
 21
27.67352884637695
 31
0.0
  0
LINE
  5
185
330
16E
100
AcDbEntity
  8
実線(中線)
 62
    30
420
 16744448
100
AcDbLine
 10
67.91012848565586
 20
27.6041281193538
 30
0.0
 11
68.53016739796993
 21
27.42537182889489
 31
0.0
  0
LINE
  5
186
330
16E
100
AcDbEntity
  8
実線(中線)
 62
    30
420
 16744448
100
AcDbLine
 10
66.97183716153287
 20
28.33407656364875
 30
0.0
 11
66.92871039703678
 21
28.43720839950039
 31
0.0
  0
ARC
  5
187
330
16E
100
AcDbEntity
  8
実線(中線)
 62
    30
420
 16744448
100
AcDbCircle
 10
72.16149525790462
 20
28.05097770043659
 30
0.0
 40
0.45753584909922
100
AcDbArc
 50
284.4688421409731
 51
305.1353088422771
  0
ARC
  5
188
330
16E
100
AcDbEntity
  8
実線(中線)
 62
    30
420
 16744448
100
AcDbCircle
 10
89.05769860544758
 20
28.11028785285529
 30
0.0
 40
0.45753584909922
100
AcDbArc
 50
310.2915552042222
 51
29.66165865504882
  0
ARC
  5
189
330
16E
100
AcDbEntity
  8
実線(中線)
 62
    30
420
 16744448
100
AcDbCircle
 10
91.8439153618978
 20
28.3485009693514
 30
0.0
 40
0.45753584909922
100
AcDbArc
 50
211.3286928667025
 51
241.0759065697376
  0
ARC
  5
18A
330
16E
100
AcDbEntity
  8
実線(中線)
 62
    30
420
 16744448
100
AcDbCircle
 10
89.17864579648707
 20
27.57699790295103
 30
0.0
 40
0.0274521509459532
100
AcDbArc
 50
130.291555204206
 51
180.0
  0
ARC
  5
18B
330
16E
100
AcDbEntity
  8
実線(中線)
 62
    30
420
 16744448
100
AcDbCircle
 10
92.24363297572486
 20
27.57351905830347
 30
0.0
 40
0.0274521509459532
100
AcDbArc
 50
0.0
 51
61.0759065697549
  0
ARC
  5
18C
330
16E
100
AcDbEntity
  8
実線(中線)
 62
    30
420
 16744448
100
AcDbCircle
 10
92.25278369270684
 20
27.5247436245494
 30
0.0
 40
0.0183014339639688
100
AcDbArc
 50
270.0
 51
0.0
  0
LINE
  5
18D
330
16E
100
AcDbEntity
  8
実線(中線)
 62
    30
420
 16744448
100
AcDbLine
 10
92.27108512667081
 20
27.5247436245494
 30
0.0
 11
92.27108512667081
 21
27.57351905830347
 31
0.0
  0
ARC
  5
18E
330
16E
100
AcDbEntity
  8
実線(中線)
 62
    30
420
 16744448
100
AcDbCircle
 10
89.16949507950509
 20
27.5247436245494
 30
0.0
 40
0.0183014339639688
100
AcDbArc
 50
180.0
 51
270.0
  0
LINE
  5
18F
330
16E
100
AcDbEntity
  8
実線(中線)
 62
    30
420
 16744448
100
AcDbLine
 10
89.16089311189947
 20
27.59793740584612
 30
0.0
 11
89.35357668190734
 21
27.76129613793728
 31
0.0
  0
LINE
  5
190
330
16E
100
AcDbEntity
  8
実線(中線)
 62
    30
420
 16744448
100
AcDbLine
 10
91.62262792802708
 20
27.94803758173417
 30
0.0
 11
92.25691022175709
 21
27.5975468615605
 31
0.0
  0
LINE
  5
191
330
16E
100
AcDbEntity
  8
実線(中線)
 62
    30
420
 16744448
100
AcDbLine
 10
89.15119364554113
 20
27.5247436245494
 30
0.0
 11
89.15119364554113
 21
27.57699790295103
 31
0.0
  0
ARC
  5
192
330
16E
100
AcDbEntity
  8
実線(中線)
 62
    30
420
 16744448
100
AcDbCircle
 10
71.64277704169482
 20
28.65465006208192
 30
0.0
 40
0.45753584909922
100
AcDbArc
 50
322.3146252338702
 51
0.0
  0
ARC
  5
193
330
16E
100
AcDbEntity
  8
実線(中線)
 62
    30
420
 16744448
100
AcDbCircle
 10
86.02833312952185
 20
27.5247436245494
 30
0.0
 40
0.0183014339639688
100
AcDbArc
 50
270.0
 51
0.0
  0
ARC
  5
194
330
16E
100
AcDbEntity
  8
実線(中線)
 62
    30
420
 16744448
100
AcDbCircle
 10
84.28473845593082
 20
27.57450998447851
 30
0.0
 40
0.0274521509459532
100
AcDbArc
 50
122.0410322243592
 51
180.0
  0
ARC
  5
195
330
16E
100
AcDbEntity
  8
実線(中線)
 62
    30
420
 16744448
100
AcDbCircle
 10
86.01918241253988
 20
27.57643084749162
 30
0.0
 40
0.0274521509459532
100
AcDbArc
 50
0.0
 51
51.64187206940002
  0
ARC
  5
196
330
16E
100
AcDbEntity
  8
実線(中線)
 62
    30
420
 16744448
100
AcDbCircle
 10
84.58672493286892
 20
28.33565647970111
 30
0.0
 40
0.45753584909922
100
AcDbArc
 50
302.0410322243666
 51
329.3600439739087
  0
ARC
  5
197
330
16E
100
AcDbEntity
  8
実線(中線)
 62
    30
420
 16744448
100
AcDbCircle
 10
86.11696815315427
 20
28.11753414107857
 30
0.0
 40
0.45753584909922
100
AcDbArc
 50
149.3600439739066
 51
231.6418720693948
  0
LINE
  5
198
330
16E
100
AcDbEntity
  8
実線(中線)
 62
    30
420
 16744448
100
AcDbLine
 10
85.83303289530602
 20
27.75875869241805
 30
0.0
 11
86.03621852801078
 21
27.59795737441125
 31
0.0
  0
LINE
  5
199
330
16E
100
AcDbEntity
  8
実線(中線)
 62
    30
420
 16744448
100
AcDbLine
 10
84.27017436358694
 20
27.59778030475473
 30
0.0
 11
84.82945980526723
 21
27.94781780843079
 31
0.0
  0
LINE
  5
19A
330
16E
100
AcDbEntity
  8
実線(中線)
 62
    30
420
 16744448
100
AcDbLine
 10
84.25728630498488
 20
27.5247436245494
 30
0.0
 11
84.25728630498488
 21
27.57450998447851
 31
0.0
  0
LINE
  5
19B
330
16E
100
AcDbEntity
  8
実線(中線)
 62
    30
420
 16744448
100
AcDbLine
 10
86.04663456348582
 20
27.5247436245494
 30
0.0
 11
86.04663456348582
 21
27.57643084749162
 31
0.0
  0
ARC
  5
19C
330
16E
100
AcDbEntity
  8
実線(中線)
 62
    30
420
 16744448
100
AcDbCircle
 10
84.192190067495
 20
31.46312572501129
 30
0.0
 40
0.45753584909922
100
AcDbArc
 50
329.9129623574227
 51
54.32124068791902
  0
ARC
  5
19D
330
16E
100
AcDbEntity
  8
実線(中線)
 62
    30
420
 16744448
100
AcDbCircle
 10
85.74176900249989
 20
31.2533912647587
 30
0.0
 40
0.45753584909922
100
AcDbArc
 50
118.8516001623718
 51
149.9129623574241
  0
ARC
  5
19E
330
16E
100
AcDbEntity
  8
実線(中線)
 62
    30
420
 16744448
100
AcDbCircle
 10
84.31837437727899
 20
31.99467806086975
 30
0.0
 40
0.0183014339639688
100
AcDbArc
 50
90.0
 51
180.0
  0
ARC
  5
19F
330
16E
100
AcDbEntity
  8
実線(中線)
 62
    30
420
 16744448
100
AcDbCircle
 10
86.03776626485185
 20
31.99467806086975
 30
0.0
 40
0.0183014339639688
100
AcDbArc
 50
0.0
 51
90.0
  0
ARC
  5
1A0
330
16E
100
AcDbEntity
  8
実線(中線)
 62
    30
420
 16744448
100
AcDbCircle
 10
84.32752509426098
 20
31.96300912108265
 30
0.0
 40
0.0274521509459532
100
AcDbArc
 50
180.0
 51
234.3212406879244
  0
ARC
  5
1A1
330
16E
100
AcDbEntity
  8
実線(中線)
 62
    30
420
 16744448
100
AcDbCircle
 10
86.02861554786985
 20
31.96514294886514
 30
0.0
 40
0.0274521509459532
100
AcDbArc
 50
298.8516001623457
 51
0.0
  0
LINE
  5
1A2
330
16E
100
AcDbEntity
  8
実線(中線)
 62
    30
420
 16744448
100
AcDbLine
 10
84.31151389856683
 20
31.94070974432
 30
0.0
 11
84.45904332906421
 21
31.83478200438893
 31
0.0
  0
LINE
  5
1A3
330
16E
100
AcDbEntity
  8
実線(中線)
 62
    30
420
 16744448
100
AcDbLine
 10
85.52098843040127
 20
31.65413431484781
 30
0.0
 11
86.04186238219575
 21
31.94109836585978
 31
0.0
  0
LINE
  5
1A4
330
16E
100
AcDbEntity
  8
実線(中線)
 62
    30
420
 16744448
100
AcDbLine
 10
84.30007294331502
 20
31.96300912108265
 30
0.0
 11
84.30007294331502
 21
31.99467806086975
 31
0.0
  0
LINE
  5
1A5
330
16E
100
AcDbEntity
  8
実線(中線)
 62
    30
420
 16744448
100
AcDbLine
 10
86.0560676988158
 20
31.96514294886514
 30
0.0
 11
86.05606769881582
 21
31.99467806086975
 31
0.0
  0
ARC
  5
1A6
330
16E
100
AcDbEntity
  8
実線(中線)
 62
    30
420
 16744448
100
AcDbCircle
 10
81.13038553552586
 20
31.96780524655786
 30
0.0
 40
0.0274521509459532
100
AcDbArc
 50
300.6225974401171
 51
0.0
  0
ARC
  5
1A7
330
16E
100
AcDbEntity
  8
実線(中線)
 62
    30
420
 16744448
100
AcDbCircle
 10
81.13953625250786
 20
31.99467806086975
 30
0.0
 40
0.0183014339639688
100
AcDbArc
 50
0.0
 51
90.0
  0
ARC
  5
1A8
330
16E
100
AcDbEntity
  8
実線(中線)
 62
    30
420
 16744448
100
AcDbCircle
 10
78.17276885600548
 20
31.99467806086975
 30
0.0
 40
0.0183014339639688
100
AcDbArc
 50
90.0
 51
180.0
  0
ARC
  5
1A9
330
16E
100
AcDbEntity
  8
実線(中線)
 62
    30
420
 16744448
100
AcDbCircle
 10
78.18191957298748
 20
31.9658908444527
 30
0.0
 40
0.0274521509459532
100
AcDbArc
 50
180.0
 51
243.434963122501
  0
ARC
  5
1AA
330
16E
100
AcDbEntity
  8
実線(中線)
 62
    30
420
 16744448
100
AcDbCircle
 10
81.17786013180882
 20
31.43232204972165
 30
0.0
 40
0.45753584909922
100
AcDbArc
 50
120.6225974401335
 51
210.6745406927814
  0
ARC
  5
1AB
330
16E
100
AcDbEntity
  8
実線(中線)
 62
    30
420
 16744448
100
AcDbCircle
 10
78.54185231873228
 20
31.24369158334538
 30
0.0
 40
0.45753584909922
100
AcDbArc
 50
30.67454069278085
 51
63.43496312249693
  0
LINE
  5
1AC
330
16E
100
AcDbEntity
  8
実線(中線)
 62
    30
420
 16744448
100
AcDbLine
 10
80.94480013091056
 20
31.82605049572503
 30
0.0
 11
81.14436913557975
 21
31.94418153979765
 31
0.0
  0
LINE
  5
1AD
330
16E
100
AcDbEntity
  8
実線(中線)
 62
    30
420
 16744448
100
AcDbLine
 10
78.16964260398677
 20
31.94133689113118
 30
0.0
 11
78.746468468744
 21
31.65292413870398
 31
0.0
  0
LINE
  5
1AE
330
16E
100
AcDbEntity
  8
実線(中線)
 62
    30
420
 16744448
100
AcDbLine
 10
81.15783768647181
 20
31.96780524655786
 30
0.0
 11
81.15783768647183
 21
31.99467806086975
 31
0.0
  0
LINE
  5
1AF
330
16E
100
AcDbEntity
  8
実線(中線)
 62
    30
420
 16744448
100
AcDbLine
 10
78.15446742204152
 20
31.9658908444527
 30
0.0
 11
78.15446742204151
 21
31.99467806086975
 31
0.0
  0
LINE
  5
1B0
330
16E
100
AcDbEntity
  8
実線(中線)
 62
    30
420
 16744448
100
AcDbLine
 10
68.64668466049228
 20
28.33905465601379
 30
0.0
 11
68.61895858679445
 21
28.37494693477318
 31
0.0
  0
ARC
  5
1B1
330
16E
100
AcDbEntity
  8
実線(中線)
 62
    30
420
 16744448
100
AcDbCircle
 10
68.98104312616995
 20
28.6546500623141
 30
0.0
 40
0.45753584909922
100
AcDbArc
 50
180.0
 51
217.6853747661298
  0
ARC
  5
1B2
330
16E
100
AcDbEntity
  8
実線(中線)
 62
    30
420
 16744448
100
AcDbCircle
 10
69.00876919986778
 20
28.61875778355472
 30
0.0
 40
0.45753584909922
100
AcDbArc
 50
217.6853747661303
 51
257.6356445680838
  0
LINE
  5
1B3
330
16E
100
AcDbEntity
  8
実線(中線)
 62
    30
420
 16744448
100
AcDbLine
 10
69.47446024900478
 20
28.04827257217615
 30
0.0
 11
68.91079810856232
 21
28.1718341676209
 31
0.0
  0
ARC
  5
1B4
330
16E
100
AcDbEntity
  8
実線(中線)
 62
    30
420
 16744448
100
AcDbCircle
 10
70.67449137095358
 20
36.62402065216547
 30
0.0
 40
8.659303079641354
100
AcDbArc
 50
262.0341483339005
 51
264.3484656952616
  0
ARC
  5
1B5
330
16E
100
AcDbEntity
  8
実線(中線)
 62
    30
420
 16744448
100
AcDbCircle
 10
71.61505096799699
 20
28.61875778332253
 30
0.0
 40
0.45753584909922
100
AcDbArc
 50
282.3643554319162
 51
322.3146252338702
  0
LINE
  5
1B6
330
16E
100
AcDbEntity
  8
実線(中線)
 62
    30
420
 16744448
100
AcDbLine
 10
71.14935991886001
 20
28.04827257194397
 30
0.0
 11
71.71302205930246
 21
28.17183416738871
 31
0.0
  0
LINE
  5
1B7
330
16E
100
AcDbEntity
  8
実線(中線)
 62
    30
420
 16744448
100
AcDbLine
 10
71.97713550737249
 20
28.3390546557816
 30
0.0
 11
72.00486158107032
 21
28.37494693454099
 31
0.0
  0
ARC
  5
1B8
330
16E
100
AcDbEntity
  8
実線(中線)
 62
    30
420
 16744448
100
AcDbCircle
 10
66.38452228749603
 20
31.99467806086975
 30
0.0
 40
0.0183014339639688
100
AcDbArc
 50
90.0
 51
180.0
  0
ARC
  5
1B9
330
16E
100
AcDbEntity
  8
実線(中線)
 62
    30
420
 16744448
100
AcDbCircle
 10
69.03215554149929
 20
31.99467806086975
 30
0.0
 40
0.0183014339639688
100
AcDbArc
 50
0.0
 51
90.0
  0
ARC
  5
1BA
330
16E
100
AcDbEntity
  8
実線(中線)
 62
    30
420
 16744448
100
AcDbCircle
 10
66.393673004478
 20
31.96223884050724
 30
0.0
 40
0.0274521509459532
100
AcDbArc
 50
180.0
 51
236.0496694967511
  0
ARC
  5
1BB
330
16E
100
AcDbEntity
  8
実線(中線)
 62
    30
420
 16744448
100
AcDbCircle
 10
69.02300482451733
 20
31.96226226991751
 30
0.0
 40
0.0274521509459532
100
AcDbArc
 50
303.9582570957597
 51
0.0
  0
ARC
  5
1BC
330
16E
100
AcDbEntity
  8
実線(中線)
 62
    30
420
 16744448
100
AcDbCircle
 10
66.43575366024615
 20
31.34924854232643
 30
0.0
 40
0.45753584909922
100
AcDbArc
 50
0.0
 51
56.04966949675489
  0
ARC
  5
1BD
330
16E
100
AcDbEntity
  8
実線(中線)
 62
    30
420
 16744448
100
AcDbCircle
 10
68.98104312616995
 20
31.34928915611249
 30
0.0
 40
0.45753584909922
100
AcDbArc
 50
123.9582570957582
 51
180.0
  0
LINE
  5
1BE
330
16E
100
AcDbEntity
  8
実線(中線)
 62
    30
420
 16744448
100
AcDbLine
 10
68.72546874408427
 20
31.728789865509
 30
0.0
 11
69.03833928744247
 21
31.93949222735371
 31
0.0
  0
LINE
  5
1BF
330
16E
100
AcDbEntity
  8
実線(中線)
 62
    30
420
 16744448
100
AcDbLine
 10
66.37834169182427
 20
31.93946667671298
 30
0.0
 11
66.69127553780831
 21
31.72878460556424
 31
0.0
  0
LINE
  5
1C0
330
16E
100
AcDbEntity
  8
実線(中線)
 62
    30
420
 16744448
100
AcDbLine
 10
69.05045697546327
 20
31.96226226991751
 30
0.0
 11
69.05045697546326
 21
31.99467806086975
 31
0.0
  0
LINE
  5
1C1
330
16E
100
AcDbEntity
  8
実線(中線)
 62
    30
420
 16744448
100
AcDbLine
 10
66.36622085353207
 20
31.96223884050724
 30
0.0
 11
66.36622085353207
 21
31.99467806086975
 31
0.0
  0
ARC
  5
1C2
330
16E
100
AcDbEntity
  8
実線(中線)
 62
    30
420
 16744448
100
AcDbCircle
 10
71.64277704169482
 20
31.3606561027313
 30
0.0
 40
0.45753584909922
100
AcDbArc
 50
0.0
 51
53.80036358700198
  0
ARC
  5
1C3
330
16E
100
AcDbEntity
  8
実線(中線)
 62
    30
420
 16744448
100
AcDbCircle
 10
71.63998588454899
 20
31.9943218972282
 30
0.0
 40
0.0183014339639688
100
AcDbArc
 50
90.0
 51
180.0
  0
ARC
  5
1C4
330
16E
100
AcDbEntity
  8
実線(中線)
 62
    30
420
 16744448
100
AcDbCircle
 10
71.66743803549493
 20
31.96628981285427
 30
0.0
 40
0.045753584909922
100
AcDbArc
 50
180.0
 51
233.8003635870046
  0
LINE
  5
1C5
330
16E
100
AcDbEntity
  8
実線(中線)
 62
    30
420
 16744448
100
AcDbLine
 10
71.64041594322876
 20
31.92936831421639
 30
0.0
 11
71.91299796435668
 21
31.72987108911013
 31
0.0
  0
ARC
  5
1C6
330
16E
100
AcDbEntity
  8
実線(中線)
 62
    30
420
 16744448
100
AcDbCircle
 10
73.35279295775212
 20
31.97022069802315
 30
0.0
 40
0.045753584909922
100
AcDbArc
 50
303.51137547322
 51
0.0
  0
ARC
  5
1C7
330
16E
100
AcDbEntity
  8
実線(中線)
 62
    30
420
 16744448
100
AcDbCircle
 10
73.38024510869807
 20
31.9943218972282
 30
0.0
 40
0.0183014339639688
100
AcDbArc
 50
0.0
 51
90.0
  0
LINE
  5
1C8
330
16E
100
AcDbEntity
  8
実線(中線)
 62
    30
420
 16744448
100
AcDbLine
 10
72.99011988461498
 20
31.6751939266935
 30
0.0
 11
73.3780536279056
 21
31.932072446746
 31
0.0
  0
ARC
  5
1C9
330
16E
100
AcDbEntity
  8
実線(中線)
 62
    30
420
 16744448
100
AcDbCircle
 10
73.15731863392499
 20
31.45746327339655
 30
0.0
 40
0.2745215094595321
100
AcDbArc
 50
127.5212181517733
 51
180.0
  0
LINE
  5
1CA
330
16E
100
AcDbEntity
  8
実線(中線)
 62
    30
420
 16744448
100
AcDbLine
 10
71.62168445058501
 20
31.96628981285427
 30
0.0
 11
71.62168445058501
 21
31.9943218972282
 31
0.0
  0
LINE
  5
1CB
330
16E
100
AcDbEntity
  8
実線(中線)
 62
    30
420
 16744448
100
AcDbLine
 10
73.39854654266204
 20
31.97022069802315
 30
0.0
 11
73.39854654266204
 21
31.99432189746041
 31
0.0
  0
LINE
  5
1CC
330
16E
100
AcDbEntity
  8
実線(中線)
 62
    30
420
 16744448
100
AcDbLine
 10
72.59146757722937
 20
27.79408848941074
 30
0.0
 11
72.42481140884644
 21
27.67680707376458
 31
0.0
  0
ARC
  5
1CD
330
16E
100
AcDbEntity
  8
実線(中線)
 62
    30
420
 16744448
100
AcDbCircle
 10
72.19649335081664
 20
28.35534442941878
 30
0.0
 40
0.6863037736488302
100
AcDbArc
 50
305.1353088422752
 51
0.0
  0
LINE
  5
1CE
330
16E
100
AcDbEntity
  8
実線(中線)
 62
    30
420
 16744448
100
AcDbLine
 10
72.88279712446547
 20
28.35534442941878
 30
0.0
 11
72.88279712446545
 21
31.45746327339655
 31
0.0
  0
ARC
  5
1CF
330
16E
100
AcDbEntity
  8
実線(中線)
 62
    30
420
 16744448
100
AcDbCircle
 10
76.74868815350068
 20
28.78461942236065
 30
0.0
 40
0.7778109434686743
100
AcDbArc
 50
180.0
 51
270.0
  0
ARC
  5
1D0
330
16E
100
AcDbEntity
  8
実線(中線)
 62
    30
420
 16744448
100
AcDbCircle
 10
73.83947809277427
 20
27.54221574463317
 30
0.0
 40
0.0915071698198441
100
AcDbArc
 50
125.1353088422695
 51
180.0
  0
ARC
  5
1D1
330
16E
100
AcDbEntity
  8
実線(中線)
 62
    30
420
 16744448
100
AcDbCircle
 10
73.65435566865783
 20
28.36304625455042
 30
0.0
 40
0.6863037736488302
100
AcDbArc
 50
305.1353088422752
 51
0.0
  0
ARC
  5
1D2
330
16E
100
AcDbEntity
  8
実線(中線)
 62
    30
420
 16744448
100
AcDbCircle
 10
73.76627235691841
 20
27.5247436245494
 30
0.0
 40
0.0183014339639688
100
AcDbArc
 50
180.0
 51
270.0
  0
LINE
  5
1D3
330
16E
100
AcDbEntity
  8
実線(中線)
 62
    30
420
 16744448
100
AcDbLine
 10
73.74797092295441
 20
27.54221574463317
 30
0.0
 11
73.74797092295444
 21
27.5247436245494
 31
0.0
  0
LINE
  5
1D4
330
16E
100
AcDbEntity
  8
実線(中線)
 62
    30
420
 16744448
100
AcDbLine
 10
74.04932989507054
 20
27.80179031454239
 30
0.0
 11
73.78681486258591
 21
27.61704986996758
 31
0.0
  0
LINE
  5
1D5
330
16E
100
AcDbEntity
  8
実線(中線)
 62
    30
420
 16744448
100
AcDbLine
 10
69.82174042894166
 20
28.00680847791886
 30
0.0
 11
70.80207974126944
 21
28.00680847791886
 31
0.0
  0
ARC
  5
1D6
330
16E
100
AcDbEntity
  8
実線(中線)
 62
    30
420
 16744448
100
AcDbCircle
 10
74.06613793284711
 20
31.45040875412931
 30
0.0
 40
0.2745215094595321
100
AcDbArc
 50
0.0
 51
54.82366186721004
  0
ARC
  5
1D7
330
16E
100
AcDbEntity
  8
実線(中線)
 62
    30
420
 16744448
100
AcDbCircle
 10
76.24539871949155
 20
31.45097171384709
 30
0.0
 40
0.2745215094595321
100
AcDbArc
 50
125.361678350404
 51
180.0
  0
LINE
  5
1D8
330
16E
100
AcDbEntity
  8
実線(中線)
 62
    30
420
 16744448
100
AcDbLine
 10
76.46805079253937
 20
31.94560175465337
 30
0.0
 11
76.08652327938663
 21
31.6748481388842
 31
0.0
  0
LINE
  5
1D9
330
16E
100
AcDbEntity
  8
実線(中線)
 62
    30
420
 16744448
100
AcDbLine
 10
73.84000521587914
 20
31.94564226299743
 30
0.0
 11
74.22428834819081
 21
31.67479793676197
 31
0.0
  0
ARC
  5
1DA
330
16E
100
AcDbEntity
  8
実線(中線)
 62
    30
420
 16744448
100
AcDbCircle
 10
73.85510869171993
 20
31.98883109893494
 30
0.0
 40
0.045753584909922
100
AcDbArc
 50
180.0
 51
250.724866313083
  0
ARC
  5
1DB
330
16E
100
AcDbEntity
  8
実線(中線)
 62
    30
420
 16744448
100
AcDbCircle
 10
73.82765654077397
 20
31.99467806086975
 30
0.0
 40
0.0183014339639688
100
AcDbArc
 50
90.0
 51
180.0
  0
ARC
  5
1DC
330
16E
100
AcDbEntity
  8
実線(中線)
 62
    30
420
 16744448
100
AcDbCircle
 10
76.48030848871029
 20
31.99467806086975
 30
0.0
 40
0.0183014339639688
100
AcDbArc
 50
0.0
 51
90.0
  0
ARC
  5
1DD
330
16E
100
AcDbEntity
  8
実線(中線)
 62
    30
420
 16744448
100
AcDbCircle
 10
76.45285633776431
 20
31.98875866691779
 30
0.0
 40
0.045753584909922
100
AcDbArc
 50
289.3958740160664
 51
0.0
  0
LINE
  5
1DE
330
16E
100
AcDbEntity
  8
実線(中線)
 62
    30
420
 16744448
100
AcDbLine
 10
73.80935510681
 20
31.98883109893494
 30
0.0
 11
73.80935510681
 21
31.99467806086975
 31
0.0
  0
LINE
  5
1DF
330
16E
100
AcDbEntity
  8
実線(中線)
 62
    30
420
 16744448
100
AcDbLine
 10
76.49860992267424
 20
31.98875866691779
 30
0.0
 11
76.49860992267426
 21
31.99467806086975
 31
0.0
  0
LINE
  5
1E0
330
16E
100
AcDbEntity
  8
実線(中線)
 62
    30
420
 16744448
100
AcDbLine
 10
71.63998588454899
 20
32.01262333119217
 30
0.0
 11
73.38024510844869
 21
32.01262333119217
 31
0.0
  0
ARC
  5
1E1
330
16E
100
AcDbEntity
  8
実線(中線)
 62
    30
420
 16744448
100
AcDbCircle
 10
69.94932879691119
 20
36.62402065193328
 30
0.0
 40
9.311390711220958
100
AcDbArc
 50
261.606419056422
 51
284.4688421434992
  0
ARC
  5
1E2
330
16E
100
AcDbEntity
  8
実線(中線)
 62
    30
420
 16744448
100
AcDbCircle
 10
69.94932879691119
 20
36.62402065193328
 30
0.0
 40
8.659303079641354
100
AcDbArc
 50
275.6515343203391
 51
277.9658516660997
  0
LINE
  5
1E3
330
16E
100
AcDbEntity
  8
実線(中線)
 62
    30
420
 16744448
100
AcDbLine
 10
66.38452228749603
 20
32.01297949483372
 30
0.0
 11
69.03215554149929
 21
32.01297949483372
 31
0.0
  0
LINE
  5
1E4
330
16E
100
AcDbEntity
  8
実線(中線)
 62
    30
420
 16744448
100
AcDbLine
 10
73.76627235691841
 20
27.50644219058543
 30
0.0
 11
79.39573596762361
 21
27.50644219058543
 31
0.0
  0
LINE
  5
1E5
330
16E
100
AcDbEntity
  8
実線(中線)
 62
    30
420
 16744448
100
AcDbLine
 10
79.39573596762361
 20
27.50644219058543
 30
0.0
 11
79.63337126167155
 21
28.89097915766671
 31
0.0
  0
LINE
  5
1E6
330
16E
100
AcDbEntity
  8
実線(中線)
 62
    30
420
 16744448
100
AcDbLine
 10
76.74868815350068
 20
28.00680847889197
 30
0.0
 11
78.53757075927382
 21
28.00680847889199
 31
0.0
  0
LINE
  5
1E7
330
16E
100
AcDbEntity
  8
実線(中線)
 62
    30
420
 16744448
100
AcDbLine
 10
72.10031289079404
 20
28.65465006208192
 30
0.0
 11
72.10031289079404
 21
31.3606561027313
 31
0.0
  0
LINE
  5
1E8
330
16E
100
AcDbEntity
  8
実線(中線)
 62
    30
420
 16744448
100
AcDbLine
 10
74.34065944230666
 20
28.36304625455042
 30
0.0
 11
74.34065944230666
 21
31.45040875412931
 31
0.0
  0
LINE
  5
1E9
330
16E
100
AcDbEntity
  8
実線(中線)
 62
    30
420
 16744448
100
AcDbLine
 10
75.970877210032
 20
28.78461942236065
 30
0.0
 11
75.970877210032
 21
31.45097171384709
 31
0.0
  0
LINE
  5
1EA
330
16E
100
AcDbEntity
  8
実線(中線)
 62
    30
420
 16744448
100
AcDbLine
 10
81.29059265303792
 20
27.50644219058543
 30
0.0
 11
83.04208972205046
 21
27.50644219058543
 31
0.0
  0
LINE
  5
1EB
330
16E
100
AcDbEntity
  8
実線(中線)
 62
    30
420
 16744448
100
AcDbLine
 10
81.29059265303792
 20
27.50644219058543
 30
0.0
 11
78.93536931524605
 21
31.47710843506291
 31
0.0
  0
LINE
  5
1EC
330
16E
100
AcDbEntity
  8
実線(中線)
 62
    30
420
 16744448
100
AcDbLine
 10
82.69834535238855
 20
27.97209274530761
 30
0.0
 11
80.78434313529506
 21
31.19890519800412
 31
0.0
  0
LINE
  5
1ED
330
16E
100
AcDbEntity
  8
実線(中線)
 62
    30
420
 16744448
100
AcDbLine
 10
82.69834535238855
 20
27.97209274530761
 30
0.0
 11
84.58807975905026
 21
31.23375614260938
 31
0.0
  0
LINE
  5
1EE
330
16E
100
AcDbEntity
  8
実線(中線)
 62
    30
420
 16744448
100
AcDbLine
 10
83.04208972205046
 20
27.50644219058543
 30
0.0
 11
85.34587931094463
 21
31.48276084716059
 31
0.0
  0
LINE
  5
1EF
330
16E
100
AcDbEntity
  8
実線(中線)
 62
    30
420
 16744448
100
AcDbLine
 10
88.86970121536245
 20
29.36493950247829
 30
0.0
 11
87.6219069054278
 21
31.55596132119024
 31
0.0
  0
LINE
  5
1F0
330
16E
100
AcDbEntity
  8
実線(中線)
 62
    30
420
 16744448
100
AcDbLine
 10
86.32407702236561
 20
29.36493950247829
 30
0.0
 11
87.6219069054278
 21
31.55596132119024
 31
0.0
  0
LINE
  5
1F1
330
16E
100
AcDbEntity
  8
実線(中線)
 62
    30
420
 16744448
100
AcDbLine
 10
84.31837437727899
 20
32.01297949483372
 30
0.0
 11
86.03776626485185
 21
32.01297949483372
 31
0.0
  0
LINE
  5
1F2
330
16E
100
AcDbEntity
  8
実線(中線)
 62
    30
420
 16744448
100
AcDbLine
 10
78.17276885600548
 20
32.01297949483372
 30
0.0
 11
81.13953625250786
 21
32.01297949483372
 31
0.0
  0
LINE
  5
1F3
330
16E
100
AcDbEntity
  8
実線(中線)
 62
    30
420
 16744448
100
AcDbLine
 10
87.29672971284328
 20
32.01297949483372
 30
0.0
 11
89.07773148723482
 21
32.01297949483372
 31
0.0
  0
LINE
  5
1F4
330
16E
100
AcDbEntity
  8
実線(中線)
 62
    30
420
 16744448
100
AcDbLine
 10
89.16949507950509
 20
27.50644219058543
 30
0.0
 11
92.25278369270684
 21
27.50644219058543
 31
0.0
  0
LINE
  5
1F5
330
16E
100
AcDbEntity
  8
実線(中線)
 62
    30
420
 16744448
100
AcDbLine
 10
84.27558773894885
 20
27.50644219058543
 30
0.0
 11
86.02833312952185
 21
27.50644219058543
 31
0.0
  0
LINE
  5
1F6
330
16E
100
AcDbEntity
  8
実線(中線)
 62
    30
420
 16744448
100
AcDbLine
 10
85.72331033412112
 20
28.35071341701234
 30
0.0
 11
86.02512634851606
 21
28.86024512174984
 31
0.0
  0
LINE
  5
1F7
330
16E
100
AcDbEntity
  8
実線(中線)
 62
    30
420
 16744448
100
AcDbLine
 10
89.45528027106034
 20
28.33671195135086
 30
0.0
 11
89.15712636610749
 21
28.86024512174984
 31
0.0
  0
LINE
  5
1F8
330
16E
100
AcDbEntity
  8
実線(中線)
 62
    30
420
 16744448
100
AcDbLine
 10
84.98038275190209
 20
28.10247720376735
 30
0.0
 11
87.29672971284328
 21
32.01297949483372
 31
0.0
  0
LINE
  5
1F9
330
16E
100
AcDbEntity
  8
実線(中線)
 62
    30
420
 16744448
100
AcDbLine
 10
91.45308890045084
 20
28.11060660152442
 30
0.0
 11
89.07773148723482
 21
32.01297949483372
 31
0.0
  0
LINE
  5
1FA
330
16E
100
AcDbEntity
  8
実線(中線)
 62
    30
420
 16744448
100
AcDbLine
 10
68.52350727707075
 20
28.6546500623141
 30
0.0
 11
68.52350727707073
 21
31.34928915611249
 31
0.0
  0
LINE
  5
1FB
330
16E
100
AcDbEntity
  8
実線(中線)
 62
    30
420
 16744448
100
AcDbLine
 10
66.89328950934537
 20
28.61372472329687
 30
0.0
 11
66.89328950934537
 21
31.34924854232643
 31
0.0
  0
LINE
  5
1FC
330
16E
100
AcDbEntity
  8
実線(中線)
 62
    30
420
 16744448
100
AcDbLine
 10
86.32407702236561
 20
29.36493950247829
 30
0.0
 11
88.86970121536245
 21
29.36493950247829
 31
0.0
  0
LINE
  5
1FD
330
16E
100
AcDbEntity
  8
実線(中線)
 62
    30
420
 16744448
100
AcDbLine
 10
86.02512634851606
 20
28.86024512174984
 30
0.0
 11
89.15712636610749
 21
28.86024512174984
 31
0.0
  0
LINE
  5
1FE
330
16E
100
AcDbEntity
  8
実線(中線)
 62
    30
420
 16744448
100
AcDbLine
 10
73.82765654077397
 20
32.01297949483372
 30
0.0
 11
76.48030848871029
 21
32.01297949483372
 31
0.0
  0
CIRCLE
  5
1FF
330
16E
100
AcDbEntity
  8
実線(中線)
 62
     5
420
      255
100
AcDbCircle
 10
85.34770202636719
 20
41.00000000000001
 30
0.0
 40
3.199999809265137
  0
CIRCLE
  5
200
330
16E
100
AcDbEntity
  8
実線(中線)
 62
     5
420
      255
100
AcDbCircle
 10
85.34770202636719
 20
41.00000000000001
 30
0.0
 40
1.59999942779541
  0
LINE
  5
201
330
16E
100
AcDbEntity
  8
実線(細線)
 62
    16
420
  8388608
100
AcDbLine
 10
80.00000000000005
 20
46.00000000000001
 30
0.0
 11
80.00000000000005
 21
36.00000000000001
 31
0.0
  0
LINE
  5
202
330
16E
100
AcDbEntity
  8
実線(細線)
 62
    16
420
  8388608
100
AcDbLine
 10
77.00000000000001
 20
25.0
 30
0.0
 11
77.00000000000001
 21
0.0
 31
0.0
  0
LINE
  5
203
330
16E
100
AcDbEntity
  8
実線(細線)
 62
    16
420
  8388608
100
AcDbLine
 10
15.99999999999999
 20
36.00000000000001
 30
0.0
 11
16.0
 21
11.00000000000001
 31
0.0
  0
LINE
  5
204
330
16E
100
AcDbEntity
  8
実線(細線)
 62
    16
420
  8388608
100
AcDbLine
 10
32.0
 20
46.00000000000001
 30
0.0
 11
32.0
 21
11.00000000000001
 31
0.0
  0
LINE
  5
205
330
16E
100
AcDbEntity
  8
実線(細線)
 62
    16
420
  8388608
100
AcDbLine
 10
48.0
 20
36.00000000000001
 30
0.0
 11
48.0
 21
11.00000000000001
 31
0.0
  0
LINE
  5
206
330
16E
100
AcDbEntity
  8
実線(細線)
 62
    16
420
  8388608
100
AcDbLine
 10
101.0
 20
52.00000000000001
 30
0.0
 11
175.0
 21
52.00000000000001
 31
0.0
  0
LINE
  5
207
330
16E
100
AcDbEntity
  8
実線(細線)
 62
    16
420
  8388608
100
AcDbLine
 10
101.0
 20
58.0
 30
0.0
 11
175.0
 21
58.0
 31
0.0
  0
LINE
  5
208
330
16E
100
AcDbEntity
  8
実線(細線)
 62
    16
420
  8388608
100
AcDbLine
 10
0.0
 20
64.00000000000002
 30
0.0
 11
101.0
 21
64.00000000000002
 31
0.0
  0
LINE
  5
209
330
16E
100
AcDbEntity
  8
実線(細線)
 62
    16
420
  8388608
100
AcDbLine
 10
138.0
 20
64.00000000000002
 30
0.0
 11
138.0
 21
41.00000000000001
 31
0.0
  0
LINE
  5
20A
330
16E
100
AcDbEntity
  8
実線(細線)
 62
    16
420
  8388608
100
AcDbLine
 10
64.0
 20
18.0
 30
0.0
 11
101.0
 21
18.0
 31
0.0
  0
LINE
  5
20B
330
16E
100
AcDbEntity
  8
実線(細線)
 62
    16
420
  8388608
100
AcDbLine
 10
166.75
 20
2.75
 30
0.0
 11
172.25
 21
8.250000000000014
 31
0.0
  0
LINE
  5
20C
330
16E
100
AcDbEntity
  8
実線(細線)
 62
    16
420
  8388608
100
AcDbLine
 10
116.0
 20
64.00000000000002
 30
0.0
 11
116.0
 21
41.00000000000001
 31
0.0
  0
LINE
  5
20D
330
16E
100
AcDbEntity
  8
実線(細線)
 62
    16
420
  8388608
100
AcDbLine
 10
101.0
 20
41.00000000000001
 30
0.0
 11
175.0
 21
41.00000000000001
 31
0.0
  0
LINE
  5
20E
330
16E
100
AcDbEntity
  8
実線(細線)
 62
    16
420
  8388608
100
AcDbLine
 10
70.00000000000006
 20
46.00000000000001
 30
0.0
 11
70.00000000000006
 21
36.00000000000001
 31
0.0
  0
LINE
  5
20F
330
16E
100
AcDbEntity
  8
実線(細線)
 62
    16
420
  8388608
100
AcDbLine
 10
0.0
 20
46.00000000000001
 30
0.0
 11
175.0
 21
46.00000000000001
 31
0.0
  0
LINE
  5
210
330
16E
100
AcDbEntity
  8
実線(細線)
 62
    16
420
  8388608
100
AcDbLine
 10
64.0
 20
25.0
 30
0.0
 11
101.0
 21
25.0
 31
0.0
  0
LINE
  5
211
330
16E
100
AcDbEntity
  8
実線(細線)
 62
    16
420
  8388608
100
AcDbLine
 10
64.0
 20
36.00000000000001
 30
0.0
 11
64.0
 21
11.00000000000001
 31
0.0
  0
LINE
  5
212
330
16E
100
AcDbEntity
  8
実線(細線)
 62
    16
420
  8388608
100
AcDbLine
 10
164.0
 20
0.0
 30
0.0
 11
164.0
 21
11.00000000000001
 31
0.0
  0
LINE
  5
213
330
16E
100
AcDbEntity
  8
一点鎖線(細線)
 62
    16
420
  8388608
 48
8.889559745788574
100
AcDbLine
 10
85.34770202636719
 20
45.00000000000001
 30
0.0
 11
85.34770202636719
 21
37.00000000000001
 31
0.0
  0
LINE
  5
214
330
16E
100
AcDbEntity
  8
実線(中線)
 62
     5
420
      255
100
AcDbLine
 10
91.74761638830341
 20
42.60041782533405
 30
0.0
 11
99.74757236725373
 21
44.20040875367137
 31
0.0
  0
LINE
  5
215
330
16E
100
AcDbEntity
  8
実線(中線)
 62
     5
420
      255
100
AcDbLine
 10
91.74773936403063
 20
39.40040357563385
 30
0.0
 11
99.74775519287641
 21
37.80040067731945
 31
0.0
  0
LINE
  5
216
330
16E
100
AcDbEntity
  8
実線(中線)
 62
     5
420
      255
100
AcDbLine
 10
91.74769592285157
 20
42.59999084472656
 30
0.0
 11
91.74769592285157
 21
39.39999389648438
 31
0.0
  0
LINE
  5
217
330
16E
100
AcDbEntity
  8
実線(中線)
 62
     5
420
      255
100
AcDbLine
 10
99.74769592285156
 20
44.1999969482422
 30
0.0
 11
99.74769592285156
 21
37.79998779296875
 31
0.0
  0
LINE
  5
218
330
16E
100
AcDbEntity
  8
一点鎖線(細線)
 62
    16
420
  8388608
 48
18.34603500366211
100
AcDbLine
 10
81.00000000000001
 20
41.00000000000001
 30
0.0
 11
100.5
 21
41.00000000000001
 31
0.0
  0
LINE
  5
219
330
16E
100
AcDbEntity
  8
実線(細線)
 62
    16
420
  8388608
100
AcDbLine
 10
0.0
 20
27.00000000000001
 30
0.0
 11
64.0
 21
27.00000000000001
 31
0.0
  0
LINE
  5
21A
330
16E
100
AcDbEntity
  8
実線(細線)
 62
    16
420
  8388608
100
AcDbLine
 10
101.0
 20
64.00000000000002
 30
0.0
 11
101.0
 21
11.00000000000001
 31
0.0
  0
LINE
  5
21B
330
16E
100
AcDbEntity
  8
実線(細線)
 62
    16
420
  8388608
100
AcDbLine
 10
0.0
 20
82.00000000000001
 30
0.0
 11
0.0
 21
0.0
 31
0.0
  0
LINE
  5
21C
330
16E
100
AcDbEntity
  8
実線(細線)
 62
    16
420
  8388608
100
AcDbLine
 10
0.0
 20
36.00000000000001
 30
0.0
 11
175.0
 21
36.00000000000001
 31
0.0
  0
LINE
  5
21D
330
16E
100
AcDbEntity
  8
実線(細線)
 62
    16
420
  8388608
100
AcDbLine
 10
0.0
 20
11.00000000000001
 30
0.0
 11
175.0
 21
11.00000000000001
 31
0.0
  0
LINE
  5
21E
330
16E
100
AcDbEntity
  8
実線(細線)
 62
    16
420
  8388608
100
AcDbLine
 10
175.0
 20
0.0
 30
0.0
 11
175.0
 21
64.00000000000002
 31
0.0
  0
LINE
  5
21F
330
16E
100
AcDbEntity
  8
実線(細線)
 62
    16
420
  8388608
100
AcDbLine
 10
0.0
 20
0.0
 30
0.0
 11
175.0
 21
0.0
 31
0.0
  0
LINE
  5
220
330
16E
100
AcDbEntity
  8
実線(細線)
 62
    16
420
  8388608
100
AcDbLine
 10
0.0
 20
55.00000000000001
 30
0.0
 11
101.0
 21
55.00000000000001
 31
0.0
  0
LINE
  5
221
330
16E
100
AcDbEntity
  8
実線(細線)
 62
    16
420
  8388608
100
AcDbLine
 10
15.99999999999999
 20
46.00000000000001
 30
0.0
 11
16.00000054486772
 21
55.00000000000001
 31
0.0
  0
LINE
  5
222
330
16E
100
AcDbEntity
  8
実線(細線)
 62
    16
420
  8388608
100
AcDbLine
 10
102.0
 20
47.10000000000001
 30
0.0
 11
106.5
 21
47.10000000000001
 31
0.0
  0
LINE
  5
223
330
16E
100
AcDbEntity
  8
実線(細線)
 62
    16
420
  8388608
100
AcDbLine
 10
106.5
 20
47.10000000000001
 30
0.0
 11
104.25
 21
50.99711431702999
 31
0.0
  0
LINE
  5
224
330
16E
100
AcDbEntity
  8
実線(細線)
 62
    16
420
  8388608
100
AcDbLine
 10
104.25
 20
50.99711431702999
 30
0.0
 11
102.0
 21
47.10000000000001
 31
0.0
  0
LINE
  5
225
330
16E
100
AcDbEntity
  8
実線(細線)
 62
    16
420
  8388608
100
AcDbLine
 10
102.0
 20
53.10000000000002
 30
0.0
 11
106.5
 21
53.10000000000002
 31
0.0
  0
LINE
  5
226
330
16E
100
AcDbEntity
  8
実線(細線)
 62
    16
420
  8388608
100
AcDbLine
 10
106.5
 20
53.10000000000002
 30
0.0
 11
104.25
 21
56.99711431702998
 31
0.0
  0
LINE
  5
227
330
16E
100
AcDbEntity
  8
実線(細線)
 62
    16
420
  8388608
100
AcDbLine
 10
104.25
 20
56.99711431702998
 30
0.0
 11
102.0
 21
53.10000000000002
 31
0.0
  0
LINE
  5
228
330
16E
100
AcDbEntity
  8
実線(細線)
 62
    16
420
  8388608
100
AcDbLine
 10
102.0
 20
59.10000000000001
 30
0.0
 11
106.5
 21
59.10000000000001
 31
0.0
  0
LINE
  5
229
330
16E
100
AcDbEntity
  8
実線(細線)
 62
    16
420
  8388608
100
AcDbLine
 10
106.5
 20
59.10000000000001
 30
0.0
 11
104.25
 21
62.99711431702998
 31
0.0
  0
LINE
  5
22A
330
16E
100
AcDbEntity
  8
実線(細線)
 62
    16
420
  8388608
100
AcDbLine
 10
104.25
 20
62.99711431702998
 30
0.0
 11
102.0
 21
59.10000000000001
 31
0.0
  0
LINE
  5
22B
330
16E
100
AcDbEntity
  8
実線(細線)
 62
    16
420
  8388608
100
AcDbLine
 10
108.5
 20
49.00000000000002
 30
0.0
 11
109.5
 21
49.00000000000002
 31
0.0
  0
LINE
  5
22C
330
16E
100
AcDbEntity
  8
実線(細線)
 62
    16
420
  8388608
100
AcDbLine
 10
108.5
 20
49.00000000000002
 30
0.0
 11
107.5
 21
49.00000000000002
 31
0.0
  0
LINE
  5
22D
330
16E
100
AcDbEntity
  8
実線(細線)
 62
    16
420
  8388608
100
AcDbLine
 10
108.5
 20
55.0
 30
0.0
 11
109.5
 21
55.0
 31
0.0
  0
LINE
  5
22E
330
16E
100
AcDbEntity
  8
実線(細線)
 62
    16
420
  8388608
100
AcDbLine
 10
108.5
 20
55.0
 30
0.0
 11
107.5
 21
55.0
 31
0.0
  0
LINE
  5
22F
330
16E
100
AcDbEntity
  8
実線(細線)
 62
    16
420
  8388608
100
AcDbLine
 10
108.5
 20
61.00000000000001
 30
0.0
 11
109.5
 21
61.00000000000001
 31
0.0
  0
LINE
  5
230
330
16E
100
AcDbEntity
  8
実線(細線)
 62
    16
420
  8388608
100
AcDbLine
 10
108.5
 20
61.00000000000001
 30
0.0
 11
107.5
 21
61.00000000000001
 31
0.0
  0
LINE
  5
231
330
16E
100
AcDbEntity
  8
実線(細線)
 62
    16
420
  8388608
100
AcDbLine
 10
16.00000054486772
 20
55.00000000000001
 30
0.0
 11
16.00000054486773
 21
64.00000000000002
 31
0.0
  0
LINE
  5
232
330
16E
100
AcDbEntity
  8
スケッチ(細線)
100
AcDbLine
 10
0.0
 20
64.00000000000002
 30
0.0
 11
16.00000054486772
 21
55.00000000000001
 31
0.0
  0
LINE
  5
233
330
16E
100
AcDbEntity
  8
実線(細線)
 62
    16
420
  8388608
100
AcDbLine
 10
51.75
 20
64.00000000000002
 30
0.0
 11
51.75
 21
55.0
 31
0.0
  0
LINE
  5
234
330
16E
100
AcDbEntity
  8
実線(細線)
 62
    16
420
  8388608
100
AcDbLine
 10
75.75000000000001
 20
64.00000000000002
 30
0.0
 11
75.75000000000001
 21
55.0
 31
0.0
  0
LINE
  5
235
330
16E
100
AcDbEntity
  8
実線(細線)
 62
    16
420
  8388608
100
AcDbLine
 10
70.00000000000006
 20
46.00000000000001
 30
0.0
 11
70.00000000000006
 21
55.00000000000001
 31
0.0
  0
LINE
  5
236
330
16E
100
AcDbEntity
  8
実線(細線)
 62
    16
420
  8388608
100
AcDbLine
 10
80.00000000000005
 20
46.00000000000001
 30
0.0
 11
80.00000000000005
 21
55.00000000000001
 31
0.0
  0
LINE
  5
237
330
16E
100
AcDbEntity
  8
実線(細線)
 62
    16
420
  8388608
100
AcDbLine
 10
7.0
 20
82.00000000000001
 30
0.0
 11
0.0
 21
82.00000000000001
 31
0.0
  0
LINE
  5
238
330
16E
100
AcDbEntity
  8
スケッチ(細線)
100
AcDbLine
 10
0.0
 20
55.00000000000001
 30
0.0
 11
16.00000054486772
 21
63.81484849977758
 31
0.0
  0
MTEXT
  5
239
330
16E
100
AcDbEntity
  8
寸法(細線)
100
AcDbMText
 10
1.999999999999999
 20
5.103187435617057
 30
0.0
 40
2.5
 41
0.0
 46
0.0
 71
     4
 72
     1
  1
\fTahoma|b0|i0;\H2.5000;MFG\PNo.
  7
図枠用
 73
     2
 44
0.9878841638565063
  0
MTEXT
  5
23A
330
16E
100
AcDbEntity
  8
寸法(細線)
100
AcDbMText
 10
7.999999999999998
 20
33.75000000000002
 30
0.0
 40
2.5
 41
0.0
 46
0.0
 71
     5
 72
     1
  1
\fTahoma|b0|i0;\W0.90;\H2.5000;APPRV
  7
図枠用
 73
     1
 44
1.0
  0
MTEXT
  5
23B
330
16E
100
AcDbEntity
  8
寸法(細線)
100
AcDbMText
 10
24.0
 20
33.75000000000002
 30
0.0
 40
2.5
 41
0.0
 46
0.0
 71
     5
 72
     1
  1
\fTahoma|b0|i0;\W0.90;\H2.5000;CHECK
  7
図枠用
 73
     1
 44
1.0
  0
MTEXT
  5
23C
330
16E
100
AcDbEntity
  8
寸法(細線)
100
AcDbMText
 10
40.0
 20
33.75000000000002
 30
0.0
 40
2.5
 41
0.0
 46
0.0
 71
     5
 72
     1
  1
\fTahoma|b0|i0;\W0.90;\H2.5000;DESIG
  7
図枠用
 73
     1
 44
1.0
  0
MTEXT
  5
23D
330
16E
100
AcDbEntity
  8
寸法(細線)
100
AcDbMText
 10
56.00000000000001
 20
33.75000000000002
 30
0.0
 40
2.5
 41
0.0
 46
0.0
 71
     5
 72
     1
  1
\fTahoma|b0|i0;\W0.90;\H2.5000;DRAW
  7
図枠用
 73
     1
 44
1.0
  0
MTEXT
  5
23E
330
16E
100
AcDbEntity
  8
寸法(細線)
100
AcDbMText
 10
7.999999999999999
 20
29.25000000000001
 30
0.0
 40
3.000000119209289
 41
0.0
 46
0.0
 71
     5
 72
     1
  1
\fTahoma|b0|i0;\W0.80;\H3.0000;承  認
  7
図枠用
 73
     1
 44
1.0
  0
MTEXT
  5
23F
330
16E
100
AcDbEntity
  8
寸法(細線)
100
AcDbMText
 10
24.0
 20
29.25000000000001
 30
0.0
 40
3.000000119209289
 41
0.0
 46
0.0
 71
     5
 72
     1
  1
\fTahoma|b0|i0;\W0.80;\H3.0000;検  図
  7
図枠用
 73
     1
 44
1.0
  0
MTEXT
  5
240
330
16E
100
AcDbEntity
  8
寸法(細線)
100
AcDbMText
 10
40.0
 20
29.25000000000001
 30
0.0
 40
3.000000119209289
 41
0.0
 46
0.0
 71
     5
 72
     1
  1
\fTahoma|b0|i0;\W0.80;\H3.0000;設  計
  7
図枠用
 73
     1
 44
1.0
  0
MTEXT
  5
241
330
16E
100
AcDbEntity
  8
寸法(細線)
100
AcDbMText
 10
56.00000000000001
 20
29.25000000000001
 30
0.0
 40
3.000000119209289
 41
0.0
 46
0.0
 71
     5
 72
     1
  1
\fTahoma|b0|i0;\W0.80;\H3.0000;製  図
  7
図枠用
 73
     1
 44
1.0
  0
MTEXT
  5
242
330
16E
100
AcDbEntity
  8
寸法(細線)
100
AcDbMText
 10
16.0
 20
40.51053474719327
 30
0.0
 40
3.000000119209289
 41
0.0
 46
0.0
 71
     5
 72
     1
  1
\fTahoma|b0|i0;\W0.95;\H3.0000;TOLERANCES   \PUNLESS NOTED
  7
図枠用
 73
     2
 44
0.8959999680519104
  0
MTEXT
  5
243
330
16E
100
AcDbEntity
  8
寸法(細線)
100
AcDbMText
 10
51.00000000000003
 20
40.57009716580313
 30
0.0
 40
3.000000119209289
 41
0.0
 46
0.0
 71
     5
 72
     1
  1
\fTahoma|b0|i0;\H3.0000;JIS B 0419- mH級\PJIS B 0408- B  級
  7
図枠用
 73
     2
 44
0.8959999680519104
  0
MTEXT
  5
244
330
16E
100
AcDbEntity
  8
寸法(細線)
100
AcDbMText
 10
7.999999999999998
 20
50.50000000000001
 30
0.0
 40
3.000000119209289
 41
0.0
 46
0.0
 71
     5
 72
     1
  1
\fTahoma|b0|i0;\W0.70;\H3.0000;流用元図番
  7
図枠用
 73
     1
 44
1.0
  0
MTEXT
  5
245
330
16E
100
AcDbEntity
  8
寸法(細線)
100
AcDbMText
 10
79.00000000000002
 20
5.103187435617057
 30
0.0
 40
2.5
 41
0.0
 46
0.0
 71
     4
 72
     1
  1
\fTahoma|b0|i0;\H2.5000;DWG\PNo.
  7
図枠用
 73
     2
 44
0.9878841638565063
  0
MTEXT
  5
246
330
16E
100
AcDbEntity
  8
寸法(細線)
100
AcDbMText
 10
70.5
 20
21.5
 30
0.0
 40
2.5
 41
0.0
 46
0.0
 71
     5
 72
     1
  1
\fTahoma|b0|i0;\H2.5000;SCALE
  7
図枠用
 73
     1
 44
1.0
  0
MTEXT
  5
247
330
16E
100
AcDbEntity
  8
寸法(細線)
100
AcDbMText
 10
70.5
 20
14.50000000000001
 30
0.0
 40
2.5
 41
0.0
 46
0.0
 71
     5
 72
     1
  1
\fTahoma|b0|i0;\H2.5000;DATE
  7
図枠用
 73
     1
 44
1.0
  0
MTEXT
  5
248
330
16E
100
AcDbEntity
  8
寸法(細線)
100
AcDbMText
 10
104.0
 20
33.00000000000002
 30
0.0
 40
2.5
 41
0.0
 46
0.0
 71
     4
 72
     1
  1
\fTahoma|b0|i0;\H2.5000;TITLE
  7
図枠用
 73
     1
 44
1.0
  0
MTEXT
  5
249
330
16E
100
AcDbEntity
  8
寸法(細線)
100
AcDbMText
 10
108.5
 20
43.50000000000001
 30
0.0
 40
3.000000119209289
 41
0.0
 46
0.0
 71
     5
 72
     1
  1
\fTahoma|b0|i0;\H3.0000;MARK
  7
図枠用
 73
     1
 44
1.0
  0
MTEXT
  5
24A
330
16E
100
AcDbEntity
  8
寸法(細線)
100
AcDbMText
 10
127.0
 20
43.50000000000001
 30
0.0
 40
3.000000119209289
 41
0.0
 46
0.0
 71
     5
 72
     1
  1
\fTahoma|b0|i0;\H3.0000;DATE
  7
図枠用
 73
     1
 44
1.0
  0
MTEXT
  5
24B
330
16E
100
AcDbEntity
  8
寸法(細線)
100
AcDbMText
 10
156.5
 20
43.50000000000001
 30
0.0
 40
3.000000119209289
 41
0.0
 46
0.0
 71
     5
 72
     1
  1
\fTahoma|b0|i0;\H3.0000;REMARKS
  7
図枠用
 73
     1
 44
1.0
  0
MTEXT
  5
24C
330
16E
100
AcDbEntity
  8
寸法(細線)
100
AcDbMText
 10
138.0
 20
38.50000000000001
 30
0.0
 40
3.000000119209289
 41
0.0
 46
0.0
 71
     5
 72
     1
  1
\fTahoma|b0|i0;\W1.20;\H3.0000;REVISION
  7
図枠用
 73
     1
 44
1.0
  0
MTEXT
  5
24D
330
16E
100
AcDbEntity
  8
寸法(細線)
100
AcDbMText
 10
8.000000272433862
 20
59.50000000000001
 30
0.0
 40
5.0
 41
0.0
 46
0.0
 71
     5
 72
     1
  1
\fTahoma|b0|i0;\H5.0000;貼
  7
図枠用
 73
     1
 44
1.0
  0
MTEXT
  5
24E
330
16E
100
AcDbEntity
  8
寸法(細線)
100
AcDbMText
 10
18.00000054486772
 20
61.75
 30
0.0
 40
2.5
 41
0.0
 46
0.0
 71
     4
 72
     1
  1
\fTahoma|b0|i0;\W0.90;\H2.5000;DWG.No
  7
図枠用
 73
     1
 44
1.0
  0
MTEXT
  5
24F
330
16E
100
AcDbEntity
  8
寸法(細線)
100
AcDbMText
 10
53.75
 20
61.75
 30
0.0
 40
2.5
 41
0.0
 46
0.0
 71
     4
 72
     1
  1
\fTahoma|b0|i0;\W0.90;\H2.5000;DATE
  7
図枠用
 73
     1
 44
1.0
  0
MTEXT
  5
250
330
16E
100
AcDbEntity
  8
寸法(細線)
100
AcDbMText
 10
77.75000000000002
 20
61.75
 30
0.0
 40
2.5
 41
0.0
 46
0.0
 71
     4
 72
     1
  1
\fTahoma|b0|i0;\W0.90;\H2.5000;NAME
  7
図枠用
 73
     1
 44
1.0
  0
MTEXT
  5
251
330
16E
100
AcDbEntity
  8
寸法(細線)
100
AcDbMText
 10
75.00000000000006
 20
49.99108584473532
 30
0.0
 40
3.000000119209289
 41
0.0
 46
0.0
 71
     5
 72
     1
  1
\fTahoma|b0|i0;\H3.0000;計算\P重量
  7
図枠用
 73
     2
 44
0.7799999713897705
  0
ATTDEF
  5
253
102
{ACAD_XDICTIONARY
360
89F
102
}
330
16E
100
AcDbEntity
  8
寸法(細線)
100
AcDbText
 10
18.00000054486772
 20
49.25000000000001
 30
0.0
 40
2.5
  1

  7
文字スタイル35
 11
18.00000054486772
 21
50.50000000000001
 31
0.0
100
AcDbAttributeDefinition
280
     0
  3
流用元図番
  2
流用元図番
 70
     0
 74
     2
280
     0
  0
ATTDEF
  5
256
102
{ACAD_XDICTIONARY
360
8A2
102
}
330
16E
100
AcDbEntity
  8
寸法(細線)
100
AcDbText
 10
113.0
 20
47.75000000000001
 30
0.0
 40
2.5
  1

  7
文字スタイル35
 72
     1
 11
113.0
 21
49.00000000000002
 31
0.0
100
AcDbAttributeDefinition
280
     0
  3
<変更来歴B-COUNT>
  2
<変更来歴B-COUNT>
 70
     0
 74
     2
280
     0
  0
ATTDEF
  5
257
102
{ACAD_XDICTIONARY
360
8A5
102
}
330
16E
100
AcDbEntity
  8
寸法(細線)
100
AcDbText
 10
113.0
 20
53.75
 30
0.0
 40
2.5
  1

  7
文字スタイル35
 72
     1
 11
113.0
 21
55.0
 31
0.0
100
AcDbAttributeDefinition
280
     0
  3
<変更来歴C-COUNT>
  2
<変更来歴C-COUNT>
 70
     0
 74
     2
280
     0
  0
ATTDEF
  5
258
102
{ACAD_XDICTIONARY
360
8A8
102
}
330
16E
100
AcDbEntity
  8
寸法(細線)
100
AcDbText
 10
113.0
 20
59.75000000000001
 30
0.0
 40
2.5
  1

  7
文字スタイル35
 72
     1
 11
113.0
 21
61.00000000000001
 31
0.0
100
AcDbAttributeDefinition
280
     0
  3
<変更来歴D-COUNT>
  2
<変更来歴D-COUNT>
 70
     0
 74
     2
280
     0
  0
ATTDEF
  5
259
102
{ACAD_XDICTIONARY
360
8AB
102
}
330
16E
100
AcDbEntity
  8
寸法(細線)
100
AcDbText
 10
127.0
 20
59.75000000000001
 30
0.0
 40
2.5
  1

  7
文字スタイル35
 72
     1
 11
127.0
 21
61.00000000000001
 31
0.0
100
AcDbAttributeDefinition
280
     0
  3
<変更来歴D-DATE>
  2
<変更来歴D-DATE>
 70
     0
 74
     2
280
     0
  0
ATTDEF
  5
25A
102
{ACAD_XDICTIONARY
360
8AE
102
}
330
16E
100
AcDbEntity
  8
寸法(細線)
100
AcDbText
 10
127.0
 20
53.75
 30
0.0
 40
2.5
  1

  7
文字スタイル35
 72
     1
 11
127.0
 21
55.0
 31
0.0
100
AcDbAttributeDefinition
280
     0
  3
<変更来歴C-DATE>
  2
<変更来歴C-DATE>
 70
     0
 74
     2
280
     0
  0
ATTDEF
  5
25C
102
{ACAD_XDICTIONARY
360
8B1
102
}
330
16E
100
AcDbEntity
  8
寸法(細線)
100
AcDbText
 10
139.0
 20
47.75000000000001
 30
0.0
 40
2.5
  1

 41
0.5
  7
文字スタイル211
 11
139.0
 21
49.00000000000002
 31
0.0
100
AcDbAttributeDefinition
280
     0
  3
<変更来歴B-REMARKS>
  2
<変更来歴B-REMARKS>
 70
     0
 74
     2
280
     0
  0
ATTDEF
  5
25D
102
{ACAD_XDICTIONARY
360
8B4
102
}
330
16E
100
AcDbEntity
  8
寸法(細線)
100
AcDbText
 10
139.0
 20
53.75
 30
0.0
 40
2.5
  1

 41
0.5
  7
文字スタイル211
 11
139.0
 21
55.0
 31
0.0
100
AcDbAttributeDefinition
280
     0
  3
<変更来歴C-REMARKS>
  2
<変更来歴C-REMARKS>
 70
     0
 74
     2
280
     0
  0
ATTDEF
  5
25E
102
{ACAD_XDICTIONARY
360
8B7
102
}
330
16E
100
AcDbEntity
  8
寸法(細線)
100
AcDbText
 10
139.0
 20
59.75000000000001
 30
0.0
 40
2.5
  1

 41
0.5
  7
文字スタイル211
 11
139.0
 21
61.00000000000001
 31
0.0
100
AcDbAttributeDefinition
280
     0
  3
<変更来歴D-REMARKS>
  2
<変更来歴D-REMARKS>
 70
     0
 74
     2
280
     0
  0
ATTDEF
  5
260
102
{ACAD_XDICTIONARY
360
8BA
102
}
330
16E
100
AcDbEntity
  8
寸法(細線)
100
AcDbText
 10
71.85493629698474
 20
38.90000006556512
 30
0.0
 40
4.199999868869781
  1
A3
  7
文字スタイル60
100
AcDbAttributeDefinition
280
     0
  3
シート サイズ
  2
シート_サイズ_001
 70
     0
280
     0
  0
ATTDEF
  5
262
102
{ACAD_XDICTIONARY
360
8BD
102
}
330
16E
100
AcDbEntity
  8
寸法(細線)
100
AcDbText
 10
105.4218271234998
 20
2.950000047683722
 30
0.0
 40
5.099999904632568
  1
KZ2003-908A
  7
文字スタイル206
100
AcDbAttributeDefinition
280
     0
  3
図面番号
  2
図面番号_001
 70
     0
280
     0
  0
ATTDEF
  5
264
102
{ACAD_XDICTIONARY
360
8C0
102
}
330
16E
100
AcDbEntity
  8
寸法(細線)
100
AcDbText
 10
86.36799855223035
 20
20.12189383375477
 30
0.0
 40
2.70000010728836
  1
2:1
  7
文字スタイル205
100
AcDbAttributeDefinition
280
     0
  3
<尺度>
  2
<尺度>_001
 70
     0
280
     0
  0
ATTDEF
  5
265
102
{ACAD_XDICTIONARY
360
8C3
102
}
330
16E
100
AcDbEntity
  8
寸法(細線)
100
AcDbText
 10
80.14758226997988
 20
13.46574882471458
 30
0.0
 40
2.5
  1
2013/04/18
  7
文字スタイル35
100
AcDbAttributeDefinition
280
     0
  3
作成日
  2
作成日_001
 70
     0
280
     0
  0
ATTDEF
  5
267
102
{ACAD_XDICTIONARY
360
8C6
102
}
330
16E
100
AcDbEntity
  8
寸法(細線)
100
AcDbText
 10
116.9820891399814
 20
16.8133522363549
 30
0.0
 40
4.300000071525573
  1
ASM外形寸法図
  7
文字スタイル207
100
AcDbAttributeDefinition
280
     0
  3
タイトル
  2
タイトル_001
 70
     0
280
     0
  0
ATTDEF
  5
269
102
{ACAD_XDICTIONARY
360
8C9
102
}
330
16E
100
AcDbEntity
  8
寸法(細線)
100
AcDbText
 10
138.0
 20
24.59999999403955
 30
0.0
 40
2.800000011920928
  1

  7
文字スタイル208
 72
     1
 11
138.0
 21
26.00000000000001
 31
0.0
100
AcDbAttributeDefinition
280
     0
  3
<サブタイトル>
  2
<サブタイトル>
 70
     0
 74
     2
280
     0
  0
ATTDEF
  5
26B
102
{ACAD_XDICTIONARY
360
8CC
102
}
330
16E
100
AcDbEntity
  8
寸法(細線)
100
AcDbText
 10
103.4569845218799
 20
47.59999996423722
 30
0.0
 40
1.800000071525573
  1
B
  7
文字スタイル107
100
AcDbAttributeDefinition
280
     0
  3
<変更来歴B-MARK>
  2
<変更来歴B-MARK>_001
 70
     0
280
     0
  0
ATTDEF
  5
26C
102
{ACAD_XDICTIONARY
360
8CF
102
}
330
16E
100
AcDbEntity
  8
寸法(細線)
100
AcDbText
 10
103.4872061483326
 20
53.59999996423723
 30
0.0
 40
1.800000071525573
  1
C
  7
文字スタイル107
100
AcDbAttributeDefinition
280
     0
  3
<変更来歴C-MARK>
  2
<変更来歴C-MARK>_001
 70
     0
280
     0
  0
ATTDEF
  5
26D
102
{ACAD_XDICTIONARY
360
8D2
102
}
330
16E
100
AcDbEntity
  8
寸法(細線)
100
AcDbText
 10
103.3578575871149
 20
59.59999996423722
 30
0.0
 40
1.800000071525573
  1
D
  7
文字スタイル107
100
AcDbAttributeDefinition
280
     0
  3
<変更来歴D-MARK>
  2
<変更来歴D-MARK>_001
 70
     0
280
     0
  0
ATTDEF
  5
26E
102
{ACAD_XDICTIONARY
360
8D5
102
}
330
16E
100
AcDbEntity
  8
寸法(細線)
100
AcDbText
 10
127.0
 20
47.75000000000001
 30
0.0
 40
2.5
  1

  7
文字スタイル35
 72
     1
 11
127.0
 21
49.00000000000002
 31
0.0
100
AcDbAttributeDefinition
280
     0
  3
<変更来歴B-DATE>
  2
<変更来歴B-DATE>
 70
     0
 74
     2
280
     0
  0
ATTDEF
  5
26F
102
{ACAD_XDICTIONARY
360
8D8
102
}
330
16E
100
AcDbEntity
  8
寸法(細線)
100
AcDbText
 10
20.00000054486773
 20
56.00000000000001
 30
0.0
 40
2.5
  1

  7
文字スタイル35
 11
20.00000054486773
 21
57.25000000000001
 31
0.0
100
AcDbAttributeDefinition
280
     0
  3
<貼DWG.No>
  2
<貼DWG.No>
 70
     0
 74
     2
280
     0
  0
ATTDEF
  5
270
102
{ACAD_XDICTIONARY
360
8DB
102
}
330
16E
100
AcDbEntity
  8
寸法(細線)
100
AcDbText
 10
63.75
 20
56.00000000000001
 30
0.0
 40
2.5
  1

  7
文字スタイル35
 72
     1
 11
63.75
 21
57.25000000000001
 31
0.0
100
AcDbAttributeDefinition
280
     0
  3
<貼DATE>
  2
<貼DATE>
 70
     0
 74
     2
280
     0
  0
ATTDEF
  5
272
102
{ACAD_XDICTIONARY
360
8DE
102
}
330
16E
100
AcDbEntity
  8
寸法(細線)
100
AcDbText
 10
88.37500000000003
 20
56.09999997913838
 30
0.0
 40
2.300000041723251
  1

  7
文字スタイル204
 72
     1
 11
88.37500000000003
 21
57.25000000000001
 31
0.0
100
AcDbAttributeDefinition
280
     0
  3
<貼NAME>
  2
<貼NAME>
 70
     0
 74
     2
280
     0
  0
ATTDEF
  5
274
102
{ACAD_XDICTIONARY
360
8E1
102
}
330
16E
100
AcDbEntity
  8
寸法(細線)
100
AcDbText
 10
90.50000000000004
 20
48.99999994039537
 30
0.0
 40
3.000000119209289
  1

  7
文字スタイル32
 72
     1
 11
90.50000000000004
 21
50.50000000000001
 31
0.0
100
AcDbAttributeDefinition
280
     0
  3
重量
  2
重量
 70
     0
 74
     2
280
     0
  0
ATTDEF
  5
276
102
{ACAD_XDICTIONARY
360
8E4
102
}
330
16E
100
AcDbEntity
  8
寸法(細線)
100
AcDbText
 10
56.00000000000001
 20
17.8000000268221
 30
0.0
 40
2.399999946355819
  1

  7
文字スタイル228
 72
     1
 11
56.00000000000001
 21
19.00000000000001
 31
0.0
100
AcDbAttributeDefinition
280
     0
  3
製図欄2
  2
製図欄2
 70
     0
 74
     2
280
     0
  0
ATTDEF
  5
277
102
{ACAD_XDICTIONARY
360
8E7
102
}
330
16E
100
AcDbEntity
  8
寸法(細線)
100
AcDbText
 10
56.00000000000001
 20
13.8000000268221
 30
0.0
 40
2.399999946355819
  1

  7
文字スタイル228
 72
     1
 11
56.00000000000001
 21
15.00000000000001
 31
0.0
100
AcDbAttributeDefinition
280
     0
  3
製図者
  2
製図者
 70
     0
 74
     2
280
     0
  0
ATTDEF
  5
278
102
{ACAD_XDICTIONARY
360
8EA
102
}
330
16E
100
AcDbEntity
  8
寸法(細線)
100
AcDbText
 10
56.00000000000001
 20
21.80000002682211
 30
0.0
 40
2.399999946355819
  1

  7
文字スタイル228
 72
     1
 11
56.00000000000001
 21
23.00000000000002
 31
0.0
100
AcDbAttributeDefinition
280
     0
  3
製図欄1
  2
製図欄1
 70
     0
 74
     2
280
     0
  0
ATTDEF
  5
27A
102
{ACAD_XDICTIONARY
360
8ED
102
}
330
16E
100
AcDbEntity
  8
寸法(細線)
100
AcDbText
 10
172.2157360094453
 20
1.499999940395355
 30
0.0
 40
3.000000119209289
  1
1
  7
文字スタイル117
100
AcDbAttributeDefinition
280
     0
  3
シートの数
  2
シートの数_001
 70
     0
280
     0
  0
ATTDEF
  5
27C
102
{ACAD_XDICTIONARY
360
8F0
102
}
330
16E
100
AcDbEntity
  8
寸法(細線)
100
AcDbText
 10
167.7157360094453
 20
6.499999940395369
 30
0.0
 40
3.000000119209289
  1
1
  7
文字スタイル117
100
AcDbAttributeDefinition
280
     0
  3
シート番号
  2
シート番号_001
 70
     0
280
     0
  0
ENDBLK
  5
170
330
16E
100
AcDbEntity
  8
0
100
AcDbBlockEnd
  0
BLOCK
  5
35A
330
359
100
AcDbEntity
  8
0
100
AcDbBlockBegin
  2
*D8
 70
     1
 10
0.0
 20
0.0
 30
0.0
  3
*D8
  1

  0
LINE
  5
425
330
359
100
AcDbEntity
  8
寸法(細線)
100
AcDbLine
 10
146.9378546566011
 20
87.00039479495258
 30
0.0
 11
146.9378546566011
 21
71.3280357622701
 31
0.0
  0
LINE
  5
426
330
359
100
AcDbEntity
  8
寸法(細線)
100
AcDbLine
 10
117.1348546566011
 20
88.58789479495259
 30
0.0
 11
117.1348546566011
 21
71.3280357622701
 31
0.0
  0
LINE
  5
427
330
359
100
AcDbEntity
  8
寸法(細線)
100
AcDbLine
 10
145.4878546089174
 20
71.9280357622701
 30
0.0
 11
118.5848547042848
 21
71.9280357622701
 31
0.0
  0
INSERT
  5
428
330
359
100
AcDbEntity
  8
寸法(細線)
100
AcDbBlockReference
  2
Open-1
 10
146.9378546566011
 20
71.9280357622701
 30
0.0
 41
1.450000047683715
 42
1.450000047683715
 43
1.450000047683715
  0
INSERT
  5
429
330
359
100
AcDbEntity
  8
寸法(細線)
100
AcDbBlockReference
  2
Open-1
 10
117.1348546566011
 20
71.9280357622701
 30
0.0
 41
1.450000047683715
 42
1.450000047683715
 43
1.450000047683715
 50
180.0
  0
MTEXT
  5
42A
330
359
100
AcDbEntity
  8
寸法(細線)
100
AcDbMText
 10
129.8086011307448
 20
74.15795517126944
 30
0.0
 40
1.75
 41
0.0
 46
0.0
 71
     1
 72
     1
  1
\A1;29.8
  7
Note Text (ULVAC_寸法)
 73
     1
 44
1.0
  0
POINT
  5
42B
330
359
100
AcDbEntity
  8
Defpoints
 62
     0
100
AcDbPoint
 10
146.9378546566011
 20
87.63539479495259
 30
0.0
  0
POINT
  5
42C
330
359
100
AcDbEntity
  8
Defpoints
 62
     0
100
AcDbPoint
 10
117.1348546566011
 20
89.2228947949526
 30
0.0
  0
POINT
  5
42D
330
359
100
AcDbEntity
  8
Defpoints
 62
     0
100
AcDbPoint
 10
117.1348546566011
 20
71.9280357622701
 30
0.0
  0
ENDBLK
  5
35B
330
359
100
AcDbEntity
  8
0
100
AcDbBlockEnd
  0
BLOCK
  5
430
330
42F
100
AcDbEntity
  8
0
100
AcDbBlockBegin
  2
*D9
 70
     1
 10
0.0
 20
0.0
 30
0.0
  3
*D9
  1

  0
LINE
  5
507
330
42F
100
AcDbEntity
  8
寸法(細線)
100
AcDbLine
 10
146.9378546566011
 20
97.79539479495261
 30
0.0
 11
146.9378546566011
 21
109.3560864110854
 31
0.0
  0
LINE
  5
508
330
42F
100
AcDbEntity
  8
寸法(細線)
100
AcDbLine
 10
139.3178546566011
 20
100.3652432136608
 30
0.0
 11
139.3178546566011
 21
109.3560864110854
 31
0.0
  0
LINE
  5
509
330
42F
100
AcDbEntity
  8
寸法(細線)
100
AcDbLine
 10
145.4878546089174
 20
108.7560864110854
 30
0.0
 11
140.7678547042848
 21
108.7560864110854
 31
0.0
  0
INSERT
  5
50A
330
42F
100
AcDbEntity
  8
寸法(細線)
100
AcDbBlockReference
  2
Open-1
 10
146.9378546566011
 20
108.7560864110854
 30
0.0
 41
1.450000047683715
 42
1.450000047683715
 43
1.450000047683715
  0
INSERT
  5
50B
330
42F
100
AcDbEntity
  8
寸法(細線)
100
AcDbBlockReference
  2
Open-1
 10
139.3178546566011
 20
108.7560864110854
 30
0.0
 41
1.450000047683715
 42
1.450000047683715
 43
1.450000047683715
 50
180.0
  0
MTEXT
  5
50C
330
42F
100
AcDbEntity
  8
寸法(細線)
100
AcDbMText
 10
139.9821931960419
 20
111.3435864110854
 30
0.0
 40
1.75
 41
0.0
 46
0.0
 71
     1
 72
     1
  1
\A1;{（}7.62{）}
  7
Note Text (ULVAC_寸法)
 73
     1
 44
1.0
  0
POINT
  5
50D
330
42F
100
AcDbEntity
  8
Defpoints
 62
     0
100
AcDbPoint
 10
146.9378546566011
 20
97.16039479495259
 30
0.0
  0
POINT
  5
50E
330
42F
100
AcDbEntity
  8
Defpoints
 62
     0
100
AcDbPoint
 10
139.3178546566011
 20
99.73024321366084
 30
0.0
  0
POINT
  5
50F
330
42F
100
AcDbEntity
  8
Defpoints
 62
     0
100
AcDbPoint
 10
139.3178546566011
 20
108.7560864110854
 30
0.0
  0
ENDBLK
  5
431
330
42F
100
AcDbEntity
  8
0
100
AcDbBlockEnd
  0
BLOCK
  5
512
330
511
100
AcDbEntity
  8
0
100
AcDbBlockBegin
  2
*D10
 70
     1
 10
0.0
 20
0.0
 30
0.0
  3
*D10
  1

  0
LINE
  5
5E9
330
511
100
AcDbEntity
  8
寸法(細線)
100
AcDbLine
 10
146.9378546566011
 20
97.79539479495261
 30
0.0
 11
146.9378546566011
 21
116.0867301503517
 31
0.0
  0
LINE
  5
5EA
330
511
100
AcDbEntity
  8
寸法(細線)
100
AcDbLine
 10
135.5078546566011
 20
100.3652432136608
 30
0.0
 11
135.5078546566011
 21
116.0867301503517
 31
0.0
  0
LINE
  5
5EB
330
511
100
AcDbEntity
  8
寸法(細線)
100
AcDbLine
 10
145.4878546089174
 20
115.4867301503517
 30
0.0
 11
136.9578547042848
 21
115.4867301503517
 31
0.0
  0
INSERT
  5
5EC
330
511
100
AcDbEntity
  8
寸法(細線)
100
AcDbBlockReference
  2
Open-1
 10
146.9378546566011
 20
115.4867301503517
 30
0.0
 41
1.450000047683715
 42
1.450000047683715
 43
1.450000047683715
  0
INSERT
  5
5ED
330
511
100
AcDbEntity
  8
寸法(細線)
100
AcDbBlockReference
  2
Open-1
 10
135.5078546566011
 20
115.4867301503517
 30
0.0
 41
1.450000047683715
 42
1.450000047683715
 43
1.450000047683715
 50
180.0
  0
MTEXT
  5
5EE
330
511
100
AcDbEntity
  8
寸法(細線)
100
AcDbMText
 10
137.4202086426503
 20
118.0742301503517
 30
0.0
 40
1.75
 41
0.0
 46
0.0
 71
     1
 72
     1
  1
\A1;{（}11.43{）}
  7
Note Text (ULVAC_寸法)
 73
     1
 44
1.0
  0
POINT
  5
5EF
330
511
100
AcDbEntity
  8
Defpoints
 62
     0
100
AcDbPoint
 10
146.9378546566011
 20
97.16039479495259
 30
0.0
  0
POINT
  5
5F0
330
511
100
AcDbEntity
  8
Defpoints
 62
     0
100
AcDbPoint
 10
135.5078546566011
 20
99.73024321366084
 30
0.0
  0
POINT
  5
5F1
330
511
100
AcDbEntity
  8
Defpoints
 62
     0
100
AcDbPoint
 10
135.5078546566011
 20
115.4867301503517
 30
0.0
  0
ENDBLK
  5
513
330
511
100
AcDbEntity
  8
0
100
AcDbBlockEnd
  0
BLOCK
  5
5F4
330
5F3
100
AcDbEntity
  8
0
100
AcDbBlockBegin
  2
*D11
 70
     1
 10
0.0
 20
0.0
 30
0.0
  3
*D11
  1

  0
LINE
  5
6C5
330
5F3
100
AcDbEntity
  8
寸法(細線)
100
AcDbLine
 10
146.9378546566011
 20
97.79539479495261
 30
0.0
 11
146.9378546566011
 21
122.2628947949526
 31
0.0
  0
LINE
  5
6C6
330
5F3
100
AcDbEntity
  8
寸法(細線)
100
AcDbLine
 10
127.7078546566011
 20
97.7978947949526
 30
0.0
 11
127.7078546566011
 21
122.2628947949526
 31
0.0
  0
LINE
  5
6C7
330
5F3
100
AcDbEntity
  8
寸法(細線)
100
AcDbLine
 10
145.4878546089174
 20
121.6628947949526
 30
0.0
 11
129.1578547042848
 21
121.6628947949526
 31
0.0
  0
INSERT
  5
6C8
330
5F3
100
AcDbEntity
  8
寸法(細線)
100
AcDbBlockReference
  2
Open-1
 10
146.9378546566011
 20
121.6628947949526
 30
0.0
 41
1.450000047683715
 42
1.450000047683715
 43
1.450000047683715
  0
INSERT
  5
6C9
330
5F3
100
AcDbEntity
  8
寸法(細線)
100
AcDbBlockReference
  2
Open-1
 10
127.7078546566011
 20
121.6628947949526
 30
0.0
 41
1.450000047683715
 42
1.450000047683715
 43
1.450000047683715
 50
180.0
  0
MTEXT
  5
6CA
330
5F3
100
AcDbEntity
  8
寸法(細線)
100
AcDbMText
 10
133.5202086426503
 20
124.2503947949526
 30
0.0
 40
1.75
 41
0.0
 46
0.0
 71
     1
 72
     1
  1
\A1;{（}19.23{）}
  7
Note Text (ULVAC_寸法)
 73
     1
 44
1.0
  0
POINT
  5
6CB
330
5F3
100
AcDbEntity
  8
Defpoints
 62
     0
100
AcDbPoint
 10
146.9378546566011
 20
97.16039479495259
 30
0.0
  0
POINT
  5
6CC
330
5F3
100
AcDbEntity
  8
Defpoints
 62
     0
100
AcDbPoint
 10
127.7078546566011
 20
97.16289479495259
 30
0.0
  0
POINT
  5
6CD
330
5F3
100
AcDbEntity
  8
Defpoints
 62
     0
100
AcDbPoint
 10
127.7078546566011
 20
121.6628947949526
 30
0.0
  0
ENDBLK
  5
5F5
330
5F3
100
AcDbEntity
  8
0
100
AcDbBlockEnd
  0
BLOCK
  5
6D0
330
6CF
100
AcDbEntity
  8
0
100
AcDbBlockBegin
  2
*D12
 70
     1
 10
0.0
 20
0.0
 30
0.0
  3
*D12
  1

  0
LINE
  5
7A7
330
6CF
100
AcDbEntity
  8
寸法(細線)
100
AcDbLine
 10
54.69104677089537
 20
84.56060966566285
 30
0.0
 11
70.43315064073715
 21
75.47190175879859
 31
0.0
  0
LINE
  5
7A8
330
6CF
100
AcDbEntity
  8
寸法(細線)
100
AcDbLine
 10
60.71639686496461
 20
95.74656900430669
 30
0.0
 11
76.78315064073718
 21
86.47042438686092
 31
0.0
  0
LINE
  5
7A9
330
6CF
100
AcDbEntity
  8
寸法(細線)
100
AcDbLine
 10
70.63853542230835
 20
77.02763863558132
 30
0.0
 11
75.53853537462464
 21
85.51468751007817
 31
0.0
  0
INSERT
  5
7AA
330
6CF
100
AcDbEntity
  8
寸法(細線)
100
AcDbBlockReference
  2
Open-1
 10
69.91353539846649
 20
75.77190175879859
 30
0.0
 41
1.450000047683715
 42
1.450000047683715
 43
1.450000047683715
 50
239.9999999999999
  0
INSERT
  5
7AB
330
6CF
100
AcDbEntity
  8
寸法(細線)
100
AcDbBlockReference
  2
Open-1
 10
76.2635353984665
 20
86.77042438686092
 30
0.0
 41
1.450000047683715
 42
1.450000047683715
 43
1.450000047683715
 50
59.99999999999986
  0
MTEXT
  5
7AC
330
6CF
100
AcDbEntity
  8
寸法(細線)
100
AcDbMText
 10
70.11552847800939
 20
80.49463173178477
 30
0.0
 40
1.75
 41
0.0
 46
0.0
 71
     1
 72
     1
  1
\A1;12.7
  7
Note Text (ULVAC_寸法)
 11
0.500000000000002
 21
0.8660254037844374
 31
0.0
 73
     1
 44
1.0
  0
POINT
  5
7AD
330
6CF
100
AcDbEntity
  8
Defpoints
 62
     0
100
AcDbPoint
 10
54.14112063949225
 20
84.87810966566284
 30
0.0
  0
POINT
  5
7AE
330
6CF
100
AcDbEntity
  8
Defpoints
 62
     0
100
AcDbPoint
 10
60.1664707335615
 20
96.0640690043067
 30
0.0
  0
POINT
  5
7AF
330
6CF
100
AcDbEntity
  8
Defpoints
 62
     0
100
AcDbPoint
 10
76.2635353984665
 20
86.77042438686092
 30
0.0
  0
ENDBLK
  5
6D1
330
6CF
100
AcDbEntity
  8
0
100
AcDbBlockEnd
  0
BLOCK
  5
7B2
330
7B1
100
AcDbEntity
  8
0
100
AcDbBlockBegin
  2
*D13
 70
     1
 10
0.0
 20
0.0
 30
0.0
  3
*D13
  1

  0
LINE
  5
88A
330
7B1
100
AcDbEntity
  8
寸法(細線)
100
AcDbLine
 10
127.0728546566011
 20
97.16289479495259
 30
0.0
 11
104.1753113575727
 21
97.16289479495259
 31
0.0
  0
LINE
  5
88B
330
7B1
100
AcDbEntity
  8
寸法(細線)
100
AcDbLine
 10
127.0728546566011
 20
87.63289479495259
 30
0.0
 11
104.1753113575727
 21
87.63289479495259
 31
0.0
  0
LINE
  5
88C
330
7B1
100
AcDbEntity
  8
寸法(細線)
100
AcDbLine
 10
104.7753113575727
 20
95.71289474726887
 30
0.0
 11
104.7753113575727
 21
89.08289484263631
 31
0.0
  0
INSERT
  5
88D
330
7B1
100
AcDbEntity
  8
寸法(細線)
100
AcDbBlockReference
  2
Open-1
 10
104.7753113575727
 20
97.16289479495259
 30
0.0
 41
1.450000047683715
 42
1.450000047683715
 43
1.450000047683715
 50
90.0
  0
INSERT
  5
88E
330
7B1
100
AcDbEntity
  8
寸法(細線)
100
AcDbBlockReference
  2
Open-1
 10
104.7753113575727
 20
87.63289479495259
 30
0.0
 41
1.450000047683715
 42
1.450000047683715
 43
1.450000047683715
 50
270.0
  0
MTEXT
  5
88F
330
7B1
100
AcDbEntity
  8
寸法(細線)
100
AcDbMText
 10
101.7422627373361
 20
88.24443110049058
 30
0.0
 40
1.75
 41
0.0
 46
0.0
 71
     1
 72
     1
  1
\A1;{\fTahoma|b0|i0;\H1.7500;（\fAIGDT|b0|i0;\H1.7500;\ln\fTahoma|b0|i0;\H1.7500;}9.53{\fTahoma|b0|i0;\H1.7500;）}
  7
Note Text (ULVAC_寸法)
 11
0.0000000000000001
 21
1.0
 31
0.0
 73
     1
 44
1.0
  0
POINT
  5
890
330
7B1
100
AcDbEntity
  8
Defpoints
 62
     0
100
AcDbPoint
 10
127.7078546566011
 20
97.16289479495259
 30
0.0
  0
POINT
  5
891
330
7B1
100
AcDbEntity
  8
Defpoints
 62
     0
100
AcDbPoint
 10
127.7078546566011
 20
87.63289479495259
 30
0.0
  0
POINT
  5
892
330
7B1
100
AcDbEntity
  8
Defpoints
 62
     0
100
AcDbPoint
 10
104.7753113575727
 20
87.63289479495259
 30
0.0
  0
ENDBLK
  5
7B3
330
7B1
100
AcDbEntity
  8
0
100
AcDbBlockEnd
  0
ENDSEC
  0
SECTION
  2
ENTITIES
  0
INSERT
  5
16D
330
77
100
AcDbEntity
  8
0
100
AcDbBlockReference
  2
図面枠 ゾーン図枠(A3)
 10
0.0
 20
0.0
 30
0.0
 41
0.5
 42
0.5
 43
0.5
  0
INSERT
  5
27D
330
77
100
AcDbEntity
  8
0
100
AcDbBlockReference
 66
     1
  2
表題欄 ULVAC表題欄
 10
117.4999999999998
 20
4.999999999999811
 30
0.0
 41
0.5
 42
0.5
 43
0.5
  0
ATTRIB
  5
27F
102
{ACAD_XDICTIONARY
360
8F3
102
}
330
27D
100
AcDbEntity
  8
寸法(細線)
100
AcDbText
 10
126.5000002724336
 20
29.62499999999982
 30
0.0
 40
1.25
  1

  7
文字スタイル35
 11
126.5000002724336
 21
30.24999999999983
 31
0.0
100
AcDbAttribute
280
     0
  2
流用元図番
 70
     0
 74
     2
280
     0
  0
ATTRIB
  5
280
102
{ACAD_XDICTIONARY
360
8F6
102
}
330
27D
100
AcDbEntity
  8
寸法(細線)
100
AcDbText
 10
173.9999999999997
 20
28.87499999999982
 30
0.0
 40
1.25
  1

  7
文字スタイル35
 72
     1
 11
173.9999999999997
 21
29.49999999999982
 31
0.0
100
AcDbAttribute
280
     0
  2
<変更来歴B-COUNT>
 70
     0
 74
     2
280
     0
  0
ATTRIB
  5
281
102
{ACAD_XDICTIONARY
360
8F9
102
}
330
27D
100
AcDbEntity
  8
寸法(細線)
100
AcDbText
 10
173.9999999999997
 20
31.87499999999982
 30
0.0
 40
1.25
  1

  7
文字スタイル35
 72
     1
 11
173.9999999999997
 21
32.49999999999982
 31
0.0
100
AcDbAttribute
280
     0
  2
<変更来歴C-COUNT>
 70
     0
 74
     2
280
     0
  0
ATTRIB
  5
282
102
{ACAD_XDICTIONARY
360
8FC
102
}
330
27D
100
AcDbEntity
  8
寸法(細線)
100
AcDbText
 10
173.9999999999997
 20
34.87499999999982
 30
0.0
 40
1.25
  1

  7
文字スタイル35
 72
     1
 11
173.9999999999997
 21
35.49999999999982
 31
0.0
100
AcDbAttribute
280
     0
  2
<変更来歴D-COUNT>
 70
     0
 74
     2
280
     0
  0
ATTRIB
  5
283
102
{ACAD_XDICTIONARY
360
8FF
102
}
330
27D
100
AcDbEntity
  8
寸法(細線)
100
AcDbText
 10
180.9999999999998
 20
34.87499999999982
 30
0.0
 40
1.25
  1

  7
文字スタイル35
 72
     1
 11
180.9999999999998
 21
35.49999999999982
 31
0.0
100
AcDbAttribute
280
     0
  2
<変更来歴D-DATE>
 70
     0
 74
     2
280
     0
  0
ATTRIB
  5
284
102
{ACAD_XDICTIONARY
360
902
102
}
330
27D
100
AcDbEntity
  8
寸法(細線)
100
AcDbText
 10
180.9999999999998
 20
31.87499999999982
 30
0.0
 40
1.25
  1

  7
文字スタイル35
 72
     1
 11
180.9999999999998
 21
32.49999999999982
 31
0.0
100
AcDbAttribute
280
     0
  2
<変更来歴C-DATE>
 70
     0
 74
     2
280
     0
  0
ATTRIB
  5
285
102
{ACAD_XDICTIONARY
360
905
102
}
330
27D
100
AcDbEntity
  8
寸法(細線)
100
AcDbText
 10
186.9999999999997
 20
28.87499999999982
 30
0.0
 40
1.25
  1

 41
0.5
  7
文字スタイル211
 11
186.9999999999997
 21
29.49999999999982
 31
0.0
100
AcDbAttribute
280
     0
  2
<変更来歴B-REMARKS>
 70
     0
 74
     2
280
     0
  0
ATTRIB
  5
286
102
{ACAD_XDICTIONARY
360
908
102
}
330
27D
100
AcDbEntity
  8
寸法(細線)
100
AcDbText
 10
186.9999999999997
 20
31.87499999999982
 30
0.0
 40
1.25
  1

 41
0.5
  7
文字スタイル211
 11
186.9999999999997
 21
32.49999999999982
 31
0.0
100
AcDbAttribute
280
     0
  2
<変更来歴C-REMARKS>
 70
     0
 74
     2
280
     0
  0
ATTRIB
  5
287
102
{ACAD_XDICTIONARY
360
90B
102
}
330
27D
100
AcDbEntity
  8
寸法(細線)
100
AcDbText
 10
186.9999999999997
 20
34.87499999999982
 30
0.0
 40
1.25
  1

 41
0.5
  7
文字スタイル211
 11
186.9999999999997
 21
35.49999999999982
 31
0.0
100
AcDbAttribute
280
     0
  2
<変更来歴D-REMARKS>
 70
     0
 74
     2
280
     0
  0
ATTRIB
  5
288
102
{ACAD_XDICTIONARY
360
90E
102
}
330
27D
100
AcDbEntity
  8
寸法(細線)
100
AcDbText
 10
153.4274681484921
 20
24.45000003278238
 30
0.0
 40
2.09999993443489
  1
A3
  7
文字スタイル60
100
AcDbAttribute
280
     0
  2
シート_サイズ_001
 70
     0
280
     0
  0
ATTRIB
  5
289
102
{ACAD_XDICTIONARY
360
911
102
}
330
27D
100
AcDbEntity
  8
寸法(細線)
100
AcDbText
 10
170.2109135617497
 20
6.475000023841673
 30
0.0
 40
2.549999952316284
  1
KZ2003-908A
  7
文字スタイル206
100
AcDbAttribute
280
     0
  2
図面番号_001
 70
     0
280
     0
  0
ATTRIB
  5
28A
102
{ACAD_XDICTIONARY
360
914
102
}
330
27D
100
AcDbEntity
  8
寸法(細線)
100
AcDbText
 10
160.683999276115
 20
15.06094691687719
 30
0.0
 40
1.35000005364418
  1
2:1
  7
文字スタイル205
100
AcDbAttribute
280
     0
  2
<尺度>_001
 70
     0
280
     0
  0
ATTRIB
  5
28B
102
{ACAD_XDICTIONARY
360
917
102
}
330
27D
100
AcDbEntity
  8
寸法(細線)
100
AcDbText
 10
157.5737911349897
 20
11.7328744123571
 30
0.0
 40
1.25
  1
2013/04/18
  7
文字スタイル35
100
AcDbAttribute
280
     0
  2
作成日_001
 70
     0
280
     0
  0
ATTRIB
  5
28D
102
{ACAD_XDICTIONARY
360
91A
102
}
330
27D
100
AcDbEntity
  8
寸法(細線)
100
AcDbText
 10
175.9910445699905
 20
13.40667611817726
 30
0.0
 40
2.150000035762786
  1
ASM外形寸法図
  7
文字スタイル207
100
AcDbAttribute
280
     0
  2
タイトル_001
 70
     0
280
     0
  0
ATTRIB
  5
28E
102
{ACAD_XDICTIONARY
360
91D
102
}
330
27D
100
AcDbEntity
  8
寸法(細線)
100
AcDbText
 10
186.4999999999998
 20
17.29999999701958
 30
0.0
 40
1.400000005960464
  1

  7
文字スタイル208
 72
     1
 11
186.4999999999998
 21
17.99999999999981
 31
0.0
100
AcDbAttribute
280
     0
  2
<サブタイトル>
 70
     0
 74
     2
280
     0
  0
ATTRIB
  5
28F
102
{ACAD_XDICTIONARY
360
920
102
}
330
27D
100
AcDbEntity
  8
寸法(細線)
100
AcDbText
 10
169.2284922609397
 20
28.79999998211843
 30
0.0
 40
0.9000000357627868
  1
B
  7
文字スタイル107
100
AcDbAttribute
280
     0
  2
<変更来歴B-MARK>_001
 70
     0
280
     0
  0
ATTRIB
  5
290
102
{ACAD_XDICTIONARY
360
923
102
}
330
27D
100
AcDbEntity
  8
寸法(細線)
100
AcDbText
 10
169.2436030741661
 20
31.79999998211842
 30
0.0
 40
0.9000000357627868
  1
C
  7
文字スタイル107
100
AcDbAttribute
280
     0
  2
<変更来歴C-MARK>_001
 70
     0
280
     0
  0
ATTRIB
  5
291
102
{ACAD_XDICTIONARY
360
926
102
}
330
27D
100
AcDbEntity
  8
寸法(細線)
100
AcDbText
 10
169.1789287935572
 20
34.79999998211842
 30
0.0
 40
0.9000000357627868
  1
D
  7
文字スタイル107
100
AcDbAttribute
280
     0
  2
<変更来歴D-MARK>_001
 70
     0
280
     0
  0
ATTRIB
  5
292
102
{ACAD_XDICTIONARY
360
929
102
}
330
27D
100
AcDbEntity
  8
寸法(細線)
100
AcDbText
 10
180.9999999999998
 20
28.87499999999982
 30
0.0
 40
1.25
  1

  7
文字スタイル35
 72
     1
 11
180.9999999999998
 21
29.49999999999982
 31
0.0
100
AcDbAttribute
280
     0
  2
<変更来歴B-DATE>
 70
     0
 74
     2
280
     0
  0
ATTRIB
  5
293
102
{ACAD_XDICTIONARY
360
92C
102
}
330
27D
100
AcDbEntity
  8
寸法(細線)
100
AcDbText
 10
127.5000002724336
 20
32.99999999999982
 30
0.0
 40
1.25
  1

  7
文字スタイル35
 11
127.5000002724336
 21
33.62499999999982
 31
0.0
100
AcDbAttribute
280
     0
  2
<貼DWG.No>
 70
     0
 74
     2
280
     0
  0
ATTRIB
  5
294
102
{ACAD_XDICTIONARY
360
92F
102
}
330
27D
100
AcDbEntity
  8
寸法(細線)
100
AcDbText
 10
149.3749999999997
 20
32.99999999999982
 30
0.0
 40
1.25
  1

  7
文字スタイル35
 72
     1
 11
149.3749999999997
 21
33.62499999999982
 31
0.0
100
AcDbAttribute
280
     0
  2
<貼DATE>
 70
     0
 74
     2
280
     0
  0
ATTRIB
  5
295
102
{ACAD_XDICTIONARY
360
932
102
}
330
27D
100
AcDbEntity
  8
寸法(細線)
100
AcDbText
 10
161.6874999999998
 20
33.04999998956901
 30
0.0
 40
1.150000020861625
  1

  7
文字スタイル204
 72
     1
 11
161.6874999999998
 21
33.62499999999982
 31
0.0
100
AcDbAttribute
280
     0
  2
<貼NAME>
 70
     0
 74
     2
280
     0
  0
ATTRIB
  5
296
102
{ACAD_XDICTIONARY
360
935
102
}
330
27D
100
AcDbEntity
  8
寸法(細線)
100
AcDbText
 10
162.7499999999998
 20
29.4999999701975
 30
0.0
 40
1.500000059604644
  1

  7
文字スタイル32
 72
     1
 11
162.7499999999998
 21
30.24999999999983
 31
0.0
100
AcDbAttribute
280
     0
  2
重量
 70
     0
 74
     2
280
     0
  0
ATTRIB
  5
297
102
{ACAD_XDICTIONARY
360
938
102
}
330
27D
100
AcDbEntity
  8
寸法(細線)
100
AcDbText
 10
145.4999999999998
 20
13.90000001341086
 30
0.0
 40
1.199999973177909
  1

  7
文字スタイル228
 72
     1
 11
145.4999999999998
 21
14.49999999999981
 31
0.0
100
AcDbAttribute
280
     0
  2
製図欄2
 70
     0
 74
     2
280
     0
  0
ATTRIB
  5
298
102
{ACAD_XDICTIONARY
360
93B
102
}
330
27D
100
AcDbEntity
  8
寸法(細線)
100
AcDbText
 10
145.4999999999998
 20
11.90000001341086
 30
0.0
 40
1.199999973177909
  1

  7
文字スタイル228
 72
     1
 11
145.4999999999998
 21
12.49999999999982
 31
0.0
100
AcDbAttribute
280
     0
  2
製図者
 70
     0
 74
     2
280
     0
  0
ATTRIB
  5
299
102
{ACAD_XDICTIONARY
360
93E
102
}
330
27D
100
AcDbEntity
  8
寸法(細線)
100
AcDbText
 10
145.4999999999998
 20
15.90000001341086
 30
0.0
 40
1.199999973177909
  1

  7
文字スタイル228
 72
     1
 11
145.4999999999998
 21
16.49999999999982
 31
0.0
100
AcDbAttribute
280
     0
  2
製図欄1
 70
     0
 74
     2
280
     0
  0
ATTRIB
  5
29A
102
{ACAD_XDICTIONARY
360
941
102
}
330
27D
100
AcDbEntity
  8
寸法(細線)
100
AcDbText
 10
203.6078680047225
 20
5.74999997019749
 30
0.0
 40
1.500000059604644
  1
1
  7
文字スタイル117
100
AcDbAttribute
280
     0
  2
シートの数_001
 70
     0
280
     0
  0
ATTRIB
  5
29B
102
{ACAD_XDICTIONARY
360
944
102
}
330
27D
100
AcDbEntity
  8
寸法(細線)
100
AcDbText
 10
201.3578680047225
 20
8.249999970197496
 30
0.0
 40
1.500000059604644
  1
1
  7
文字スタイル117
100
AcDbAttribute
280
     0
  2
シート番号_001
 70
     0
280
     0
  0
SEQEND
  5
27E
330
27D
100
AcDbEntity
  8
0
  0
CIRCLE
  5
29C
330
77
100
AcDbEntity
  8
破線(細線)
 48
13.4107084274292
100
AcDbCircle
 10
53.8164707335615
 20
92.39789479495259
 30
0.0
 40
3.75
  0
CIRCLE
  5
29D
330
77
100
AcDbEntity
  8
破線(細線)
 48
13.16078186035156
100
AcDbCircle
 10
53.8164707335615
 20
92.39789479495259
 30
0.0
 40
4.762500000000001
  0
LINE
  5
29E
330
77
100
AcDbEntity
  8
実線(中線)
100
AcDbLine
 10
60.1664707335615
 20
89.08836044805328
 30
0.0
 11
60.1664707335615
 21
96.0640690043067
 31
0.0
  0
LINE
  5
29F
330
77
100
AcDbEntity
  8
実線(中線)
100
AcDbLine
 10
60.1664707335615
 20
96.0640690043067
 30
0.0
 11
53.8164707335615
 21
99.73024321366084
 31
0.0
  0
LINE
  5
2A0
330
77
100
AcDbEntity
  8
実線(中線)
100
AcDbLine
 10
47.4664707335615
 20
96.06406900430672
 30
0.0
 11
47.4664707335615
 21
88.73172058559847
 31
0.0
  0
LINE
  5
2A1
330
77
100
AcDbEntity
  8
実線(中線)
100
AcDbLine
 10
47.4664707335615
 20
88.73172058559847
 30
0.0
 11
54.14112063949225
 21
84.87810966566284
 31
0.0
  0
LINE
  5
2A2
330
77
100
AcDbEntity
  8
実線(中線)
100
AcDbLine
 10
54.14112063949225
 20
84.87810966566284
 30
0.0
 11
60.1664707335615
 21
89.08836044805328
 31
0.0
  0
LINE
  5
2A3
330
77
100
AcDbEntity
  8
実線(中線)
100
AcDbLine
 10
53.8164707335615
 20
99.73024321366084
 30
0.0
 11
47.4664707335615
 21
96.06406900430672
 31
0.0
  0
CIRCLE
  5
2A4
330
77
100
AcDbEntity
  8
実線(中線)
100
AcDbCircle
 10
53.8164707335615
 20
92.39789479495259
 30
0.0
 40
2.5
  0
CIRCLE
  5
2A5
330
77
100
AcDbEntity
  8
破線(細線)
 48
13.17229652404785
100
AcDbCircle
 10
53.8164707335615
 20
92.39789479495259
 30
0.0
 40
2.6
  0
CIRCLE
  5
2A6
330
77
100
AcDbEntity
  8
実線(中線)
100
AcDbCircle
 10
53.8164707335615
 20
92.39789479495259
 30
0.0
 40
3.174999999999999
  0
CIRCLE
  5
2A7
330
77
100
AcDbEntity
  8
実線(中線)
100
AcDbCircle
 10
53.8164707335615
 20
92.39789479495259
 30
0.0
 40
4.764999999999999
  0
LINE
  5
2A8
330
77
100
AcDbEntity
  8
破線(細線)
 48
11.54241943359375
100
AcDbLine
 10
58.4579296636825
 20
91.3198947949526
 30
0.0
 11
56.07211166243295
 21
91.3198947949526
 31
0.0
  0
LINE
  5
2A9
330
77
100
AcDbEntity
  8
破線(細線)
 48
11.54241943359375
100
AcDbLine
 10
58.4579296636825
 20
93.47589479495258
 30
0.0
 11
56.07211166243295
 21
93.47589479495258
 31
0.0
  0
LINE
  5
2AA
330
77
100
AcDbEntity
  8
破線(細線)
 48
11.54241943359375
100
AcDbLine
 10
51.56082980469007
 20
91.3198947949526
 30
0.0
 11
49.1750118034405
 21
91.3198947949526
 31
0.0
  0
LINE
  5
2AB
330
77
100
AcDbEntity
  8
破線(細線)
 48
11.54241943359375
100
AcDbLine
 10
51.56082980469007
 20
93.47589479495258
 30
0.0
 11
49.1750118034405
 21
93.47589479495258
 31
0.0
  0
LINE
  5
2AC
330
77
100
AcDbEntity
  8
破線(細線)
 48
12.05531692504883
100
AcDbLine
 10
55.8723837278295
 20
90.9754947949526
 30
0.0
 11
58.36421778457478
 21
90.9754947949526
 31
0.0
  0
LINE
  5
2AD
330
77
100
AcDbEntity
  8
破線(細線)
 48
12.05531692504883
100
AcDbLine
 10
58.36421778457478
 20
93.82029479495258
 30
0.0
 11
55.8723837278295
 21
93.82029479495258
 31
0.0
  0
LINE
  5
2AE
330
77
100
AcDbEntity
  8
破線(細線)
 48
12.05531692504883
100
AcDbLine
 10
49.26872368254823
 20
90.9754947949526
 30
0.0
 11
51.7605577392935
 21
90.9754947949526
 31
0.0
  0
LINE
  5
2AF
330
77
100
AcDbEntity
  8
破線(細線)
 48
12.05531692504883
100
AcDbLine
 10
51.7605577392935
 20
93.82029479495258
 30
0.0
 11
49.26872368254823
 21
93.82029479495258
 31
0.0
  0
LINE
  5
2B0
330
77
100
AcDbEntity
  8
破線(細線)
 48
11.54241943359375
100
AcDbLine
 10
52.73847073356151
 20
87.75643586483159
 30
0.0
 11
52.73847073356151
 21
90.14225386608115
 31
0.0
  0
LINE
  5
2B1
330
77
100
AcDbEntity
  8
破線(細線)
 48
11.54241943359375
100
AcDbLine
 10
54.8944707335615
 20
87.75643586483159
 30
0.0
 11
54.8944707335615
 21
90.14225386608115
 31
0.0
  0
LINE
  5
2B2
330
77
100
AcDbEntity
  8
破線(細線)
 48
11.54241943359375
100
AcDbLine
 10
52.73847073356151
 20
94.65353572382403
 30
0.0
 11
52.73847073356151
 21
97.03935372507359
 31
0.0
  0
LINE
  5
2B3
330
77
100
AcDbEntity
  8
破線(細線)
 48
11.54241943359375
100
AcDbLine
 10
54.8944707335615
 20
94.65353572382403
 30
0.0
 11
54.8944707335615
 21
97.03935372507359
 31
0.0
  0
LINE
  5
2B4
330
77
100
AcDbEntity
  8
破線(細線)
 48
12.05531692504883
100
AcDbLine
 10
52.39407073356151
 20
90.34198180068459
 30
0.0
 11
52.39407073356151
 21
87.8501477439393
 31
0.0
  0
LINE
  5
2B5
330
77
100
AcDbEntity
  8
破線(細線)
 48
12.05531692504883
100
AcDbLine
 10
55.2388707335615
 20
87.8501477439393
 30
0.0
 11
55.2388707335615
 21
90.34198180068459
 31
0.0
  0
LINE
  5
2B6
330
77
100
AcDbEntity
  8
破線(細線)
 48
12.05531692504883
100
AcDbLine
 10
52.39407073356151
 20
96.94564184596588
 30
0.0
 11
52.39407073356151
 21
94.45380778922059
 31
0.0
  0
LINE
  5
2B7
330
77
100
AcDbEntity
  8
破線(細線)
 48
12.05531692504883
100
AcDbLine
 10
55.2388707335615
 20
94.45380778922059
 30
0.0
 11
55.2388707335615
 21
96.94564184596588
 31
0.0
  0
CIRCLE
  5
2B8
330
77
100
AcDbEntity
  8
破線(細線)
 48
12.84000968933105
100
AcDbCircle
 10
53.8164707335615
 20
92.39789479495259
 30
0.0
 40
4.22402
  0
CIRCLE
  5
2B9
330
77
100
AcDbEntity
  8
実線(細線)
100
AcDbCircle
 10
53.8164707335615
 20
92.39789479495259
 30
0.0
 40
2.825749999999999
  0
SPLINE
  5
2BA
330
77
100
AcDbEntity
  8
実線(中線)
100
AcDbSpline
210
0.0
220
0.0
230
1.0
 70
    11
 71
     3
 72
    38
 73
    34
 74
     0
 42
0.0000000001
 43
0.0000000001
 40
0.0
 40
0.0
 40
0.0
 40
0.0
 40
0.0407610119697862
 40
0.0407610119697862
 40
0.0815220239395725
 40
0.0815220239395725
 40
0.1222792559325303
 40
0.1222792559325303
 40
0.1630364879254881
 40
0.1630364879254881
 40
0.203793719918446
 40
0.203793719918446
 40
0.2445509519114038
 40
0.2445509519114038
 40
0.2853119638811901
 40
0.2853119638811901
 40
0.3260729758509763
 40
0.3260729758509763
 40
0.3668339878207626
 40
0.3668339878207626
 40
0.4075949997905488
 40
0.4075949997905488
 40
0.4483522317835066
 40
0.4483522317835066
 40
0.4891094637764645
 40
0.4891094637764645
 40
0.5298666957694223
 40
0.5298666957694223
 40
0.5706239277623802
 40
0.5706239277623802
 40
0.6113849397321664
 40
0.6113849397321664
 40
0.6521459517019526
 40
0.6521459517019526
 40
0.6521459517019526
 40
0.6521459517019526
 10
129.6078546566025
 20
91.3198947949526
 30
0.0
 10
129.4719846167032
 20
91.3198947949526
 30
0.0
 10
129.3273935834155
 20
91.3471450644104
 30
0.0
 10
129.0619442964376
 20
91.45730169862138
 30
0.0
 10
128.9410435221659
 20
91.54018370915101
 30
0.0
 10
128.7501524223647
 20
91.73107480895223
 30
0.0
 10
128.6672634933196
 20
91.85197930613515
 30
0.0
 10
128.5571018261618
 20
92.11744166223313
 30
0.0
 10
128.5298546566025
 20
92.26203735497607
 30
0.0
 10
128.5298546566025
 20
92.53375223492911
 30
0.0
 10
128.5571018261618
 20
92.67834792767205
 30
0.0
 10
128.6672634933196
 20
92.94381028377003
 30
0.0
 10
128.7501524223647
 20
93.06471478095296
 30
0.0
 10
128.9410435221659
 20
93.25560588075417
 30
0.0
 10
129.0619442964376
 20
93.3384878912838
 30
0.0
 10
129.3273935834155
 20
93.44864452549478
 30
0.0
 10
129.4719846167032
 20
93.47589479495258
 30
0.0
 10
129.7437246965018
 20
93.47589479495258
 30
0.0
 10
129.8883157297894
 20
93.44864452549478
 30
0.0
 10
130.1537650167674
 20
93.3384878912838
 30
0.0
 10
130.2746657910391
 20
93.25560588075417
 30
0.0
 10
130.4655568908403
 20
93.06471478095296
 30
0.0
 10
130.5484458198855
 20
92.94381028377003
 30
0.0
 10
130.6586074870432
 20
92.67834792767205
 30
0.0
 10
130.6858546566025
 20
92.53375223492911
 30
0.0
 10
130.6858546566025
 20
92.26203735497607
 30
0.0
 10
130.6586074870432
 20
92.11744166223313
 30
0.0
 10
130.5484458198855
 20
91.85197930613515
 30
0.0
 10
130.4655568908403
 20
91.7310748089522
 30
0.0
 10
130.2746657910391
 20
91.54018370915101
 30
0.0
 10
130.1537650167674
 20
91.45730169862138
 30
0.0
 10
129.8883157297894
 20
91.3471450644104
 30
0.0
 10
129.7437246965018
 20
91.3198947949526
 30
0.0
 10
129.6078546566025
 20
91.3198947949526
 30
0.0
  0
SPLINE
  5
2BB
330
77
100
AcDbEntity
  8
実線(細線)
100
AcDbSpline
210
0.0
220
0.0
230
1.0
 70
    11
 71
     3
 72
    38
 73
    34
 74
     0
 42
0.0000000001
 43
0.0000000001
 40
0.0
 40
0.0
 40
0.0
 40
0.0
 40
0.0539444934729873
 40
0.0539444934729873
 40
0.1078889869459746
 40
0.1078889869459746
 40
0.1618177409754818
 40
0.1618177409754818
 40
0.2157464950049891
 40
0.2157464950049891
 40
0.2696752490344964
 40
0.2696752490344964
 40
0.3236040030640036
 40
0.3236040030640036
 40
0.3775484965369909
 40
0.3775484965369909
 40
0.4314929900099783
 40
0.4314929900099783
 40
0.4854374834829656
 40
0.4854374834829656
 40
0.5393819769559528
 40
0.5393819769559528
 40
0.5933107309854601
 40
0.5933107309854601
 40
0.6472394850149673
 40
0.6472394850149673
 40
0.7011682390444748
 40
0.7011682390444748
 40
0.755096993073982
 40
0.755096993073982
 40
0.8090414865469693
 40
0.8090414865469693
 40
0.8629859800199565
 40
0.8629859800199565
 40
0.8629859800199565
 40
0.8629859800199565
 10
129.6078546566025
 20
90.9754947949526
 30
0.0
 10
129.7876696348458
 20
90.9754947949526
 30
0.0
 10
129.9786600877897
 20
91.01165631157504
 30
0.0
 10
130.3287491424772
 20
91.15714292222158
 30
0.0
 10
130.487951812178
 20
91.26641457940865
 30
0.0
 10
130.7392981989921
 20
91.51776096622276
 30
0.0
 10
130.8485982609972
 20
91.67697855003337
 30
0.0
 10
130.9941058352729
 20
92.02712177558954
 30
0.0
 10
131.0302546566025
 20
92.2181322815209
 30
0.0
 10
131.0302546566025
 20
92.57765730838428
 30
0.0
 10
130.9941058352729
 20
92.76866781431564
 30
0.0
 10
130.8485982609972
 20
93.11881103987181
 30
0.0
 10
130.7392981989921
 20
93.27802862368242
 30
0.0
 10
130.487951812178
 20
93.52937501049654
 30
0.0
 10
130.3287491424772
 20
93.63864666768362
 30
0.0
 10
129.9786600877897
 20
93.78413327833014
 30
0.0
 10
129.7876696348458
 20
93.82029479495258
 30
0.0
 10
129.4280396783591
 20
93.82029479495258
 30
0.0
 10
129.2370492254153
 20
93.78413327833014
 30
0.0
 10
128.8869601707277
 20
93.63864666768362
 30
0.0
 10
128.7277575010269
 20
93.52937501049654
 30
0.0
 10
128.4764111142128
 20
93.27802862368242
 30
0.0
 10
128.3671110522078
 20
93.11881103987181
 30
0.0
 10
128.2216034779322
 20
92.76866781431564
 30
0.0
 10
128.1854546566025
 20
92.57765730838428
 30
0.0
 10
128.1854546566025
 20
92.2181322815209
 30
0.0
 10
128.2216034779322
 20
92.02712177558954
 30
0.0
 10
128.3671110522078
 20
91.67697855003337
 30
0.0
 10
128.4764111142128
 20
91.51776096622276
 30
0.0
 10
128.7277575010269
 20
91.26641457940865
 30
0.0
 10
128.8869601707277
 20
91.15714292222158
 30
0.0
 10
129.2370492254153
 20
91.01165631157504
 30
0.0
 10
129.4280396783591
 20
90.9754947949526
 30
0.0
 10
129.6078546566025
 20
90.9754947949526
 30
0.0
  0
SPLINE
  5
2BC
330
77
100
AcDbEntity
  8
実線(中線)
100
AcDbSpline
210
0.0
220
0.0
230
1.0
 70
     8
 71
     3
 72
    22
 73
    18
 74
     0
 42
0.0000000001
 43
0.0000000001
 40
0.1630364879254881
 40
0.1630364879254881
 40
0.1630364879285242
 40
0.1630364879285242
 40
0.203793719918446
 40
0.203793719918446
 40
0.2445509519114038
 40
0.2445509519114038
 40
0.2853119638811901
 40
0.2853119638811901
 40
0.3260729758509763
 40
0.3260729758509763
 40
0.3668339878207626
 40
0.3668339878207626
 40
0.4075949997905488
 40
0.4075949997905488
 40
0.4483522317835066
 40
0.4483522317835066
 40
0.4891094637764645
 40
0.4891094637764645
 40
0.4891094637832393
 40
0.4891094637832393
 10
128.5298546566011
 20
87.63289479495259
 30
0.0
 10
128.5298546566052
 20
87.63289479495355
 30
0.0
 10
128.5571018261646
 20
87.63928973926857
 30
0.0
 10
128.6672634933183
 20
87.6623956326852
 30
0.0
 10
128.7501524223635
 20
87.67879272548064
 30
0.0
 10
128.9410435221647
 20
87.70972813162059
 30
0.0
 10
129.0619442964365
 20
87.72631243834753
 30
0.0
 10
129.3273935834144
 20
87.74984981212714
 30
0.0
 10
129.4719846167021
 20
87.75643586483159
 30
0.0
 10
129.7437246965007
 20
87.75643586483159
 30
0.0
 10
129.8883157297884
 20
87.74984981212714
 30
0.0
 10
130.1537650167663
 20
87.72631243834753
 30
0.0
 10
130.274665791038
 20
87.70972813162059
 30
0.0
 10
130.4655568908391
 20
87.67879272548064
 30
0.0
 10
130.5484458198842
 20
87.6623956326852
 30
0.0
 10
130.6586074870419
 20
87.6392897392677
 30
0.0
 10
130.6858546566012
 20
87.63289479495259
 30
0.0
 10
130.6858546566011
 20
87.63289479495259
 30
0.0
  0
SPLINE
  5
2BD
330
77
100
AcDbEntity
  8
実線(中線)
100
AcDbSpline
210
0.0
220
0.0
230
1.0
 70
     8
 71
     3
 72
    22
 73
    18
 74
     0
 42
0.0000000001
 43
0.0000000001
 40
0.1630364879254881
 40
0.1630364879254881
 40
0.1630364879254881
 40
0.1630364879254881
 40
0.2037937199184459
 40
0.2037937199184459
 40
0.2445509519114037
 40
0.2445509519114037
 40
0.28531196388119
 40
0.28531196388119
 40
0.3260729758509762
 40
0.3260729758509762
 40
0.3668339878207623
 40
0.3668339878207623
 40
0.4075949997905487
 40
0.4075949997905487
 40
0.4483522317835065
 40
0.4483522317835065
 40
0.4891094637764644
 40
0.4891094637764644
 40
0.4891094637764644
 40
0.4891094637764644
 10
130.6858546566011
 20
97.16289479495259
 30
0.0
 10
130.6858546566012
 20
97.16289479495259
 30
0.0
 10
130.6586074870419
 20
97.15649985063748
 30
0.0
 10
130.5484458198842
 20
97.13339395722
 30
0.0
 10
130.4655568908391
 20
97.11699686442456
 30
0.0
 10
130.274665791038
 20
97.08606145828461
 30
0.0
 10
130.1537650167663
 20
97.06947715155765
 30
0.0
 10
129.8883157297884
 20
97.04593977777804
 30
0.0
 10
129.7437246965007
 20
97.03935372507359
 30
0.0
 10
129.4719846167021
 20
97.03935372507359
 30
0.0
 10
129.3273935834144
 20
97.04593977777804
 30
0.0
 10
129.0619442964365
 20
97.06947715155765
 30
0.0
 10
128.9410435221647
 20
97.08606145828461
 30
0.0
 10
128.7501524223635
 20
97.11699686442456
 30
0.0
 10
128.6672634933183
 20
97.13339395722
 30
0.0
 10
128.5571018261605
 20
97.15649985063748
 30
0.0
 10
128.5298546566012
 20
97.16289479495259
 30
0.0
 10
128.5298546566011
 20
97.16289479495259
 30
0.0
  0
SPLINE
  5
2BE
330
77
100
AcDbEntity
  8
破線(細線)
 48
11.06008720397949
100
AcDbSpline
210
0.0
220
0.0
230
1.0
 70
     8
 71
     3
 72
    22
 73
    18
 74
     0
 42
0.0000000001
 43
0.0000000001
 40
0.1648059565081247
 40
0.1648059565081247
 40
0.164805956510164
 40
0.164805956510164
 40
0.2059784922559197
 40
0.2059784922559197
 40
0.2471510280016754
 40
0.2471510280016754
 40
0.2883814705110019
 40
0.2883814705110019
 40
0.3296119130203281
 40
0.3296119130203281
 40
0.3708423555296545
 40
0.3708423555296545
 40
0.4120727980389809
 40
0.4120727980389809
 40
0.4532453337847367
 40
0.4532453337847367
 40
0.494417869526845
 40
0.494417869526845
 40
0.4944178695304923
 40
0.4944178695304923
 10
130.6858546566011
 20
89.89789479495259
 30
0.0
 10
130.6858546566012
 20
89.89789479495259
 30
0.0
 10
130.6580626022486
 20
89.91026678861606
 30
0.0
 10
130.5474717819122
 20
89.95489730212426
 30
0.0
 10
130.4647653781903
 20
89.98663544645962
 30
0.0
 10
130.2753330361076
 20
90.04728202046353
 30
0.0
 10
130.1553410896958
 20
90.08042090125625
 30
0.0
 10
129.8904156076333
 20
90.12836065945396
 30
0.0
 10
129.7452894649659
 20
90.14225386608115
 30
0.0
 10
129.470419848237
 20
90.14225386608115
 30
0.0
 10
129.3252937055696
 20
90.12836065945396
 30
0.0
 10
129.060368223507
 20
90.08042090125625
 30
0.0
 10
128.9403762770951
 20
90.04728202046353
 30
0.0
 10
128.7509439350123
 20
89.98663544645962
 30
0.0
 10
128.6682375312903
 20
89.95489730212426
 30
0.0
 10
128.5576467109586
 20
89.91026678861805
 30
0.0
 10
128.5298546566061
 20
89.89789479495478
 30
0.0
 10
128.5298546566011
 20
89.89789479495259
 30
0.0
  0
SPLINE
  5
2BF
330
77
100
AcDbEntity
  8
破線(細線)
 48
11.06008720397949
100
AcDbSpline
210
0.0
220
0.0
230
1.0
 70
     8
 71
     3
 72
    22
 73
    18
 74
     0
 42
0.0000000001
 43
0.0000000001
 40
0.1648059565081249
 40
0.1648059565081249
 40
0.1648059565101643
 40
0.1648059565101643
 40
0.20597849225592
 40
0.20597849225592
 40
0.2471510280016757
 40
0.2471510280016757
 40
0.288381470511002
 40
0.288381470511002
 40
0.3296119130203285
 40
0.3296119130203285
 40
0.3708423555296548
 40
0.3708423555296548
 40
0.4120727980389812
 40
0.4120727980389812
 40
0.4532453337847369
 40
0.4532453337847369
 40
0.4944178695268452
 40
0.4944178695268452
 40
0.4944178695304926
 40
0.4944178695304926
 10
128.5298546566011
 20
94.89789479495259
 30
0.0
 10
128.5298546566012
 20
94.89789479495259
 30
0.0
 10
128.5576467109537
 20
94.88552280128912
 30
0.0
 10
128.6682375312903
 20
94.84089228778092
 30
0.0
 10
128.7509439350123
 20
94.80915414344556
 30
0.0
 10
128.9403762770951
 20
94.74850756944166
 30
0.0
 10
129.060368223507
 20
94.71536868864895
 30
0.0
 10
129.3252937055696
 20
94.66742893045122
 30
0.0
 10
129.470419848237
 20
94.65353572382403
 30
0.0
 10
129.7452894649659
 20
94.65353572382403
 30
0.0
 10
129.8904156076333
 20
94.66742893045122
 30
0.0
 10
130.1553410896958
 20
94.71536868864895
 30
0.0
 10
130.2753330361076
 20
94.74850756944166
 30
0.0
 10
130.4647653781903
 20
94.80915414344556
 30
0.0
 10
130.5474717819122
 20
94.84089228778092
 30
0.0
 10
130.6580626022437
 20
94.88552280128713
 30
0.0
 10
130.6858546565962
 20
94.89789479495042
 30
0.0
 10
130.6858546566011
 20
94.89789479495259
 30
0.0
  0
LINE
  5
2C0
330
77
100
AcDbEntity
  8
破線(細線)
 48
10.95790958404541
100
AcDbLine
 10
128.5298546566011
 20
87.63289479495259
 30
0.0
 11
128.5298546566011
 21
89.89789479495259
 31
0.0
  0
LINE
  5
2C1
330
77
100
AcDbEntity
  8
破線(細線)
 48
10.95790958404541
100
AcDbLine
 10
130.6858546566011
 20
87.63289479495259
 30
0.0
 11
130.6858546566011
 21
89.89789479495259
 31
0.0
  0
LINE
  5
2C2
330
77
100
AcDbEntity
  8
破線(細線)
 48
10.95790958404541
100
AcDbLine
 10
128.5298546566011
 20
94.89789479495259
 30
0.0
 11
128.5298546566011
 21
97.16289479495259
 31
0.0
  0
LINE
  5
2C3
330
77
100
AcDbEntity
  8
破線(細線)
 48
10.95790958404541
100
AcDbLine
 10
130.6858546566011
 20
94.89789479495259
 30
0.0
 11
130.6858546566011
 21
97.16289479495259
 31
0.0
  0
LINE
  5
2C4
330
77
100
AcDbEntity
  8
破線(細線)
 48
10.95790958404541
100
AcDbLine
 10
128.1854546566011
 20
89.89789479495259
 30
0.0
 11
128.1854546566011
 21
87.63289479495259
 31
0.0
  0
LINE
  5
2C5
330
77
100
AcDbEntity
  8
破線(細線)
 48
10.95790958404541
100
AcDbLine
 10
131.0302546566011
 20
87.63289479495259
 30
0.0
 11
131.0302546566011
 21
89.89789479495259
 31
0.0
  0
LINE
  5
2C6
330
77
100
AcDbEntity
  8
破線(細線)
 48
10.95790958404541
100
AcDbLine
 10
128.1854546566011
 20
97.16289479495259
 30
0.0
 11
128.1854546566011
 21
94.89789479495259
 31
0.0
  0
LINE
  5
2C7
330
77
100
AcDbEntity
  8
破線(細線)
 48
10.95790958404541
100
AcDbLine
 10
131.0302546566011
 20
94.89789479495259
 30
0.0
 11
131.0302546566011
 21
97.16289479495259
 31
0.0
  0
LINE
  5
2C8
330
77
100
AcDbEntity
  8
実線(中線)
100
AcDbLine
 10
139.8178546566011
 20
87.63539479495259
 30
0.0
 11
139.8178546566011
 21
97.16039479495259
 31
0.0
  0
LINE
  5
2C9
330
77
100
AcDbEntity
  8
実線(中線)
100
AcDbLine
 10
139.3178546566011
 20
96.14789479495259
 30
0.0
 11
139.8178546566011
 21
96.14789479495259
 31
0.0
  0
LINE
  5
2CA
330
77
100
AcDbEntity
  8
実線(中線)
100
AcDbLine
 10
139.3178546566011
 20
88.64789479495259
 30
0.0
 11
139.8178546566011
 21
88.64789479495259
 31
0.0
  0
LINE
  5
2CB
330
77
100
AcDbEntity
  8
実線(中線)
100
AcDbLine
 10
139.317854656603
 20
89.08836044805328
 30
0.0
 11
139.317854656603
 21
96.0640690043067
 31
0.0
  0
LINE
  5
2CC
330
77
100
AcDbEntity
  8
実線(中線)
100
AcDbLine
 10
135.507854656603
 20
96.0640690043067
 30
0.0
 11
139.317854656603
 21
96.0640690043067
 31
0.0
  0
LINE
  5
2CD
330
77
100
AcDbEntity
  8
実線(中線)
100
AcDbLine
 10
135.507854656603
 20
89.08836044805328
 30
0.0
 11
135.507854656603
 21
96.0640690043067
 31
0.0
  0
LINE
  5
2CE
330
77
100
AcDbEntity
  8
実線(中線)
100
AcDbLine
 10
135.507854656603
 20
89.08836044805328
 30
0.0
 11
139.317854656603
 21
89.08836044805328
 31
0.0
  0
LINE
  5
2CF
330
77
100
AcDbEntity
  8
実線(中線)
100
AcDbLine
 10
139.317854656603
 20
96.0640690043067
 30
0.0
 11
139.3178546566011
 21
99.73024321366084
 31
0.0
  0
LINE
  5
2D0
330
77
100
AcDbEntity
  8
実線(中線)
100
AcDbLine
 10
135.5078546566011
 20
99.73024321366084
 30
0.0
 11
139.3178546566011
 21
99.73024321366084
 31
0.0
  0
LINE
  5
2D1
330
77
100
AcDbEntity
  8
実線(中線)
100
AcDbLine
 10
135.507854656603
 20
96.0640690043067
 30
0.0
 11
135.5078546566011
 21
99.73024321366084
 31
0.0
  0
LINE
  5
2D2
330
77
100
AcDbEntity
  8
実線(中線)
100
AcDbLine
 10
135.5078546566012
 20
84.87810966566284
 30
0.0
 11
139.3178546566012
 21
84.87810966566284
 31
0.0
  0
LINE
  5
2D3
330
77
100
AcDbEntity
  8
実線(中線)
100
AcDbLine
 10
139.3178546566012
 20
84.87810966566284
 30
0.0
 11
139.317854656603
 21
89.08836044805328
 31
0.0
  0
LINE
  5
2D4
330
77
100
AcDbEntity
  8
実線(中線)
100
AcDbLine
 10
135.5078546566012
 20
84.87810966566284
 30
0.0
 11
135.507854656603
 21
89.08836044805328
 31
0.0
  0
LINE
  5
2D5
330
77
100
AcDbEntity
  8
破線(細線)
 48
12.28834056854248
100
AcDbLine
 10
135.5078546565992
 20
88.73172058559847
 30
0.0
 11
139.3178546565992
 21
88.73172058559847
 31
0.0
  0
LINE
  5
2D6
330
77
100
AcDbEntity
  8
実線(中線)
100
AcDbLine
 10
146.9378546566011
 20
97.16039479495259
 30
0.0
 11
146.9378546566011
 21
87.63539479495259
 31
0.0
  0
LINE
  5
2D7
330
77
100
AcDbEntity
  8
実線(中線)
100
AcDbLine
 10
139.8178546566011
 20
97.16039479495259
 30
0.0
 11
146.9378546566011
 21
97.16039479495259
 31
0.0
  0
LINE
  5
2D8
330
77
100
AcDbEntity
  8
実線(中線)
100
AcDbLine
 10
139.8178546566011
 20
87.63539479495259
 30
0.0
 11
146.9378546566011
 21
87.63539479495259
 31
0.0
  0
LINE
  5
2D9
330
77
100
AcDbEntity
  8
実線(中線)
100
AcDbLine
 10
123.4078546566011
 20
89.2228947949526
 30
0.0
 11
123.4078546566011
 21
95.5728947949526
 31
0.0
  0
LINE
  5
2DA
330
77
100
AcDbEntity
  8
実線(中線)
100
AcDbLine
 10
117.1348546566011
 20
89.2228947949526
 30
0.0
 11
117.1348546566011
 21
95.5728947949526
 31
0.0
  0
LINE
  5
2DB
330
77
100
AcDbEntity
  8
実線(中線)
100
AcDbLine
 10
123.4078546566011
 20
89.2228947949526
 30
0.0
 11
117.1348546566011
 21
89.2228947949526
 31
0.0
  0
LINE
  5
2DC
330
77
100
AcDbEntity
  8
実線(中線)
100
AcDbLine
 10
123.4078546566011
 20
95.5728947949526
 30
0.0
 11
117.1348546566011
 21
95.5728947949526
 31
0.0
  0
LINE
  5
2DD
330
77
100
AcDbEntity
  8
実線(中線)
100
AcDbLine
 10
124.9078546566011
 20
89.2228947949526
 30
0.0
 11
124.9078546566011
 21
95.5728947949526
 31
0.0
  0
LINE
  5
2DE
330
77
100
AcDbEntity
  8
実線(中線)
100
AcDbLine
 10
127.7078546566011
 20
89.2228947949526
 30
0.0
 11
124.9078546566011
 21
89.2228947949526
 31
0.0
  0
LINE
  5
2DF
330
77
100
AcDbEntity
  8
実線(中線)
100
AcDbLine
 10
127.7078546566011
 20
95.5728947949526
 30
0.0
 11
124.9078546566011
 21
95.5728947949526
 31
0.0
  0
LINE
  5
2E0
330
77
100
AcDbEntity
  8
実線(中線)
100
AcDbLine
 10
127.7078546566011
 20
87.63289479495259
 30
0.0
 11
127.7078546566011
 21
97.16289479495259
 31
0.0
  0
LINE
  5
2E1
330
77
100
AcDbEntity
  8
実線(中線)
100
AcDbLine
 10
135.5078546566011
 20
87.63289479495259
 30
0.0
 11
130.6858546566011
 21
87.63289479495259
 31
0.0
  0
LINE
  5
2E2
330
77
100
AcDbEntity
  8
実線(中線)
100
AcDbLine
 10
128.5298546566011
 20
87.63289479495259
 30
0.0
 11
127.7078546566011
 21
87.63289479495259
 31
0.0
  0
LINE
  5
2E3
330
77
100
AcDbEntity
  8
実線(中線)
100
AcDbLine
 10
135.5078546566011
 20
97.16289479495259
 30
0.0
 11
130.6858546566011
 21
97.16289479495259
 31
0.0
  0
LINE
  5
2E4
330
77
100
AcDbEntity
  8
実線(中線)
100
AcDbLine
 10
128.5298546566011
 20
97.16289479495259
 30
0.0
 11
127.7078546566011
 21
97.16289479495259
 31
0.0
  0
LINE
  5
2E5
330
77
100
AcDbEntity
  8
破線(細線)
 48
13.10433769226074
100
AcDbLine
 10
146.9378546566011
 20
89.89789479495259
 30
0.0
 11
130.6858546566011
 21
89.89789479495259
 31
0.0
  0
LINE
  5
2E6
330
77
100
AcDbEntity
  8
破線(細線)
 48
13.78205108642578
100
AcDbLine
 10
128.5298546566011
 20
89.89789479495259
 30
0.0
 11
117.1348546566011
 21
89.89789479495259
 31
0.0
  0
LINE
  5
2E7
330
77
100
AcDbEntity
  8
破線(細線)
 48
13.10433769226074
100
AcDbLine
 10
146.9378546566011
 20
94.89789479495259
 30
0.0
 11
130.6858546566011
 21
94.89789479495259
 31
0.0
  0
LINE
  5
2E8
330
77
100
AcDbEntity
  8
破線(細線)
 48
13.78205108642578
100
AcDbLine
 10
128.5298546566011
 20
94.89789479495259
 30
0.0
 11
117.1348546566011
 21
94.89789479495259
 31
0.0
  0
LINE
  5
2E9
330
77
100
AcDbEntity
  8
実線(中線)
100
AcDbLine
 10
124.9078546566011
 20
89.79789479495259
 30
0.0
 11
123.4078546566011
 21
89.79789479495259
 31
0.0
  0
LINE
  5
2EA
330
77
100
AcDbEntity
  8
実線(中線)
100
AcDbLine
 10
124.9078546566011
 20
94.99789479495261
 30
0.0
 11
123.4078546566011
 21
94.99789479495261
 31
0.0
  0
LINE
  5
2EB
330
77
100
AcDbEntity
  8
実線(細線)
100
AcDbLine
 10
146.9378546566011
 20
96.62191479495261
 30
0.0
 11
139.8178546566011
 21
96.62191479495261
 31
0.0
  0
LINE
  5
2EC
330
77
100
AcDbEntity
  8
実線(細線)
100
AcDbLine
 10
139.8178546566011
 20
88.17387479495259
 30
0.0
 11
146.9378546566011
 21
88.17387479495259
 31
0.0
  0
LINE
  5
2ED
330
77
100
AcDbEntity
  8
実線(細線)
100
AcDbLine
 10
117.1348546566011
 20
89.57214479495261
 30
0.0
 11
123.4078546566011
 21
89.57214479495261
 31
0.0
  0
LINE
  5
2EE
330
77
100
AcDbEntity
  8
実線(細線)
100
AcDbLine
 10
123.4078546566011
 20
95.22364479495259
 30
0.0
 11
117.1348546566011
 21
95.22364479495259
 31
0.0
  0
LINE
  5
2EF
330
77
100
AcDbEntity
  8
実線(中線)
100
AcDbLine
 10
131.2018083772773
 20
171.1677971689408
 30
0.0
 11
131.2018083772773
 21
174.6556514470676
 31
0.0
  0
LINE
  5
2F0
330
77
100
AcDbEntity
  8
実線(中線)
100
AcDbLine
 10
131.2018083772773
 20
174.6556514470676
 30
0.0
 11
129.2768083772773
 21
175.7670507152576
 31
0.0
  0
LINE
  5
2F1
330
77
100
AcDbEntity
  8
実線(中線)
100
AcDbLine
 10
124.8518083772772
 20
174.6556514470676
 30
0.0
 11
124.8518083772772
 21
170.9894772377134
 31
0.0
  0
LINE
  5
2F2
330
77
100
AcDbEntity
  8
実線(中線)
100
AcDbLine
 10
124.8518083772772
 20
170.9894772377134
 30
0.0
 11
128.1891333302426
 21
169.0626717777456
 31
0.0
  0
LINE
  5
2F3
330
77
100
AcDbEntity
  8
実線(中線)
100
AcDbLine
 10
128.1891333302426
 20
169.0626717777456
 30
0.0
 11
131.2018083772773
 21
171.1677971689408
 31
0.0
  0
LINE
  5
2F4
330
77
100
AcDbEntity
  8
実線(中線)
100
AcDbLine
 10
126.7768083772773
 20
175.7670507152576
 30
0.0
 11
124.8518083772772
 21
174.6556514470676
 31
0.0
  0
ARC
  5
2F5
330
77
100
AcDbEntity
  8
実線(中線)
100
AcDbCircle
 10
128.0268083772773
 20
172.8225643423905
 30
0.0
 40
1.587499999999999
100
AcDbArc
 50
141.9433433672586
 51
38.05665663274034
  0
ARC
  5
2F6
330
77
100
AcDbEntity
  8
実線(中線)
100
AcDbCircle
 10
128.0268083772773
 20
172.8225643423905
 30
0.0
 40
2.3825
100
AcDbArc
 50
121.6452882313718
 51
58.35471176862815
  0
ARC
  5
2F7
330
77
100
AcDbEntity
  8
実線(細線)
100
AcDbCircle
 10
128.0268083772773
 20
172.8225643423905
 30
0.0
 40
1.412874999999999
100
AcDbArc
 50
152.2171910897933
 51
27.78280891020665
  0
CIRCLE
  5
2F8
330
77
100
AcDbEntity
  8
実線(中線)
100
AcDbCircle
 10
135.5268083772773
 20
172.8225643423905
 30
0.0
 40
0.8105000000000002
  0
CIRCLE
  5
2F9
330
77
100
AcDbEntity
  8
実線(細線)
100
AcDbCircle
 10
135.5268083772773
 20
172.8225643423905
 30
0.0
 40
1.0
  0
CIRCLE
  5
2FA
330
77
100
AcDbEntity
  8
実線(中線)
100
AcDbCircle
 10
120.5268083772773
 20
172.8225643423905
 30
0.0
 40
0.8105000000000002
  0
CIRCLE
  5
2FB
330
77
100
AcDbEntity
  8
実線(細線)
100
AcDbCircle
 10
120.5268083772773
 20
172.8225643423905
 30
0.0
 40
1.0
  0
LINE
  5
2FC
330
77
100
AcDbEntity
  8
実線(中線)
100
AcDbLine
 10
109.2768083772773
 20
180.3225643423905
 30
0.0
 11
110.2768083772773
 21
181.3225643423905
 31
0.0
  0
LINE
  5
2FD
330
77
100
AcDbEntity
  8
実線(中線)
100
AcDbLine
 10
145.7768083772773
 20
181.3225643423905
 30
0.0
 11
146.7768083772773
 21
180.3225643423905
 31
0.0
  0
LINE
  5
2FE
330
77
100
AcDbEntity
  8
実線(中線)
100
AcDbLine
 10
110.2768083772773
 20
164.3225643423905
 30
0.0
 11
109.2768083772773
 21
165.3225643423905
 31
0.0
  0
LINE
  5
2FF
330
77
100
AcDbEntity
  8
実線(中線)
100
AcDbLine
 10
146.7768083772773
 20
165.3225643423905
 30
0.0
 11
145.7768083772773
 21
164.3225643423905
 31
0.0
  0
LINE
  5
300
330
77
100
AcDbEntity
  8
実線(中線)
100
AcDbLine
 10
110.2768083772773
 20
181.3225643423905
 30
0.0
 11
126.7768083772773
 21
181.3225643423905
 31
0.0
  0
LINE
  5
301
330
77
100
AcDbEntity
  8
実線(中線)
100
AcDbLine
 10
129.2768083772773
 20
181.3225643423905
 30
0.0
 11
145.7768083772773
 21
181.3225643423905
 31
0.0
  0
LINE
  5
302
330
77
100
AcDbEntity
  8
実線(中線)
100
AcDbLine
 10
145.7768083772773
 20
164.3225643423905
 30
0.0
 11
110.2768083772773
 21
164.3225643423905
 31
0.0
  0
LINE
  5
303
330
77
100
AcDbEntity
  8
実線(中線)
100
AcDbLine
 10
146.7768083772773
 20
180.3225643423905
 30
0.0
 11
146.7768083772773
 21
165.3225643423905
 31
0.0
  0
LINE
  5
304
330
77
100
AcDbEntity
  8
実線(中線)
100
AcDbLine
 10
109.2768083772773
 20
165.3225643423905
 30
0.0
 11
109.2768083772773
 21
180.3225643423905
 31
0.0
  0
CIRCLE
  5
305
330
77
100
AcDbEntity
  8
実線(中線)
100
AcDbCircle
 10
145.0268083772773
 20
167.0725643423905
 30
0.0
 40
1.0
  0
CIRCLE
  5
306
330
77
100
AcDbEntity
  8
実線(中線)
100
AcDbCircle
 10
145.0268083772773
 20
178.5725643423905
 30
0.0
 40
1.0
  0
CIRCLE
  5
307
330
77
100
AcDbEntity
  8
実線(中線)
100
AcDbCircle
 10
111.0268083772773
 20
167.0725643423905
 30
0.0
 40
1.0
  0
CIRCLE
  5
308
330
77
100
AcDbEntity
  8
実線(中線)
100
AcDbCircle
 10
111.0268083772773
 20
178.5725643423905
 30
0.0
 40
1.0
  0
ELLIPSE
  5
309
330
77
100
AcDbEntity
  8
実線(中線)
100
AcDbEllipse
 10
128.0268083772773
 20
210.1969330131552
 30
0.0
 11
1.250000000000002
 21
0.0000000000000044
 31
0.0
210
0.0
220
0.0
230
1.0
 40
0.7071067811865495
 41
0.0
 42
3.141592653589782
  0
ARC
  5
30A
330
77
100
AcDbEntity
  8
実線(中線)
100
AcDbCircle
 10
128.0268083772773
 20
172.8225643423905
 30
0.0
 40
1.250000000000002
100
AcDbArc
 50
180.0
 51
0.0
  0
LINE
  5
30B
330
77
100
AcDbEntity
  8
実線(中線)
100
AcDbLine
 10
126.7768083772773
 20
202.2159626245923
 30
0.0
 11
126.7768083772773
 21
210.1969330131552
 31
0.0
  0
LINE
  5
30C
330
77
100
AcDbEntity
  8
実線(中線)
100
AcDbLine
 10
129.2768083772773
 20
202.2159626245923
 30
0.0
 11
129.2768083772773
 21
210.1969330131552
 31
0.0
  0
LINE
  5
30D
330
77
100
AcDbEntity
  8
実線(中線)
100
AcDbLine
 10
126.7768083772773
 20
202.2159626245923
 30
0.0
 11
126.7768083772773
 21
191.6093609067941
 31
0.0
  0
LINE
  5
30E
330
77
100
AcDbEntity
  8
実線(中線)
100
AcDbLine
 10
129.2768083772773
 20
191.6093609067941
 30
0.0
 11
129.2768083772773
 21
202.2159626245923
 31
0.0
  0
LINE
  5
30F
330
77
100
AcDbEntity
  8
実線(中線)
100
AcDbLine
 10
126.7768083772773
 20
187.8225643423905
 30
0.0
 11
126.7768083772773
 21
191.6093609067941
 31
0.0
  0
LINE
  5
310
330
77
100
AcDbEntity
  8
実線(中線)
100
AcDbLine
 10
129.2768083772773
 20
187.8225643423905
 30
0.0
 11
129.2768083772773
 21
191.6093609067941
 31
0.0
  0
LINE
  5
311
330
77
100
AcDbEntity
  8
実線(中線)
100
AcDbLine
 10
126.7768083772773
 20
187.8225643423905
 30
0.0
 11
126.7768083772773
 21
172.8225643423905
 31
0.0
  0
LINE
  5
312
330
77
100
AcDbEntity
  8
実線(中線)
100
AcDbLine
 10
129.2768083772773
 20
172.8225643423905
 30
0.0
 11
129.2768083772773
 21
187.8225643423905
 31
0.0
  0
SPLINE
  5
313
330
77
100
AcDbEntity
  8
実線(中線)
100
AcDbSpline
210
0.0
220
0.0
230
1.0
 70
     8
 71
     3
 72
    22
 73
    18
 74
     0
 42
0.0000000001
 43
0.0000000001
 40
0.1630364879254881
 40
0.1630364879254881
 40
0.1630364879254881
 40
0.1630364879254881
 40
0.2037937199184459
 40
0.2037937199184459
 40
0.2445509519114037
 40
0.2445509519114037
 40
0.28531196388119
 40
0.28531196388119
 40
0.3260729758509762
 40
0.3260729758509762
 40
0.3668339878207623
 40
0.3668339878207623
 40
0.4075949997905487
 40
0.4075949997905487
 40
0.4483522317835065
 40
0.4483522317835065
 40
0.4891094637764643
 40
0.4891094637764643
 40
0.4891094637764643
 40
0.4891094637764643
 10
67.3841874769759
 20
31.68070237372411
 30
0.0
 10
67.43222033551692
 20
31.70843415753271
 30
0.0
 10
67.49297596213313
 20
31.72977709943755
 30
0.0
 10
67.62577910914346
 20
31.75204477833407
 30
0.0
 10
67.69783096596703
 20
31.75311058858338
 30
0.0
 10
67.83281135710462
 20
31.74048126191195
 30
0.0
 10
67.90485945161567
 20
31.72595019939051
 30
0.0
 10
68.03765619857893
 20
31.68464212677613
 30
0.0
 10
68.09841127380855
 20
31.658001298901
 30
0.0
 10
68.19448590038142
 20
31.60253258738686
 30
0.0
 10
68.23597212528827
 20
31.5701443731059
 30
0.0
 10
68.29087636920826
 20
31.50308322810668
 30
0.0
 10
68.30431803203544
 20
31.46825675621593
 30
0.0
 10
68.30431803203544
 20
31.40295511772877
 30
0.0
 10
68.29087749902498
 20
31.36805004389839
 30
0.0
 10
68.23597041388869
 20
31.30080905271007
 30
0.0
 10
68.19448144563601
 20
31.26834250041267
 30
0.0
 10
68.14644858709498
 20
31.24061071660407
 30
0.0
  0
SPLINE
  5
314
330
77
100
AcDbEntity
  8
実線(中線)
100
AcDbSpline
210
0.0
220
0.0
230
1.0
 70
     8
 71
     3
 72
    23
 73
    19
 74
     0
 42
0.0000000001
 43
0.0000000001
 40
0.4891094637764643
 40
0.4891094637764643
 40
0.4891094637764643
 40
0.4891094637764643
 40
0.5298666957694222
 40
0.5298666957694222
 40
0.5706239277623801
 40
0.5706239277623801
 40
0.6113849397321662
 40
0.6113849397321662
 40
0.6521459517019525
 40
0.6521459517019525
 40
0.6521459517019525
 40
0.6929069636717387
 40
0.6929069636717387
 40
0.7336679756415249
 40
0.7336679756415249
 40
0.7744252076344827
 40
0.7744252076344827
 40
0.8151824396274404
 40
0.8151824396274404
 40
0.8151824396274404
 40
0.8151824396274404
 10
68.14644858709498
 20
31.24061071660407
 30
0.0
 10
68.09841572855396
 20
31.21287893279546
 30
0.0
 10
68.03766010193775
 20
31.18631454072211
 30
0.0
 10
67.90485695492741
 20
31.14518097885092
 30
0.0
 10
67.83280509810385
 20
31.13072699839698
 30
0.0
 10
67.69782470696627
 20
31.11809767172554
 30
0.0
 10
67.62577661245521
 20
31.11908770450736
 30
0.0
 10
67.49297986549196
 20
31.14117759190668
 30
0.0
 10
67.43222479026233
 20
31.16244093026681
 30
0.0
 10
67.38418747697588
 20
31.19017528602388
 30
0.0
 10
67.33615016368945
 20
31.21790964178096
 30
0.0
 10
67.29466393878261
 20
31.25567534557691
 30
0.0
 10
67.23975969486263
 20
31.34195467579119
 30
0.0
 10
67.22631803203544
 20
31.39032217742155
 30
0.0
 10
67.22631803203544
 20
31.48088246925159
 30
0.0
 10
67.23975856504589
 20
31.52917571328661
 30
0.0
 10
67.29466565018218
 20
31.61528258744959
 30
0.0
 10
67.33615461843486
 20
31.6529705899155
 30
0.0
 10
67.3841874769759
 20
31.68070237372411
 30
0.0
  0
SPLINE
  5
315
330
77
100
AcDbEntity
  8
実線(中線)
100
AcDbSpline
210
0.0
220
0.0
230
1.0
 70
    11
 71
     3
 72
    38
 73
    34
 74
     0
 42
0.0000000001
 43
0.0000000001
 40
0.0
 40
0.0
 40
0.0
 40
0.0
 40
0.0407610119697862
 40
0.0407610119697862
 40
0.0815220239395725
 40
0.0815220239395725
 40
0.1222792559325303
 40
0.1222792559325303
 40
0.1630364879254881
 40
0.1630364879254881
 40
0.203793719918446
 40
0.203793719918446
 40
0.2445509519114038
 40
0.2445509519114038
 40
0.2853119638811901
 40
0.2853119638811901
 40
0.3260729758509763
 40
0.3260729758509763
 40
0.3668339878207626
 40
0.3668339878207626
 40
0.4075949997905488
 40
0.4075949997905488
 40
0.4483522317835066
 40
0.4483522317835066
 40
0.4891094637764645
 40
0.4891094637764645
 40
0.5298666957694223
 40
0.5298666957694223
 40
0.5706239277623802
 40
0.5706239277623802
 40
0.6113849397321664
 40
0.6113849397321664
 40
0.6521459517019526
 40
0.6521459517019526
 40
0.6521459517019526
 40
0.6521459517019526
 10
66.12431448999173
 20
29.00801126148376
 30
0.0
 10
66.17235180327816
 20
28.98027690572669
 30
0.0
 10
66.22114393208213
 20
28.93829313634907
 30
0.0
 10
66.3066727092183
 20
28.83433272363861
 30
0.0
 10
66.34355415001348
 20
28.77243225988868
 30
0.0
 10
66.4001070278521
 20
28.64922114881506
 30
0.0
 10
66.42361544200496
 20
28.57959542018904
 30
0.0
 10
66.45439430598154
 20
28.44401774023997
 30
0.0
 10
66.46176668091803
 20
28.37811962813082
 30
0.0
 10
66.46176668091803
 20
28.26719249289639
 30
0.0
 10
66.45439430598154
 20
28.21502871626406
 30
0.0
 10
66.42361544200496
 20
28.13385729009412
 30
0.0
 10
66.4001070278521
 20
28.10476491015148
 30
0.0
 10
66.34355415001348
 20
28.07211409090789
 30
0.0
 10
66.3066727092183
 20
28.06634167643996
 30
0.0
 10
66.22114393208213
 20
28.08035957395063
 30
0.0
 10
66.17235180327816
 20
28.1000935914866
 30
0.0
 10
66.07627717670529
 20
28.15556230300074
 30
0.0
 10
66.02282800537278
 20
28.19485732762087
 30
0.0
 10
65.92065579162571
 20
28.28920864772379
 30
0.0
 10
65.87204747508264
 20
28.34433859660391
 30
0.0
 10
65.79361996178369
 20
28.4549203810061
 30
0.0
 10
65.75851705212343
 20
28.5178520245298
 30
0.0
 10
65.71139985422597
 20
28.64399676299154
 30
0.0
 10
65.69950557079893
 20
28.70728415001643
 30
0.0
 10
65.69950557079893
 20
28.81821128525086
 30
0.0
 10
65.71139985422597
 20
28.87298578696745
 30
0.0
 10
65.75851705212343
 20
28.96359015462472
 30
0.0
 10
65.79361996178369
 20
28.99937661966968
 30
0.0
 10
65.87204747508264
 20
29.0446567655847
 30
0.0
 10
65.92065579162571
 20
29.05719969492244
 30
0.0
 10
66.02282800537278
 20
29.05279089001929
 30
0.0
 10
66.07627717670529
 20
29.03574561724083
 30
0.0
 10
66.12431448999173
 20
29.00801126148376
 30
0.0
  0
LINE
  5
316
330
77
100
AcDbEntity
  8
実線(中線)
100
AcDbLine
 10
64.50925593790397
 20
27.4517533838501
 30
0.0
 11
65.5419170578024
 21
28.04796055940512
 31
0.0
  0
LINE
  5
317
330
77
100
AcDbEntity
  8
実線(中線)
100
AcDbLine
 10
64.50925593790397
 20
27.4517533838501
 30
0.0
 11
63.1622175197436
 21
28.22946637718376
 31
0.0
  0
LINE
  5
318
330
77
100
AcDbEntity
  8
実線(中線)
100
AcDbLine
 10
68.19490948845255
 20
32.01840273078836
 30
0.0
 11
68.27172967198065
 21
32.2163952514837
 31
0.0
  0
LINE
  5
319
330
77
100
AcDbEntity
  8
実線(中線)
100
AcDbLine
 10
65.62850293159752
 20
34.83813021250713
 30
0.0
 11
63.03612628715199
 21
33.3414208589956
 31
0.0
  0
LINE
  5
31A
330
77
100
AcDbEntity
  8
実線(中線)
100
AcDbLine
 10
64.38316470531235
 20
32.56370786566194
 30
0.0
 11
63.03612628715199
 21
33.3414208589956
 31
0.0
  0
LINE
  5
31B
330
77
100
AcDbEntity
  8
実線(中線)
100
AcDbLine
 10
66.97554134975788
 20
34.06041721917347
 30
0.0
 11
64.38316470531235
 21
32.56370786566194
 31
0.0
  0
LINE
  5
31C
330
77
100
AcDbEntity
  8
実線(中線)
100
AcDbLine
 10
66.97554134975788
 20
34.06041721917347
 30
0.0
 11
65.62850293159752
 21
34.83813021250713
 31
0.0
  0
LINE
  5
31D
330
77
100
AcDbEntity
  8
実線(中線)
100
AcDbLine
 10
63.03612628715199
 20
33.3414208589956
 30
0.0
 11
61.67366908038148
 21
29.82989141036629
 31
0.0
  0
LINE
  5
31E
330
77
100
AcDbEntity
  8
実線(中線)
100
AcDbLine
 10
63.02070749854185
 20
29.05217841703263
 30
0.0
 11
61.67366908038148
 21
29.82989141036629
 31
0.0
  0
LINE
  5
31F
330
77
100
AcDbEntity
  8
実線(中線)
100
AcDbLine
 10
64.38316470531235
 20
32.56370786566194
 30
0.0
 11
63.02070749854185
 21
29.05217841703263
 31
0.0
  0
LINE
  5
320
330
77
100
AcDbEntity
  8
実線(中線)
100
AcDbLine
 10
61.67366908038148
 20
29.82989141036629
 30
0.0
 11
63.1622175197436
 21
28.22946637718376
 31
0.0
  0
LINE
  5
321
330
77
100
AcDbEntity
  8
実線(中線)
100
AcDbLine
 10
63.02070749854185
 20
29.05217841703263
 30
0.0
 11
64.50925593790397
 21
27.4517533838501
 31
0.0
  0
LINE
  5
322
330
77
100
AcDbEntity
  8
実線(中線)
100
AcDbLine
 10
68.27172967198065
 20
32.2163952514837
 30
0.0
 11
66.97554134975788
 21
34.06041721917347
 31
0.0
  0
ELLIPSE
  5
323
330
77
100
AcDbEntity
  8
実線(中線)
100
AcDbEllipse
 10
72.17518947290535
 20
26.9693129776259
 30
0.0
 11
-0.6250000000000002
 21
-1.082531754730548
 31
0.0
210
0.0
220
0.0
230
1.0
 40
0.5773502691896259
 41
3.141592653589793
 42
6.283185307179586
  0
ELLIPSE
  5
324
330
77
100
AcDbEntity
  8
実線(中線)
100
AcDbEllipse
 10
69.95734905371374
 20
28.2497837406658
 30
0.0
 11
-0.7937499999999997
 21
-1.374815328507796
 31
0.0
210
0.0
220
0.0
230
0.9999999999999998
 40
0.5773502691896259
 41
3.141592653589795
 42
6.283185307179588
  0
ELLIPSE
  5
325
330
77
100
AcDbEntity
  8
実線(中線)
100
AcDbEllipse
 10
72.17518947290535
 20
26.9693129776259
 30
0.0
 11
-0.7937499999999998
 21
-1.374815328507797
 31
0.0
210
0.0
220
0.0
230
1.0
 40
0.5773502691896258
 41
2.477378693047538
 42
6.947399267721851
  0
LINE
  5
326
330
77
100
AcDbEntity
  8
実線(中線)
100
AcDbLine
 10
70.75109905371374
 20
29.6245990691736
 30
0.0
 11
72.96893947290534
 21
28.3441283061337
 31
0.0
  0
LINE
  5
327
330
77
100
AcDbEntity
  8
実線(中線)
100
AcDbLine
 10
69.16359905371374
 20
26.874968412158
 30
0.0
 11
71.38143947290534
 21
25.59449764911811
 31
0.0
  0
ELLIPSE
  5
328
330
77
100
AcDbEntity
  8
実線(中線)
100
AcDbEllipse
 10
69.42701896782383
 20
28.5559699585137
 30
0.0
 11
-0.6499999999999999
 21
-1.12583302491977
 31
0.0
210
0.0
220
0.0
230
0.9999999999999998
 40
0.577350269189626
 41
3.14159265358979
 42
6.283185307179582
  0
LINE
  5
329
330
77
100
AcDbEntity
  8
実線(中線)
100
AcDbLine
 10
70.07701896782382
 20
29.68180298343347
 30
0.0
 11
70.1517845001102
 21
29.63863708324183
 31
0.0
  0
LINE
  5
32A
330
77
100
AcDbEntity
  8
実線(中線)
100
AcDbLine
 10
68.77701896782382
 20
27.43013693359393
 30
0.0
 11
68.8517845001102
 21
27.38697103340229
 31
0.0
  0
ELLIPSE
  5
32B
330
77
100
AcDbEntity
  8
実線(中線)
100
AcDbEllipse
 10
69.42701896782383
 20
28.5559699585137
 30
0.0
 11
-0.7937499999999999
 21
-1.374815328507796
 31
0.0
210
0.0
220
0.0
230
0.9999999999999998
 40
0.5773502691896259
 41
2.800978319147222
 42
6.623799641622154
  0
ELLIPSE
  5
32C
330
77
100
AcDbEntity
  8
実線(中線)
100
AcDbEllipse
 10
68.43706947416265
 20
29.12751756516311
 30
0.0
 11
-0.7937499999999999
 21
-1.374815328507796
 31
0.0
210
0.0
220
0.0
230
0.9999999999999998
 40
0.5773502691896259
 41
3.141592653589794
 42
6.283185307179588
  0
LINE
  5
32D
330
77
100
AcDbEntity
  8
実線(中線)
100
AcDbLine
 10
69.23081947416266
 20
30.50233289367091
 30
0.0
 11
70.22076896782383
 21
29.9307852870215
 31
0.0
  0
LINE
  5
32E
330
77
100
AcDbEntity
  8
実線(中線)
100
AcDbLine
 10
67.64331947416265
 20
27.75270223665531
 30
0.0
 11
68.63326896782382
 21
27.1811546300059
 31
0.0
  0
ELLIPSE
  5
32F
330
77
100
AcDbEntity
  8
実線(中線)
100
AcDbEllipse
 10
68.43706947416265
 20
29.12751756516311
 30
0.0
 11
-1.191249999999999
 21
-2.063305524516426
 31
0.0
210
0.0
220
0.0
230
1.0
 40
0.577350269189626
 41
2.300054812195609
 42
7.12472314857377
  0
ELLIPSE
  5
330
330
77
100
AcDbEntity
  8
実線(中線)
100
AcDbEllipse
 10
65.67935302753513
 20
30.71968589797217
 30
0.0
 11
-1.19125
 21
-2.063305524516426
 31
0.0
210
0.0
220
0.0
230
1.0
 40
0.5773502691896258
 41
3.141592653589791
 42
6.283185307179584
  0
LINE
  5
331
330
77
100
AcDbEntity
  8
実線(中線)
100
AcDbLine
 10
66.87060302753511
 20
32.7829914224886
 30
0.0
 11
69.62831947416265
 21
31.19082308967954
 31
0.0
  0
LINE
  5
332
330
77
100
AcDbEntity
  8
実線(中線)
100
AcDbLine
 10
64.48810302753511
 20
28.65638037345575
 30
0.0
 11
67.24581947416266
 21
27.06421204064668
 31
0.0
  0
ELLIPSE
  5
333
330
77
100
AcDbEntity
  8
実線(中線)
100
AcDbEllipse
 10
64.33231460937474
 20
25.37367453434788
 30
0.0
 11
0.4052499999999999
 21
0.7019135897672884
 31
0.0
210
0.0
220
0.0
230
0.9999999999999998
 40
0.577350269189626
 41
0.0
 42
6.283185307179586
  0
ELLIPSE
  5
334
330
77
100
AcDbEntity
  8
実線(中線)
100
AcDbEllipse
 10
64.33231460937474
 20
37.62112324826379
 30
0.0
 11
0.4052499999999999
 21
0.7019135897672884
 31
0.0
210
0.0
220
0.0
230
0.9999999999999998
 40
0.577350269189626
 41
0.0
 42
6.283185307179586
  0
LINE
  5
335
330
77
100
AcDbEntity
  8
実線(中線)
100
AcDbLine
 10
69.63561546827385
 20
49.86857196217968
 30
0.0
 11
70.3427222494604
 21
49.46032367171582
 31
0.0
  0
LINE
  5
336
330
77
100
AcDbEntity
  8
実線(中線)
100
AcDbLine
 10
66.10008156234112
 20
51.90981341449899
 30
0.0
 11
69.63561546827385
 21
49.86857196217968
 31
0.0
  0
LINE
  5
337
330
77
100
AcDbEntity
  8
実線(中線)
100
AcDbLine
 10
55.49347984454289
 20
45.78608905754105
 30
0.0
 11
54.78637306335635
 21
44.56134418614945
 31
0.0
  0
LINE
  5
338
330
77
100
AcDbEntity
  8
実線(中線)
100
AcDbLine
 10
70.3427222494604
 20
20.47469504878151
 30
0.0
 11
69.63561546827385
 21
19.24995017738992
 31
0.0
  0
LINE
  5
339
330
77
100
AcDbEntity
  8
実線(中線)
100
AcDbLine
 10
58.32190696928909
 20
42.52010273383014
 30
0.0
 11
59.02901375047563
 21
43.74484760522173
 31
0.0
  0
LINE
  5
33A
330
77
100
AcDbEntity
  8
実線(中線)
100
AcDbLine
 10
59.02901375047563
 20
43.74484760522173
 30
0.0
 11
55.49347984454289
 21
45.78608905754105
 31
0.0
  0
LINE
  5
33B
330
77
100
AcDbEntity
  8
実線(中線)
100
AcDbLine
 10
54.78637306335635
 20
44.56134418614945
 30
0.0
 11
58.32190696928909
 21
42.52010273383014
 31
0.0
  0
LINE
  5
33C
330
77
100
AcDbEntity
  8
実線(中線)
100
AcDbLine
 10
58.32190696928909
 20
13.53447411089584
 30
0.0
 11
54.78637306335635
 21
15.57571556321516
 31
0.0
  0
LINE
  5
33D
330
77
100
AcDbEntity
  8
実線(中線)
100
AcDbLine
 10
59.02901375047563
 20
13.12622582043198
 30
0.0
 11
58.32190696928909
 21
13.53447411089584
 31
0.0
  0
LINE
  5
33E
330
77
100
AcDbEntity
  8
実線(中線)
100
AcDbLine
 10
54.78637306335635
 20
44.56134418614945
 30
0.0
 11
54.78637306335635
 21
15.57571556321516
 31
0.0
  0
LINE
  5
33F
330
77
100
AcDbEntity
  8
実線(中線)
100
AcDbLine
 10
66.10008156234112
 20
51.90981341449899
 30
0.0
 11
55.49347984454289
 21
45.78608905754105
 31
0.0
  0
LINE
  5
340
330
77
100
AcDbEntity
  8
実線(中線)
100
AcDbLine
 10
70.3427222494604
 20
49.46032367171582
 30
0.0
 11
70.3427222494604
 21
29.83437644422925
 31
0.0
  0
LINE
  5
341
330
77
100
AcDbEntity
  8
実線(中線)
100
AcDbLine
 10
70.3427222494604
 20
26.19420131768593
 30
0.0
 11
70.3427222494604
 21
20.47469504878151
 31
0.0
  0
LINE
  5
342
330
77
100
AcDbEntity
  8
実線(中線)
100
AcDbLine
 10
58.32190696928909
 20
13.53447411089584
 30
0.0
 11
58.32190696928909
 21
42.52010273383014
 31
0.0
  0
LINE
  5
343
330
77
100
AcDbEntity
  8
実線(中線)
100
AcDbLine
 10
69.63561546827385
 20
19.24995017738992
 30
0.0
 11
59.02901375047563
 21
13.12622582043198
 31
0.0
  0
LINE
  5
344
330
77
100
AcDbEntity
  8
実線(中線)
100
AcDbLine
 10
59.02901375047563
 20
43.74484760522173
 30
0.0
 11
69.63561546827385
 21
49.86857196217968
 31
0.0
  0
ELLIPSE
  5
345
330
77
100
AcDbEntity
  8
実線(中線)
100
AcDbEllipse
 10
60.2664506175521
 20
15.26952934536726
 30
0.0
 11
0.4999999999999995
 21
0.8660254037844394
 31
0.0
210
0.0
220
0.0
230
1.0
 40
0.577350269189626
 41
0.0
 42
6.283185307179586
  0
ELLIPSE
  5
346
330
77
100
AcDbEntity
  8
実線(中線)
100
AcDbEllipse
 10
68.3981786011974
 20
19.96438468570169
 30
0.0
 11
0.4999999999999995
 21
0.8660254037844394
 31
0.0
210
0.0
220
0.0
230
1.0
 40
0.577350269189626
 41
0.0
 42
6.283185307179586
  0
ELLIPSE
  5
347
330
77
100
AcDbEntity
  8
実線(中線)
100
AcDbEllipse
 10
60.2664506175521
 20
43.03041309690997
 30
0.0
 11
0.4999999999999995
 21
0.8660254037844394
 31
0.0
210
0.0
220
0.0
230
1.0
 40
0.577350269189626
 41
0.0
 42
6.283185307179586
  0
ELLIPSE
  5
348
330
77
100
AcDbEntity
  8
実線(中線)
100
AcDbEllipse
 10
68.3981786011974
 20
47.72526843724441
 30
0.0
 11
0.4999999999999995
 21
0.8660254037844394
 31
0.0
210
0.0
220
0.0
230
1.0
 40
0.577350269189626
 41
0.0
 42
6.283185307179586
  0
ELLIPSE
  5
349
330
77
100
AcDbEntity
  8
実線(中線)
100
AcDbEllipse
 10
103.9949946263
 20
39.11418414076369
 30
0.0
 11
1.25
 21
0.0000000000000041
 31
0.0
210
0.0
220
0.0
230
1.0
 40
0.8164965809277276
 41
0.0000000000000079
 42
3.1415926535898
  0
LINE
  5
34A
330
77
100
AcDbEntity
  8
実線(中線)
100
AcDbLine
 10
102.7449946263
 20
32.59774910601674
 30
0.0
 11
102.7449946263
 21
39.11418414076369
 31
0.0
  0
LINE
  5
34B
330
77
100
AcDbEntity
  8
実線(中線)
100
AcDbLine
 10
105.2449946263
 20
32.59774910601675
 30
0.0
 11
105.2449946263
 21
39.1141841407637
 31
0.0
  0
SPLINE
  5
34C
330
77
100
AcDbEntity
  8
実線(中線)
100
AcDbSpline
210
0.0
220
0.0
230
1.0
 70
     8
 71
     3
 72
    16
 73
    12
 74
     0
 42
0.0000000001
 43
0.0000000001
 40
1.570796326794895
 40
1.570796326794895
 40
1.570796326794895
 40
1.570796326794895
 40
1.727875959474385
 40
1.727875959474385
 40
1.884955592153875
 40
1.884955592153875
 40
2.042035224833365
 40
2.042035224833365
 40
2.199114857512855
 40
2.199114857512855
 40
2.356194490192345
 40
2.356194490192345
 40
2.356194490192345
 40
2.356194490192345
 10
100.2265963440982
 20
25.39149299432824
 30
0.0
 10
100.8310440965803
 20
25.74047106693487
 30
0.0
 10
101.393793357128
 20
26.12019034369762
 30
0.0
 10
102.4220553623001
 20
26.93730334479532
 30
0.0
 10
102.8876309572286
 20
27.37474562302902
 30
0.0
 10
103.7069896103808
 20
28.30317214113448
 30
0.0
 10
104.0607987763805
 20
28.79432073818082
 30
0.0
 10
104.6395664933893
 20
29.82273391561336
 30
0.0
 10
104.864328103525
 20
30.36020283122522
 30
0.0
 10
105.1672374254209
 20
31.4643818666047
 30
0.0
 10
105.2449946263
 20
32.03093680469355
 30
0.0
 10
105.2449946263
 20
32.59774910601674
 30
0.0
  0
SPLINE
  5
34D
330
77
100
AcDbEntity
  8
実線(中線)
100
AcDbSpline
210
0.0
220
0.0
230
1.0
 70
     8
 71
     3
 72
    16
 73
    12
 74
     0
 42
0.0000000001
 43
0.0000000001
 40
1.570796326794895
 40
1.570796326794895
 40
1.570796326794895
 40
1.570796326794895
 40
1.727875959474386
 40
1.727875959474386
 40
1.884955592153876
 40
1.884955592153876
 40
2.042035224833365
 40
2.042035224833365
 40
2.199114857512856
 40
2.199114857512856
 40
2.356194490192346
 40
2.356194490192346
 40
2.356194490192346
 40
2.356194490192346
 10
98.97659634409821
 20
27.55655650378934
 30
0.0
 10
99.48286932615568
 20
27.84885334626365
 30
0.0
 10
99.94341481147518
 20
28.16087140420734
 30
0.0
 10
100.7617346367935
 20
28.8111529131616
 30
0.0
 10
101.1194274116317
 20
29.14935293842895
 30
0.0
 10
101.7263219772609
 20
29.83703348742489
 30
0.0
 10
101.9754832053927
 20
30.18633327495284
 30
0.0
 10
102.3675210077466
 20
30.88294580212725
 30
0.0
 10
102.5105846838598
 20
31.23003672364639
 30
0.0
 10
102.6991287281025
 20
31.91732617249992
 30
0.0
 10
102.7449946263
 20
32.25766172522283
 30
0.0
 10
102.7449946263
 20
32.59774910601674
 30
0.0
  0
LINE
  5
34E
330
77
100
AcDbEntity
  8
実線(中線)
100
AcDbLine
 10
96.29892681443454
 20
26.01060328003715
 30
0.0
 11
98.97659634409821
 21
27.55655650378934
 31
0.0
  0
LINE
  5
34F
330
77
100
AcDbEntity
  8
実線(中線)
100
AcDbLine
 10
97.54892681443452
 20
23.84553977057605
 30
0.0
 11
100.2265963440982
 21
25.39149299432824
 31
0.0
  0
SPLINE
  5
350
330
77
100
AcDbEntity
  8
実線(中線)
100
AcDbSpline
210
0.0
220
0.0
230
1.0
 70
     8
 71
     3
 72
    16
 73
    12
 74
     0
 42
0.0000000001
 43
0.0000000001
 40
6.283185307179586
 40
6.283185307179586
 40
6.283185307179586
 40
6.283185307179586
 40
6.597344572538565
 40
6.597344572538565
 40
6.911503837897544
 40
6.911503837897544
 40
7.225663103256524
 40
7.225663103256524
 40
7.539822368615503
 40
7.539822368615503
 40
7.853981633974482
 40
7.853981633974482
 40
7.853981633974482
 40
7.853981633974482
 10
75.08572337883807
 20
23.84553977057603
 30
0.0
 10
76.29461888380234
 20
23.14758362536278
 30
0.0
 10
77.67105492874285
 20
22.57271449318729
 30
0.0
 10
80.63833862174762
 20
21.69981483525066
 30
0.0
 10
82.22901252606503
 20
21.40222418493075
 30
0.0
 10
85.48494531215501
 20
21.10449094881223
 30
0.0
 10
87.14970488111758
 20
21.10449094881223
 30
0.0
 10
90.40563766720758
 20
21.40222418493075
 30
0.0
 10
91.99631157152495
 20
21.69981483525067
 30
0.0
 10
94.96359526452975
 20
22.5727144931873
 30
0.0
 10
96.34003130947025
 20
23.14758362536279
 30
0.0
 10
97.54892681443452
 20
23.84553977057604
 30
0.0
  0
SPLINE
  5
351
330
77
100
AcDbEntity
  8
実線(中線)
100
AcDbSpline
210
0.0
220
0.0
230
1.0
 70
     8
 71
     3
 72
    18
 73
    14
 74
     0
 42
0.0000000001
 43
0.0000000001
 40
6.283185307179586
 40
6.283185307179586
 40
6.283185307179586
 40
6.283185307179586
 40
6.587841735395196
 40
6.587841735395196
 40
6.894923682841653
 40
6.894923682841653
 40
7.204082111576821
 40
7.204082111576821
 40
7.513368619606795
 40
7.513368619606795
 40
7.820774727333712
 40
7.820774727333712
 40
7.853981633974482
 40
7.853981633974482
 40
7.853981633974482
 40
7.853981633974482
 10
76.33572337883807
 20
26.01060328003713
 30
0.0
 10
77.31764137663734
 20
25.44369265968559
 30
0.0
 10
78.47240765280087
 20
24.95212962841073
 30
0.0
 10
81.02006255906633
 20
24.18498148743488
 30
0.0
 10
82.41413387951615
 20
23.91101466244956
 30
0.0
 10
85.29850632405819
 20
23.61887754623737
 30
0.0
 10
86.78893599215294
 20
23.60241644448191
 30
0.0
 10
89.70267514614421
 20
23.83176409338249
 30
0.0
 10
91.12549475620115
 20
24.07772265445975
 30
0.0
 10
93.74577174562389
 20
24.79879125003851
 30
0.0
 10
94.94393441632025
 20
25.27263198833554
 30
0.0
 10
96.08283709150157
 20
25.88789613214407
 30
0.0
 10
96.19189982842017
 20
25.94881122085121
 30
0.0
 10
96.29892681443452
 20
26.01060328003715
 30
0.0
  0
LINE
  5
352
330
77
100
AcDbEntity
  8
実線(中線)
100
AcDbLine
 10
72.80018947290535
 20
28.05184473235645
 30
0.0
 11
76.33572337883807
 21
26.01060328003713
 31
0.0
  0
LINE
  5
353
330
77
100
AcDbEntity
  8
実線(中線)
100
AcDbLine
 10
71.55018947290535
 20
25.88678122289535
 30
0.0
 11
75.08572337883807
 21
23.84553977057603
 31
0.0
  0
LINE
  5
354
330
77
100
AcDbEntity
  8
一点鎖線(細線)
  6
CHAIN
 48
23.99096870422363
100
AcDbLine
 10
61.70492544386988
 20
92.39789479495259
 30
0.0
 11
44.17985278758415
 21
92.39789479495259
 31
0.0
  0
LINE
  5
355
330
77
100
AcDbEntity
  8
一点鎖線(細線)
  6
CHAIN
 48
23.99096870422363
100
AcDbLine
 10
53.8164707335615
 20
102.2794292280179
 30
0.0
 11
53.8164707335615
 21
82.59547112261662
 31
0.0
  0
LINE
  5
356
330
77
100
AcDbEntity
  8
一点鎖線(細線)
  6
CHAIN
 48
23.99096870422363
100
AcDbLine
 10
150.7330208574876
 20
92.39789479495259
 30
0.0
 11
113.9049696232639
 21
92.39789479495259
 31
0.0
  0
DIMENSION
  5
357
330
77
100
AcDbEntity
  8
寸法(細線)
100
AcDbDimension
280
     0
  2
*D8
 10
117.1348546566011
 20
71.9280357622701
 30
0.0
 11
132.0363546566011
 21
71.9280357622701
 31
0.0
 70
   160
  1
<>
 42
29.803
 73
     0
 74
     0
 75
     0
  3
Default (ULVAC)
100
AcDbAlignedDimension
 13
146.9378546566011
 23
87.63539479495259
 33
0.0
 14
117.1348546566011
 24
89.2228947949526
 34
0.0
 50
180.0
100
AcDbRotatedDimension
1001
ACAD
1000
DSTYLE
1002
{
1070
   172
1070
     0
1070
   289
1070
     1
1070
   271
1070
     2
1070
   272
1070
     3
1070
    48
1040
0.0
1070
    47
1040
0.0
1002
}
  0
DIMENSION
  5
42E
330
77
100
AcDbEntity
  8
寸法(細線)
100
AcDbDimension
280
     0
  2
*D9
 10
139.3178546566011
 20
108.7560864110854
 30
0.0
 11
143.1278546566011
 21
108.7560864110854
 31
0.0
 70
   160
  1
{（}<>{）}
 42
7.620000000000004
 73
     0
 74
     0
 75
     0
  3
Default (ULVAC)
100
AcDbAlignedDimension
 13
146.9378546566011
 23
97.16039479495259
 33
0.0
 14
139.3178546566011
 24
99.73024321366084
 34
0.0
 50
180.0
100
AcDbRotatedDimension
1001
ACAD
1000
DSTYLE
1002
{
1070
   172
1070
     0
1070
   289
1070
     1
1070
   271
1070
     2
1070
   272
1070
     3
1070
    48
1040
0.0
1070
    47
1040
0.0
1002
}
  0
DIMENSION
  5
510
330
77
100
AcDbEntity
  8
寸法(細線)
100
AcDbDimension
280
     0
  2
*D10
 10
135.5078546566011
 20
115.4867301503517
 30
0.0
 11
141.2228546566011
 21
115.4867301503517
 31
0.0
 70
   160
  1
{（}<>{）}
 42
11.43
 73
     0
 74
     0
 75
     0
  3
Default (ULVAC)
100
AcDbAlignedDimension
 13
146.9378546566011
 23
97.16039479495259
 33
0.0
 14
135.5078546566011
 24
99.73024321366084
 34
0.0
 50
180.0
100
AcDbRotatedDimension
1001
ACAD
1000
DSTYLE
1002
{
1070
   172
1070
     0
1070
   289
1070
     1
1070
   271
1070
     2
1070
   272
1070
     3
1070
    48
1040
0.0
1070
    47
1040
0.0
1002
}
  0
DIMENSION
  5
5F2
330
77
100
AcDbEntity
  8
寸法(細線)
100
AcDbDimension
280
     0
  2
*D11
 10
127.7078546566011
 20
121.6628947949526
 30
0.0
 11
137.3228546566011
 21
121.6628947949526
 31
0.0
 70
   160
  1
{（}<>{）}
 42
19.23
 73
     0
 74
     0
 75
     0
  3
Default (ULVAC)
100
AcDbAlignedDimension
 13
146.9378546566011
 23
97.16039479495259
 33
0.0
 14
127.7078546566011
 24
97.16289479495259
 34
0.0
 50
180.0
100
AcDbRotatedDimension
1001
ACAD
1000
DSTYLE
1002
{
1070
   172
1070
     0
1070
   289
1070
     1
1070
   271
1070
     2
1070
   272
1070
     3
1070
    48
1040
0.0
1070
    47
1040
0.0
1002
}
  0
DIMENSION
  5
6CE
330
77
100
AcDbEntity
  8
寸法(細線)
100
AcDbDimension
280
     0
  2
*D12
 10
76.2635353984665
 20
86.77042438686092
 30
0.0
 11
73.0885353984665
 21
81.27116307282976
 31
0.0
 70
   160
  1
<>
 42
12.69999999999997
 73
     0
 74
     0
 75
     0
  3
Default (ULVAC)
100
AcDbAlignedDimension
 13
54.14112063949225
 23
84.87810966566284
 33
0.0
 14
60.1664707335615
 24
96.0640690043067
 34
0.0
 50
59.99999999999986
100
AcDbRotatedDimension
1001
ACAD
1000
DSTYLE
1002
{
1070
   172
1070
     0
1070
   289
1070
     1
1070
   271
1070
     2
1070
   272
1070
     3
1070
    48
1040
0.0
1070
    47
1040
0.0
1002
}
  0
DIMENSION
  5
7B0
330
77
100
AcDbEntity
  8
寸法(細線)
100
AcDbDimension
280
     0
  2
*D13
 10
104.7753113575727
 20
87.63289479495259
 30
0.0
 11
104.7753113575727
 21
92.39789479495259
 31
0.0
 70
   160
  1
{\fTahoma|b0|i0;\H1.7500;（\fAIGDT|b0|i0;\H1.7500;\ln\fTahoma|b0|i0;\H1.7500;}<>{\fTahoma|b0|i0;\H1.7500;）}
 42
9.530000000000001
 73
     0
 74
     0
 75
     0
  3
Default (ULVAC)
100
AcDbAlignedDimension
 13
127.7078546566011
 23
97.16289479495259
 33
0.0
 14
127.7078546566011
 24
87.63289479495259
 34
0.0
 50
90.0
100
AcDbRotatedDimension
1001
ACAD
1000
DSTYLE
1002
{
1070
   172
1070
     0
1070
   289
1070
     1
1070
   271
1070
     2
1070
   272
1070
     3
1070
    48
1040
0.0
1070
    47
1040
0.0
1002
}
  0
MTEXT
  5
893
102
{ACAD_REACTORS
330
894
102
}
330
77
100
AcDbEntity
  8
寸法(細線)
100
AcDbMText
 10
156.0661298162387
 20
111.7319026365779
 30
0.0
 40
1.749999970197677
 41
16.05073357820512
 46
0.0
 71
     1
 72
     1
  1
{3/8-24 UNF-2A}
  7
Note Text (ULVAC_寸法)
 73
     1
 44
1.5
  0
LEADER
  5
894
330
77
100
AcDbEntity
  8
寸法(細線)
100
AcDbLeader
  3
Default (ULVAC)$7
 73
     0
 74
     0
 75
     1
 40
2.209536564117954
 41
15.77233015450157
 76
     3
 10
142.9382175154672
 20
97.16039479495259
 30
0.0
 10
154.616129768555
 20
109.4153760678807
 30
0.0
 10
156.0661298162387
 20
109.4153760678807
 30
0.0
340
893
213
0.0
223
-0.106990004579226
233
0.0
1001
ACAD
1000
DSTYLE
1002
{
1070
   147
1040
0.0
1070
    77
1070
     1
1002
}
  0
MTEXT
  5
895
330
77
100
AcDbEntity
  8
寸法(細線)
100
AcDbMText
 10
38.53916817217236
 20
29.71112438472406
 30
0.0
 40
2.000000029802322
 41
14.25147874934576
 46
0.0
 71
     1
 72
     1
  1
{取付例}
  7
Note Text (ULVAC)
 73
     1
 44
1.5
  0
INSERT
  5
896
330
77
100
AcDbEntity
  8
0
100
AcDbBlockReference
  2
IPSTAMP_EJ
 10
116.9965382018974
 20
37.42197314231557
 30
0.0
 41
0.5
 42
0.5
 43
0.5
  0
MTEXT
  5
897
102
{ACAD_REACTORS
330
898
102
}
330
77
100
AcDbEntity
  8
寸法(細線)
100
AcDbMText
 10
87.01185723102765
 20
116.6539213055261
 30
0.0
 40
1.749999970197677
 41
24.57799911499023
 46
0.0
 71
     1
 72
     1
  1
{SMA905（ファイバー取付）}
  7
Note Text (ULVAC_寸法)
 73
     1
 44
1.5
  0
LEADER
  5
898
330
77
100
AcDbEntity
  8
寸法(細線)
100
AcDbLeader
  3
Default (ULVAC)$7
 73
     0
 75
     1
 40
6.970170335844159
 41
23.22605697976024
 76
     3
 10
120.2713546566011
 20
95.5728947949526
 30
0.0
 10
113.0398563937016
 20
109.5031729738055
 30
0.0
 10
111.5898563460179
 20
109.5031729738055
 30
0.0
340
897
213
0.0
223
-0.1805779958764711
233
0.0
1001
ACAD
1000
DSTYLE
1002
{
1070
   147
1040
0.0
1070
    77
1070
     1
1002
}
  0
ENDSEC
  0
SECTION
  2
OBJECTS
  0
DICTIONARY
  5
C
330
0
100
AcDbDictionary
281
     1
  3
ACAD_COLOR
350
6E
  3
ACAD_GROUP
350
D
  3
ACAD_LAYOUT
350
6D
  3
ACAD_MATERIAL
350
10
  3
ACAD_MLEADERSTYLE
350
71
  3
ACAD_MLINESTYLE
350
6A
  3
ACAD_PLOTSETTINGS
350
6C
  3
ACAD_PLOTSTYLENAME
350
E
  3
ACAD_SCALELIST
350
3D
  3
ACAD_TABLESTYLE
350
6F
  3
ACAD_VISUALSTYLE
350
29
  3
ACDB_RECOMPOSE_DATA
350
947
  3
AcDbVariableDictionary
350
899
  0
DICTIONARY
  5
89F
330
253
100
AcDbDictionary
280
     1
281
     1
  3
ACAD_MLATT
360
8A1
  3
ACAD_XREC_ROUNDTRIP
360
8A0
  0
DICTIONARY
  5
8A2
330
256
100
AcDbDictionary
280
     1
281
     1
  3
ACAD_MLATT
360
8A4
  3
ACAD_XREC_ROUNDTRIP
360
8A3
  0
DICTIONARY
  5
8A5
330
257
100
AcDbDictionary
280
     1
281
     1
  3
ACAD_MLATT
360
8A7
  3
ACAD_XREC_ROUNDTRIP
360
8A6
  0
DICTIONARY
  5
8A8
330
258
100
AcDbDictionary
280
     1
281
     1
  3
ACAD_MLATT
360
8AA
  3
ACAD_XREC_ROUNDTRIP
360
8A9
  0
DICTIONARY
  5
8AB
330
259
100
AcDbDictionary
280
     1
281
     1
  3
ACAD_MLATT
360
8AD
  3
ACAD_XREC_ROUNDTRIP
360
8AC
  0
DICTIONARY
  5
8AE
330
25A
100
AcDbDictionary
280
     1
281
     1
  3
ACAD_MLATT
360
8B0
  3
ACAD_XREC_ROUNDTRIP
360
8AF
  0
DICTIONARY
  5
8B1
330
25C
100
AcDbDictionary
280
     1
281
     1
  3
ACAD_MLATT
360
8B3
  3
ACAD_XREC_ROUNDTRIP
360
8B2
  0
DICTIONARY
  5
8B4
330
25D
100
AcDbDictionary
280
     1
281
     1
  3
ACAD_MLATT
360
8B6
  3
ACAD_XREC_ROUNDTRIP
360
8B5
  0
DICTIONARY
  5
8B7
330
25E
100
AcDbDictionary
280
     1
281
     1
  3
ACAD_MLATT
360
8B9
  3
ACAD_XREC_ROUNDTRIP
360
8B8
  0
DICTIONARY
  5
8BA
330
260
100
AcDbDictionary
280
     1
281
     1
  3
ACAD_MLATT
360
8BC
  3
ACAD_XREC_ROUNDTRIP
360
8BB
  0
DICTIONARY
  5
8BD
330
262
100
AcDbDictionary
280
     1
281
     1
  3
ACAD_MLATT
360
8BF
  3
ACAD_XREC_ROUNDTRIP
360
8BE
  0
DICTIONARY
  5
8C0
330
264
100
AcDbDictionary
280
     1
281
     1
  3
ACAD_MLATT
360
8C2
  3
ACAD_XREC_ROUNDTRIP
360
8C1
  0
DICTIONARY
  5
8C3
330
265
100
AcDbDictionary
280
     1
281
     1
  3
ACAD_MLATT
360
8C5
  3
ACAD_XREC_ROUNDTRIP
360
8C4
  0
DICTIONARY
  5
8C6
330
267
100
AcDbDictionary
280
     1
281
     1
  3
ACAD_MLATT
360
8C8
  3
ACAD_XREC_ROUNDTRIP
360
8C7
  0
DICTIONARY
  5
8C9
330
269
100
AcDbDictionary
280
     1
281
     1
  3
ACAD_MLATT
360
8CB
  3
ACAD_XREC_ROUNDTRIP
360
8CA
  0
DICTIONARY
  5
8CC
330
26B
100
AcDbDictionary
280
     1
281
     1
  3
ACAD_MLATT
360
8CE
  3
ACAD_XREC_ROUNDTRIP
360
8CD
  0
DICTIONARY
  5
8CF
330
26C
100
AcDbDictionary
280
     1
281
     1
  3
ACAD_MLATT
360
8D1
  3
ACAD_XREC_ROUNDTRIP
360
8D0
  0
DICTIONARY
  5
8D2
330
26D
100
AcDbDictionary
280
     1
281
     1
  3
ACAD_MLATT
360
8D4
  3
ACAD_XREC_ROUNDTRIP
360
8D3
  0
DICTIONARY
  5
8D5
330
26E
100
AcDbDictionary
280
     1
281
     1
  3
ACAD_MLATT
360
8D7
  3
ACAD_XREC_ROUNDTRIP
360
8D6
  0
DICTIONARY
  5
8D8
330
26F
100
AcDbDictionary
280
     1
281
     1
  3
ACAD_MLATT
360
8DA
  3
ACAD_XREC_ROUNDTRIP
360
8D9
  0
DICTIONARY
  5
8DB
330
270
100
AcDbDictionary
280
     1
281
     1
  3
ACAD_MLATT
360
8DD
  3
ACAD_XREC_ROUNDTRIP
360
8DC
  0
DICTIONARY
  5
8DE
330
272
100
AcDbDictionary
280
     1
281
     1
  3
ACAD_MLATT
360
8E0
  3
ACAD_XREC_ROUNDTRIP
360
8DF
  0
DICTIONARY
  5
8E1
330
274
100
AcDbDictionary
280
     1
281
     1
  3
ACAD_MLATT
360
8E3
  3
ACAD_XREC_ROUNDTRIP
360
8E2
  0
DICTIONARY
  5
8E4
330
276
100
AcDbDictionary
280
     1
281
     1
  3
ACAD_MLATT
360
8E6
  3
ACAD_XREC_ROUNDTRIP
360
8E5
  0
DICTIONARY
  5
8E7
330
277
100
AcDbDictionary
280
     1
281
     1
  3
ACAD_MLATT
360
8E9
  3
ACAD_XREC_ROUNDTRIP
360
8E8
  0
DICTIONARY
  5
8EA
330
278
100
AcDbDictionary
280
     1
281
     1
  3
ACAD_MLATT
360
8EC
  3
ACAD_XREC_ROUNDTRIP
360
8EB
  0
DICTIONARY
  5
8ED
330
27A
100
AcDbDictionary
280
     1
281
     1
  3
ACAD_MLATT
360
8EF
  3
ACAD_XREC_ROUNDTRIP
360
8EE
  0
DICTIONARY
  5
8F0
330
27C
100
AcDbDictionary
280
     1
281
     1
  3
ACAD_MLATT
360
8F2
  3
ACAD_XREC_ROUNDTRIP
360
8F1
  0
DICTIONARY
  5
8F3
330
27F
100
AcDbDictionary
280
     1
281
     1
  3
ACAD_MLATT
360
8F5
  3
ACAD_XREC_ROUNDTRIP
360
8F4
  0
DICTIONARY
  5
8F6
330
280
100
AcDbDictionary
280
     1
281
     1
  3
ACAD_MLATT
360
8F8
  3
ACAD_XREC_ROUNDTRIP
360
8F7
  0
DICTIONARY
  5
8F9
330
281
100
AcDbDictionary
280
     1
281
     1
  3
ACAD_MLATT
360
8FB
  3
ACAD_XREC_ROUNDTRIP
360
8FA
  0
DICTIONARY
  5
8FC
330
282
100
AcDbDictionary
280
     1
281
     1
  3
ACAD_MLATT
360
8FE
  3
ACAD_XREC_ROUNDTRIP
360
8FD
  0
DICTIONARY
  5
8FF
330
283
100
AcDbDictionary
280
     1
281
     1
  3
ACAD_MLATT
360
901
  3
ACAD_XREC_ROUNDTRIP
360
900
  0
DICTIONARY
  5
902
330
284
100
AcDbDictionary
280
     1
281
     1
  3
ACAD_MLATT
360
904
  3
ACAD_XREC_ROUNDTRIP
360
903
  0
DICTIONARY
  5
905
330
285
100
AcDbDictionary
280
     1
281
     1
  3
ACAD_MLATT
360
907
  3
ACAD_XREC_ROUNDTRIP
360
906
  0
DICTIONARY
  5
908
330
286
100
AcDbDictionary
280
     1
281
     1
  3
ACAD_MLATT
360
90A
  3
ACAD_XREC_ROUNDTRIP
360
909
  0
DICTIONARY
  5
90B
330
287
100
AcDbDictionary
280
     1
281
     1
  3
ACAD_MLATT
360
90D
  3
ACAD_XREC_ROUNDTRIP
360
90C
  0
DICTIONARY
  5
90E
330
288
100
AcDbDictionary
280
     1
281
     1
  3
ACAD_MLATT
360
910
  3
ACAD_XREC_ROUNDTRIP
360
90F
  0
DICTIONARY
  5
911
330
289
100
AcDbDictionary
280
     1
281
     1
  3
ACAD_MLATT
360
913
  3
ACAD_XREC_ROUNDTRIP
360
912
  0
DICTIONARY
  5
914
330
28A
100
AcDbDictionary
280
     1
281
     1
  3
ACAD_MLATT
360
916
  3
ACAD_XREC_ROUNDTRIP
360
915
  0
DICTIONARY
  5
917
330
28B
100
AcDbDictionary
280
     1
281
     1
  3
ACAD_MLATT
360
919
  3
ACAD_XREC_ROUNDTRIP
360
918
  0
DICTIONARY
  5
91A
330
28D
100
AcDbDictionary
280
     1
281
     1
  3
ACAD_MLATT
360
91C
  3
ACAD_XREC_ROUNDTRIP
360
91B
  0
DICTIONARY
  5
91D
330
28E
100
AcDbDictionary
280
     1
281
     1
  3
ACAD_MLATT
360
91F
  3
ACAD_XREC_ROUNDTRIP
360
91E
  0
DICTIONARY
  5
920
330
28F
100
AcDbDictionary
280
     1
281
     1
  3
ACAD_MLATT
360
922
  3
ACAD_XREC_ROUNDTRIP
360
921
  0
DICTIONARY
  5
923
330
290
100
AcDbDictionary
280
     1
281
     1
  3
ACAD_MLATT
360
925
  3
ACAD_XREC_ROUNDTRIP
360
924
  0
DICTIONARY
  5
926
330
291
100
AcDbDictionary
280
     1
281
     1
  3
ACAD_MLATT
360
928
  3
ACAD_XREC_ROUNDTRIP
360
927
  0
DICTIONARY
  5
929
330
292
100
AcDbDictionary
280
     1
281
     1
  3
ACAD_MLATT
360
92B
  3
ACAD_XREC_ROUNDTRIP
360
92A
  0
DICTIONARY
  5
92C
330
293
100
AcDbDictionary
280
     1
281
     1
  3
ACAD_MLATT
360
92E
  3
ACAD_XREC_ROUNDTRIP
360
92D
  0
DICTIONARY
  5
92F
330
294
100
AcDbDictionary
280
     1
281
     1
  3
ACAD_MLATT
360
931
  3
ACAD_XREC_ROUNDTRIP
360
930
  0
DICTIONARY
  5
932
330
295
100
AcDbDictionary
280
     1
281
     1
  3
ACAD_MLATT
360
934
  3
ACAD_XREC_ROUNDTRIP
360
933
  0
DICTIONARY
  5
935
330
296
100
AcDbDictionary
280
     1
281
     1
  3
ACAD_MLATT
360
937
  3
ACAD_XREC_ROUNDTRIP
360
936
  0
DICTIONARY
  5
938
330
297
100
AcDbDictionary
280
     1
281
     1
  3
ACAD_MLATT
360
93A
  3
ACAD_XREC_ROUNDTRIP
360
939
  0
DICTIONARY
  5
93B
330
298
100
AcDbDictionary
280
     1
281
     1
  3
ACAD_MLATT
360
93D
  3
ACAD_XREC_ROUNDTRIP
360
93C
  0
DICTIONARY
  5
93E
330
299
100
AcDbDictionary
280
     1
281
     1
  3
ACAD_MLATT
360
940
  3
ACAD_XREC_ROUNDTRIP
360
93F
  0
DICTIONARY
  5
941
330
29A
100
AcDbDictionary
280
     1
281
     1
  3
ACAD_MLATT
360
943
  3
ACAD_XREC_ROUNDTRIP
360
942
  0
DICTIONARY
  5
944
330
29B
100
AcDbDictionary
280
     1
281
     1
  3
ACAD_MLATT
360
946
  3
ACAD_XREC_ROUNDTRIP
360
945
  0
DICTIONARY
  5
6E
102
{ACAD_REACTORS
330
C
102
}
330
C
100
AcDbDictionary
281
     1
  0
DICTIONARY
  5
D
102
{ACAD_REACTORS
330
C
102
}
330
C
100
AcDbDictionary
281
     1
  0
DICTIONARY
  5
6D
102
{ACAD_REACTORS
330
C
102
}
330
C
100
AcDbDictionary
281
     1
  3
Layout1
350
76
  3
Layout2
350
7E
  3
Model
350
7A
  0
DICTIONARY
  5
10
102
{ACAD_REACTORS
330
C
102
}
330
C
100
AcDbDictionary
281
     1
  3
ByBlock
350
19
  3
ByLayer
350
11
  3
Global
350
21
  0
DICTIONARY
  5
71
102
{ACAD_REACTORS
330
C
102
}
330
C
100
AcDbDictionary
281
     1
  3
Standard
350
72
  0
DICTIONARY
  5
6A
102
{ACAD_REACTORS
330
C
102
}
330
C
100
AcDbDictionary
281
     1
  3
Standard
350
6B
  0
DICTIONARY
  5
6C
102
{ACAD_REACTORS
330
C
102
}
330
C
100
AcDbDictionary
281
     1
  0
ACDBDICTIONARYWDFLT
  5
E
102
{ACAD_REACTORS
330
C
102
}
330
C
100
AcDbDictionary
281
     1
  3
Normal
350
F
100
AcDbDictionaryWithDefault
340
F
  0
DICTIONARY
  5
3D
102
{ACAD_REACTORS
330
C
102
}
330
C
100
AcDbDictionary
281
     1
  3
A0
350
3E
  3
A1
350
3F
  3
A2
350
40
  3
A3
350
41
  3
A4
350
42
  3
A5
350
43
  3
A6
350
44
  3
A7
350
45
  3
A8
350
46
  3
A9
350
47
  3
B0
350
48
  3
B1
350
49
  3
B2
350
4A
  3
B3
350
4B
  3
B4
350
4C
  3
B5
350
4D
  3
B6
350
4E
  3
B7
350
4F
  3
B8
350
50
  3
B9
350
51
  3
C0
350
52
  3
C1
350
53
  3
C2
350
54
  3
C3
350
55
  3
C4
350
56
  3
C5
350
57
  3
C6
350
58
  3
C7
350
59
  3
C8
350
5A
  3
C9
350
5B
  3
D0
350
5C
  3
D1
350
5D
  3
D2
350
5E
  0
DICTIONARY
  5
6F
102
{ACAD_REACTORS
330
C
102
}
330
C
100
AcDbDictionary
281
     1
  3
Standard
350
70
  0
DICTIONARY
  5
29
102
{ACAD_REACTORS
330
C
102
}
330
C
100
AcDbDictionary
281
     1
  3
2dWireframe
350
2F
  3
3D Hidden
350
31
  3
3dWireframe
350
30
  3
Basic
350
2E
  3
Brighten
350
35
  3
ColorChange
350
39
  3
Conceptual
350
32
  3
Dim
350
34
  3
EdgeColorOff
350
3C
  3
Facepattern
350
38
  3
Flat
350
2A
  3
FlatWithEdges
350
2B
  3
Gouraud
350
2C
  3
GouraudWithEdges
350
2D
  3
JitterOff
350
3A
  3
Linepattern
350
37
  3
OverhangOff
350
3B
  3
Realistic
350
33
  3
Thicken
350
36
  0
XRECORD
  5
947
102
{ACAD_REACTORS
330
C
102
}
330
C
100
AcDbXrecord
280
     1
 90
        1
330
70
330
253
330
256
330
257
330
258
330
259
330
25A
330
25C
330
25D
330
25E
330
260
330
262
330
264
330
265
330
267
330
269
330
26B
330
26C
330
26D
330
26E
330
26F
330
270
330
272
330
274
330
276
330
277
330
278
330
27A
330
27C
330
27F
330
280
330
281
330
282
330
283
330
284
330
285
330
286
330
287
330
288
330
289
330
28A
330
28B
330
28D
330
28E
330
28F
330
290
330
291
330
292
330
293
330
294
330
295
330
296
330
297
330
298
330
299
330
29A
330
29B
  0
DICTIONARY
  5
899
102
{ACAD_REACTORS
330
C
102
}
330
C
100
AcDbDictionary
281
     1
  3
CANNOSCALE
350
89C
  3
CMLEADERSTYLE
350
89B
  3
CTABLESTYLE
350
89A
  0
XRECORD
  5
8A1
102
{ACAD_REACTORS
330
89F
102
}
330
89F
100
AcDbXrecord
280
     1
 70
     4
 70
     0
 70
     0
 40
1.0
  2
流用元図番
  1
Embedded Object
 10
18.00000054486772
 20
50.50000000000001
 30
0.0
 40
2.5
 41
0.0
 46
0.0
 71
     4
 72
     5
  1

  7
文字スタイル35
 73
     1
 44
1.0
  0
XRECORD
  5
8A0
102
{ACAD_REACTORS
330
89F
102
}
330
89F
100
AcDbXrecord
280
     1
102
ACAD_MATT_HEIGHT
140
2.5
  0
XRECORD
  5
8A4
102
{ACAD_REACTORS
330
8A2
102
}
330
8A2
100
AcDbXrecord
280
     1
 70
     4
 70
     0
 70
     0
 40
1.0
  2
<変更来歴B-COUNT>
  1
Embedded Object
 10
113.0
 20
49.00000000000002
 30
0.0
 40
2.5
 41
0.0
 46
0.0
 71
     5
 72
     5
  1

  7
文字スタイル35
 73
     1
 44
1.0
  0
XRECORD
  5
8A3
102
{ACAD_REACTORS
330
8A2
102
}
330
8A2
100
AcDbXrecord
280
     1
102
ACAD_MATT_HEIGHT
140
2.5
  0
XRECORD
  5
8A7
102
{ACAD_REACTORS
330
8A5
102
}
330
8A5
100
AcDbXrecord
280
     1
 70
     4
 70
     0
 70
     0
 40
1.0
  2
<変更来歴C-COUNT>
  1
Embedded Object
 10
113.0
 20
55.0
 30
0.0
 40
2.5
 41
0.0
 46
0.0
 71
     5
 72
     5
  1

  7
文字スタイル35
 73
     1
 44
1.0
  0
XRECORD
  5
8A6
102
{ACAD_REACTORS
330
8A5
102
}
330
8A5
100
AcDbXrecord
280
     1
102
ACAD_MATT_HEIGHT
140
2.5
  0
XRECORD
  5
8AA
102
{ACAD_REACTORS
330
8A8
102
}
330
8A8
100
AcDbXrecord
280
     1
 70
     4
 70
     0
 70
     0
 40
1.0
  2
<変更来歴D-COUNT>
  1
Embedded Object
 10
113.0
 20
61.00000000000001
 30
0.0
 40
2.5
 41
0.0
 46
0.0
 71
     5
 72
     5
  1

  7
文字スタイル35
 73
     1
 44
1.0
  0
XRECORD
  5
8A9
102
{ACAD_REACTORS
330
8A8
102
}
330
8A8
100
AcDbXrecord
280
     1
102
ACAD_MATT_HEIGHT
140
2.5
  0
XRECORD
  5
8AD
102
{ACAD_REACTORS
330
8AB
102
}
330
8AB
100
AcDbXrecord
280
     1
 70
     4
 70
     0
 70
     0
 40
1.0
  2
<変更来歴D-DATE>
  1
Embedded Object
 10
127.0
 20
61.00000000000001
 30
0.0
 40
2.5
 41
0.0
 46
0.0
 71
     5
 72
     5
  1

  7
文字スタイル35
 73
     1
 44
1.0
  0
XRECORD
  5
8AC
102
{ACAD_REACTORS
330
8AB
102
}
330
8AB
100
AcDbXrecord
280
     1
102
ACAD_MATT_HEIGHT
140
2.5
  0
XRECORD
  5
8B0
102
{ACAD_REACTORS
330
8AE
102
}
330
8AE
100
AcDbXrecord
280
     1
 70
     4
 70
     0
 70
     0
 40
1.0
  2
<変更来歴C-DATE>
  1
Embedded Object
 10
127.0
 20
55.0
 30
0.0
 40
2.5
 41
0.0
 46
0.0
 71
     5
 72
     5
  1

  7
文字スタイル35
 73
     1
 44
1.0
  0
XRECORD
  5
8AF
102
{ACAD_REACTORS
330
8AE
102
}
330
8AE
100
AcDbXrecord
280
     1
102
ACAD_MATT_HEIGHT
140
2.5
  0
XRECORD
  5
8B3
102
{ACAD_REACTORS
330
8B1
102
}
330
8B1
100
AcDbXrecord
280
     1
 70
     4
 70
     0
 70
     0
 40
1.0
  2
<変更来歴B-REMARKS>
  1
Embedded Object
 10
139.0
 20
49.00000000000002
 30
0.0
 40
2.5
 41
0.0
 46
0.0
 71
     4
 72
     5
  1
\W0.5000;
  7
文字スタイル211
 73
     1
 44
1.0
  0
XRECORD
  5
8B2
102
{ACAD_REACTORS
330
8B1
102
}
330
8B1
100
AcDbXrecord
280
     1
102
ACAD_MATT_HEIGHT
140
2.5
  0
XRECORD
  5
8B6
102
{ACAD_REACTORS
330
8B4
102
}
330
8B4
100
AcDbXrecord
280
     1
 70
     4
 70
     0
 70
     0
 40
1.0
  2
<変更来歴C-REMARKS>
  1
Embedded Object
 10
139.0
 20
55.0
 30
0.0
 40
2.5
 41
0.0
 46
0.0
 71
     4
 72
     5
  1
\W0.5000;
  7
文字スタイル211
 73
     1
 44
1.0
  0
XRECORD
  5
8B5
102
{ACAD_REACTORS
330
8B4
102
}
330
8B4
100
AcDbXrecord
280
     1
102
ACAD_MATT_HEIGHT
140
2.5
  0
XRECORD
  5
8B9
102
{ACAD_REACTORS
330
8B7
102
}
330
8B7
100
AcDbXrecord
280
     1
 70
     4
 70
     0
 70
     0
 40
1.0
  2
<変更来歴D-REMARKS>
  1
Embedded Object
 10
139.0
 20
61.00000000000001
 30
0.0
 40
2.5
 41
0.0
 46
0.0
 71
     4
 72
     5
  1
\W0.5000;
  7
文字スタイル211
 73
     1
 44
1.0
  0
XRECORD
  5
8B8
102
{ACAD_REACTORS
330
8B7
102
}
330
8B7
100
AcDbXrecord
280
     1
102
ACAD_MATT_HEIGHT
140
2.5
  0
XRECORD
  5
8BC
102
{ACAD_REACTORS
330
8BA
102
}
330
8BA
100
AcDbXrecord
280
     1
 70
     4
 70
     0
 70
     0
 40
1.0
  2
シート_サイズ
  1
Embedded Object
 10
75.00000000000006
 20
41.00000000000001
 30
0.0
 40
4.199999868869781
 41
0.0
 46
0.0
 71
     5
 72
     5
  1
A3
  7
文字スタイル60
 73
     1
 44
1.0
  0
XRECORD
  5
8BB
102
{ACAD_REACTORS
330
8BA
102
}
330
8BA
100
AcDbXrecord
280
     1
102
ACAD_MATT_HEIGHT
140
4.199999868869781
  0
XRECORD
  5
8BF
102
{ACAD_REACTORS
330
8BD
102
}
330
8BD
100
AcDbXrecord
280
     1
 70
     4
 70
     0
 70
     0
 40
1.0
  2
図面番号
  1
Embedded Object
 10
126.5
 20
5.500000000000007
 30
0.0
 40
5.099999904632568
 41
0.0
 46
0.0
 71
     5
 72
     5
  1
KZ2003-908A
  7
文字スタイル206
 73
     1
 44
1.0
  0
XRECORD
  5
8BE
102
{ACAD_REACTORS
330
8BD
102
}
330
8BD
100
AcDbXrecord
280
     1
102
ACAD_MATT_HEIGHT
140
5.099999904632568
  0
XRECORD
  5
8C2
102
{ACAD_REACTORS
330
8C0
102
}
330
8C0
100
AcDbXrecord
280
     1
 70
     4
 70
     0
 70
     0
 40
1.0
  2
<尺度>
  1
Embedded Object
 10
89.00000000000003
 20
21.5
 30
0.0
 40
2.70000010728836
 41
0.0
 46
0.0
 71
     5
 72
     5
  1
2:1
  7
文字スタイル205
 73
     1
 44
1.0
  0
XRECORD
  5
8C1
102
{ACAD_REACTORS
330
8C0
102
}
330
8C0
100
AcDbXrecord
280
     1
102
ACAD_MATT_HEIGHT
140
2.70000010728836
  0
XRECORD
  5
8C5
102
{ACAD_REACTORS
330
8C3
102
}
330
8C3
100
AcDbXrecord
280
     1
 70
     4
 70
     0
 70
     0
 40
1.0
  2
作成日
  1
Embedded Object
 10
89.00000000000003
 20
14.50000000000001
 30
0.0
 40
2.5
 41
0.0
 46
0.0
 71
     5
 72
     5
  1
2013/04/18
  7
文字スタイル35
 73
     1
 44
1.0
  0
XRECORD
  5
8C4
102
{ACAD_REACTORS
330
8C3
102
}
330
8C3
100
AcDbXrecord
280
     1
102
ACAD_MATT_HEIGHT
140
2.5
  0
XRECORD
  5
8C8
102
{ACAD_REACTORS
330
8C6
102
}
330
8C6
100
AcDbXrecord
280
     1
 70
     4
 70
     0
 70
     0
 40
1.0
  2
タイトル
  1
Embedded Object
 10
138.0
 20
19.00000000000001
 30
0.0
 40
4.300000071525573
 41
0.0
 46
0.0
 71
     5
 72
     5
  1
ASM外形寸法図
  7
文字スタイル207
 73
     1
 44
1.0
  0
XRECORD
  5
8C7
102
{ACAD_REACTORS
330
8C6
102
}
330
8C6
100
AcDbXrecord
280
     1
102
ACAD_MATT_HEIGHT
140
4.300000071525573
  0
XRECORD
  5
8CB
102
{ACAD_REACTORS
330
8C9
102
}
330
8C9
100
AcDbXrecord
280
     1
 70
     4
 70
     0
 70
     0
 40
1.0
  2
<サブタイトル>
  1
Embedded Object
 10
138.0
 20
26.00000000000001
 30
0.0
 40
2.800000011920928
 41
0.0
 46
0.0
 71
     5
 72
     5
  1

  7
文字スタイル208
 73
     1
 44
1.0
  0
XRECORD
  5
8CA
102
{ACAD_REACTORS
330
8C9
102
}
330
8C9
100
AcDbXrecord
280
     1
102
ACAD_MATT_HEIGHT
140
2.800000011920928
  0
XRECORD
  5
8CE
102
{ACAD_REACTORS
330
8CC
102
}
330
8CC
100
AcDbXrecord
280
     1
 70
     4
 70
     0
 70
     0
 40
1.0
  2
<変更来歴B-MARK>
  1
Embedded Object
 10
104.25
 20
48.50000000000001
 30
0.0
 40
1.800000071525573
 41
0.0
 46
0.0
 71
     5
 72
     5
  1
B
  7
文字スタイル107
 73
     1
 44
1.0
  0
XRECORD
  5
8CD
102
{ACAD_REACTORS
330
8CC
102
}
330
8CC
100
AcDbXrecord
280
     1
102
ACAD_MATT_HEIGHT
140
1.800000071525573
  0
XRECORD
  5
8D1
102
{ACAD_REACTORS
330
8CF
102
}
330
8CF
100
AcDbXrecord
280
     1
 70
     4
 70
     0
 70
     0
 40
1.0
  2
<変更来歴C-MARK>
  1
Embedded Object
 10
104.25
 20
54.50000000000001
 30
0.0
 40
1.800000071525573
 41
0.0
 46
0.0
 71
     5
 72
     5
  1
C
  7
文字スタイル107
 73
     1
 44
1.0
  0
XRECORD
  5
8D0
102
{ACAD_REACTORS
330
8CF
102
}
330
8CF
100
AcDbXrecord
280
     1
102
ACAD_MATT_HEIGHT
140
1.800000071525573
  0
XRECORD
  5
8D4
102
{ACAD_REACTORS
330
8D2
102
}
330
8D2
100
AcDbXrecord
280
     1
 70
     4
 70
     0
 70
     0
 40
1.0
  2
<変更来歴D-MARK>
  1
Embedded Object
 10
104.25
 20
60.5
 30
0.0
 40
1.800000071525573
 41
0.0
 46
0.0
 71
     5
 72
     5
  1
D
  7
文字スタイル107
 73
     1
 44
1.0
  0
XRECORD
  5
8D3
102
{ACAD_REACTORS
330
8D2
102
}
330
8D2
100
AcDbXrecord
280
     1
102
ACAD_MATT_HEIGHT
140
1.800000071525573
  0
XRECORD
  5
8D7
102
{ACAD_REACTORS
330
8D5
102
}
330
8D5
100
AcDbXrecord
280
     1
 70
     4
 70
     0
 70
     0
 40
1.0
  2
<変更来歴B-DATE>
  1
Embedded Object
 10
127.0
 20
49.00000000000002
 30
0.0
 40
2.5
 41
0.0
 46
0.0
 71
     5
 72
     5
  1

  7
文字スタイル35
 73
     1
 44
1.0
  0
XRECORD
  5
8D6
102
{ACAD_REACTORS
330
8D5
102
}
330
8D5
100
AcDbXrecord
280
     1
102
ACAD_MATT_HEIGHT
140
2.5
  0
XRECORD
  5
8DA
102
{ACAD_REACTORS
330
8D8
102
}
330
8D8
100
AcDbXrecord
280
     1
 70
     4
 70
     0
 70
     0
 40
1.0
  2
<貼DWG.No>
  1
Embedded Object
 10
20.00000054486773
 20
57.25000000000001
 30
0.0
 40
2.5
 41
0.0
 46
0.0
 71
     4
 72
     5
  1

  7
文字スタイル35
 73
     1
 44
1.0
  0
XRECORD
  5
8D9
102
{ACAD_REACTORS
330
8D8
102
}
330
8D8
100
AcDbXrecord
280
     1
102
ACAD_MATT_HEIGHT
140
2.5
  0
XRECORD
  5
8DD
102
{ACAD_REACTORS
330
8DB
102
}
330
8DB
100
AcDbXrecord
280
     1
 70
     4
 70
     0
 70
     0
 40
1.0
  2
<貼DATE>
  1
Embedded Object
 10
63.75
 20
57.25000000000001
 30
0.0
 40
2.5
 41
0.0
 46
0.0
 71
     5
 72
     5
  1

  7
文字スタイル35
 73
     1
 44
1.0
  0
XRECORD
  5
8DC
102
{ACAD_REACTORS
330
8DB
102
}
330
8DB
100
AcDbXrecord
280
     1
102
ACAD_MATT_HEIGHT
140
2.5
  0
XRECORD
  5
8E0
102
{ACAD_REACTORS
330
8DE
102
}
330
8DE
100
AcDbXrecord
280
     1
 70
     4
 70
     0
 70
     0
 40
1.0
  2
<貼NAME>
  1
Embedded Object
 10
88.37500000000003
 20
57.25000000000001
 30
0.0
 40
2.300000041723251
 41
0.0
 46
0.0
 71
     5
 72
     5
  1

  7
文字スタイル204
 73
     1
 44
1.0
  0
XRECORD
  5
8DF
102
{ACAD_REACTORS
330
8DE
102
}
330
8DE
100
AcDbXrecord
280
     1
102
ACAD_MATT_HEIGHT
140
2.300000041723251
  0
XRECORD
  5
8E3
102
{ACAD_REACTORS
330
8E1
102
}
330
8E1
100
AcDbXrecord
280
     1
 70
     4
 70
     0
 70
     0
 40
1.0
  2
重量
  1
Embedded Object
 10
90.50000000000004
 20
50.50000000000001
 30
0.0
 40
3.000000119209289
 41
0.0
 46
0.0
 71
     5
 72
     5
  1

  7
文字スタイル32
 73
     1
 44
1.0
  0
XRECORD
  5
8E2
102
{ACAD_REACTORS
330
8E1
102
}
330
8E1
100
AcDbXrecord
280
     1
102
ACAD_MATT_HEIGHT
140
3.000000119209289
  0
XRECORD
  5
8E6
102
{ACAD_REACTORS
330
8E4
102
}
330
8E4
100
AcDbXrecord
280
     1
 70
     4
 70
     0
 70
     0
 40
1.0
  2
製図欄2
  1
Embedded Object
 10
56.00000000000001
 20
19.00000000000001
 30
0.0
 40
2.399999946355819
 41
0.0
 46
0.0
 71
     5
 72
     5
  1

  7
文字スタイル228
 73
     1
 44
1.5
  0
XRECORD
  5
8E5
102
{ACAD_REACTORS
330
8E4
102
}
330
8E4
100
AcDbXrecord
280
     1
102
ACAD_MATT_HEIGHT
140
2.399999946355819
  0
XRECORD
  5
8E9
102
{ACAD_REACTORS
330
8E7
102
}
330
8E7
100
AcDbXrecord
280
     1
 70
     4
 70
     0
 70
     0
 40
1.0
  2
製図者
  1
Embedded Object
 10
56.00000000000001
 20
15.00000000000001
 30
0.0
 40
2.399999946355819
 41
0.0
 46
0.0
 71
     5
 72
     5
  1

  7
文字スタイル228
 73
     1
 44
1.5
  0
XRECORD
  5
8E8
102
{ACAD_REACTORS
330
8E7
102
}
330
8E7
100
AcDbXrecord
280
     1
102
ACAD_MATT_HEIGHT
140
2.399999946355819
  0
XRECORD
  5
8EC
102
{ACAD_REACTORS
330
8EA
102
}
330
8EA
100
AcDbXrecord
280
     1
 70
     4
 70
     0
 70
     0
 40
1.0
  2
製図欄1
  1
Embedded Object
 10
56.00000000000001
 20
23.00000000000002
 30
0.0
 40
2.399999946355819
 41
0.0
 46
0.0
 71
     5
 72
     5
  1

  7
文字スタイル228
 73
     1
 44
1.5
  0
XRECORD
  5
8EB
102
{ACAD_REACTORS
330
8EA
102
}
330
8EA
100
AcDbXrecord
280
     1
102
ACAD_MATT_HEIGHT
140
2.399999946355819
  0
XRECORD
  5
8EF
102
{ACAD_REACTORS
330
8ED
102
}
330
8ED
100
AcDbXrecord
280
     1
 70
     4
 70
     0
 70
     0
 40
1.0
  2
シートの数
  1
Embedded Object
 10
173.0
 20
3.0
 30
0.0
 40
3.000000119209289
 41
0.0
 46
0.0
 71
     5
 72
     5
  1
1 
  7
文字スタイル117
 73
     1
 44
1.5
  0
XRECORD
  5
8EE
102
{ACAD_REACTORS
330
8ED
102
}
330
8ED
100
AcDbXrecord
280
     1
102
ACAD_MATT_HEIGHT
140
3.000000119209289
  0
XRECORD
  5
8F2
102
{ACAD_REACTORS
330
8F0
102
}
330
8F0
100
AcDbXrecord
280
     1
 70
     4
 70
     0
 70
     0
 40
1.0
  2
シート番号
  1
Embedded Object
 10
168.5
 20
8.000000000000014
 30
0.0
 40
3.000000119209289
 41
0.0
 46
0.0
 71
     5
 72
     5
  1
1 
  7
文字スタイル117
 73
     1
 44
1.5
  0
XRECORD
  5
8F1
102
{ACAD_REACTORS
330
8F0
102
}
330
8F0
100
AcDbXrecord
280
     1
102
ACAD_MATT_HEIGHT
140
3.000000119209289
  0
XRECORD
  5
8F5
102
{ACAD_REACTORS
330
8F3
102
}
330
8F3
100
AcDbXrecord
280
     1
 70
     2
 70
     0
 70
     0
 40
1.0
  2
流用元図番
  1
Embedded Object
 10
126.5000002724336
 20
30.24999999999983
 30
0.0
 40
1.25
 41
0.0
 46
0.0
 71
     4
 72
     5
  1

  7
文字スタイル35
 73
     1
 44
1.0
  0
XRECORD
  5
8F4
102
{ACAD_REACTORS
330
8F3
102
}
330
8F3
100
AcDbXrecord
280
     1
102
ACAD_MATT_HEIGHT
140
1.25
  0
XRECORD
  5
8F8
102
{ACAD_REACTORS
330
8F6
102
}
330
8F6
100
AcDbXrecord
280
     1
 70
     2
 70
     0
 70
     0
 40
1.0
  2
<変更来歴B-COUNT>
  1
Embedded Object
 10
173.9999999999997
 20
29.49999999999982
 30
0.0
 40
1.25
 41
0.0
 46
0.0
 71
     5
 72
     5
  1

  7
文字スタイル35
 73
     1
 44
1.0
  0
XRECORD
  5
8F7
102
{ACAD_REACTORS
330
8F6
102
}
330
8F6
100
AcDbXrecord
280
     1
102
ACAD_MATT_HEIGHT
140
1.25
  0
XRECORD
  5
8FB
102
{ACAD_REACTORS
330
8F9
102
}
330
8F9
100
AcDbXrecord
280
     1
 70
     2
 70
     0
 70
     0
 40
1.0
  2
<変更来歴C-COUNT>
  1
Embedded Object
 10
173.9999999999997
 20
32.49999999999982
 30
0.0
 40
1.25
 41
0.0
 46
0.0
 71
     5
 72
     5
  1

  7
文字スタイル35
 73
     1
 44
1.0
  0
XRECORD
  5
8FA
102
{ACAD_REACTORS
330
8F9
102
}
330
8F9
100
AcDbXrecord
280
     1
102
ACAD_MATT_HEIGHT
140
1.25
  0
XRECORD
  5
8FE
102
{ACAD_REACTORS
330
8FC
102
}
330
8FC
100
AcDbXrecord
280
     1
 70
     2
 70
     0
 70
     0
 40
1.0
  2
<変更来歴D-COUNT>
  1
Embedded Object
 10
173.9999999999997
 20
35.49999999999982
 30
0.0
 40
1.25
 41
0.0
 46
0.0
 71
     5
 72
     5
  1

  7
文字スタイル35
 73
     1
 44
1.0
  0
XRECORD
  5
8FD
102
{ACAD_REACTORS
330
8FC
102
}
330
8FC
100
AcDbXrecord
280
     1
102
ACAD_MATT_HEIGHT
140
1.25
  0
XRECORD
  5
901
102
{ACAD_REACTORS
330
8FF
102
}
330
8FF
100
AcDbXrecord
280
     1
 70
     2
 70
     0
 70
     0
 40
1.0
  2
<変更来歴D-DATE>
  1
Embedded Object
 10
180.9999999999998
 20
35.49999999999982
 30
0.0
 40
1.25
 41
0.0
 46
0.0
 71
     5
 72
     5
  1

  7
文字スタイル35
 73
     1
 44
1.0
  0
XRECORD
  5
900
102
{ACAD_REACTORS
330
8FF
102
}
330
8FF
100
AcDbXrecord
280
     1
102
ACAD_MATT_HEIGHT
140
1.25
  0
XRECORD
  5
904
102
{ACAD_REACTORS
330
902
102
}
330
902
100
AcDbXrecord
280
     1
 70
     2
 70
     0
 70
     0
 40
1.0
  2
<変更来歴C-DATE>
  1
Embedded Object
 10
180.9999999999998
 20
32.49999999999982
 30
0.0
 40
1.25
 41
0.0
 46
0.0
 71
     5
 72
     5
  1

  7
文字スタイル35
 73
     1
 44
1.0
  0
XRECORD
  5
903
102
{ACAD_REACTORS
330
902
102
}
330
902
100
AcDbXrecord
280
     1
102
ACAD_MATT_HEIGHT
140
1.25
  0
XRECORD
  5
907
102
{ACAD_REACTORS
330
905
102
}
330
905
100
AcDbXrecord
280
     1
 70
     2
 70
     0
 70
     0
 40
1.0
  2
<変更来歴B-REMARKS>
  1
Embedded Object
 10
186.9999999999997
 20
29.49999999999982
 30
0.0
 40
1.25
 41
0.0
 46
0.0
 71
     4
 72
     5
  1
\W0.5000;
  7
文字スタイル211
 73
     1
 44
1.0
  0
XRECORD
  5
906
102
{ACAD_REACTORS
330
905
102
}
330
905
100
AcDbXrecord
280
     1
102
ACAD_MATT_HEIGHT
140
1.25
  0
XRECORD
  5
90A
102
{ACAD_REACTORS
330
908
102
}
330
908
100
AcDbXrecord
280
     1
 70
     2
 70
     0
 70
     0
 40
1.0
  2
<変更来歴C-REMARKS>
  1
Embedded Object
 10
186.9999999999997
 20
32.49999999999982
 30
0.0
 40
1.25
 41
0.0
 46
0.0
 71
     4
 72
     5
  1
\W0.5000;
  7
文字スタイル211
 73
     1
 44
1.0
  0
XRECORD
  5
909
102
{ACAD_REACTORS
330
908
102
}
330
908
100
AcDbXrecord
280
     1
102
ACAD_MATT_HEIGHT
140
1.25
  0
XRECORD
  5
90D
102
{ACAD_REACTORS
330
90B
102
}
330
90B
100
AcDbXrecord
280
     1
 70
     2
 70
     0
 70
     0
 40
1.0
  2
<変更来歴D-REMARKS>
  1
Embedded Object
 10
186.9999999999997
 20
35.49999999999982
 30
0.0
 40
1.25
 41
0.0
 46
0.0
 71
     4
 72
     5
  1
\W0.5000;
  7
文字スタイル211
 73
     1
 44
1.0
  0
XRECORD
  5
90C
102
{ACAD_REACTORS
330
90B
102
}
330
90B
100
AcDbXrecord
280
     1
102
ACAD_MATT_HEIGHT
140
1.25
  0
XRECORD
  5
910
102
{ACAD_REACTORS
330
90E
102
}
330
90E
100
AcDbXrecord
280
     1
 70
     2
 70
     0
 70
     0
 40
1.0
  2
シート_サイズ
  1
Embedded Object
 10
154.9999999999998
 20
25.49999999999982
 30
0.0
 40
2.09999993443489
 41
0.0
 46
0.0
 71
     5
 72
     5
  1
A3
  7
文字スタイル60
 73
     1
 44
1.0
  0
XRECORD
  5
90F
102
{ACAD_REACTORS
330
90E
102
}
330
90E
100
AcDbXrecord
280
     1
102
ACAD_MATT_HEIGHT
140
2.09999993443489
  0
XRECORD
  5
913
102
{ACAD_REACTORS
330
911
102
}
330
911
100
AcDbXrecord
280
     1
 70
     2
 70
     0
 70
     0
 40
1.0
  2
図面番号
  1
Embedded Object
 10
180.7499999999998
 20
7.749999999999815
 30
0.0
 40
2.549999952316284
 41
0.0
 46
0.0
 71
     5
 72
     5
  1
KZ2003-908A
  7
文字スタイル206
 73
     1
 44
1.0
  0
XRECORD
  5
912
102
{ACAD_REACTORS
330
911
102
}
330
911
100
AcDbXrecord
280
     1
102
ACAD_MATT_HEIGHT
140
2.549999952316284
  0
XRECORD
  5
916
102
{ACAD_REACTORS
330
914
102
}
330
914
100
AcDbXrecord
280
     1
 70
     2
 70
     0
 70
     0
 40
1.0
  2
<尺度>
  1
Embedded Object
 10
161.9999999999998
 20
15.74999999999981
 30
0.0
 40
1.35000005364418
 41
0.0
 46
0.0
 71
     5
 72
     5
  1
2:1
  7
文字スタイル205
 73
     1
 44
1.0
  0
XRECORD
  5
915
102
{ACAD_REACTORS
330
914
102
}
330
914
100
AcDbXrecord
280
     1
102
ACAD_MATT_HEIGHT
140
1.35000005364418
  0
XRECORD
  5
919
102
{ACAD_REACTORS
330
917
102
}
330
917
100
AcDbXrecord
280
     1
 70
     2
 70
     0
 70
     0
 40
1.0
  2
作成日
  1
Embedded Object
 10
161.9999999999998
 20
12.24999999999982
 30
0.0
 40
1.25
 41
0.0
 46
0.0
 71
     5
 72
     5
  1
2013/04/18
  7
文字スタイル35
 73
     1
 44
1.0
  0
XRECORD
  5
918
102
{ACAD_REACTORS
330
917
102
}
330
917
100
AcDbXrecord
280
     1
102
ACAD_MATT_HEIGHT
140
1.25
  0
XRECORD
  5
91C
102
{ACAD_REACTORS
330
91A
102
}
330
91A
100
AcDbXrecord
280
     1
 70
     2
 70
     0
 70
     0
 40
1.0
  2
タイトル
  1
Embedded Object
 10
186.4999999999998
 20
14.49999999999982
 30
0.0
 40
2.150000035762786
 41
0.0
 46
0.0
 71
     5
 72
     5
  1
ASM外形寸法図
  7
文字スタイル207
 73
     1
 44
1.0
  0
XRECORD
  5
91B
102
{ACAD_REACTORS
330
91A
102
}
330
91A
100
AcDbXrecord
280
     1
102
ACAD_MATT_HEIGHT
140
2.150000035762786
  0
XRECORD
  5
91F
102
{ACAD_REACTORS
330
91D
102
}
330
91D
100
AcDbXrecord
280
     1
 70
     2
 70
     0
 70
     0
 40
1.0
  2
<サブタイトル>
  1
Embedded Object
 10
186.4999999999998
 20
17.99999999999981
 30
0.0
 40
1.400000005960464
 41
0.0
 46
0.0
 71
     5
 72
     5
  1

  7
文字スタイル208
 73
     1
 44
1.0
  0
XRECORD
  5
91E
102
{ACAD_REACTORS
330
91D
102
}
330
91D
100
AcDbXrecord
280
     1
102
ACAD_MATT_HEIGHT
140
1.400000005960464
  0
XRECORD
  5
922
102
{ACAD_REACTORS
330
920
102
}
330
920
100
AcDbXrecord
280
     1
 70
     2
 70
     0
 70
     0
 40
1.0
  2
<変更来歴B-MARK>
  1
Embedded Object
 10
169.6249999999998
 20
29.24999999999982
 30
0.0
 40
0.9000000357627868
 41
0.0
 46
0.0
 71
     5
 72
     5
  1
B
  7
文字スタイル107
 73
     1
 44
1.0
  0
XRECORD
  5
921
102
{ACAD_REACTORS
330
920
102
}
330
920
100
AcDbXrecord
280
     1
102
ACAD_MATT_HEIGHT
140
0.9000000357627868
  0
XRECORD
  5
925
102
{ACAD_REACTORS
330
923
102
}
330
923
100
AcDbXrecord
280
     1
 70
     2
 70
     0
 70
     0
 40
1.0
  2
<変更来歴C-MARK>
  1
Embedded Object
 10
169.6249999999998
 20
32.24999999999982
 30
0.0
 40
0.9000000357627868
 41
0.0
 46
0.0
 71
     5
 72
     5
  1
C
  7
文字スタイル107
 73
     1
 44
1.0
  0
XRECORD
  5
924
102
{ACAD_REACTORS
330
923
102
}
330
923
100
AcDbXrecord
280
     1
102
ACAD_MATT_HEIGHT
140
0.9000000357627868
  0
XRECORD
  5
928
102
{ACAD_REACTORS
330
926
102
}
330
926
100
AcDbXrecord
280
     1
 70
     2
 70
     0
 70
     0
 40
1.0
  2
<変更来歴D-MARK>
  1
Embedded Object
 10
169.6249999999998
 20
35.24999999999982
 30
0.0
 40
0.9000000357627868
 41
0.0
 46
0.0
 71
     5
 72
     5
  1
D
  7
文字スタイル107
 73
     1
 44
1.0
  0
XRECORD
  5
927
102
{ACAD_REACTORS
330
926
102
}
330
926
100
AcDbXrecord
280
     1
102
ACAD_MATT_HEIGHT
140
0.9000000357627868
  0
XRECORD
  5
92B
102
{ACAD_REACTORS
330
929
102
}
330
929
100
AcDbXrecord
280
     1
 70
     2
 70
     0
 70
     0
 40
1.0
  2
<変更来歴B-DATE>
  1
Embedded Object
 10
180.9999999999998
 20
29.49999999999982
 30
0.0
 40
1.25
 41
0.0
 46
0.0
 71
     5
 72
     5
  1

  7
文字スタイル35
 73
     1
 44
1.0
  0
XRECORD
  5
92A
102
{ACAD_REACTORS
330
929
102
}
330
929
100
AcDbXrecord
280
     1
102
ACAD_MATT_HEIGHT
140
1.25
  0
XRECORD
  5
92E
102
{ACAD_REACTORS
330
92C
102
}
330
92C
100
AcDbXrecord
280
     1
 70
     2
 70
     0
 70
     0
 40
1.0
  2
<貼DWG.No>
  1
Embedded Object
 10
127.5000002724336
 20
33.62499999999982
 30
0.0
 40
1.25
 41
0.0
 46
0.0
 71
     4
 72
     5
  1

  7
文字スタイル35
 73
     1
 44
1.0
  0
XRECORD
  5
92D
102
{ACAD_REACTORS
330
92C
102
}
330
92C
100
AcDbXrecord
280
     1
102
ACAD_MATT_HEIGHT
140
1.25
  0
XRECORD
  5
931
102
{ACAD_REACTORS
330
92F
102
}
330
92F
100
AcDbXrecord
280
     1
 70
     2
 70
     0
 70
     0
 40
1.0
  2
<貼DATE>
  1
Embedded Object
 10
149.3749999999997
 20
33.62499999999982
 30
0.0
 40
1.25
 41
0.0
 46
0.0
 71
     5
 72
     5
  1

  7
文字スタイル35
 73
     1
 44
1.0
  0
XRECORD
  5
930
102
{ACAD_REACTORS
330
92F
102
}
330
92F
100
AcDbXrecord
280
     1
102
ACAD_MATT_HEIGHT
140
1.25
  0
XRECORD
  5
934
102
{ACAD_REACTORS
330
932
102
}
330
932
100
AcDbXrecord
280
     1
 70
     2
 70
     0
 70
     0
 40
1.0
  2
<貼NAME>
  1
Embedded Object
 10
161.6874999999998
 20
33.62499999999982
 30
0.0
 40
1.150000020861625
 41
0.0
 46
0.0
 71
     5
 72
     5
  1

  7
文字スタイル204
 73
     1
 44
1.0
  0
XRECORD
  5
933
102
{ACAD_REACTORS
330
932
102
}
330
932
100
AcDbXrecord
280
     1
102
ACAD_MATT_HEIGHT
140
1.150000020861625
  0
XRECORD
  5
937
102
{ACAD_REACTORS
330
935
102
}
330
935
100
AcDbXrecord
280
     1
 70
     2
 70
     0
 70
     0
 40
1.0
  2
重量
  1
Embedded Object
 10
162.7499999999998
 20
30.24999999999983
 30
0.0
 40
1.500000059604644
 41
0.0
 46
0.0
 71
     5
 72
     5
  1

  7
文字スタイル32
 73
     1
 44
1.0
  0
XRECORD
  5
936
102
{ACAD_REACTORS
330
935
102
}
330
935
100
AcDbXrecord
280
     1
102
ACAD_MATT_HEIGHT
140
1.500000059604644
  0
XRECORD
  5
93A
102
{ACAD_REACTORS
330
938
102
}
330
938
100
AcDbXrecord
280
     1
 70
     2
 70
     0
 70
     0
 40
1.0
  2
製図欄2
  1
Embedded Object
 10
145.4999999999998
 20
14.49999999999981
 30
0.0
 40
1.199999973177909
 41
0.0
 46
0.0
 71
     5
 72
     5
  1

  7
文字スタイル228
 73
     1
 44
1.5
  0
XRECORD
  5
939
102
{ACAD_REACTORS
330
938
102
}
330
938
100
AcDbXrecord
280
     1
102
ACAD_MATT_HEIGHT
140
1.199999973177909
  0
XRECORD
  5
93D
102
{ACAD_REACTORS
330
93B
102
}
330
93B
100
AcDbXrecord
280
     1
 70
     2
 70
     0
 70
     0
 40
1.0
  2
製図者
  1
Embedded Object
 10
145.4999999999998
 20
12.49999999999982
 30
0.0
 40
1.199999973177909
 41
0.0
 46
0.0
 71
     5
 72
     5
  1

  7
文字スタイル228
 73
     1
 44
1.5
  0
XRECORD
  5
93C
102
{ACAD_REACTORS
330
93B
102
}
330
93B
100
AcDbXrecord
280
     1
102
ACAD_MATT_HEIGHT
140
1.199999973177909
  0
XRECORD
  5
940
102
{ACAD_REACTORS
330
93E
102
}
330
93E
100
AcDbXrecord
280
     1
 70
     2
 70
     0
 70
     0
 40
1.0
  2
製図欄1
  1
Embedded Object
 10
145.4999999999998
 20
16.49999999999982
 30
0.0
 40
1.199999973177909
 41
0.0
 46
0.0
 71
     5
 72
     5
  1

  7
文字スタイル228
 73
     1
 44
1.5
  0
XRECORD
  5
93F
102
{ACAD_REACTORS
330
93E
102
}
330
93E
100
AcDbXrecord
280
     1
102
ACAD_MATT_HEIGHT
140
1.199999973177909
  0
XRECORD
  5
943
102
{ACAD_REACTORS
330
941
102
}
330
941
100
AcDbXrecord
280
     1
 70
     2
 70
     0
 70
     0
 40
1.0
  2
シートの数
  1
Embedded Object
 10
203.9999999999998
 20
6.499999999999812
 30
0.0
 40
1.500000059604644
 41
0.0
 46
0.0
 71
     5
 72
     5
  1
1 
  7
文字スタイル117
 73
     1
 44
1.5
  0
XRECORD
  5
942
102
{ACAD_REACTORS
330
941
102
}
330
941
100
AcDbXrecord
280
     1
102
ACAD_MATT_HEIGHT
140
1.500000059604644
  0
XRECORD
  5
946
102
{ACAD_REACTORS
330
944
102
}
330
944
100
AcDbXrecord
280
     1
 70
     2
 70
     0
 70
     0
 40
1.0
  2
シート番号
  1
Embedded Object
 10
201.7499999999998
 20
8.999999999999818
 30
0.0
 40
1.500000059604644
 41
0.0
 46
0.0
 71
     5
 72
     5
  1
1 
  7
文字スタイル117
 73
     1
 44
1.5
  0
XRECORD
  5
945
102
{ACAD_REACTORS
330
944
102
}
330
944
100
AcDbXrecord
280
     1
102
ACAD_MATT_HEIGHT
140
1.500000059604644
  0
LAYOUT
  5
76
102
{ACAD_REACTORS
330
6D
102
}
330
6D
100
AcDbPlotSettings
  1

  2

  4

  6

 40
0.0
 41
0.0
 42
0.0
 43
0.0
 44
0.0
 45
0.0
 46
0.0
 47
0.0
 48
0.0
 49
0.0
140
0.0
141
0.0
142
1.0
143
1.0
 70
   688
 72
     0
 73
     0
 74
     5
  7

 75
    16
147
1.0
 76
     0
 77
     2
 78
   300
148
0.0
149
0.0
100
AcDbLayout
  1
Layout1
 70
     1
 71
     1
 10
0.0
 20
0.0
 11
12.0
 21
9.0
 12
0.0
 22
0.0
 32
0.0
 14
0.0
 24
0.0
 34
0.0
 15
0.0
 25
0.0
 35
0.0
146
0.0
 13
0.0
 23
0.0
 33
0.0
 16
1.0
 26
0.0
 36
0.0
 17
0.0
 27
1.0
 37
0.0
 76
     0
330
73
  0
LAYOUT
  5
7E
102
{ACAD_REACTORS
330
6D
102
}
330
6D
100
AcDbPlotSettings
  1

  2

  4

  6

 40
0.0
 41
0.0
 42
0.0
 43
0.0
 44
0.0
 45
0.0
 46
0.0
 47
0.0
 48
0.0
 49
0.0
140
0.0
141
0.0
142
1.0
143
1.0
 70
   688
 72
     0
 73
     0
 74
     5
  7

 75
    16
147
1.0
 76
     0
 77
     2
 78
   300
148
0.0
149
0.0
100
AcDbLayout
  1
Layout2
 70
     1
 71
     2
 10
0.0
 20
0.0
 11
12.0
 21
9.0
 12
0.0
 22
0.0
 32
0.0
 14
0.0
 24
0.0
 34
0.0
 15
0.0
 25
0.0
 35
0.0
146
0.0
 13
0.0
 23
0.0
 33
0.0
 16
1.0
 26
0.0
 36
0.0
 17
0.0
 27
1.0
 37
0.0
 76
     0
330
7B
  0
LAYOUT
  5
7A
102
{ACAD_REACTORS
330
6D
102
}
330
6D
100
AcDbPlotSettings
  1

  2

  4

  6

 40
0.0
 41
0.0
 42
0.0
 43
0.0
 44
0.0
 45
0.0
 46
0.0
 47
0.0
 48
0.0
 49
0.0
140
0.0
141
0.0
142
1.0
143
1.0
 70
  1712
 72
     0
 73
     0
 74
     0
  7

 75
     0
147
1.0
 76
     0
 77
     2
 78
   300
148
0.0
149
0.0
100
AcDbLayout
  1
Model
 70
     1
 71
     0
 10
0.0
 20
0.0
 11
12.0
 21
9.0
 12
0.0
 22
0.0
 32
0.0
 14
0.0
 24
0.0
 34
0.0
 15
0.0
 25
0.0
 35
0.0
146
0.0
 13
0.0
 23
0.0
 33
0.0
 16
1.0
 26
0.0
 36
0.0
 17
0.0
 27
1.0
 37
0.0
 76
     0
330
77
  0
MATERIAL
  5
19
102
{ACAD_XDICTIONARY
360
1A
102
}
102
{ACAD_REACTORS
330
10
102
}
330
10
100
AcDbMaterial
  1
ByBlock
 72
     0
 43
0.0208333333333333
 43
0.0
 43
0.0
 43
0.0
 43
0.0
 43
0.0208333333333333
 43
0.0
 43
0.0
 43
0.0
 43
0.0
 43
1.0
 43
0.0
 43
0.0
 43
0.0
 43
0.0
 43
1.0
 77
     0
 47
0.0208333333333333
 47
0.0
 47
0.0
 47
0.0
 47
0.0
 47
0.0208333333333333
 47
0.0
 47
0.0
 47
0.0
 47
0.0
 47
1.0
 47
0.0
 47
0.0
 47
0.0
 47
0.0
 47
1.0
171
     0
 49
0.0208333333333333
 49
0.0
 49
0.0
 49
0.0
 49
0.0
 49
0.0208333333333333
 49
0.0
 49
0.0
 49
0.0
 49
0.0
 49
1.0
 49
0.0
 49
0.0
 49
0.0
 49
0.0
 49
1.0
175
     0
142
0.0208333333333333
142
0.0
142
0.0
142
0.0
142
0.0
142
0.0208333333333333
142
0.0
142
0.0
142
0.0
142
0.0
142
1.0
142
0.0
142
0.0
142
0.0
142
0.0
142
1.0
179
     0
144
0.0208333333333333
144
0.0
144
0.0
144
0.0
144
0.0
144
0.0208333333333333
144
0.0
144
0.0
144
0.0
144
0.0
144
1.0
144
0.0
144
0.0
144
0.0
144
0.0
144
1.0
147
0.0208333333333333
147
0.0
147
0.0
147
0.0
147
0.0
147
0.0208333333333333
147
0.0
147
0.0
147
0.0
147
0.0
147
1.0
147
0.0
147
0.0
147
0.0
147
0.0
147
1.0
  0
MATERIAL
  5
11
102
{ACAD_XDICTIONARY
360
12
102
}
102
{ACAD_REACTORS
330
10
102
}
330
10
100
AcDbMaterial
  1
ByLayer
 72
     0
 43
0.0208333333333333
 43
0.0
 43
0.0
 43
0.0
 43
0.0
 43
0.0208333333333333
 43
0.0
 43
0.0
 43
0.0
 43
0.0
 43
1.0
 43
0.0
 43
0.0
 43
0.0
 43
0.0
 43
1.0
 77
     0
 47
0.0208333333333333
 47
0.0
 47
0.0
 47
0.0
 47
0.0
 47
0.0208333333333333
 47
0.0
 47
0.0
 47
0.0
 47
0.0
 47
1.0
 47
0.0
 47
0.0
 47
0.0
 47
0.0
 47
1.0
171
     0
 49
0.0208333333333333
 49
0.0
 49
0.0
 49
0.0
 49
0.0
 49
0.0208333333333333
 49
0.0
 49
0.0
 49
0.0
 49
0.0
 49
1.0
 49
0.0
 49
0.0
 49
0.0
 49
0.0
 49
1.0
175
     0
142
0.0208333333333333
142
0.0
142
0.0
142
0.0
142
0.0
142
0.0208333333333333
142
0.0
142
0.0
142
0.0
142
0.0
142
1.0
142
0.0
142
0.0
142
0.0
142
0.0
142
1.0
179
     0
144
0.0208333333333333
144
0.0
144
0.0
144
0.0
144
0.0
144
0.0208333333333333
144
0.0
144
0.0
144
0.0
144
0.0
144
1.0
144
0.0
144
0.0
144
0.0
144
0.0
144
1.0
147
0.0208333333333333
147
0.0
147
0.0
147
0.0
147
0.0
147
0.0208333333333333
147
0.0
147
0.0
147
0.0
147
0.0
147
1.0
147
0.0
147
0.0
147
0.0
147
0.0
147
1.0
  0
MATERIAL
  5
21
102
{ACAD_XDICTIONARY
360
22
102
}
102
{ACAD_REACTORS
330
10
102
}
330
10
100
AcDbMaterial
  1
Global
 72
     0
 43
0.0208333333333333
 43
0.0
 43
0.0
 43
0.0
 43
0.0
 43
0.0208333333333333
 43
0.0
 43
0.0
 43
0.0
 43
0.0
 43
1.0
 43
0.0
 43
0.0
 43
0.0
 43
0.0
 43
1.0
 77
     0
 47
0.0208333333333333
 47
0.0
 47
0.0
 47
0.0
 47
0.0
 47
0.0208333333333333
 47
0.0
 47
0.0
 47
0.0
 47
0.0
 47
1.0
 47
0.0
 47
0.0
 47
0.0
 47
0.0
 47
1.0
171
     0
 49
0.0208333333333333
 49
0.0
 49
0.0
 49
0.0
 49
0.0
 49
0.0208333333333333
 49
0.0
 49
0.0
 49
0.0
 49
0.0
 49
1.0
 49
0.0
 49
0.0
 49
0.0
 49
0.0
 49
1.0
175
     0
142
0.0208333333333333
142
0.0
142
0.0
142
0.0
142
0.0
142
0.0208333333333333
142
0.0
142
0.0
142
0.0
142
0.0
142
1.0
142
0.0
142
0.0
142
0.0
142
0.0
142
1.0
179
     0
144
0.0208333333333333
144
0.0
144
0.0
144
0.0
144
0.0
144
0.0208333333333333
144
0.0
144
0.0
144
0.0
144
0.0
144
1.0
144
0.0
144
0.0
144
0.0
144
0.0
144
1.0
147
0.0208333333333333
147
0.0
147
0.0
147
0.0
147
0.0
147
0.0208333333333333
147
0.0
147
0.0
147
0.0
147
0.0
147
1.0
147
0.0
147
0.0
147
0.0
147
0.0
147
1.0
  0
MLEADERSTYLE
  5
72
102
{ACAD_REACTORS
330
71
102
}
330
71
100
AcDbMLeaderStyle
179
     2
170
     2
171
     1
172
     0
 90
        2
 40
0.0
 41
0.0
173
     1
 91
-1056964608
340
66
 92
       -2
290
     1
 42
0.09
291
     1
 43
0.36
  3
Standard
 44
0.18
300

342
60
174
     1
178
     6
175
     1
176
     0
 93
-1056964608
 45
0.18
292
     0
297
     0
 46
0.18
 94
-1056964608
 47
1.0
 49
1.0
140
1.0
293
     1
141
0.0
294
     1
177
     0
142
1.0
295
     1
296
     0
143
0.125
271
     0
272
     9
273
     9
  0
MLINESTYLE
  5
6B
102
{ACAD_REACTORS
330
6A
102
}
330
6A
100
AcDbMlineStyle
  2
STANDARD
 70
     0
  3

 62
   256
 51
90.0
 52
90.0
 71
     2
 49
0.5
 62
   256
  6
BYLAYER
 49
-0.5
 62
   256
  6
BYLAYER
  0
ACDBPLACEHOLDER
  5
F
102
{ACAD_REACTORS
330
E
102
}
330
E
  0
SCALE
  5
3E
102
{ACAD_REACTORS
330
3D
102
}
330
3D
100
AcDbScale
 70
     0
300
1:1
140
1.0
141
1.0
290
     1
  0
SCALE
  5
3F
102
{ACAD_REACTORS
330
3D
102
}
330
3D
100
AcDbScale
 70
     0
300
1:2
140
1.0
141
2.0
290
     0
  0
SCALE
  5
40
102
{ACAD_REACTORS
330
3D
102
}
330
3D
100
AcDbScale
 70
     0
300
1:4
140
1.0
141
4.0
290
     0
  0
SCALE
  5
41
102
{ACAD_REACTORS
330
3D
102
}
330
3D
100
AcDbScale
 70
     0
300
1:5
140
1.0
141
5.0
290
     0
  0
SCALE
  5
42
102
{ACAD_REACTORS
330
3D
102
}
330
3D
100
AcDbScale
 70
     0
300
1:8
140
1.0
141
8.0
290
     0
  0
SCALE
  5
43
102
{ACAD_REACTORS
330
3D
102
}
330
3D
100
AcDbScale
 70
     0
300
1:10
140
1.0
141
10.0
290
     0
  0
SCALE
  5
44
102
{ACAD_REACTORS
330
3D
102
}
330
3D
100
AcDbScale
 70
     0
300
1:16
140
1.0
141
16.0
290
     0
  0
SCALE
  5
45
102
{ACAD_REACTORS
330
3D
102
}
330
3D
100
AcDbScale
 70
     0
300
1:20
140
1.0
141
20.0
290
     0
  0
SCALE
  5
46
102
{ACAD_REACTORS
330
3D
102
}
330
3D
100
AcDbScale
 70
     0
300
1:30
140
1.0
141
30.0
290
     0
  0
SCALE
  5
47
102
{ACAD_REACTORS
330
3D
102
}
330
3D
100
AcDbScale
 70
     0
300
1:40
140
1.0
141
40.0
290
     0
  0
SCALE
  5
48
102
{ACAD_REACTORS
330
3D
102
}
330
3D
100
AcDbScale
 70
     0
300
1:50
140
1.0
141
50.0
290
     0
  0
SCALE
  5
49
102
{ACAD_REACTORS
330
3D
102
}
330
3D
100
AcDbScale
 70
     0
300
1:100
140
1.0
141
100.0
290
     0
  0
SCALE
  5
4A
102
{ACAD_REACTORS
330
3D
102
}
330
3D
100
AcDbScale
 70
     0
300
2:1
140
2.0
141
1.0
290
     0
  0
SCALE
  5
4B
102
{ACAD_REACTORS
330
3D
102
}
330
3D
100
AcDbScale
 70
     0
300
4:1
140
4.0
141
1.0
290
     0
  0
SCALE
  5
4C
102
{ACAD_REACTORS
330
3D
102
}
330
3D
100
AcDbScale
 70
     0
300
8:1
140
8.0
141
1.0
290
     0
  0
SCALE
  5
4D
102
{ACAD_REACTORS
330
3D
102
}
330
3D
100
AcDbScale
 70
     0
300
10:1
140
10.0
141
1.0
290
     0
  0
SCALE
  5
4E
102
{ACAD_REACTORS
330
3D
102
}
330
3D
100
AcDbScale
 70
     0
300
100:1
140
100.0
141
1.0
290
     0
  0
SCALE
  5
4F
102
{ACAD_REACTORS
330
3D
102
}
330
3D
100
AcDbScale
 70
     0
300
1/128" = 1'-0"
140
0.0078125
141
12.0
290
     0
  0
SCALE
  5
50
102
{ACAD_REACTORS
330
3D
102
}
330
3D
100
AcDbScale
 70
     0
300
1/64" = 1'-0"
140
0.015625
141
12.0
290
     0
  0
SCALE
  5
51
102
{ACAD_REACTORS
330
3D
102
}
330
3D
100
AcDbScale
 70
     0
300
1/32" = 1'-0"
140
0.03125
141
12.0
290
     0
  0
SCALE
  5
52
102
{ACAD_REACTORS
330
3D
102
}
330
3D
100
AcDbScale
 70
     0
300
1/16" = 1'-0"
140
0.0625
141
12.0
290
     0
  0
SCALE
  5
53
102
{ACAD_REACTORS
330
3D
102
}
330
3D
100
AcDbScale
 70
     0
300
3/32" = 1'-0"
140
0.09375
141
12.0
290
     0
  0
SCALE
  5
54
102
{ACAD_REACTORS
330
3D
102
}
330
3D
100
AcDbScale
 70
     0
300
1/8" = 1'-0"
140
0.125
141
12.0
290
     0
  0
SCALE
  5
55
102
{ACAD_REACTORS
330
3D
102
}
330
3D
100
AcDbScale
 70
     0
300
3/16" = 1'-0"
140
0.1875
141
12.0
290
     0
  0
SCALE
  5
56
102
{ACAD_REACTORS
330
3D
102
}
330
3D
100
AcDbScale
 70
     0
300
1/4" = 1'-0"
140
0.25
141
12.0
290
     0
  0
SCALE
  5
57
102
{ACAD_REACTORS
330
3D
102
}
330
3D
100
AcDbScale
 70
     0
300
3/8" = 1'-0"
140
0.375
141
12.0
290
     0
  0
SCALE
  5
58
102
{ACAD_REACTORS
330
3D
102
}
330
3D
100
AcDbScale
 70
     0
300
1/2" = 1'-0"
140
0.5
141
12.0
290
     0
  0
SCALE
  5
59
102
{ACAD_REACTORS
330
3D
102
}
330
3D
100
AcDbScale
 70
     0
300
3/4" = 1'-0"
140
0.75
141
12.0
290
     0
  0
SCALE
  5
5A
102
{ACAD_REACTORS
330
3D
102
}
330
3D
100
AcDbScale
 70
     0
300
1" = 1'-0"
140
1.0
141
12.0
290
     0
  0
SCALE
  5
5B
102
{ACAD_REACTORS
330
3D
102
}
330
3D
100
AcDbScale
 70
     0
300
1-1/2" = 1'-0"
140
1.5
141
12.0
290
     0
  0
SCALE
  5
5C
102
{ACAD_REACTORS
330
3D
102
}
330
3D
100
AcDbScale
 70
     0
300
3" = 1'-0"
140
3.0
141
12.0
290
     0
  0
SCALE
  5
5D
102
{ACAD_REACTORS
330
3D
102
}
330
3D
100
AcDbScale
 70
     0
300
6" = 1'-0"
140
6.0
141
12.0
290
     0
  0
SCALE
  5
5E
102
{ACAD_REACTORS
330
3D
102
}
330
3D
100
AcDbScale
 70
     0
300
1'-0" = 1'-0"
140
12.0
141
12.0
290
     0
  0
TABLESTYLE
  5
70
102
{ACAD_XDICTIONARY
360
89D
102
}
102
{ACAD_REACTORS
330
6F
102
}
330
6F
100
AcDbTableStyle
280
     0
  3
Standard
 70
     0
 71
     0
 40
0.06
 41
0.06
280
     0
281
     0
  7
Standard
140
0.18
170
     2
 62
     0
 63
     7
283
     0
 90
      512
 91
        0
  1

274
    -2
284
     1
 64
     0
275
    -2
285
     1
 65
     0
276
    -2
286
     1
 66
     0
277
    -2
287
     1
 67
     0
278
    -2
288
     1
 68
     0
279
    -2
289
     1
 69
     0
  7
Standard
140
0.25
170
     5
 62
     0
 63
     7
283
     0
 90
      512
 91
        0
  1

274
    -2
284
     1
 64
     0
275
    -2
285
     1
 65
     0
276
    -2
286
     1
 66
     0
277
    -2
287
     1
 67
     0
278
    -2
288
     1
 68
     0
279
    -2
289
     1
 69
     0
  7
Standard
140
0.18
170
     5
 62
     0
 63
     7
283
     0
 90
      512
 91
        0
  1

274
    -2
284
     1
 64
     0
275
    -2
285
     1
 65
     0
276
    -2
286
     1
 66
     0
277
    -2
287
     1
 67
     0
278
    -2
288
     1
 68
     0
279
    -2
289
     1
 69
     0
  0
VISUALSTYLE
  5
2F
102
{ACAD_REACTORS
330
29
102
}
330
29
100
AcDbVisualStyle
  2
2dWireframe
 70
     4
177
     2
291
     0
 71
     0
176
     1
 72
     2
176
     1
 73
     0
176
     1
 90
        0
176
     1
 40
0.6
176
     1
 41
30.0
176
     1
 63
     7
421
 16777215
176
     1
 74
     1
176
     1
 91
        4
176
     1
 64
     7
176
     1
 65
   257
176
     1
 75
     1
176
     1
175
     1
176
     1
 42
1.0
176
     1
 92
        0
176
     1
 66
   257
176
     1
 43
1.0
176
     1
 76
     1
176
     1
 77
     6
176
     1
 78
     2
176
     1
 67
     7
176
     1
 79
     5
176
     1
170
     0
176
     1
171
     0
176
     1
290
     0
176
     1
 93
        1
176
     1
 44
0.0
176
     1
173
     0
176
     1
  0
VISUALSTYLE
  5
31
102
{ACAD_REACTORS
330
29
102
}
330
29
100
AcDbVisualStyle
  2
3D Hidden
 70
     6
177
     2
291
     0
 71
     1
176
     1
 72
     2
176
     1
 73
     2
176
     1
 90
        0
176
     1
 40
0.6
176
     1
 41
30.0
176
     1
 63
     7
421
 16777215
176
     1
 74
     2
176
     1
 91
        2
176
     1
 64
     7
176
     1
 65
   257
176
     1
 75
     2
176
     1
175
     1
176
     1
 42
179.0
176
     1
 92
        0
176
     1
 66
   257
176
     1
 43
1.0
176
     1
 76
     1
176
     1
 77
     6
176
     1
 78
     2
176
     1
 67
     7
176
     1
 79
     3
176
     1
170
     0
176
     1
171
     0
176
     1
290
     0
176
     1
 93
        1
176
     1
 44
0.0
176
     1
173
     0
176
     1
  0
VISUALSTYLE
  5
30
102
{ACAD_REACTORS
330
29
102
}
330
29
100
AcDbVisualStyle
  2
3dWireframe
 70
     5
177
     2
291
     0
 71
     0
176
     1
 72
     2
176
     1
 73
     0
176
     1
 90
        0
176
     1
 40
0.6
176
     1
 41
30.0
176
     1
 63
     7
421
 16777215
176
     1
 74
     1
176
     1
 91
        4
176
     1
 64
     7
176
     1
 65
   257
176
     1
 75
     1
176
     1
175
     1
176
     1
 42
1.0
176
     1
 92
        0
176
     1
 66
   257
176
     1
 43
1.0
176
     1
 76
     1
176
     1
 77
     6
176
     1
 78
     2
176
     1
 67
     7
176
     1
 79
     5
176
     1
170
     0
176
     1
171
     0
176
     1
290
     0
176
     1
 93
        1
176
     1
 44
0.0
176
     1
173
     0
176
     1
  0
VISUALSTYLE
  5
2E
102
{ACAD_REACTORS
330
29
102
}
330
29
100
AcDbVisualStyle
  2
Basic
 70
     7
177
     2
291
     1
 71
     1
176
     1
 72
     0
176
     1
 73
     1
176
     1
 90
        0
176
     1
 40
0.6
176
     1
 41
30.0
176
     1
 63
     7
421
 16777215
176
     1
 74
     0
176
     1
 91
        4
176
     1
 64
     7
176
     1
 65
   257
176
     1
 75
     1
176
     1
175
     1
176
     1
 42
1.0
176
     1
 92
        8
176
     1
 66
     7
176
     1
 43
1.0
176
     1
 76
     1
176
     1
 77
     6
176
     1
 78
     2
176
     1
 67
     7
176
     1
 79
     5
176
     1
170
     0
176
     1
171
     0
176
     1
290
     0
176
     1
 93
        1
176
     1
 44
0.0
176
     1
173
     0
176
     1
  0
VISUALSTYLE
  5
35
102
{ACAD_REACTORS
330
29
102
}
330
29
100
AcDbVisualStyle
  2
Brighten
 70
    12
177
     2
291
     1
 71
     2
176
     1
 72
     2
176
     1
 73
     0
176
     1
 90
        0
176
     1
 40
0.6
176
     1
 41
30.0
176
     1
 63
     7
421
 16777215
176
     1
 74
     1
176
     1
 91
        4
176
     1
 64
     7
176
     1
 65
   257
176
     1
 75
     1
176
     1
175
     1
176
     1
 42
1.0
176
     1
 92
        8
176
     1
 66
     7
176
     1
 43
1.0
176
     1
 76
     1
176
     1
 77
     6
176
     1
 78
     2
176
     1
 67
     7
176
     1
 79
     5
176
     1
170
     0
176
     1
171
     0
176
     1
290
     0
176
     1
 93
        1
176
     1
 44
50.0
176
     1
173
     0
176
     1
  0
VISUALSTYLE
  5
39
102
{ACAD_REACTORS
330
29
102
}
330
29
100
AcDbVisualStyle
  2
ColorChange
 70
    16
177
     2
291
     1
 71
     2
176
     1
 72
     2
176
     1
 73
     3
176
     1
 90
        0
176
     1
 40
0.6
176
     1
 41
30.0
176
     1
 63
     8
421
  8421504
176
     1
 74
     1
176
     1
 91
        4
176
     1
 64
     7
176
     1
 65
   257
176
     1
 75
     1
176
     1
175
     1
176
     1
 42
1.0
176
     1
 92
        8
176
     1
 66
     8
424
  8421504
176
     1
 43
1.0
176
     1
 76
     1
176
     1
 77
     6
176
     1
 78
     2
176
     1
 67
     7
176
     1
 79
     5
176
     1
170
     0
176
     1
171
     0
176
     1
290
     0
176
     1
 93
        1
176
     1
 44
0.0
176
     1
173
     0
176
     1
  0
VISUALSTYLE
  5
32
102
{ACAD_REACTORS
330
29
102
}
330
29
100
AcDbVisualStyle
  2
Conceptual
 70
     9
177
     2
291
     0
 71
     3
176
     1
 72
     2
176
     1
 73
     0
176
     1
 90
        0
176
     1
 40
0.6
176
     1
 41
30.0
176
     1
 63
     7
421
 16777215
176
     1
 74
     2
176
     1
 91
        2
176
     1
 64
     7
176
     1
 65
   257
176
     1
 75
     1
176
     1
175
     1
176
     1
 42
179.0
176
     1
 92
        8
176
     1
 66
     7
176
     1
 43
1.0
176
     1
 76
     1
176
     1
 77
     6
176
     1
 78
     2
176
     1
 67
     7
176
     1
 79
     3
176
     1
170
     0
176
     1
171
     0
176
     1
290
     0
176
     1
 93
        1
176
     1
 44
0.0
176
     1
173
     0
176
     1
  0
VISUALSTYLE
  5
34
102
{ACAD_REACTORS
330
29
102
}
330
29
100
AcDbVisualStyle
  2
Dim
 70
    11
177
     2
291
     1
 71
     2
176
     1
 72
     2
176
     1
 73
     0
176
     1
 90
        0
176
     1
 40
0.6
176
     1
 41
30.0
176
     1
 63
     7
421
 16777215
176
     1
 74
     1
176
     1
 91
        4
176
     1
 64
     7
176
     1
 65
   257
176
     1
 75
     1
176
     1
175
     1
176
     1
 42
1.0
176
     1
 92
        8
176
     1
 66
     7
176
     1
 43
1.0
176
     1
 76
     1
176
     1
 77
     6
176
     1
 78
     2
176
     1
 67
     7
176
     1
 79
     5
176
     1
170
     0
176
     1
171
     0
176
     1
290
     0
176
     1
 93
        1
176
     1
 44
-50.0
176
     1
173
     0
176
     1
  0
VISUALSTYLE
  5
3C
102
{ACAD_REACTORS
330
29
102
}
330
29
100
AcDbVisualStyle
  2
EdgeColorOff
 70
    22
177
     2
291
     1
 71
     2
176
     0
 72
     2
176
     0
 73
     0
176
     0
 90
        0
176
     0
 40
0.6
176
     0
 41
30.0
176
     0
 63
     7
421
 16777215
176
     0
 74
     1
176
     0
 91
        4
176
     0
 64
     7
176
     0
 65
   257
176
     0
 75
     1
176
     0
175
     1
176
     0
 42
1.0
176
     0
 92
        8
176
     2
 66
     7
176
     0
 43
1.0
176
     0
 76
     1
176
     0
 77
     6
176
     0
 78
     2
176
     0
 67
     7
176
     0
 79
     5
176
     0
170
     0
176
     0
171
     0
176
     0
290
     0
176
     0
 93
        1
176
     0
 44
0.0
176
     0
173
     0
176
     0
  0
VISUALSTYLE
  5
38
102
{ACAD_REACTORS
330
29
102
}
330
29
100
AcDbVisualStyle
  2
Facepattern
 70
    15
177
     2
291
     1
 71
     2
176
     1
 72
     2
176
     1
 73
     0
176
     1
 90
        0
176
     1
 40
0.6
176
     1
 41
30.0
176
     1
 63
     7
421
 16777215
176
     1
 74
     1
176
     1
 91
        4
176
     1
 64
     7
176
     1
 65
   257
176
     1
 75
     1
176
     1
175
     1
176
     1
 42
1.0
176
     1
 92
        8
176
     1
 66
     7
176
     1
 43
1.0
176
     1
 76
     1
176
     1
 77
     6
176
     1
 78
     2
176
     1
 67
     7
176
     1
 79
     5
176
     1
170
     0
176
     1
171
     0
176
     1
290
     0
176
     1
 93
        1
176
     1
 44
0.0
176
     1
173
     0
176
     1
  0
VISUALSTYLE
  5
2A
102
{ACAD_REACTORS
330
29
102
}
330
29
100
AcDbVisualStyle
  2
Flat
 70
     0
177
     2
291
     1
 71
     2
176
     1
 72
     1
176
     1
 73
     1
176
     1
 90
        2
176
     1
 40
0.6
176
     1
 41
30.0
176
     1
 63
     7
421
 16777215
176
     1
 74
     0
176
     1
 91
        4
176
     1
 64
     7
176
     1
 65
   257
176
     1
 75
     1
176
     1
175
     1
176
     1
 42
1.0
176
     1
 92
        8
176
     1
 66
     7
176
     1
 43
1.0
176
     1
 76
     1
176
     1
 77
     6
176
     1
 78
     2
176
     1
 67
     7
176
     1
 79
     5
176
     1
170
     0
176
     1
171
     0
176
     1
290
     0
176
     1
 93
       13
176
     1
 44
0.0
176
     1
173
     0
176
     1
  0
VISUALSTYLE
  5
2B
102
{ACAD_REACTORS
330
29
102
}
330
29
100
AcDbVisualStyle
  2
FlatWithEdges
 70
     1
177
     2
291
     1
 71
     2
176
     1
 72
     1
176
     1
 73
     1
176
     1
 90
        2
176
     1
 40
0.6
176
     1
 41
30.0
176
     1
 63
     7
421
 16777215
176
     1
 74
     1
176
     1
 91
        4
176
     1
 64
     7
176
     1
 65
   257
176
     1
 75
     1
176
     1
175
     1
176
     1
 42
1.0
176
     1
 92
        0
176
     1
 66
   257
176
     1
 43
1.0
176
     1
 76
     1
176
     1
 77
     6
176
     1
 78
     2
176
     1
 67
     7
176
     1
 79
     5
176
     1
170
     0
176
     1
171
     0
176
     1
290
     0
176
     1
 93
       13
176
     1
 44
0.0
176
     1
173
     0
176
     1
  0
VISUALSTYLE
  5
2C
102
{ACAD_REACTORS
330
29
102
}
330
29
100
AcDbVisualStyle
  2
Gouraud
 70
     2
177
     2
291
     1
 71
     2
176
     1
 72
     2
176
     1
 73
     1
176
     1
 90
        2
176
     1
 40
0.6
176
     1
 41
30.0
176
     1
 63
     7
421
 16777215
176
     1
 74
     0
176
     1
 91
        4
176
     1
 64
     7
176
     1
 65
   257
176
     1
 75
     1
176
     1
175
     1
176
     1
 42
1.0
176
     1
 92
        0
176
     1
 66
     7
176
     1
 43
1.0
176
     1
 76
     1
176
     1
 77
     6
176
     1
 78
     2
176
     1
 67
     7
176
     1
 79
     5
176
     1
170
     0
176
     1
171
     0
176
     1
290
     0
176
     1
 93
       13
176
     1
 44
0.0
176
     1
173
     0
176
     1
  0
VISUALSTYLE
  5
2D
102
{ACAD_REACTORS
330
29
102
}
330
29
100
AcDbVisualStyle
  2
GouraudWithEdges
 70
     3
177
     2
291
     1
 71
     2
176
     1
 72
     2
176
     1
 73
     1
176
     1
 90
        2
176
     1
 40
0.6
176
     1
 41
30.0
176
     1
 63
     7
421
 16777215
176
     1
 74
     1
176
     1
 91
        4
176
     1
 64
     7
176
     1
 65
   257
176
     1
 75
     1
176
     1
175
     1
176
     1
 42
1.0
176
     1
 92
        0
176
     1
 66
   257
176
     1
 43
1.0
176
     1
 76
     1
176
     1
 77
     6
176
     1
 78
     2
176
     1
 67
     7
176
     1
 79
     5
176
     1
170
     0
176
     1
171
     0
176
     1
290
     0
176
     1
 93
       13
176
     1
 44
0.0
176
     1
173
     0
176
     1
  0
VISUALSTYLE
  5
3A
102
{ACAD_REACTORS
330
29
102
}
330
29
100
AcDbVisualStyle
  2
JitterOff
 70
    20
177
     2
291
     1
 71
     2
176
     0
 72
     2
176
     0
 73
     0
176
     0
 90
        0
176
     0
 40
0.6
176
     0
 41
30.0
176
     0
 63
     7
421
 16777215
176
     0
 74
     1
176
     0
 91
        4
176
     0
 64
     7
176
     0
 65
   257
176
     0
 75
     1
176
     0
175
     1
176
     0
 42
1.0
176
     0
 92
       10
176
     2
 66
     7
176
     0
 43
1.0
176
     0
 76
     1
176
     0
 77
     6
176
     0
 78
     2
176
     0
 67
     7
176
     0
 79
     5
176
     0
170
     0
176
     0
171
     0
176
     0
290
     0
176
     0
 93
        1
176
     0
 44
0.0
176
     0
173
     0
176
     0
  0
VISUALSTYLE
  5
37
102
{ACAD_REACTORS
330
29
102
}
330
29
100
AcDbVisualStyle
  2
Linepattern
 70
    14
177
     2
291
     1
 71
     2
176
     1
 72
     2
176
     1
 73
     0
176
     1
 90
        0
176
     1
 40
0.6
176
     1
 41
30.0
176
     1
 63
     7
421
 16777215
176
     1
 74
     1
176
     1
 91
        4
176
     1
 64
     7
176
     1
 65
   257
176
     1
 75
     7
176
     1
175
     7
176
     1
 42
1.0
176
     1
 92
        8
176
     1
 66
     7
176
     1
 43
1.0
176
     1
 76
     1
176
     1
 77
     6
176
     1
 78
     2
176
     1
 67
     7
176
     1
 79
     5
176
     1
170
     0
176
     1
171
     0
176
     1
290
     0
176
     1
 93
        1
176
     1
 44
0.0
176
     1
173
     0
176
     1
  0
VISUALSTYLE
  5
3B
102
{ACAD_REACTORS
330
29
102
}
330
29
100
AcDbVisualStyle
  2
OverhangOff
 70
    21
177
     2
291
     1
 71
     2
176
     0
 72
     2
176
     0
 73
     0
176
     0
 90
        0
176
     0
 40
0.6
176
     0
 41
30.0
176
     0
 63
     7
421
 16777215
176
     0
 74
     1
176
     0
 91
        4
176
     0
 64
     7
176
     0
 65
   257
176
     0
 75
     1
176
     0
175
     1
176
     0
 42
1.0
176
     0
 92
        9
176
     2
 66
     7
176
     0
 43
1.0
176
     0
 76
     1
176
     0
 77
     6
176
     0
 78
     2
176
     0
 67
     7
176
     0
 79
     5
176
     0
170
     0
176
     0
171
     0
176
     0
290
     0
176
     0
 93
        1
176
     0
 44
0.0
176
     0
173
     0
176
     0
  0
VISUALSTYLE
  5
33
102
{ACAD_REACTORS
330
29
102
}
330
29
100
AcDbVisualStyle
  2
Realistic
 70
     8
177
     2
291
     0
 71
     2
176
     1
 72
     2
176
     1
 73
     0
176
     1
 90
        0
176
     1
 40
0.6
176
     1
 41
30.0
176
     1
 63
     7
421
 16777215
176
     1
 74
     1
176
     1
 91
        0
176
     1
 64
     7
176
     1
 65
   257
176
     1
 75
     1
176
     1
175
     1
176
     1
 42
1.0
176
     1
 92
        8
176
     1
 66
     8
424
  7895160
176
     1
 43
1.0
176
     1
 76
     1
176
     1
 77
     6
176
     1
 78
     2
176
     1
 67
     7
176
     1
 79
     5
176
     1
170
     0
176
     1
171
     0
176
     1
290
     0
176
     1
 93
       13
176
     1
 44
0.0
176
     1
173
     0
176
     1
  0
VISUALSTYLE
  5
36
102
{ACAD_REACTORS
330
29
102
}
330
29
100
AcDbVisualStyle
  2
Thicken
 70
    13
177
     2
291
     1
 71
     2
176
     1
 72
     2
176
     1
 73
     0
176
     1
 90
        0
176
     1
 40
0.6
176
     1
 41
30.0
176
     1
 63
     7
421
 16777215
176
     1
 74
     1
176
     1
 91
        4
176
     1
 64
     7
176
     1
 65
   257
176
     1
 75
     1
176
     1
175
     1
176
     1
 42
1.0
176
     1
 92
       12
176
     1
 66
     7
176
     1
 43
1.0
176
     1
 76
     1
176
     1
 77
     6
176
     1
 78
     2
176
     1
 67
     7
176
     1
 79
     5
176
     1
170
     0
176
     1
171
     0
176
     1
290
     0
176
     1
 93
        1
176
     1
 44
0.0
176
     1
173
     0
176
     1
  0
DICTIONARYVAR
  5
89C
102
{ACAD_REACTORS
330
899
102
}
330
899
100
DictionaryVariables
280
     0
  1
1:1
  0
DICTIONARYVAR
  5
89B
102
{ACAD_REACTORS
330
899
102
}
330
899
100
DictionaryVariables
280
     0
  1
STANDARD
  0
DICTIONARYVAR
  5
89A
102
{ACAD_REACTORS
330
899
102
}
330
899
100
DictionaryVariables
280
     0
  1
STANDARD
  0
DICTIONARY
  5
1A
330
19
100
AcDbDictionary
280
     1
281
     1
  3
BUMPTILE
360
1C
  3
DIFFUSETILE
360
1B
  3
OPACITYTILE
360
1F
  3
REFLECTIONTILE
360
1E
  3
REFRACTIONTILE
360
20
  3
SPECULARTILE
360
1D
  0
DICTIONARY
  5
12
330
11
100
AcDbDictionary
280
     1
281
     1
  3
BUMPTILE
360
14
  3
DIFFUSETILE
360
13
  3
OPACITYTILE
360
17
  3
REFLECTIONTILE
360
16
  3
REFRACTIONTILE
360
18
  3
SPECULARTILE
360
15
  0
DICTIONARY
  5
22
330
21
100
AcDbDictionary
280
     1
281
     1
  3
BUMPTILE
360
24
  3
DIFFUSETILE
360
23
  3
OPACITYTILE
360
27
  3
REFLECTIONTILE
360
26
  3
REFRACTIONTILE
360
28
  3
SPECULARTILE
360
25
  0
DICTIONARY
  5
89D
330
70
100
AcDbDictionary
280
     1
281
     1
  3
ACAD_ROUNDTRIP_2008_TABLESTYLE_CELLSTYLEMAP
360
89E
  0
XRECORD
  5
1C
102
{ACAD_REACTORS
330
1A
102
}
330
1A
100
AcDbXrecord
280
     1
270
     1
271
     1
  0
XRECORD
  5
1B
102
{ACAD_REACTORS
330
1A
102
}
330
1A
100
AcDbXrecord
280
     1
270
     1
271
     1
  0
XRECORD
  5
1F
102
{ACAD_REACTORS
330
1A
102
}
330
1A
100
AcDbXrecord
280
     1
270
     1
271
     1
  0
XRECORD
  5
1E
102
{ACAD_REACTORS
330
1A
102
}
330
1A
100
AcDbXrecord
280
     1
270
     1
271
     1
  0
XRECORD
  5
20
102
{ACAD_REACTORS
330
1A
102
}
330
1A
100
AcDbXrecord
280
     1
270
     1
271
     1
  0
XRECORD
  5
1D
102
{ACAD_REACTORS
330
1A
102
}
330
1A
100
AcDbXrecord
280
     1
270
     1
271
     1
  0
XRECORD
  5
14
102
{ACAD_REACTORS
330
12
102
}
330
12
100
AcDbXrecord
280
     1
270
     1
271
     1
  0
XRECORD
  5
13
102
{ACAD_REACTORS
330
12
102
}
330
12
100
AcDbXrecord
280
     1
270
     1
271
     1
  0
XRECORD
  5
17
102
{ACAD_REACTORS
330
12
102
}
330
12
100
AcDbXrecord
280
     1
270
     1
271
     1
  0
XRECORD
  5
16
102
{ACAD_REACTORS
330
12
102
}
330
12
100
AcDbXrecord
280
     1
270
     1
271
     1
  0
XRECORD
  5
18
102
{ACAD_REACTORS
330
12
102
}
330
12
100
AcDbXrecord
280
     1
270
     1
271
     1
  0
XRECORD
  5
15
102
{ACAD_REACTORS
330
12
102
}
330
12
100
AcDbXrecord
280
     1
270
     1
271
     1
  0
XRECORD
  5
24
102
{ACAD_REACTORS
330
22
102
}
330
22
100
AcDbXrecord
280
     1
270
     1
271
     1
  0
XRECORD
  5
23
102
{ACAD_REACTORS
330
22
102
}
330
22
100
AcDbXrecord
280
     1
270
     1
271
     1
  0
XRECORD
  5
27
102
{ACAD_REACTORS
330
22
102
}
330
22
100
AcDbXrecord
280
     1
270
     1
271
     1
  0
XRECORD
  5
26
102
{ACAD_REACTORS
330
22
102
}
330
22
100
AcDbXrecord
280
     1
270
     1
271
     1
  0
XRECORD
  5
28
102
{ACAD_REACTORS
330
22
102
}
330
22
100
AcDbXrecord
280
     1
270
     1
271
     1
  0
XRECORD
  5
25
102
{ACAD_REACTORS
330
22
102
}
330
22
100
AcDbXrecord
280
     1
270
     1
271
     1
  0
CELLSTYLEMAP
  5
89E
102
{ACAD_REACTORS
330
89D
102
}
330
89D
100
AcDbCellStyleMap
 90
        3
300
CELLSTYLE
  1
TABLEFORMAT_BEGIN
 90
        5
170
     1
 91
        0
 92
    32768
 62
   257
 93
        1
300
CONTENTFORMAT
  1
CONTENTFORMAT_BEGIN
 90
        0
 91
        0
 92
      512
 93
        0
300

 40
0.0
140
1.0
 94
        5
 62
     0
340
60
144
0.25
309
CONTENTFORMAT_END
171
     0
 94
        0
309
TABLEFORMAT_END
  1
CELLSTYLE_BEGIN
 90
        1
 91
        1
300
_TITLE
309
CELLSTYLE_END
300
CELLSTYLE
  1
TABLEFORMAT_BEGIN
 90
        5
170
     1
 91
        0
 92
        0
 62
   257
 93
        1
300
CONTENTFORMAT
  1
CONTENTFORMAT_BEGIN
 90
        0
 91
        0
 92
      512
 93
        0
300

 40
0.0
140
1.0
 94
        5
 62
     0
340
60
144
0.18
309
CONTENTFORMAT_END
171
     0
 94
        0
309
TABLEFORMAT_END
  1
CELLSTYLE_BEGIN
 90
        2
 91
        1
300
_HEADER
309
CELLSTYLE_END
300
CELLSTYLE
  1
TABLEFORMAT_BEGIN
 90
        5
170
     1
 91
        0
 92
        0
 62
   257
 93
        1
300
CONTENTFORMAT
  1
CONTENTFORMAT_BEGIN
 90
        0
 91
        0
 92
      512
 93
        0
300

 40
0.0
140
1.0
 94
        2
 62
     0
340
60
144
0.18
309
CONTENTFORMAT_END
171
     0
 94
        0
309
TABLEFORMAT_END
  1
CELLSTYLE_BEGIN
 90
        3
 91
        2
300
_DATA
309
CELLSTYLE_END
  0
ENDSEC
  0
EOF
