  0
SECTION
  2
HEADER
  9
$ACADVER
  1
AC1015
  9
$ACADMAINTVER
 70
    18
  9
$DWGCODEPAGE
  3
ANSI_932
  9
$INSBASE
 10
0.0
 20
0.0
 30
0.0
  9
$EXTMIN
 10
0.0
 20
0.0
 30
0.0
  9
$EXTMAX
 10
840.0
 20
594.0
 30
0.0
  9
$LIMMIN
 10
0.0
 20
0.0
  9
$LIMMAX
 10
840.0
 20
594.0
  9
$ORTHOMODE
 70
     0
  9
$REGENMODE
 70
     1
  9
$FILLMODE
 70
     1
  9
$QTEXTMODE
 70
     0
  9
$MIRRTEXT
 70
     0
  9
$LTSCALE
 40
2.0
  9
$ATTMODE
 70
     1
  9
$TEXTSIZE
 40
0.2
  9
$TRACEWID
 40
0.05
  9
$TEXTSTYLE
  7
Standard
  9
$CLAYER
  8
0
  9
$CELTYPE
  6
ByLayer
  9
$CECOLOR
 62
   256
  9
$CELTSCALE
 40
1.0
  9
$DISPSILH
 70
     0
  9
$DIMSCALE
 40
1.0
  9
$DIMASZ
 40
1.799999999999999
  9
$DIMEXO
 40
0.0625
  9
$DIMDLI
 40
0.38
  9
$DIMRND
 40
0.0
  9
$DIMDLE
 40
0.0
  9
$DIMEXE
 40
0.18
  9
$DIMTP
 40
0.0
  9
$DIMTM
 40
0.0
  9
$DIMTXT
 40
0.4000000059604645
  9
$DIMCEN
 40
0.09
  9
$DIMTSZ
 40
0.0
  9
$DIMTOL
 70
     0
  9
$DIMLIM
 70
     0
  9
$DIMTIH
 70
     1
  9
$DIMTOH
 70
     1
  9
$DIMSE1
 70
     0
  9
$DIMSE2
 70
     0
  9
$DIMTAD
 70
     0
  9
$DIMZIN
 70
     0
  9
$DIMBLK
  1

  9
$DIMASO
 70
     1
  9
$DIMSHO
 70
     1
  9
$DIMPOST
  1

  9
$DIMAPOST
  1

  9
$DIMALT
 70
     0
  9
$DIMALTD
 70
     2
  9
$DIMALTF
 40
25.4
  9
$DIMLFAC
 40
1.0
  9
$DIMTOFL
 70
     0
  9
$DIMTVP
 40
0.0
  9
$DIMTIX
 70
     0
  9
$DIMSOXD
 70
     0
  9
$DIMSAH
 70
     0
  9
$DIMBLK1
  1

  9
$DIMBLK2
  1

  9
$DIMSTYLE
  2
Standard
  9
$DIMCLRD
 70
     0
  9
$DIMCLRE
 70
     0
  9
$DIMCLRT
 70
     0
  9
$DIMTFAC
 40
1.0
  9
$DIMGAP
 40
0.09
  9
$DIMJUST
 70
     0
  9
$DIMSD1
 70
     0
  9
$DIMSD2
 70
     0
  9
$DIMTOLJ
 70
     1
  9
$DIMTZIN
 70
     0
  9
$DIMALTZ
 70
     0
  9
$DIMALTTZ
 70
     0
  9
$DIMUPT
 70
     0
  9
$DIMDEC
 70
     4
  9
$DIMTDEC
 70
     4
  9
$DIMALTU
 70
     2
  9
$DIMALTTD
 70
     2
  9
$DIMTXSTY
  7
Standard
  9
$DIMAUNIT
 70
     0
  9
$DIMADEC
 70
     0
  9
$DIMALTRND
 40
0.0
  9
$DIMAZIN
 70
     0
  9
$DIMDSEP
 70
    46
  9
$DIMATFIT
 70
     3
  9
$DIMFRAC
 70
     0
  9
$DIMLDRBLK
  1

  9
$DIMLUNIT
 70
     2
  9
$DIMLWD
 70
    -2
  9
$DIMLWE
 70
    -2
  9
$DIMTMOVE
 70
     0
  9
$LUNITS
 70
     2
  9
$LUPREC
 70
     4
  9
$SKETCHINC
 40
0.1
  9
$FILLETRAD
 40
0.0
  9
$AUNITS
 70
     0
  9
$AUPREC
 70
     0
  9
$MENU
  1
.
  9
$ELEVATION
 40
0.0
  9
$PELEVATION
 40
0.0
  9
$THICKNESS
 40
0.0
  9
$LIMCHECK
 70
     0
  9
$CHAMFERA
 40
0.0
  9
$CHAMFERB
 40
0.0
  9
$CHAMFERC
 40
0.0
  9
$CHAMFERD
 40
0.0
  9
$SKPOLY
 70
     0
  9
$TDCREATE
 40
2457715.410223936
  9
$TDUCREATE
 40
2457715.035223936
  9
$TDUPDATE
 40
2457715.410223936
  9
$TDUUPDATE
 40
2457715.035223936
  9
$TDINDWG
 40
0.0000904745
  9
$TDUSRTIMER
 40
0.0000904745
  9
$USRTIMER
 70
     1
  9
$ANGBASE
 50
0.0
  9
$ANGDIR
 70
     0
  9
$PDMODE
 70
     0
  9
$PDSIZE
 40
0.0
  9
$PLINEWID
 40
0.0
  9
$SPLFRAME
 70
     0
  9
$SPLINETYPE
 70
     6
  9
$SPLINESEGS
 70
     8
  9
$HANDSEED
  5
EDE
  9
$SURFTAB1
 70
     6
  9
$SURFTAB2
 70
     6
  9
$SURFTYPE
 70
     6
  9
$SURFU
 70
     6
  9
$SURFV
 70
     6
  9
$UCSBASE
  2

  9
$UCSNAME
  2

  9
$UCSORG
 10
0.0
 20
0.0
 30
0.0
  9
$UCSXDIR
 10
1.0
 20
0.0
 30
0.0
  9
$UCSYDIR
 10
0.0
 20
1.0
 30
0.0
  9
$UCSORTHOREF
  2

  9
$UCSORTHOVIEW
 70
     0
  9
$UCSORGTOP
 10
0.0
 20
0.0
 30
0.0
  9
$UCSORGBOTTOM
 10
0.0
 20
0.0
 30
0.0
  9
$UCSORGLEFT
 10
0.0
 20
0.0
 30
0.0
  9
$UCSORGRIGHT
 10
0.0
 20
0.0
 30
0.0
  9
$UCSORGFRONT
 10
0.0
 20
0.0
 30
0.0
  9
$UCSORGBACK
 10
0.0
 20
0.0
 30
0.0
  9
$PUCSBASE
  2

  9
$PUCSNAME
  2

  9
$PUCSORG
 10
0.0
 20
0.0
 30
0.0
  9
$PUCSXDIR
 10
1.0
 20
0.0
 30
0.0
  9
$PUCSYDIR
 10
0.0
 20
1.0
 30
0.0
  9
$PUCSORTHOREF
  2

  9
$PUCSORTHOVIEW
 70
     0
  9
$PUCSORGTOP
 10
0.0
 20
0.0
 30
0.0
  9
$PUCSORGBOTTOM
 10
0.0
 20
0.0
 30
0.0
  9
$PUCSORGLEFT
 10
0.0
 20
0.0
 30
0.0
  9
$PUCSORGRIGHT
 10
0.0
 20
0.0
 30
0.0
  9
$PUCSORGFRONT
 10
0.0
 20
0.0
 30
0.0
  9
$PUCSORGBACK
 10
0.0
 20
0.0
 30
0.0
  9
$USERI1
 70
     0
  9
$USERI2
 70
     0
  9
$USERI3
 70
     0
  9
$USERI4
 70
     0
  9
$USERI5
 70
     0
  9
$USERR1
 40
0.0
  9
$USERR2
 40
0.0
  9
$USERR3
 40
0.0
  9
$USERR4
 40
0.0
  9
$USERR5
 40
0.0
  9
$WORLDVIEW
 70
     1
  9
$SHADEDGE
 70
     3
  9
$SHADEDIF
 70
    70
  9
$TILEMODE
 70
     1
  9
$MAXACTVP
 70
    64
  9
$PINSBASE
 10
0.0
 20
0.0
 30
0.0
  9
$PLIMCHECK
 70
     0
  9
$PEXTMIN
 10
0.0
 20
0.0
 30
0.0
  9
$PEXTMAX
 10
840.0
 20
594.0
 30
0.0
  9
$PLIMMIN
 10
0.0
 20
0.0
  9
$PLIMMAX
 10
840.0
 20
594.0
  9
$UNITMODE
 70
     0
  9
$VISRETAIN
 70
     1
  9
$PLINEGEN
 70
     0
  9
$PSLTSCALE
 70
     1
  9
$TREEDEPTH
 70
  3020
  9
$CMLSTYLE
  2
Standard
  9
$CMLJUST
 70
     0
  9
$CMLSCALE
 40
1.0
  9
$PROXYGRAPHICS
 70
     1
  9
$MEASUREMENT
 70
     1
  9
$CELWEIGHT
370
    -1
  9
$ENDCAPS
280
     0
  9
$JOINSTYLE
280
     0
  9
$LWDISPLAY
290
     0
  9
$INSUNITS
 70
     4
  9
$HYPERLINKBASE
  1

  9
$STYLESHEET
  1

  9
$XEDIT
290
     1
  9
$CEPSNTYPE
380
     0
  9
$PSTYLEMODE
290
     1
  9
$FINGERPRINTGUID
  2
{127D676C-E595-4D90-8A44-12CD63026C4A}
  9
$VERSIONGUID
  2
{A49ACFC0-D589-45EF-91E9-D0A874D2B311}
  9
$EXTNAMES
290
     1
  9
$PSVPSCALE
 40
0.0
  9
$OLESTARTUP
290
     0
  0
ENDSEC
  0
SECTION
  2
CLASSES
  0
CLASS
  1
ACDBDICTIONARYWDFLT
  2
AcDbDictionaryWithDefault
  3
ObjectDBX Classes
 90
        0
280
     0
281
     0
  0
CLASS
  1
MATERIAL
  2
AcDbMaterial
  3
ObjectDBX Classes
 90
     1153
280
     0
281
     0
  0
CLASS
  1
VISUALSTYLE
  2
AcDbVisualStyle
  3
ObjectDBX Classes
 90
     4095
280
     0
281
     0
  0
CLASS
  1
SCALE
  2
AcDbScale
  3
ObjectDBX Classes
 90
     1153
280
     0
281
     0
  0
CLASS
  1
TABLESTYLE
  2
AcDbTableStyle
  3
ObjectDBX Classes
 90
     4095
280
     0
281
     0
  0
CLASS
  1
MLEADERSTYLE
  2
AcDbMLeaderStyle
  3
ACDB_MLEADERSTYLE_CLASS
 90
     4095
280
     0
281
     0
  0
CLASS
  1
DICTIONARYVAR
  2
AcDbDictionaryVar
  3
ObjectDBX Classes
 90
        0
280
     0
281
     0
  0
CLASS
  1
CELLSTYLEMAP
  2
AcDbCellStyleMap
  3
ObjectDBX Classes
 90
     1152
280
     0
281
     0
  0
CLASS
  1
ACDBPLACEHOLDER
  2
AcDbPlaceHolder
  3
ObjectDBX Classes
 90
        0
280
     0
281
     0
  0
CLASS
  1
LAYOUT
  2
AcDbLayout
  3
ObjectDBX Classes
 90
        0
280
     0
281
     0
  0
ENDSEC
  0
SECTION
  2
TABLES
  0
TABLE
  2
VPORT
  5
8
330
0
100
AcDbSymbolTable
 70
     1
  0
VPORT
  5
62
330
8
100
AcDbSymbolTableRecord
100
AcDbViewportTableRecord
  2
*Active
 70
     0
 10
0.0
 20
0.0
 11
1.0
 21
1.0
 12
420.0
 22
297.0
 13
0.0
 23
0.0
 14
1.0
 24
1.0
 15
0.0
 25
0.0
 16
0.0
 26
0.0
 36
1.0
 17
0.0
 27
0.0
 37
0.0
 40
594.0
 41
1.414141414141414
 42
50.0
 43
0.0
 44
0.0
 50
0.0
 51
0.0
 71
     0
 72
   100
 73
     1
 74
     1
 75
     0
 76
     0
 77
     0
 78
     0
281
     0
 65
     1
110
0.0
120
0.0
130
0.0
111
1.0
121
0.0
131
0.0
112
0.0
122
1.0
132
0.0
 79
     0
146
0.0
  0
ENDTAB
  0
TABLE
  2
LTYPE
  5
5
330
0
100
AcDbSymbolTable
 70
    59
  0
LTYPE
  5
66
330
5
100
AcDbSymbolTableRecord
100
AcDbLinetypeTableRecord
  2
ByBlock
 70
     0
  3

 72
    65
 73
     0
 40
0.0
  0
LTYPE
  5
67
330
5
100
AcDbSymbolTableRecord
100
AcDbLinetypeTableRecord
  2
ByLayer
 70
     0
  3

 72
    65
 73
     0
 40
0.0
  0
LTYPE
  5
68
330
5
100
AcDbSymbolTableRecord
100
AcDbLinetypeTableRecord
  2
Continuous
 70
     0
  3
Solid line
 72
    65
 73
     0
 40
0.0
  0
LTYPE
  5
7F
330
5
100
AcDbSymbolTableRecord
100
AcDbLinetypeTableRecord
  2
CHAIN
 70
     0
  3
Chain ____ _ ____ _ ____ _ ____ _ ____ _ ____
 72
    65
 73
     4
 40
0.3543
 49
0.2362
 74
     0
 49
-0.0295
 74
     0
 49
0.0591
 74
     0
 49
-0.0295
 74
     0
  0
LTYPE
  5
80
330
5
100
AcDbSymbolTableRecord
100
AcDbLinetypeTableRecord
  2
DASH_DOT
 70
     0
  3
Dash dot __ . __ . __ . __ . __ . __ . __ . __
 72
    65
 73
     4
 40
0.37
 49
0.24
 74
     0
 49
-0.06
 74
     0
 49
0.01
 74
     0
 49
-0.06
 74
     0
  0
LTYPE
  5
81
330
5
100
AcDbSymbolTableRecord
100
AcDbLinetypeTableRecord
  2
DASH_DOUBLE_DOT
 70
     0
  3
Dash Double-Dot __ . . __ . . __ . . __ . .
 72
    65
 73
     6
 40
0.4398
 49
0.24
 74
     0
 49
-0.06
 74
     0
 49
0.0098
 74
     0
 49
-0.06
 74
     0
 49
0.01
 74
     0
 49
-0.06
 74
     0
  0
LTYPE
  5
82
330
5
100
AcDbSymbolTableRecord
100
AcDbLinetypeTableRecord
  2
DASH_TRIPLE_DOT
 70
     0
  3
Dash Triple-Dot _ . . . _ . . . _ . . . _
 72
    65
 73
     8
 40
0.51
 49
0.24
 74
     0
 49
-0.06
 74
     0
 49
0.01
 74
     0
 49
-0.06
 74
     0
 49
0.01
 74
     0
 49
-0.06
 74
     0
 49
0.01
 74
     0
 49
-0.06
 74
     0
  0
LTYPE
  5
83
330
5
100
AcDbSymbolTableRecord
100
AcDbLinetypeTableRecord
  2
DASHED
 70
     0
  3
Dashed __ __ __ __ __ __ __ __ __ __ __ __ __ _
 72
    65
 73
     2
 40
0.2067
 49
0.1654
 74
     0
 49
-0.0413
 74
     0
  0
LTYPE
  5
84
330
5
100
AcDbSymbolTableRecord
100
AcDbLinetypeTableRecord
  2
DASHED_SPACE
 70
     0
  3
Dashed Space __ __ __ __ __ __ __ __ __ __ __ _
 72
    65
 73
     2
 40
0.0826
 49
0.0413
 74
     0
 49
-0.0413
 74
     0
  0
LTYPE
  5
85
330
5
100
AcDbSymbolTableRecord
100
AcDbLinetypeTableRecord
  2
DOTTED
 70
     0
  3
Dotted . . . . . . . . . . . . . . . . . . . . 
 72
    65
 73
     2
 40
0.0482
 49
0.0069
 74
     0
 49
-0.0413
 74
     0
  0
LTYPE
  5
86
330
5
100
AcDbSymbolTableRecord
100
AcDbLinetypeTableRecord
  2
DOUBLE_DASH_CHAIN
 70
     0
  3
Double Dash Chain ___ _ _ ___ _ _ ___ _ _ ___ _
 72
    65
 73
     6
 40
1.240299999999999
 49
0.6614
 74
     0
 49
-0.0827
 74
     0
 49
0.1654
 74
     0
 49
-0.0827
 74
     0
 49
0.1654
 74
     0
 49
-0.0827
 74
     0
  0
LTYPE
  5
87
330
5
100
AcDbSymbolTableRecord
100
AcDbLinetypeTableRecord
  2
DOUBLE_DASH_DOT
 70
     0
  3
Double Dash Dot __ __ . __ __ . __ __ . __ _
 72
    65
 73
     6
 40
0.67
 49
0.24
 74
     0
 49
-0.06
 74
     0
 49
0.24
 74
     0
 49
-0.06
 74
     0
 49
0.01
 74
     0
 49
-0.06
 74
     0
  0
LTYPE
  5
88
330
5
100
AcDbSymbolTableRecord
100
AcDbLinetypeTableRecord
  2
DOUBLE_DASH_DOUBLE_DOT
 70
     0
  3
Double-dash double-dot _ _ . . _ _ . . _
 72
    65
 73
     8
 40
0.7400000000000001
 49
0.24
 74
     0
 49
-0.06
 74
     0
 49
0.24
 74
     0
 49
-0.06
 74
     0
 49
0.01
 74
     0
 49
-0.06
 74
     0
 49
0.01
 74
     0
 49
-0.06
 74
     0
  0
LTYPE
  5
89
330
5
100
AcDbSymbolTableRecord
100
AcDbLinetypeTableRecord
  2
DOUBLE_DASH_TRIPLE_DOT
 70
     0
  3
Double Dash Triple Dot __ __ . . . __ __ . . .
 72
    65
 73
    10
 40
0.8100000000000001
 49
0.24
 74
     0
 49
-0.06
 74
     0
 49
0.24
 74
     0
 49
-0.06
 74
     0
 49
0.01
 74
     0
 49
-0.06
 74
     0
 49
0.01
 74
     0
 49
-0.06
 74
     0
 49
0.01
 74
     0
 49
-0.06
 74
     0
  0
LTYPE
  5
8A
330
5
100
AcDbSymbolTableRecord
100
AcDbLinetypeTableRecord
  2
LONG_DASH_DOTTED
 70
     0
  3
Long Dash Dotted ____ . ____ . ____ . ____ . _
 72
    65
 73
     4
 40
0.61
 49
0.48
 74
     0
 49
-0.06
 74
     0
 49
0.01
 74
     0
 49
-0.06
 74
     0
  0
LTYPE
  5
8B
330
5
100
AcDbSymbolTableRecord
100
AcDbLinetypeTableRecord
  2
LONG_DASH_DOUBLE_DOT
 70
     0
  3
Long Dash Double Dot ____ . . ____ . . ____ . .
 72
    65
 73
     6
 40
0.3345
 49
0.2362
 74
     0
 49
-0.0295
 74
     0
 49
0.0049
 74
     0
 49
-0.0295
 74
     0
 49
0.0049
 74
     0
 49
-0.0295
 74
     0
  0
LTYPE
  5
8C
330
5
100
AcDbSymbolTableRecord
100
AcDbLinetypeTableRecord
  2
LONG_DASH_TRIPLE_DOT
 70
     0
  3
Long Dash Triple Dot ____ ... ____ ... ____
 72
    65
 73
     8
 40
0.75
 49
0.48
 74
     0
 49
-0.06
 74
     0
 49
0.01
 74
     0
 49
-0.06
 74
     0
 49
0.01
 74
     0
 49
-0.06
 74
     0
 49
0.01
 74
     0
 49
-0.06
 74
     0
  0
LTYPE
  5
8D
330
5
100
AcDbSymbolTableRecord
100
AcDbLinetypeTableRecord
  2
BORDER
 70
     0
  3
Border __ __ . __ __ . __ __ . __ __ . __ __ .
 72
    65
 73
     6
 40
44.45
 49
12.7
 74
     0
 49
-6.349999999999999
 74
     0
 49
12.7
 74
     0
 49
-6.349999999999999
 74
     0
 49
0.0
 74
     0
 49
-6.349999999999999
 74
     0
  0
LTYPE
  5
8E
330
5
100
AcDbSymbolTableRecord
100
AcDbLinetypeTableRecord
  2
BORDER2
 70
     0
  3
Border (.5x) __.__.__.__.__.__.__.__.__.__.__.
 72
    65
 73
     6
 40
22.225
 49
6.349999999999999
 74
     0
 49
-3.174999999999999
 74
     0
 49
6.349999999999999
 74
     0
 49
-3.174999999999999
 74
     0
 49
0.0
 74
     0
 49
-3.174999999999999
 74
     0
  0
LTYPE
  5
8F
330
5
100
AcDbSymbolTableRecord
100
AcDbLinetypeTableRecord
  2
BORDERX2
 70
     0
  3
Border (2x) ____  ____  .  ____  ____  .  ___
 72
    65
 73
     6
 40
88.9
 49
25.4
 74
     0
 49
-12.7
 74
     0
 49
25.4
 74
     0
 49
-12.7
 74
     0
 49
0.0
 74
     0
 49
-12.7
 74
     0
  0
LTYPE
  5
90
330
5
100
AcDbSymbolTableRecord
100
AcDbLinetypeTableRecord
  2
CENTER
 70
     0
  3
Center ____ _ ____ _ ____ _ ____ _ ____ _ ____
 72
    65
 73
     4
 40
50.8
 49
31.75
 74
     0
 49
-6.349999999999999
 74
     0
 49
6.349999999999999
 74
     0
 49
-6.349999999999999
 74
     0
  0
LTYPE
  5
91
330
5
100
AcDbSymbolTableRecord
100
AcDbLinetypeTableRecord
  2
CENTER2
 70
     0
  3
Center (.5x) ___ _ ___ _ ___ _ ___ _ ___ _ ___
 72
    65
 73
     4
 40
28.575
 49
19.05
 74
     0
 49
-3.174999999999999
 74
     0
 49
3.174999999999999
 74
     0
 49
-3.174999999999999
 74
     0
  0
LTYPE
  5
92
330
5
100
AcDbSymbolTableRecord
100
AcDbLinetypeTableRecord
  2
CENTERX2
 70
     0
  3
Center (2x) ________  __  ________  __  _____
 72
    65
 73
     4
 40
101.6
 49
63.5
 74
     0
 49
-12.7
 74
     0
 49
12.7
 74
     0
 49
-12.7
 74
     0
  0
LTYPE
  5
93
330
5
100
AcDbSymbolTableRecord
100
AcDbLinetypeTableRecord
  2
DASHDOT
 70
     0
  3
Dash dot __ . __ . __ . __ . __ . __ . __ . __
 72
    65
 73
     4
 40
25.4
 49
12.7
 74
     0
 49
-6.349999999999999
 74
     0
 49
0.0
 74
     0
 49
-6.349999999999999
 74
     0
  0
LTYPE
  5
94
330
5
100
AcDbSymbolTableRecord
100
AcDbLinetypeTableRecord
  2
DASHDOT2
 70
     0
  3
Dash dot (.5x) _._._._._._._._._._._._._._._.
 72
    65
 73
     4
 40
12.7
 49
6.349999999999999
 74
     0
 49
-3.174999999999999
 74
     0
 49
0.0
 74
     0
 49
-3.174999999999999
 74
     0
  0
LTYPE
  5
95
330
5
100
AcDbSymbolTableRecord
100
AcDbLinetypeTableRecord
  2
DASHDOTX2
 70
     0
  3
Dash dot (2x) ____  .  ____  .  ____  .  ___
 72
    65
 73
     4
 40
50.8
 49
25.4
 74
     0
 49
-12.7
 74
     0
 49
0.0
 74
     0
 49
-12.7
 74
     0
  0
LTYPE
  5
96
330
5
100
AcDbSymbolTableRecord
100
AcDbLinetypeTableRecord
  2
DASHED2
 70
     0
  3
Dashed (.5x) _ _ _ _ _ _ _ _ _ _ _ _ _ _ _ _ _
 72
    65
 73
     2
 40
9.524999999999998
 49
6.349999999999999
 74
     0
 49
-3.174999999999999
 74
     0
  0
LTYPE
  5
97
330
5
100
AcDbSymbolTableRecord
100
AcDbLinetypeTableRecord
  2
DASHEDX2
 70
     0
  3
Dashed (2x) ____  ____  ____  ____  ____  ___
 72
    65
 73
     2
 40
38.1
 49
25.4
 74
     0
 49
-12.7
 74
     0
  0
LTYPE
  5
98
330
5
100
AcDbSymbolTableRecord
100
AcDbLinetypeTableRecord
  2
DIVIDE
 70
     0
  3
Divide ____ . . ____ . . ____ . . ____ . . ____
 72
    65
 73
     6
 40
31.75
 49
12.7
 74
     0
 49
-6.349999999999999
 74
     0
 49
0.0
 74
     0
 49
-6.349999999999999
 74
     0
 49
0.0
 74
     0
 49
-6.349999999999999
 74
     0
  0
LTYPE
  5
99
330
5
100
AcDbSymbolTableRecord
100
AcDbLinetypeTableRecord
  2
DIVIDE2
 70
     0
  3
Divide (.5x) __..__..__..__..__..__..__..__.._
 72
    65
 73
     6
 40
15.875
 49
6.349999999999999
 74
     0
 49
-3.174999999999999
 74
     0
 49
0.0
 74
     0
 49
-3.174999999999999
 74
     0
 49
0.0
 74
     0
 49
-3.174999999999999
 74
     0
  0
LTYPE
  5
9A
330
5
100
AcDbSymbolTableRecord
100
AcDbLinetypeTableRecord
  2
DIVIDEX2
 70
     0
  3
Divide (2x) ________  .  .  ________  .  .  _
 72
    65
 73
     6
 40
63.49999999999999
 49
25.4
 74
     0
 49
-12.7
 74
     0
 49
0.0
 74
     0
 49
-12.7
 74
     0
 49
0.0
 74
     0
 49
-12.7
 74
     0
  0
LTYPE
  5
9B
330
5
100
AcDbSymbolTableRecord
100
AcDbLinetypeTableRecord
  2
DOT2
 70
     0
  3
Dot (.5x) .....................................
 72
    65
 73
     2
 40
3.174999999999999
 49
0.0
 74
     0
 49
-3.174999999999999
 74
     0
  0
LTYPE
  5
9C
330
5
100
AcDbSymbolTableRecord
100
AcDbLinetypeTableRecord
  2
DOTX2
 70
     0
  3
Dot (2x) .  .  .  .  .  .  .  .  .  .  .  .  . 
 72
    65
 73
     2
 40
12.7
 49
0.0
 74
     0
 49
-12.7
 74
     0
  0
LTYPE
  5
9D
330
5
100
AcDbSymbolTableRecord
100
AcDbLinetypeTableRecord
  2
HIDDEN
 70
     0
  3
Hidden __ __ __ __ __ __ __ __ __ __ __ __ __ _
 72
    65
 73
     2
 40
9.524999999999998
 49
6.349999999999999
 74
     0
 49
-3.174999999999999
 74
     0
  0
LTYPE
  5
9E
330
5
100
AcDbSymbolTableRecord
100
AcDbLinetypeTableRecord
  2
HIDDEN2
 70
     0
  3
Hidden (.5x) _ _ _ _ _ _ _ _ _ _ _ _ _ _ _ _ _
 72
    65
 73
     2
 40
4.762499999999999
 49
3.174999999999999
 74
     0
 49
-1.587499999999999
 74
     0
  0
LTYPE
  5
9F
330
5
100
AcDbSymbolTableRecord
100
AcDbLinetypeTableRecord
  2
HIDDENX2
 70
     0
  3
Hidden (2x) ____ ____ ____ ____ ____ ____ ____
 72
    65
 73
     2
 40
19.05
 49
12.7
 74
     0
 49
-6.349999999999999
 74
     0
  0
LTYPE
  5
A0
330
5
100
AcDbSymbolTableRecord
100
AcDbLinetypeTableRecord
  2
PHANTOM
 70
     0
  3
Phantom ______  __  __  ______  __  __  ______
 72
    65
 73
     6
 40
63.5
 49
31.75
 74
     0
 49
-6.349999999999999
 74
     0
 49
6.349999999999999
 74
     0
 49
-6.349999999999999
 74
     0
 49
6.349999999999999
 74
     0
 49
-6.349999999999999
 74
     0
  0
LTYPE
  5
A1
330
5
100
AcDbSymbolTableRecord
100
AcDbLinetypeTableRecord
  2
PHANTOM2
 70
     0
  3
Phantom (.5x) ___ _ _ ___ _ _ ___ _ _ ___ _ _
 72
    65
 73
     6
 40
31.75
 49
15.875
 74
     0
 49
-3.174999999999999
 74
     0
 49
3.174999999999999
 74
     0
 49
-3.174999999999999
 74
     0
 49
3.174999999999999
 74
     0
 49
-3.174999999999999
 74
     0
  0
LTYPE
  5
A2
330
5
100
AcDbSymbolTableRecord
100
AcDbLinetypeTableRecord
  2
PHANTOMX2
 70
     0
  3
Phantom (2x) ____________    ____    ____   _
 72
    65
 73
     6
 40
127.0
 49
63.5
 74
     0
 49
-12.7
 74
     0
 49
12.7
 74
     0
 49
-12.7
 74
     0
 49
12.7
 74
     0
 49
-12.7
 74
     0
  0
LTYPE
  5
A3
330
5
100
AcDbSymbolTableRecord
100
AcDbLinetypeTableRecord
  2
ACAD_ISO02W100
 70
     0
  3
ISO dash __ __ __ __ __ __ __ __ __ __ __ __ __
 72
    65
 73
     2
 40
15.0
 49
12.0
 74
     0
 49
-3.0
 74
     0
  0
LTYPE
  5
A4
330
5
100
AcDbSymbolTableRecord
100
AcDbLinetypeTableRecord
  2
ACAD_ISO03W100
 70
     0
  3
ISO dash space __    __    __    __    __    __
 72
    65
 73
     2
 40
30.0
 49
12.0
 74
     0
 49
-18.0
 74
     0
  0
LTYPE
  5
A5
330
5
100
AcDbSymbolTableRecord
100
AcDbLinetypeTableRecord
  2
ACAD_ISO04W100
 70
     0
  3
ISO long-dash dot ____ . ____ . ____ . ____ . _
 72
    65
 73
     4
 40
30.0
 49
24.0
 74
     0
 49
-3.0
 74
     0
 49
0.0
 74
     0
 49
-3.0
 74
     0
  0
LTYPE
  5
A6
330
5
100
AcDbSymbolTableRecord
100
AcDbLinetypeTableRecord
  2
ACAD_ISO05W100
 70
     0
  3
ISO long-dash double-dot ____ .. ____ .. ____ .
 72
    65
 73
     6
 40
33.0
 49
24.0
 74
     0
 49
-3.0
 74
     0
 49
0.0
 74
     0
 49
-3.0
 74
     0
 49
0.0
 74
     0
 49
-3.0
 74
     0
  0
LTYPE
  5
A7
330
5
100
AcDbSymbolTableRecord
100
AcDbLinetypeTableRecord
  2
ACAD_ISO06W100
 70
     0
  3
ISO long-dash triple-dot ____ ... ____ ... ____
 72
    65
 73
     8
 40
36.0
 49
24.0
 74
     0
 49
-3.0
 74
     0
 49
0.0
 74
     0
 49
-3.0
 74
     0
 49
0.0
 74
     0
 49
-3.0
 74
     0
 49
0.0
 74
     0
 49
-3.0
 74
     0
  0
LTYPE
  5
A8
330
5
100
AcDbSymbolTableRecord
100
AcDbLinetypeTableRecord
  2
ACAD_ISO07W100
 70
     0
  3
ISO dot . . . . . . . . . . . . . . . . . . . .
 72
    65
 73
     2
 40
3.0
 49
0.0
 74
     0
 49
-3.0
 74
     0
  0
LTYPE
  5
A9
330
5
100
AcDbSymbolTableRecord
100
AcDbLinetypeTableRecord
  2
ACAD_ISO08W100
 70
     0
  3
ISO long-dash short-dash ____ __ ____ __ ____ _
 72
    65
 73
     4
 40
36.0
 49
24.0
 74
     0
 49
-3.0
 74
     0
 49
6.0
 74
     0
 49
-3.0
 74
     0
  0
LTYPE
  5
AA
330
5
100
AcDbSymbolTableRecord
100
AcDbLinetypeTableRecord
  2
ACAD_ISO09W100
 70
     0
  3
ISO long-dash double-short-dash ____ __ __ ____
 72
    65
 73
     6
 40
45.0
 49
24.0
 74
     0
 49
-3.0
 74
     0
 49
6.0
 74
     0
 49
-3.0
 74
     0
 49
6.0
 74
     0
 49
-3.0
 74
     0
  0
LTYPE
  5
AB
330
5
100
AcDbSymbolTableRecord
100
AcDbLinetypeTableRecord
  2
ACAD_ISO10W100
 70
     0
  3
ISO dash dot __ . __ . __ . __ . __ . __ . __ .
 72
    65
 73
     4
 40
18.0
 49
12.0
 74
     0
 49
-3.0
 74
     0
 49
0.0
 74
     0
 49
-3.0
 74
     0
  0
LTYPE
  5
AC
330
5
100
AcDbSymbolTableRecord
100
AcDbLinetypeTableRecord
  2
ACAD_ISO11W100
 70
     0
  3
ISO double-dash dot __ __ . __ __ . __ __ . __ 
 72
    65
 73
     6
 40
33.0
 49
12.0
 74
     0
 49
-3.0
 74
     0
 49
12.0
 74
     0
 49
-3.0
 74
     0
 49
0.0
 74
     0
 49
-3.0
 74
     0
  0
LTYPE
  5
AD
330
5
100
AcDbSymbolTableRecord
100
AcDbLinetypeTableRecord
  2
ACAD_ISO12W100
 70
     0
  3
ISO dash double-dot __ . . __ . . __ . . __ . .
 72
    65
 73
     6
 40
21.0
 49
12.0
 74
     0
 49
-3.0
 74
     0
 49
0.0
 74
     0
 49
-3.0
 74
     0
 49
0.0
 74
     0
 49
-3.0
 74
     0
  0
LTYPE
  5
AE
330
5
100
AcDbSymbolTableRecord
100
AcDbLinetypeTableRecord
  2
ACAD_ISO13W100
 70
     0
  3
ISO double-dash double-dot __ __ . . __ __ . . 
 72
    65
 73
     8
 40
36.0
 49
12.0
 74
     0
 49
-3.0
 74
     0
 49
12.0
 74
     0
 49
-3.0
 74
     0
 49
0.0
 74
     0
 49
-3.0
 74
     0
 49
0.0
 74
     0
 49
-3.0
 74
     0
  0
LTYPE
  5
AF
330
5
100
AcDbSymbolTableRecord
100
AcDbLinetypeTableRecord
  2
ACAD_ISO14W100
 70
     0
  3
ISO dash triple-dot __ . . . __ . . . __ . . . 
 72
    65
 73
     8
 40
24.0
 49
12.0
 74
     0
 49
-3.0
 74
     0
 49
0.0
 74
     0
 49
-3.0
 74
     0
 49
0.0
 74
     0
 49
-3.0
 74
     0
 49
0.0
 74
     0
 49
-3.0
 74
     0
  0
LTYPE
  5
B0
330
5
100
AcDbSymbolTableRecord
100
AcDbLinetypeTableRecord
  2
ACAD_ISO15W100
 70
     0
  3
ISO double-dash triple-dot __ __ . . . __ __ . 
 72
    65
 73
    10
 40
39.0
 49
12.0
 74
     0
 49
-3.0
 74
     0
 49
12.0
 74
     0
 49
-3.0
 74
     0
 49
0.0
 74
     0
 49
-3.0
 74
     0
 49
0.0
 74
     0
 49
-3.0
 74
     0
 49
0.0
 74
     0
 49
-3.0
 74
     0
  0
LTYPE
  5
B3
330
5
100
AcDbSymbolTableRecord
100
AcDbLinetypeTableRecord
  2
FENCELINE1
 70
     0
  3
Fenceline circle ----0-----0----0-----0----0---
 72
    65
 73
     4
 40
36.83
 49
6.349999999999999
 74
     0
 49
-2.54
 74
     4
 75
   133
340
B2
 46
2.54
 50
0.0
 44
-2.54
 45
0.0
 49
-2.54
 74
     0
 49
25.4
 74
     0
  0
LTYPE
  5
B4
330
5
100
AcDbSymbolTableRecord
100
AcDbLinetypeTableRecord
  2
FENCELINE2
 70
     0
  3
Fenceline square ----[]-----[]----[]-----[]----
 72
    65
 73
     4
 40
36.83
 49
6.349999999999999
 74
     0
 49
-2.54
 74
     4
 75
   132
340
B2
 46
2.54
 50
0.0
 44
-2.54
 45
0.0
 49
-2.54
 74
     0
 49
25.4
 74
     0
  0
LTYPE
  5
B5
330
5
100
AcDbSymbolTableRecord
100
AcDbLinetypeTableRecord
  2
TRACKS
 70
     0
  3
Tracks -|-|-|-|-|-|-|-|-|-|-|-|-|-|-|-|-|-|-|-|
 72
    65
 73
     2
 40
7.62
 49
3.81
 74
     4
 75
   130
340
B2
 46
6.349999999999999
 50
0.0
 44
0.0
 45
0.0
 49
3.81
 74
     0
  0
LTYPE
  5
B6
330
5
100
AcDbSymbolTableRecord
100
AcDbLinetypeTableRecord
  2
BATTING
 70
     0
  3
Batting SSSSSSSSSSSSSSSSSSSSSSSSSSSSSSSSSSSSSSS
 72
    65
 73
     4
 40
10.16254
 49
0.00254
 74
     0
 49
-2.54
 74
     4
 75
   134
340
B2
 46
2.54
 50
0.0
 44
-2.54
 45
0.0
 49
-5.08
 74
     4
 75
   134
340
B2
 46
2.54
 50
180.0
 44
2.54
 45
0.0
 49
-2.54
 74
     0
  0
LTYPE
  5
B7
330
5
100
AcDbSymbolTableRecord
100
AcDbLinetypeTableRecord
  2
HOT_WATER_SUPPLY
 70
     0
  3
Hot water supply ---- HW ---- HW ---- HW ----
 72
    65
 73
     3
 40
22.86
 49
12.7
 74
     0
 49
-5.08
 74
     2
 75
     0
340
60
 46
2.54
 50
0.0
 44
-2.54
 45
-1.27
  9
HW
 49
-5.08
 74
     0
  0
LTYPE
  5
B8
330
5
100
AcDbSymbolTableRecord
100
AcDbLinetypeTableRecord
  2
GAS_LINE
 70
     0
  3
Gas line ----GAS----GAS----GAS----GAS----GAS---
 72
    65
 73
     3
 40
24.13
 49
12.7
 74
     0
 49
-5.08
 74
     2
 75
     0
340
60
 46
2.54
 50
0.0
 44
-2.54
 45
-1.27
  9
GAS
 49
-6.349999999999999
 74
     0
  0
LTYPE
  5
B9
330
5
100
AcDbSymbolTableRecord
100
AcDbLinetypeTableRecord
  2
ZIGZAG
 70
     0
  3
Zig zag /\/\/\/\/\/\/\/\/\/\/\/\/\/\/\/\/\/\/\/
 72
    65
 73
     4
 40
20.32254
 49
0.00254
 74
     0
 49
-5.08
 74
     4
 75
   131
340
B2
 46
5.08
 50
0.0
 44
-5.08
 45
0.0
 49
-10.16
 74
     4
 75
   131
340
B2
 46
5.08
 50
180.0
 44
5.08
 45
0.0
 49
-5.08
 74
     0
  0
LTYPE
  5
D8
330
5
100
AcDbSymbolTableRecord
100
AcDbLinetypeTableRecord
  2
NON_PLOTING_ACAD
 70
     0
  3

 72
    65
 73
     0
 40
0.0
  0
ENDTAB
  0
TABLE
  2
LAYER
  5
2
330
0
100
AcDbSymbolTable
 70
    32
  0
LAYER
  5
5F
330
2
100
AcDbSymbolTableRecord
100
AcDbLayerTableRecord
  2
0
 70
     0
 62
     7
  6
Continuous
370
    -3
390
F
  0
LAYER
  5
BE
330
2
100
AcDbSymbolTableRecord
100
AcDbLayerTableRecord
  2
スケッチ(細線)
 70
     0
 62
    30
  6
Continuous
370
    18
390
F
  0
LAYER
  5
C2
330
2
100
AcDbSymbolTableRecord
100
AcDbLayerTableRecord
  2
一点鎖線(細線)
 70
     0
 62
    16
  6
CHAIN
370
    18
390
F
  0
LAYER
  5
C5
330
2
100
AcDbSymbolTableRecord
100
AcDbLayerTableRecord
  2
実線(細線)
 70
     0
 62
    16
  6
Continuous
370
    18
390
F
  0
LAYER
  5
C6
330
2
100
AcDbSymbolTableRecord
100
AcDbLayerTableRecord
  2
実線(太線)
 70
     0
 62
    98
  6
Continuous
370
    70
390
F
  0
LAYER
  5
C7
330
2
100
AcDbSymbolTableRecord
100
AcDbLayerTableRecord
  2
実線(中線)
 70
     0
 62
     5
  6
Continuous
370
    35
390
F
  0
LAYER
  5
C8
330
2
100
AcDbSymbolTableRecord
100
AcDbLayerTableRecord
  2
寸法(細線)
 70
     0
 62
     7
  6
Continuous
370
    18
390
F
  0
LAYER
  5
4C8
330
2
100
AcDbSymbolTableRecord
100
AcDbLayerTableRecord
  2
Defpoints
 70
     0
 62
     7
  6
Continuous
290
     0
370
    -3
390
F
  0
ENDTAB
  0
TABLE
  2
STYLE
  5
3
330
0
100
AcDbSymbolTable
 70
    26
  0
STYLE
  5
60
330
3
100
AcDbSymbolTableRecord
100
AcDbTextStyleTableRecord
  2
Standard
 70
     0
 40
0.0
 41
1.0
 50
0.0
 71
     0
 42
0.2
  3
tahoma.ttf
  4

1001
ACAD
1000
Tahoma
1071
      256
  0
STYLE
  5
65
330
3
100
AcDbSymbolTableRecord
100
AcDbTextStyleTableRecord
  2
Annotative
 70
     0
 40
0.0
 41
1.0
 50
0.0
 71
     0
 42
0.2
  3
txt
  4

1001
AcadAnnotative
1000
AnnotativeData
1002
{
1070
     1
1070
     1
1002
}
  0
STYLE
  5
B2
330
3
100
AcDbSymbolTableRecord
100
AcDbTextStyleTableRecord
  2

 70
     1
 40
0.0
 41
1.0
 50
0.0
 71
     0
 42
0.2
  3
ltypeshp.shx
  4

  0
STYLE
  5
D9
330
3
100
AcDbSymbolTableRecord
100
AcDbTextStyleTableRecord
  2
Label Text (ULVAC)
 70
     0
 40
0.0
 41
1.0
 50
0.0
 71
     0
 42
0.2
  3
tahoma.ttf
  4

1001
ACAD
1000
Tahoma
1071
      256
  0
STYLE
  5
DA
330
3
100
AcDbSymbolTableRecord
100
AcDbTextStyleTableRecord
  2
Note Text (JIS)
 70
     0
 40
0.0
 41
1.0
 50
0.0
 71
     0
 42
0.2
  3
tahoma.ttf
  4

1001
ACAD
1000
Tahoma
1071
      256
  0
STYLE
  5
DB
330
3
100
AcDbSymbolTableRecord
100
AcDbTextStyleTableRecord
  2
Note Text (ULVAC)
 70
     0
 40
0.0
 41
1.0
 50
0.0
 71
     0
 42
0.2
  3
tahoma.ttf
  4

1001
ACAD
1000
Tahoma
1071
      256
  0
STYLE
  5
DC
330
3
100
AcDbSymbolTableRecord
100
AcDbTextStyleTableRecord
  2
Note Text (ULVAC_Balloon)
 70
     0
 40
0.0
 41
1.0
 50
0.0
 71
     0
 42
0.2
  3
tahoma.ttf
  4

1001
ACAD
1000
Tahoma
1071
      256
  0
STYLE
  5
DD
330
3
100
AcDbSymbolTableRecord
100
AcDbTextStyleTableRecord
  2
Note Text (ULVAC_寸法-下線)
 70
     0
 40
0.0
 41
1.0
 50
0.0
 71
     0
 42
0.2
  3
tahoma.ttf
  4

1001
ACAD
1000
Tahoma
1071
      256
  0
STYLE
  5
DE
330
3
100
AcDbSymbolTableRecord
100
AcDbTextStyleTableRecord
  2
Note Text (ULVAC_寸法)
 70
     0
 40
0.0
 41
1.0
 50
0.0
 71
     0
 42
0.2
  3
tahoma.ttf
  4

1001
ACAD
1000
Tahoma
1071
      256
  0
STYLE
  5
DF
330
3
100
AcDbSymbolTableRecord
100
AcDbTextStyleTableRecord
  2
ULVAC
 70
     0
 40
0.0
 41
1.0
 50
0.0
 71
     0
 42
0.2
  3

  4

1001
ACAD
1000
MS Gothic
1071
      256
  0
STYLE
  5
E0
330
3
100
AcDbSymbolTableRecord
100
AcDbTextStyleTableRecord
  2
図枠シンボル用(高さ2.0)
 70
     0
 40
0.0
 41
0.8000000119209289
 50
0.0
 71
     0
 42
0.2
  3
tahoma.ttf
  4

1001
ACAD
1000
Tahoma
1071
      256
  0
STYLE
  5
E1
330
3
100
AcDbSymbolTableRecord
100
AcDbTextStyleTableRecord
  2
図枠シンボル用(高さ3.2)
 70
     0
 40
0.0
 41
1.0
 50
0.0
 71
     0
 42
0.2
  3
tahoma.ttf
  4

1001
ACAD
1000
Tahoma
1071
      256
  0
STYLE
  5
E2
330
3
100
AcDbSymbolTableRecord
100
AcDbTextStyleTableRecord
  2
図枠用
 70
     0
 40
0.0
 41
1.0
 50
0.0
 71
     0
 42
0.2
  3
tahoma.ttf
  4

1001
ACAD
1000
Tahoma
1071
      256
  0
STYLE
  5
E3
330
3
100
AcDbSymbolTableRecord
100
AcDbTextStyleTableRecord
  2
部品表用
 70
     0
 40
0.0
 41
0.75
 50
0.0
 71
     0
 42
0.2
  3
tahoma.ttf
  4

1001
ACAD
1000
Tahoma
1071
      256
  0
STYLE
  5
252
330
3
100
AcDbSymbolTableRecord
100
AcDbTextStyleTableRecord
  2
文字スタイル35
 70
     0
 40
0.0
 41
1.0
 50
0.0
 71
     0
 42
0.2
  3
tahoma.ttf
  4

1001
ACAD
1000
Tahoma
1071
      256
  0
STYLE
  5
25B
330
3
100
AcDbSymbolTableRecord
100
AcDbTextStyleTableRecord
  2
文字スタイル211
 70
     0
 40
0.0
 41
0.5
 50
0.0
 71
     0
 42
0.2
  3
tahoma.ttf
  4

1001
ACAD
1000
Tahoma
1071
      256
  0
STYLE
  5
25F
330
3
100
AcDbSymbolTableRecord
100
AcDbTextStyleTableRecord
  2
文字スタイル60
 70
     0
 40
0.0
 41
1.0
 50
0.0
 71
     0
 42
0.2
  3
tahoma.ttf
  4

1001
ACAD
1000
Tahoma
1071
      256
  0
STYLE
  5
261
330
3
100
AcDbSymbolTableRecord
100
AcDbTextStyleTableRecord
  2
文字スタイル206
 70
     0
 40
0.0
 41
1.0
 50
0.0
 71
     0
 42
0.2
  3
tahoma.ttf
  4

1001
ACAD
1000
Tahoma
1071
      256
  0
STYLE
  5
263
330
3
100
AcDbSymbolTableRecord
100
AcDbTextStyleTableRecord
  2
文字スタイル205
 70
     0
 40
0.0
 41
1.0
 50
0.0
 71
     0
 42
0.2
  3
tahoma.ttf
  4

1001
ACAD
1000
Tahoma
1071
      256
  0
STYLE
  5
266
330
3
100
AcDbSymbolTableRecord
100
AcDbTextStyleTableRecord
  2
文字スタイル207
 70
     0
 40
0.0
 41
1.0
 50
0.0
 71
     0
 42
0.2
  3
tahoma.ttf
  4

1001
ACAD
1000
Tahoma
1071
      256
  0
STYLE
  5
268
330
3
100
AcDbSymbolTableRecord
100
AcDbTextStyleTableRecord
  2
文字スタイル208
 70
     0
 40
0.0
 41
1.0
 50
0.0
 71
     0
 42
0.2
  3
tahoma.ttf
  4

1001
ACAD
1000
Tahoma
1071
      256
  0
STYLE
  5
26A
330
3
100
AcDbSymbolTableRecord
100
AcDbTextStyleTableRecord
  2
文字スタイル107
 70
     0
 40
0.0
 41
1.0
 50
0.0
 71
     0
 42
0.2
  3
tahoma.ttf
  4

1001
ACAD
1000
Tahoma
1071
      256
  0
STYLE
  5
271
330
3
100
AcDbSymbolTableRecord
100
AcDbTextStyleTableRecord
  2
文字スタイル204
 70
     0
 40
0.0
 41
1.0
 50
0.0
 71
     0
 42
0.2
  3
tahoma.ttf
  4

1001
ACAD
1000
Tahoma
1071
      256
  0
STYLE
  5
273
330
3
100
AcDbSymbolTableRecord
100
AcDbTextStyleTableRecord
  2
文字スタイル32
 70
     0
 40
0.0
 41
1.0
 50
0.0
 71
     0
 42
0.2
  3
tahoma.ttf
  4

1001
ACAD
1000
Tahoma
1071
      256
  0
STYLE
  5
275
330
3
100
AcDbSymbolTableRecord
100
AcDbTextStyleTableRecord
  2
文字スタイル228
 70
     0
 40
0.0
 41
1.0
 50
0.0
 71
     0
 42
0.2
  3
tahoma.ttf
  4

1001
ACAD
1000
Tahoma
1071
      256
  0
STYLE
  5
279
330
3
100
AcDbSymbolTableRecord
100
AcDbTextStyleTableRecord
  2
文字スタイル117
 70
     0
 40
0.0
 41
1.0
 50
0.0
 71
     0
 42
0.2
  3

  4

1001
ACAD
1000
MS Gothic
1071
      256
  0
ENDTAB
  0
TABLE
  2
VIEW
  5
6
330
0
100
AcDbSymbolTable
 70
     0
  0
ENDTAB
  0
TABLE
  2
UCS
  5
7
330
0
100
AcDbSymbolTable
 70
     0
  0
ENDTAB
  0
TABLE
  2
APPID
  5
9
330
0
100
AcDbSymbolTable
 70
     4
  0
APPID
  5
61
330
9
100
AcDbSymbolTableRecord
100
AcDbRegAppTableRecord
  2
ACAD
 70
     0
  0
APPID
  5
69
330
9
100
AcDbSymbolTableRecord
100
AcDbRegAppTableRecord
  2
AcadAnnotative
 70
     0
  0
APPID
  5
255
330
9
100
AcDbSymbolTableRecord
100
AcDbRegAppTableRecord
  2
AcadAnnoPO
 70
     0
  0
APPID
  5
EC5
330
9
100
AcDbSymbolTableRecord
100
AcDbRegAppTableRecord
  2
ACAD_MLEADERVER
 70
     0
  0
ENDTAB
  0
TABLE
  2
DIMSTYLE
  5
A
330
0
100
AcDbSymbolTable
 70
    15
100
AcDbDimStyleTable
 71
     2
340
EA
340
63
  0
DIMSTYLE
105
63
330
A
100
AcDbSymbolTableRecord
100
AcDbDimStyleTableRecord
  2
Standard
 70
     0
340
60
  0
DIMSTYLE
105
64
330
A
100
AcDbSymbolTableRecord
100
AcDbDimStyleTableRecord
  2
Annotative
 70
     0
340
60
1001
AcadAnnotative
1000
AnnotativeData
1002
{
1070
     1
1070
     1
1002
}
  0
DIMSTYLE
105
EA
102
{ACAD_REACTORS
330
4C7
330
5AE
330
690
330
790
330
876
330
958
330
A3A
330
B3A
330
C1C
330
CFE
102
}
330
A
100
AcDbSymbolTableRecord
100
AcDbDimStyleTableRecord
  2
Default (ULVAC)
 70
     0
 40
2.0
 41
2.900000095367431
 42
1.27
 43
6.5
 44
1.199999999999999
 45
0.00000001
 46
10.0
 73
     0
 74
     0
 77
     1
 78
     8
 79
     2
140
3.5
143
0.03937
146
0.8000000119209289
147
0.8
171
     3
172
     1
176
   256
177
   256
178
   256
179
     2
271
     2
272
     3
274
     3
284
     8
340
DE
341
E4
342
E4
371
    -1
372
    -1
  0
DIMSTYLE
105
EB
330
A
100
AcDbSymbolTableRecord
100
AcDbDimStyleTableRecord
  2
Default (ULVAC)$7
 70
     0
 40
2.0
 41
2.900000095367431
 42
1.27
 43
6.5
 44
1.199999999999999
 45
0.00000001
 46
10.0
 73
     0
 74
     0
 77
     1
 78
     8
 79
     2
140
3.5
143
0.03937
146
0.8000000119209289
147
0.8
171
     3
172
     1
176
   256
177
   256
178
   256
179
     2
271
     2
272
     3
274
     3
284
     8
340
DE
341
E4
342
E4
371
    -1
372
    -1
  0
DIMSTYLE
105
EC
330
A
100
AcDbSymbolTableRecord
100
AcDbDimStyleTableRecord
  2
Ｍｉｓｃｅｌｌａｎｅｏｕｓ　Ｏｂｊｅｃｔ (ULVAC)
 70
     0
 40
2.0
 41
5.800000190734863
 42
1.27
 43
6.5
 44
1.199999999999999
 45
0.00000001
 46
10.0
 73
     0
 74
     0
 77
     1
 78
     8
 79
     2
140
6.0
143
0.03937
146
0.75
147
0.8
171
     3
172
     1
176
   256
177
   256
178
   256
179
     2
271
     2
272
     3
274
     3
284
     8
286
     8
340
D9
341
E4
342
E4
371
    -1
372
    -1
  0
DIMSTYLE
105
ED
330
A
100
AcDbSymbolTableRecord
100
AcDbDimStyleTableRecord
  2
Ｍｉｓｃｅｌｌａｎｅｏｕｓ　Ｏｂｊｅｃｔ (ULVAC)$7
 70
     0
 40
2.0
 41
2.900000095367431
 42
1.27
 43
6.5
 44
1.199999999999999
 45
0.00000001
 46
10.0
 73
     0
 74
     0
 77
     1
 78
     8
 79
     2
140
6.0
143
0.03937
146
0.75
147
0.8
171
     3
172
     1
176
   256
177
   256
178
   256
179
     2
271
     2
272
     3
274
     3
284
     8
286
     8
340
D9
341
E4
342
E4
371
    -1
372
    -1
  0
DIMSTYLE
105
EE
330
A
100
AcDbSymbolTableRecord
100
AcDbDimStyleTableRecord
  2
下線付き寸法 (ULVAC)
 70
     0
 40
2.0
 41
2.900000095367431
 42
1.27
 43
6.5
 44
1.199999999999999
 45
0.00000001
 46
10.0
 73
     0
 74
     0
 77
     1
 78
     8
 79
     2
140
3.5
143
0.03937
146
0.8000000119209289
147
0.8
171
     3
172
     1
176
   256
177
   256
178
   256
179
     2
271
     2
272
     3
274
     3
284
     8
340
DD
341
E4
342
E4
371
    -1
372
    -1
  0
DIMSTYLE
105
EF
330
A
100
AcDbSymbolTableRecord
100
AcDbDimStyleTableRecord
  2
下線付き寸法 (ULVAC)$7
 70
     0
 40
2.0
 41
2.900000095367431
 42
1.27
 43
6.5
 44
1.199999999999999
 45
0.00000001
 46
10.0
 73
     0
 74
     0
 77
     1
 78
     8
 79
     2
140
3.5
143
0.03937
146
0.8000000119209289
147
0.8
171
     3
172
     1
176
   256
177
   256
178
   256
179
     2
271
     2
272
     3
274
     3
284
     8
340
DD
341
E4
342
E4
371
    -1
372
    -1
  0
DIMSTYLE
105
F0
330
A
100
AcDbSymbolTableRecord
100
AcDbDimStyleTableRecord
  2
斜め注記_水平寸法 (ULVAC)
 70
     0
 40
2.0
 41
2.900000095367431
 42
1.27
 43
6.5
 44
1.199999999999999
 45
0.00000001
 46
10.0
 77
     1
 78
     8
 79
     2
140
3.5
143
0.03937
146
0.8000000119209289
147
0.8
171
     3
172
     1
176
   256
177
   256
178
   256
179
     2
271
     2
272
     3
274
     3
284
     8
340
DE
341
E4
342
E4
371
    -1
372
    -1
  0
DIMSTYLE
105
F1
330
A
100
AcDbSymbolTableRecord
100
AcDbDimStyleTableRecord
  2
斜め注記_水平寸法 (ULVAC)$7
 70
     0
 40
2.0
 41
2.900000095367431
 42
1.27
 43
6.5
 44
1.199999999999999
 45
0.00000001
 46
10.0
 77
     1
 78
     8
 79
     2
140
3.5
143
0.03937
146
0.8000000119209289
147
0.8
171
     3
172
     1
176
   256
177
   256
178
   256
179
     2
271
     2
272
     3
274
     3
284
     8
340
DE
341
E4
342
E4
371
    -1
372
    -1
  0
DIMSTYLE
105
F2
330
A
100
AcDbSymbolTableRecord
100
AcDbDimStyleTableRecord
  2
Alternate (ULVAC)
 70
     0
 40
2.0
 41
2.900000095367431
340
60
342
F3
  0
DIMSTYLE
105
FA
330
A
100
AcDbSymbolTableRecord
100
AcDbDimStyleTableRecord
  2
Alternate (ULVAC_Balloon)
 70
     0
 40
2.0
 41
2.900000095367431
340
60
342
F3
  0
DIMSTYLE
105
105
330
A
100
AcDbSymbolTableRecord
100
AcDbDimStyleTableRecord
  2
Datum (ULVAC)
 70
     0
 40
2.0
 41
2.25
340
60
342
F3
  0
DIMSTYLE
105
106
330
A
100
AcDbSymbolTableRecord
100
AcDbDimStyleTableRecord
  2
General (ULVAC_Balloon)
 70
     0
 40
2.0
 41
2.900000095367431
340
60
342
F3
  0
DIMSTYLE
105
115
330
A
100
AcDbSymbolTableRecord
100
AcDbDimStyleTableRecord
  2
Large (ISO)
 70
     0
 40
2.0
 41
5.0
340
60
342
F3
  0
ENDTAB
  0
TABLE
  2
BLOCK_RECORD
  5
1
330
0
100
AcDbSymbolTable
 70
    18
  0
BLOCK_RECORD
  5
77
330
1
100
AcDbSymbolTableRecord
100
AcDbBlockTableRecord
  2
*Model_Space
340
7A
  0
BLOCK_RECORD
  5
73
330
1
100
AcDbSymbolTableRecord
100
AcDbBlockTableRecord
  2
*Paper_Space
340
76
  0
BLOCK_RECORD
  5
7B
330
1
100
AcDbSymbolTableRecord
100
AcDbBlockTableRecord
  2
*Paper_Space0
340
7E
  0
BLOCK_RECORD
  5
E4
330
1
100
AcDbSymbolTableRecord
100
AcDbBlockTableRecord
  2
Open-1
340
0
102
{BLKREFS
331
5A4
331
5A5
331
68A
331
68B
331
78A
331
78B
331
86C
331
86D
331
952
331
953
331
A34
331
A35
331
B32
331
B33
331
C16
331
C17
331
CF8
331
CF9
331
DDA
331
DDB
102
}
  0
BLOCK_RECORD
  5
F3
330
1
100
AcDbSymbolTableRecord
100
AcDbBlockTableRecord
  2
_Closed
340
0
  0
BLOCK_RECORD
  5
FB
330
1
100
AcDbSymbolTableRecord
100
AcDbBlockTableRecord
  2
DatumFilled45
340
0
  0
BLOCK_RECORD
  5
107
330
1
100
AcDbSymbolTableRecord
100
AcDbBlockTableRecord
  2
Filled-1
340
0
  0
BLOCK_RECORD
  5
116
330
1
100
AcDbSymbolTableRecord
100
AcDbBlockTableRecord
  2
IPSTAMP_EJ
340
0
102
{BLKREFS
331
DE0
102
}
  0
BLOCK_RECORD
  5
11C
330
1
100
AcDbSymbolTableRecord
100
AcDbBlockTableRecord
  2
図面枠 ゾーン図枠(A3)
340
0
102
{BLKREFS
331
16D
102
}
  0
BLOCK_RECORD
  5
16E
330
1
100
AcDbSymbolTableRecord
100
AcDbBlockTableRecord
  2
表題欄 ULVAC表題欄
340
0
102
{BLKREFS
331
27D
102
}
  0
BLOCK_RECORD
  5
4C9
330
1
100
AcDbSymbolTableRecord
100
AcDbBlockTableRecord
  2
*D8
340
0
  0
BLOCK_RECORD
  5
5AF
330
1
100
AcDbSymbolTableRecord
100
AcDbBlockTableRecord
  2
*D9
340
0
  0
BLOCK_RECORD
  5
691
330
1
100
AcDbSymbolTableRecord
100
AcDbBlockTableRecord
  2
*D10
340
0
  0
BLOCK_RECORD
  5
791
330
1
100
AcDbSymbolTableRecord
100
AcDbBlockTableRecord
  2
*D11
340
0
  0
BLOCK_RECORD
  5
877
330
1
100
AcDbSymbolTableRecord
100
AcDbBlockTableRecord
  2
*D12
340
0
  0
BLOCK_RECORD
  5
959
330
1
100
AcDbSymbolTableRecord
100
AcDbBlockTableRecord
  2
*D13
340
0
  0
BLOCK_RECORD
  5
A3B
330
1
100
AcDbSymbolTableRecord
100
AcDbBlockTableRecord
  2
*D14
340
0
  0
BLOCK_RECORD
  5
B3B
330
1
100
AcDbSymbolTableRecord
100
AcDbBlockTableRecord
  2
*D15
340
0
  0
BLOCK_RECORD
  5
C1D
330
1
100
AcDbSymbolTableRecord
100
AcDbBlockTableRecord
  2
*D16
340
0
  0
BLOCK_RECORD
  5
CFF
330
1
100
AcDbSymbolTableRecord
100
AcDbBlockTableRecord
  2
*D17
340
0
  0
ENDTAB
  0
ENDSEC
  0
SECTION
  2
BLOCKS
  0
BLOCK
  5
78
330
77
100
AcDbEntity
  8
0
100
AcDbBlockBegin
  2
*Model_Space
 70
     0
 10
0.0
 20
0.0
 30
0.0
  3
*Model_Space
  1

  0
ENDBLK
  5
79
330
77
100
AcDbEntity
  8
0
100
AcDbBlockEnd
  0
BLOCK
  5
74
330
73
100
AcDbEntity
 67
     1
  8
0
100
AcDbBlockBegin
  2
*Paper_Space
 70
     0
 10
0.0
 20
0.0
 30
0.0
  3
*Paper_Space
  1

  0
ENDBLK
  5
75
330
73
100
AcDbEntity
 67
     1
  8
0
100
AcDbBlockEnd
  0
BLOCK
  5
7C
330
7B
100
AcDbEntity
 67
     1
  8
0
100
AcDbBlockBegin
  2
*Paper_Space0
 70
     0
 10
0.0
 20
0.0
 30
0.0
  3
*Paper_Space0
  1

  0
ENDBLK
  5
7D
330
7B
100
AcDbEntity
 67
     1
  8
0
100
AcDbBlockEnd
  0
BLOCK
  5
E5
330
E4
100
AcDbEntity
  8
0
100
AcDbBlockBegin
  2
Open-1
 70
     0
 10
0.0
 20
0.0
 30
0.0
  3
Open-1
  1

  0
LINE
  5
E7
330
E4
100
AcDbEntity
  8
0
 62
     0
100
AcDbLine
 10
-1.0
 20
0.0
 30
0.0
 11
0.0
 21
0.0
 31
0.0
  0
LINE
  5
E8
330
E4
100
AcDbEntity
  8
0
 62
     0
100
AcDbLine
 10
-1.0
 20
-0.2758620689655173
 30
0.0
 11
0.0
 21
0.0
 31
0.0
  0
LINE
  5
E9
330
E4
100
AcDbEntity
  8
0
 62
     0
100
AcDbLine
 10
0.0
 20
0.0
 30
0.0
 11
-1.0
 21
0.2758620689655173
 31
0.0
  0
ENDBLK
  5
E6
330
E4
100
AcDbEntity
  8
0
100
AcDbBlockEnd
  0
BLOCK
  5
F8
330
F3
100
AcDbEntity
  8
0
100
AcDbBlockBegin
  2
_Closed
 70
     0
 10
0.0
 20
0.0
 30
0.0
  3
_Closed
  1

  0
LINE
  5
F4
330
F3
100
AcDbEntity
  8
0
  6
ByBlock
 62
     0
370
    -2
100
AcDbLine
 10
-1.0
 20
0.1666666666666666
 30
0.0
 11
0.0
 21
0.0
 31
0.0
  0
LINE
  5
F5
330
F3
100
AcDbEntity
  8
0
  6
ByBlock
 62
     0
370
    -2
100
AcDbLine
 10
0.0
 20
0.0
 30
0.0
 11
-1.0
 21
-0.1666666666666666
 31
0.0
  0
LINE
  5
F6
330
F3
100
AcDbEntity
  8
0
  6
ByBlock
 62
     0
370
    -2
100
AcDbLine
 10
-1.0
 20
0.1666666666666666
 30
0.0
 11
-1.0
 21
-0.1666666666666666
 31
0.0
  0
LINE
  5
F7
330
F3
100
AcDbEntity
  8
0
  6
ByBlock
 62
     0
370
    -2
100
AcDbLine
 10
0.0
 20
0.0
 30
0.0
 11
-1.0
 21
0.0
 31
0.0
  0
ENDBLK
  5
F9
330
F3
100
AcDbEntity
  8
0
100
AcDbBlockEnd
  0
BLOCK
  5
FC
330
FB
100
AcDbEntity
  8
0
100
AcDbBlockBegin
  2
DatumFilled45
 70
     0
 10
0.0
 20
0.0
 30
0.0
  3
DatumFilled45
  1

  0
POLYLINE
  5
FE
330
FB
100
AcDbEntity
  8
0
 62
     0
100
AcDb2dPolyline
 66
     1
 10
0.0
 20
0.0
 30
0.0
 70
   128
  0
VERTEX
  5
FF
330
FE
100
AcDbEntity
  8
0
 62
     0
100
AcDbVertex
100
AcDb2dVertex
 10
0.0
 20
1.0
 30
0.0
  0
VERTEX
  5
100
330
FE
100
AcDbEntity
  8
0
 62
     0
100
AcDbVertex
100
AcDb2dVertex
 10
0.0
 20
-1.0
 30
0.0
  0
VERTEX
  5
102
330
FE
100
AcDbEntity
  8
0
 62
     0
100
AcDbVertex
100
AcDb2dVertex
 10
-1.0
 20
0.0
 30
0.0
  0
VERTEX
  5
103
330
FE
100
AcDbEntity
  8
0
 62
     0
100
AcDbVertex
100
AcDb2dVertex
 10
0.0
 20
1.0
 30
0.0
  0
SEQEND
  5
101
330
FE
100
AcDbEntity
  8
0
 62
     0
  0
SOLID
  5
104
330
FB
100
AcDbEntity
  8
0
 62
     0
100
AcDbTrace
 10
0.0
 20
1.0
 30
0.0
 11
0.0
 21
-1.0
 31
0.0
 12
-1.0
 22
0.0
 32
0.0
 13
0.0
 23
1.0
 33
0.0
  0
ENDBLK
  5
FD
330
FB
100
AcDbEntity
  8
0
100
AcDbBlockEnd
  0
BLOCK
  5
108
330
107
100
AcDbEntity
  8
0
100
AcDbBlockBegin
  2
Filled-1
 70
     0
 10
0.0
 20
0.0
 30
0.0
  3
Filled-1
  1

  0
LINE
  5
10A
330
107
100
AcDbEntity
  8
0
 62
     0
100
AcDbLine
 10
-1.0
 20
0.0
 30
0.0
 11
0.0
 21
0.0
 31
0.0
  0
POLYLINE
  5
10B
330
107
100
AcDbEntity
  8
0
 62
     0
100
AcDb2dPolyline
 66
     1
 10
0.0
 20
0.0
 30
0.0
 70
   128
  0
VERTEX
  5
10C
330
10B
100
AcDbEntity
  8
0
 62
     0
100
AcDbVertex
100
AcDb2dVertex
 10
-1.0
 20
-0.1
 30
0.0
  0
VERTEX
  5
10D
330
10B
100
AcDbEntity
  8
0
 62
     0
100
AcDbVertex
100
AcDb2dVertex
 10
0.0
 20
0.0
 30
0.0
  0
VERTEX
  5
10F
330
10B
100
AcDbEntity
  8
0
 62
     0
100
AcDbVertex
100
AcDb2dVertex
 10
-1.0
 20
0.1
 30
0.0
  0
VERTEX
  5
110
330
10B
100
AcDbEntity
  8
0
 62
     0
100
AcDbVertex
100
AcDb2dVertex
 10
-1.0
 20
-0.1
 30
0.0
  0
SEQEND
  5
10E
330
10B
100
AcDbEntity
  8
0
 62
     0
  0
SOLID
  5
111
330
107
100
AcDbEntity
  8
0
 62
     0
100
AcDbTrace
 10
-1.0
 20
-0.1
 30
0.0
 11
0.0
 21
0.0
 31
0.0
 12
-1.0
 22
0.1
 32
0.0
 13
-1.0
 23
-0.1
 33
0.0
  0
LINE
  5
112
330
107
100
AcDbEntity
  8
0
 62
     0
100
AcDbLine
 10
-1.0
 20
-0.1
 30
0.0
 11
0.0
 21
0.0
 31
0.0
  0
LINE
  5
113
330
107
100
AcDbEntity
  8
0
 62
     0
100
AcDbLine
 10
0.0
 20
0.0
 30
0.0
 11
-1.0
 21
0.1
 31
0.0
  0
LINE
  5
114
330
107
100
AcDbEntity
  8
0
 62
     0
100
AcDbLine
 10
-1.0
 20
0.1
 30
0.0
 11
-1.0
 21
-0.1
 31
0.0
  0
ENDBLK
  5
109
330
107
100
AcDbEntity
  8
0
100
AcDbBlockEnd
  0
BLOCK
  5
117
330
116
100
AcDbEntity
  8
0
100
AcDbBlockBegin
  2
IPSTAMP_EJ
 70
     0
 10
0.0
 20
0.0
 30
0.0
  3
IPSTAMP_EJ
  1

  0
MTEXT
  5
119
330
116
100
AcDbEntity
  8
寸法(細線)
 62
     7
100
AcDbMText
 10
1.999999999999992
 20
0.4935540896567581
 30
0.0
 40
2.199999988079071
 41
101.2525
 71
     7
 72
     1
  1
\fＭＳ ゴシック|b0|i0;\W0.91;\H2.2000;\fTahoma|b0|i0;\W0.91;\H2.2000;当図面の知的所有権はアルバックに帰属します。\P当社の書面による許可無き複写、製作及び他者への漏洩は禁止します。
  7
ULVAC
 73
     2
 44
0.9461999535560607
1001
ACAD
1000
MTEXTBEGIN
1070
    73
1070
     2
1070
    44
1040
0.9461999535560607
1070
    74
1070
     0
1000
MTEXTEND
  0
MTEXT
  5
11B
330
116
100
AcDbEntity
  8
寸法(細線)
 62
     7
100
AcDbMText
 10
1.999999999999992
 20
6.878575599090988
 30
0.0
 40
2.199999988079071
 41
101.2524999999999
 71
     7
 72
     1
  1
\fＭＳ ゴシック|b0|i0;\H2.2000;\fTahoma|b0|i0;\H2.2000;THIS DRAWING　IS PROPERTY OF ULVAC INC.\PTHIS INFORMATION IS NOT TO BE COPIED, REPRODUCED\POR DIVULGED WITHOUT WRITTEN PERMISSION FROM ULVAC INC.
  7
ULVAC
 73
     2
 44
0.9959999918937683
1001
ACAD
1000
MTEXTBEGIN
1070
    73
1070
     2
1070
    44
1040
0.9959999918937683
1070
    74
1070
     0
1000
MTEXTEND
  0
ENDBLK
  5
118
330
116
100
AcDbEntity
  8
0
100
AcDbBlockEnd
  0
BLOCK
  5
11D
330
11C
100
AcDbEntity
  8
0
100
AcDbBlockBegin
  2
図面枠 ゾーン図枠(A3)
 70
     0
 10
0.0
 20
0.0
 30
0.0
  3
図面枠 ゾーン図枠(A3)
  1

  0
LINE
  5
11F
330
11C
100
AcDbEntity
  8
実線(太線)
100
AcDbLine
 10
25.00000000000022
 20
287.0000000000008
 30
0.0
 11
409.9999999999995
 21
287.0000000000001
 31
0.0
  0
LINE
  5
120
330
11C
100
AcDbEntity
  8
実線(太線)
100
AcDbLine
 10
409.9999999999995
 20
287.0000000000001
 30
0.0
 11
409.9999999999995
 21
9.99999999999968
 31
0.0
  0
LINE
  5
121
330
11C
100
AcDbEntity
  8
実線(太線)
100
AcDbLine
 10
409.9999999999995
 20
9.999999999999666
 30
0.0
 11
25.00000000000035
 21
9.999999999999324
 31
0.0
  0
LINE
  5
122
330
11C
100
AcDbEntity
  8
実線(太線)
100
AcDbLine
 10
25.00000000000034
 20
9.999999999999324
 30
0.0
 11
25.00000000000022
 21
287.0000000000008
 31
0.0
  0
LINE
  5
123
330
11C
100
AcDbEntity
  8
実線(細線)
100
AcDbLine
 10
210.0
 20
292.0
 30
0.0
 11
209.9999999999996
 21
282.0
 31
0.0
  0
LINE
  5
124
330
11C
100
AcDbEntity
  8
実線(細線)
100
AcDbLine
 10
20.0000000000001
 20
148.4999999999999
 30
0.0
 11
30.00000000000004
 21
148.4999999999999
 31
0.0
  0
LINE
  5
125
330
11C
100
AcDbEntity
  8
実線(細線)
100
AcDbLine
 10
210.0000000000002
 20
5.000000000000277
 30
0.0
 11
210.0
 21
14.99999999999945
 31
0.0
  0
LINE
  5
126
330
11C
100
AcDbEntity
  8
実線(細線)
100
AcDbLine
 10
414.9999999999995
 20
148.5000000000002
 30
0.0
 11
404.9999999999995
 21
148.5000000000002
 31
0.0
  0
LINE
  5
127
330
11C
100
AcDbEntity
  8
実線(細線)
100
AcDbLine
 10
52.49999999999959
 20
286.9999999999999
 30
0.0
 11
52.49999999999993
 21
291.9999999999999
 31
0.0
  0
LINE
  5
128
330
11C
100
AcDbEntity
  8
実線(細線)
100
AcDbLine
 10
367.4999999999999
 20
292.0000000000001
 30
0.0
 11
367.4999999999999
 21
286.9999999999998
 31
0.0
  0
LINE
  5
129
330
11C
100
AcDbEntity
  8
実線(細線)
100
AcDbLine
 10
104.9999999999996
 20
287.0
 30
0.0
 11
105.0
 21
292.0
 31
0.0
  0
LINE
  5
12A
330
11C
100
AcDbEntity
  8
実線(細線)
100
AcDbLine
 10
157.4999999999996
 20
287.0
 30
0.0
 11
157.4999999999999
 21
292.0
 31
0.0
  0
LINE
  5
12B
330
11C
100
AcDbEntity
  8
実線(細線)
100
AcDbLine
 10
209.9999999999996
 20
287.0
 30
0.0
 11
210.0
 21
292.0
 31
0.0
  0
LINE
  5
12C
330
11C
100
AcDbEntity
  8
実線(細線)
100
AcDbLine
 10
262.4999999999996
 20
287.0
 30
0.0
 11
262.4999999999999
 21
292.0000000000001
 31
0.0
  0
LINE
  5
12D
330
11C
100
AcDbEntity
  8
実線(細線)
100
AcDbLine
 10
314.9999999999995
 20
287.0
 30
0.0
 11
314.9999999999999
 21
292.0000000000001
 31
0.0
  0
LINE
  5
12E
330
11C
100
AcDbEntity
  8
実線(細線)
100
AcDbLine
 10
25.0
 20
247.4999999999999
 30
0.0
 11
19.99999999999999
 21
247.4999999999999
 31
0.0
  0
LINE
  5
12F
330
11C
100
AcDbEntity
  8
実線(細線)
100
AcDbLine
 10
20.0000000000002
 20
49.49999999999988
 30
0.0
 11
25.00000000000009
 21
49.49999999999988
 31
0.0
  0
LINE
  5
130
330
11C
100
AcDbEntity
  8
実線(細線)
100
AcDbLine
 10
25.00000000000003
 20
197.9999999999998
 30
0.0
 11
20.00000000000004
 21
197.9999999999998
 31
0.0
  0
LINE
  5
131
330
11C
100
AcDbEntity
  8
実線(細線)
100
AcDbLine
 10
25.00000000000004
 20
148.4999999999999
 30
0.0
 11
20.0000000000001
 21
148.4999999999999
 31
0.0
  0
LINE
  5
132
330
11C
100
AcDbEntity
  8
実線(細線)
100
AcDbLine
 10
25.00000000000007
 20
98.99999999999989
 30
0.0
 11
20.00000000000015
 21
98.99999999999989
 31
0.0
  0
LINE
  5
133
330
11C
100
AcDbEntity
  8
実線(細線)
100
AcDbLine
 10
52.5
 20
9.999999999999316
 30
0.0
 11
52.50000000000017
 21
5.000000000000238
 31
0.0
  0
LINE
  5
134
330
11C
100
AcDbEntity
  8
実線(細線)
100
AcDbLine
 10
367.5000000000001
 20
5.000000000000316
 30
0.0
 11
367.5
 21
9.999999999999587
 31
0.0
  0
LINE
  5
135
330
11C
100
AcDbEntity
  8
実線(細線)
100
AcDbLine
 10
105.0
 20
9.999999999999362
 30
0.0
 11
105.0000000000002
 21
5.000000000000252
 31
0.0
  0
LINE
  5
136
330
11C
100
AcDbEntity
  8
実線(細線)
100
AcDbLine
 10
157.5
 20
9.999999999999406
 30
0.0
 11
157.5000000000001
 21
5.000000000000264
 31
0.0
  0
LINE
  5
137
330
11C
100
AcDbEntity
  8
実線(細線)
100
AcDbLine
 10
210.0
 20
9.999999999999451
 30
0.0
 11
210.0000000000002
 21
5.000000000000277
 31
0.0
  0
LINE
  5
138
330
11C
100
AcDbEntity
  8
実線(細線)
100
AcDbLine
 10
262.5
 20
9.999999999999495
 30
0.0
 11
262.5000000000002
 21
5.000000000000291
 31
0.0
  0
LINE
  5
139
330
11C
100
AcDbEntity
  8
実線(細線)
100
AcDbLine
 10
315.0
 20
9.999999999999541
 30
0.0
 11
315.0000000000002
 21
5.000000000000302
 31
0.0
  0
LINE
  5
13A
330
11C
100
AcDbEntity
  8
実線(細線)
100
AcDbLine
 10
409.9999999999995
 20
247.5000000000002
 30
0.0
 11
414.9999999999995
 21
247.5000000000002
 31
0.0
  0
LINE
  5
13B
330
11C
100
AcDbEntity
  8
実線(細線)
100
AcDbLine
 10
414.9999999999995
 20
49.50000000000025
 30
0.0
 11
409.9999999999995
 21
49.50000000000028
 31
0.0
  0
LINE
  5
13C
330
11C
100
AcDbEntity
  8
実線(細線)
100
AcDbLine
 10
414.9999999999995
 20
198.0000000000002
 30
0.0
 11
409.9999999999995
 21
198.0000000000002
 31
0.0
  0
LINE
  5
13D
330
11C
100
AcDbEntity
  8
実線(細線)
100
AcDbLine
 10
414.9999999999995
 20
148.5000000000002
 30
0.0
 11
409.9999999999995
 21
148.5000000000002
 31
0.0
  0
LINE
  5
13E
330
11C
100
AcDbEntity
  8
実線(細線)
100
AcDbLine
 10
414.9999999999995
 20
99.00000000000027
 30
0.0
 11
409.9999999999995
 21
99.00000000000028
 31
0.0
  0
LINE
  5
13F
330
11C
100
AcDbEntity
  8
実線(細線)
100
AcDbLine
 10
407.5000000000001
 20
122.0000000000001
 30
0.0
 11
410.0
 21
122.0000000000001
 31
0.0
  0
LINE
  5
140
330
11C
100
AcDbEntity
  8
実線(細線)
100
AcDbLine
 10
410.0
 20
117.0000000000001
 30
0.0
 11
408.5
 21
117.0000000000001
 31
0.0
  0
LINE
  5
141
330
11C
100
AcDbEntity
  8
実線(細線)
100
AcDbLine
 10
407.5000000000001
 20
112.0000000000001
 30
0.0
 11
410.0
 21
112.0000000000001
 31
0.0
  0
LINE
  5
142
330
11C
100
AcDbEntity
  8
実線(細線)
100
AcDbLine
 10
410.0
 20
107.0
 30
0.0
 11
408.5
 21
107.0
 31
0.0
  0
LINE
  5
143
330
11C
100
AcDbEntity
  8
実線(細線)
100
AcDbLine
 10
410.0
 20
102.0000000000001
 30
0.0
 11
407.5000000000001
 21
102.0000000000001
 31
0.0
  0
LINE
  5
144
330
11C
100
AcDbEntity
  8
実線(細線)
100
AcDbLine
 10
408.5
 20
97.00000000000011
 30
0.0
 11
410.0
 21
97.00000000000011
 31
0.0
  0
LINE
  5
145
330
11C
100
AcDbEntity
  8
実線(細線)
100
AcDbLine
 10
410.0
 20
92.00000000000015
 30
0.0
 11
407.5000000000001
 21
92.00000000000011
 31
0.0
  0
LINE
  5
146
330
11C
100
AcDbEntity
  8
実線(細線)
100
AcDbLine
 10
409.9999999999995
 20
287.0000000000001
 30
0.0
 11
409.9999999999995
 21
292.0000000000001
 31
0.0
  0
LINE
  5
147
330
11C
100
AcDbEntity
  8
実線(細線)
100
AcDbLine
 10
409.9999999999995
 20
287.0000000000001
 30
0.0
 11
414.9999999999995
 21
287.0000000000001
 31
0.0
  0
LINE
  5
148
330
11C
100
AcDbEntity
  8
実線(細線)
100
AcDbLine
 10
409.9999999999995
 20
9.999999999999623
 30
0.0
 11
414.9999999999995
 21
9.999999999999625
 31
0.0
  0
LINE
  5
149
330
11C
100
AcDbEntity
  8
実線(細線)
100
AcDbLine
 10
409.9999999999995
 20
9.999999999999623
 30
0.0
 11
409.9999999999995
 21
4.999999999999572
 31
0.0
  0
LINE
  5
14A
330
11C
100
AcDbEntity
  8
実線(細線)
100
AcDbLine
 10
25.00000000000011
 20
9.999999999999294
 30
0.0
 11
25.00000000000011
 21
4.999999999999479
 31
0.0
  0
LINE
  5
14B
330
11C
100
AcDbEntity
  8
実線(細線)
100
AcDbLine
 10
25.00000000000011
 20
9.999999999999294
 30
0.0
 11
20.00000000000024
 21
9.999999999999287
 31
0.0
  0
LINE
  5
14C
330
11C
100
AcDbEntity
  8
実線(細線)
100
AcDbLine
 10
24.99999999999998
 20
286.9999999999998
 30
0.0
 11
19.99999999999995
 21
286.9999999999998
 31
0.0
  0
LINE
  5
14D
330
11C
100
AcDbEntity
  8
実線(細線)
100
AcDbLine
 10
24.99999999999998
 20
286.9999999999998
 30
0.0
 11
24.99999999999998
 21
291.9999999999999
 31
0.0
  0
MTEXT
  5
14E
330
11C
100
AcDbEntity
  8
寸法(細線)
100
AcDbMText
 10
22.00000000000022
 20
267.2500000000009
 30
0.0
 40
3.499999940395355
 41
0.0
 71
     5
 72
     1
  1
\fTahoma|b0|i0;\H3.5000;A
  7
図枠用
 73
     1
 44
1.0
1001
ACAD
1000
MTEXTBEGIN
1070
    73
1070
     1
1070
    44
1040
1.0
1070
    74
1070
     0
1000
MTEXTEND
  0
MTEXT
  5
150
330
11C
100
AcDbEntity
  8
寸法(細線)
100
AcDbMText
 10
22.00000000000025
 20
222.7500000000008
 30
0.0
 40
3.499999940395355
 41
0.0
 71
     5
 72
     1
  1
\fTahoma|b0|i0;\H3.5000;B
  7
図枠用
 73
     1
 44
1.0
1001
ACAD
1000
MTEXTBEGIN
1070
    73
1070
     1
1070
    44
1040
1.0
1070
    74
1070
     0
1000
MTEXTEND
  0
MTEXT
  5
151
330
11C
100
AcDbEntity
  8
寸法(細線)
100
AcDbMText
 10
22.00000000000027
 20
173.2500000000008
 30
0.0
 40
3.499999940395355
 41
0.0
 71
     5
 72
     1
  1
\fTahoma|b0|i0;\H3.5000;C
  7
図枠用
 73
     1
 44
1.0
1001
ACAD
1000
MTEXTBEGIN
1070
    73
1070
     1
1070
    44
1040
1.0
1070
    74
1070
     0
1000
MTEXTEND
  0
MTEXT
  5
152
330
11C
100
AcDbEntity
  8
寸法(細線)
100
AcDbMText
 10
22.00000000000031
 20
123.7500000000008
 30
0.0
 40
3.499999940395355
 41
0.0
 71
     5
 72
     1
  1
\fTahoma|b0|i0;\H3.5000;D
  7
図枠用
 73
     1
 44
1.0
1001
ACAD
1000
MTEXTBEGIN
1070
    73
1070
     1
1070
    44
1040
1.0
1070
    74
1070
     0
1000
MTEXTEND
  0
MTEXT
  5
153
330
11C
100
AcDbEntity
  8
寸法(細線)
100
AcDbMText
 10
22.00000000000033
 20
74.25000000000085
 30
0.0
 40
3.499999940395355
 41
0.0
 71
     5
 72
     1
  1
\fTahoma|b0|i0;\H3.5000;E
  7
図枠用
 73
     1
 44
1.0
1001
ACAD
1000
MTEXTBEGIN
1070
    73
1070
     1
1070
    44
1040
1.0
1070
    74
1070
     0
1000
MTEXTEND
  0
MTEXT
  5
154
330
11C
100
AcDbEntity
  8
寸法(細線)
100
AcDbMText
 10
22.00000000000035
 20
29.75000000000085
 30
0.0
 40
3.499999940395355
 41
0.0
 71
     5
 72
     1
  1
\fTahoma|b0|i0;\H3.5000;F
  7
図枠用
 73
     1
 44
1.0
1001
ACAD
1000
MTEXTBEGIN
1070
    73
1070
     1
1070
    44
1040
1.0
1070
    74
1070
     0
1000
MTEXTEND
  0
MTEXT
  5
155
330
11C
100
AcDbEntity
  8
寸法(細線)
100
AcDbMText
 10
412.9999999999994
 20
267.2500000000013
 30
0.0
 40
3.499999940395355
 41
0.0
 71
     5
 72
     1
  1
\fTahoma|b0|i0;\H3.5000;A
  7
図枠用
 73
     1
 44
1.0
1001
ACAD
1000
MTEXTBEGIN
1070
    73
1070
     1
1070
    44
1040
1.0
1070
    74
1070
     0
1000
MTEXTEND
  0
MTEXT
  5
156
330
11C
100
AcDbEntity
  8
寸法(細線)
100
AcDbMText
 10
412.9999999999994
 20
222.7500000000012
 30
0.0
 40
3.499999940395355
 41
0.0
 71
     5
 72
     1
  1
\fTahoma|b0|i0;\H3.5000;B
  7
図枠用
 73
     1
 44
1.0
1001
ACAD
1000
MTEXTBEGIN
1070
    73
1070
     1
1070
    44
1040
1.0
1070
    74
1070
     0
1000
MTEXTEND
  0
MTEXT
  5
157
330
11C
100
AcDbEntity
  8
寸法(細線)
100
AcDbMText
 10
412.9999999999994
 20
173.2500000000012
 30
0.0
 40
3.499999940395355
 41
0.0
 71
     5
 72
     1
  1
\fTahoma|b0|i0;\H3.5000;C
  7
図枠用
 73
     1
 44
1.0
1001
ACAD
1000
MTEXTBEGIN
1070
    73
1070
     1
1070
    44
1040
1.0
1070
    74
1070
     0
1000
MTEXTEND
  0
MTEXT
  5
158
330
11C
100
AcDbEntity
  8
寸法(細線)
100
AcDbMText
 10
412.9999999999994
 20
123.7500000000012
 30
0.0
 40
3.499999940395355
 41
0.0
 71
     5
 72
     1
  1
\fTahoma|b0|i0;\H3.5000;D
  7
図枠用
 73
     1
 44
1.0
1001
ACAD
1000
MTEXTBEGIN
1070
    73
1070
     1
1070
    44
1040
1.0
1070
    74
1070
     0
1000
MTEXTEND
  0
MTEXT
  5
159
330
11C
100
AcDbEntity
  8
寸法(細線)
100
AcDbMText
 10
412.9999999999994
 20
74.25000000000122
 30
0.0
 40
3.499999940395355
 41
0.0
 71
     5
 72
     1
  1
\fTahoma|b0|i0;\H3.5000;E
  7
図枠用
 73
     1
 44
1.0
1001
ACAD
1000
MTEXTBEGIN
1070
    73
1070
     1
1070
    44
1040
1.0
1070
    74
1070
     0
1000
MTEXTEND
  0
MTEXT
  5
15A
330
11C
100
AcDbEntity
  8
寸法(細線)
100
AcDbMText
 10
412.9999999999994
 20
29.75000000000122
 30
0.0
 40
3.499999940395355
 41
0.0
 71
     5
 72
     1
  1
\fTahoma|b0|i0;\H3.5000;F
  7
図枠用
 73
     1
 44
1.0
1001
ACAD
1000
MTEXTBEGIN
1070
    73
1070
     1
1070
    44
1040
1.0
1070
    74
1070
     0
1000
MTEXTEND
  0
MTEXT
  5
15B
330
11C
100
AcDbEntity
  8
寸法(細線)
100
AcDbMText
 10
38.74999999999995
 20
290.0000000000001
 30
0.0
 40
3.499999940395355
 41
0.0
 71
     5
 72
     1
  1
\fTahoma|b0|i0;\H3.5000;1
  7
図枠用
 73
     1
 44
1.0
1001
ACAD
1000
MTEXTBEGIN
1070
    73
1070
     1
1070
    44
1040
1.0
1070
    74
1070
     0
1000
MTEXTEND
  0
MTEXT
  5
15C
330
11C
100
AcDbEntity
  8
寸法(細線)
100
AcDbMText
 10
78.7499999999997
 20
290.000000000001
 30
0.0
 40
3.499999940395355
 41
0.0
 71
     5
 72
     1
  1
\fTahoma|b0|i0;\H3.5000;2
  7
図枠用
 73
     1
 44
1.0
1001
ACAD
1000
MTEXTBEGIN
1070
    73
1070
     1
1070
    44
1040
1.0
1070
    74
1070
     0
1000
MTEXTEND
  0
MTEXT
  5
15D
330
11C
100
AcDbEntity
  8
寸法(細線)
100
AcDbMText
 10
131.2499999999997
 20
290.000000000001
 30
0.0
 40
3.499999940395355
 41
0.0
 71
     5
 72
     1
  1
\fTahoma|b0|i0;\H3.5000;3
  7
図枠用
 73
     1
 44
1.0
1001
ACAD
1000
MTEXTBEGIN
1070
    73
1070
     1
1070
    44
1040
1.0
1070
    74
1070
     0
1000
MTEXTEND
  0
MTEXT
  5
15E
330
11C
100
AcDbEntity
  8
寸法(細線)
100
AcDbMText
 10
183.7499999999997
 20
290.000000000001
 30
0.0
 40
3.499999940395355
 41
0.0
 71
     5
 72
     1
  1
\fTahoma|b0|i0;\H3.5000;4
  7
図枠用
 73
     1
 44
1.0
1001
ACAD
1000
MTEXTBEGIN
1070
    73
1070
     1
1070
    44
1040
1.0
1070
    74
1070
     0
1000
MTEXTEND
  0
MTEXT
  5
15F
330
11C
100
AcDbEntity
  8
寸法(細線)
100
AcDbMText
 10
236.2499999999997
 20
290.000000000001
 30
0.0
 40
3.499999940395355
 41
0.0
 71
     5
 72
     1
  1
\fTahoma|b0|i0;\H3.5000;5
  7
図枠用
 73
     1
 44
1.0
1001
ACAD
1000
MTEXTBEGIN
1070
    73
1070
     1
1070
    44
1040
1.0
1070
    74
1070
     0
1000
MTEXTEND
  0
MTEXT
  5
160
330
11C
100
AcDbEntity
  8
寸法(細線)
100
AcDbMText
 10
288.7499999999997
 20
290.0000000000011
 30
0.0
 40
3.499999940395355
 41
0.0
 71
     5
 72
     1
  1
\fTahoma|b0|i0;\H3.5000;6
  7
図枠用
 73
     1
 44
1.0
1001
ACAD
1000
MTEXTBEGIN
1070
    73
1070
     1
1070
    44
1040
1.0
1070
    74
1070
     0
1000
MTEXTEND
  0
MTEXT
  5
161
330
11C
100
AcDbEntity
  8
寸法(細線)
100
AcDbMText
 10
341.2499999999997
 20
290.0000000000011
 30
0.0
 40
3.499999940395355
 41
0.0
 71
     5
 72
     1
  1
\fTahoma|b0|i0;\H3.5000;7
  7
図枠用
 73
     1
 44
1.0
1001
ACAD
1000
MTEXTBEGIN
1070
    73
1070
     1
1070
    44
1040
1.0
1070
    74
1070
     0
1000
MTEXTEND
  0
MTEXT
  5
162
330
11C
100
AcDbEntity
  8
寸法(細線)
100
AcDbMText
 10
388.75
 20
290.0000000000001
 30
0.0
 40
3.499999940395355
 41
0.0
 71
     5
 72
     1
  1
\fTahoma|b0|i0;\H3.5000;8
  7
図枠用
 73
     1
 44
1.0
1001
ACAD
1000
MTEXTBEGIN
1070
    73
1070
     1
1070
    44
1040
1.0
1070
    74
1070
     0
1000
MTEXTEND
  0
MTEXT
  5
163
330
11C
100
AcDbEntity
  8
寸法(細線)
100
AcDbMText
 10
38.75000000000018
 20
7.000000000000222
 30
0.0
 40
3.499999940395355
 41
0.0
 71
     5
 72
     1
  1
\fTahoma|b0|i0;\H3.5000;1
  7
図枠用
 73
     1
 44
1.0
1001
ACAD
1000
MTEXTBEGIN
1070
    73
1070
     1
1070
    44
1040
1.0
1070
    74
1070
     0
1000
MTEXTEND
  0
MTEXT
  5
164
330
11C
100
AcDbEntity
  8
寸法(細線)
100
AcDbMText
 10
78.75000000000017
 20
7.000000000000231
 30
0.0
 40
3.499999940395355
 41
0.0
 71
     5
 72
     1
  1
\fTahoma|b0|i0;\H3.5000;2
  7
図枠用
 73
     1
 44
1.0
1001
ACAD
1000
MTEXTBEGIN
1070
    73
1070
     1
1070
    44
1040
1.0
1070
    74
1070
     0
1000
MTEXTEND
  0
MTEXT
  5
165
330
11C
100
AcDbEntity
  8
寸法(細線)
100
AcDbMText
 10
131.2500000000001
 20
7.000000000000243
 30
0.0
 40
3.499999940395355
 41
0.0
 71
     5
 72
     1
  1
\fTahoma|b0|i0;\H3.5000;3
  7
図枠用
 73
     1
 44
1.0
1001
ACAD
1000
MTEXTBEGIN
1070
    73
1070
     1
1070
    44
1040
1.0
1070
    74
1070
     0
1000
MTEXTEND
  0
MTEXT
  5
166
330
11C
100
AcDbEntity
  8
寸法(細線)
100
AcDbMText
 10
183.7500000000001
 20
7.000000000000257
 30
0.0
 40
3.499999940395355
 41
0.0
 71
     5
 72
     1
  1
\fTahoma|b0|i0;\H3.5000;4
  7
図枠用
 73
     1
 44
1.0
1001
ACAD
1000
MTEXTBEGIN
1070
    73
1070
     1
1070
    44
1040
1.0
1070
    74
1070
     0
1000
MTEXTEND
  0
MTEXT
  5
167
330
11C
100
AcDbEntity
  8
寸法(細線)
100
AcDbMText
 10
236.2500000000002
 20
7.00000000000027
 30
0.0
 40
3.499999940395355
 41
0.0
 71
     5
 72
     1
  1
\fTahoma|b0|i0;\H3.5000;5
  7
図枠用
 73
     1
 44
1.0
1001
ACAD
1000
MTEXTBEGIN
1070
    73
1070
     1
1070
    44
1040
1.0
1070
    74
1070
     0
1000
MTEXTEND
  0
MTEXT
  5
168
330
11C
100
AcDbEntity
  8
寸法(細線)
100
AcDbMText
 10
288.7500000000002
 20
7.000000000000282
 30
0.0
 40
3.499999940395355
 41
0.0
 71
     5
 72
     1
  1
\fTahoma|b0|i0;\H3.5000;6
  7
図枠用
 73
     1
 44
1.0
1001
ACAD
1000
MTEXTBEGIN
1070
    73
1070
     1
1070
    44
1040
1.0
1070
    74
1070
     0
1000
MTEXTEND
  0
MTEXT
  5
169
330
11C
100
AcDbEntity
  8
寸法(細線)
100
AcDbMText
 10
341.2500000000001
 20
7.000000000000295
 30
0.0
 40
3.499999940395355
 41
0.0
 71
     5
 72
     1
  1
\fTahoma|b0|i0;\H3.5000;7
  7
図枠用
 73
     1
 44
1.0
1001
ACAD
1000
MTEXTBEGIN
1070
    73
1070
     1
1070
    44
1040
1.0
1070
    74
1070
     0
1000
MTEXTEND
  0
MTEXT
  5
16A
330
11C
100
AcDbEntity
  8
寸法(細線)
100
AcDbMText
 10
388.7500000000001
 20
7.000000000000307
 30
0.0
 40
3.499999940395355
 41
0.0
 71
     5
 72
     1
  1
\fTahoma|b0|i0;\H3.5000;8
  7
図枠用
 73
     1
 44
1.0
1001
ACAD
1000
MTEXTBEGIN
1070
    73
1070
     1
1070
    44
1040
1.0
1070
    74
1070
     0
1000
MTEXTEND
  0
MTEXT
  5
16B
330
11C
100
AcDbEntity
  8
寸法(細線)
100
AcDbMText
 10
407.0000000000001
 20
122.0000000000001
 30
0.0
 40
2.5
 41
0.0
 71
     6
 72
     1
  1
\fTahoma|b0|i0;\H2.5000;30
  7
図枠用
 73
     1
 44
1.0
1001
ACAD
1000
MTEXTBEGIN
1070
    73
1070
     1
1070
    44
1040
1.0
1070
    74
1070
     0
1000
MTEXTEND
  0
MTEXT
  5
16C
330
11C
100
AcDbEntity
  8
寸法(細線)
100
AcDbMText
 10
407.0000000000001
 20
92.00000000000015
 30
0.0
 40
2.5
 41
0.0
 71
     6
 72
     1
  1
\fTahoma|b0|i0;\H2.5000;0
  7
図枠用
 73
     1
 44
1.0
1001
ACAD
1000
MTEXTBEGIN
1070
    73
1070
     1
1070
    44
1040
1.0
1070
    74
1070
     0
1000
MTEXTEND
  0
ENDBLK
  5
11E
330
11C
100
AcDbEntity
  8
0
100
AcDbBlockEnd
  0
BLOCK
  5
16F
330
16E
100
AcDbEntity
  8
0
100
AcDbBlockBegin
  2
表題欄 ULVAC表題欄
 70
     2
 10
0.0
 20
0.0
 30
0.0
  3
表題欄 ULVAC表題欄
  1

  0
ARC
  5
171
330
16E
100
AcDbEntity
  8
実線(中線)
 62
    30
100
AcDbCircle
 10
84.27558773894885
 20
27.5247436245494
 30
0.0
 40
0.0183014339639688
100
AcDbArc
 50
180.0
 51
270.0
  0
LINE
  5
172
330
16E
100
AcDbEntity
  8
実線(細線)
 62
    16
100
AcDbLine
 10
101.0
 20
64.00000000000002
 30
0.0
 11
175.0
 21
64.00000000000002
 31
0.0
  0
LINE
  5
173
330
16E
100
AcDbEntity
  8
実線(中線)
 62
    30
100
AcDbLine
 10
97.84812375940266
 20
29.21627969267353
 30
0.0
 11
98.44475148772023
 21
29.21627969267353
 31
0.0
  0
LINE
  5
174
330
16E
100
AcDbEntity
  8
実線(中線)
 62
    30
100
AcDbLine
 10
97.89795783593971
 20
30.70198198760917
 30
0.0
 11
98.54905912726128
 21
30.70198198760917
 31
0.0
  0
ARC
  5
175
330
16E
100
AcDbEntity
  8
実線(中線)
 62
    30
100
AcDbCircle
 10
97.93442782922472
 20
32.04474871228086
 30
0.0
 40
0.3660286792793762
100
AcDbArc
 50
230.5099444785507
 51
341.6481534344288
  0
LINE
  5
176
330
16E
100
AcDbEntity
  8
実線(中線)
 62
    30
100
AcDbLine
 10
98.28184064101055
 20
31.92950404966227
 30
0.0
 11
98.48188037700067
 21
32.53253733181278
 31
0.0
  0
ARC
  5
177
330
16E
100
AcDbEntity
  8
実線(中線)
 62
    30
100
AcDbCircle
 10
98.49469441312841
 20
32.5142358936634
 30
0.0
 40
0.0183014339639688
100
AcDbArc
 50
90.0
 51
150.0004403131238
  0
ARC
  5
178
330
16E
100
AcDbEntity
  8
実線(中線)
 62
    30
100
AcDbCircle
 10
98.53298965919742
 20
32.5142358936634
 30
0.0
 40
0.0183014339639688
100
AcDbArc
 50
0.0
 51
90.0
  0
LINE
  5
179
330
16E
100
AcDbEntity
  8
実線(中線)
 62
    30
100
AcDbLine
 10
98.49469441312841
 20
32.53253732762737
 30
0.0
 11
98.53298965919742
 21
32.53253732762737
 31
0.0
  0
LINE
  5
17A
330
16E
100
AcDbEntity
  8
実線(中線)
 62
    30
100
AcDbLine
 10
98.55129109316139
 20
32.5142358936634
 30
0.0
 11
98.55129109316139
 21
30.70198198808359
 31
0.0
  0
ELLIPSE
  5
17B
330
16E
100
AcDbEntity
  8
実線(中線)
 62
    30
100
AcDbEllipse
 10
95.83078854543702
 20
29.99480545972057
 30
0.0
 11
2.287679245496095
 21
-0.0000001615248652
 31
0.0
210
0.0
220
0.0
230
1.0
 40
0.7216510581970215
 41
0.4426733724477117
 42
5.792109617456223
  0
ELLIPSE
  5
17C
330
16E
100
AcDbEntity
  8
実線(中線)
 62
    30
100
AcDbEllipse
 10
95.42481819728806
 20
29.9948055263647
 30
0.0
 11
3.172930735277039
 21
-0.0000001920919516
 31
0.0
210
0.0
220
0.0
230
0.9999999999999996
 40
0.7998068702141572
 41
0.770473062673082
 42
5.971377141295471
  0
ARC
  5
17D
330
16E
100
AcDbEntity
  8
実線(中線)
 62
    30
100
AcDbCircle
 10
79.62435242190972
 20
28.89252710812938
 30
0.0
 40
0.0091507169819844
100
AcDbArc
 50
350.2609202919642
 51
146.6766537949536
  0
ARC
  5
17E
330
16E
100
AcDbEntity
  8
実線(中線)
 62
    30
100
AcDbCircle
 10
78.53757075927382
 20
28.92188017709042
 30
0.0
 40
0.9150716981984398
100
AcDbArc
 50
270.0
 51
326.6766537949552
  0
LINE
  5
17F
330
16E
100
AcDbEntity
  8
実線(中線)
 62
    30
100
AcDbLine
 10
79.30218964726363
 20
28.41917333511093
 30
0.0
 11
79.61670623302982
 21
28.89755417654918
 31
0.0
  0
ARC
  5
180
330
16E
100
AcDbEntity
  8
実線(中線)
 62
    30
100
AcDbCircle
 10
67.39395212294069
 20
28.51059288744523
 30
0.0
 40
0.45753584909922
100
AcDbArc
 50
202.6932775652488
 51
234.016048948011
  0
ARC
  5
181
330
16E
100
AcDbEntity
  8
実線(中線)
 62
    30
100
AcDbCircle
 10
67.35082535844461
 20
28.61372472329687
 30
0.0
 40
0.45753584909922
100
AcDbArc
 50
180.0
 51
202.6932775652483
  0
ARC
  5
182
330
16E
100
AcDbEntity
  8
実線(中線)
 62
    30
100
AcDbCircle
 10
68.03687324893042
 20
28.04375843927431
 30
0.0
 40
0.45753584909922
100
AcDbArc
 50
234.016048948011
 51
253.9178076732257
  0
ARC
  5
183
330
16E
100
AcDbEntity
  8
実線(中線)
 62
    30
100
AcDbCircle
 10
68.65691216124449
 20
27.8650021488154
 30
0.0
 40
0.45753584909922
100
AcDbArc
 50
253.9178076732257
 51
261.6064190568143
  0
LINE
  5
184
330
16E
100
AcDbEntity
  8
実線(中線)
 62
    30
100
AcDbLine
 10
67.1251229917923
 20
28.14036329454787
 30
0.0
 11
67.76804411778202
 21
27.67352884637695
 31
0.0
  0
LINE
  5
185
330
16E
100
AcDbEntity
  8
実線(中線)
 62
    30
100
AcDbLine
 10
67.91012848565586
 20
27.6041281193538
 30
0.0
 11
68.53016739796993
 21
27.42537182889489
 31
0.0
  0
LINE
  5
186
330
16E
100
AcDbEntity
  8
実線(中線)
 62
    30
100
AcDbLine
 10
66.97183716153287
 20
28.33407656364875
 30
0.0
 11
66.92871039703678
 21
28.43720839950039
 31
0.0
  0
ARC
  5
187
330
16E
100
AcDbEntity
  8
実線(中線)
 62
    30
100
AcDbCircle
 10
72.16149525790462
 20
28.05097770043659
 30
0.0
 40
0.45753584909922
100
AcDbArc
 50
284.4688421409731
 51
305.1353088422771
  0
ARC
  5
188
330
16E
100
AcDbEntity
  8
実線(中線)
 62
    30
100
AcDbCircle
 10
89.05769860544758
 20
28.11028785285529
 30
0.0
 40
0.45753584909922
100
AcDbArc
 50
310.2915552042222
 51
29.66165865504882
  0
ARC
  5
189
330
16E
100
AcDbEntity
  8
実線(中線)
 62
    30
100
AcDbCircle
 10
91.8439153618978
 20
28.3485009693514
 30
0.0
 40
0.45753584909922
100
AcDbArc
 50
211.3286928667025
 51
241.0759065697376
  0
ARC
  5
18A
330
16E
100
AcDbEntity
  8
実線(中線)
 62
    30
100
AcDbCircle
 10
89.17864579648707
 20
27.57699790295103
 30
0.0
 40
0.0274521509459532
100
AcDbArc
 50
130.291555204206
 51
180.0
  0
ARC
  5
18B
330
16E
100
AcDbEntity
  8
実線(中線)
 62
    30
100
AcDbCircle
 10
92.24363297572486
 20
27.57351905830347
 30
0.0
 40
0.0274521509459532
100
AcDbArc
 50
0.0
 51
61.0759065697549
  0
ARC
  5
18C
330
16E
100
AcDbEntity
  8
実線(中線)
 62
    30
100
AcDbCircle
 10
92.25278369270684
 20
27.5247436245494
 30
0.0
 40
0.0183014339639688
100
AcDbArc
 50
270.0
 51
0.0
  0
LINE
  5
18D
330
16E
100
AcDbEntity
  8
実線(中線)
 62
    30
100
AcDbLine
 10
92.27108512667081
 20
27.5247436245494
 30
0.0
 11
92.27108512667081
 21
27.57351905830347
 31
0.0
  0
ARC
  5
18E
330
16E
100
AcDbEntity
  8
実線(中線)
 62
    30
100
AcDbCircle
 10
89.16949507950509
 20
27.5247436245494
 30
0.0
 40
0.0183014339639688
100
AcDbArc
 50
180.0
 51
270.0
  0
LINE
  5
18F
330
16E
100
AcDbEntity
  8
実線(中線)
 62
    30
100
AcDbLine
 10
89.16089311189947
 20
27.59793740584612
 30
0.0
 11
89.35357668190734
 21
27.76129613793728
 31
0.0
  0
LINE
  5
190
330
16E
100
AcDbEntity
  8
実線(中線)
 62
    30
100
AcDbLine
 10
91.62262792802708
 20
27.94803758173417
 30
0.0
 11
92.25691022175709
 21
27.5975468615605
 31
0.0
  0
LINE
  5
191
330
16E
100
AcDbEntity
  8
実線(中線)
 62
    30
100
AcDbLine
 10
89.15119364554113
 20
27.5247436245494
 30
0.0
 11
89.15119364554113
 21
27.57699790295103
 31
0.0
  0
ARC
  5
192
330
16E
100
AcDbEntity
  8
実線(中線)
 62
    30
100
AcDbCircle
 10
71.64277704169482
 20
28.65465006208192
 30
0.0
 40
0.45753584909922
100
AcDbArc
 50
322.3146252338702
 51
0.0
  0
ARC
  5
193
330
16E
100
AcDbEntity
  8
実線(中線)
 62
    30
100
AcDbCircle
 10
86.02833312952185
 20
27.5247436245494
 30
0.0
 40
0.0183014339639688
100
AcDbArc
 50
270.0
 51
0.0
  0
ARC
  5
194
330
16E
100
AcDbEntity
  8
実線(中線)
 62
    30
100
AcDbCircle
 10
84.28473845593082
 20
27.57450998447851
 30
0.0
 40
0.0274521509459532
100
AcDbArc
 50
122.0410322243592
 51
180.0
  0
ARC
  5
195
330
16E
100
AcDbEntity
  8
実線(中線)
 62
    30
100
AcDbCircle
 10
86.01918241253988
 20
27.57643084749162
 30
0.0
 40
0.0274521509459532
100
AcDbArc
 50
0.0
 51
51.64187206940002
  0
ARC
  5
196
330
16E
100
AcDbEntity
  8
実線(中線)
 62
    30
100
AcDbCircle
 10
84.58672493286892
 20
28.33565647970111
 30
0.0
 40
0.45753584909922
100
AcDbArc
 50
302.0410322243666
 51
329.3600439739087
  0
ARC
  5
197
330
16E
100
AcDbEntity
  8
実線(中線)
 62
    30
100
AcDbCircle
 10
86.11696815315427
 20
28.11753414107857
 30
0.0
 40
0.45753584909922
100
AcDbArc
 50
149.3600439739066
 51
231.6418720693948
  0
LINE
  5
198
330
16E
100
AcDbEntity
  8
実線(中線)
 62
    30
100
AcDbLine
 10
85.83303289530602
 20
27.75875869241805
 30
0.0
 11
86.03621852801078
 21
27.59795737441125
 31
0.0
  0
LINE
  5
199
330
16E
100
AcDbEntity
  8
実線(中線)
 62
    30
100
AcDbLine
 10
84.27017436358694
 20
27.59778030475473
 30
0.0
 11
84.82945980526723
 21
27.94781780843079
 31
0.0
  0
LINE
  5
19A
330
16E
100
AcDbEntity
  8
実線(中線)
 62
    30
100
AcDbLine
 10
84.25728630498488
 20
27.5247436245494
 30
0.0
 11
84.25728630498488
 21
27.57450998447851
 31
0.0
  0
LINE
  5
19B
330
16E
100
AcDbEntity
  8
実線(中線)
 62
    30
100
AcDbLine
 10
86.04663456348582
 20
27.5247436245494
 30
0.0
 11
86.04663456348582
 21
27.57643084749162
 31
0.0
  0
ARC
  5
19C
330
16E
100
AcDbEntity
  8
実線(中線)
 62
    30
100
AcDbCircle
 10
84.192190067495
 20
31.46312572501129
 30
0.0
 40
0.45753584909922
100
AcDbArc
 50
329.9129623574227
 51
54.32124068791902
  0
ARC
  5
19D
330
16E
100
AcDbEntity
  8
実線(中線)
 62
    30
100
AcDbCircle
 10
85.74176900249989
 20
31.2533912647587
 30
0.0
 40
0.45753584909922
100
AcDbArc
 50
118.8516001623719
 51
149.9129623574241
  0
ARC
  5
19E
330
16E
100
AcDbEntity
  8
実線(中線)
 62
    30
100
AcDbCircle
 10
84.31837437727899
 20
31.99467806086975
 30
0.0
 40
0.0183014339639688
100
AcDbArc
 50
90.0
 51
180.0
  0
ARC
  5
19F
330
16E
100
AcDbEntity
  8
実線(中線)
 62
    30
100
AcDbCircle
 10
86.03776626485185
 20
31.99467806086975
 30
0.0
 40
0.0183014339639688
100
AcDbArc
 50
0.0
 51
90.0
  0
ARC
  5
1A0
330
16E
100
AcDbEntity
  8
実線(中線)
 62
    30
100
AcDbCircle
 10
84.32752509426098
 20
31.96300912108265
 30
0.0
 40
0.0274521509459532
100
AcDbArc
 50
180.0
 51
234.3212406879244
  0
ARC
  5
1A1
330
16E
100
AcDbEntity
  8
実線(中線)
 62
    30
100
AcDbCircle
 10
86.02861554786985
 20
31.96514294886514
 30
0.0
 40
0.0274521509459532
100
AcDbArc
 50
298.8516001623457
 51
0.0
  0
LINE
  5
1A2
330
16E
100
AcDbEntity
  8
実線(中線)
 62
    30
100
AcDbLine
 10
84.31151389856683
 20
31.94070974432
 30
0.0
 11
84.45904332906421
 21
31.83478200438893
 31
0.0
  0
LINE
  5
1A3
330
16E
100
AcDbEntity
  8
実線(中線)
 62
    30
100
AcDbLine
 10
85.52098843040127
 20
31.65413431484781
 30
0.0
 11
86.04186238219575
 21
31.94109836585978
 31
0.0
  0
LINE
  5
1A4
330
16E
100
AcDbEntity
  8
実線(中線)
 62
    30
100
AcDbLine
 10
84.30007294331502
 20
31.96300912108265
 30
0.0
 11
84.30007294331502
 21
31.99467806086975
 31
0.0
  0
LINE
  5
1A5
330
16E
100
AcDbEntity
  8
実線(中線)
 62
    30
100
AcDbLine
 10
86.0560676988158
 20
31.96514294886514
 30
0.0
 11
86.05606769881582
 21
31.99467806086975
 31
0.0
  0
ARC
  5
1A6
330
16E
100
AcDbEntity
  8
実線(中線)
 62
    30
100
AcDbCircle
 10
81.13038553552586
 20
31.96780524655786
 30
0.0
 40
0.0274521509459532
100
AcDbArc
 50
300.6225974401171
 51
0.0
  0
ARC
  5
1A7
330
16E
100
AcDbEntity
  8
実線(中線)
 62
    30
100
AcDbCircle
 10
81.13953625250786
 20
31.99467806086975
 30
0.0
 40
0.0183014339639688
100
AcDbArc
 50
0.0
 51
90.0
  0
ARC
  5
1A8
330
16E
100
AcDbEntity
  8
実線(中線)
 62
    30
100
AcDbCircle
 10
78.17276885600548
 20
31.99467806086975
 30
0.0
 40
0.0183014339639688
100
AcDbArc
 50
90.0
 51
180.0
  0
ARC
  5
1A9
330
16E
100
AcDbEntity
  8
実線(中線)
 62
    30
100
AcDbCircle
 10
78.18191957298748
 20
31.9658908444527
 30
0.0
 40
0.0274521509459532
100
AcDbArc
 50
180.0
 51
243.434963122501
  0
ARC
  5
1AA
330
16E
100
AcDbEntity
  8
実線(中線)
 62
    30
100
AcDbCircle
 10
81.17786013180882
 20
31.43232204972165
 30
0.0
 40
0.45753584909922
100
AcDbArc
 50
120.6225974401335
 51
210.6745406927814
  0
ARC
  5
1AB
330
16E
100
AcDbEntity
  8
実線(中線)
 62
    30
100
AcDbCircle
 10
78.54185231873228
 20
31.24369158334538
 30
0.0
 40
0.45753584909922
100
AcDbArc
 50
30.67454069278085
 51
63.43496312249693
  0
LINE
  5
1AC
330
16E
100
AcDbEntity
  8
実線(中線)
 62
    30
100
AcDbLine
 10
80.94480013091056
 20
31.82605049572503
 30
0.0
 11
81.14436913557975
 21
31.94418153979765
 31
0.0
  0
LINE
  5
1AD
330
16E
100
AcDbEntity
  8
実線(中線)
 62
    30
100
AcDbLine
 10
78.16964260398677
 20
31.94133689113118
 30
0.0
 11
78.746468468744
 21
31.65292413870398
 31
0.0
  0
LINE
  5
1AE
330
16E
100
AcDbEntity
  8
実線(中線)
 62
    30
100
AcDbLine
 10
81.15783768647181
 20
31.96780524655786
 30
0.0
 11
81.15783768647183
 21
31.99467806086975
 31
0.0
  0
LINE
  5
1AF
330
16E
100
AcDbEntity
  8
実線(中線)
 62
    30
100
AcDbLine
 10
78.15446742204152
 20
31.9658908444527
 30
0.0
 11
78.15446742204151
 21
31.99467806086975
 31
0.0
  0
LINE
  5
1B0
330
16E
100
AcDbEntity
  8
実線(中線)
 62
    30
100
AcDbLine
 10
68.64668466049228
 20
28.33905465601379
 30
0.0
 11
68.61895858679445
 21
28.37494693477318
 31
0.0
  0
ARC
  5
1B1
330
16E
100
AcDbEntity
  8
実線(中線)
 62
    30
100
AcDbCircle
 10
68.98104312616995
 20
28.6546500623141
 30
0.0
 40
0.45753584909922
100
AcDbArc
 50
180.0
 51
217.6853747661298
  0
ARC
  5
1B2
330
16E
100
AcDbEntity
  8
実線(中線)
 62
    30
100
AcDbCircle
 10
69.00876919986778
 20
28.61875778355472
 30
0.0
 40
0.45753584909922
100
AcDbArc
 50
217.6853747661303
 51
257.6356445680838
  0
LINE
  5
1B3
330
16E
100
AcDbEntity
  8
実線(中線)
 62
    30
100
AcDbLine
 10
69.47446024900478
 20
28.04827257217615
 30
0.0
 11
68.91079810856232
 21
28.1718341676209
 31
0.0
  0
ARC
  5
1B4
330
16E
100
AcDbEntity
  8
実線(中線)
 62
    30
100
AcDbCircle
 10
70.67449137095358
 20
36.62402065216547
 30
0.0
 40
8.659303079641354
100
AcDbArc
 50
262.0341483339005
 51
264.3484656952616
  0
ARC
  5
1B5
330
16E
100
AcDbEntity
  8
実線(中線)
 62
    30
100
AcDbCircle
 10
71.61505096799699
 20
28.61875778332253
 30
0.0
 40
0.45753584909922
100
AcDbArc
 50
282.3643554319162
 51
322.3146252338702
  0
LINE
  5
1B6
330
16E
100
AcDbEntity
  8
実線(中線)
 62
    30
100
AcDbLine
 10
71.14935991886001
 20
28.04827257194397
 30
0.0
 11
71.71302205930246
 21
28.17183416738871
 31
0.0
  0
LINE
  5
1B7
330
16E
100
AcDbEntity
  8
実線(中線)
 62
    30
100
AcDbLine
 10
71.97713550737249
 20
28.3390546557816
 30
0.0
 11
72.00486158107032
 21
28.37494693454099
 31
0.0
  0
ARC
  5
1B8
330
16E
100
AcDbEntity
  8
実線(中線)
 62
    30
100
AcDbCircle
 10
66.38452228749603
 20
31.99467806086975
 30
0.0
 40
0.0183014339639688
100
AcDbArc
 50
90.0
 51
180.0
  0
ARC
  5
1B9
330
16E
100
AcDbEntity
  8
実線(中線)
 62
    30
100
AcDbCircle
 10
69.03215554149929
 20
31.99467806086975
 30
0.0
 40
0.0183014339639688
100
AcDbArc
 50
0.0
 51
90.0
  0
ARC
  5
1BA
330
16E
100
AcDbEntity
  8
実線(中線)
 62
    30
100
AcDbCircle
 10
66.393673004478
 20
31.96223884050724
 30
0.0
 40
0.0274521509459532
100
AcDbArc
 50
180.0
 51
236.0496694967511
  0
ARC
  5
1BB
330
16E
100
AcDbEntity
  8
実線(中線)
 62
    30
100
AcDbCircle
 10
69.02300482451733
 20
31.96226226991751
 30
0.0
 40
0.0274521509459532
100
AcDbArc
 50
303.9582570957597
 51
0.0
  0
ARC
  5
1BC
330
16E
100
AcDbEntity
  8
実線(中線)
 62
    30
100
AcDbCircle
 10
66.43575366024615
 20
31.34924854232643
 30
0.0
 40
0.45753584909922
100
AcDbArc
 50
0.0
 51
56.04966949675489
  0
ARC
  5
1BD
330
16E
100
AcDbEntity
  8
実線(中線)
 62
    30
100
AcDbCircle
 10
68.98104312616995
 20
31.34928915611249
 30
0.0
 40
0.45753584909922
100
AcDbArc
 50
123.9582570957582
 51
180.0
  0
LINE
  5
1BE
330
16E
100
AcDbEntity
  8
実線(中線)
 62
    30
100
AcDbLine
 10
68.72546874408427
 20
31.728789865509
 30
0.0
 11
69.03833928744247
 21
31.93949222735371
 31
0.0
  0
LINE
  5
1BF
330
16E
100
AcDbEntity
  8
実線(中線)
 62
    30
100
AcDbLine
 10
66.37834169182427
 20
31.93946667671298
 30
0.0
 11
66.69127553780831
 21
31.72878460556424
 31
0.0
  0
LINE
  5
1C0
330
16E
100
AcDbEntity
  8
実線(中線)
 62
    30
100
AcDbLine
 10
69.05045697546327
 20
31.96226226991751
 30
0.0
 11
69.05045697546326
 21
31.99467806086975
 31
0.0
  0
LINE
  5
1C1
330
16E
100
AcDbEntity
  8
実線(中線)
 62
    30
100
AcDbLine
 10
66.36622085353207
 20
31.96223884050724
 30
0.0
 11
66.36622085353207
 21
31.99467806086975
 31
0.0
  0
ARC
  5
1C2
330
16E
100
AcDbEntity
  8
実線(中線)
 62
    30
100
AcDbCircle
 10
71.64277704169482
 20
31.3606561027313
 30
0.0
 40
0.45753584909922
100
AcDbArc
 50
0.0
 51
53.80036358700198
  0
ARC
  5
1C3
330
16E
100
AcDbEntity
  8
実線(中線)
 62
    30
100
AcDbCircle
 10
71.63998588454899
 20
31.9943218972282
 30
0.0
 40
0.0183014339639688
100
AcDbArc
 50
90.0
 51
180.0
  0
ARC
  5
1C4
330
16E
100
AcDbEntity
  8
実線(中線)
 62
    30
100
AcDbCircle
 10
71.66743803549493
 20
31.96628981285427
 30
0.0
 40
0.045753584909922
100
AcDbArc
 50
180.0
 51
233.8003635870046
  0
LINE
  5
1C5
330
16E
100
AcDbEntity
  8
実線(中線)
 62
    30
100
AcDbLine
 10
71.64041594322876
 20
31.92936831421639
 30
0.0
 11
71.91299796435668
 21
31.72987108911013
 31
0.0
  0
ARC
  5
1C6
330
16E
100
AcDbEntity
  8
実線(中線)
 62
    30
100
AcDbCircle
 10
73.35279295775212
 20
31.97022069802315
 30
0.0
 40
0.045753584909922
100
AcDbArc
 50
303.51137547322
 51
0.0
  0
ARC
  5
1C7
330
16E
100
AcDbEntity
  8
実線(中線)
 62
    30
100
AcDbCircle
 10
73.38024510869807
 20
31.9943218972282
 30
0.0
 40
0.0183014339639688
100
AcDbArc
 50
0.0
 51
90.0
  0
LINE
  5
1C8
330
16E
100
AcDbEntity
  8
実線(中線)
 62
    30
100
AcDbLine
 10
72.99011988461498
 20
31.6751939266935
 30
0.0
 11
73.3780536279056
 21
31.932072446746
 31
0.0
  0
ARC
  5
1C9
330
16E
100
AcDbEntity
  8
実線(中線)
 62
    30
100
AcDbCircle
 10
73.15731863392499
 20
31.45746327339655
 30
0.0
 40
0.2745215094595321
100
AcDbArc
 50
127.5212181517733
 51
180.0
  0
LINE
  5
1CA
330
16E
100
AcDbEntity
  8
実線(中線)
 62
    30
100
AcDbLine
 10
71.62168445058501
 20
31.96628981285427
 30
0.0
 11
71.62168445058501
 21
31.9943218972282
 31
0.0
  0
LINE
  5
1CB
330
16E
100
AcDbEntity
  8
実線(中線)
 62
    30
100
AcDbLine
 10
73.39854654266204
 20
31.97022069802315
 30
0.0
 11
73.39854654266204
 21
31.99432189746041
 31
0.0
  0
LINE
  5
1CC
330
16E
100
AcDbEntity
  8
実線(中線)
 62
    30
100
AcDbLine
 10
72.59146757722937
 20
27.79408848941074
 30
0.0
 11
72.42481140884644
 21
27.67680707376458
 31
0.0
  0
ARC
  5
1CD
330
16E
100
AcDbEntity
  8
実線(中線)
 62
    30
100
AcDbCircle
 10
72.19649335081664
 20
28.35534442941878
 30
0.0
 40
0.6863037736488302
100
AcDbArc
 50
305.1353088422752
 51
0.0
  0
LINE
  5
1CE
330
16E
100
AcDbEntity
  8
実線(中線)
 62
    30
100
AcDbLine
 10
72.88279712446547
 20
28.35534442941878
 30
0.0
 11
72.88279712446545
 21
31.45746327339655
 31
0.0
  0
ARC
  5
1CF
330
16E
100
AcDbEntity
  8
実線(中線)
 62
    30
100
AcDbCircle
 10
76.74868815350068
 20
28.78461942236065
 30
0.0
 40
0.7778109434686743
100
AcDbArc
 50
180.0
 51
270.0
  0
ARC
  5
1D0
330
16E
100
AcDbEntity
  8
実線(中線)
 62
    30
100
AcDbCircle
 10
73.83947809277427
 20
27.54221574463317
 30
0.0
 40
0.0915071698198441
100
AcDbArc
 50
125.1353088422695
 51
180.0
  0
ARC
  5
1D1
330
16E
100
AcDbEntity
  8
実線(中線)
 62
    30
100
AcDbCircle
 10
73.65435566865783
 20
28.36304625455042
 30
0.0
 40
0.6863037736488302
100
AcDbArc
 50
305.1353088422752
 51
0.0
  0
ARC
  5
1D2
330
16E
100
AcDbEntity
  8
実線(中線)
 62
    30
100
AcDbCircle
 10
73.76627235691841
 20
27.5247436245494
 30
0.0
 40
0.0183014339639688
100
AcDbArc
 50
180.0
 51
270.0
  0
LINE
  5
1D3
330
16E
100
AcDbEntity
  8
実線(中線)
 62
    30
100
AcDbLine
 10
73.74797092295441
 20
27.54221574463317
 30
0.0
 11
73.74797092295444
 21
27.5247436245494
 31
0.0
  0
LINE
  5
1D4
330
16E
100
AcDbEntity
  8
実線(中線)
 62
    30
100
AcDbLine
 10
74.04932989507054
 20
27.80179031454239
 30
0.0
 11
73.78681486258591
 21
27.61704986996758
 31
0.0
  0
LINE
  5
1D5
330
16E
100
AcDbEntity
  8
実線(中線)
 62
    30
100
AcDbLine
 10
69.82174042894166
 20
28.00680847791886
 30
0.0
 11
70.80207974126944
 21
28.00680847791886
 31
0.0
  0
ARC
  5
1D6
330
16E
100
AcDbEntity
  8
実線(中線)
 62
    30
100
AcDbCircle
 10
74.06613793284711
 20
31.45040875412931
 30
0.0
 40
0.2745215094595321
100
AcDbArc
 50
0.0
 51
54.82366186721004
  0
ARC
  5
1D7
330
16E
100
AcDbEntity
  8
実線(中線)
 62
    30
100
AcDbCircle
 10
76.24539871949155
 20
31.45097171384709
 30
0.0
 40
0.2745215094595321
100
AcDbArc
 50
125.361678350404
 51
180.0
  0
LINE
  5
1D8
330
16E
100
AcDbEntity
  8
実線(中線)
 62
    30
100
AcDbLine
 10
76.46805079253937
 20
31.94560175465337
 30
0.0
 11
76.08652327938663
 21
31.6748481388842
 31
0.0
  0
LINE
  5
1D9
330
16E
100
AcDbEntity
  8
実線(中線)
 62
    30
100
AcDbLine
 10
73.84000521587914
 20
31.94564226299743
 30
0.0
 11
74.22428834819081
 21
31.67479793676197
 31
0.0
  0
ARC
  5
1DA
330
16E
100
AcDbEntity
  8
実線(中線)
 62
    30
100
AcDbCircle
 10
73.85510869171993
 20
31.98883109893494
 30
0.0
 40
0.045753584909922
100
AcDbArc
 50
180.0
 51
250.724866313083
  0
ARC
  5
1DB
330
16E
100
AcDbEntity
  8
実線(中線)
 62
    30
100
AcDbCircle
 10
73.82765654077397
 20
31.99467806086975
 30
0.0
 40
0.0183014339639688
100
AcDbArc
 50
90.0
 51
180.0
  0
ARC
  5
1DC
330
16E
100
AcDbEntity
  8
実線(中線)
 62
    30
100
AcDbCircle
 10
76.48030848871029
 20
31.99467806086975
 30
0.0
 40
0.0183014339639688
100
AcDbArc
 50
0.0
 51
90.0
  0
ARC
  5
1DD
330
16E
100
AcDbEntity
  8
実線(中線)
 62
    30
100
AcDbCircle
 10
76.45285633776431
 20
31.98875866691779
 30
0.0
 40
0.045753584909922
100
AcDbArc
 50
289.3958740160664
 51
0.0
  0
LINE
  5
1DE
330
16E
100
AcDbEntity
  8
実線(中線)
 62
    30
100
AcDbLine
 10
73.80935510681
 20
31.98883109893494
 30
0.0
 11
73.80935510681
 21
31.99467806086975
 31
0.0
  0
LINE
  5
1DF
330
16E
100
AcDbEntity
  8
実線(中線)
 62
    30
100
AcDbLine
 10
76.49860992267424
 20
31.98875866691779
 30
0.0
 11
76.49860992267426
 21
31.99467806086975
 31
0.0
  0
LINE
  5
1E0
330
16E
100
AcDbEntity
  8
実線(中線)
 62
    30
100
AcDbLine
 10
71.63998588454899
 20
32.01262333119217
 30
0.0
 11
73.38024510844869
 21
32.01262333119217
 31
0.0
  0
ARC
  5
1E1
330
16E
100
AcDbEntity
  8
実線(中線)
 62
    30
100
AcDbCircle
 10
69.94932879691119
 20
36.62402065193328
 30
0.0
 40
9.311390711220958
100
AcDbArc
 50
261.606419056422
 51
284.4688421434992
  0
ARC
  5
1E2
330
16E
100
AcDbEntity
  8
実線(中線)
 62
    30
100
AcDbCircle
 10
69.94932879691119
 20
36.62402065193328
 30
0.0
 40
8.659303079641354
100
AcDbArc
 50
275.6515343203391
 51
277.9658516660997
  0
LINE
  5
1E3
330
16E
100
AcDbEntity
  8
実線(中線)
 62
    30
100
AcDbLine
 10
66.38452228749603
 20
32.01297949483372
 30
0.0
 11
69.03215554149929
 21
32.01297949483372
 31
0.0
  0
LINE
  5
1E4
330
16E
100
AcDbEntity
  8
実線(中線)
 62
    30
100
AcDbLine
 10
73.76627235691841
 20
27.50644219058543
 30
0.0
 11
79.39573596762361
 21
27.50644219058543
 31
0.0
  0
LINE
  5
1E5
330
16E
100
AcDbEntity
  8
実線(中線)
 62
    30
100
AcDbLine
 10
79.39573596762361
 20
27.50644219058543
 30
0.0
 11
79.63337126167155
 21
28.89097915766671
 31
0.0
  0
LINE
  5
1E6
330
16E
100
AcDbEntity
  8
実線(中線)
 62
    30
100
AcDbLine
 10
76.74868815350068
 20
28.00680847889197
 30
0.0
 11
78.53757075927382
 21
28.00680847889199
 31
0.0
  0
LINE
  5
1E7
330
16E
100
AcDbEntity
  8
実線(中線)
 62
    30
100
AcDbLine
 10
72.10031289079404
 20
28.65465006208192
 30
0.0
 11
72.10031289079404
 21
31.3606561027313
 31
0.0
  0
LINE
  5
1E8
330
16E
100
AcDbEntity
  8
実線(中線)
 62
    30
100
AcDbLine
 10
74.34065944230666
 20
28.36304625455042
 30
0.0
 11
74.34065944230666
 21
31.45040875412931
 31
0.0
  0
LINE
  5
1E9
330
16E
100
AcDbEntity
  8
実線(中線)
 62
    30
100
AcDbLine
 10
75.970877210032
 20
28.78461942236065
 30
0.0
 11
75.970877210032
 21
31.45097171384709
 31
0.0
  0
LINE
  5
1EA
330
16E
100
AcDbEntity
  8
実線(中線)
 62
    30
100
AcDbLine
 10
81.29059265303792
 20
27.50644219058543
 30
0.0
 11
83.04208972205046
 21
27.50644219058543
 31
0.0
  0
LINE
  5
1EB
330
16E
100
AcDbEntity
  8
実線(中線)
 62
    30
100
AcDbLine
 10
81.29059265303792
 20
27.50644219058543
 30
0.0
 11
78.93536931524605
 21
31.47710843506291
 31
0.0
  0
LINE
  5
1EC
330
16E
100
AcDbEntity
  8
実線(中線)
 62
    30
100
AcDbLine
 10
82.69834535238855
 20
27.97209274530761
 30
0.0
 11
80.78434313529506
 21
31.19890519800412
 31
0.0
  0
LINE
  5
1ED
330
16E
100
AcDbEntity
  8
実線(中線)
 62
    30
100
AcDbLine
 10
82.69834535238855
 20
27.97209274530761
 30
0.0
 11
84.58807975905026
 21
31.23375614260938
 31
0.0
  0
LINE
  5
1EE
330
16E
100
AcDbEntity
  8
実線(中線)
 62
    30
100
AcDbLine
 10
83.04208972205046
 20
27.50644219058543
 30
0.0
 11
85.34587931094463
 21
31.48276084716059
 31
0.0
  0
LINE
  5
1EF
330
16E
100
AcDbEntity
  8
実線(中線)
 62
    30
100
AcDbLine
 10
88.86970121536245
 20
29.36493950247829
 30
0.0
 11
87.6219069054278
 21
31.55596132119024
 31
0.0
  0
LINE
  5
1F0
330
16E
100
AcDbEntity
  8
実線(中線)
 62
    30
100
AcDbLine
 10
86.32407702236561
 20
29.36493950247829
 30
0.0
 11
87.6219069054278
 21
31.55596132119024
 31
0.0
  0
LINE
  5
1F1
330
16E
100
AcDbEntity
  8
実線(中線)
 62
    30
100
AcDbLine
 10
84.31837437727899
 20
32.01297949483372
 30
0.0
 11
86.03776626485185
 21
32.01297949483372
 31
0.0
  0
LINE
  5
1F2
330
16E
100
AcDbEntity
  8
実線(中線)
 62
    30
100
AcDbLine
 10
78.17276885600548
 20
32.01297949483372
 30
0.0
 11
81.13953625250786
 21
32.01297949483372
 31
0.0
  0
LINE
  5
1F3
330
16E
100
AcDbEntity
  8
実線(中線)
 62
    30
100
AcDbLine
 10
87.29672971284328
 20
32.01297949483372
 30
0.0
 11
89.07773148723482
 21
32.01297949483372
 31
0.0
  0
LINE
  5
1F4
330
16E
100
AcDbEntity
  8
実線(中線)
 62
    30
100
AcDbLine
 10
89.16949507950509
 20
27.50644219058543
 30
0.0
 11
92.25278369270684
 21
27.50644219058543
 31
0.0
  0
LINE
  5
1F5
330
16E
100
AcDbEntity
  8
実線(中線)
 62
    30
100
AcDbLine
 10
84.27558773894885
 20
27.50644219058543
 30
0.0
 11
86.02833312952185
 21
27.50644219058543
 31
0.0
  0
LINE
  5
1F6
330
16E
100
AcDbEntity
  8
実線(中線)
 62
    30
100
AcDbLine
 10
85.72331033412112
 20
28.35071341701234
 30
0.0
 11
86.02512634851606
 21
28.86024512174984
 31
0.0
  0
LINE
  5
1F7
330
16E
100
AcDbEntity
  8
実線(中線)
 62
    30
100
AcDbLine
 10
89.45528027106034
 20
28.33671195135086
 30
0.0
 11
89.15712636610749
 21
28.86024512174984
 31
0.0
  0
LINE
  5
1F8
330
16E
100
AcDbEntity
  8
実線(中線)
 62
    30
100
AcDbLine
 10
84.98038275190209
 20
28.10247720376735
 30
0.0
 11
87.29672971284328
 21
32.01297949483372
 31
0.0
  0
LINE
  5
1F9
330
16E
100
AcDbEntity
  8
実線(中線)
 62
    30
100
AcDbLine
 10
91.45308890045084
 20
28.11060660152442
 30
0.0
 11
89.07773148723482
 21
32.01297949483372
 31
0.0
  0
LINE
  5
1FA
330
16E
100
AcDbEntity
  8
実線(中線)
 62
    30
100
AcDbLine
 10
68.52350727707075
 20
28.6546500623141
 30
0.0
 11
68.52350727707073
 21
31.34928915611249
 31
0.0
  0
LINE
  5
1FB
330
16E
100
AcDbEntity
  8
実線(中線)
 62
    30
100
AcDbLine
 10
66.89328950934537
 20
28.61372472329687
 30
0.0
 11
66.89328950934537
 21
31.34924854232643
 31
0.0
  0
LINE
  5
1FC
330
16E
100
AcDbEntity
  8
実線(中線)
 62
    30
100
AcDbLine
 10
86.32407702236561
 20
29.36493950247829
 30
0.0
 11
88.86970121536245
 21
29.36493950247829
 31
0.0
  0
LINE
  5
1FD
330
16E
100
AcDbEntity
  8
実線(中線)
 62
    30
100
AcDbLine
 10
86.02512634851606
 20
28.86024512174984
 30
0.0
 11
89.15712636610749
 21
28.86024512174984
 31
0.0
  0
LINE
  5
1FE
330
16E
100
AcDbEntity
  8
実線(中線)
 62
    30
100
AcDbLine
 10
73.82765654077397
 20
32.01297949483372
 30
0.0
 11
76.48030848871029
 21
32.01297949483372
 31
0.0
  0
CIRCLE
  5
1FF
330
16E
100
AcDbEntity
  8
実線(中線)
 62
     5
100
AcDbCircle
 10
85.34770202636719
 20
41.00000000000001
 30
0.0
 40
3.199999809265137
  0
CIRCLE
  5
200
330
16E
100
AcDbEntity
  8
実線(中線)
 62
     5
100
AcDbCircle
 10
85.34770202636719
 20
41.00000000000001
 30
0.0
 40
1.59999942779541
  0
LINE
  5
201
330
16E
100
AcDbEntity
  8
実線(細線)
 62
    16
100
AcDbLine
 10
80.00000000000005
 20
46.00000000000001
 30
0.0
 11
80.00000000000005
 21
36.00000000000001
 31
0.0
  0
LINE
  5
202
330
16E
100
AcDbEntity
  8
実線(細線)
 62
    16
100
AcDbLine
 10
77.00000000000001
 20
25.0
 30
0.0
 11
77.00000000000001
 21
0.0
 31
0.0
  0
LINE
  5
203
330
16E
100
AcDbEntity
  8
実線(細線)
 62
    16
100
AcDbLine
 10
15.99999999999999
 20
36.00000000000001
 30
0.0
 11
16.0
 21
11.00000000000001
 31
0.0
  0
LINE
  5
204
330
16E
100
AcDbEntity
  8
実線(細線)
 62
    16
100
AcDbLine
 10
32.0
 20
46.00000000000001
 30
0.0
 11
32.0
 21
11.00000000000001
 31
0.0
  0
LINE
  5
205
330
16E
100
AcDbEntity
  8
実線(細線)
 62
    16
100
AcDbLine
 10
48.0
 20
36.00000000000001
 30
0.0
 11
48.0
 21
11.00000000000001
 31
0.0
  0
LINE
  5
206
330
16E
100
AcDbEntity
  8
実線(細線)
 62
    16
100
AcDbLine
 10
101.0
 20
52.00000000000001
 30
0.0
 11
175.0
 21
52.00000000000001
 31
0.0
  0
LINE
  5
207
330
16E
100
AcDbEntity
  8
実線(細線)
 62
    16
100
AcDbLine
 10
101.0
 20
58.0
 30
0.0
 11
175.0
 21
58.0
 31
0.0
  0
LINE
  5
208
330
16E
100
AcDbEntity
  8
実線(細線)
 62
    16
100
AcDbLine
 10
0.0
 20
64.00000000000002
 30
0.0
 11
101.0
 21
64.00000000000002
 31
0.0
  0
LINE
  5
209
330
16E
100
AcDbEntity
  8
実線(細線)
 62
    16
100
AcDbLine
 10
138.0
 20
64.00000000000002
 30
0.0
 11
138.0
 21
41.00000000000001
 31
0.0
  0
LINE
  5
20A
330
16E
100
AcDbEntity
  8
実線(細線)
 62
    16
100
AcDbLine
 10
64.0
 20
18.0
 30
0.0
 11
101.0
 21
18.0
 31
0.0
  0
LINE
  5
20B
330
16E
100
AcDbEntity
  8
実線(細線)
 62
    16
100
AcDbLine
 10
166.75
 20
2.75
 30
0.0
 11
172.25
 21
8.250000000000014
 31
0.0
  0
LINE
  5
20C
330
16E
100
AcDbEntity
  8
実線(細線)
 62
    16
100
AcDbLine
 10
116.0
 20
64.00000000000002
 30
0.0
 11
116.0
 21
41.00000000000001
 31
0.0
  0
LINE
  5
20D
330
16E
100
AcDbEntity
  8
実線(細線)
 62
    16
100
AcDbLine
 10
101.0
 20
41.00000000000001
 30
0.0
 11
175.0
 21
41.00000000000001
 31
0.0
  0
LINE
  5
20E
330
16E
100
AcDbEntity
  8
実線(細線)
 62
    16
100
AcDbLine
 10
70.00000000000006
 20
46.00000000000001
 30
0.0
 11
70.00000000000006
 21
36.00000000000001
 31
0.0
  0
LINE
  5
20F
330
16E
100
AcDbEntity
  8
実線(細線)
 62
    16
100
AcDbLine
 10
0.0
 20
46.00000000000001
 30
0.0
 11
175.0
 21
46.00000000000001
 31
0.0
  0
LINE
  5
210
330
16E
100
AcDbEntity
  8
実線(細線)
 62
    16
100
AcDbLine
 10
64.0
 20
25.0
 30
0.0
 11
101.0
 21
25.0
 31
0.0
  0
LINE
  5
211
330
16E
100
AcDbEntity
  8
実線(細線)
 62
    16
100
AcDbLine
 10
64.0
 20
36.00000000000001
 30
0.0
 11
64.0
 21
11.00000000000001
 31
0.0
  0
LINE
  5
212
330
16E
100
AcDbEntity
  8
実線(細線)
 62
    16
100
AcDbLine
 10
164.0
 20
0.0
 30
0.0
 11
164.0
 21
11.00000000000001
 31
0.0
  0
LINE
  5
213
330
16E
100
AcDbEntity
  8
一点鎖線(細線)
 62
    16
 48
8.889559745788574
100
AcDbLine
 10
85.34770202636719
 20
45.00000000000001
 30
0.0
 11
85.34770202636719
 21
37.00000000000001
 31
0.0
  0
LINE
  5
214
330
16E
100
AcDbEntity
  8
実線(中線)
 62
     5
100
AcDbLine
 10
91.74761638830341
 20
42.60041782533405
 30
0.0
 11
99.74757236725373
 21
44.20040875367137
 31
0.0
  0
LINE
  5
215
330
16E
100
AcDbEntity
  8
実線(中線)
 62
     5
100
AcDbLine
 10
91.74773936403063
 20
39.40040357563385
 30
0.0
 11
99.74775519287641
 21
37.80040067731945
 31
0.0
  0
LINE
  5
216
330
16E
100
AcDbEntity
  8
実線(中線)
 62
     5
100
AcDbLine
 10
91.74769592285157
 20
42.59999084472656
 30
0.0
 11
91.74769592285157
 21
39.39999389648438
 31
0.0
  0
LINE
  5
217
330
16E
100
AcDbEntity
  8
実線(中線)
 62
     5
100
AcDbLine
 10
99.74769592285156
 20
44.1999969482422
 30
0.0
 11
99.74769592285156
 21
37.79998779296875
 31
0.0
  0
LINE
  5
218
330
16E
100
AcDbEntity
  8
一点鎖線(細線)
 62
    16
 48
18.34603500366211
100
AcDbLine
 10
81.00000000000001
 20
41.00000000000001
 30
0.0
 11
100.5
 21
41.00000000000001
 31
0.0
  0
LINE
  5
219
330
16E
100
AcDbEntity
  8
実線(細線)
 62
    16
100
AcDbLine
 10
0.0
 20
27.00000000000001
 30
0.0
 11
64.0
 21
27.00000000000001
 31
0.0
  0
LINE
  5
21A
330
16E
100
AcDbEntity
  8
実線(細線)
 62
    16
100
AcDbLine
 10
101.0
 20
64.00000000000002
 30
0.0
 11
101.0
 21
11.00000000000001
 31
0.0
  0
LINE
  5
21B
330
16E
100
AcDbEntity
  8
実線(細線)
 62
    16
100
AcDbLine
 10
0.0
 20
82.00000000000001
 30
0.0
 11
0.0
 21
0.0
 31
0.0
  0
LINE
  5
21C
330
16E
100
AcDbEntity
  8
実線(細線)
 62
    16
100
AcDbLine
 10
0.0
 20
36.00000000000001
 30
0.0
 11
175.0
 21
36.00000000000001
 31
0.0
  0
LINE
  5
21D
330
16E
100
AcDbEntity
  8
実線(細線)
 62
    16
100
AcDbLine
 10
0.0
 20
11.00000000000001
 30
0.0
 11
175.0
 21
11.00000000000001
 31
0.0
  0
LINE
  5
21E
330
16E
100
AcDbEntity
  8
実線(細線)
 62
    16
100
AcDbLine
 10
175.0
 20
0.0
 30
0.0
 11
175.0
 21
64.00000000000002
 31
0.0
  0
LINE
  5
21F
330
16E
100
AcDbEntity
  8
実線(細線)
 62
    16
100
AcDbLine
 10
0.0
 20
0.0
 30
0.0
 11
175.0
 21
0.0
 31
0.0
  0
LINE
  5
220
330
16E
100
AcDbEntity
  8
実線(細線)
 62
    16
100
AcDbLine
 10
0.0
 20
55.00000000000001
 30
0.0
 11
101.0
 21
55.00000000000001
 31
0.0
  0
LINE
  5
221
330
16E
100
AcDbEntity
  8
実線(細線)
 62
    16
100
AcDbLine
 10
15.99999999999999
 20
46.00000000000001
 30
0.0
 11
16.00000054486772
 21
55.00000000000001
 31
0.0
  0
LINE
  5
222
330
16E
100
AcDbEntity
  8
実線(細線)
 62
    16
100
AcDbLine
 10
102.0
 20
47.10000000000001
 30
0.0
 11
106.5
 21
47.10000000000001
 31
0.0
  0
LINE
  5
223
330
16E
100
AcDbEntity
  8
実線(細線)
 62
    16
100
AcDbLine
 10
106.5
 20
47.10000000000001
 30
0.0
 11
104.25
 21
50.99711431702999
 31
0.0
  0
LINE
  5
224
330
16E
100
AcDbEntity
  8
実線(細線)
 62
    16
100
AcDbLine
 10
104.25
 20
50.99711431702999
 30
0.0
 11
102.0
 21
47.10000000000001
 31
0.0
  0
LINE
  5
225
330
16E
100
AcDbEntity
  8
実線(細線)
 62
    16
100
AcDbLine
 10
102.0
 20
53.10000000000002
 30
0.0
 11
106.5
 21
53.10000000000002
 31
0.0
  0
LINE
  5
226
330
16E
100
AcDbEntity
  8
実線(細線)
 62
    16
100
AcDbLine
 10
106.5
 20
53.10000000000002
 30
0.0
 11
104.25
 21
56.99711431702998
 31
0.0
  0
LINE
  5
227
330
16E
100
AcDbEntity
  8
実線(細線)
 62
    16
100
AcDbLine
 10
104.25
 20
56.99711431702998
 30
0.0
 11
102.0
 21
53.10000000000002
 31
0.0
  0
LINE
  5
228
330
16E
100
AcDbEntity
  8
実線(細線)
 62
    16
100
AcDbLine
 10
102.0
 20
59.10000000000001
 30
0.0
 11
106.5
 21
59.10000000000001
 31
0.0
  0
LINE
  5
229
330
16E
100
AcDbEntity
  8
実線(細線)
 62
    16
100
AcDbLine
 10
106.5
 20
59.10000000000001
 30
0.0
 11
104.25
 21
62.99711431702998
 31
0.0
  0
LINE
  5
22A
330
16E
100
AcDbEntity
  8
実線(細線)
 62
    16
100
AcDbLine
 10
104.25
 20
62.99711431702998
 30
0.0
 11
102.0
 21
59.10000000000001
 31
0.0
  0
LINE
  5
22B
330
16E
100
AcDbEntity
  8
実線(細線)
 62
    16
100
AcDbLine
 10
108.5
 20
49.00000000000002
 30
0.0
 11
109.5
 21
49.00000000000002
 31
0.0
  0
LINE
  5
22C
330
16E
100
AcDbEntity
  8
実線(細線)
 62
    16
100
AcDbLine
 10
108.5
 20
49.00000000000002
 30
0.0
 11
107.5
 21
49.00000000000002
 31
0.0
  0
LINE
  5
22D
330
16E
100
AcDbEntity
  8
実線(細線)
 62
    16
100
AcDbLine
 10
108.5
 20
55.0
 30
0.0
 11
109.5
 21
55.0
 31
0.0
  0
LINE
  5
22E
330
16E
100
AcDbEntity
  8
実線(細線)
 62
    16
100
AcDbLine
 10
108.5
 20
55.0
 30
0.0
 11
107.5
 21
55.0
 31
0.0
  0
LINE
  5
22F
330
16E
100
AcDbEntity
  8
実線(細線)
 62
    16
100
AcDbLine
 10
108.5
 20
61.00000000000001
 30
0.0
 11
109.5
 21
61.00000000000001
 31
0.0
  0
LINE
  5
230
330
16E
100
AcDbEntity
  8
実線(細線)
 62
    16
100
AcDbLine
 10
108.5
 20
61.00000000000001
 30
0.0
 11
107.5
 21
61.00000000000001
 31
0.0
  0
LINE
  5
231
330
16E
100
AcDbEntity
  8
実線(細線)
 62
    16
100
AcDbLine
 10
16.00000054486772
 20
55.00000000000001
 30
0.0
 11
16.00000054486773
 21
64.00000000000002
 31
0.0
  0
LINE
  5
232
330
16E
100
AcDbEntity
  8
スケッチ(細線)
100
AcDbLine
 10
0.0
 20
64.00000000000002
 30
0.0
 11
16.00000054486772
 21
55.00000000000001
 31
0.0
  0
LINE
  5
233
330
16E
100
AcDbEntity
  8
実線(細線)
 62
    16
100
AcDbLine
 10
51.75
 20
64.00000000000002
 30
0.0
 11
51.75
 21
55.0
 31
0.0
  0
LINE
  5
234
330
16E
100
AcDbEntity
  8
実線(細線)
 62
    16
100
AcDbLine
 10
75.75000000000001
 20
64.00000000000002
 30
0.0
 11
75.75000000000001
 21
55.0
 31
0.0
  0
LINE
  5
235
330
16E
100
AcDbEntity
  8
実線(細線)
 62
    16
100
AcDbLine
 10
70.00000000000006
 20
46.00000000000001
 30
0.0
 11
70.00000000000006
 21
55.00000000000001
 31
0.0
  0
LINE
  5
236
330
16E
100
AcDbEntity
  8
実線(細線)
 62
    16
100
AcDbLine
 10
80.00000000000005
 20
46.00000000000001
 30
0.0
 11
80.00000000000005
 21
55.00000000000001
 31
0.0
  0
LINE
  5
237
330
16E
100
AcDbEntity
  8
実線(細線)
 62
    16
100
AcDbLine
 10
7.0
 20
82.00000000000001
 30
0.0
 11
0.0
 21
82.00000000000001
 31
0.0
  0
LINE
  5
238
330
16E
100
AcDbEntity
  8
スケッチ(細線)
100
AcDbLine
 10
0.0
 20
55.00000000000001
 30
0.0
 11
16.00000054486772
 21
63.81484849977758
 31
0.0
  0
MTEXT
  5
239
330
16E
100
AcDbEntity
  8
寸法(細線)
100
AcDbMText
 10
1.999999999999999
 20
5.103187435617057
 30
0.0
 40
2.5
 41
0.0
 71
     4
 72
     1
  1
\fTahoma|b0|i0;\H2.5000;MFG\PNo.
  7
図枠用
 73
     2
 44
0.9878842234611511
1001
ACAD
1000
MTEXTBEGIN
1070
    73
1070
     2
1070
    44
1040
0.9878842234611511
1070
    74
1070
     0
1000
MTEXTEND
  0
MTEXT
  5
23A
330
16E
100
AcDbEntity
  8
寸法(細線)
100
AcDbMText
 10
7.999999999999998
 20
33.75000000000002
 30
0.0
 40
2.5
 41
0.0
 71
     5
 72
     1
  1
\fTahoma|b0|i0;\W0.90;\H2.5000;APPRV
  7
図枠用
 73
     1
 44
1.0
1001
ACAD
1000
MTEXTBEGIN
1070
    73
1070
     1
1070
    44
1040
1.0
1070
    74
1070
     0
1000
MTEXTEND
  0
MTEXT
  5
23B
330
16E
100
AcDbEntity
  8
寸法(細線)
100
AcDbMText
 10
24.0
 20
33.75000000000002
 30
0.0
 40
2.5
 41
0.0
 71
     5
 72
     1
  1
\fTahoma|b0|i0;\W0.90;\H2.5000;CHECK
  7
図枠用
 73
     1
 44
1.0
1001
ACAD
1000
MTEXTBEGIN
1070
    73
1070
     1
1070
    44
1040
1.0
1070
    74
1070
     0
1000
MTEXTEND
  0
MTEXT
  5
23C
330
16E
100
AcDbEntity
  8
寸法(細線)
100
AcDbMText
 10
40.0
 20
33.75000000000002
 30
0.0
 40
2.5
 41
0.0
 71
     5
 72
     1
  1
\fTahoma|b0|i0;\W0.90;\H2.5000;DESIG
  7
図枠用
 73
     1
 44
1.0
1001
ACAD
1000
MTEXTBEGIN
1070
    73
1070
     1
1070
    44
1040
1.0
1070
    74
1070
     0
1000
MTEXTEND
  0
MTEXT
  5
23D
330
16E
100
AcDbEntity
  8
寸法(細線)
100
AcDbMText
 10
56.00000000000001
 20
33.75000000000002
 30
0.0
 40
2.5
 41
0.0
 71
     5
 72
     1
  1
\fTahoma|b0|i0;\W0.90;\H2.5000;DRAW
  7
図枠用
 73
     1
 44
1.0
1001
ACAD
1000
MTEXTBEGIN
1070
    73
1070
     1
1070
    44
1040
1.0
1070
    74
1070
     0
1000
MTEXTEND
  0
MTEXT
  5
23E
102
{ACAD_XDICTIONARY
360
ECC
102
}
330
16E
100
AcDbEntity
  8
寸法(細線)
100
AcDbMText
 10
7.999999999999999
 20
29.25000000000001
 30
0.0
 40
3.000000119209289
 41
0.0
 71
     5
 72
     1
  1
\fTahoma|b0|i0;\W0.80;\H3.0000;\U+627F  \U+8A8D
  7
図枠用
 73
     1
 44
1.0
1001
ACAD
1000
MTEXTBEGIN
1070
    73
1070
     1
1070
    44
1040
1.0
1070
    74
1070
     0
1000
MTEXTEND
  0
MTEXT
  5
23F
102
{ACAD_XDICTIONARY
360
ECE
102
}
330
16E
100
AcDbEntity
  8
寸法(細線)
100
AcDbMText
 10
24.0
 20
29.25000000000001
 30
0.0
 40
3.000000119209289
 41
0.0
 71
     5
 72
     1
  1
\fTahoma|b0|i0;\W0.80;\H3.0000;\U+691C  \U+56F3
  7
図枠用
 73
     1
 44
1.0
1001
ACAD
1000
MTEXTBEGIN
1070
    73
1070
     1
1070
    44
1040
1.0
1070
    74
1070
     0
1000
MTEXTEND
  0
MTEXT
  5
240
102
{ACAD_XDICTIONARY
360
ED0
102
}
330
16E
100
AcDbEntity
  8
寸法(細線)
100
AcDbMText
 10
40.0
 20
29.25000000000001
 30
0.0
 40
3.000000119209289
 41
0.0
 71
     5
 72
     1
  1
\fTahoma|b0|i0;\W0.80;\H3.0000;\U+8A2D  \U+8A08
  7
図枠用
 73
     1
 44
1.0
1001
ACAD
1000
MTEXTBEGIN
1070
    73
1070
     1
1070
    44
1040
1.0
1070
    74
1070
     0
1000
MTEXTEND
  0
MTEXT
  5
241
102
{ACAD_XDICTIONARY
360
ED2
102
}
330
16E
100
AcDbEntity
  8
寸法(細線)
100
AcDbMText
 10
56.00000000000001
 20
29.25000000000001
 30
0.0
 40
3.000000119209289
 41
0.0
 71
     5
 72
     1
  1
\fTahoma|b0|i0;\W0.80;\H3.0000;\U+88FD  \U+56F3
  7
図枠用
 73
     1
 44
1.0
1001
ACAD
1000
MTEXTBEGIN
1070
    73
1070
     1
1070
    44
1040
1.0
1070
    74
1070
     0
1000
MTEXTEND
  0
MTEXT
  5
242
330
16E
100
AcDbEntity
  8
寸法(細線)
100
AcDbMText
 10
16.0
 20
40.51053474719327
 30
0.0
 40
3.000000119209289
 41
0.0
 71
     5
 72
     1
  1
\fTahoma|b0|i0;\W0.95;\H3.0000;TOLERANCES   \PUNLESS NOTED
  7
図枠用
 73
     2
 44
0.8960000276565551
1001
ACAD
1000
MTEXTBEGIN
1070
    73
1070
     2
1070
    44
1040
0.8960000276565551
1070
    74
1070
     0
1000
MTEXTEND
  0
MTEXT
  5
243
102
{ACAD_XDICTIONARY
360
ED4
102
}
330
16E
100
AcDbEntity
  8
寸法(細線)
100
AcDbMText
 10
51.00000000000003
 20
40.57009716580313
 30
0.0
 40
3.000000119209289
 41
0.0
 71
     5
 72
     1
  1
\fTahoma|b0|i0;\H3.0000;JIS B 0419- mH\U+7D1A\PJIS B 0408- B  \U+7D1A
  7
図枠用
 73
     2
 44
0.8960000276565551
1001
ACAD
1000
MTEXTBEGIN
1070
    73
1070
     2
1070
    44
1040
0.8960000276565551
1070
    74
1070
     0
1000
MTEXTEND
  0
MTEXT
  5
244
102
{ACAD_XDICTIONARY
360
ED6
102
}
330
16E
100
AcDbEntity
  8
寸法(細線)
100
AcDbMText
 10
7.999999999999998
 20
50.50000000000001
 30
0.0
 40
3.000000119209289
 41
0.0
 71
     5
 72
     1
  1
\fTahoma|b0|i0;\W0.70;\H3.0000;\U+6D41\U+7528\U+5143\U+56F3\U+756A
  7
図枠用
 73
     1
 44
1.0
1001
ACAD
1000
MTEXTBEGIN
1070
    73
1070
     1
1070
    44
1040
1.0
1070
    74
1070
     0
1000
MTEXTEND
  0
MTEXT
  5
245
330
16E
100
AcDbEntity
  8
寸法(細線)
100
AcDbMText
 10
79.00000000000002
 20
5.103187435617057
 30
0.0
 40
2.5
 41
0.0
 71
     4
 72
     1
  1
\fTahoma|b0|i0;\H2.5000;DWG\PNo.
  7
図枠用
 73
     2
 44
0.9878842234611511
1001
ACAD
1000
MTEXTBEGIN
1070
    73
1070
     2
1070
    44
1040
0.9878842234611511
1070
    74
1070
     0
1000
MTEXTEND
  0
MTEXT
  5
246
330
16E
100
AcDbEntity
  8
寸法(細線)
100
AcDbMText
 10
70.5
 20
21.5
 30
0.0
 40
2.5
 41
0.0
 71
     5
 72
     1
  1
\fTahoma|b0|i0;\H2.5000;SCALE
  7
図枠用
 73
     1
 44
1.0
1001
ACAD
1000
MTEXTBEGIN
1070
    73
1070
     1
1070
    44
1040
1.0
1070
    74
1070
     0
1000
MTEXTEND
  0
MTEXT
  5
247
330
16E
100
AcDbEntity
  8
寸法(細線)
100
AcDbMText
 10
70.5
 20
14.50000000000001
 30
0.0
 40
2.5
 41
0.0
 71
     5
 72
     1
  1
\fTahoma|b0|i0;\H2.5000;DATE
  7
図枠用
 73
     1
 44
1.0
1001
ACAD
1000
MTEXTBEGIN
1070
    73
1070
     1
1070
    44
1040
1.0
1070
    74
1070
     0
1000
MTEXTEND
  0
MTEXT
  5
248
330
16E
100
AcDbEntity
  8
寸法(細線)
100
AcDbMText
 10
104.0
 20
33.00000000000002
 30
0.0
 40
2.5
 41
0.0
 71
     4
 72
     1
  1
\fTahoma|b0|i0;\H2.5000;TITLE
  7
図枠用
 73
     1
 44
1.0
1001
ACAD
1000
MTEXTBEGIN
1070
    73
1070
     1
1070
    44
1040
1.0
1070
    74
1070
     0
1000
MTEXTEND
  0
MTEXT
  5
249
330
16E
100
AcDbEntity
  8
寸法(細線)
100
AcDbMText
 10
108.5
 20
43.50000000000001
 30
0.0
 40
3.000000119209289
 41
0.0
 71
     5
 72
     1
  1
\fTahoma|b0|i0;\H3.0000;MARK
  7
図枠用
 73
     1
 44
1.0
1001
ACAD
1000
MTEXTBEGIN
1070
    73
1070
     1
1070
    44
1040
1.0
1070
    74
1070
     0
1000
MTEXTEND
  0
MTEXT
  5
24A
330
16E
100
AcDbEntity
  8
寸法(細線)
100
AcDbMText
 10
127.0
 20
43.50000000000001
 30
0.0
 40
3.000000119209289
 41
0.0
 71
     5
 72
     1
  1
\fTahoma|b0|i0;\H3.0000;DATE
  7
図枠用
 73
     1
 44
1.0
1001
ACAD
1000
MTEXTBEGIN
1070
    73
1070
     1
1070
    44
1040
1.0
1070
    74
1070
     0
1000
MTEXTEND
  0
MTEXT
  5
24B
330
16E
100
AcDbEntity
  8
寸法(細線)
100
AcDbMText
 10
156.5
 20
43.50000000000001
 30
0.0
 40
3.000000119209289
 41
0.0
 71
     5
 72
     1
  1
\fTahoma|b0|i0;\H3.0000;REMARKS
  7
図枠用
 73
     1
 44
1.0
1001
ACAD
1000
MTEXTBEGIN
1070
    73
1070
     1
1070
    44
1040
1.0
1070
    74
1070
     0
1000
MTEXTEND
  0
MTEXT
  5
24C
330
16E
100
AcDbEntity
  8
寸法(細線)
100
AcDbMText
 10
138.0
 20
38.50000000000001
 30
0.0
 40
3.000000119209289
 41
0.0
 71
     5
 72
     1
  1
\fTahoma|b0|i0;\W1.20;\H3.0000;REVISION
  7
図枠用
 73
     1
 44
1.0
1001
ACAD
1000
MTEXTBEGIN
1070
    73
1070
     1
1070
    44
1040
1.0
1070
    74
1070
     0
1000
MTEXTEND
  0
MTEXT
  5
24D
102
{ACAD_XDICTIONARY
360
ED8
102
}
330
16E
100
AcDbEntity
  8
寸法(細線)
100
AcDbMText
 10
8.000000272433862
 20
59.50000000000001
 30
0.0
 40
5.0
 41
0.0
 71
     5
 72
     1
  1
\fTahoma|b0|i0;\H5.0000;\U+8CBC
  7
図枠用
 73
     1
 44
1.0
1001
ACAD
1000
MTEXTBEGIN
1070
    73
1070
     1
1070
    44
1040
1.0
1070
    74
1070
     0
1000
MTEXTEND
  0
MTEXT
  5
24E
330
16E
100
AcDbEntity
  8
寸法(細線)
100
AcDbMText
 10
18.00000054486772
 20
61.75
 30
0.0
 40
2.5
 41
0.0
 71
     4
 72
     1
  1
\fTahoma|b0|i0;\W0.90;\H2.5000;DWG.No
  7
図枠用
 73
     1
 44
1.0
1001
ACAD
1000
MTEXTBEGIN
1070
    73
1070
     1
1070
    44
1040
1.0
1070
    74
1070
     0
1000
MTEXTEND
  0
MTEXT
  5
24F
330
16E
100
AcDbEntity
  8
寸法(細線)
100
AcDbMText
 10
53.75
 20
61.75
 30
0.0
 40
2.5
 41
0.0
 71
     4
 72
     1
  1
\fTahoma|b0|i0;\W0.90;\H2.5000;DATE
  7
図枠用
 73
     1
 44
1.0
1001
ACAD
1000
MTEXTBEGIN
1070
    73
1070
     1
1070
    44
1040
1.0
1070
    74
1070
     0
1000
MTEXTEND
  0
MTEXT
  5
250
330
16E
100
AcDbEntity
  8
寸法(細線)
100
AcDbMText
 10
77.75000000000002
 20
61.75
 30
0.0
 40
2.5
 41
0.0
 71
     4
 72
     1
  1
\fTahoma|b0|i0;\W0.90;\H2.5000;NAME
  7
図枠用
 73
     1
 44
1.0
1001
ACAD
1000
MTEXTBEGIN
1070
    73
1070
     1
1070
    44
1040
1.0
1070
    74
1070
     0
1000
MTEXTEND
  0
MTEXT
  5
251
102
{ACAD_XDICTIONARY
360
EDA
102
}
330
16E
100
AcDbEntity
  8
寸法(細線)
100
AcDbMText
 10
75.00000000000006
 20
49.99108584473532
 30
0.0
 40
3.000000119209289
 41
0.0
 71
     5
 72
     1
  1
\fTahoma|b0|i0;\H3.0000;\U+8A08\U+7B97\P\U+91CD\U+91CF
  7
図枠用
 73
     2
 44
0.7800000309944153
1001
ACAD
1000
MTEXTBEGIN
1070
    73
1070
     2
1070
    44
1040
0.7800000309944153
1070
    74
1070
     0
1000
MTEXTEND
  0
ATTDEF
  5
253
102
{ACAD_XDICTIONARY
360
DF1
102
}
330
16E
100
AcDbEntity
  8
寸法(細線)
100
AcDbText
 10
18.00000054486772
 20
49.25000000000001
 30
0.0
 40
2.5
  1

  7
文字スタイル35
 11
18.00000054486772
 21
50.50000000000001
 31
0.0
100
AcDbAttributeDefinition
  3
流用元図番
  2
流用元図番
 70
     0
 74
     2
  0
ATTDEF
  5
256
102
{ACAD_XDICTIONARY
360
DF4
102
}
330
16E
100
AcDbEntity
  8
寸法(細線)
100
AcDbText
 10
113.0
 20
47.75000000000001
 30
0.0
 40
2.5
  1

  7
文字スタイル35
 72
     1
 11
113.0
 21
49.00000000000002
 31
0.0
100
AcDbAttributeDefinition
  3
<変更来歴B-COUNT>
  2
<変更来歴B-COUNT>
 70
     0
 74
     2
  0
ATTDEF
  5
257
102
{ACAD_XDICTIONARY
360
DF7
102
}
330
16E
100
AcDbEntity
  8
寸法(細線)
100
AcDbText
 10
113.0
 20
53.75
 30
0.0
 40
2.5
  1

  7
文字スタイル35
 72
     1
 11
113.0
 21
55.0
 31
0.0
100
AcDbAttributeDefinition
  3
<変更来歴C-COUNT>
  2
<変更来歴C-COUNT>
 70
     0
 74
     2
  0
ATTDEF
  5
258
102
{ACAD_XDICTIONARY
360
DFA
102
}
330
16E
100
AcDbEntity
  8
寸法(細線)
100
AcDbText
 10
113.0
 20
59.75000000000001
 30
0.0
 40
2.5
  1

  7
文字スタイル35
 72
     1
 11
113.0
 21
61.00000000000001
 31
0.0
100
AcDbAttributeDefinition
  3
<変更来歴D-COUNT>
  2
<変更来歴D-COUNT>
 70
     0
 74
     2
  0
ATTDEF
  5
259
102
{ACAD_XDICTIONARY
360
DFD
102
}
330
16E
100
AcDbEntity
  8
寸法(細線)
100
AcDbText
 10
127.0
 20
59.75000000000001
 30
0.0
 40
2.5
  1

  7
文字スタイル35
 72
     1
 11
127.0
 21
61.00000000000001
 31
0.0
100
AcDbAttributeDefinition
  3
<変更来歴D-DATE>
  2
<変更来歴D-DATE>
 70
     0
 74
     2
  0
ATTDEF
  5
25A
102
{ACAD_XDICTIONARY
360
E00
102
}
330
16E
100
AcDbEntity
  8
寸法(細線)
100
AcDbText
 10
127.0
 20
53.75
 30
0.0
 40
2.5
  1

  7
文字スタイル35
 72
     1
 11
127.0
 21
55.0
 31
0.0
100
AcDbAttributeDefinition
  3
<変更来歴C-DATE>
  2
<変更来歴C-DATE>
 70
     0
 74
     2
  0
ATTDEF
  5
25C
102
{ACAD_XDICTIONARY
360
E03
102
}
330
16E
100
AcDbEntity
  8
寸法(細線)
100
AcDbText
 10
139.0
 20
47.75000000000001
 30
0.0
 40
2.5
  1

 41
0.5
  7
文字スタイル211
 11
139.0
 21
49.00000000000002
 31
0.0
100
AcDbAttributeDefinition
  3
<変更来歴B-REMARKS>
  2
<変更来歴B-REMARKS>
 70
     0
 74
     2
  0
ATTDEF
  5
25D
102
{ACAD_XDICTIONARY
360
E06
102
}
330
16E
100
AcDbEntity
  8
寸法(細線)
100
AcDbText
 10
139.0
 20
53.75
 30
0.0
 40
2.5
  1

 41
0.5
  7
文字スタイル211
 11
139.0
 21
55.0
 31
0.0
100
AcDbAttributeDefinition
  3
<変更来歴C-REMARKS>
  2
<変更来歴C-REMARKS>
 70
     0
 74
     2
  0
ATTDEF
  5
25E
102
{ACAD_XDICTIONARY
360
E09
102
}
330
16E
100
AcDbEntity
  8
寸法(細線)
100
AcDbText
 10
139.0
 20
59.75000000000001
 30
0.0
 40
2.5
  1

 41
0.5
  7
文字スタイル211
 11
139.0
 21
61.00000000000001
 31
0.0
100
AcDbAttributeDefinition
  3
<変更来歴D-REMARKS>
  2
<変更来歴D-REMARKS>
 70
     0
 74
     2
  0
ATTDEF
  5
260
102
{ACAD_XDICTIONARY
360
E0C
102
}
330
16E
100
AcDbEntity
  8
寸法(細線)
100
AcDbText
 10
71.85493631730516
 20
38.90000007913333
 30
0.0
 40
4.199999868869781
  1
A3
  7
文字スタイル60
100
AcDbAttributeDefinition
  3
シート サイズ
  2
シート_サイズ_001
 70
     0
  0
ATTDEF
  5
262
102
{ACAD_XDICTIONARY
360
E0F
102
}
330
16E
100
AcDbEntity
  8
寸法(細線)
100
AcDbText
 10
126.5
 20
2.950000047683722
 30
0.0
 40
5.099999904632568
  1

  7
文字スタイル206
 72
     1
 11
126.5
 21
5.500000000000007
 31
0.0
100
AcDbAttributeDefinition
  3
図面番号
  2
図面番号
 70
     0
 74
     2
  0
ATTDEF
  5
264
102
{ACAD_XDICTIONARY
360
E12
102
}
330
16E
100
AcDbEntity
  8
寸法(細線)
100
AcDbText
 10
86.193015353205
 20
20.12189384265878
 30
0.0
 40
2.70000010728836
  1
1:2
  7
文字スタイル205
100
AcDbAttributeDefinition
  3
<尺度>
  2
<尺度>_001
 70
     0
  0
ATTDEF
  5
265
102
{ACAD_XDICTIONARY
360
E15
102
}
330
16E
100
AcDbEntity
  8
寸法(細線)
100
AcDbText
 10
80.18284088974182
 20
13.46574883139693
 30
0.0
 40
2.5
  1
2012/12/23
  7
文字スタイル35
100
AcDbAttributeDefinition
  3
作成日
  2
作成日_001
 70
     0
  0
ATTDEF
  5
267
102
{ACAD_XDICTIONARY
360
E18
102
}
330
16E
100
AcDbEntity
  8
寸法(細線)
100
AcDbText
 10
128.7769882080822
 20
16.76448853255505
 30
0.0
 40
4.300000071525573
  1
外形図
  7
文字スタイル207
100
AcDbAttributeDefinition
  3
タイトル
  2
タイトル_001
 70
     0
  0
ATTDEF
  5
269
102
{ACAD_XDICTIONARY
360
E1B
102
}
330
16E
100
AcDbEntity
  8
寸法(細線)
100
AcDbText
 10
132.7544660961795
 20
24.59999999403955
 30
0.0
 40
2.800000011920928
  1
RFP-N
  7
文字スタイル208
100
AcDbAttributeDefinition
  3
<サブタイトル>
  2
<サブタイトル>_001
 70
     0
  0
ATTDEF
  5
26B
102
{ACAD_XDICTIONARY
360
E1E
102
}
330
16E
100
AcDbEntity
  8
寸法(細線)
100
AcDbText
 10
103.4569845270036
 20
47.59999996423722
 30
0.0
 40
1.800000071525573
  1
B
  7
文字スタイル107
100
AcDbAttributeDefinition
  3
<変更来歴B-MARK>
  2
<変更来歴B-MARK>_001
 70
     0
  0
ATTDEF
  5
26C
102
{ACAD_XDICTIONARY
360
E21
102
}
330
16E
100
AcDbEntity
  8
寸法(細線)
100
AcDbText
 10
103.4872061532611
 20
53.59999997005218
 30
0.0
 40
1.800000071525573
  1
C
  7
文字スタイル107
100
AcDbAttributeDefinition
  3
<変更来歴C-MARK>
  2
<変更来歴C-MARK>_001
 70
     0
  0
ATTDEF
  5
26D
102
{ACAD_XDICTIONARY
360
E24
102
}
330
16E
100
AcDbEntity
  8
寸法(細線)
100
AcDbText
 10
103.3578575928791
 20
59.59999996423722
 30
0.0
 40
1.800000071525573
  1
D
  7
文字スタイル107
100
AcDbAttributeDefinition
  3
<変更来歴D-MARK>
  2
<変更来歴D-MARK>_001
 70
     0
  0
ATTDEF
  5
26E
102
{ACAD_XDICTIONARY
360
E27
102
}
330
16E
100
AcDbEntity
  8
寸法(細線)
100
AcDbText
 10
127.0
 20
47.75000000000001
 30
0.0
 40
2.5
  1

  7
文字スタイル35
 72
     1
 11
127.0
 21
49.00000000000002
 31
0.0
100
AcDbAttributeDefinition
  3
<変更来歴B-DATE>
  2
<変更来歴B-DATE>
 70
     0
 74
     2
  0
ATTDEF
  5
26F
102
{ACAD_XDICTIONARY
360
E2A
102
}
330
16E
100
AcDbEntity
  8
寸法(細線)
100
AcDbText
 10
20.00000054486773
 20
56.00000000000001
 30
0.0
 40
2.5
  1

  7
文字スタイル35
 11
20.00000054486773
 21
57.25000000000001
 31
0.0
100
AcDbAttributeDefinition
  3
<貼DWG.No>
  2
<貼DWG.No>
 70
     0
 74
     2
  0
ATTDEF
  5
270
102
{ACAD_XDICTIONARY
360
E2D
102
}
330
16E
100
AcDbEntity
  8
寸法(細線)
100
AcDbText
 10
63.75
 20
56.00000000000001
 30
0.0
 40
2.5
  1

  7
文字スタイル35
 72
     1
 11
63.75
 21
57.25000000000001
 31
0.0
100
AcDbAttributeDefinition
  3
<貼DATE>
  2
<貼DATE>
 70
     0
 74
     2
  0
ATTDEF
  5
272
102
{ACAD_XDICTIONARY
360
E30
102
}
330
16E
100
AcDbEntity
  8
寸法(細線)
100
AcDbText
 10
88.37500000000003
 20
56.09999997913838
 30
0.0
 40
2.300000041723251
  1

  7
文字スタイル204
 72
     1
 11
88.37500000000003
 21
57.25000000000001
 31
0.0
100
AcDbAttributeDefinition
  3
<貼NAME>
  2
<貼NAME>
 70
     0
 74
     2
  0
ATTDEF
  5
274
102
{ACAD_XDICTIONARY
360
E33
102
}
330
16E
100
AcDbEntity
  8
寸法(細線)
100
AcDbText
 10
90.50000000000004
 20
48.99999994039537
 30
0.0
 40
3.000000119209289
  1

  7
文字スタイル32
 72
     1
 11
90.50000000000004
 21
50.50000000000001
 31
0.0
100
AcDbAttributeDefinition
  3
重量
  2
重量
 70
     0
 74
     2
  0
ATTDEF
  5
276
102
{ACAD_XDICTIONARY
360
E36
102
}
330
16E
100
AcDbEntity
  8
寸法(細線)
100
AcDbText
 10
56.00000000000001
 20
17.8000000268221
 30
0.0
 40
2.399999946355819
  1

  7
文字スタイル228
 72
     1
 11
56.00000000000001
 21
19.00000000000001
 31
0.0
100
AcDbAttributeDefinition
  3
製図欄2
  2
製図欄2
 70
     0
 74
     2
  0
ATTDEF
  5
277
102
{ACAD_XDICTIONARY
360
E39
102
}
330
16E
100
AcDbEntity
  8
寸法(細線)
100
AcDbText
 10
56.00000000000001
 20
13.8000000268221
 30
0.0
 40
2.399999946355819
  1

  7
文字スタイル228
 72
     1
 11
56.00000000000001
 21
15.00000000000001
 31
0.0
100
AcDbAttributeDefinition
  3
製図者
  2
製図者
 70
     0
 74
     2
  0
ATTDEF
  5
278
102
{ACAD_XDICTIONARY
360
E3C
102
}
330
16E
100
AcDbEntity
  8
寸法(細線)
100
AcDbText
 10
56.00000000000001
 20
21.80000002682211
 30
0.0
 40
2.399999946355819
  1

  7
文字スタイル228
 72
     1
 11
56.00000000000001
 21
23.00000000000002
 31
0.0
100
AcDbAttributeDefinition
  3
製図欄1
  2
製図欄1
 70
     0
 74
     2
  0
ATTDEF
  5
27A
102
{ACAD_XDICTIONARY
360
E3F
102
}
330
16E
100
AcDbEntity
  8
寸法(細線)
100
AcDbText
 10
172.2157360255141
 20
1.499999940395355
 30
0.0
 40
3.000000119209289
  1
1
  7
文字スタイル117
100
AcDbAttributeDefinition
  3
シートの数
  2
シートの数_001
 70
     0
  0
ATTDEF
  5
27C
102
{ACAD_XDICTIONARY
360
E42
102
}
330
16E
100
AcDbEntity
  8
寸法(細線)
100
AcDbText
 10
167.7157360255141
 20
6.499999940395369
 30
0.0
 40
3.000000119209289
  1
1
  7
文字スタイル117
100
AcDbAttributeDefinition
  3
シート番号
  2
シート番号_001
 70
     0
  0
ENDBLK
  5
170
330
16E
100
AcDbEntity
  8
0
100
AcDbBlockEnd
  0
BLOCK
  5
4CA
330
4C9
100
AcDbEntity
  8
0
100
AcDbBlockBegin
  2
*D8
 70
     1
 10
0.0
 20
0.0
 30
0.0
  3
*D8
  1

  0
LINE
  5
5A1
330
4C9
100
AcDbEntity
  8
寸法(細線)
100
AcDbLine
 10
115.1061415518952
 20
384.5580149191986
 30
0.0
 11
76.02559938069939
 21
384.5580149191986
 31
0.0
  0
LINE
  5
5A2
330
4C9
100
AcDbEntity
  8
寸法(細線)
100
AcDbLine
 10
115.106141551895
 20
483.5580149191985
 30
0.0
 11
76.02559938069942
 21
483.5580149191985
 31
0.0
  0
LINE
  5
5A3
330
4C9
100
AcDbEntity
  8
寸法(細線)
100
AcDbLine
 10
78.42559938069939
 20
390.3580151099334
 30
0.0
 11
78.42559938069941
 21
477.7580147284636
 31
0.0
  0
INSERT
  5
5A4
330
4C9
100
AcDbEntity
  8
寸法(細線)
100
AcDbBlockReference
  2
Open-1
 10
78.42559938069939
 20
384.5580149191986
 30
0.0
 41
5.800000190734863
 42
5.800000190734863
 43
5.800000190734863
 50
270.0
  0
INSERT
  5
5A5
330
4C9
100
AcDbEntity
  8
寸法(細線)
100
AcDbBlockReference
  2
Open-1
 10
78.42559938069943
 20
483.5580149191985
 30
0.0
 41
5.800000190734863
 42
5.800000190734863
 43
5.800000190734863
 50
90.0
  0
MTEXT
  5
5A6
330
4C9
100
AcDbEntity
  8
寸法(細線)
100
AcDbMText
 10
69.54823206707406
 20
429.1594252933602
 30
0.0
 40
7.0
 41
0.0
 71
     1
 72
     1
  1
\A1;99
  7
Note Text (ULVAC_寸法)
 11
0.0000000000000001
 21
1.0
 31
0.0
 73
     1
 44
1.0
1001
ACAD
1000
MTEXTBEGIN
1070
    73
1070
     1
1070
    44
1040
1.0
1070
    74
1070
     0
1000
MTEXTEND
  0
POINT
  5
5A7
330
4C9
100
AcDbEntity
  8
Defpoints
 62
     0
100
AcDbPoint
 10
117.6461415518952
 20
384.5580149191986
 30
0.0
  0
POINT
  5
5A8
330
4C9
100
AcDbEntity
  8
Defpoints
 62
     0
100
AcDbPoint
 10
117.6461415518951
 20
483.5580149191985
 30
0.0
  0
POINT
  5
5A9
330
4C9
100
AcDbEntity
  8
Defpoints
 62
     0
100
AcDbPoint
 10
78.42559938069943
 20
483.5580149191985
 30
0.0
  0
ENDBLK
  5
4CB
330
4C9
100
AcDbEntity
  8
0
100
AcDbBlockEnd
  0
BLOCK
  5
5B0
330
5AF
100
AcDbEntity
  8
0
100
AcDbBlockBegin
  2
*D9
 70
     1
 10
0.0
 20
0.0
 30
0.0
  3
*D9
  1

  0
LINE
  5
687
330
5AF
100
AcDbEntity
  8
寸法(細線)
100
AcDbLine
 10
123.1061415518952
 20
409.0580149191985
 30
0.0
 11
91.48992428637001
 21
409.0580149191985
 31
0.0
  0
LINE
  5
688
330
5AF
100
AcDbEntity
  8
寸法(細線)
100
AcDbLine
 10
123.1061415518952
 20
459.0580149191985
 30
0.0
 11
91.48992428637003
 21
459.0580149191985
 31
0.0
  0
LINE
  5
689
330
5AF
100
AcDbEntity
  8
寸法(細線)
100
AcDbLine
 10
93.88992428637001
 20
414.8580151099333
 30
0.0
 11
93.88992428637003
 21
453.2580147284636
 31
0.0
  0
INSERT
  5
68A
330
5AF
100
AcDbEntity
  8
寸法(細線)
100
AcDbBlockReference
  2
Open-1
 10
93.88992428637001
 20
409.0580149191985
 30
0.0
 41
5.800000190734863
 42
5.800000190734863
 43
5.800000190734863
 50
270.0
  0
INSERT
  5
68B
330
5AF
100
AcDbEntity
  8
寸法(細線)
100
AcDbBlockReference
  2
Open-1
 10
93.88992428637003
 20
459.0580149191985
 30
0.0
 41
5.800000190734863
 42
5.800000190734863
 43
5.800000190734863
 50
90.0
  0
MTEXT
  5
68C
330
5AF
100
AcDbEntity
  8
寸法(細線)
100
AcDbMText
 10
85.00315468939374
 20
429.2887066894356
 30
0.0
 40
7.0
 41
0.0
 71
     1
 72
     1
  1
\A1;50
  7
Note Text (ULVAC_寸法)
 11
0.0000000000000001
 21
1.0
 31
0.0
 73
     1
 44
1.0
1001
ACAD
1000
MTEXTBEGIN
1070
    73
1070
     1
1070
    44
1040
1.0
1070
    74
1070
     0
1000
MTEXTEND
  0
POINT
  5
68D
330
5AF
100
AcDbEntity
  8
Defpoints
 62
     0
100
AcDbPoint
 10
125.6461415518952
 20
409.0580149191985
 30
0.0
  0
POINT
  5
68E
330
5AF
100
AcDbEntity
  8
Defpoints
 62
     0
100
AcDbPoint
 10
125.6461415518952
 20
459.0580149191985
 30
0.0
  0
POINT
  5
68F
330
5AF
100
AcDbEntity
  8
Defpoints
 62
     0
100
AcDbPoint
 10
93.88992428637003
 20
459.0580149191985
 30
0.0
  0
ENDBLK
  5
5B1
330
5AF
100
AcDbEntity
  8
0
100
AcDbBlockEnd
  0
BLOCK
  5
692
330
691
100
AcDbEntity
  8
0
100
AcDbBlockBegin
  2
*D10
 70
     1
 10
0.0
 20
0.0
 30
0.0
  3
*D10
  1

  0
LINE
  5
785
330
691
100
AcDbEntity
  8
寸法(細線)
100
AcDbLine
 10
115.1061415518951
 20
462.0580149191985
 30
0.0
 11
104.8349710008941
 21
462.0580149191985
 31
0.0
  0
LINE
  5
786
330
691
100
AcDbEntity
  8
寸法(細線)
100
AcDbLine
 10
115.1061415518951
 20
456.0580149191984
 30
0.0
 11
104.8349710008941
 21
456.0580149191984
 31
0.0
  0
LINE
  5
787
330
691
100
AcDbEntity
  8
寸法(細線)
100
AcDbLine
 10
107.2349710008941
 20
450.2580147284636
 30
0.0
 11
107.2349710008941
 21
444.4580145377288
 31
0.0
  0
LINE
  5
788
330
691
100
AcDbEntity
  8
寸法(細線)
100
AcDbLine
 10
107.2349710008941
 20
467.8580151099334
 30
0.0
 11
107.2349710008941
 21
481.3993181591708
 31
0.0
  0
LINE
  5
789
330
691
100
AcDbEntity
  8
寸法(細線)
100
AcDbLine
 10
107.2349710008941
 20
456.0580149191984
 30
0.0
 11
107.2349710008941
 21
462.0580149191985
 31
0.0
  0
INSERT
  5
78A
330
691
100
AcDbEntity
  8
寸法(細線)
100
AcDbBlockReference
  2
Open-1
 10
107.2349710008941
 20
456.0580149191984
 30
0.0
 41
5.800000190734863
 42
5.800000190734863
 43
5.800000190734863
 50
90.0
  0
INSERT
  5
78B
330
691
100
AcDbEntity
  8
寸法(細線)
100
AcDbBlockReference
  2
Open-1
 10
107.2349710008941
 20
462.0580149191985
 30
0.0
 41
5.800000190734863
 42
5.800000190734863
 43
5.800000190734863
 50
270.0
  0
MTEXT
  5
78C
330
691
100
AcDbEntity
  8
寸法(細線)
100
AcDbMText
 10
98.35760368726873
 20
475.2580153006682
 30
0.0
 40
7.0
 41
0.0
 71
     1
 72
     1
  1
\A1;6
  7
Note Text (ULVAC_寸法)
 11
0.0000000000000001
 21
1.0
 31
0.0
 73
     1
 44
1.0
1001
ACAD
1000
MTEXTBEGIN
1070
    73
1070
     1
1070
    44
1040
1.0
1070
    74
1070
     0
1000
MTEXTEND
  0
POINT
  5
78D
330
691
100
AcDbEntity
  8
Defpoints
 62
     0
100
AcDbPoint
 10
117.6461415518951
 20
462.0580149191985
 30
0.0
  0
POINT
  5
78E
330
691
100
AcDbEntity
  8
Defpoints
 62
     0
100
AcDbPoint
 10
117.6461415518951
 20
456.0580149191984
 30
0.0
  0
POINT
  5
78F
330
691
100
AcDbEntity
  8
Defpoints
 62
     0
100
AcDbPoint
 10
107.2349710008941
 20
456.0580149191984
 30
0.0
  0
ENDBLK
  5
693
330
691
100
AcDbEntity
  8
0
100
AcDbBlockEnd
  0
BLOCK
  5
792
330
791
100
AcDbEntity
  8
0
100
AcDbBlockBegin
  2
*D11
 70
     1
 10
0.0
 20
0.0
 30
0.0
  3
*D11
  1

  0
LINE
  5
869
330
791
100
AcDbEntity
  8
寸法(細線)
100
AcDbLine
 10
125.6461415518952
 20
398.5180149191986
 30
0.0
 11
125.6461415518952
 21
363.9636480396238
 31
0.0
  0
LINE
  5
86A
330
791
100
AcDbEntity
  8
寸法(細線)
100
AcDbLine
 10
345.6461415518958
 20
406.5180149191983
 30
0.0
 11
345.6461415518958
 21
363.9636480396238
 31
0.0
  0
LINE
  5
86B
330
791
100
AcDbEntity
  8
寸法(細線)
100
AcDbLine
 10
131.44614174263
 20
366.3636480396238
 30
0.0
 11
339.8461413611609
 21
366.3636480396238
 31
0.0
  0
INSERT
  5
86C
330
791
100
AcDbEntity
  8
寸法(細線)
100
AcDbBlockReference
  2
Open-1
 10
125.6461415518952
 20
366.3636480396238
 30
0.0
 41
5.800000190734863
 42
5.800000190734863
 43
5.800000190734863
 50
180.0
  0
INSERT
  5
86D
330
791
100
AcDbEntity
  8
寸法(細線)
100
AcDbBlockReference
  2
Open-1
 10
345.6461415518958
 20
366.3636480396238
 30
0.0
 41
5.800000190734863
 42
5.800000190734863
 43
5.800000190734863
  0
MTEXT
  5
86E
330
791
100
AcDbEntity
  8
寸法(細線)
100
AcDbMText
 10
228.2136365629797
 20
375.2551187782755
 30
0.0
 40
7.0
 41
0.0
 71
     1
 72
     1
  1
\A1;220
  7
Note Text (ULVAC_寸法)
 73
     1
 44
1.0
1001
ACAD
1000
MTEXTBEGIN
1070
    73
1070
     1
1070
    44
1040
1.0
1070
    74
1070
     0
1000
MTEXTEND
  0
POINT
  5
86F
330
791
100
AcDbEntity
  8
Defpoints
 62
     0
100
AcDbPoint
 10
125.6461415518952
 20
401.0580149191985
 30
0.0
  0
POINT
  5
870
330
791
100
AcDbEntity
  8
Defpoints
 62
     0
100
AcDbPoint
 10
345.6461415518958
 20
409.0580149191984
 30
0.0
  0
POINT
  5
871
330
791
100
AcDbEntity
  8
Defpoints
 62
     0
100
AcDbPoint
 10
345.6461415518958
 20
366.3636480396238
 30
0.0
  0
ENDBLK
  5
793
330
791
100
AcDbEntity
  8
0
100
AcDbBlockEnd
  0
BLOCK
  5
878
330
877
100
AcDbEntity
  8
0
100
AcDbBlockBegin
  2
*D12
 70
     1
 10
0.0
 20
0.0
 30
0.0
  3
*D12
  1

  0
LINE
  5
94F
330
877
100
AcDbEntity
  8
寸法(細線)
100
AcDbLine
 10
115.646141551895
 20
484.0980149191985
 30
0.0
 11
115.646141551895
 21
511.9437166231432
 31
0.0
  0
LINE
  5
950
330
877
100
AcDbEntity
  8
寸法(細線)
100
AcDbLine
 10
355.6461415518958
 20
484.0980149191982
 30
0.0
 11
355.6461415518958
 21
511.9437166231432
 31
0.0
  0
LINE
  5
951
330
877
100
AcDbEntity
  8
寸法(細線)
100
AcDbLine
 10
121.4461417426299
 20
509.5437166231432
 30
0.0
 11
349.8461413611609
 21
509.5437166231432
 31
0.0
  0
INSERT
  5
952
330
877
100
AcDbEntity
  8
寸法(細線)
100
AcDbBlockReference
  2
Open-1
 10
115.646141551895
 20
509.5437166231432
 30
0.0
 41
5.800000190734863
 42
5.800000190734863
 43
5.800000190734863
 50
180.0
  0
INSERT
  5
953
330
877
100
AcDbEntity
  8
寸法(細線)
100
AcDbBlockReference
  2
Open-1
 10
355.6461415518958
 20
509.5437166231432
 30
0.0
 41
5.800000190734863
 42
5.800000190734863
 43
5.800000190734863
  0
MTEXT
  5
954
330
877
100
AcDbEntity
  8
寸法(細線)
100
AcDbMText
 10
228.2136365629796
 20
518.4351873617949
 30
0.0
 40
7.0
 41
0.0
 71
     1
 72
     1
  1
\A1;240
  7
Note Text (ULVAC_寸法)
 73
     1
 44
1.0
1001
ACAD
1000
MTEXTBEGIN
1070
    73
1070
     1
1070
    44
1040
1.0
1070
    74
1070
     0
1000
MTEXTEND
  0
POINT
  5
955
330
877
100
AcDbEntity
  8
Defpoints
 62
     0
100
AcDbPoint
 10
115.646141551895
 20
481.5580149191984
 30
0.0
  0
POINT
  5
956
330
877
100
AcDbEntity
  8
Defpoints
 62
     0
100
AcDbPoint
 10
355.6461415518958
 20
481.5580149191982
 30
0.0
  0
POINT
  5
957
330
877
100
AcDbEntity
  8
Defpoints
 62
     0
100
AcDbPoint
 10
355.6461415518958
 20
509.5437166231432
 30
0.0
  0
ENDBLK
  5
879
330
877
100
AcDbEntity
  8
0
100
AcDbBlockEnd
  0
BLOCK
  5
95A
330
959
100
AcDbEntity
  8
0
100
AcDbBlockBegin
  2
*D13
 70
     1
 10
0.0
 20
0.0
 30
0.0
  3
*D13
  1

  0
LINE
  5
A31
330
959
100
AcDbEntity
  8
寸法(細線)
100
AcDbLine
 10
435.419285306025
 20
484.0980149191982
 30
0.0
 11
435.419285306025
 21
511.015619213449
 31
0.0
  0
LINE
  5
A32
330
959
100
AcDbEntity
  8
寸法(細線)
100
AcDbLine
 10
463.1192853060187
 20
475.5980149191983
 30
0.0
 11
463.1192853060187
 21
511.015619213449
 31
0.0
  0
LINE
  5
A33
330
959
100
AcDbEntity
  8
寸法(細線)
100
AcDbLine
 10
441.2192854967599
 20
508.615619213449
 30
0.0
 11
457.3192851152838
 21
508.615619213449
 31
0.0
  0
INSERT
  5
A34
330
959
100
AcDbEntity
  8
寸法(細線)
100
AcDbBlockReference
  2
Open-1
 10
435.419285306025
 20
508.615619213449
 30
0.0
 41
5.800000190734863
 42
5.800000190734863
 43
5.800000190734863
 50
180.0
  0
INSERT
  5
A35
330
959
100
AcDbEntity
  8
寸法(細線)
100
AcDbBlockReference
  2
Open-1
 10
463.1192853060187
 20
508.615619213449
 30
0.0
 41
5.800000190734863
 42
5.800000190734863
 43
5.800000190734863
  0
MTEXT
  5
A36
330
959
100
AcDbEntity
  8
寸法(細線)
100
AcDbMText
 10
440.3582712601711
 20
517.3613545601612
 30
0.0
 40
7.0
 41
0.0
 71
     1
 72
     1
  1
\A1;27.7
  7
Note Text (ULVAC_寸法)
 73
     1
 44
1.0
1001
ACAD
1000
MTEXTBEGIN
1070
    73
1070
     1
1070
    44
1040
1.0
1070
    74
1070
     0
1000
MTEXTEND
  0
POINT
  5
A37
330
959
100
AcDbEntity
  8
Defpoints
 62
     0
100
AcDbPoint
 10
435.419285306025
 20
481.5580149191982
 30
0.0
  0
POINT
  5
A38
330
959
100
AcDbEntity
  8
Defpoints
 62
     0
100
AcDbPoint
 10
463.1192853060187
 20
473.0580149191982
 30
0.0
  0
POINT
  5
A39
330
959
100
AcDbEntity
  8
Defpoints
 62
     0
100
AcDbPoint
 10
463.1192853060187
 20
508.615619213449
 30
0.0
  0
ENDBLK
  5
95B
330
959
100
AcDbEntity
  8
0
100
AcDbBlockEnd
  0
BLOCK
  5
A3C
330
A3B
100
AcDbEntity
  8
0
100
AcDbBlockBegin
  2
*D14
 70
     1
 10
0.0
 20
0.0
 30
0.0
  3
*D14
  1

  0
LINE
  5
B2D
330
A3B
100
AcDbEntity
  8
寸法(細線)
100
AcDbLine
 10
435.419285306025
 20
384.0180149191985
 30
0.0
 11
435.419285306025
 21
369.9854875167903
 31
0.0
  0
LINE
  5
B2E
330
A3B
100
AcDbEntity
  8
寸法(細線)
100
AcDbLine
 10
437.4192853060249
 20
384.0180149191985
 30
0.0
 11
437.4192853060249
 21
369.9854875167903
 31
0.0
  0
LINE
  5
B2F
330
A3B
100
AcDbEntity
  8
寸法(細線)
100
AcDbLine
 10
443.2192854967598
 20
372.3854875167902
 30
0.0
 11
449.0192856874947
 21
372.3854875167902
 31
0.0
  0
LINE
  5
B30
330
A3B
100
AcDbEntity
  8
寸法(細線)
100
AcDbLine
 10
429.6192851152901
 20
372.3854875167902
 30
0.0
 11
416.2989357247997
 21
372.3854875167902
 31
0.0
  0
LINE
  5
B31
330
A3B
100
AcDbEntity
  8
寸法(細線)
100
AcDbLine
 10
437.4192853060249
 20
372.3854875167902
 30
0.0
 11
435.419285306025
 21
372.3854875167902
 31
0.0
  0
INSERT
  5
B32
330
A3B
100
AcDbEntity
  8
寸法(細線)
100
AcDbBlockReference
  2
Open-1
 10
437.4192853060249
 20
372.3854875167902
 30
0.0
 41
5.800000190734863
 42
5.800000190734863
 43
5.800000190734863
 50
180.0
  0
INSERT
  5
B33
330
A3B
100
AcDbEntity
  8
寸法(細線)
100
AcDbBlockReference
  2
Open-1
 10
435.419285306025
 20
372.3854875167902
 30
0.0
 41
5.800000190734863
 42
5.800000190734863
 43
5.800000190734863
  0
MTEXT
  5
B34
330
A3B
100
AcDbEntity
  8
寸法(細線)
100
AcDbMText
 10
417.8989357247997
 20
381.1312228635025
 30
0.0
 40
7.0
 41
0.0
 71
     1
 72
     1
  1
\A1;2
  7
Note Text (ULVAC_寸法)
 73
     1
 44
1.0
1001
ACAD
1000
MTEXTBEGIN
1070
    73
1070
     1
1070
    44
1040
1.0
1070
    74
1070
     0
1000
MTEXTEND
  0
POINT
  5
B35
330
A3B
100
AcDbEntity
  8
Defpoints
 62
     0
100
AcDbPoint
 10
435.419285306025
 20
386.5580149191985
 30
0.0
  0
POINT
  5
B36
330
A3B
100
AcDbEntity
  8
Defpoints
 62
     0
100
AcDbPoint
 10
437.4192853060249
 20
386.5580149191985
 30
0.0
  0
POINT
  5
B37
330
A3B
100
AcDbEntity
  8
Defpoints
 62
     0
100
AcDbPoint
 10
437.4192853060249
 20
372.3854875167902
 30
0.0
  0
ENDBLK
  5
A3D
330
A3B
100
AcDbEntity
  8
0
100
AcDbBlockEnd
  0
BLOCK
  5
B3C
330
B3B
100
AcDbEntity
  8
0
100
AcDbBlockBegin
  2
*D15
 70
     1
 10
0.0
 20
0.0
 30
0.0
  3
*D15
  1

  0
LINE
  5
C13
330
B3B
100
AcDbEntity
  8
寸法(細線)
100
AcDbLine
 10
551.7041339421917
 20
384.5580149191981
 30
0.0
 11
515.2944384468533
 21
384.5580149191981
 31
0.0
  0
LINE
  5
C14
330
B3B
100
AcDbEntity
  8
寸法(細線)
100
AcDbLine
 10
567.704133942207
 20
434.0580149191981
 30
0.0
 11
515.2944384468533
 21
434.0580149191981
 31
0.0
  0
LINE
  5
C15
330
B3B
100
AcDbEntity
  8
寸法(細線)
100
AcDbLine
 10
517.6944384468533
 20
390.3580151099329
 30
0.0
 11
517.6944384468533
 21
428.2580147284632
 31
0.0
  0
INSERT
  5
C16
330
B3B
100
AcDbEntity
  8
寸法(細線)
100
AcDbBlockReference
  2
Open-1
 10
517.6944384468533
 20
384.5580149191981
 30
0.0
 41
5.800000190734863
 42
5.800000190734863
 43
5.800000190734863
 50
270.0
  0
INSERT
  5
C17
330
B3B
100
AcDbEntity
  8
寸法(細線)
100
AcDbBlockReference
  2
Open-1
 10
517.6944384468533
 20
434.0580149191981
 30
0.0
 41
5.800000190734863
 42
5.800000190734863
 43
5.800000190734863
 50
90.0
  0
MTEXT
  5
C18
330
B3B
100
AcDbEntity
  8
寸法(細線)
100
AcDbMText
 10
508.8076688498769
 20
400.312380323189
 30
0.0
 40
7.0
 41
0.0
 71
     1
 72
     1
  1
\A1;49.5
  7
Note Text (ULVAC_寸法)
 11
0.0000000000000001
 21
1.0
 31
0.0
 73
     1
 44
1.0
1001
ACAD
1000
MTEXTBEGIN
1070
    73
1070
     1
1070
    44
1040
1.0
1070
    74
1070
     0
1000
MTEXTEND
  0
POINT
  5
C19
330
B3B
100
AcDbEntity
  8
Defpoints
 62
     0
100
AcDbPoint
 10
554.2441339421916
 20
384.5580149191981
 30
0.0
  0
POINT
  5
C1A
330
B3B
100
AcDbEntity
  8
Defpoints
 62
     0
100
AcDbPoint
 10
570.244133942207
 20
434.0580149191981
 30
0.0
  0
POINT
  5
C1B
330
B3B
100
AcDbEntity
  8
Defpoints
 62
     0
100
AcDbPoint
 10
517.6944384468533
 20
434.0580149191981
 30
0.0
  0
ENDBLK
  5
B3D
330
B3B
100
AcDbEntity
  8
0
100
AcDbBlockEnd
  0
BLOCK
  5
C1E
330
C1D
100
AcDbEntity
  8
0
100
AcDbBlockBegin
  2
*D16
 70
     1
 10
0.0
 20
0.0
 30
0.0
  3
*D16
  1

  0
LINE
  5
CF5
330
C1D
100
AcDbEntity
  8
寸法(細線)
100
AcDbLine
 10
774.2441339421921
 20
411.5180149191984
 30
0.0
 11
774.2441339421921
 21
360.1667515641592
 31
0.0
  0
LINE
  5
CF6
330
C1D
100
AcDbEntity
  8
寸法(細線)
100
AcDbLine
 10
603.744133942207
 20
415.0180149191981
 30
0.0
 11
603.744133942207
 21
360.1667515641592
 31
0.0
  0
LINE
  5
CF7
330
C1D
100
AcDbEntity
  8
寸法(細線)
100
AcDbLine
 10
768.4441337514572
 20
362.5667515641592
 30
0.0
 11
609.5441341329419
 21
362.5667515641592
 31
0.0
  0
INSERT
  5
CF8
330
C1D
100
AcDbEntity
  8
寸法(細線)
100
AcDbBlockReference
  2
Open-1
 10
774.2441339421921
 20
362.5667515641592
 30
0.0
 41
5.800000190734863
 42
5.800000190734863
 43
5.800000190734863
  0
INSERT
  5
CF9
330
C1D
100
AcDbEntity
  8
寸法(細線)
100
AcDbBlockReference
  2
Open-1
 10
603.744133942207
 20
362.5667515641592
 30
0.0
 41
5.800000190734863
 42
5.800000190734863
 43
5.800000190734863
 50
180.0
  0
MTEXT
  5
CFA
330
C1D
100
AcDbEntity
  8
寸法(細線)
100
AcDbMText
 10
677.807767325422
 20
371.4535211611354
 30
0.0
 40
7.0
 41
0.0
 71
     1
 72
     1
  1
\A1;170.5
  7
Note Text (ULVAC_寸法)
 73
     1
 44
1.0
1001
ACAD
1000
MTEXTBEGIN
1070
    73
1070
     1
1070
    44
1040
1.0
1070
    74
1070
     0
1000
MTEXTEND
  0
POINT
  5
CFB
330
C1D
100
AcDbEntity
  8
Defpoints
 62
     0
100
AcDbPoint
 10
774.2441339421921
 20
414.0580149191984
 30
0.0
  0
POINT
  5
CFC
330
C1D
100
AcDbEntity
  8
Defpoints
 62
     0
100
AcDbPoint
 10
603.744133942207
 20
417.5580149191981
 30
0.0
  0
POINT
  5
CFD
330
C1D
100
AcDbEntity
  8
Defpoints
 62
     0
100
AcDbPoint
 10
603.744133942207
 20
362.5667515641592
 30
0.0
  0
ENDBLK
  5
C1F
330
C1D
100
AcDbEntity
  8
0
100
AcDbBlockEnd
  0
BLOCK
  5
D00
330
CFF
100
AcDbEntity
  8
0
100
AcDbBlockBegin
  2
*D17
 70
     1
 10
0.0
 20
0.0
 30
0.0
  3
*D17
  1

  0
LINE
  5
DD7
330
CFF
100
AcDbEntity
  8
寸法(細線)
100
AcDbLine
 10
133.646141551845
 20
240.7498957061033
 30
0.0
 11
133.646141551845
 21
210.3344588458938
 31
0.0
  0
LINE
  5
DD8
330
CFF
100
AcDbEntity
  8
寸法(細線)
100
AcDbLine
 10
337.6461415518453
 20
240.749895706102
 30
0.0
 11
337.6461415518453
 21
210.3344588458938
 31
0.0
  0
LINE
  5
DD9
330
CFF
100
AcDbEntity
  8
寸法(細線)
100
AcDbLine
 10
139.4461417425799
 20
212.7344588458938
 30
0.0
 11
331.8461413611104
 21
212.7344588458938
 31
0.0
  0
INSERT
  5
DDA
330
CFF
100
AcDbEntity
  8
寸法(細線)
100
AcDbBlockReference
  2
Open-1
 10
133.646141551845
 20
212.7344588458938
 30
0.0
 41
5.800000190734863
 42
5.800000190734863
 43
5.800000190734863
 50
180.0
  0
INSERT
  5
DDB
330
CFF
100
AcDbEntity
  8
寸法(細線)
100
AcDbBlockReference
  2
Open-1
 10
337.6461415518453
 20
212.7344588458938
 30
0.0
 41
5.800000190734863
 42
5.800000190734863
 43
5.800000190734863
  0
MTEXT
  5
DDC
330
CFF
100
AcDbEntity
  8
寸法(細線)
100
AcDbMText
 10
228.1384182961221
 20
221.6259295845455
 30
0.0
 40
7.0
 41
0.0
 71
     1
 72
     1
  1
\A1;204
  7
Note Text (ULVAC_寸法)
 73
     1
 44
1.0
1001
ACAD
1000
MTEXTBEGIN
1070
    73
1070
     1
1070
    44
1040
1.0
1070
    74
1070
     0
1000
MTEXTEND
  0
POINT
  5
DDD
330
CFF
100
AcDbEntity
  8
Defpoints
 62
     0
100
AcDbPoint
 10
133.646141551845
 20
243.2898957061033
 30
0.0
  0
POINT
  5
DDE
330
CFF
100
AcDbEntity
  8
Defpoints
 62
     0
100
AcDbPoint
 10
337.6461415518453
 20
243.2898957061019
 30
0.0
  0
POINT
  5
DDF
330
CFF
100
AcDbEntity
  8
Defpoints
 62
     0
100
AcDbPoint
 10
337.6461415518453
 20
212.7344588458938
 30
0.0
  0
ENDBLK
  5
D01
330
CFF
100
AcDbEntity
  8
0
100
AcDbBlockEnd
  0
ENDSEC
  0
SECTION
  2
ENTITIES
  0
INSERT
  5
16D
330
77
100
AcDbEntity
  8
0
100
AcDbBlockReference
  2
図面枠 ゾーン図枠(A3)
 10
0.0
 20
0.0
 30
0.0
 41
2.0
 42
2.0
 43
2.0
  0
INSERT
  5
27D
330
77
100
AcDbEntity
  8
0
100
AcDbBlockReference
 66
     1
  2
表題欄 ULVAC表題欄
 10
469.9999999999991
 20
19.99999999999925
 30
0.0
 41
2.0
 42
2.0
 43
2.0
  0
ATTRIB
  5
27F
102
{ACAD_XDICTIONARY
360
E45
102
}
330
27D
100
AcDbEntity
  8
寸法(細線)
100
AcDbText
 10
506.0000010897346
 20
118.4999999999993
 30
0.0
 40
5.0
  1

  7
文字スタイル35
 11
506.0000010897346
 21
120.9999999999993
 31
0.0
100
AcDbAttribute
  2
流用元図番
 70
     0
 74
     2
  0
ATTRIB
  5
280
102
{ACAD_XDICTIONARY
360
E48
102
}
330
27D
100
AcDbEntity
  8
寸法(細線)
100
AcDbText
 10
695.9999999999991
 20
115.4999999999992
 30
0.0
 40
5.0
  1

  7
文字スタイル35
 72
     1
 11
695.9999999999991
 21
117.9999999999993
 31
0.0
100
AcDbAttribute
  2
<変更来歴B-COUNT>
 70
     0
 74
     2
  0
ATTRIB
  5
281
102
{ACAD_XDICTIONARY
360
E4B
102
}
330
27D
100
AcDbEntity
  8
寸法(細線)
100
AcDbText
 10
695.9999999999991
 20
127.4999999999993
 30
0.0
 40
5.0
  1

  7
文字スタイル35
 72
     1
 11
695.9999999999991
 21
129.9999999999992
 31
0.0
100
AcDbAttribute
  2
<変更来歴C-COUNT>
 70
     0
 74
     2
  0
ATTRIB
  5
282
102
{ACAD_XDICTIONARY
360
E4E
102
}
330
27D
100
AcDbEntity
  8
寸法(細線)
100
AcDbText
 10
695.9999999999991
 20
139.4999999999993
 30
0.0
 40
5.0
  1

  7
文字スタイル35
 72
     1
 11
695.9999999999991
 21
141.9999999999993
 31
0.0
100
AcDbAttribute
  2
<変更来歴D-COUNT>
 70
     0
 74
     2
  0
ATTRIB
  5
283
102
{ACAD_XDICTIONARY
360
E51
102
}
330
27D
100
AcDbEntity
  8
寸法(細線)
100
AcDbText
 10
723.9999999999992
 20
139.4999999999993
 30
0.0
 40
5.0
  1

  7
文字スタイル35
 72
     1
 11
723.9999999999992
 21
141.9999999999993
 31
0.0
100
AcDbAttribute
  2
<変更来歴D-DATE>
 70
     0
 74
     2
  0
ATTRIB
  5
284
102
{ACAD_XDICTIONARY
360
E54
102
}
330
27D
100
AcDbEntity
  8
寸法(細線)
100
AcDbText
 10
723.9999999999992
 20
127.4999999999993
 30
0.0
 40
5.0
  1

  7
文字スタイル35
 72
     1
 11
723.9999999999992
 21
129.9999999999992
 31
0.0
100
AcDbAttribute
  2
<変更来歴C-DATE>
 70
     0
 74
     2
  0
ATTRIB
  5
285
102
{ACAD_XDICTIONARY
360
E57
102
}
330
27D
100
AcDbEntity
  8
寸法(細線)
100
AcDbText
 10
747.999999999999
 20
115.4999999999992
 30
0.0
 40
5.0
  1

 41
0.5
  7
文字スタイル211
 11
747.999999999999
 21
117.9999999999993
 31
0.0
100
AcDbAttribute
  2
<変更来歴B-REMARKS>
 70
     0
 74
     2
  0
ATTRIB
  5
286
102
{ACAD_XDICTIONARY
360
E5A
102
}
330
27D
100
AcDbEntity
  8
寸法(細線)
100
AcDbText
 10
747.999999999999
 20
127.4999999999993
 30
0.0
 40
5.0
  1

 41
0.5
  7
文字スタイル211
 11
747.999999999999
 21
129.9999999999992
 31
0.0
100
AcDbAttribute
  2
<変更来歴C-REMARKS>
 70
     0
 74
     2
  0
ATTRIB
  5
287
102
{ACAD_XDICTIONARY
360
E5D
102
}
330
27D
100
AcDbEntity
  8
寸法(細線)
100
AcDbText
 10
747.999999999999
 20
139.4999999999993
 30
0.0
 40
5.0
  1

 41
0.5
  7
文字スタイル211
 11
747.999999999999
 21
141.9999999999993
 31
0.0
100
AcDbAttribute
  2
<変更来歴D-REMARKS>
 70
     0
 74
     2
  0
ATTRIB
  5
288
102
{ACAD_XDICTIONARY
360
E60
102
}
330
27D
100
AcDbEntity
  8
寸法(細線)
100
AcDbText
 10
613.7098726346095
 20
97.80000015826592
 30
0.0
 40
8.399999737739562
  1
A3
  7
文字スタイル60
100
AcDbAttribute
  2
シート_サイズ_001
 70
     0
  0
ATTRIB
  5
289
102
{ACAD_XDICTIONARY
360
E63
102
}
330
27D
100
AcDbEntity
  8
寸法(細線)
100
AcDbText
 10
722.9999999999993
 20
25.90000009536669
 30
0.0
 40
10.19999980926513
  1

  7
文字スタイル206
 72
     1
 11
722.9999999999993
 21
30.99999999999926
 31
0.0
100
AcDbAttribute
  2
図面番号
 70
     0
 74
     2
  0
ATTRIB
  5
28A
102
{ACAD_XDICTIONARY
360
E66
102
}
330
27D
100
AcDbEntity
  8
寸法(細線)
100
AcDbText
 10
642.3860307064093
 20
60.2437876853168
 30
0.0
 40
5.400000214576721
  1
1:2
  7
文字スタイル205
100
AcDbAttribute
  2
<尺度>_001
 70
     0
  0
ATTRIB
  5
28B
102
{ACAD_XDICTIONARY
360
E69
102
}
330
27D
100
AcDbEntity
  8
寸法(細線)
100
AcDbText
 10
630.3656817794829
 20
46.93149766279311
 30
0.0
 40
5.0
  1
2012/12/23
  7
文字スタイル35
100
AcDbAttribute
  2
作成日_001
 70
     0
  0
ATTRIB
  5
28D
102
{ACAD_XDICTIONARY
360
E6C
102
}
330
27D
100
AcDbEntity
  8
寸法(細線)
100
AcDbText
 10
727.5539764161635
 20
53.52897706510934
 30
0.0
 40
8.600000143051147
  1
外形図
  7
文字スタイル207
100
AcDbAttribute
  2
タイトル_001
 70
     0
  0
ATTRIB
  5
28E
102
{ACAD_XDICTIONARY
360
E6F
102
}
330
27D
100
AcDbEntity
  8
寸法(細線)
100
AcDbText
 10
735.5089321923579
 20
69.19999998807833
 30
0.0
 40
5.600000023841857
  1
RFP-N
  7
文字スタイル208
100
AcDbAttribute
  2
<サブタイトル>_001
 70
     0
  0
ATTRIB
  5
28F
102
{ACAD_XDICTIONARY
360
E72
102
}
330
27D
100
AcDbEntity
  8
寸法(細線)
100
AcDbText
 10
676.9139690540064
 20
115.1999999284737
 30
0.0
 40
3.600000143051147
  1
B
  7
文字スタイル107
100
AcDbAttribute
  2
<変更来歴B-MARK>_001
 70
     0
  0
ATTRIB
  5
290
102
{ACAD_XDICTIONARY
360
E75
102
}
330
27D
100
AcDbEntity
  8
寸法(細線)
100
AcDbText
 10
676.9744123065213
 20
127.1999999401036
 30
0.0
 40
3.600000143051147
  1
C
  7
文字スタイル107
100
AcDbAttribute
  2
<変更来歴C-MARK>_001
 70
     0
  0
ATTRIB
  5
291
102
{ACAD_XDICTIONARY
360
E78
102
}
330
27D
100
AcDbEntity
  8
寸法(細線)
100
AcDbText
 10
676.7157151857572
 20
139.1999999284737
 30
0.0
 40
3.600000143051147
  1
D
  7
文字スタイル107
100
AcDbAttribute
  2
<変更来歴D-MARK>_001
 70
     0
  0
ATTRIB
  5
292
102
{ACAD_XDICTIONARY
360
E7B
102
}
330
27D
100
AcDbEntity
  8
寸法(細線)
100
AcDbText
 10
723.9999999999992
 20
115.4999999999992
 30
0.0
 40
5.0
  1

  7
文字スタイル35
 72
     1
 11
723.9999999999992
 21
117.9999999999993
 31
0.0
100
AcDbAttribute
  2
<変更来歴B-DATE>
 70
     0
 74
     2
  0
ATTRIB
  5
293
102
{ACAD_XDICTIONARY
360
E7E
102
}
330
27D
100
AcDbEntity
  8
寸法(細線)
100
AcDbText
 10
510.0000010897345
 20
131.9999999999993
 30
0.0
 40
5.0
  1

  7
文字スタイル35
 11
510.0000010897345
 21
134.4999999999993
 31
0.0
100
AcDbAttribute
  2
<貼DWG.No>
 70
     0
 74
     2
  0
ATTRIB
  5
294
102
{ACAD_XDICTIONARY
360
E81
102
}
330
27D
100
AcDbEntity
  8
寸法(細線)
100
AcDbText
 10
597.499999999999
 20
131.9999999999993
 30
0.0
 40
5.0
  1

  7
文字スタイル35
 72
     1
 11
597.499999999999
 21
134.4999999999993
 31
0.0
100
AcDbAttribute
  2
<貼DATE>
 70
     0
 74
     2
  0
ATTRIB
  5
295
102
{ACAD_XDICTIONARY
360
E84
102
}
330
27D
100
AcDbEntity
  8
寸法(細線)
100
AcDbText
 10
646.7499999999993
 20
132.199999958276
 30
0.0
 40
4.600000083446502
  1

  7
文字スタイル204
 72
     1
 11
646.7499999999993
 21
134.4999999999993
 31
0.0
100
AcDbAttribute
  2
<貼NAME>
 70
     0
 74
     2
  0
ATTRIB
  5
296
102
{ACAD_XDICTIONARY
360
E87
102
}
330
27D
100
AcDbEntity
  8
寸法(細線)
100
AcDbText
 10
650.9999999999991
 20
117.99999988079
 30
0.0
 40
6.000000238418579
  1

  7
文字スタイル32
 72
     1
 11
650.9999999999991
 21
120.9999999999993
 31
0.0
100
AcDbAttribute
  2
重量
 70
     0
 74
     2
  0
ATTRIB
  5
297
102
{ACAD_XDICTIONARY
360
E8A
102
}
330
27D
100
AcDbEntity
  8
寸法(細線)
100
AcDbText
 10
581.9999999999992
 20
55.60000005364345
 30
0.0
 40
4.799999892711639
  1

  7
文字スタイル228
 72
     1
 11
581.9999999999992
 21
57.99999999999926
 31
0.0
100
AcDbAttribute
  2
製図欄2
 70
     0
 74
     2
  0
ATTRIB
  5
298
102
{ACAD_XDICTIONARY
360
E8D
102
}
330
27D
100
AcDbEntity
  8
寸法(細線)
100
AcDbText
 10
581.9999999999992
 20
47.60000005364346
 30
0.0
 40
4.799999892711639
  1

  7
文字スタイル228
 72
     1
 11
581.9999999999992
 21
49.99999999999928
 31
0.0
100
AcDbAttribute
  2
製図者
 70
     0
 74
     2
  0
ATTRIB
  5
299
102
{ACAD_XDICTIONARY
360
E90
102
}
330
27D
100
AcDbEntity
  8
寸法(細線)
100
AcDbText
 10
581.9999999999992
 20
63.60000005364345
 30
0.0
 40
4.799999892711639
  1

  7
文字スタイル228
 72
     1
 11
581.9999999999992
 21
65.99999999999927
 31
0.0
100
AcDbAttribute
  2
製図欄1
 70
     0
 74
     2
  0
ATTRIB
  5
29A
102
{ACAD_XDICTIONARY
360
E93
102
}
330
27D
100
AcDbEntity
  8
寸法(細線)
100
AcDbText
 10
814.4314720510275
 20
22.99999988078996
 30
0.0
 40
6.000000238418579
  1
1
  7
文字スタイル117
100
AcDbAttribute
  2
シートの数_001
 70
     0
  0
ATTRIB
  5
29B
102
{ACAD_XDICTIONARY
360
E96
102
}
330
27D
100
AcDbEntity
  8
寸法(細線)
100
AcDbText
 10
805.4314720510275
 20
32.99999988078999
 30
0.0
 40
6.000000238418579
  1
1
  7
文字スタイル117
100
AcDbAttribute
  2
シート番号_001
 70
     0
  0
SEQEND
  5
27E
330
27D
100
AcDbEntity
  8
0
  0
ARC
  5
29C
330
77
100
AcDbEntity
  8
実線(中線)
100
AcDbCircle
 10
237.6461415518956
 20
431.4580149191985
 30
0.0
 40
2.0
100
AcDbArc
 50
270.0
 51
0.0
  0
ARC
  5
29D
330
77
100
AcDbEntity
  8
実線(中線)
100
AcDbCircle
 10
237.6461415518957
 20
450.6580149191984
 30
0.0
 40
1.999999999999996
100
AcDbArc
 50
0.0
 51
90.0
  0
ARC
  5
29E
330
77
100
AcDbEntity
  8
実線(中線)
100
AcDbCircle
 10
166.6461415518956
 20
431.4580149191985
 30
0.0
 40
1.999999999999984
100
AcDbArc
 50
180.0
 51
270.000000000001
  0
ARC
  5
29F
330
77
100
AcDbEntity
  8
実線(中線)
100
AcDbCircle
 10
166.6461415518956
 20
450.6580149191984
 30
0.0
 40
1.999999999999995
100
AcDbArc
 50
90.0
 51
180.0
  0
LINE
  5
2A0
330
77
100
AcDbEntity
  8
実線(中線)
100
AcDbLine
 10
237.6461415518956
 20
429.4580149191984
 30
0.0
 11
166.6461415518956
 21
429.4580149191984
 31
0.0
  0
LINE
  5
2A1
330
77
100
AcDbEntity
  8
実線(中線)
100
AcDbLine
 10
239.6461415518957
 20
450.6580149191984
 30
0.0
 11
239.6461415518957
 21
431.4580149191985
 31
0.0
  0
LINE
  5
2A2
330
77
100
AcDbEntity
  8
実線(中線)
100
AcDbLine
 10
164.6461415518956
 20
431.4580149191985
 30
0.0
 11
164.6461415518956
 21
450.6580149191984
 31
0.0
  0
LINE
  5
2A3
330
77
100
AcDbEntity
  8
実線(中線)
100
AcDbLine
 10
135.6461415518956
 20
416.5590149191985
 30
0.0
 11
264.1461415518957
 21
416.5590149191984
 31
0.0
  0
LINE
  5
2A4
330
77
100
AcDbEntity
  8
実線(中線)
100
AcDbLine
 10
135.6461415518956
 20
391.5590149191986
 30
0.0
 11
135.6461415518956
 21
416.5590149191985
 31
0.0
  0
LINE
  5
2A5
330
77
100
AcDbEntity
  8
実線(中線)
100
AcDbLine
 10
335.6461415518958
 20
391.5590149191984
 30
0.0
 11
135.6461415518956
 21
391.5590149191986
 31
0.0
  0
LINE
  5
2A6
330
77
100
AcDbEntity
  8
実線(中線)
100
AcDbLine
 10
335.6461415518958
 20
416.5590149191984
 30
0.0
 11
335.6461415518958
 21
391.5590149191985
 31
0.0
  0
LINE
  5
2A7
330
77
100
AcDbEntity
  8
実線(中線)
100
AcDbLine
 10
308.1461415518957
 20
416.5590149191984
 30
0.0
 11
335.6461415518958
 21
416.5590149191984
 31
0.0
  0
LINE
  5
2A8
330
77
100
AcDbEntity
  8
実線(中線)
100
AcDbLine
 10
335.6461415518958
 20
416.5600149191984
 30
0.0
 11
308.1461415518957
 21
416.5600149191984
 31
0.0
  0
LINE
  5
2A9
330
77
100
AcDbEntity
  8
実線(中線)
100
AcDbLine
 10
264.1461415518957
 20
416.5600149191985
 30
0.0
 11
135.6461415518955
 21
416.5600149191987
 31
0.0
  0
LINE
  5
2AA
330
77
100
AcDbEntity
  8
実線(中線)
100
AcDbLine
 10
135.6461415518956
 20
471.5600149191987
 30
0.0
 11
335.6461415518958
 21
471.5600149191984
 31
0.0
  0
LINE
  5
2AB
330
77
100
AcDbEntity
  8
実線(中線)
100
AcDbLine
 10
335.6461415518958
 20
471.5600149191984
 30
0.0
 11
335.6461415518958
 21
416.5600149191984
 31
0.0
  0
LINE
  5
2AC
330
77
100
AcDbEntity
  8
実線(中線)
100
AcDbLine
 10
135.6461415518955
 20
416.5600149191987
 30
0.0
 11
135.6461415518956
 21
471.5600149191987
 31
0.0
  0
LINE
  5
2AD
330
77
100
AcDbEntity
  8
実線(中線)
100
AcDbLine
 10
166.6461415518956
 20
452.6580149191985
 30
0.0
 11
237.6461415518957
 21
452.6580149191984
 31
0.0
  0
LINE
  5
2AE
330
77
100
AcDbEntity
  8
実線(中線)
100
AcDbLine
 10
335.6461415518958
 20
471.5610149191984
 30
0.0
 11
135.6461415518955
 21
471.5610149191986
 31
0.0
  0
LINE
  5
2AF
330
77
100
AcDbEntity
  8
実線(中線)
100
AcDbLine
 10
135.6461415518955
 20
480.5610149191986
 30
0.0
 11
335.6461415518958
 21
480.5610149191983
 31
0.0
  0
LINE
  5
2B0
330
77
100
AcDbEntity
  8
実線(中線)
100
AcDbLine
 10
335.6461415518958
 20
480.5610149191983
 30
0.0
 11
335.6461415518958
 21
471.5610149191984
 31
0.0
  0
LINE
  5
2B1
330
77
100
AcDbEntity
  8
実線(中線)
100
AcDbLine
 10
135.6461415518955
 20
471.5610149191986
 30
0.0
 11
135.6461415518955
 21
480.5610149191986
 31
0.0
  0
LINE
  5
2B2
330
77
100
AcDbEntity
  8
実線(中線)
100
AcDbLine
 10
135.6461415518956
 20
391.5580149191987
 30
0.0
 11
335.6461415518958
 21
391.5580149191985
 31
0.0
  0
LINE
  5
2B3
330
77
100
AcDbEntity
  8
実線(中線)
100
AcDbLine
 10
335.6461415518958
 20
391.5580149191985
 30
0.0
 11
335.6461415518958
 21
384.5580149191984
 31
0.0
  0
LINE
  5
2B4
330
77
100
AcDbEntity
  8
実線(中線)
100
AcDbLine
 10
135.6461415518956
 20
384.5580149191986
 30
0.0
 11
135.6461415518956
 21
391.5580149191987
 31
0.0
  0
LINE
  5
2B5
330
77
100
AcDbEntity
  8
実線(中線)
100
AcDbLine
 10
335.6461415518958
 20
384.5580149191984
 30
0.0
 11
135.6461415518956
 21
384.5580149191986
 31
0.0
  0
LINE
  5
2B6
330
77
100
AcDbEntity
  8
実線(中線)
100
AcDbLine
 10
335.6461415518958
 20
480.5620149191984
 30
0.0
 11
135.6461415518955
 21
480.5620149191986
 31
0.0
  0
LINE
  5
2B7
330
77
100
AcDbEntity
  8
実線(中線)
100
AcDbLine
 10
335.6461415518958
 20
483.5580149191981
 30
0.0
 11
335.6461415518958
 21
480.5620149191984
 31
0.0
  0
LINE
  5
2B8
330
77
100
AcDbEntity
  8
実線(中線)
100
AcDbLine
 10
135.6461415518955
 20
483.5580149191983
 30
0.0
 11
335.6461415518958
 21
483.5580149191981
 31
0.0
  0
LINE
  5
2B9
330
77
100
AcDbEntity
  8
実線(中線)
100
AcDbLine
 10
135.6461415518955
 20
480.5620149191986
 30
0.0
 11
135.6461415518955
 21
483.5580149191983
 31
0.0
  0
CIRCLE
  5
2BA
330
77
100
AcDbEntity
  8
実線(中線)
100
AcDbCircle
 10
286.1461415518957
 20
459.0580149191984
 30
0.0
 40
5.5
  0
CIRCLE
  5
2BB
330
77
100
AcDbEntity
  8
実線(中線)
100
AcDbCircle
 10
301.1461415518953
 20
459.0580149191984
 30
0.0
 40
5.5
  0
CIRCLE
  5
2BC
330
77
100
AcDbEntity
  8
実線(中線)
100
AcDbCircle
 10
286.1461415518956
 20
445.0580149191984
 30
0.0
 40
5.5
  0
CIRCLE
  5
2BD
330
77
100
AcDbEntity
  8
実線(中線)
100
AcDbCircle
 10
301.1461415518952
 20
445.0580149191984
 30
0.0
 40
5.5
  0
CIRCLE
  5
2BE
330
77
100
AcDbEntity
  8
実線(中線)
100
AcDbCircle
 10
286.1461415518956
 20
423.0580149191983
 30
0.0
 40
5.5
  0
CIRCLE
  5
2BF
330
77
100
AcDbEntity
  8
実線(中線)
100
AcDbCircle
 10
301.1461415518952
 20
423.0580149191983
 30
0.0
 40
5.5
  0
CIRCLE
  5
2C0
330
77
100
AcDbEntity
  8
実線(中線)
100
AcDbCircle
 10
301.1461415518952
 20
409.0580149191984
 30
0.0
 40
5.5
  0
CIRCLE
  5
2C1
330
77
100
AcDbEntity
  8
実線(中線)
100
AcDbCircle
 10
286.1461415518956
 20
409.0580149191984
 30
0.0
 40
5.5
  0
CIRCLE
  5
2C2
330
77
100
AcDbEntity
  8
実線(中線)
100
AcDbCircle
 10
271.1461415518956
 20
409.0580149191984
 30
0.0
 40
5.5
  0
CIRCLE
  5
2C3
330
77
100
AcDbEntity
  8
実線(中線)
100
AcDbCircle
 10
271.1461415518957
 20
459.0580149191985
 30
0.0
 40
5.5
  0
CIRCLE
  5
2C4
330
77
100
AcDbEntity
  8
実線(中線)
100
AcDbCircle
 10
271.1461415518956
 20
445.0580149191984
 30
0.0
 40
5.5
  0
CIRCLE
  5
2C5
330
77
100
AcDbEntity
  8
実線(中線)
100
AcDbCircle
 10
271.1461415518956
 20
423.0580149191984
 30
0.0
 40
5.5
  0
ARC
  5
2C6
330
77
100
AcDbEntity
  8
実線(中線)
100
AcDbCircle
 10
306.1461415518957
 20
450.0580149191984
 30
0.0
 40
1.0
100
AcDbArc
 50
0.0
 51
90.0
  0
ARC
  5
2C7
330
77
100
AcDbEntity
  8
実線(中線)
100
AcDbCircle
 10
296.1461415518957
 20
450.0580149191984
 30
0.0
 40
0.9999999999999964
100
AcDbArc
 50
90.0
 51
180.0
  0
ARC
  5
2C8
330
77
100
AcDbEntity
  8
実線(中線)
100
AcDbCircle
 10
306.1461415518957
 20
440.0580149191983
 30
0.0
 40
0.9999999999999964
100
AcDbArc
 50
270.0
 51
0.0
  0
ARC
  5
2C9
330
77
100
AcDbEntity
  8
実線(中線)
100
AcDbCircle
 10
296.1461415518956
 20
440.0580149191983
 30
0.0
 40
0.9999999999999969
100
AcDbArc
 50
180.0
 51
270.0
  0
ARC
  5
2CA
330
77
100
AcDbEntity
  8
実線(中線)
100
AcDbCircle
 10
306.1461415518957
 20
464.0580149191984
 30
0.0
 40
1.000000000000009
100
AcDbArc
 50
0.0
 51
90.0
  0
ARC
  5
2CB
330
77
100
AcDbEntity
  8
実線(中線)
100
AcDbCircle
 10
306.1461415518957
 20
454.0580149191984
 30
0.0
 40
0.9999999999999964
100
AcDbArc
 50
270.0
 51
0.0
  0
ARC
  5
2CC
330
77
100
AcDbEntity
  8
実線(中線)
100
AcDbCircle
 10
296.1461415518957
 20
454.0580149191984
 30
0.0
 40
0.9999999999999985
100
AcDbArc
 50
180.0
 51
270.0
  0
ARC
  5
2CD
330
77
100
AcDbEntity
  8
実線(中線)
100
AcDbCircle
 10
296.1461415518957
 20
464.0580149191984
 30
0.0
 40
1.000000000000005
100
AcDbArc
 50
90.00000000000202
 51
180.0
  0
ARC
  5
2CE
330
77
100
AcDbEntity
  8
実線(中線)
100
AcDbCircle
 10
291.1461415518957
 20
464.0580149191984
 30
0.0
 40
1.000000000000009
100
AcDbArc
 50
0.0
 51
90.0
  0
ARC
  5
2CF
330
77
100
AcDbEntity
  8
実線(中線)
100
AcDbCircle
 10
281.1461415518957
 20
464.0580149191984
 30
0.0
 40
1.000000000000005
100
AcDbArc
 50
90.00000000000202
 51
180.0
  0
ARC
  5
2D0
330
77
100
AcDbEntity
  8
実線(中線)
100
AcDbCircle
 10
281.1461415518957
 20
454.0580149191984
 30
0.0
 40
0.9999999999999985
100
AcDbArc
 50
180.0
 51
270.0
  0
ARC
  5
2D1
330
77
100
AcDbEntity
  8
実線(中線)
100
AcDbCircle
 10
291.1461415518957
 20
454.0580149191984
 30
0.0
 40
0.9999999999999964
100
AcDbArc
 50
270.0
 51
0.0
  0
ARC
  5
2D2
330
77
100
AcDbEntity
  8
実線(中線)
100
AcDbCircle
 10
281.1461415518957
 20
450.0580149191984
 30
0.0
 40
0.9999999999999964
100
AcDbArc
 50
90.0
 51
180.0
  0
ARC
  5
2D3
330
77
100
AcDbEntity
  8
実線(中線)
100
AcDbCircle
 10
281.1461415518957
 20
440.0580149191983
 30
0.0
 40
0.9999999999999969
100
AcDbArc
 50
180.0
 51
270.0
  0
ARC
  5
2D4
330
77
100
AcDbEntity
  8
実線(中線)
100
AcDbCircle
 10
291.1461415518957
 20
450.0580149191984
 30
0.0
 40
1.0
100
AcDbArc
 50
0.0
 51
90.0
  0
LINE
  5
2D5
330
77
100
AcDbEntity
  8
実線(中線)
100
AcDbLine
 10
296.1461415518957
 20
451.0580149191984
 30
0.0
 11
306.1461415518957
 21
451.0580149191984
 31
0.0
  0
LINE
  5
2D6
330
77
100
AcDbEntity
  8
実線(中線)
100
AcDbLine
 10
295.1461415518957
 20
440.0580149191983
 30
0.0
 11
295.1461415518957
 21
450.0580149191984
 31
0.0
  0
LINE
  5
2D7
330
77
100
AcDbEntity
  8
実線(中線)
100
AcDbLine
 10
307.1461415518957
 20
450.0580149191984
 30
0.0
 11
307.1461415518957
 21
440.0580149191983
 31
0.0
  0
LINE
  5
2D8
330
77
100
AcDbEntity
  8
実線(中線)
100
AcDbLine
 10
306.1461415518957
 20
439.0580149191984
 30
0.0
 11
296.1461415518956
 21
439.0580149191984
 31
0.0
  0
LINE
  5
2D9
330
77
100
AcDbEntity
  8
実線(中線)
100
AcDbLine
 10
296.1461415518957
 20
465.0580149191983
 30
0.0
 11
306.1461415518957
 21
465.0580149191983
 31
0.0
  0
LINE
  5
2DA
330
77
100
AcDbEntity
  8
実線(中線)
100
AcDbLine
 10
307.1461415518957
 20
464.0580149191984
 30
0.0
 11
307.1461415518957
 21
454.0580149191984
 31
0.0
  0
LINE
  5
2DB
330
77
100
AcDbEntity
  8
実線(中線)
100
AcDbLine
 10
306.1461415518957
 20
453.0580149191983
 30
0.0
 11
296.1461415518957
 21
453.0580149191983
 31
0.0
  0
LINE
  5
2DC
330
77
100
AcDbEntity
  8
実線(中線)
100
AcDbLine
 10
295.1461415518957
 20
454.0580149191984
 30
0.0
 11
295.1461415518957
 21
464.0580149191984
 31
0.0
  0
LINE
  5
2DD
330
77
100
AcDbEntity
  8
実線(中線)
100
AcDbLine
 10
292.1461415518957
 20
464.0580149191984
 30
0.0
 11
292.1461415518957
 21
454.0580149191984
 31
0.0
  0
LINE
  5
2DE
330
77
100
AcDbEntity
  8
実線(中線)
100
AcDbLine
 10
281.1461415518957
 20
465.0580149191983
 30
0.0
 11
291.1461415518957
 21
465.0580149191983
 31
0.0
  0
LINE
  5
2DF
330
77
100
AcDbEntity
  8
実線(中線)
100
AcDbLine
 10
280.1461415518957
 20
454.0580149191984
 30
0.0
 11
280.1461415518957
 21
464.0580149191984
 31
0.0
  0
LINE
  5
2E0
330
77
100
AcDbEntity
  8
実線(中線)
100
AcDbLine
 10
291.1461415518957
 20
453.0580149191983
 30
0.0
 11
281.1461415518957
 21
453.0580149191983
 31
0.0
  0
LINE
  5
2E1
330
77
100
AcDbEntity
  8
実線(中線)
100
AcDbLine
 10
280.1461415518957
 20
440.0580149191983
 30
0.0
 11
280.1461415518957
 21
450.0580149191984
 31
0.0
  0
LINE
  5
2E2
330
77
100
AcDbEntity
  8
実線(中線)
100
AcDbLine
 10
291.1461415518957
 20
439.0580149191984
 30
0.0
 11
281.1461415518957
 21
439.0580149191984
 31
0.0
  0
LINE
  5
2E3
330
77
100
AcDbEntity
  8
実線(中線)
100
AcDbLine
 10
292.1461415518957
 20
450.0580149191984
 30
0.0
 11
292.1461415518957
 21
440.0580149191983
 31
0.0
  0
LINE
  5
2E4
330
77
100
AcDbEntity
  8
実線(中線)
100
AcDbLine
 10
281.1461415518957
 20
451.0580149191984
 30
0.0
 11
291.1461415518957
 21
451.0580149191984
 31
0.0
  0
LINE
  5
2E5
330
77
100
AcDbEntity
  8
実線(中線)
100
AcDbLine
 10
266.1461415518957
 20
415.0580149191983
 30
0.0
 11
276.1461415518957
 21
415.0580149191983
 31
0.0
  0
LINE
  5
2E6
330
77
100
AcDbEntity
  8
実線(中線)
100
AcDbLine
 10
265.1461415518956
 20
404.0580149191984
 30
0.0
 11
265.1461415518956
 21
414.0580149191984
 31
0.0
  0
LINE
  5
2E7
330
77
100
AcDbEntity
  8
実線(中線)
100
AcDbLine
 10
276.1461415518957
 20
403.0580149191983
 30
0.0
 11
266.1461415518957
 21
403.0580149191984
 31
0.0
  0
LINE
  5
2E8
330
77
100
AcDbEntity
  8
実線(中線)
100
AcDbLine
 10
277.1461415518956
 20
414.0580149191984
 30
0.0
 11
277.1461415518956
 21
404.0580149191984
 31
0.0
  0
LINE
  5
2E9
330
77
100
AcDbEntity
  8
実線(中線)
100
AcDbLine
 10
281.1461415518957
 20
415.0580149191983
 30
0.0
 11
291.1461415518957
 21
415.0580149191983
 31
0.0
  0
LINE
  5
2EA
330
77
100
AcDbEntity
  8
実線(中線)
100
AcDbLine
 10
280.1461415518957
 20
404.0580149191984
 30
0.0
 11
280.1461415518957
 21
414.0580149191984
 31
0.0
  0
LINE
  5
2EB
330
77
100
AcDbEntity
  8
実線(中線)
100
AcDbLine
 10
291.1461415518957
 20
403.0580149191983
 30
0.0
 11
281.1461415518957
 21
403.0580149191983
 31
0.0
  0
LINE
  5
2EC
330
77
100
AcDbEntity
  8
実線(中線)
100
AcDbLine
 10
292.1461415518956
 20
414.0580149191984
 30
0.0
 11
292.1461415518956
 21
404.0580149191984
 31
0.0
  0
LINE
  5
2ED
330
77
100
AcDbEntity
  8
実線(中線)
100
AcDbLine
 10
281.1461415518957
 20
429.0580149191984
 30
0.0
 11
291.1461415518957
 21
429.0580149191984
 31
0.0
  0
LINE
  5
2EE
330
77
100
AcDbEntity
  8
実線(中線)
100
AcDbLine
 10
280.1461415518957
 20
418.0580149191984
 30
0.0
 11
280.1461415518957
 21
428.0580149191983
 31
0.0
  0
LINE
  5
2EF
330
77
100
AcDbEntity
  8
実線(中線)
100
AcDbLine
 10
291.1461415518957
 20
417.0580149191984
 30
0.0
 11
281.1461415518957
 21
417.0580149191984
 31
0.0
  0
LINE
  5
2F0
330
77
100
AcDbEntity
  8
実線(中線)
100
AcDbLine
 10
292.1461415518956
 20
428.0580149191983
 30
0.0
 11
292.1461415518956
 21
418.0580149191984
 31
0.0
  0
LINE
  5
2F1
330
77
100
AcDbEntity
  8
実線(中線)
100
AcDbLine
 10
296.1461415518956
 20
429.0580149191984
 30
0.0
 11
306.1461415518957
 21
429.0580149191984
 31
0.0
  0
LINE
  5
2F2
330
77
100
AcDbEntity
  8
実線(中線)
100
AcDbLine
 10
295.1461415518957
 20
418.0580149191984
 30
0.0
 11
295.1461415518957
 21
428.0580149191983
 31
0.0
  0
LINE
  5
2F3
330
77
100
AcDbEntity
  8
実線(中線)
100
AcDbLine
 10
306.1461415518957
 20
417.0580149191983
 30
0.0
 11
296.1461415518956
 21
417.0580149191983
 31
0.0
  0
LINE
  5
2F4
330
77
100
AcDbEntity
  8
実線(中線)
100
AcDbLine
 10
307.1461415518957
 20
428.0580149191983
 30
0.0
 11
307.1461415518957
 21
418.0580149191984
 31
0.0
  0
LINE
  5
2F5
330
77
100
AcDbEntity
  8
実線(中線)
100
AcDbLine
 10
306.1461415518957
 20
403.0580149191983
 30
0.0
 11
296.1461415518956
 21
403.0580149191983
 31
0.0
  0
LINE
  5
2F6
330
77
100
AcDbEntity
  8
実線(中線)
100
AcDbLine
 10
307.1461415518957
 20
414.0580149191984
 30
0.0
 11
307.1461415518956
 21
404.0580149191984
 31
0.0
  0
LINE
  5
2F7
330
77
100
AcDbEntity
  8
実線(中線)
100
AcDbLine
 10
296.1461415518956
 20
415.0580149191983
 30
0.0
 11
306.1461415518957
 21
415.0580149191983
 31
0.0
  0
LINE
  5
2F8
330
77
100
AcDbEntity
  8
実線(中線)
100
AcDbLine
 10
295.1461415518957
 20
404.0580149191984
 30
0.0
 11
295.1461415518957
 21
414.0580149191984
 31
0.0
  0
ARC
  5
2F9
330
77
100
AcDbEntity
  8
実線(中線)
100
AcDbCircle
 10
291.1461415518957
 20
440.0580149191983
 30
0.0
 40
0.9999999999999964
100
AcDbArc
 50
270.0
 51
0.0
  0
ARC
  5
2FA
330
77
100
AcDbEntity
  8
実線(中線)
100
AcDbCircle
 10
266.1461415518957
 20
414.0580149191984
 30
0.0
 40
1.0
100
AcDbArc
 50
90.0
 51
180.0
  0
ARC
  5
2FB
330
77
100
AcDbEntity
  8
実線(中線)
100
AcDbCircle
 10
266.1461415518957
 20
404.0580149191984
 30
0.0
 40
0.9999999999999831
100
AcDbArc
 50
180.0
 51
270.0
  0
ARC
  5
2FC
330
77
100
AcDbEntity
  8
実線(中線)
100
AcDbCircle
 10
276.1461415518957
 20
404.0580149191984
 30
0.0
 40
1.000000000000005
100
AcDbArc
 50
270.0000000000021
 51
0.0
  0
ARC
  5
2FD
330
77
100
AcDbEntity
  8
実線(中線)
100
AcDbCircle
 10
276.1461415518957
 20
414.0580149191984
 30
0.0
 40
1.0
100
AcDbArc
 50
0.0
 51
90.0
  0
ARC
  5
2FE
330
77
100
AcDbEntity
  8
実線(中線)
100
AcDbCircle
 10
281.1461415518957
 20
414.0580149191984
 30
0.0
 40
1.000000000000014
100
AcDbArc
 50
90.00000000000202
 51
180.0
  0
ARC
  5
2FF
330
77
100
AcDbEntity
  8
実線(中線)
100
AcDbCircle
 10
281.1461415518957
 20
404.0580149191984
 30
0.0
 40
1.000000000000009
100
AcDbArc
 50
180.0
 51
270.0
  0
ARC
  5
300
330
77
100
AcDbEntity
  8
実線(中線)
100
AcDbCircle
 10
291.1461415518957
 20
404.0580149191984
 30
0.0
 40
1.000000000000005
100
AcDbArc
 50
270.0000000000021
 51
0.0
  0
ARC
  5
301
330
77
100
AcDbEntity
  8
実線(中線)
100
AcDbCircle
 10
291.1461415518957
 20
414.0580149191984
 30
0.0
 40
1.0
100
AcDbArc
 50
0.0
 51
90.0
  0
ARC
  5
302
330
77
100
AcDbEntity
  8
実線(中線)
100
AcDbCircle
 10
281.1461415518957
 20
428.0580149191984
 30
0.0
 40
0.9999999999999964
100
AcDbArc
 50
90.0
 51
180.0
  0
ARC
  5
303
330
77
100
AcDbEntity
  8
実線(中線)
100
AcDbCircle
 10
281.1461415518957
 20
418.0580149191984
 30
0.0
 40
1.0
100
AcDbArc
 50
180.0
 51
270.0
  0
ARC
  5
304
330
77
100
AcDbEntity
  8
実線(中線)
100
AcDbCircle
 10
291.1461415518957
 20
418.0580149191984
 30
0.0
 40
0.9999999999999964
100
AcDbArc
 50
270.0
 51
0.0
  0
ARC
  5
305
330
77
100
AcDbEntity
  8
実線(中線)
100
AcDbCircle
 10
291.1461415518957
 20
428.0580149191983
 30
0.0
 40
0.9999999999999964
100
AcDbArc
 50
0.0
 51
90.0
  0
ARC
  5
306
330
77
100
AcDbEntity
  8
実線(中線)
100
AcDbCircle
 10
296.1461415518956
 20
428.0580149191983
 30
0.0
 40
0.9999999999999964
100
AcDbArc
 50
90.0
 51
180.0
  0
ARC
  5
307
330
77
100
AcDbEntity
  8
実線(中線)
100
AcDbCircle
 10
296.1461415518956
 20
418.0580149191984
 30
0.0
 40
1.0
100
AcDbArc
 50
180.0
 51
270.0
  0
ARC
  5
308
330
77
100
AcDbEntity
  8
実線(中線)
100
AcDbCircle
 10
306.1461415518957
 20
418.0580149191984
 30
0.0
 40
0.9999999999999964
100
AcDbArc
 50
270.0
 51
0.0
  0
ARC
  5
309
330
77
100
AcDbEntity
  8
実線(中線)
100
AcDbCircle
 10
306.1461415518957
 20
428.0580149191983
 30
0.0
 40
0.9999999999999964
100
AcDbArc
 50
0.0
 51
90.0
  0
ARC
  5
30A
330
77
100
AcDbEntity
  8
実線(中線)
100
AcDbCircle
 10
296.1461415518956
 20
404.0580149191984
 30
0.0
 40
1.000000000000009
100
AcDbArc
 50
180.0
 51
270.0
  0
ARC
  5
30B
330
77
100
AcDbEntity
  8
実線(中線)
100
AcDbCircle
 10
306.1461415518957
 20
404.0580149191984
 30
0.0
 40
1.000000000000005
100
AcDbArc
 50
270.0000000000021
 51
0.0
  0
ARC
  5
30C
330
77
100
AcDbEntity
  8
実線(中線)
100
AcDbCircle
 10
306.1461415518957
 20
414.0580149191984
 30
0.0
 40
1.0
100
AcDbArc
 50
0.0
 51
90.0
  0
ARC
  5
30D
330
77
100
AcDbEntity
  8
実線(中線)
100
AcDbCircle
 10
296.1461415518956
 20
414.0580149191984
 30
0.0
 40
1.000000000000014
100
AcDbArc
 50
90.00000000000202
 51
180.0
  0
ARC
  5
30E
330
77
100
AcDbEntity
  8
実線(中線)
100
AcDbCircle
 10
307.1461415518957
 20
465.0580149191983
 30
0.0
 40
1.000000000000009
100
AcDbArc
 50
0.0
 51
90.0
  0
ARC
  5
30F
330
77
100
AcDbEntity
  8
実線(中線)
100
AcDbCircle
 10
307.1461415518957
 20
439.0580149191984
 30
0.0
 40
0.9999999999999964
100
AcDbArc
 50
270.0
 51
0.0
  0
ARC
  5
310
330
77
100
AcDbEntity
  8
実線(中線)
100
AcDbCircle
 10
280.1461415518957
 20
439.0580149191984
 30
0.0
 40
1.000000000000014
100
AcDbArc
 50
180.0
 51
270.0
  0
ARC
  5
311
330
77
100
AcDbEntity
  8
実線(中線)
100
AcDbCircle
 10
280.1461415518957
 20
465.0580149191983
 30
0.0
 40
0.9999999999999964
100
AcDbArc
 50
90.0
 51
180.0
  0
ARC
  5
312
330
77
100
AcDbEntity
  8
実線(中線)
100
AcDbCircle
 10
277.1461415518957
 20
465.0580149191983
 30
0.0
 40
0.999999999999992
100
AcDbArc
 50
0.0
 51
90.0
  0
ARC
  5
313
330
77
100
AcDbEntity
  8
実線(中線)
100
AcDbCircle
 10
265.1461415518957
 20
465.0580149191984
 30
0.0
 40
0.9999999999999875
100
AcDbArc
 50
89.99999999999797
 51
180.0
  0
ARC
  5
314
330
77
100
AcDbEntity
  8
実線(中線)
100
AcDbCircle
 10
265.1461415518956
 20
439.0580149191984
 30
0.0
 40
0.9999999999999943
100
AcDbArc
 50
180.0
 51
270.0
  0
ARC
  5
315
330
77
100
AcDbEntity
  8
実線(中線)
100
AcDbCircle
 10
277.1461415518957
 20
439.0580149191984
 30
0.0
 40
0.9999999999999964
100
AcDbArc
 50
270.0
 51
0.0
  0
ARC
  5
316
330
77
100
AcDbEntity
  8
実線(中線)
100
AcDbCircle
 10
265.1461415518956
 20
429.0580149191984
 30
0.0
 40
1.0
100
AcDbArc
 50
90.0
 51
180.0
  0
ARC
  5
317
330
77
100
AcDbEntity
  8
実線(中線)
100
AcDbCircle
 10
265.1461415518956
 20
403.0580149191984
 30
0.0
 40
0.999999999999992
100
AcDbArc
 50
180.0
 51
270.0
  0
ARC
  5
318
330
77
100
AcDbEntity
  8
実線(中線)
100
AcDbCircle
 10
307.1461415518957
 20
403.0580149191983
 30
0.0
 40
1.000000000000005
100
AcDbArc
 50
270.0000000000021
 51
0.0
  0
ARC
  5
319
330
77
100
AcDbEntity
  8
実線(中線)
100
AcDbCircle
 10
307.1461415518957
 20
429.0580149191984
 30
0.0
 40
0.9999999999999946
100
AcDbArc
 50
0.0
 51
90.0
  0
LINE
  5
31A
330
77
100
AcDbEntity
  8
実線(中線)
100
AcDbLine
 10
280.1461415518957
 20
466.0580149191984
 30
0.0
 11
307.1461415518957
 21
466.0580149191983
 31
0.0
  0
LINE
  5
31B
330
77
100
AcDbEntity
  8
実線(中線)
100
AcDbLine
 10
308.1461415518958
 20
465.0580149191983
 30
0.0
 11
308.1461415518957
 21
439.0580149191984
 31
0.0
  0
LINE
  5
31C
330
77
100
AcDbEntity
  8
実線(中線)
100
AcDbLine
 10
307.1461415518957
 20
438.0580149191984
 30
0.0
 11
280.1461415518957
 21
438.0580149191984
 31
0.0
  0
LINE
  5
31D
330
77
100
AcDbEntity
  8
実線(中線)
100
AcDbLine
 10
279.1461415518956
 20
439.0580149191984
 30
0.0
 11
279.1461415518956
 21
465.0580149191983
 31
0.0
  0
LINE
  5
31E
330
77
100
AcDbEntity
  8
実線(中線)
100
AcDbLine
 10
265.1461415518957
 20
466.0580149191984
 30
0.0
 11
277.1461415518957
 21
466.0580149191984
 31
0.0
  0
LINE
  5
31F
330
77
100
AcDbEntity
  8
実線(中線)
100
AcDbLine
 10
264.1461415518957
 20
439.0580149191984
 30
0.0
 11
264.1461415518957
 21
465.0580149191983
 31
0.0
  0
LINE
  5
320
330
77
100
AcDbEntity
  8
実線(中線)
100
AcDbLine
 10
277.1461415518957
 20
438.0580149191984
 30
0.0
 11
265.1461415518956
 21
438.0580149191984
 31
0.0
  0
LINE
  5
321
330
77
100
AcDbEntity
  8
実線(中線)
100
AcDbLine
 10
278.1461415518957
 20
465.0580149191983
 30
0.0
 11
278.1461415518957
 21
439.0580149191984
 31
0.0
  0
LINE
  5
322
330
77
100
AcDbEntity
  8
実線(中線)
100
AcDbLine
 10
264.1461415518957
 20
403.0580149191984
 30
0.0
 11
264.1461415518957
 21
429.0580149191984
 31
0.0
  0
LINE
  5
323
330
77
100
AcDbEntity
  8
実線(中線)
100
AcDbLine
 10
307.1461415518957
 20
402.0580149191983
 30
0.0
 11
265.1461415518956
 21
402.0580149191983
 31
0.0
  0
LINE
  5
324
330
77
100
AcDbEntity
  8
実線(中線)
100
AcDbLine
 10
308.1461415518957
 20
429.0580149191984
 30
0.0
 11
308.1461415518957
 21
403.0580149191983
 31
0.0
  0
LINE
  5
325
330
77
100
AcDbEntity
  8
実線(中線)
100
AcDbLine
 10
265.1461415518956
 20
430.0580149191984
 30
0.0
 11
307.1461415518957
 21
430.0580149191983
 31
0.0
  0
LINE
  5
326
330
77
100
AcDbEntity
  8
実線(中線)
100
AcDbLine
 10
355.6461415518958
 20
464.0580149191982
 30
0.0
 11
353.6461415518957
 21
462.0580149191982
 31
0.0
  0
LINE
  5
327
330
77
100
AcDbEntity
  8
実線(中線)
100
AcDbLine
 10
353.6461415518957
 20
456.0580149191983
 30
0.0
 11
355.6461415518958
 21
454.0580149191982
 31
0.0
  0
LINE
  5
328
330
77
100
AcDbEntity
  8
実線(中線)
100
AcDbLine
 10
355.6461415518958
 20
414.0580149191984
 30
0.0
 11
353.6461415518957
 21
412.0580149191983
 31
0.0
  0
LINE
  5
329
330
77
100
AcDbEntity
  8
実線(中線)
100
AcDbLine
 10
353.6461415518959
 20
406.0580149191983
 30
0.0
 11
355.6461415518959
 21
404.0580149191984
 31
0.0
  0
LINE
  5
32A
330
77
100
AcDbEntity
  8
実線(中線)
100
AcDbLine
 10
355.6461415518957
 20
481.5580149191982
 30
0.0
 11
355.6461415518958
 21
464.0580149191982
 31
0.0
  0
LINE
  5
32B
330
77
100
AcDbEntity
  8
実線(中線)
100
AcDbLine
 10
355.6461415518958
 20
454.0580149191982
 30
0.0
 11
355.6461415518958
 21
414.0580149191984
 31
0.0
  0
LINE
  5
32C
330
77
100
AcDbEntity
  8
実線(中線)
100
AcDbLine
 10
355.6461415518959
 20
404.0580149191984
 30
0.0
 11
355.6461415518959
 21
386.5580149191984
 31
0.0
  0
LINE
  5
32D
330
77
100
AcDbEntity
  8
実線(中線)
100
AcDbLine
 10
335.6461415518956
 20
483.5580149191981
 30
0.0
 11
353.6461415518957
 21
483.5580149191981
 31
0.0
  0
LINE
  5
32E
330
77
100
AcDbEntity
  8
実線(中線)
100
AcDbLine
 10
353.6461415518959
 20
384.5580149191984
 30
0.0
 11
335.6461415518958
 21
384.5580149191984
 31
0.0
  0
LINE
  5
32F
330
77
100
AcDbEntity
  8
実線(中線)
100
AcDbLine
 10
335.6461415518958
 20
391.5580149191985
 30
0.0
 11
335.6461415518958
 21
391.5590149191985
 31
0.0
  0
LINE
  5
330
330
77
100
AcDbEntity
  8
実線(中線)
100
AcDbLine
 10
335.6461415518958
 20
416.5590149191984
 30
0.0
 11
335.6461415518958
 21
416.5600149191984
 31
0.0
  0
LINE
  5
331
330
77
100
AcDbEntity
  8
実線(中線)
100
AcDbLine
 10
335.6461415518956
 20
471.5600149191983
 30
0.0
 11
335.6461415518956
 21
471.5610149191983
 31
0.0
  0
LINE
  5
332
330
77
100
AcDbEntity
  8
実線(中線)
100
AcDbLine
 10
335.6461415518956
 20
480.5610149191983
 30
0.0
 11
335.6461415518956
 21
480.5620149191983
 31
0.0
  0
LINE
  5
333
330
77
100
AcDbEntity
  8
実線(中線)
100
AcDbLine
 10
355.6461415518959
 20
386.5580149191984
 30
0.0
 11
353.6461415518959
 21
384.5580149191984
 31
0.0
  0
LINE
  5
334
330
77
100
AcDbEntity
  8
実線(中線)
100
AcDbLine
 10
353.6461415518957
 20
483.5580149191981
 30
0.0
 11
355.6461415518957
 21
481.5580149191982
 31
0.0
  0
LINE
  5
335
330
77
100
AcDbEntity
  8
実線(中線)
100
AcDbLine
 10
345.6461415518958
 20
462.0580149191982
 30
0.0
 11
353.6461415518957
 21
462.0580149191982
 31
0.0
  0
LINE
  5
336
330
77
100
AcDbEntity
  8
実線(中線)
100
AcDbLine
 10
353.6461415518957
 20
456.0580149191983
 30
0.0
 11
345.6461415518958
 21
456.0580149191983
 31
0.0
  0
ARC
  5
337
330
77
100
AcDbEntity
  8
実線(中線)
100
AcDbCircle
 10
345.6461415518958
 20
459.0580149191982
 30
0.0
 40
2.999999999999999
100
AcDbArc
 50
90.0
 51
270.0
  0
LINE
  5
338
330
77
100
AcDbEntity
  8
実線(中線)
100
AcDbLine
 10
345.6461415518958
 20
412.0580149191983
 30
0.0
 11
353.6461415518957
 21
412.0580149191983
 31
0.0
  0
LINE
  5
339
330
77
100
AcDbEntity
  8
実線(中線)
100
AcDbLine
 10
353.6461415518959
 20
406.0580149191983
 30
0.0
 11
345.6461415518958
 21
406.0580149191983
 31
0.0
  0
ARC
  5
33A
330
77
100
AcDbEntity
  8
実線(中線)
100
AcDbCircle
 10
345.6461415518958
 20
409.0580149191984
 30
0.0
 40
2.999999999999999
100
AcDbArc
 50
90.0
 51
270.0
  0
LINE
  5
33B
330
77
100
AcDbEntity
  8
実線(中線)
100
AcDbLine
 10
115.6461415518952
 20
404.0580149191985
 30
0.0
 11
117.6461415518952
 21
406.0580149191984
 31
0.0
  0
LINE
  5
33C
330
77
100
AcDbEntity
  8
実線(中線)
100
AcDbLine
 10
117.6461415518952
 20
412.0580149191985
 30
0.0
 11
115.6461415518952
 21
414.0580149191984
 31
0.0
  0
LINE
  5
33D
330
77
100
AcDbEntity
  8
実線(中線)
100
AcDbLine
 10
115.6461415518951
 20
454.0580149191984
 30
0.0
 11
117.6461415518951
 21
456.0580149191984
 31
0.0
  0
LINE
  5
33E
330
77
100
AcDbEntity
  8
実線(中線)
100
AcDbLine
 10
117.6461415518951
 20
462.0580149191984
 30
0.0
 11
115.6461415518951
 21
464.0580149191984
 31
0.0
  0
LINE
  5
33F
330
77
100
AcDbEntity
  8
実線(中線)
100
AcDbLine
 10
115.6461415518952
 20
386.5580149191985
 30
0.0
 11
115.6461415518952
 21
404.0580149191984
 31
0.0
  0
LINE
  5
340
330
77
100
AcDbEntity
  8
実線(中線)
100
AcDbLine
 10
115.6461415518952
 20
414.0580149191984
 30
0.0
 11
115.6461415518951
 21
454.0580149191984
 31
0.0
  0
LINE
  5
341
330
77
100
AcDbEntity
  8
実線(中線)
100
AcDbLine
 10
115.6461415518951
 20
464.0580149191984
 30
0.0
 11
115.646141551895
 21
481.5580149191984
 31
0.0
  0
LINE
  5
342
330
77
100
AcDbEntity
  8
実線(中線)
100
AcDbLine
 10
135.6461415518952
 20
384.5580149191986
 30
0.0
 11
117.6461415518952
 21
384.5580149191985
 31
0.0
  0
LINE
  5
343
330
77
100
AcDbEntity
  8
実線(中線)
100
AcDbLine
 10
117.6461415518951
 20
483.5580149191984
 30
0.0
 11
135.6461415518952
 21
483.5580149191984
 31
0.0
  0
LINE
  5
344
330
77
100
AcDbEntity
  8
実線(中線)
100
AcDbLine
 10
135.6461415518952
 20
480.5620149191986
 30
0.0
 11
135.6461415518952
 21
480.5610149191986
 31
0.0
  0
LINE
  5
345
330
77
100
AcDbEntity
  8
実線(中線)
100
AcDbLine
 10
135.6461415518952
 20
471.5610149191986
 30
0.0
 11
135.6461415518952
 21
471.5600149191986
 31
0.0
  0
LINE
  5
346
330
77
100
AcDbEntity
  8
実線(中線)
100
AcDbLine
 10
135.6461415518952
 20
416.5600149191987
 30
0.0
 11
135.6461415518952
 21
416.5590149191985
 31
0.0
  0
LINE
  5
347
330
77
100
AcDbEntity
  8
実線(中線)
100
AcDbLine
 10
135.6461415518952
 20
391.5590149191986
 30
0.0
 11
135.6461415518952
 21
391.5580149191987
 31
0.0
  0
LINE
  5
348
330
77
100
AcDbEntity
  8
実線(中線)
100
AcDbLine
 10
115.646141551895
 20
481.5580149191984
 30
0.0
 11
117.6461415518951
 21
483.5580149191984
 31
0.0
  0
LINE
  5
349
330
77
100
AcDbEntity
  8
実線(中線)
100
AcDbLine
 10
117.6461415518952
 20
384.5580149191985
 30
0.0
 11
115.6461415518952
 21
386.5580149191985
 31
0.0
  0
LINE
  5
34A
330
77
100
AcDbEntity
  8
実線(中線)
100
AcDbLine
 10
125.6461415518952
 20
406.0580149191984
 30
0.0
 11
117.6461415518952
 21
406.0580149191984
 31
0.0
  0
LINE
  5
34B
330
77
100
AcDbEntity
  8
実線(中線)
100
AcDbLine
 10
117.6461415518952
 20
412.0580149191985
 30
0.0
 11
125.6461415518952
 21
412.0580149191985
 31
0.0
  0
ARC
  5
34C
330
77
100
AcDbEntity
  8
実線(中線)
100
AcDbCircle
 10
125.6461415518952
 20
409.0580149191985
 30
0.0
 40
2.999999999999998
100
AcDbArc
 50
270.0
 51
90.0
  0
LINE
  5
34D
330
77
100
AcDbEntity
  8
実線(中線)
100
AcDbLine
 10
125.6461415518952
 20
456.0580149191984
 30
0.0
 11
117.6461415518951
 21
456.0580149191984
 31
0.0
  0
LINE
  5
34E
330
77
100
AcDbEntity
  8
実線(中線)
100
AcDbLine
 10
117.6461415518951
 20
462.0580149191984
 30
0.0
 11
125.6461415518952
 21
462.0580149191985
 31
0.0
  0
ARC
  5
34F
330
77
100
AcDbEntity
  8
実線(中線)
100
AcDbCircle
 10
125.6461415518952
 20
459.0580149191985
 30
0.0
 40
2.999999999999998
100
AcDbArc
 50
270.0
 51
90.0
  0
LINE
  5
350
330
77
100
AcDbEntity
  8
実線(中線)
100
AcDbLine
 10
434.7192853060088
 20
453.9580149191984
 30
0.0
 11
434.7192853060088
 21
464.1580149191983
 31
0.0
  0
LINE
  5
351
330
77
100
AcDbEntity
  8
実線(中線)
100
AcDbLine
 10
434.7192853060088
 20
439.9580149191984
 30
0.0
 11
434.7192853060088
 21
450.1580149191983
 31
0.0
  0
LINE
  5
352
330
77
100
AcDbEntity
  8
実線(中線)
100
AcDbLine
 10
434.7192853060088
 20
417.9580149191983
 30
0.0
 11
434.7192853060088
 21
428.1580149191984
 31
0.0
  0
LINE
  5
353
330
77
100
AcDbEntity
  8
実線(中線)
100
AcDbLine
 10
434.7192853060088
 20
403.9580149191984
 30
0.0
 11
434.7192853060088
 21
414.1580149191983
 31
0.0
  0
ARC
  5
354
330
77
100
AcDbEntity
  8
実線(中線)
100
AcDbCircle
 10
435.2192853060087
 20
464.1580149191983
 30
0.0
 40
0.5
100
AcDbArc
 50
126.8698976458456
 51
180.0
  0
ARC
  5
355
330
77
100
AcDbEntity
  8
実線(中線)
100
AcDbCircle
 10
435.2192853060087
 20
453.9580149191984
 30
0.0
 40
0.5000000000000001
100
AcDbArc
 50
180.0
 51
233.1301023541544
  0
ARC
  5
356
330
77
100
AcDbEntity
  8
実線(中線)
100
AcDbCircle
 10
435.2192853060087
 20
450.1580149191983
 30
0.0
 40
0.5
100
AcDbArc
 50
126.8698976458456
 51
180.0
  0
ARC
  5
357
330
77
100
AcDbEntity
  8
実線(中線)
100
AcDbCircle
 10
435.2192853060087
 20
439.9580149191984
 30
0.0
 40
0.5000000000000001
100
AcDbArc
 50
180.0
 51
233.1301023541544
  0
ARC
  5
358
330
77
100
AcDbEntity
  8
実線(中線)
100
AcDbCircle
 10
435.2192853060087
 20
428.1580149191984
 30
0.0
 40
0.5
100
AcDbArc
 50
126.8698976458456
 51
180.0
  0
ARC
  5
359
330
77
100
AcDbEntity
  8
実線(中線)
100
AcDbCircle
 10
435.2192853060087
 20
417.9580149191983
 30
0.0
 40
0.5000000000000001
100
AcDbArc
 50
180.0
 51
233.1301023541544
  0
ARC
  5
35A
330
77
100
AcDbEntity
  8
実線(中線)
100
AcDbCircle
 10
435.2192853060087
 20
414.1580149191983
 30
0.0
 40
0.5
100
AcDbArc
 50
126.8698976458456
 51
180.0
  0
ARC
  5
35B
330
77
100
AcDbEntity
  8
実線(中線)
100
AcDbCircle
 10
435.2192853060087
 20
403.9580149191984
 30
0.0
 40
0.5000000000000001
100
AcDbArc
 50
180.0
 51
233.1301023541544
  0
LINE
  5
35C
330
77
100
AcDbEntity
  8
実線(中線)
100
AcDbLine
 10
434.9192853060105
 20
450.0580149191984
 30
0.0
 11
434.9192853060102
 21
451.0580149191984
 31
0.0
  0
LINE
  5
35D
330
77
100
AcDbEntity
  8
実線(中線)
100
AcDbLine
 10
435.1192853060103
 20
451.0580149191984
 30
0.0
 11
434.9192853060102
 21
451.0580149191984
 31
0.0
  0
LINE
  5
35E
330
77
100
AcDbEntity
  8
実線(中線)
100
AcDbLine
 10
434.9192853060102
 20
439.0580149191984
 30
0.0
 11
434.9192853060105
 21
440.0580149191983
 31
0.0
  0
LINE
  5
35F
330
77
100
AcDbEntity
  8
実線(中線)
100
AcDbLine
 10
434.9192853060102
 20
439.0580149191984
 30
0.0
 11
435.1192853060103
 21
439.0580149191984
 31
0.0
  0
LINE
  5
360
330
77
100
AcDbEntity
  8
実線(中線)
100
AcDbLine
 10
434.9192853060105
 20
464.0580149191984
 30
0.0
 11
434.9192853060102
 21
465.0580149191983
 31
0.0
  0
LINE
  5
361
330
77
100
AcDbEntity
  8
実線(中線)
100
AcDbLine
 10
435.1192853060103
 20
465.0580149191983
 30
0.0
 11
434.9192853060102
 21
465.0580149191983
 31
0.0
  0
LINE
  5
362
330
77
100
AcDbEntity
  8
実線(中線)
100
AcDbLine
 10
434.9192853060102
 20
453.0580149191983
 30
0.0
 11
434.9192853060105
 21
454.0580149191984
 31
0.0
  0
LINE
  5
363
330
77
100
AcDbEntity
  8
実線(中線)
100
AcDbLine
 10
434.9192853060102
 20
453.0580149191983
 30
0.0
 11
435.1192853060103
 21
453.0580149191983
 31
0.0
  0
LINE
  5
364
330
77
100
AcDbEntity
  8
実線(中線)
100
AcDbLine
 10
434.9192853060106
 20
450.0580149191984
 30
0.0
 11
434.9192853060106
 21
440.0580149191983
 31
0.0
  0
LINE
  5
365
330
77
100
AcDbEntity
  8
実線(中線)
100
AcDbLine
 10
434.9192853060106
 20
464.0580149191984
 30
0.0
 11
434.9192853060106
 21
454.0580149191984
 31
0.0
  0
LINE
  5
366
330
77
100
AcDbEntity
  8
実線(中線)
100
AcDbLine
 10
434.9192853060106
 20
428.0580149191983
 30
0.0
 11
434.9192853060106
 21
418.0580149191984
 31
0.0
  0
LINE
  5
367
330
77
100
AcDbEntity
  8
実線(中線)
100
AcDbLine
 10
434.9192853060106
 20
414.0580149191984
 30
0.0
 11
434.9192853060106
 21
404.0580149191984
 31
0.0
  0
LINE
  5
368
330
77
100
AcDbEntity
  8
実線(中線)
100
AcDbLine
 10
435.1192853060103
 20
429.0580149191984
 30
0.0
 11
434.9192853060102
 21
429.0580149191984
 31
0.0
  0
LINE
  5
369
330
77
100
AcDbEntity
  8
実線(中線)
100
AcDbLine
 10
434.9192853060102
 20
417.0580149191983
 30
0.0
 11
434.9192853060105
 21
418.0580149191984
 31
0.0
  0
LINE
  5
36A
330
77
100
AcDbEntity
  8
実線(中線)
100
AcDbLine
 10
434.9192853060105
 20
428.0580149191983
 30
0.0
 11
434.9192853060102
 21
429.0580149191984
 31
0.0
  0
LINE
  5
36B
330
77
100
AcDbEntity
  8
実線(中線)
100
AcDbLine
 10
434.9192853060102
 20
417.0580149191983
 30
0.0
 11
435.1192853060103
 21
417.0580149191983
 31
0.0
  0
LINE
  5
36C
330
77
100
AcDbEntity
  8
実線(中線)
100
AcDbLine
 10
434.9192853060102
 20
403.0580149191983
 30
0.0
 11
434.9192853060105
 21
404.0580149191984
 31
0.0
  0
LINE
  5
36D
330
77
100
AcDbEntity
  8
実線(中線)
100
AcDbLine
 10
434.9192853060105
 20
414.0580149191984
 30
0.0
 11
434.9192853060102
 21
415.0580149191983
 31
0.0
  0
LINE
  5
36E
330
77
100
AcDbEntity
  8
実線(中線)
100
AcDbLine
 10
434.9192853060102
 20
403.0580149191983
 30
0.0
 11
435.1192853060103
 21
403.0580149191983
 31
0.0
  0
LINE
  5
36F
330
77
100
AcDbEntity
  8
実線(中線)
100
AcDbLine
 10
435.1192853060103
 20
415.0580149191983
 30
0.0
 11
434.9192853060102
 21
415.0580149191983
 31
0.0
  0
LINE
  5
370
330
77
100
AcDbEntity
  8
実線(中線)
100
AcDbLine
 10
435.1192853060108
 20
465.0580149191983
 30
0.0
 11
435.1192853060106
 21
466.0580149191984
 31
0.0
  0
LINE
  5
371
330
77
100
AcDbEntity
  8
実線(中線)
100
AcDbLine
 10
435.3192853060106
 20
466.0580149191984
 30
0.0
 11
435.1192853060106
 21
466.0580149191983
 31
0.0
  0
LINE
  5
372
330
77
100
AcDbEntity
  8
実線(中線)
100
AcDbLine
 10
435.1192853060106
 20
438.0580149191984
 30
0.0
 11
435.1192853060108
 21
439.0580149191984
 31
0.0
  0
LINE
  5
373
330
77
100
AcDbEntity
  8
実線(中線)
100
AcDbLine
 10
435.1192853060106
 20
438.0580149191984
 30
0.0
 11
435.3192853060106
 21
438.0580149191984
 31
0.0
  0
LINE
  5
374
330
77
100
AcDbEntity
  8
実線(中線)
100
AcDbLine
 10
435.1192853060106
 20
402.0580149191983
 30
0.0
 11
435.1192853060108
 21
403.0580149191983
 31
0.0
  0
LINE
  5
375
330
77
100
AcDbEntity
  8
実線(中線)
100
AcDbLine
 10
435.1192853060108
 20
429.0580149191984
 30
0.0
 11
435.1192853060106
 21
430.0580149191984
 31
0.0
  0
LINE
  5
376
330
77
100
AcDbEntity
  8
実線(中線)
100
AcDbLine
 10
435.3192853060106
 20
430.0580149191984
 30
0.0
 11
435.1192853060106
 21
430.0580149191983
 31
0.0
  0
LINE
  5
377
330
77
100
AcDbEntity
  8
実線(中線)
100
AcDbLine
 10
435.1192853060106
 20
402.0580149191983
 30
0.0
 11
435.3192853060106
 21
402.0580149191983
 31
0.0
  0
LINE
  5
378
330
77
100
AcDbEntity
  8
実線(中線)
100
AcDbLine
 10
435.1192853060108
 20
465.0580149191983
 30
0.0
 11
435.1192853060108
 21
439.0580149191984
 31
0.0
  0
LINE
  5
379
330
77
100
AcDbEntity
  8
実線(中線)
100
AcDbLine
 10
435.1192853060108
 20
429.0580149191984
 30
0.0
 11
435.1192853060108
 21
403.0580149191983
 31
0.0
  0
LINE
  5
37A
330
77
100
AcDbEntity
  8
実線(中線)
100
AcDbLine
 10
435.3192853060108
 20
416.5590149191984
 30
0.0
 11
435.3192853060108
 21
416.5600149191984
 31
0.0
  0
LINE
  5
37B
330
77
100
AcDbEntity
  8
実線(中線)
100
AcDbLine
 10
435.3192853060191
 20
416.5590149191984
 30
0.0
 11
435.3192853060191
 21
391.5590149191985
 31
0.0
  0
LINE
  5
37C
330
77
100
AcDbEntity
  8
実線(中線)
100
AcDbLine
 10
435.419285306019
 20
416.5600149191984
 30
0.0
 11
435.3192853060191
 21
416.5600149191984
 31
0.0
  0
LINE
  5
37D
330
77
100
AcDbEntity
  8
実線(中線)
100
AcDbLine
 10
435.419285306019
 20
471.5600149191984
 30
0.0
 11
435.3192853060191
 21
471.5600149191984
 31
0.0
  0
LINE
  5
37E
330
77
100
AcDbEntity
  8
実線(中線)
100
AcDbLine
 10
435.3192853060191
 20
471.5600149191984
 30
0.0
 11
435.3192853060191
 21
416.5600149191984
 31
0.0
  0
LINE
  5
37F
330
77
100
AcDbEntity
  8
実線(中線)
100
AcDbLine
 10
435.419285306019
 20
391.5590149191984
 30
0.0
 11
435.3192853060191
 21
391.5590149191984
 31
0.0
  0
LINE
  5
380
330
77
100
AcDbEntity
  8
実線(中線)
100
AcDbLine
 10
435.419285306019
 20
416.5590149191984
 30
0.0
 11
435.3192853060191
 21
416.5590149191984
 31
0.0
  0
LINE
  5
381
330
77
100
AcDbEntity
  8
実線(中線)
100
AcDbLine
 10
435.419285306019
 20
471.5610149191984
 30
0.0
 11
435.3192853060191
 21
471.5610149191984
 31
0.0
  0
LINE
  5
382
330
77
100
AcDbEntity
  8
実線(中線)
100
AcDbLine
 10
435.419285306019
 20
480.5610149191983
 30
0.0
 11
435.3192853060191
 21
480.5610149191983
 31
0.0
  0
LINE
  5
383
330
77
100
AcDbEntity
  8
実線(中線)
100
AcDbLine
 10
435.3192853060191
 20
480.5610149191983
 30
0.0
 11
435.3192853060191
 21
471.5610149191984
 31
0.0
  0
LINE
  5
384
330
77
100
AcDbEntity
  8
実線(中線)
100
AcDbLine
 10
435.419285306019
 20
391.5580149191985
 30
0.0
 11
435.3192853060191
 21
391.5580149191985
 31
0.0
  0
LINE
  5
385
330
77
100
AcDbEntity
  8
実線(中線)
100
AcDbLine
 10
435.3192853060191
 20
391.5580149191985
 30
0.0
 11
435.3192853060191
 21
384.5580149191984
 31
0.0
  0
LINE
  5
386
330
77
100
AcDbEntity
  8
実線(中線)
100
AcDbLine
 10
435.419285306019
 20
480.5620149191984
 30
0.0
 11
435.3192853060191
 21
480.5620149191984
 31
0.0
  0
LINE
  5
387
330
77
100
AcDbEntity
  8
実線(中線)
100
AcDbLine
 10
435.3192853060191
 20
483.5580149191981
 30
0.0
 11
435.3192853060191
 21
480.5620149191984
 31
0.0
  0
LINE
  5
388
330
77
100
AcDbEntity
  8
実線(中線)
100
AcDbLine
 10
435.419285306019
 20
384.5580149191985
 30
0.0
 11
435.3192853060191
 21
384.5580149191984
 31
0.0
  0
LINE
  5
389
330
77
100
AcDbEntity
  8
実線(中線)
100
AcDbLine
 10
435.419285306019
 20
483.5580149191981
 30
0.0
 11
435.3192853060191
 21
483.5580149191981
 31
0.0
  0
LINE
  5
38A
330
77
100
AcDbEntity
  8
実線(中線)
100
AcDbLine
 10
464.319285306016
 20
460.8080149191982
 30
0.0
 11
464.319285306016
 21
466.3080149191982
 31
0.0
  0
LINE
  5
38B
330
77
100
AcDbEntity
  8
実線(中線)
100
AcDbLine
 10
464.319285306016
 20
466.3080149191982
 30
0.0
 11
465.0584054476405
 21
466.3080149191982
 31
0.0
  0
LINE
  5
38C
330
77
100
AcDbEntity
  8
実線(中線)
100
AcDbLine
 10
464.319285306016
 20
460.8080149191982
 30
0.0
 11
465.0584054476405
 21
460.8080149191982
 31
0.0
  0
ELLIPSE
  5
38D
330
77
100
AcDbEntity
  8
実線(中線)
100
AcDbEllipse
 10
464.319285306016
 20
463.5580149191981
 30
0.0
 11
7.28064419735965
 21
0.1372658085580732
 31
0.0
210
0.0
220
0.0
230
1.0
 40
0.3634901616582008
 41
1.563943363167389
 42
1.660235179727818
  0
ELLIPSE
  5
38E
330
77
100
AcDbEntity
  8
実線(中線)
100
AcDbEllipse
 10
463.619285306016
 20
463.5580149191981
 30
0.0
 11
7.280644197359655
 21
0.1372658085580735
 31
0.0
210
0.0
220
0.0
230
0.9999999999999998
 40
0.3634901616582006
 41
1.470835941103464
 42
1.563943363167388
  0
LINE
  5
38F
330
77
100
AcDbEntity
  8
実線(中線)
100
AcDbLine
 10
463.619285306016
 20
467.5580149191981
 30
0.0
 11
463.619285306016
 21
459.5580149191982
 31
0.0
  0
LINE
  5
390
330
77
100
AcDbEntity
  8
実線(中線)
100
AcDbLine
 10
463.119285306016
 20
467.5580149191981
 30
0.0
 11
463.619285306016
 21
467.5580149191981
 31
0.0
  0
LINE
  5
391
330
77
100
AcDbEntity
  8
実線(中線)
100
AcDbLine
 10
463.119285306016
 20
459.5580149191982
 30
0.0
 11
463.619285306016
 21
459.5580149191982
 31
0.0
  0
ARC
  5
392
330
77
100
AcDbEntity
  8
実線(中線)
100
AcDbCircle
 10
459.319285306016
 20
463.5580149191981
 30
0.0
 40
7.0
100
AcDbArc
 50
345.631382112104
 51
14.36861788789601
  0
ARC
  5
393
330
77
100
AcDbEntity
  8
実線(中線)
100
AcDbCircle
 10
459.319285306016
 20
463.5580149191981
 30
0.0
 40
7.000000000000001
100
AcDbArc
 50
343.0422366999958
 51
345.631382112104
  0
ARC
  5
394
330
77
100
AcDbEntity
  8
実線(中線)
100
AcDbCircle
 10
459.319285306016
 20
463.5580149191981
 30
0.0
 40
7.000000000000001
100
AcDbArc
 50
14.36861788789596
 51
16.95776330000414
  0
ARC
  5
395
330
77
100
AcDbEntity
  8
実線(中線)
100
AcDbCircle
 10
465.0584054476405
 20
465.3080149191981
 30
0.0
 40
1.0
100
AcDbArc
 50
16.9577633000049
 51
90.0
  0
ARC
  5
396
330
77
100
AcDbEntity
  8
実線(中線)
100
AcDbCircle
 10
465.0584054476405
 20
461.8080149191982
 30
0.0
 40
1.0
100
AcDbArc
 50
270.0
 51
343.0422366999951
  0
LINE
  5
397
330
77
100
AcDbEntity
  8
実線(中線)
100
AcDbLine
 10
463.619285306016
 20
466.2080149191981
 30
0.0
 11
463.9465833695681
 21
466.2080149191981
 31
0.0
  0
LINE
  5
398
330
77
100
AcDbEntity
  8
実線(中線)
100
AcDbLine
 10
463.619285306016
 20
460.9080149191981
 30
0.0
 11
464.319285306016
 21
460.9080149191981
 31
0.0
  0
LINE
  5
399
330
77
100
AcDbEntity
  8
実線(中線)
100
AcDbLine
 10
463.9465833695147
 20
466.2080149191981
 30
0.0
 11
464.3192853059625
 21
466.2080149191981
 31
0.0
  0
LINE
  5
39A
330
77
100
AcDbEntity
  8
実線(中線)
100
AcDbLine
 10
464.319285306016
 20
401.8080149191981
 30
0.0
 11
464.319285306016
 21
407.3080149191981
 31
0.0
  0
LINE
  5
39B
330
77
100
AcDbEntity
  8
実線(中線)
100
AcDbLine
 10
464.319285306016
 20
407.3080149191981
 30
0.0
 11
465.0584054476405
 21
407.3080149191981
 31
0.0
  0
LINE
  5
39C
330
77
100
AcDbEntity
  8
実線(中線)
100
AcDbLine
 10
464.319285306016
 20
401.8080149191981
 30
0.0
 11
465.0584054476405
 21
401.8080149191981
 31
0.0
  0
LINE
  5
39D
330
77
100
AcDbEntity
  8
実線(中線)
100
AcDbLine
 10
463.619285306016
 20
408.5580149191981
 30
0.0
 11
463.619285306016
 21
400.5580149191981
 31
0.0
  0
LINE
  5
39E
330
77
100
AcDbEntity
  8
実線(中線)
100
AcDbLine
 10
463.119285306016
 20
408.5580149191981
 30
0.0
 11
463.619285306016
 21
408.5580149191981
 31
0.0
  0
LINE
  5
39F
330
77
100
AcDbEntity
  8
実線(中線)
100
AcDbLine
 10
463.119285306016
 20
400.5580149191981
 30
0.0
 11
463.619285306016
 21
400.5580149191981
 31
0.0
  0
ARC
  5
3A0
330
77
100
AcDbEntity
  8
実線(中線)
100
AcDbCircle
 10
459.319285306016
 20
404.5580149191981
 30
0.0
 40
7.0
100
AcDbArc
 50
345.5100337056685
 51
14.48996629433082
  0
ARC
  5
3A1
330
77
100
AcDbEntity
  8
実線(中線)
100
AcDbCircle
 10
459.319285306016
 20
404.5580149191981
 30
0.0
 40
7.0
100
AcDbArc
 50
343.0422366999958
 51
345.5100337056692
  0
ARC
  5
3A2
330
77
100
AcDbEntity
  8
実線(中線)
100
AcDbCircle
 10
459.319285306016
 20
404.5580149191981
 30
0.0
 40
7.000000000000001
100
AcDbArc
 50
14.48996629433086
 51
16.95776330000414
  0
ARC
  5
3A3
330
77
100
AcDbEntity
  8
実線(中線)
100
AcDbCircle
 10
465.0584054476405
 20
406.308014919198
 30
0.0
 40
1.0
100
AcDbArc
 50
16.9577633000049
 51
90.0
  0
ARC
  5
3A4
330
77
100
AcDbEntity
  8
実線(中線)
100
AcDbCircle
 10
465.0584054476405
 20
402.8080149191981
 30
0.0
 40
1.0
100
AcDbArc
 50
270.0
 51
343.0422366999951
  0
LINE
  5
3A5
330
77
100
AcDbEntity
  8
実線(中線)
100
AcDbLine
 10
463.619285306016
 20
407.2080149191981
 30
0.0
 11
464.319285306016
 21
407.2080149191981
 31
0.0
  0
LINE
  5
3A6
330
77
100
AcDbEntity
  8
実線(中線)
100
AcDbLine
 10
463.619285306016
 20
401.9080149191981
 30
0.0
 11
464.319285306016
 21
401.9080149191981
 31
0.0
  0
CIRCLE
  5
3A7
330
77
100
AcDbEntity
  8
実線(中線)
100
AcDbCircle
 10
450.4192853060195
 20
466.5580149191982
 30
0.0
 40
3.999999999999999
  0
CIRCLE
  5
3A8
330
77
100
AcDbEntity
  8
実線(中線)
100
AcDbCircle
 10
450.4192853060195
 20
401.5580149191982
 30
0.0
 40
4.000000000000005
  0
LINE
  5
3A9
330
77
100
AcDbEntity
  8
実線(中線)
100
AcDbLine
 10
462.1192853060189
 20
395.058014919198
 30
0.0
 11
463.1192853060187
 21
395.058014919198
 31
0.0
  0
LINE
  5
3AA
330
77
100
AcDbEntity
  8
実線(中線)
100
AcDbLine
 10
463.1192853060185
 20
395.0580149191981
 30
0.0
 11
463.1192853060185
 21
473.0580149191982
 31
0.0
  0
LINE
  5
3AB
330
77
100
AcDbEntity
  8
実線(中線)
100
AcDbLine
 10
463.1192853060185
 20
473.0580149191982
 30
0.0
 11
462.1192853060188
 21
473.0580149191982
 31
0.0
  0
LINE
  5
3AC
330
77
100
AcDbEntity
  8
実線(中線)
100
AcDbLine
 10
460.4192853060189
 20
473.0580149191982
 30
0.0
 11
462.1192853060189
 21
473.0580149191982
 31
0.0
  0
LINE
  5
3AD
330
77
100
AcDbEntity
  8
実線(中線)
100
AcDbLine
 10
462.1192853060189
 20
395.058014919198
 30
0.0
 11
460.4192853060189
 21
395.058014919198
 31
0.0
  0
ARC
  5
3AE
330
77
100
AcDbEntity
  8
実線(中線)
100
AcDbCircle
 10
462.1192853060186
 20
473.0580149191982
 30
0.0
 40
1.000000000000001
100
AcDbArc
 50
0.0
 51
90.0
  0
ARC
  5
3AF
330
77
100
AcDbEntity
  8
実線(中線)
100
AcDbCircle
 10
462.1192853060186
 20
473.0580149191982
 30
0.0
 40
0.199999999999996
100
AcDbArc
 50
0.0
 51
90.0
  0
ARC
  5
3B0
330
77
100
AcDbEntity
  8
実線(中線)
100
AcDbCircle
 10
462.1192853060186
 20
395.0580149191981
 30
0.0
 40
1.000000000000001
100
AcDbArc
 50
270.0
 51
0.0
  0
ARC
  5
3B1
330
77
100
AcDbEntity
  8
実線(中線)
100
AcDbCircle
 10
462.1192853060186
 20
395.0580149191981
 30
0.0
 40
0.199999999999996
100
AcDbArc
 50
270.0
 51
0.0
  0
LINE
  5
3B2
330
77
100
AcDbEntity
  8
実線(中線)
100
AcDbLine
 10
460.4192853060186
 20
473.2580149191983
 30
0.0
 11
462.1192853060186
 21
473.2580149191983
 31
0.0
  0
LINE
  5
3B3
330
77
100
AcDbEntity
  8
実線(中線)
100
AcDbLine
 10
462.1192853060186
 20
474.0580149191982
 30
0.0
 11
460.4192853060186
 21
474.0580149191982
 31
0.0
  0
LINE
  5
3B4
330
77
100
AcDbEntity
  8
実線(中線)
100
AcDbLine
 10
460.4192853060187
 20
394.8580149191981
 30
0.0
 11
462.1192853060186
 21
394.8580149191981
 31
0.0
  0
LINE
  5
3B5
330
77
100
AcDbEntity
  8
実線(中線)
100
AcDbLine
 10
460.4192853060187
 20
394.0580149191981
 30
0.0
 11
462.1192853060186
 21
394.0580149191981
 31
0.0
  0
LINE
  5
3B6
330
77
100
AcDbEntity
  8
実線(中線)
100
AcDbLine
 10
437.4192853060244
 20
462.0580149191982
 30
0.0
 11
437.4192853060249
 21
464.0580149191982
 31
0.0
  0
LINE
  5
3B7
330
77
100
AcDbEntity
  8
実線(中線)
100
AcDbLine
 10
437.4192853060249
 20
464.0580149191982
 30
0.0
 11
435.419285306025
 21
464.0580149191982
 31
0.0
  0
LINE
  5
3B8
330
77
100
AcDbEntity
  8
実線(中線)
100
AcDbLine
 10
435.419285306025
 20
464.0580149191982
 30
0.0
 11
435.4192853060244
 21
462.0580149191982
 31
0.0
  0
LINE
  5
3B9
330
77
100
AcDbEntity
  8
実線(中線)
100
AcDbLine
 10
435.4192853060244
 20
462.0580149191982
 30
0.0
 11
437.4192853060244
 21
462.0580149191982
 31
0.0
  0
LINE
  5
3BA
330
77
100
AcDbEntity
  8
実線(中線)
100
AcDbLine
 10
437.4192853060249
 20
454.0580149191982
 30
0.0
 11
437.4192853060244
 21
456.0580149191983
 31
0.0
  0
LINE
  5
3BB
330
77
100
AcDbEntity
  8
実線(中線)
100
AcDbLine
 10
437.4192853060244
 20
412.0580149191983
 30
0.0
 11
437.4192853060249
 21
414.0580149191984
 31
0.0
  0
LINE
  5
3BC
330
77
100
AcDbEntity
  8
実線(中線)
100
AcDbLine
 10
437.4192853060249
 20
404.0580149191984
 30
0.0
 11
437.4192853060244
 21
406.0580149191983
 31
0.0
  0
LINE
  5
3BD
330
77
100
AcDbEntity
  8
実線(中線)
100
AcDbLine
 10
435.4192853060244
 20
456.0580149191983
 30
0.0
 11
435.419285306025
 21
454.0580149191982
 31
0.0
  0
LINE
  5
3BE
330
77
100
AcDbEntity
  8
実線(中線)
100
AcDbLine
 10
435.419285306025
 20
454.0580149191982
 30
0.0
 11
437.4192853060249
 21
454.0580149191982
 31
0.0
  0
LINE
  5
3BF
330
77
100
AcDbEntity
  8
実線(中線)
100
AcDbLine
 10
437.4192853060244
 20
456.0580149191983
 30
0.0
 11
435.4192853060244
 21
456.0580149191983
 31
0.0
  0
LINE
  5
3C0
330
77
100
AcDbEntity
  8
実線(中線)
100
AcDbLine
 10
437.4192853060249
 20
414.0580149191984
 30
0.0
 11
435.419285306025
 21
414.0580149191984
 31
0.0
  0
LINE
  5
3C1
330
77
100
AcDbEntity
  8
実線(中線)
100
AcDbLine
 10
435.419285306025
 20
414.0580149191984
 30
0.0
 11
435.4192853060244
 21
412.0580149191983
 31
0.0
  0
LINE
  5
3C2
330
77
100
AcDbEntity
  8
実線(中線)
100
AcDbLine
 10
435.4192853060244
 20
412.0580149191983
 30
0.0
 11
437.4192853060244
 21
412.0580149191983
 31
0.0
  0
LINE
  5
3C3
330
77
100
AcDbEntity
  8
実線(中線)
100
AcDbLine
 10
435.4192853060244
 20
406.0580149191983
 30
0.0
 11
435.419285306025
 21
404.0580149191984
 31
0.0
  0
LINE
  5
3C4
330
77
100
AcDbEntity
  8
実線(中線)
100
AcDbLine
 10
435.419285306025
 20
404.0580149191984
 30
0.0
 11
437.4192853060249
 21
404.0580149191984
 31
0.0
  0
LINE
  5
3C5
330
77
100
AcDbEntity
  8
実線(中線)
100
AcDbLine
 10
437.4192853060244
 20
406.0580149191983
 30
0.0
 11
435.4192853060244
 21
406.0580149191983
 31
0.0
  0
LINE
  5
3C6
330
77
100
AcDbEntity
  8
実線(中線)
100
AcDbLine
 10
437.4192853060249
 20
464.0580149191982
 30
0.0
 11
437.4192853060249
 21
481.5580149191982
 31
0.0
  0
LINE
  5
3C7
330
77
100
AcDbEntity
  8
実線(中線)
100
AcDbLine
 10
435.419285306025
 20
481.5580149191982
 30
0.0
 11
435.419285306025
 21
464.0580149191982
 31
0.0
  0
LINE
  5
3C8
330
77
100
AcDbEntity
  8
実線(中線)
100
AcDbLine
 10
437.4192853060249
 20
414.0580149191984
 30
0.0
 11
437.4192853060249
 21
454.0580149191982
 31
0.0
  0
LINE
  5
3C9
330
77
100
AcDbEntity
  8
実線(中線)
100
AcDbLine
 10
437.4192853060249
 20
386.5580149191984
 30
0.0
 11
437.4192853060249
 21
404.0580149191984
 31
0.0
  0
LINE
  5
3CA
330
77
100
AcDbEntity
  8
実線(中線)
100
AcDbLine
 10
435.419285306025
 20
454.0580149191982
 30
0.0
 11
435.419285306025
 21
414.0580149191984
 31
0.0
  0
LINE
  5
3CB
330
77
100
AcDbEntity
  8
実線(中線)
100
AcDbLine
 10
435.419285306025
 20
404.0580149191984
 30
0.0
 11
435.419285306025
 21
386.5580149191984
 31
0.0
  0
LINE
  5
3CC
330
77
100
AcDbEntity
  8
実線(中線)
100
AcDbLine
 10
435.419285306025
 20
481.5580149191982
 30
0.0
 11
437.4192853060249
 21
481.5580149191982
 31
0.0
  0
LINE
  5
3CD
330
77
100
AcDbEntity
  8
実線(中線)
100
AcDbLine
 10
437.4192853060244
 20
384.5580149191984
 30
0.0
 11
437.4192853060249
 21
386.5580149191984
 31
0.0
  0
LINE
  5
3CE
330
77
100
AcDbEntity
  8
実線(中線)
100
AcDbLine
 10
437.4192853060249
 20
481.5580149191982
 30
0.0
 11
437.4192853060244
 21
483.5580149191981
 31
0.0
  0
LINE
  5
3CF
330
77
100
AcDbEntity
  8
実線(中線)
100
AcDbLine
 10
437.4192853060249
 20
386.5580149191984
 30
0.0
 11
435.419285306025
 21
386.5580149191984
 31
0.0
  0
LINE
  5
3D0
330
77
100
AcDbEntity
  8
実線(中線)
100
AcDbLine
 10
435.419285306025
 20
386.5580149191984
 30
0.0
 11
435.4192853060244
 21
384.5580149191984
 31
0.0
  0
LINE
  5
3D1
330
77
100
AcDbEntity
  8
実線(中線)
100
AcDbLine
 10
435.4192853060244
 20
384.5580149191984
 30
0.0
 11
437.4192853060244
 21
384.5580149191984
 31
0.0
  0
LINE
  5
3D2
330
77
100
AcDbEntity
  8
実線(中線)
100
AcDbLine
 10
435.4192853060244
 20
483.5580149191981
 30
0.0
 11
435.419285306025
 21
481.5580149191982
 31
0.0
  0
LINE
  5
3D3
330
77
100
AcDbEntity
  8
実線(中線)
100
AcDbLine
 10
437.4192853060244
 20
483.5580149191981
 30
0.0
 11
435.4192853060244
 21
483.5580149191981
 31
0.0
  0
LINE
  5
3D4
330
77
100
AcDbEntity
  8
実線(中線)
100
AcDbLine
 10
458.4192853060195
 20
483.5580149191981
 30
0.0
 11
460.4192853060196
 21
481.5580149191982
 31
0.0
  0
LINE
  5
3D5
330
77
100
AcDbEntity
  8
実線(中線)
100
AcDbLine
 10
460.4192853060196
 20
386.5580149191984
 30
0.0
 11
458.4192853060195
 21
384.5580149191984
 31
0.0
  0
LINE
  5
3D6
330
77
100
AcDbEntity
  8
実線(中線)
100
AcDbLine
 10
437.419285306022
 20
462.0580149191982
 30
0.0
 11
437.419285306022
 21
456.0580149191983
 31
0.0
  0
LINE
  5
3D7
330
77
100
AcDbEntity
  8
実線(中線)
100
AcDbLine
 10
437.419285306022
 20
412.0580149191983
 30
0.0
 11
437.419285306022
 21
406.0580149191983
 31
0.0
  0
LINE
  5
3D8
330
77
100
AcDbEntity
  8
実線(中線)
100
AcDbLine
 10
435.419285306022
 20
456.0580149191983
 30
0.0
 11
435.419285306022
 21
462.0580149191982
 31
0.0
  0
LINE
  5
3D9
330
77
100
AcDbEntity
  8
実線(中線)
100
AcDbLine
 10
435.419285306022
 20
406.0580149191983
 30
0.0
 11
435.419285306022
 21
412.0580149191983
 31
0.0
  0
LINE
  5
3DA
330
77
100
AcDbEntity
  8
実線(中線)
100
AcDbLine
 10
437.4192853060196
 20
483.5580149191981
 30
0.0
 11
458.4192853060195
 21
483.5580149191981
 31
0.0
  0
LINE
  5
3DB
330
77
100
AcDbEntity
  8
実線(中線)
100
AcDbLine
 10
460.4192853060196
 20
481.5580149191982
 30
0.0
 11
460.4192853060196
 21
386.5580149191984
 31
0.0
  0
LINE
  5
3DC
330
77
100
AcDbEntity
  8
実線(中線)
100
AcDbLine
 10
458.4192853060195
 20
384.5580149191984
 30
0.0
 11
437.4192853060195
 21
384.5580149191984
 31
0.0
  0
CIRCLE
  5
3DD
330
77
100
AcDbEntity
  8
実線(中線)
100
AcDbCircle
 10
450.4192853060195
 20
466.5580149191982
 30
0.0
 40
4.39999999999999
  0
CIRCLE
  5
3DE
330
77
100
AcDbEntity
  8
実線(中線)
100
AcDbCircle
 10
450.4192853060195
 20
401.5580149191984
 30
0.0
 40
4.39999999999999
  0
CIRCLE
  5
3DF
330
77
100
AcDbEntity
  8
実線(中線)
100
AcDbCircle
 10
594.2441339421916
 20
389.0580149191982
 30
0.0
 40
2.5
  0
CIRCLE
  5
3E0
330
77
100
AcDbEntity
  8
実線(中線)
100
AcDbCircle
 10
714.2441339421916
 20
389.0580149191982
 30
0.0
 40
2.5
  0
CIRCLE
  5
3E1
330
77
100
AcDbEntity
  8
実線(中線)
100
AcDbCircle
 10
594.2441339421916
 20
479.0580149191981
 30
0.0
 40
2.5
  0
CIRCLE
  5
3E2
330
77
100
AcDbEntity
  8
実線(中線)
100
AcDbCircle
 10
714.2441339421916
 20
479.0580149191981
 30
0.0
 40
2.5
  0
LINE
  5
3E3
330
77
100
AcDbEntity
  8
実線(中線)
100
AcDbLine
 10
554.2441339421916
 20
483.5580149191982
 30
0.0
 11
754.2441339421916
 21
483.5580149191983
 31
0.0
  0
LINE
  5
3E4
330
77
100
AcDbEntity
  8
実線(中線)
100
AcDbLine
 10
754.2441339421916
 20
384.5580149191982
 30
0.0
 11
554.2441339421916
 21
384.5580149191982
 31
0.0
  0
CIRCLE
  5
3E5
330
77
100
AcDbEntity
  8
実線(中線)
100
AcDbCircle
 10
564.244133942208
 20
463.5580149191981
 30
0.0
 40
2.750000000000002
  0
CIRCLE
  5
3E6
330
77
100
AcDbEntity
  8
実線(中線)
100
AcDbCircle
 10
564.2441339422072
 20
463.5580149191981
 30
0.0
 40
3.999999999999999
  0
CIRCLE
  5
3E7
330
77
100
AcDbEntity
  8
実線(中線)
100
AcDbCircle
 10
744.244133942208
 20
463.5580149191981
 30
0.0
 40
2.750000000000003
  0
CIRCLE
  5
3E8
330
77
100
AcDbEntity
  8
実線(中線)
100
AcDbCircle
 10
744.2441339422072
 20
463.5580149191981
 30
0.0
 40
4.0
  0
CIRCLE
  5
3E9
330
77
100
AcDbEntity
  8
実線(中線)
100
AcDbCircle
 10
564.244133942208
 20
404.5580149191981
 30
0.0
 40
2.750000000000003
  0
CIRCLE
  5
3EA
330
77
100
AcDbEntity
  8
実線(中線)
100
AcDbCircle
 10
564.2441339422072
 20
404.5580149191981
 30
0.0
 40
4.0
  0
CIRCLE
  5
3EB
330
77
100
AcDbEntity
  8
実線(中線)
100
AcDbCircle
 10
744.244133942208
 20
404.5580149191981
 30
0.0
 40
2.749999999999999
  0
CIRCLE
  5
3EC
330
77
100
AcDbEntity
  8
実線(中線)
100
AcDbCircle
 10
744.2441339422072
 20
404.5580149191981
 30
0.0
 40
3.999999999999994
  0
CIRCLE
  5
3ED
330
77
100
AcDbEntity
  8
実線(中線)
100
AcDbCircle
 10
719.2441339422072
 20
408.0580149191978
 30
0.0
 40
1.500000000000001
  0
CIRCLE
  5
3EE
330
77
100
AcDbEntity
  8
実線(中線)
100
AcDbCircle
 10
719.2441339422072
 20
398.0580149191979
 30
0.0
 40
1.500000000000001
  0
CIRCLE
  5
3EF
330
77
100
AcDbEntity
  8
実線(中線)
100
AcDbCircle
 10
709.2441339422072
 20
408.0580149191978
 30
0.0
 40
1.500000000000001
  0
CIRCLE
  5
3F0
330
77
100
AcDbEntity
  8
実線(中線)
100
AcDbCircle
 10
714.2441339422072
 20
403.0580149191978
 30
0.0
 40
1.500000000000001
  0
CIRCLE
  5
3F1
330
77
100
AcDbEntity
  8
実線(中線)
100
AcDbCircle
 10
709.2441339422072
 20
398.0580149191979
 30
0.0
 40
1.500000000000001
  0
CIRCLE
  5
3F2
330
77
100
AcDbEntity
  8
実線(中線)
100
AcDbCircle
 10
699.2441339422071
 20
408.0580149191978
 30
0.0
 40
1.500000000000001
  0
CIRCLE
  5
3F3
330
77
100
AcDbEntity
  8
実線(中線)
100
AcDbCircle
 10
704.2441339422071
 20
403.0580149191978
 30
0.0
 40
1.500000000000001
  0
CIRCLE
  5
3F4
330
77
100
AcDbEntity
  8
実線(中線)
100
AcDbCircle
 10
699.2441339422071
 20
398.0580149191979
 30
0.0
 40
1.500000000000001
  0
CIRCLE
  5
3F5
330
77
100
AcDbEntity
  8
実線(中線)
100
AcDbCircle
 10
689.244133942207
 20
408.0580149191978
 30
0.0
 40
1.500000000000001
  0
CIRCLE
  5
3F6
330
77
100
AcDbEntity
  8
実線(中線)
100
AcDbCircle
 10
694.2441339422071
 20
403.0580149191978
 30
0.0
 40
1.500000000000001
  0
CIRCLE
  5
3F7
330
77
100
AcDbEntity
  8
実線(中線)
100
AcDbCircle
 10
689.244133942207
 20
398.0580149191979
 30
0.0
 40
1.500000000000001
  0
CIRCLE
  5
3F8
330
77
100
AcDbEntity
  8
実線(中線)
100
AcDbCircle
 10
679.2441339422071
 20
408.0580149191978
 30
0.0
 40
1.500000000000001
  0
CIRCLE
  5
3F9
330
77
100
AcDbEntity
  8
実線(中線)
100
AcDbCircle
 10
684.244133942207
 20
403.0580149191978
 30
0.0
 40
1.500000000000001
  0
CIRCLE
  5
3FA
330
77
100
AcDbEntity
  8
実線(中線)
100
AcDbCircle
 10
679.2441339422071
 20
398.0580149191979
 30
0.0
 40
1.500000000000001
  0
CIRCLE
  5
3FB
330
77
100
AcDbEntity
  8
実線(中線)
100
AcDbCircle
 10
669.2441339422071
 20
408.0580149191978
 30
0.0
 40
1.500000000000001
  0
CIRCLE
  5
3FC
330
77
100
AcDbEntity
  8
実線(中線)
100
AcDbCircle
 10
674.2441339422071
 20
403.0580149191978
 30
0.0
 40
1.500000000000001
  0
CIRCLE
  5
3FD
330
77
100
AcDbEntity
  8
実線(中線)
100
AcDbCircle
 10
669.2441339422071
 20
398.0580149191977
 30
0.0
 40
1.500000000000001
  0
CIRCLE
  5
3FE
330
77
100
AcDbEntity
  8
実線(中線)
100
AcDbCircle
 10
664.244133942207
 20
403.0580149191978
 30
0.0
 40
1.500000000000001
  0
CIRCLE
  5
3FF
330
77
100
AcDbEntity
  8
実線(中線)
100
AcDbCircle
 10
659.244133942207
 20
408.0580149191978
 30
0.0
 40
1.500000000000001
  0
CIRCLE
  5
400
330
77
100
AcDbEntity
  8
実線(中線)
100
AcDbCircle
 10
659.244133942207
 20
398.0580149191977
 30
0.0
 40
1.500000000000001
  0
CIRCLE
  5
401
330
77
100
AcDbEntity
  8
実線(中線)
100
AcDbCircle
 10
719.2441339422072
 20
460.0580149191982
 30
0.0
 40
1.500000000000001
  0
CIRCLE
  5
402
330
77
100
AcDbEntity
  8
実線(中線)
100
AcDbCircle
 10
719.2441339422072
 20
470.0580149191981
 30
0.0
 40
1.500000000000001
  0
CIRCLE
  5
403
330
77
100
AcDbEntity
  8
実線(中線)
100
AcDbCircle
 10
709.244133942207
 20
460.0580149191982
 30
0.0
 40
1.500000000000001
  0
CIRCLE
  5
404
330
77
100
AcDbEntity
  8
実線(中線)
100
AcDbCircle
 10
714.2441339422072
 20
465.0580149191982
 30
0.0
 40
1.500000000000001
  0
CIRCLE
  5
405
330
77
100
AcDbEntity
  8
実線(中線)
100
AcDbCircle
 10
709.244133942207
 20
470.0580149191981
 30
0.0
 40
1.500000000000001
  0
CIRCLE
  5
406
330
77
100
AcDbEntity
  8
実線(中線)
100
AcDbCircle
 10
699.2441339422071
 20
460.0580149191982
 30
0.0
 40
1.500000000000001
  0
CIRCLE
  5
407
330
77
100
AcDbEntity
  8
実線(中線)
100
AcDbCircle
 10
704.2441339422071
 20
465.0580149191982
 30
0.0
 40
1.500000000000001
  0
CIRCLE
  5
408
330
77
100
AcDbEntity
  8
実線(中線)
100
AcDbCircle
 10
699.2441339422071
 20
470.0580149191981
 30
0.0
 40
1.500000000000001
  0
CIRCLE
  5
409
330
77
100
AcDbEntity
  8
実線(中線)
100
AcDbCircle
 10
689.244133942207
 20
460.0580149191982
 30
0.0
 40
1.500000000000001
  0
CIRCLE
  5
40A
330
77
100
AcDbEntity
  8
実線(中線)
100
AcDbCircle
 10
694.2441339422071
 20
465.0580149191982
 30
0.0
 40
1.500000000000001
  0
CIRCLE
  5
40B
330
77
100
AcDbEntity
  8
実線(中線)
100
AcDbCircle
 10
689.244133942207
 20
470.0580149191981
 30
0.0
 40
1.500000000000001
  0
CIRCLE
  5
40C
330
77
100
AcDbEntity
  8
実線(中線)
100
AcDbCircle
 10
679.2441339422071
 20
460.0580149191982
 30
0.0
 40
1.500000000000001
  0
CIRCLE
  5
40D
330
77
100
AcDbEntity
  8
実線(中線)
100
AcDbCircle
 10
684.244133942207
 20
465.0580149191982
 30
0.0
 40
1.500000000000001
  0
CIRCLE
  5
40E
330
77
100
AcDbEntity
  8
実線(中線)
100
AcDbCircle
 10
679.2441339422071
 20
470.0580149191981
 30
0.0
 40
1.500000000000001
  0
CIRCLE
  5
40F
330
77
100
AcDbEntity
  8
実線(中線)
100
AcDbCircle
 10
669.2441339422071
 20
460.0580149191982
 30
0.0
 40
1.500000000000001
  0
CIRCLE
  5
410
330
77
100
AcDbEntity
  8
実線(中線)
100
AcDbCircle
 10
674.2441339422071
 20
465.0580149191982
 30
0.0
 40
1.500000000000001
  0
CIRCLE
  5
411
330
77
100
AcDbEntity
  8
実線(中線)
100
AcDbCircle
 10
669.2441339422071
 20
470.0580149191981
 30
0.0
 40
1.500000000000001
  0
CIRCLE
  5
412
330
77
100
AcDbEntity
  8
実線(中線)
100
AcDbCircle
 10
664.244133942207
 20
465.0580149191982
 30
0.0
 40
1.500000000000001
  0
CIRCLE
  5
413
330
77
100
AcDbEntity
  8
実線(中線)
100
AcDbCircle
 10
659.244133942207
 20
460.0580149191982
 30
0.0
 40
1.500000000000001
  0
CIRCLE
  5
414
330
77
100
AcDbEntity
  8
実線(中線)
100
AcDbCircle
 10
659.244133942207
 20
470.0580149191981
 30
0.0
 40
1.500000000000001
  0
LINE
  5
415
330
77
100
AcDbEntity
  8
実線(中線)
100
AcDbLine
 10
575.244133942207
 20
445.5580149191982
 30
0.0
 11
632.2441339422071
 21
445.5580149191981
 31
0.0
  0
LINE
  5
416
330
77
100
AcDbEntity
  8
実線(中線)
100
AcDbLine
 10
575.244133942207
 20
422.5580149191982
 30
0.0
 11
575.244133942207
 21
445.5580149191982
 31
0.0
  0
LINE
  5
417
330
77
100
AcDbEntity
  8
実線(中線)
100
AcDbLine
 10
632.2441339422071
 20
445.5580149191981
 30
0.0
 11
632.2441339422071
 21
422.5580149191982
 31
0.0
  0
LINE
  5
418
330
77
100
AcDbEntity
  8
実線(中線)
100
AcDbLine
 10
632.2441339422071
 20
422.5580149191982
 30
0.0
 11
575.244133942207
 21
422.5580149191982
 31
0.0
  0
LINE
  5
419
330
77
100
AcDbEntity
  8
実線(中線)
100
AcDbLine
 10
554.2441339422063
 20
395.058014919198
 30
0.0
 11
554.2441339422063
 21
473.0580149191982
 31
0.0
  0
LINE
  5
41A
330
77
100
AcDbEntity
  8
実線(中線)
100
AcDbLine
 10
554.2441339422063
 20
395.058014919198
 30
0.0
 11
555.2441339422069
 21
395.058014919198
 31
0.0
  0
LINE
  5
41B
330
77
100
AcDbEntity
  8
実線(中線)
100
AcDbLine
 10
555.244133942207
 20
473.0580149191982
 30
0.0
 11
554.2441339422065
 21
473.0580149191982
 31
0.0
  0
LINE
  5
41C
330
77
100
AcDbEntity
  8
実線(中線)
100
AcDbLine
 10
754.2441339422065
 20
473.0580149191982
 30
0.0
 11
754.2441339422066
 21
395.058014919198
 31
0.0
  0
LINE
  5
41D
330
77
100
AcDbEntity
  8
実線(中線)
100
AcDbLine
 10
754.2441339422065
 20
473.0580149191982
 30
0.0
 11
753.2441339422071
 21
473.0580149191982
 31
0.0
  0
LINE
  5
41E
330
77
100
AcDbEntity
  8
実線(中線)
100
AcDbLine
 10
753.2441339422071
 20
395.058014919198
 30
0.0
 11
754.2441339422065
 21
395.058014919198
 31
0.0
  0
LINE
  5
41F
330
77
100
AcDbEntity
  8
実線(中線)
100
AcDbLine
 10
555.2441339422064
 20
474.0580149191982
 30
0.0
 11
753.2441339422065
 21
474.0580149191982
 31
0.0
  0
LINE
  5
420
330
77
100
AcDbEntity
  8
実線(中線)
100
AcDbLine
 10
555.2441339422064
 20
474.0580149191982
 30
0.0
 11
555.2441339422069
 21
473.0580149191982
 31
0.0
  0
LINE
  5
421
330
77
100
AcDbEntity
  8
実線(中線)
100
AcDbLine
 10
753.2441339422071
 20
473.0580149191983
 30
0.0
 11
753.2441339422065
 21
474.0580149191983
 31
0.0
  0
LINE
  5
422
330
77
100
AcDbEntity
  8
実線(中線)
100
AcDbLine
 10
753.2441339422065
 20
394.0580149191981
 30
0.0
 11
555.2441339422064
 21
394.0580149191981
 31
0.0
  0
LINE
  5
423
330
77
100
AcDbEntity
  8
実線(中線)
100
AcDbLine
 10
753.2441339422065
 20
394.0580149191981
 30
0.0
 11
753.2441339422071
 21
395.0580149191981
 31
0.0
  0
LINE
  5
424
330
77
100
AcDbEntity
  8
実線(中線)
100
AcDbLine
 10
555.2441339422069
 20
395.0580149191981
 30
0.0
 11
555.2441339422064
 21
394.0580149191981
 31
0.0
  0
LINE
  5
425
330
77
100
AcDbEntity
  8
実線(中線)
100
AcDbLine
 10
536.2441339421916
 20
462.0580149191982
 30
0.0
 11
534.2441339421916
 21
464.0580149191982
 31
0.0
  0
LINE
  5
426
330
77
100
AcDbEntity
  8
実線(中線)
100
AcDbLine
 10
534.2441339421916
 20
454.0580149191982
 30
0.0
 11
536.2441339421916
 21
456.0580149191983
 31
0.0
  0
LINE
  5
427
330
77
100
AcDbEntity
  8
実線(中線)
100
AcDbLine
 10
536.2441339421915
 20
412.0580149191983
 30
0.0
 11
534.2441339421915
 21
414.0580149191984
 31
0.0
  0
LINE
  5
428
330
77
100
AcDbEntity
  8
実線(中線)
100
AcDbLine
 10
534.2441339421915
 20
404.0580149191984
 30
0.0
 11
536.2441339421915
 21
406.0580149191983
 31
0.0
  0
LINE
  5
429
330
77
100
AcDbEntity
  8
実線(中線)
100
AcDbLine
 10
534.2441339421916
 20
464.0580149191982
 30
0.0
 11
534.2441339421916
 21
481.5580149191982
 31
0.0
  0
LINE
  5
42A
330
77
100
AcDbEntity
  8
実線(中線)
100
AcDbLine
 10
534.2441339421915
 20
414.0580149191984
 30
0.0
 11
534.2441339421916
 21
454.0580149191982
 31
0.0
  0
LINE
  5
42B
330
77
100
AcDbEntity
  8
実線(中線)
100
AcDbLine
 10
534.2441339421914
 20
386.5580149191984
 30
0.0
 11
534.2441339421914
 21
404.0580149191984
 31
0.0
  0
LINE
  5
42C
330
77
100
AcDbEntity
  8
実線(中線)
100
AcDbLine
 10
552.2441339421916
 20
384.5580149191984
 30
0.0
 11
536.2441339421914
 21
384.5580149191984
 31
0.0
  0
LINE
  5
42D
330
77
100
AcDbEntity
  8
実線(中線)
100
AcDbLine
 10
536.2441339421916
 20
483.5580149191981
 30
0.0
 11
552.2441339421916
 21
483.5580149191981
 31
0.0
  0
LINE
  5
42E
330
77
100
AcDbEntity
  8
実線(中線)
100
AcDbLine
 10
536.2441339421916
 20
462.0580149191982
 30
0.0
 11
544.2441339421916
 21
462.0580149191982
 31
0.0
  0
ARC
  5
42F
330
77
100
AcDbEntity
  8
実線(中線)
100
AcDbCircle
 10
544.2441339421916
 20
459.0580149191982
 30
0.0
 40
2.999999999999998
100
AcDbArc
 50
270.0
 51
90.0
  0
LINE
  5
430
330
77
100
AcDbEntity
  8
実線(中線)
100
AcDbLine
 10
544.2441339421916
 20
456.0580149191983
 30
0.0
 11
536.2441339421916
 21
456.0580149191983
 31
0.0
  0
LINE
  5
431
330
77
100
AcDbEntity
  8
実線(中線)
100
AcDbLine
 10
536.2441339421915
 20
412.0580149191983
 30
0.0
 11
544.2441339421916
 21
412.0580149191983
 31
0.0
  0
ARC
  5
432
330
77
100
AcDbEntity
  8
実線(中線)
100
AcDbCircle
 10
544.2441339421916
 20
409.0580149191984
 30
0.0
 40
2.999999999999998
100
AcDbArc
 50
270.0
 51
90.0
  0
LINE
  5
433
330
77
100
AcDbEntity
  8
実線(中線)
100
AcDbLine
 10
544.2441339421915
 20
406.0580149191983
 30
0.0
 11
536.2441339421914
 21
406.0580149191983
 31
0.0
  0
LINE
  5
434
330
77
100
AcDbEntity
  8
実線(中線)
100
AcDbLine
 10
536.2441339421914
 20
384.5580149191984
 30
0.0
 11
534.2441339421914
 21
386.5580149191984
 31
0.0
  0
LINE
  5
435
330
77
100
AcDbEntity
  8
実線(中線)
100
AcDbLine
 10
534.2441339421916
 20
481.5580149191982
 30
0.0
 11
536.2441339421916
 21
483.5580149191981
 31
0.0
  0
LINE
  5
436
330
77
100
AcDbEntity
  8
実線(中線)
100
AcDbLine
 10
554.2441339422042
 20
483.5580149191981
 30
0.0
 11
552.2441339422041
 21
483.5580149191981
 31
0.0
  0
LINE
  5
437
330
77
100
AcDbEntity
  8
実線(中線)
100
AcDbLine
 10
552.2441339422041
 20
483.5580149191981
 30
0.0
 11
552.2441339422053
 21
481.5580149191982
 31
0.0
  0
LINE
  5
438
330
77
100
AcDbEntity
  8
実線(中線)
100
AcDbLine
 10
552.2441339422053
 20
481.5580149191982
 30
0.0
 11
554.2441339422054
 21
481.5580149191982
 31
0.0
  0
LINE
  5
439
330
77
100
AcDbEntity
  8
実線(中線)
100
AcDbLine
 10
554.2441339422054
 20
481.5580149191982
 30
0.0
 11
554.2441339422042
 21
483.5580149191981
 31
0.0
  0
LINE
  5
43A
330
77
100
AcDbEntity
  8
実線(中線)
100
AcDbLine
 10
554.2441339422053
 20
386.5580149191984
 30
0.0
 11
552.2441339422052
 21
386.5580149191984
 31
0.0
  0
LINE
  5
43B
330
77
100
AcDbEntity
  8
実線(中線)
100
AcDbLine
 10
552.2441339422052
 20
386.5580149191984
 30
0.0
 11
552.2441339422041
 21
384.5580149191984
 31
0.0
  0
LINE
  5
43C
330
77
100
AcDbEntity
  8
実線(中線)
100
AcDbLine
 10
552.2441339422041
 20
384.5580149191984
 30
0.0
 11
554.2441339422041
 21
384.5580149191984
 31
0.0
  0
LINE
  5
43D
330
77
100
AcDbEntity
  8
実線(中線)
100
AcDbLine
 10
554.2441339422041
 20
384.5580149191984
 30
0.0
 11
554.2441339422054
 21
386.5580149191984
 31
0.0
  0
LINE
  5
43E
330
77
100
AcDbEntity
  8
実線(中線)
100
AcDbLine
 10
552.2441339422053
 20
481.5580149191982
 30
0.0
 11
552.2441339422052
 21
386.5580149191984
 31
0.0
  0
LINE
  5
43F
330
77
100
AcDbEntity
  8
実線(中線)
100
AcDbLine
 10
554.2441339422054
 20
481.5580149191982
 30
0.0
 11
554.2441339422054
 21
473.0580149191982
 31
0.0
  0
LINE
  5
440
330
77
100
AcDbEntity
  8
実線(中線)
100
AcDbLine
 10
554.2441339422054
 20
395.0580149191982
 30
0.0
 11
554.2441339422054
 21
386.5580149191984
 31
0.0
  0
LINE
  5
441
330
77
100
AcDbEntity
  8
実線(中線)
100
AcDbLine
 10
772.244133942192
 20
406.0580149191984
 30
0.0
 11
774.2441339421921
 21
404.0580149191984
 31
0.0
  0
LINE
  5
442
330
77
100
AcDbEntity
  8
実線(中線)
100
AcDbLine
 10
774.2441339421921
 20
414.0580149191984
 30
0.0
 11
772.244133942192
 21
412.0580149191984
 31
0.0
  0
LINE
  5
443
330
77
100
AcDbEntity
  8
実線(中線)
100
AcDbLine
 10
772.2441339421923
 20
456.0580149191983
 30
0.0
 11
774.2441339421921
 21
454.0580149191984
 31
0.0
  0
LINE
  5
444
330
77
100
AcDbEntity
  8
実線(中線)
100
AcDbLine
 10
774.2441339421923
 20
464.0580149191984
 30
0.0
 11
772.2441339421923
 21
462.0580149191984
 31
0.0
  0
LINE
  5
445
330
77
100
AcDbEntity
  8
実線(中線)
100
AcDbLine
 10
774.2441339421921
 20
404.0580149191984
 30
0.0
 11
774.2441339421921
 21
386.5580149191985
 31
0.0
  0
LINE
  5
446
330
77
100
AcDbEntity
  8
実線(中線)
100
AcDbLine
 10
774.2441339421921
 20
454.0580149191984
 30
0.0
 11
774.2441339421921
 21
414.0580149191984
 31
0.0
  0
LINE
  5
447
330
77
100
AcDbEntity
  8
実線(中線)
100
AcDbLine
 10
774.2441339421923
 20
481.5580149191983
 30
0.0
 11
774.2441339421923
 21
464.0580149191984
 31
0.0
  0
LINE
  5
448
330
77
100
AcDbEntity
  8
実線(中線)
100
AcDbLine
 10
756.2441339421922
 20
483.5580149191984
 30
0.0
 11
772.2441339421923
 21
483.5580149191984
 31
0.0
  0
LINE
  5
449
330
77
100
AcDbEntity
  8
実線(中線)
100
AcDbLine
 10
772.244133942192
 20
384.5580149191985
 30
0.0
 11
756.2441339421921
 21
384.5580149191985
 31
0.0
  0
LINE
  5
44A
330
77
100
AcDbEntity
  8
実線(中線)
100
AcDbLine
 10
772.244133942192
 20
406.0580149191984
 30
0.0
 11
764.2441339421921
 21
406.0580149191984
 31
0.0
  0
ARC
  5
44B
330
77
100
AcDbEntity
  8
実線(中線)
100
AcDbCircle
 10
764.2441339421921
 20
409.0580149191984
 30
0.0
 40
2.999999999999998
100
AcDbArc
 50
90.0
 51
270.0
  0
LINE
  5
44C
330
77
100
AcDbEntity
  8
実線(中線)
100
AcDbLine
 10
764.2441339421921
 20
412.0580149191985
 30
0.0
 11
772.244133942192
 21
412.0580149191984
 31
0.0
  0
LINE
  5
44D
330
77
100
AcDbEntity
  8
実線(中線)
100
AcDbLine
 10
772.2441339421923
 20
456.0580149191983
 30
0.0
 11
764.2441339421921
 21
456.0580149191983
 31
0.0
  0
ARC
  5
44E
330
77
100
AcDbEntity
  8
実線(中線)
100
AcDbCircle
 10
764.2441339421921
 20
459.0580149191985
 30
0.0
 40
2.999999999999998
100
AcDbArc
 50
90.0
 51
270.0
  0
LINE
  5
44F
330
77
100
AcDbEntity
  8
実線(中線)
100
AcDbLine
 10
764.2441339421921
 20
462.0580149191984
 30
0.0
 11
772.2441339421923
 21
462.0580149191984
 31
0.0
  0
LINE
  5
450
330
77
100
AcDbEntity
  8
実線(中線)
100
AcDbLine
 10
772.2441339421923
 20
483.5580149191984
 30
0.0
 11
774.2441339421923
 21
481.5580149191983
 31
0.0
  0
LINE
  5
451
330
77
100
AcDbEntity
  8
実線(中線)
100
AcDbLine
 10
774.2441339421921
 20
386.5580149191985
 30
0.0
 11
772.244133942192
 21
384.5580149191985
 31
0.0
  0
LINE
  5
452
330
77
100
AcDbEntity
  8
実線(中線)
100
AcDbLine
 10
754.2441339422043
 20
384.5580149191982
 30
0.0
 11
756.2441339422043
 21
384.5580149191982
 31
0.0
  0
LINE
  5
453
330
77
100
AcDbEntity
  8
実線(中線)
100
AcDbLine
 10
756.2441339422043
 20
384.5580149191982
 30
0.0
 11
756.2441339422055
 21
386.5580149191981
 31
0.0
  0
LINE
  5
454
330
77
100
AcDbEntity
  8
実線(中線)
100
AcDbLine
 10
756.2441339422055
 20
386.5580149191981
 30
0.0
 11
754.2441339422055
 21
386.5580149191981
 31
0.0
  0
LINE
  5
455
330
77
100
AcDbEntity
  8
実線(中線)
100
AcDbLine
 10
754.2441339422055
 20
386.5580149191981
 30
0.0
 11
754.2441339422043
 21
384.5580149191982
 31
0.0
  0
LINE
  5
456
330
77
100
AcDbEntity
  8
実線(中線)
100
AcDbLine
 10
754.2441339422055
 20
481.558014919198
 30
0.0
 11
756.2441339422057
 21
481.558014919198
 31
0.0
  0
LINE
  5
457
330
77
100
AcDbEntity
  8
実線(中線)
100
AcDbLine
 10
756.2441339422057
 20
481.558014919198
 30
0.0
 11
756.2441339422043
 21
483.558014919198
 31
0.0
  0
LINE
  5
458
330
77
100
AcDbEntity
  8
実線(中線)
100
AcDbLine
 10
756.2441339422043
 20
483.558014919198
 30
0.0
 11
754.2441339422045
 21
483.558014919198
 31
0.0
  0
LINE
  5
459
330
77
100
AcDbEntity
  8
実線(中線)
100
AcDbLine
 10
754.2441339422045
 20
483.558014919198
 30
0.0
 11
754.2441339422055
 21
481.558014919198
 31
0.0
  0
LINE
  5
45A
330
77
100
AcDbEntity
  8
実線(中線)
100
AcDbLine
 10
756.2441339422055
 20
386.5580149191981
 30
0.0
 11
756.2441339422057
 21
481.558014919198
 31
0.0
  0
LINE
  5
45B
330
77
100
AcDbEntity
  8
実線(中線)
100
AcDbLine
 10
754.2441339422055
 20
386.5580149191981
 30
0.0
 11
754.2441339422055
 21
395.0580149191981
 31
0.0
  0
LINE
  5
45C
330
77
100
AcDbEntity
  8
実線(中線)
100
AcDbLine
 10
754.2441339422055
 20
473.0580149191982
 30
0.0
 11
754.2441339422055
 21
481.558014919198
 31
0.0
  0
LINE
  5
45D
330
77
100
AcDbEntity
  8
実線(中線)
100
AcDbLine
 10
135.6461415518452
 20
264.3898957061019
 30
0.0
 11
335.6461415518453
 21
264.3898957061019
 31
0.0
  0
LINE
  5
45E
330
77
100
AcDbEntity
  8
実線(中線)
100
AcDbLine
 10
335.6461415518453
 20
264.3898957061019
 30
0.0
 11
335.6461415518453
 21
265.9898957061019
 31
0.0
  0
LINE
  5
45F
330
77
100
AcDbEntity
  8
実線(中線)
100
AcDbLine
 10
135.6461415518452
 20
264.3898957061019
 30
0.0
 11
135.6461415518452
 21
265.9898957061019
 31
0.0
  0
LINE
  5
460
330
77
100
AcDbEntity
  8
実線(中線)
100
AcDbLine
 10
335.6461415518453
 20
265.9898957061019
 30
0.0
 11
135.6461415518453
 21
265.9898957061019
 31
0.0
  0
LINE
  5
461
330
77
100
AcDbEntity
  8
実線(中線)
100
AcDbLine
 10
296.0461415518448
 20
266.9898957061092
 30
0.0
 11
306.2461415518448
 21
266.9898957061092
 31
0.0
  0
LINE
  5
462
330
77
100
AcDbEntity
  8
実線(中線)
100
AcDbLine
 10
281.0461415518454
 20
266.9898957061092
 30
0.0
 11
291.2461415518453
 21
266.9898957061092
 31
0.0
  0
LINE
  5
463
330
77
100
AcDbEntity
  8
実線(中線)
100
AcDbLine
 10
266.0461415518453
 20
266.9898957061092
 30
0.0
 11
276.2461415518453
 21
266.9898957061092
 31
0.0
  0
ARC
  5
464
330
77
100
AcDbEntity
  8
実線(中線)
100
AcDbCircle
 10
306.2461415518449
 20
266.4898957061092
 30
0.0
 40
0.5
100
AcDbArc
 50
36.86989764584565
 51
90.0
  0
ARC
  5
465
330
77
100
AcDbEntity
  8
実線(中線)
100
AcDbCircle
 10
296.0461415518448
 20
266.4898957061092
 30
0.0
 40
0.5000000000000001
100
AcDbArc
 50
89.99999999999593
 51
143.1301023541543
  0
ARC
  5
466
330
77
100
AcDbEntity
  8
実線(中線)
100
AcDbCircle
 10
291.2461415518453
 20
266.4898957061092
 30
0.0
 40
0.5
100
AcDbArc
 50
36.86989764584565
 51
90.0
  0
ARC
  5
467
330
77
100
AcDbEntity
  8
実線(中線)
100
AcDbCircle
 10
281.0461415518453
 20
266.4898957061092
 30
0.0
 40
0.5000000000000001
100
AcDbArc
 50
89.99999999999593
 51
143.1301023541543
  0
ARC
  5
468
330
77
100
AcDbEntity
  8
実線(中線)
100
AcDbCircle
 10
276.2461415518453
 20
266.4898957061092
 30
0.0
 40
0.5
100
AcDbArc
 50
36.86989764584565
 51
90.0
  0
ARC
  5
469
330
77
100
AcDbEntity
  8
実線(中線)
100
AcDbCircle
 10
266.0461415518453
 20
266.4898957061092
 30
0.0
 40
0.5000000000000001
100
AcDbArc
 50
89.99999999999593
 51
143.1301023541543
  0
LINE
  5
46A
330
77
100
AcDbEntity
  8
実線(中線)
100
AcDbLine
 10
265.1461415518453
 20
266.7898957061077
 30
0.0
 11
266.1461415518453
 21
266.7898957061074
 31
0.0
  0
LINE
  5
46B
330
77
100
AcDbEntity
  8
実線(中線)
100
AcDbLine
 10
276.1461415518453
 20
266.7898957061074
 30
0.0
 11
277.1461415518453
 21
266.7898957061077
 31
0.0
  0
LINE
  5
46C
330
77
100
AcDbEntity
  8
実線(中線)
100
AcDbLine
 10
265.1461415518453
 20
266.7898957061077
 30
0.0
 11
265.1461415518453
 21
266.5898957061077
 31
0.0
  0
LINE
  5
46D
330
77
100
AcDbEntity
  8
実線(中線)
100
AcDbLine
 10
277.1461415518453
 20
266.5898957061077
 30
0.0
 11
277.1461415518453
 21
266.7898957061077
 31
0.0
  0
LINE
  5
46E
330
77
100
AcDbEntity
  8
実線(中線)
100
AcDbLine
 10
280.1461415518453
 20
266.7898957061077
 30
0.0
 11
281.1461415518453
 21
266.7898957061074
 31
0.0
  0
LINE
  5
46F
330
77
100
AcDbEntity
  8
実線(中線)
100
AcDbLine
 10
291.1461415518453
 20
266.7898957061074
 30
0.0
 11
292.1461415518453
 21
266.7898957061077
 31
0.0
  0
LINE
  5
470
330
77
100
AcDbEntity
  8
実線(中線)
100
AcDbLine
 10
292.1461415518453
 20
266.5898957061076
 30
0.0
 11
292.1461415518453
 21
266.7898957061077
 31
0.0
  0
LINE
  5
471
330
77
100
AcDbEntity
  8
実線(中線)
100
AcDbLine
 10
280.1461415518453
 20
266.7898957061077
 30
0.0
 11
280.1461415518453
 21
266.5898957061077
 31
0.0
  0
LINE
  5
472
330
77
100
AcDbEntity
  8
実線(中線)
100
AcDbLine
 10
295.1461415518453
 20
266.7898957061077
 30
0.0
 11
296.1461415518453
 21
266.7898957061074
 31
0.0
  0
LINE
  5
473
330
77
100
AcDbEntity
  8
実線(中線)
100
AcDbLine
 10
295.1461415518453
 20
266.7898957061077
 30
0.0
 11
295.1461415518453
 21
266.5898957061076
 31
0.0
  0
LINE
  5
474
330
77
100
AcDbEntity
  8
実線(中線)
100
AcDbLine
 10
306.1461415518453
 20
266.7898957061074
 30
0.0
 11
307.1461415518453
 21
266.7898957061077
 31
0.0
  0
LINE
  5
475
330
77
100
AcDbEntity
  8
実線(中線)
100
AcDbLine
 10
307.1461415518453
 20
266.5898957061076
 30
0.0
 11
307.1461415518453
 21
266.7898957061077
 31
0.0
  0
LINE
  5
476
330
77
100
AcDbEntity
  8
実線(中線)
100
AcDbLine
 10
276.1461415518453
 20
266.7898957061074
 30
0.0
 11
266.1461415518453
 21
266.7898957061074
 31
0.0
  0
LINE
  5
477
330
77
100
AcDbEntity
  8
実線(中線)
100
AcDbLine
 10
291.1461415518453
 20
266.7898957061074
 30
0.0
 11
281.1461415518453
 21
266.7898957061074
 31
0.0
  0
LINE
  5
478
330
77
100
AcDbEntity
  8
実線(中線)
100
AcDbLine
 10
306.1461415518453
 20
266.7898957061074
 30
0.0
 11
296.1461415518453
 21
266.7898957061074
 31
0.0
  0
LINE
  5
479
330
77
100
AcDbEntity
  8
実線(中線)
100
AcDbLine
 10
264.1461415518453
 20
266.5898957061074
 30
0.0
 11
265.1461415518453
 21
266.5898957061071
 31
0.0
  0
LINE
  5
47A
330
77
100
AcDbEntity
  8
実線(中線)
100
AcDbLine
 10
307.1461415518453
 20
266.5898957061071
 30
0.0
 11
308.1461415518453
 21
266.5898957061074
 31
0.0
  0
LINE
  5
47B
330
77
100
AcDbEntity
  8
実線(中線)
100
AcDbLine
 10
264.1461415518453
 20
266.5898957061074
 30
0.0
 11
264.1461415518453
 21
266.3898957061074
 31
0.0
  0
LINE
  5
47C
330
77
100
AcDbEntity
  8
実線(中線)
100
AcDbLine
 10
308.1461415518453
 20
266.3898957061074
 30
0.0
 11
308.1461415518453
 21
266.5898957061074
 31
0.0
  0
LINE
  5
47D
330
77
100
AcDbEntity
  8
実線(中線)
100
AcDbLine
 10
307.1461415518453
 20
266.5898957061071
 30
0.0
 11
265.1461415518453
 21
266.5898957061071
 31
0.0
  0
LINE
  5
47E
330
77
100
AcDbEntity
  8
実線(中線)
100
AcDbLine
 10
335.6461415518453
 20
266.3898957061018
 30
0.0
 11
135.6461415518453
 21
266.389895706102
 31
0.0
  0
LINE
  5
47F
330
77
100
AcDbEntity
  8
実線(中線)
100
AcDbLine
 10
335.6461415518453
 20
265.9898957061019
 30
0.0
 11
335.6461415518453
 21
266.3898957061018
 31
0.0
  0
LINE
  5
480
330
77
100
AcDbEntity
  8
実線(中線)
100
AcDbLine
 10
135.6461415518453
 20
265.9898957061019
 30
0.0
 11
135.6461415518453
 21
266.389895706102
 31
0.0
  0
LINE
  5
481
330
77
100
AcDbEntity
  8
実線(中線)
100
AcDbLine
 10
135.6461415518453
 20
265.9898957061019
 30
0.0
 11
335.6461415518453
 21
265.9898957061019
 31
0.0
  0
LINE
  5
482
330
77
100
AcDbEntity
  8
実線(中線)
100
AcDbLine
 10
322.8961415518453
 20
237.3898957061078
 30
0.0
 11
328.3961415518453
 21
237.3898957061078
 31
0.0
  0
LINE
  5
483
330
77
100
AcDbEntity
  8
実線(中線)
100
AcDbLine
 10
328.3961415518453
 20
237.3898957061078
 30
0.0
 11
328.3961415518453
 21
236.6507755644834
 31
0.0
  0
LINE
  5
484
330
77
100
AcDbEntity
  8
実線(中線)
100
AcDbLine
 10
322.8961415518453
 20
237.3898957061078
 30
0.0
 11
322.8961415518453
 21
236.6507755644834
 31
0.0
  0
LINE
  5
485
330
77
100
AcDbEntity
  8
実線(中線)
100
AcDbLine
 10
329.6461415518453
 20
238.0898957061078
 30
0.0
 11
321.6461415518453
 21
238.0898957061078
 31
0.0
  0
LINE
  5
486
330
77
100
AcDbEntity
  8
実線(中線)
100
AcDbLine
 10
329.6461415518453
 20
238.5898957061078
 30
0.0
 11
329.6461415518453
 21
238.0898957061078
 31
0.0
  0
LINE
  5
487
330
77
100
AcDbEntity
  8
実線(中線)
100
AcDbLine
 10
321.6461415518453
 20
238.5898957061078
 30
0.0
 11
321.6461415518453
 21
238.0898957061078
 31
0.0
  0
ARC
  5
488
330
77
100
AcDbEntity
  8
実線(中線)
100
AcDbCircle
 10
325.6461415518453
 20
242.3898957061078
 30
0.0
 40
7.0
100
AcDbArc
 50
255.5100337056685
 51
284.4899662943303
  0
ARC
  5
489
330
77
100
AcDbEntity
  8
実線(中線)
100
AcDbCircle
 10
325.6461415518453
 20
242.3898957061078
 30
0.0
 40
7.0
100
AcDbArc
 50
284.4899662943308
 51
286.957763300004
  0
ARC
  5
48A
330
77
100
AcDbEntity
  8
実線(中線)
100
AcDbCircle
 10
325.6461415518453
 20
242.3898957061078
 30
0.0
 40
7.000000000000001
100
AcDbArc
 50
253.0422366999953
 51
255.5100337056686
  0
ARC
  5
48B
330
77
100
AcDbEntity
  8
実線(中線)
100
AcDbCircle
 10
327.3961415518453
 20
236.6507755644834
 30
0.0
 40
1.0
100
AcDbArc
 50
286.9577633000049
 51
0.0
  0
ARC
  5
48C
330
77
100
AcDbEntity
  8
実線(中線)
100
AcDbCircle
 10
323.8961415518452
 20
236.6507755644834
 30
0.0
 40
1.0
100
AcDbArc
 50
180.0
 51
253.0422366999951
  0
LINE
  5
48D
330
77
100
AcDbEntity
  8
実線(中線)
100
AcDbLine
 10
328.2961415518453
 20
238.0898957061078
 30
0.0
 11
328.2961415518453
 21
237.3898957061078
 31
0.0
  0
LINE
  5
48E
330
77
100
AcDbEntity
  8
実線(中線)
100
AcDbLine
 10
322.9961415518453
 20
238.0898957061078
 30
0.0
 11
322.9961415518453
 21
237.3898957061078
 31
0.0
  0
LINE
  5
48F
330
77
100
AcDbEntity
  8
実線(中線)
100
AcDbLine
 10
142.8961415518453
 20
237.3898957061079
 30
0.0
 11
148.3961415518453
 21
237.3898957061079
 31
0.0
  0
LINE
  5
490
330
77
100
AcDbEntity
  8
実線(中線)
100
AcDbLine
 10
148.3961415518453
 20
237.3898957061079
 30
0.0
 11
148.3961415518453
 21
236.6507755644834
 31
0.0
  0
LINE
  5
491
330
77
100
AcDbEntity
  8
実線(中線)
100
AcDbLine
 10
142.8961415518453
 20
237.3898957061079
 30
0.0
 11
142.8961415518453
 21
236.6507755644834
 31
0.0
  0
ELLIPSE
  5
492
330
77
100
AcDbEntity
  8
実線(中線)
100
AcDbEllipse
 10
145.6461415518453
 20
237.3898957061079
 30
0.0
 11
2.157104094564036
 21
-7.266461812562066
 31
0.0
210
0.0
220
0.0
230
1.0
 40
0.2118343443650803
 41
4.553295233870832
 42
4.649587050431265
  0
ELLIPSE
  5
493
330
77
100
AcDbEntity
  8
実線(中線)
100
AcDbEllipse
 10
145.6461415518453
 20
238.0898957061079
 30
0.0
 11
2.157104094564036
 21
-7.266461812562069
 31
0.0
210
0.0
220
0.0
230
1.0
 40
0.2118343443650802
 41
4.649587050431265
 42
4.74587886699169
  0
LINE
  5
494
330
77
100
AcDbEntity
  8
実線(中線)
100
AcDbLine
 10
149.6461415518453
 20
238.0898957061079
 30
0.0
 11
141.6461415518453
 21
238.0898957061079
 31
0.0
  0
LINE
  5
495
330
77
100
AcDbEntity
  8
実線(中線)
100
AcDbLine
 10
149.6461415518453
 20
238.5898957061079
 30
0.0
 11
149.6461415518453
 21
238.0898957061079
 31
0.0
  0
LINE
  5
496
330
77
100
AcDbEntity
  8
実線(中線)
100
AcDbLine
 10
141.6461415518453
 20
238.5898957061079
 30
0.0
 11
141.6461415518453
 21
238.0898957061079
 31
0.0
  0
ARC
  5
497
330
77
100
AcDbEntity
  8
実線(中線)
100
AcDbCircle
 10
145.6461415518453
 20
242.3898957061079
 30
0.0
 40
7.0
100
AcDbArc
 50
262.6957564456586
 51
277.3042435543414
  0
ARC
  5
498
330
77
100
AcDbEntity
  8
実線(中線)
100
AcDbCircle
 10
145.6461415518453
 20
242.3898957061079
 30
0.0
 40
7.0
100
AcDbArc
 50
277.3042435543414
 51
286.9577633000043
  0
ARC
  5
499
330
77
100
AcDbEntity
  8
実線(中線)
100
AcDbCircle
 10
145.6461415518453
 20
242.3898957061079
 30
0.0
 40
7.0
100
AcDbArc
 50
253.0422366999959
 51
262.6957564456586
  0
ARC
  5
49A
330
77
100
AcDbEntity
  8
実線(中線)
100
AcDbCircle
 10
147.3961415518453
 20
236.6507755644834
 30
0.0
 40
1.0
100
AcDbArc
 50
286.9577633000039
 51
0.0
  0
ARC
  5
49B
330
77
100
AcDbEntity
  8
実線(中線)
100
AcDbCircle
 10
143.8961415518453
 20
236.6507755644834
 30
0.0
 40
1.0
100
AcDbArc
 50
180.0
 51
253.042236699996
  0
LINE
  5
49C
330
77
100
AcDbEntity
  8
実線(中線)
100
AcDbLine
 10
148.2961415518453
 20
238.0898957061079
 30
0.0
 11
148.2961415518453
 21
237.3898957061079
 31
0.0
  0
LINE
  5
49D
330
77
100
AcDbEntity
  8
実線(中線)
100
AcDbLine
 10
142.9961415518453
 20
238.0898957061079
 30
0.0
 11
142.9961415518453
 21
237.3898957061079
 31
0.0
  0
ARC
  5
49E
330
77
100
AcDbEntity
  8
実線(中線)
100
AcDbCircle
 10
334.6461415518453
 20
239.5898957061051
 30
0.0
 40
0.9999999999999948
100
AcDbArc
 50
270.0
 51
0.0
  0
ARC
  5
49F
330
77
100
AcDbEntity
  8
実線(中線)
100
AcDbCircle
 10
334.6461415518452
 20
239.5898957061051
 30
0.0
 40
0.2000000000000492
100
AcDbArc
 50
270.0000000000204
 51
0.0
  0
ARC
  5
4A0
330
77
100
AcDbEntity
  8
実線(中線)
100
AcDbCircle
 10
136.6461415518451
 20
239.5898957061049
 30
0.0
 40
0.9999999999999975
100
AcDbArc
 50
180.0
 51
270.000000000001
  0
ARC
  5
4A1
330
77
100
AcDbEntity
  8
実線(中線)
100
AcDbCircle
 10
136.6461415518451
 20
239.5898957061049
 30
0.0
 40
0.2000000000000137
100
AcDbArc
 50
180.0
 51
269.9999999999949
  0
LINE
  5
4A2
330
77
100
AcDbEntity
  8
実線(中線)
100
AcDbLine
 10
334.8461415518454
 20
264.3898957061051
 30
0.0
 11
334.8461415518453
 21
239.5898957061051
 31
0.0
  0
LINE
  5
4A3
330
77
100
AcDbEntity
  8
実線(中線)
100
AcDbLine
 10
335.6461415518453
 20
239.5898957061051
 30
0.0
 11
335.6461415518453
 21
241.289895706105
 31
0.0
  0
LINE
  5
4A4
330
77
100
AcDbEntity
  8
実線(中線)
100
AcDbLine
 10
136.4461415518449
 20
264.389895706105
 30
0.0
 11
136.446141551845
 21
239.5898957061049
 31
0.0
  0
LINE
  5
4A5
330
77
100
AcDbEntity
  8
実線(中線)
100
AcDbLine
 10
135.646141551845
 20
241.2898957061064
 30
0.0
 11
135.646141551845
 21
239.5898957061049
 31
0.0
  0
LINE
  5
4A6
330
77
100
AcDbEntity
  8
実線(中線)
100
AcDbLine
 10
136.646141551845
 20
239.5898957061047
 30
0.0
 11
136.646141551845
 21
238.5898957061049
 31
0.0
  0
LINE
  5
4A7
330
77
100
AcDbEntity
  8
実線(中線)
100
AcDbLine
 10
136.646141551845
 20
238.589895706105
 30
0.0
 11
334.6461415518453
 21
238.5898957061051
 31
0.0
  0
LINE
  5
4A8
330
77
100
AcDbEntity
  8
実線(中線)
100
AcDbLine
 10
334.6461415518453
 20
238.5898957061051
 30
0.0
 11
334.6461415518453
 21
239.5898957061048
 31
0.0
  0
LINE
  5
4A9
330
77
100
AcDbEntity
  8
実線(中線)
100
AcDbLine
 10
334.6461415518453
 20
264.3898957061048
 30
0.0
 11
334.6461415518453
 21
239.5898957061048
 31
0.0
  0
LINE
  5
4AA
330
77
100
AcDbEntity
  8
実線(中線)
100
AcDbLine
 10
136.646141551845
 20
239.5898957061047
 30
0.0
 11
136.646141551845
 21
264.3898957061046
 31
0.0
  0
LINE
  5
4AB
330
77
100
AcDbEntity
  8
実線(中線)
100
AcDbLine
 10
136.646141551845
 20
248.789895706108
 30
0.0
 11
136.446141551845
 21
248.789895706108
 31
0.0
  0
LINE
  5
4AC
330
77
100
AcDbEntity
  8
実線(中線)
100
AcDbLine
 10
136.646141551845
 20
253.789895706108
 30
0.0
 11
136.446141551845
 21
253.789895706108
 31
0.0
  0
LINE
  5
4AD
330
77
100
AcDbEntity
  8
実線(中線)
100
AcDbLine
 10
334.8461415518453
 20
248.789895706107
 30
0.0
 11
334.6461415518453
 21
248.789895706107
 31
0.0
  0
LINE
  5
4AE
330
77
100
AcDbEntity
  8
実線(中線)
100
AcDbLine
 10
334.8461415518453
 20
253.789895706107
 30
0.0
 11
334.6461415518453
 21
253.789895706107
 31
0.0
  0
LINE
  5
4AF
330
77
100
AcDbEntity
  8
実線(中線)
100
AcDbLine
 10
353.6461415518456
 20
264.2898957061019
 30
0.0
 11
355.6461415518456
 21
264.2898957061025
 31
0.0
  0
LINE
  5
4B0
330
77
100
AcDbEntity
  8
実線(中線)
100
AcDbLine
 10
355.6461415518456
 20
264.2898957061025
 30
0.0
 11
355.6461415518456
 21
266.2898957061025
 31
0.0
  0
LINE
  5
4B1
330
77
100
AcDbEntity
  8
実線(中線)
100
AcDbLine
 10
355.6461415518456
 20
266.2898957061025
 30
0.0
 11
353.6461415518456
 21
266.2898957061019
 31
0.0
  0
LINE
  5
4B2
330
77
100
AcDbEntity
  8
実線(中線)
100
AcDbLine
 10
353.6461415518456
 20
266.2898957061019
 30
0.0
 11
353.6461415518456
 21
264.2898957061019
 31
0.0
  0
LINE
  5
4B3
330
77
100
AcDbEntity
  8
実線(中線)
100
AcDbLine
 10
335.6461415518453
 20
241.2898957061026
 30
0.0
 11
337.6461415518453
 21
241.2898957061026
 31
0.0
  0
LINE
  5
4B4
330
77
100
AcDbEntity
  8
実線(中線)
100
AcDbLine
 10
337.6461415518453
 20
241.2898957061026
 30
0.0
 11
337.6461415518453
 21
243.2898957061019
 31
0.0
  0
LINE
  5
4B5
330
77
100
AcDbEntity
  8
実線(中線)
100
AcDbLine
 10
337.6461415518453
 20
243.2898957061019
 30
0.0
 11
335.6461415518453
 21
243.289895706102
 31
0.0
  0
LINE
  5
4B6
330
77
100
AcDbEntity
  8
実線(中線)
100
AcDbLine
 10
335.6461415518453
 20
243.289895706102
 30
0.0
 11
335.6461415518453
 21
241.2898957061026
 31
0.0
  0
LINE
  5
4B7
330
77
100
AcDbEntity
  8
実線(中線)
100
AcDbLine
 10
337.6461415518454
 20
264.289895706102
 30
0.0
 11
353.6461415518456
 21
264.2898957061019
 31
0.0
  0
LINE
  5
4B8
330
77
100
AcDbEntity
  8
実線(中線)
100
AcDbLine
 10
353.6461415518456
 20
266.2898957061019
 30
0.0
 11
335.6461415518454
 21
266.2898957061019
 31
0.0
  0
LINE
  5
4B9
330
77
100
AcDbEntity
  8
実線(中線)
100
AcDbLine
 10
335.6461415518453
 20
243.289895706102
 30
0.0
 11
335.6461415518454
 21
266.2898957061019
 31
0.0
  0
LINE
  5
4BA
330
77
100
AcDbEntity
  8
実線(中線)
100
AcDbLine
 10
337.6461415518453
 20
243.2898957061019
 30
0.0
 11
337.6461415518454
 21
264.289895706102
 31
0.0
  0
LINE
  5
4BB
330
77
100
AcDbEntity
  8
実線(中線)
100
AcDbLine
 10
115.6461415518448
 20
266.2898957061038
 30
0.0
 11
115.6461415518449
 21
264.2898957061038
 31
0.0
  0
LINE
  5
4BC
330
77
100
AcDbEntity
  8
実線(中線)
100
AcDbLine
 10
115.6461415518449
 20
264.2898957061038
 30
0.0
 11
117.6461415518449
 21
264.2898957061032
 31
0.0
  0
LINE
  5
4BD
330
77
100
AcDbEntity
  8
実線(中線)
100
AcDbLine
 10
117.6461415518449
 20
266.2898957061033
 30
0.0
 11
115.6461415518448
 21
266.2898957061038
 31
0.0
  0
LINE
  5
4BE
330
77
100
AcDbEntity
  8
実線(中線)
100
AcDbLine
 10
117.6461415518449
 20
264.2898957061032
 30
0.0
 11
117.6461415518449
 21
266.2898957061033
 31
0.0
  0
LINE
  5
4BF
330
77
100
AcDbEntity
  8
実線(中線)
100
AcDbLine
 10
135.646141551845
 20
243.2898957061034
 30
0.0
 11
133.646141551845
 21
243.2898957061033
 31
0.0
  0
LINE
  5
4C0
330
77
100
AcDbEntity
  8
実線(中線)
100
AcDbLine
 10
133.646141551845
 20
243.2898957061033
 30
0.0
 11
133.646141551845
 21
241.2898957061039
 31
0.0
  0
LINE
  5
4C1
330
77
100
AcDbEntity
  8
実線(中線)
100
AcDbLine
 10
133.646141551845
 20
241.2898957061039
 30
0.0
 11
135.646141551845
 21
241.2898957061039
 31
0.0
  0
LINE
  5
4C2
330
77
100
AcDbEntity
  8
実線(中線)
100
AcDbLine
 10
135.646141551845
 20
241.2898957061039
 30
0.0
 11
135.646141551845
 21
243.2898957061034
 31
0.0
  0
LINE
  5
4C3
330
77
100
AcDbEntity
  8
実線(中線)
100
AcDbLine
 10
117.6461415518449
 20
264.2898957061032
 30
0.0
 11
133.6461415518449
 21
264.2898957061033
 31
0.0
  0
LINE
  5
4C4
330
77
100
AcDbEntity
  8
実線(中線)
100
AcDbLine
 10
135.646141551845
 20
243.2898957061034
 30
0.0
 11
135.6461415518449
 21
266.2898957061033
 31
0.0
  0
LINE
  5
4C5
330
77
100
AcDbEntity
  8
実線(中線)
100
AcDbLine
 10
135.6461415518449
 20
266.2898957061034
 30
0.0
 11
117.6461415518449
 21
266.2898957061033
 31
0.0
  0
LINE
  5
4C6
330
77
100
AcDbEntity
  8
実線(中線)
100
AcDbLine
 10
133.6461415518449
 20
264.2898957061033
 30
0.0
 11
133.646141551845
 21
243.2898957061033
 31
0.0
  0
DIMENSION
  5
4C7
330
77
100
AcDbEntity
  8
寸法(細線)
100
AcDbDimension
  2
*D8
 10
78.42559938069943
 20
483.5580149191985
 30
0.0
 11
78.42559938069934
 21
434.0580149191985
 31
0.0
 70
   160
  1
<>
 42
98.99999999999995
  3
Default (ULVAC)
100
AcDbAlignedDimension
 13
117.6461415518952
 23
384.5580149191986
 33
0.0
 14
117.6461415518951
 24
483.5580149191985
 34
0.0
 50
90.0
100
AcDbRotatedDimension
1001
ACAD
1000
DSTYLE
1002
{
1070
   172
1070
     0
1070
   289
1070
     1
1070
   271
1070
     2
1070
   272
1070
     3
1070
    48
1040
0.0
1070
    47
1040
0.0
1002
}
  0
LINE
  5
5AA
330
77
100
AcDbEntity
  8
一点鎖線(細線)
  6
CHAIN
 48
7.222748279571533
100
AcDbLine
 10
133.6461415518952
 20
459.0580149191985
 30
0.0
 11
120.6461415518952
 21
459.0580149191985
 31
0.0
  0
LINE
  5
5AB
330
77
100
AcDbEntity
  8
一点鎖線(細線)
  6
CHAIN
 48
8.889559745788574
100
AcDbLine
 10
125.6461415518952
 20
467.0580149191984
 30
0.0
 11
125.6461415518952
 21
451.0580149191985
 31
0.0
  0
LINE
  5
5AC
330
77
100
AcDbEntity
  8
一点鎖線(細線)
  6
CHAIN
 48
7.222748279571533
100
AcDbLine
 10
133.6461415518952
 20
409.0580149191985
 30
0.0
 11
120.6461415518952
 21
409.0580149191985
 31
0.0
  0
LINE
  5
5AD
330
77
100
AcDbEntity
  8
一点鎖線(細線)
  6
CHAIN
 48
8.889559745788574
100
AcDbLine
 10
125.6461415518952
 20
417.0580149191985
 30
0.0
 11
125.6461415518952
 21
401.0580149191985
 31
0.0
  0
DIMENSION
  5
5AE
330
77
100
AcDbEntity
  8
寸法(細線)
100
AcDbDimension
  2
*D9
 10
93.88992428637003
 20
459.0580149191985
 30
0.0
 11
93.88992428636996
 21
434.0580149191985
 31
0.0
 70
   160
  1
<>
 42
49.99999999999994
  3
Default (ULVAC)
100
AcDbAlignedDimension
 13
125.6461415518952
 23
409.0580149191985
 33
0.0
 14
125.6461415518952
 24
459.0580149191985
 34
0.0
 50
90.0
100
AcDbRotatedDimension
1001
ACAD
1000
DSTYLE
1002
{
1070
   172
1070
     0
1070
   289
1070
     1
1070
   271
1070
     2
1070
   272
1070
     3
1070
    48
1040
0.0
1070
    47
1040
0.0
1002
}
  0
DIMENSION
  5
690
330
77
100
AcDbEntity
  8
寸法(細線)
100
AcDbDimension
  2
*D10
 10
107.2349710008941
 20
456.0580149191984
 30
0.0
 11
107.234971000894
 21
477.5286667299195
 31
0.0
 70
   160
  1
<>
 42
6.0
  3
Default (ULVAC)
100
AcDbAlignedDimension
 13
117.6461415518951
 23
462.0580149191985
 33
0.0
 14
117.6461415518951
 24
456.0580149191984
 34
0.0
 50
270.0
100
AcDbRotatedDimension
1001
ACAD
1000
DSTYLE
1002
{
1070
   172
1070
     1
1070
   289
1070
     1
1070
   271
1070
     2
1070
   272
1070
     3
1070
    48
1040
0.0
1070
    47
1040
0.0
1002
}
  0
DIMENSION
  5
790
330
77
100
AcDbEntity
  8
寸法(細線)
100
AcDbDimension
  2
*D11
 10
345.6461415518958
 20
366.3636480396238
 30
0.0
 11
235.6461415518955
 21
366.3636480396238
 31
0.0
 70
   160
  1
<>
 42
220.0000000000006
  3
Default (ULVAC)
100
AcDbAlignedDimension
 13
125.6461415518952
 23
401.0580149191985
 33
0.0
 14
345.6461415518958
 24
409.0580149191984
 34
0.0
 50
180.0
100
AcDbRotatedDimension
1001
ACAD
1000
DSTYLE
1002
{
1070
   172
1070
     0
1070
   289
1070
     1
1070
   271
1070
     2
1070
   272
1070
     3
1070
    48
1040
0.0
1070
    47
1040
0.0
1002
}
  0
LINE
  5
872
330
77
100
AcDbEntity
  8
一点鎖線(細線)
  6
CHAIN
 48
7.222748279571533
100
AcDbLine
 10
350.6461415518958
 20
459.0580149191983
 30
0.0
 11
337.6461415518958
 21
459.0580149191983
 31
0.0
  0
LINE
  5
873
330
77
100
AcDbEntity
  8
一点鎖線(細線)
  6
CHAIN
 48
8.889559745788574
100
AcDbLine
 10
345.6461415518958
 20
467.0580149191983
 30
0.0
 11
345.6461415518958
 21
451.0580149191983
 31
0.0
  0
LINE
  5
874
330
77
100
AcDbEntity
  8
一点鎖線(細線)
  6
CHAIN
 48
7.222748279571533
100
AcDbLine
 10
350.6461415518958
 20
409.0580149191984
 30
0.0
 11
337.6461415518958
 21
409.0580149191984
 31
0.0
  0
LINE
  5
875
330
77
100
AcDbEntity
  8
一点鎖線(細線)
  6
CHAIN
 48
8.889559745788574
100
AcDbLine
 10
345.6461415518958
 20
417.0580149191983
 30
0.0
 11
345.6461415518958
 21
401.0580149191984
 31
0.0
  0
DIMENSION
  5
876
330
77
100
AcDbEntity
  8
寸法(細線)
100
AcDbDimension
  2
*D12
 10
355.6461415518958
 20
509.5437166231432
 30
0.0
 11
235.6461415518954
 21
509.5437166231432
 31
0.0
 70
   160
  1
<>
 42
240.0000000000007
  3
Default (ULVAC)
100
AcDbAlignedDimension
 13
115.646141551895
 23
481.5580149191984
 33
0.0
 14
355.6461415518958
 24
481.5580149191982
 34
0.0
 50
180.0
100
AcDbRotatedDimension
1001
ACAD
1000
DSTYLE
1002
{
1070
   172
1070
     0
1070
   289
1070
     1
1070
   271
1070
     2
1070
   272
1070
     3
1070
    48
1040
0.0
1070
    47
1040
0.0
1002
}
  0
DIMENSION
  5
958
330
77
100
AcDbEntity
  8
寸法(細線)
100
AcDbDimension
  2
*D13
 10
463.1192853060187
 20
508.615619213449
 30
0.0
 11
449.2692853060217
 21
508.615619213449
 31
0.0
 70
   160
  1
<>
 42
27.69999999999368
  3
Default (ULVAC)
100
AcDbAlignedDimension
 13
435.419285306025
 23
481.5580149191982
 33
0.0
 14
463.1192853060187
 24
473.0580149191982
 34
0.0
 50
180.0
100
AcDbRotatedDimension
1001
ACAD
1000
DSTYLE
1002
{
1070
   172
1070
     0
1070
   289
1070
     1
1070
   271
1070
     2
1070
   272
1070
     3
1070
    48
1040
0.0
1070
    47
1040
0.0
1002
}
  0
DIMENSION
  5
A3A
330
77
100
AcDbEntity
  8
寸法(細線)
100
AcDbDimension
  2
*D14
 10
437.4192853060249
 20
372.3854875167902
 30
0.0
 11
420.0591103246774
 21
372.3854875167902
 31
0.0
 70
   160
  1
<>
 42
2.0
  3
Default (ULVAC)
100
AcDbAlignedDimension
 13
435.419285306025
 23
386.5580149191985
 33
0.0
 14
437.4192853060249
 24
386.5580149191985
 34
0.0
 50
180.0
100
AcDbRotatedDimension
1001
ACAD
1000
DSTYLE
1002
{
1070
   172
1070
     1
1070
   289
1070
     1
1070
   271
1070
     2
1070
   272
1070
     3
1070
    48
1040
0.0
1070
    47
1040
0.0
1002
}
  0
LINE
  5
B38
330
77
100
AcDbEntity
  8
一点鎖線(細線)
  6
CHAIN
 48
23.99096870422363
100
AcDbLine
 10
603.744133942207
 20
417.5580149191981
 30
0.0
 11
603.744133942207
 21
450.5580149191981
 31
0.0
  0
LINE
  5
B39
330
77
100
AcDbEntity
  8
一点鎖線(細線)
  6
CHAIN
 48
23.99096870422363
100
AcDbLine
 10
570.244133942207
 20
434.0580149191981
 30
0.0
 11
637.244133942207
 21
434.0580149191981
 31
0.0
  0
DIMENSION
  5
B3A
330
77
100
AcDbEntity
  8
寸法(細線)
100
AcDbDimension
  2
*D15
 10
517.6944384468533
 20
434.0580149191981
 30
0.0
 11
517.6944384468531
 21
409.3080149191981
 31
0.0
 70
   160
  1
<>
 42
49.50000000000011
  3
Default (ULVAC)
100
AcDbAlignedDimension
 13
554.2441339421916
 23
384.5580149191981
 33
0.0
 14
570.244133942207
 24
434.0580149191981
 34
0.0
 50
90.0
100
AcDbRotatedDimension
1001
ACAD
1000
DSTYLE
1002
{
1070
   172
1070
     0
1070
   289
1070
     1
1070
   271
1070
     2
1070
   272
1070
     3
1070
    48
1040
0.0
1070
    47
1040
0.0
1002
}
  0
DIMENSION
  5
C1C
330
77
100
AcDbEntity
  8
寸法(細線)
100
AcDbDimension
  2
*D16
 10
603.744133942207
 20
362.5667515641592
 30
0.0
 11
688.9941339421994
 21
362.5667515641592
 31
0.0
 70
   160
  1
<>
 42
170.4999999999851
  3
Default (ULVAC)
100
AcDbAlignedDimension
 13
774.2441339421921
 23
414.0580149191984
 33
0.0
 14
603.744133942207
 24
417.5580149191981
 34
0.0
 50
180.0
100
AcDbRotatedDimension
1001
ACAD
1000
DSTYLE
1002
{
1070
   172
1070
     0
1070
   289
1070
     1
1070
   271
1070
     2
1070
   272
1070
     3
1070
    48
1040
0.0
1070
    47
1040
0.0
1002
}
  0
DIMENSION
  5
CFE
330
77
100
AcDbEntity
  8
寸法(細線)
100
AcDbDimension
  2
*D17
 10
337.6461415518453
 20
212.7344588458938
 30
0.0
 11
235.6461415518453
 21
212.7344588458938
 31
0.0
 70
   160
  1
<>
 42
204.0000000000002
  3
Default (ULVAC)
100
AcDbAlignedDimension
 13
133.646141551845
 23
243.2898957061033
 33
0.0
 14
337.6461415518453
 24
243.2898957061019
 34
0.0
 50
180.0
100
AcDbRotatedDimension
1001
ACAD
1000
DSTYLE
1002
{
1070
   172
1070
     0
1070
   289
1070
     1
1070
   271
1070
     2
1070
   272
1070
     3
1070
    48
1040
0.0
1070
    47
1040
0.0
1002
}
  0
INSERT
  5
DE0
330
77
100
AcDbEntity
  8
0
100
AcDbBlockReference
  2
IPSTAMP_EJ
 10
469.9999999999991
 20
147.9999999999993
 30
0.0
 41
2.0
 42
2.0
 43
2.0
  0
MTEXT
  5
DE1
102
{ACAD_XDICTIONARY
360
EDC
102
}
330
77
100
AcDbEntity
  8
寸法(細線)
100
AcDbMText
 10
105.4933531412657
 20
164.4743754729026
 30
0.0
 40
6.000000238418579
 41
318.0924034118653
 71
     1
 72
     1
  3
{\fTahoma|b0|i0;\H6.0000;\U+3000\U+FF11\U+FF0E\U+672C\U+56F3\U+9762\U+306B\U+8A18\U+8F09\U+3055\U+308C\U+3066\U+3044\U+308B\U+5BF8\U+6CD5\U+53CA\U+3073\U+4ED5\U+69D8\U+306F\U+53C2\U+8003\U+5024\U+3067\U+3059\U+3002\P\U+3000\U+3000\U+3000\U+88FD\U+54C
  3
1\U+53CA\U+3073\U+4ED5\U+69D8\U+306B\U+3064\U+3044\U+3066\U+306F\U+4E88\U+544A\U+306A\U+304F\U+5909\U+66F4\U+3059\U+308B\U+5834\U+5408\U+304C\U+3042\U+308A\U+307E\U+3059\U+3002\P\U+3000\U+3000\U+3000\U+672C\U+88FD\U+54C1\U+306E\U+3054\U+63A1\U+7528\U
  3
+306E\U+3054\U+691C\U+8A0E\U+3084\U+3054\U+6CE8\U+6587\U+306B\U+969B\U+3057\U+3066\U+306F\U+3001\U+4E88\U+3081\U+5F0A\U+793E\U+8CA9\U+58F2\U+7A93\U+53E3\U+53C8\U+306F\P\U+3000\U+3000\U+3000\U+8CA9\U+58F2\U+4EE3\U+7406\U+5E97\U+307E\U+3067\U+304A\U+55
  3
4F\U+3044\U+5408\U+308F\U+305B\U+306E\U+3046\U+3048\U+3001\U+300C\U+7D0D\U+5165\U+4ED5\U+69D8\U+66F8\U+300D\U+306E\U+53D6\U+308A\U+4EA4\U+308F\U+3057\U+3092\U+304A\U+9858\U+3044\U+3057\U+307E\U+3059\U+3002\P\U+3000\U+FF12\U+FF0E\U+304A\U+5BA2\U+69D8\
  3
U+306B\U+304A\U+304B\U+308C\U+307E\U+3057\U+3066\U+306F\U+3001\U+4FDD\U+8B77\U+56DE\U+8DEF\U+3084\U+5197\U+9577\U+56DE\U+8DEF\U+7B49\U+3092\U+8A2D\U+3051\U+3066\U+6A5F\U+5668\U+306E\U+5B89\U+5168\U+3092\U+56F3\U+3089\U+308C\U+308B\U+3068\U+5171\U+306
  3
B\U+3001\P\U+3000\U+3000\U+3000\U+5F0A\U+793E\U+88FD\U+54C1\U+306E\U+9069\U+5408\U+6027\U+306B\U+3064\U+3044\U+3066\U+5341\U+5206\U+306A\U+3054\U+78BA\U+8A8D\U+3092\U+304A\U+9858\U+3044\U+3057\U+307E\U+3059\U+3002\P\U+3000\U+FF13\U+FF0E\U+672C\U+88FD
  3
\U+54C1\U+306F\U+4E00\U+822C\U+7523\U+696D\U+7528\U+306B\U+4F7F\U+7528\U+3055\U+308C\U+308B\U+3053\U+3068\U+3092\U+610F\U+56F3\U+3057\U+3066\U+304A\U+308A\U+307E\U+3059\U+3002\P\U+3000\U+3000\U+3000\U+4E00\U+822C\U+7523\U+696D\U+7528\U+9014\U+4EE5\U+
  3
5916\U+306E\U+3054\U+4F7F\U+7528\U+307E\U+305F\U+306F\U+6975\U+3081\U+3066\U+9AD8\U+3044\U+4FE1\U+983C\U+6027\U+304C\U+8981\U+6C42\U+3055\U+308C\U+308B\U+7528\U+9014\U+3078\U+306E\P\U+3000\U+3000\U+3000\U+3054\U+4F7F\U+7528\U+3092\U+304A\U+8003\U+304
  1
8\U+306E\U+5834\U+5408\U+306F\U+3001\U+5FC5\U+305A\U+5F0A\U+793E\U+8CA9\U+58F2\U+7A93\U+53E3\U+307E\U+3067\U+3054\U+76F8\U+8AC7\U+4E0B\U+3055\U+3044\U+307E\U+3059\U+3088\U+3046\U+304A\U+9858\U+3044\U+7533\U+3057\U+4E0A\U+3052\U+307E\U+3059\U+3002}
  7
Note Text (ULVAC)
 73
     2
 44
1.366058111190795
1001
ACAD
1000
MTEXTBEGIN
1070
    73
1070
     2
1070
    44
1040
1.366058111190795
1070
    74
1070
     0
1000
MTEXTEND
  0
ENDSEC
  0
SECTION
  2
OBJECTS
  0
DICTIONARY
  5
C
330
0
100
AcDbDictionary
281
     1
  3
ACAD_COLOR
350
6E
  3
ACAD_GROUP
350
D
  3
ACAD_LAYOUT
350
6D
  3
ACAD_MATERIAL
350
10
  3
ACAD_MLEADERSTYLE
350
71
  3
ACAD_MLINESTYLE
350
6A
  3
ACAD_PLOTSETTINGS
350
6C
  3
ACAD_PLOTSTYLENAME
350
E
  3
ACAD_SCALELIST
350
3D
  3
ACAD_TABLESTYLE
350
6F
  3
ACAD_VISUALSTYLE
350
29
  3
ACDB_RECOMPOSE_DATA
350
E99
  3
AcDbVariableDictionary
350
DE2
  3
DWGPROPS
350
E9A
  0
DICTIONARY
  5
ECC
330
23E
100
AcDbDictionary
280
     1
281
     1
  3
ACAD_MTEXT_RT
360
ECD
  0
DICTIONARY
  5
ECE
330
23F
100
AcDbDictionary
280
     1
281
     1
  3
ACAD_MTEXT_RT
360
ECF
  0
DICTIONARY
  5
ED0
330
240
100
AcDbDictionary
280
     1
281
     1
  3
ACAD_MTEXT_RT
360
ED1
  0
DICTIONARY
  5
ED2
330
241
100
AcDbDictionary
280
     1
281
     1
  3
ACAD_MTEXT_RT
360
ED3
  0
DICTIONARY
  5
ED4
330
243
100
AcDbDictionary
280
     1
281
     1
  3
ACAD_MTEXT_RT
360
ED5
  0
DICTIONARY
  5
ED6
330
244
100
AcDbDictionary
280
     1
281
     1
  3
ACAD_MTEXT_RT
360
ED7
  0
DICTIONARY
  5
ED8
330
24D
100
AcDbDictionary
280
     1
281
     1
  3
ACAD_MTEXT_RT
360
ED9
  0
DICTIONARY
  5
EDA
330
251
100
AcDbDictionary
280
     1
281
     1
  3
ACAD_MTEXT_RT
360
EDB
  0
DICTIONARY
  5
DF1
330
253
100
AcDbDictionary
280
     1
281
     1
  3
ACAD_MLATT
360
DF3
  3
ACAD_XREC_ROUNDTRIP
360
DF2
  0
DICTIONARY
  5
DF4
330
256
100
AcDbDictionary
280
     1
281
     1
  3
ACAD_MLATT
360
DF6
  3
ACAD_XREC_ROUNDTRIP
360
DF5
  0
DICTIONARY
  5
DF7
330
257
100
AcDbDictionary
280
     1
281
     1
  3
ACAD_MLATT
360
DF9
  3
ACAD_XREC_ROUNDTRIP
360
DF8
  0
DICTIONARY
  5
DFA
330
258
100
AcDbDictionary
280
     1
281
     1
  3
ACAD_MLATT
360
DFC
  3
ACAD_XREC_ROUNDTRIP
360
DFB
  0
DICTIONARY
  5
DFD
330
259
100
AcDbDictionary
280
     1
281
     1
  3
ACAD_MLATT
360
DFF
  3
ACAD_XREC_ROUNDTRIP
360
DFE
  0
DICTIONARY
  5
E00
330
25A
100
AcDbDictionary
280
     1
281
     1
  3
ACAD_MLATT
360
E02
  3
ACAD_XREC_ROUNDTRIP
360
E01
  0
DICTIONARY
  5
E03
330
25C
100
AcDbDictionary
280
     1
281
     1
  3
ACAD_MLATT
360
E05
  3
ACAD_XREC_ROUNDTRIP
360
E04
  0
DICTIONARY
  5
E06
330
25D
100
AcDbDictionary
280
     1
281
     1
  3
ACAD_MLATT
360
E08
  3
ACAD_XREC_ROUNDTRIP
360
E07
  0
DICTIONARY
  5
E09
330
25E
100
AcDbDictionary
280
     1
281
     1
  3
ACAD_MLATT
360
E0B
  3
ACAD_XREC_ROUNDTRIP
360
E0A
  0
DICTIONARY
  5
E0C
330
260
100
AcDbDictionary
280
     1
281
     1
  3
ACAD_MLATT
360
E0E
  3
ACAD_XREC_ROUNDTRIP
360
E0D
  0
DICTIONARY
  5
E0F
330
262
100
AcDbDictionary
280
     1
281
     1
  3
ACAD_MLATT
360
E11
  3
ACAD_XREC_ROUNDTRIP
360
E10
  0
DICTIONARY
  5
E12
330
264
100
AcDbDictionary
280
     1
281
     1
  3
ACAD_MLATT
360
E14
  3
ACAD_XREC_ROUNDTRIP
360
E13
  0
DICTIONARY
  5
E15
330
265
100
AcDbDictionary
280
     1
281
     1
  3
ACAD_MLATT
360
E17
  3
ACAD_XREC_ROUNDTRIP
360
E16
  0
DICTIONARY
  5
E18
330
267
100
AcDbDictionary
280
     1
281
     1
  3
ACAD_MLATT
360
E1A
  3
ACAD_XREC_ROUNDTRIP
360
E19
  0
DICTIONARY
  5
E1B
330
269
100
AcDbDictionary
280
     1
281
     1
  3
ACAD_MLATT
360
E1D
  3
ACAD_XREC_ROUNDTRIP
360
E1C
  0
DICTIONARY
  5
E1E
330
26B
100
AcDbDictionary
280
     1
281
     1
  3
ACAD_MLATT
360
E20
  3
ACAD_XREC_ROUNDTRIP
360
E1F
  0
DICTIONARY
  5
E21
330
26C
100
AcDbDictionary
280
     1
281
     1
  3
ACAD_MLATT
360
E23
  3
ACAD_XREC_ROUNDTRIP
360
E22
  0
DICTIONARY
  5
E24
330
26D
100
AcDbDictionary
280
     1
281
     1
  3
ACAD_MLATT
360
E26
  3
ACAD_XREC_ROUNDTRIP
360
E25
  0
DICTIONARY
  5
E27
330
26E
100
AcDbDictionary
280
     1
281
     1
  3
ACAD_MLATT
360
E29
  3
ACAD_XREC_ROUNDTRIP
360
E28
  0
DICTIONARY
  5
E2A
330
26F
100
AcDbDictionary
280
     1
281
     1
  3
ACAD_MLATT
360
E2C
  3
ACAD_XREC_ROUNDTRIP
360
E2B
  0
DICTIONARY
  5
E2D
330
270
100
AcDbDictionary
280
     1
281
     1
  3
ACAD_MLATT
360
E2F
  3
ACAD_XREC_ROUNDTRIP
360
E2E
  0
DICTIONARY
  5
E30
330
272
100
AcDbDictionary
280
     1
281
     1
  3
ACAD_MLATT
360
E32
  3
ACAD_XREC_ROUNDTRIP
360
E31
  0
DICTIONARY
  5
E33
330
274
100
AcDbDictionary
280
     1
281
     1
  3
ACAD_MLATT
360
E35
  3
ACAD_XREC_ROUNDTRIP
360
E34
  0
DICTIONARY
  5
E36
330
276
100
AcDbDictionary
280
     1
281
     1
  3
ACAD_MLATT
360
E38
  3
ACAD_XREC_ROUNDTRIP
360
E37
  0
DICTIONARY
  5
E39
330
277
100
AcDbDictionary
280
     1
281
     1
  3
ACAD_MLATT
360
E3B
  3
ACAD_XREC_ROUNDTRIP
360
E3A
  0
DICTIONARY
  5
E3C
330
278
100
AcDbDictionary
280
     1
281
     1
  3
ACAD_MLATT
360
E3E
  3
ACAD_XREC_ROUNDTRIP
360
E3D
  0
DICTIONARY
  5
E3F
330
27A
100
AcDbDictionary
280
     1
281
     1
  3
ACAD_MLATT
360
E41
  3
ACAD_XREC_ROUNDTRIP
360
E40
  0
DICTIONARY
  5
E42
330
27C
100
AcDbDictionary
280
     1
281
     1
  3
ACAD_MLATT
360
E44
  3
ACAD_XREC_ROUNDTRIP
360
E43
  0
DICTIONARY
  5
E45
330
27F
100
AcDbDictionary
280
     1
281
     1
  3
ACAD_MLATT
360
E47
  3
ACAD_XREC_ROUNDTRIP
360
E46
  0
DICTIONARY
  5
E48
330
280
100
AcDbDictionary
280
     1
281
     1
  3
ACAD_MLATT
360
E4A
  3
ACAD_XREC_ROUNDTRIP
360
E49
  0
DICTIONARY
  5
E4B
330
281
100
AcDbDictionary
280
     1
281
     1
  3
ACAD_MLATT
360
E4D
  3
ACAD_XREC_ROUNDTRIP
360
E4C
  0
DICTIONARY
  5
E4E
330
282
100
AcDbDictionary
280
     1
281
     1
  3
ACAD_MLATT
360
E50
  3
ACAD_XREC_ROUNDTRIP
360
E4F
  0
DICTIONARY
  5
E51
330
283
100
AcDbDictionary
280
     1
281
     1
  3
ACAD_MLATT
360
E53
  3
ACAD_XREC_ROUNDTRIP
360
E52
  0
DICTIONARY
  5
E54
330
284
100
AcDbDictionary
280
     1
281
     1
  3
ACAD_MLATT
360
E56
  3
ACAD_XREC_ROUNDTRIP
360
E55
  0
DICTIONARY
  5
E57
330
285
100
AcDbDictionary
280
     1
281
     1
  3
ACAD_MLATT
360
E59
  3
ACAD_XREC_ROUNDTRIP
360
E58
  0
DICTIONARY
  5
E5A
330
286
100
AcDbDictionary
280
     1
281
     1
  3
ACAD_MLATT
360
E5C
  3
ACAD_XREC_ROUNDTRIP
360
E5B
  0
DICTIONARY
  5
E5D
330
287
100
AcDbDictionary
280
     1
281
     1
  3
ACAD_MLATT
360
E5F
  3
ACAD_XREC_ROUNDTRIP
360
E5E
  0
DICTIONARY
  5
E60
330
288
100
AcDbDictionary
280
     1
281
     1
  3
ACAD_MLATT
360
E62
  3
ACAD_XREC_ROUNDTRIP
360
E61
  0
DICTIONARY
  5
E63
330
289
100
AcDbDictionary
280
     1
281
     1
  3
ACAD_MLATT
360
E65
  3
ACAD_XREC_ROUNDTRIP
360
E64
  0
DICTIONARY
  5
E66
330
28A
100
AcDbDictionary
280
     1
281
     1
  3
ACAD_MLATT
360
E68
  3
ACAD_XREC_ROUNDTRIP
360
E67
  0
DICTIONARY
  5
E69
330
28B
100
AcDbDictionary
280
     1
281
     1
  3
ACAD_MLATT
360
E6B
  3
ACAD_XREC_ROUNDTRIP
360
E6A
  0
DICTIONARY
  5
E6C
330
28D
100
AcDbDictionary
280
     1
281
     1
  3
ACAD_MLATT
360
E6E
  3
ACAD_XREC_ROUNDTRIP
360
E6D
  0
DICTIONARY
  5
E6F
330
28E
100
AcDbDictionary
280
     1
281
     1
  3
ACAD_MLATT
360
E71
  3
ACAD_XREC_ROUNDTRIP
360
E70
  0
DICTIONARY
  5
E72
330
28F
100
AcDbDictionary
280
     1
281
     1
  3
ACAD_MLATT
360
E74
  3
ACAD_XREC_ROUNDTRIP
360
E73
  0
DICTIONARY
  5
E75
330
290
100
AcDbDictionary
280
     1
281
     1
  3
ACAD_MLATT
360
E77
  3
ACAD_XREC_ROUNDTRIP
360
E76
  0
DICTIONARY
  5
E78
330
291
100
AcDbDictionary
280
     1
281
     1
  3
ACAD_MLATT
360
E7A
  3
ACAD_XREC_ROUNDTRIP
360
E79
  0
DICTIONARY
  5
E7B
330
292
100
AcDbDictionary
280
     1
281
     1
  3
ACAD_MLATT
360
E7D
  3
ACAD_XREC_ROUNDTRIP
360
E7C
  0
DICTIONARY
  5
E7E
330
293
100
AcDbDictionary
280
     1
281
     1
  3
ACAD_MLATT
360
E80
  3
ACAD_XREC_ROUNDTRIP
360
E7F
  0
DICTIONARY
  5
E81
330
294
100
AcDbDictionary
280
     1
281
     1
  3
ACAD_MLATT
360
E83
  3
ACAD_XREC_ROUNDTRIP
360
E82
  0
DICTIONARY
  5
E84
330
295
100
AcDbDictionary
280
     1
281
     1
  3
ACAD_MLATT
360
E86
  3
ACAD_XREC_ROUNDTRIP
360
E85
  0
DICTIONARY
  5
E87
330
296
100
AcDbDictionary
280
     1
281
     1
  3
ACAD_MLATT
360
E89
  3
ACAD_XREC_ROUNDTRIP
360
E88
  0
DICTIONARY
  5
E8A
330
297
100
AcDbDictionary
280
     1
281
     1
  3
ACAD_MLATT
360
E8C
  3
ACAD_XREC_ROUNDTRIP
360
E8B
  0
DICTIONARY
  5
E8D
330
298
100
AcDbDictionary
280
     1
281
     1
  3
ACAD_MLATT
360
E8F
  3
ACAD_XREC_ROUNDTRIP
360
E8E
  0
DICTIONARY
  5
E90
330
299
100
AcDbDictionary
280
     1
281
     1
  3
ACAD_MLATT
360
E92
  3
ACAD_XREC_ROUNDTRIP
360
E91
  0
DICTIONARY
  5
E93
330
29A
100
AcDbDictionary
280
     1
281
     1
  3
ACAD_MLATT
360
E95
  3
ACAD_XREC_ROUNDTRIP
360
E94
  0
DICTIONARY
  5
E96
330
29B
100
AcDbDictionary
280
     1
281
     1
  3
ACAD_MLATT
360
E98
  3
ACAD_XREC_ROUNDTRIP
360
E97
  0
DICTIONARY
  5
EDC
330
DE1
100
AcDbDictionary
280
     1
281
     1
  3
ACAD_MTEXT_RT
360
EDD
  0
DICTIONARY
  5
6E
102
{ACAD_REACTORS
330
C
102
}
330
C
100
AcDbDictionary
281
     1
  0
DICTIONARY
  5
D
102
{ACAD_REACTORS
330
C
102
}
330
C
100
AcDbDictionary
281
     1
  0
DICTIONARY
  5
6D
102
{ACAD_REACTORS
330
C
102
}
330
C
100
AcDbDictionary
281
     1
  3
Layout1
350
76
  3
Layout2
350
7E
  3
Model
350
7A
  0
DICTIONARY
  5
10
102
{ACAD_REACTORS
330
C
102
}
330
C
100
AcDbDictionary
281
     1
  3
ByBlock
350
19
  3
ByLayer
350
11
  3
Global
350
21
  0
DICTIONARY
  5
71
102
{ACAD_REACTORS
330
C
102
}
330
C
100
AcDbDictionary
281
     1
  3
Standard
350
72
  0
DICTIONARY
  5
6A
102
{ACAD_REACTORS
330
C
102
}
330
C
100
AcDbDictionary
281
     1
  3
Standard
350
6B
  0
DICTIONARY
  5
6C
102
{ACAD_REACTORS
330
C
102
}
330
C
100
AcDbDictionary
281
     1
  0
ACDBDICTIONARYWDFLT
  5
E
102
{ACAD_REACTORS
330
C
102
}
330
C
100
AcDbDictionary
281
     1
  3
Normal
350
F
100
AcDbDictionaryWithDefault
340
F
  0
DICTIONARY
  5
3D
102
{ACAD_REACTORS
330
C
102
}
330
C
100
AcDbDictionary
281
     1
  3
A0
350
3E
  3
A1
350
3F
  3
A2
350
40
  3
A3
350
41
  3
A4
350
42
  3
A5
350
43
  3
A6
350
44
  3
A7
350
45
  3
A8
350
46
  3
A9
350
47
  3
B0
350
48
  3
B1
350
49
  3
B2
350
4A
  3
B3
350
4B
  3
B4
350
4C
  3
B5
350
4D
  3
B6
350
4E
  3
B7
350
4F
  3
B8
350
50
  3
B9
350
51
  3
C0
350
52
  3
C1
350
53
  3
C2
350
54
  3
C3
350
55
  3
C4
350
56
  3
C5
350
57
  3
C6
350
58
  3
C7
350
59
  3
C8
350
5A
  3
C9
350
5B
  3
D0
350
5C
  3
D1
350
5D
  3
D2
350
5E
  0
DICTIONARY
  5
6F
102
{ACAD_REACTORS
330
C
102
}
330
C
100
AcDbDictionary
281
     1
  3
Standard
350
70
  0
DICTIONARY
  5
29
102
{ACAD_REACTORS
330
C
102
}
330
C
100
AcDbDictionary
281
     1
  3
2dWireframe
350
2F
  3
3D Hidden
350
31
  3
3dWireframe
350
30
  3
Basic
350
2E
  3
Brighten
350
35
  3
ColorChange
350
39
  3
Conceptual
350
32
  3
Dim
350
34
  3
EdgeColorOff
350
3C
  3
Facepattern
350
38
  3
Flat
350
2A
  3
FlatWithEdges
350
2B
  3
Gouraud
350
2C
  3
GouraudWithEdges
350
2D
  3
JitterOff
350
3A
  3
Linepattern
350
37
  3
OverhangOff
350
3B
  3
Realistic
350
33
  3
Thicken
350
36
  0
XRECORD
  5
E99
102
{ACAD_REACTORS
330
C
102
}
330
C
100
AcDbXrecord
280
     1
 90
        1
330
70
330
253
330
256
330
257
330
258
330
259
330
25A
330
25C
330
25D
330
25E
330
260
330
262
330
264
330
265
330
267
330
269
330
26B
330
26C
330
26D
330
26E
330
26F
330
270
330
272
330
274
330
276
330
277
330
278
330
27A
330
27C
330
27F
330
280
330
281
330
282
330
283
330
284
330
285
330
286
330
287
330
288
330
289
330
28A
330
28B
330
28D
330
28E
330
28F
330
290
330
291
330
292
330
293
330
294
330
295
330
296
330
297
330
298
330
299
330
29A
330
29B
  0
DICTIONARY
  5
DE2
102
{ACAD_REACTORS
330
C
102
}
330
C
100
AcDbDictionary
281
     1
  3
CANNOSCALE
350
DE6
  3
CMLEADERSTYLE
350
DE4
  3
CTABLESTYLE
350
DE3
  3
DIMASSOC
350
DED
  3
HIDETEXT
350
DEC
  3
INDEXCTL
350
DEB
  3
LAYEREVAL
350
DE8
  3
LAYERNOTIFY
350
DE9
  3
LIGHTINGUNITS
350
DE7
  3
MSLTSCALE
350
DE5
  3
SORTENTS
350
DEA
  3
XCLIPFRAME
350
DEE
  0
XRECORD
  5
E9A
102
{ACAD_REACTORS
330
C
102
}
330
C
100
AcDbXrecord
280
     1
  1
DWGPROPS COOKIE
  2
外形図
  3

  4
uj34717
  6

  7

  8

  9

300
マネージャ=
301
会社=
302
カテゴリ=
303
部品番号=GP0256-100B
304
説明=
305
プロジェクト=
306
設計者=uj34717
307
エンジニア=
308
責任者=
309
コスト センター=
 40
0.0000903935185185
 41
2457715.410223936
 42
2457715.410223936
  1

 90
       33
300
ベンダー=
300
ユーザ ステータス=
300
設計ステータス=作業中
300
確認者=
300
エンジニアリング承認者=
300
製造承認者=
300
図面サイズ=A3
300
図面種類=
300
図面番号=
300
重量=
300
流用元図番=
300
製図欄1=
300
製図欄2=
300
製図者=
300
RoHS=
300
ドキュメント番号=
300
ファイル種別=
300
メーカ型式=
300
メーカ名=
300
統一名称=
300
表面処理=
300
品目コメント=
300
輸出管理=
  0
XRECORD
  5
ECD
102
{ACAD_REACTORS
330
ECC
102
}
330
ECC
100
AcDbXrecord
280
     1
 40
70902.0
  1
\fTahoma|b0|i0;\W0.80;\H3.0000;承  認
  0
XRECORD
  5
ECF
102
{ACAD_REACTORS
330
ECE
102
}
330
ECE
100
AcDbXrecord
280
     1
 40
70036.0
  1
\fTahoma|b0|i0;\W0.80;\H3.0000;検  図
  0
XRECORD
  5
ED1
102
{ACAD_REACTORS
330
ED0
102
}
330
ED0
100
AcDbXrecord
280
     1
 40
70319.0
  1
\fTahoma|b0|i0;\W0.80;\H3.0000;設  計
  0
XRECORD
  5
ED3
102
{ACAD_REACTORS
330
ED2
102
}
330
ED2
100
AcDbXrecord
280
     1
 40
70885.0
  1
\fTahoma|b0|i0;\W0.80;\H3.0000;製  図
  0
XRECORD
  5
ED5
102
{ACAD_REACTORS
330
ED4
102
}
330
ED4
100
AcDbXrecord
280
     1
 40
145546.0
  1
\fTahoma|b0|i0;\H3.0000;JIS B 0419- mH級\PJIS B 0408- B  級
  0
XRECORD
  5
ED7
102
{ACAD_REACTORS
330
ED6
102
}
330
ED6
100
AcDbXrecord
280
     1
 40
139417.0
  1
\fTahoma|b0|i0;\W0.70;\H3.0000;流用元図番
  0
XRECORD
  5
ED9
102
{ACAD_REACTORS
330
ED8
102
}
330
ED8
100
AcDbXrecord
280
     1
 40
34002.0
  1
\fTahoma|b0|i0;\H5.0000;貼
  0
XRECORD
  5
EDB
102
{ACAD_REACTORS
330
EDA
102
}
330
EDA
100
AcDbXrecord
280
     1
 40
99225.0
  1
\fTahoma|b0|i0;\H3.0000;計算\P重量
  0
XRECORD
  5
DF3
102
{ACAD_REACTORS
330
DF1
102
}
330
DF1
100
AcDbXrecord
280
     1
 70
     4
 70
     0
 70
     0
 40
1.0
  2
流用元図番
  1
Embedded Object
 10
18.00000054486772
 20
50.50000000000001
 30
0.0
 40
2.5
 41
0.0
 46
0.0
 71
     4
 72
     5
  1

  7
文字スタイル35
 73
     1
 44
1.0
  0
XRECORD
  5
DF2
102
{ACAD_REACTORS
330
DF1
102
}
330
DF1
100
AcDbXrecord
280
     1
102
ACAD_MATT_HEIGHT
140
2.5
  0
XRECORD
  5
DF6
102
{ACAD_REACTORS
330
DF4
102
}
330
DF4
100
AcDbXrecord
280
     1
 70
     4
 70
     0
 70
     0
 40
1.0
  2
<変更来歴B-COUNT>
  1
Embedded Object
 10
113.0
 20
49.00000000000002
 30
0.0
 40
2.5
 41
0.0
 46
0.0
 71
     5
 72
     5
  1

  7
文字スタイル35
 73
     1
 44
1.0
  0
XRECORD
  5
DF5
102
{ACAD_REACTORS
330
DF4
102
}
330
DF4
100
AcDbXrecord
280
     1
102
ACAD_MATT_HEIGHT
140
2.5
  0
XRECORD
  5
DF9
102
{ACAD_REACTORS
330
DF7
102
}
330
DF7
100
AcDbXrecord
280
     1
 70
     4
 70
     0
 70
     0
 40
1.0
  2
<変更来歴C-COUNT>
  1
Embedded Object
 10
113.0
 20
55.0
 30
0.0
 40
2.5
 41
0.0
 46
0.0
 71
     5
 72
     5
  1

  7
文字スタイル35
 73
     1
 44
1.0
  0
XRECORD
  5
DF8
102
{ACAD_REACTORS
330
DF7
102
}
330
DF7
100
AcDbXrecord
280
     1
102
ACAD_MATT_HEIGHT
140
2.5
  0
XRECORD
  5
DFC
102
{ACAD_REACTORS
330
DFA
102
}
330
DFA
100
AcDbXrecord
280
     1
 70
     4
 70
     0
 70
     0
 40
1.0
  2
<変更来歴D-COUNT>
  1
Embedded Object
 10
113.0
 20
61.00000000000001
 30
0.0
 40
2.5
 41
0.0
 46
0.0
 71
     5
 72
     5
  1

  7
文字スタイル35
 73
     1
 44
1.0
  0
XRECORD
  5
DFB
102
{ACAD_REACTORS
330
DFA
102
}
330
DFA
100
AcDbXrecord
280
     1
102
ACAD_MATT_HEIGHT
140
2.5
  0
XRECORD
  5
DFF
102
{ACAD_REACTORS
330
DFD
102
}
330
DFD
100
AcDbXrecord
280
     1
 70
     4
 70
     0
 70
     0
 40
1.0
  2
<変更来歴D-DATE>
  1
Embedded Object
 10
127.0
 20
61.00000000000001
 30
0.0
 40
2.5
 41
0.0
 46
0.0
 71
     5
 72
     5
  1

  7
文字スタイル35
 73
     1
 44
1.0
  0
XRECORD
  5
DFE
102
{ACAD_REACTORS
330
DFD
102
}
330
DFD
100
AcDbXrecord
280
     1
102
ACAD_MATT_HEIGHT
140
2.5
  0
XRECORD
  5
E02
102
{ACAD_REACTORS
330
E00
102
}
330
E00
100
AcDbXrecord
280
     1
 70
     4
 70
     0
 70
     0
 40
1.0
  2
<変更来歴C-DATE>
  1
Embedded Object
 10
127.0
 20
55.0
 30
0.0
 40
2.5
 41
0.0
 46
0.0
 71
     5
 72
     5
  1

  7
文字スタイル35
 73
     1
 44
1.0
  0
XRECORD
  5
E01
102
{ACAD_REACTORS
330
E00
102
}
330
E00
100
AcDbXrecord
280
     1
102
ACAD_MATT_HEIGHT
140
2.5
  0
XRECORD
  5
E05
102
{ACAD_REACTORS
330
E03
102
}
330
E03
100
AcDbXrecord
280
     1
 70
     4
 70
     0
 70
     0
 40
1.0
  2
<変更来歴B-REMARKS>
  1
Embedded Object
 10
139.0
 20
49.00000000000002
 30
0.0
 40
2.5
 41
0.0
 46
0.0
 71
     4
 72
     5
  1
\W0.5000;
  7
文字スタイル211
 73
     1
 44
1.0
  0
XRECORD
  5
E04
102
{ACAD_REACTORS
330
E03
102
}
330
E03
100
AcDbXrecord
280
     1
102
ACAD_MATT_HEIGHT
140
2.5
  0
XRECORD
  5
E08
102
{ACAD_REACTORS
330
E06
102
}
330
E06
100
AcDbXrecord
280
     1
 70
     4
 70
     0
 70
     0
 40
1.0
  2
<変更来歴C-REMARKS>
  1
Embedded Object
 10
139.0
 20
55.0
 30
0.0
 40
2.5
 41
0.0
 46
0.0
 71
     4
 72
     5
  1
\W0.5000;
  7
文字スタイル211
 73
     1
 44
1.0
  0
XRECORD
  5
E07
102
{ACAD_REACTORS
330
E06
102
}
330
E06
100
AcDbXrecord
280
     1
102
ACAD_MATT_HEIGHT
140
2.5
  0
XRECORD
  5
E0B
102
{ACAD_REACTORS
330
E09
102
}
330
E09
100
AcDbXrecord
280
     1
 70
     4
 70
     0
 70
     0
 40
1.0
  2
<変更来歴D-REMARKS>
  1
Embedded Object
 10
139.0
 20
61.00000000000001
 30
0.0
 40
2.5
 41
0.0
 46
0.0
 71
     4
 72
     5
  1
\W0.5000;
  7
文字スタイル211
 73
     1
 44
1.0
  0
XRECORD
  5
E0A
102
{ACAD_REACTORS
330
E09
102
}
330
E09
100
AcDbXrecord
280
     1
102
ACAD_MATT_HEIGHT
140
2.5
  0
XRECORD
  5
E0E
102
{ACAD_REACTORS
330
E0C
102
}
330
E0C
100
AcDbXrecord
280
     1
 70
     4
 70
     0
 70
     0
 40
1.0
  2
シート_サイズ
  1
Embedded Object
 10
75.00000000000006
 20
41.00000000000001
 30
0.0
 40
4.199999868869781
 41
0.0
 46
0.0
 71
     5
 72
     5
  1
A3
  7
文字スタイル60
 73
     1
 44
1.0
  0
XRECORD
  5
E0D
102
{ACAD_REACTORS
330
E0C
102
}
330
E0C
100
AcDbXrecord
280
     1
102
ACAD_MATT_HEIGHT
140
4.199999868869781
  0
XRECORD
  5
E11
102
{ACAD_REACTORS
330
E0F
102
}
330
E0F
100
AcDbXrecord
280
     1
 70
     4
 70
     0
 70
     0
 40
1.0
  2
図面番号
  1
Embedded Object
 10
126.5
 20
5.500000000000007
 30
0.0
 40
5.099999904632568
 41
0.0
 46
0.0
 71
     5
 72
     5
  1

  7
文字スタイル206
 73
     1
 44
1.0
  0
XRECORD
  5
E10
102
{ACAD_REACTORS
330
E0F
102
}
330
E0F
100
AcDbXrecord
280
     1
102
ACAD_MATT_HEIGHT
140
5.099999904632568
  0
XRECORD
  5
E14
102
{ACAD_REACTORS
330
E12
102
}
330
E12
100
AcDbXrecord
280
     1
 70
     4
 70
     0
 70
     0
 40
1.0
  2
<尺度>
  1
Embedded Object
 10
89.00000000000003
 20
21.5
 30
0.0
 40
2.70000010728836
 41
0.0
 46
0.0
 71
     5
 72
     5
  1
1:2
  7
文字スタイル205
 73
     1
 44
1.0
  0
XRECORD
  5
E13
102
{ACAD_REACTORS
330
E12
102
}
330
E12
100
AcDbXrecord
280
     1
102
ACAD_MATT_HEIGHT
140
2.70000010728836
  0
XRECORD
  5
E17
102
{ACAD_REACTORS
330
E15
102
}
330
E15
100
AcDbXrecord
280
     1
 70
     4
 70
     0
 70
     0
 40
1.0
  2
作成日
  1
Embedded Object
 10
89.00000000000003
 20
14.50000000000001
 30
0.0
 40
2.5
 41
0.0
 46
0.0
 71
     5
 72
     5
  1
2012/12/23
  7
文字スタイル35
 73
     1
 44
1.0
  0
XRECORD
  5
E16
102
{ACAD_REACTORS
330
E15
102
}
330
E15
100
AcDbXrecord
280
     1
102
ACAD_MATT_HEIGHT
140
2.5
  0
XRECORD
  5
E1A
102
{ACAD_REACTORS
330
E18
102
}
330
E18
100
AcDbXrecord
280
     1
 70
     4
 70
     0
 70
     0
 40
1.0
  2
タイトル
  1
Embedded Object
 10
138.0
 20
19.00000000000001
 30
0.0
 40
4.300000071525573
 41
0.0
 46
0.0
 71
     5
 72
     5
  1
外形図
  7
文字スタイル207
 73
     1
 44
1.0
  0
XRECORD
  5
E19
102
{ACAD_REACTORS
330
E18
102
}
330
E18
100
AcDbXrecord
280
     1
102
ACAD_MATT_HEIGHT
140
4.300000071525573
  0
XRECORD
  5
E1D
102
{ACAD_REACTORS
330
E1B
102
}
330
E1B
100
AcDbXrecord
280
     1
 70
     4
 70
     0
 70
     0
 40
1.0
  2
<サブタイトル>
  1
Embedded Object
 10
138.0
 20
26.00000000000001
 30
0.0
 40
2.800000011920928
 41
0.0
 46
0.0
 71
     5
 72
     5
  1
RFP-N
  7
文字スタイル208
 73
     1
 44
1.0
  0
XRECORD
  5
E1C
102
{ACAD_REACTORS
330
E1B
102
}
330
E1B
100
AcDbXrecord
280
     1
102
ACAD_MATT_HEIGHT
140
2.800000011920928
  0
XRECORD
  5
E20
102
{ACAD_REACTORS
330
E1E
102
}
330
E1E
100
AcDbXrecord
280
     1
 70
     4
 70
     0
 70
     0
 40
1.0
  2
<変更来歴B-MARK>
  1
Embedded Object
 10
104.25
 20
48.50000000000001
 30
0.0
 40
1.800000071525573
 41
0.0
 46
0.0
 71
     5
 72
     5
  1
B
  7
文字スタイル107
 73
     1
 44
1.0
  0
XRECORD
  5
E1F
102
{ACAD_REACTORS
330
E1E
102
}
330
E1E
100
AcDbXrecord
280
     1
102
ACAD_MATT_HEIGHT
140
1.800000071525573
  0
XRECORD
  5
E23
102
{ACAD_REACTORS
330
E21
102
}
330
E21
100
AcDbXrecord
280
     1
 70
     4
 70
     0
 70
     0
 40
1.0
  2
<変更来歴C-MARK>
  1
Embedded Object
 10
104.25
 20
54.50000000000001
 30
0.0
 40
1.800000071525573
 41
0.0
 46
0.0
 71
     5
 72
     5
  1
C
  7
文字スタイル107
 73
     1
 44
1.0
  0
XRECORD
  5
E22
102
{ACAD_REACTORS
330
E21
102
}
330
E21
100
AcDbXrecord
280
     1
102
ACAD_MATT_HEIGHT
140
1.800000071525573
  0
XRECORD
  5
E26
102
{ACAD_REACTORS
330
E24
102
}
330
E24
100
AcDbXrecord
280
     1
 70
     4
 70
     0
 70
     0
 40
1.0
  2
<変更来歴D-MARK>
  1
Embedded Object
 10
104.25
 20
60.5
 30
0.0
 40
1.800000071525573
 41
0.0
 46
0.0
 71
     5
 72
     5
  1
D
  7
文字スタイル107
 73
     1
 44
1.0
  0
XRECORD
  5
E25
102
{ACAD_REACTORS
330
E24
102
}
330
E24
100
AcDbXrecord
280
     1
102
ACAD_MATT_HEIGHT
140
1.800000071525573
  0
XRECORD
  5
E29
102
{ACAD_REACTORS
330
E27
102
}
330
E27
100
AcDbXrecord
280
     1
 70
     4
 70
     0
 70
     0
 40
1.0
  2
<変更来歴B-DATE>
  1
Embedded Object
 10
127.0
 20
49.00000000000002
 30
0.0
 40
2.5
 41
0.0
 46
0.0
 71
     5
 72
     5
  1

  7
文字スタイル35
 73
     1
 44
1.0
  0
XRECORD
  5
E28
102
{ACAD_REACTORS
330
E27
102
}
330
E27
100
AcDbXrecord
280
     1
102
ACAD_MATT_HEIGHT
140
2.5
  0
XRECORD
  5
E2C
102
{ACAD_REACTORS
330
E2A
102
}
330
E2A
100
AcDbXrecord
280
     1
 70
     4
 70
     0
 70
     0
 40
1.0
  2
<貼DWG.No>
  1
Embedded Object
 10
20.00000054486773
 20
57.25000000000001
 30
0.0
 40
2.5
 41
0.0
 46
0.0
 71
     4
 72
     5
  1

  7
文字スタイル35
 73
     1
 44
1.0
  0
XRECORD
  5
E2B
102
{ACAD_REACTORS
330
E2A
102
}
330
E2A
100
AcDbXrecord
280
     1
102
ACAD_MATT_HEIGHT
140
2.5
  0
XRECORD
  5
E2F
102
{ACAD_REACTORS
330
E2D
102
}
330
E2D
100
AcDbXrecord
280
     1
 70
     4
 70
     0
 70
     0
 40
1.0
  2
<貼DATE>
  1
Embedded Object
 10
63.75
 20
57.25000000000001
 30
0.0
 40
2.5
 41
0.0
 46
0.0
 71
     5
 72
     5
  1

  7
文字スタイル35
 73
     1
 44
1.0
  0
XRECORD
  5
E2E
102
{ACAD_REACTORS
330
E2D
102
}
330
E2D
100
AcDbXrecord
280
     1
102
ACAD_MATT_HEIGHT
140
2.5
  0
XRECORD
  5
E32
102
{ACAD_REACTORS
330
E30
102
}
330
E30
100
AcDbXrecord
280
     1
 70
     4
 70
     0
 70
     0
 40
1.0
  2
<貼NAME>
  1
Embedded Object
 10
88.37500000000003
 20
57.25000000000001
 30
0.0
 40
2.300000041723251
 41
0.0
 46
0.0
 71
     5
 72
     5
  1

  7
文字スタイル204
 73
     1
 44
1.0
  0
XRECORD
  5
E31
102
{ACAD_REACTORS
330
E30
102
}
330
E30
100
AcDbXrecord
280
     1
102
ACAD_MATT_HEIGHT
140
2.300000041723251
  0
XRECORD
  5
E35
102
{ACAD_REACTORS
330
E33
102
}
330
E33
100
AcDbXrecord
280
     1
 70
     4
 70
     0
 70
     0
 40
1.0
  2
重量
  1
Embedded Object
 10
90.50000000000004
 20
50.50000000000001
 30
0.0
 40
3.000000119209289
 41
0.0
 46
0.0
 71
     5
 72
     5
  1

  7
文字スタイル32
 73
     1
 44
1.0
  0
XRECORD
  5
E34
102
{ACAD_REACTORS
330
E33
102
}
330
E33
100
AcDbXrecord
280
     1
102
ACAD_MATT_HEIGHT
140
3.000000119209289
  0
XRECORD
  5
E38
102
{ACAD_REACTORS
330
E36
102
}
330
E36
100
AcDbXrecord
280
     1
 70
     4
 70
     0
 70
     0
 40
1.0
  2
製図欄2
  1
Embedded Object
 10
56.00000000000001
 20
19.00000000000001
 30
0.0
 40
2.399999946355819
 41
0.0
 46
0.0
 71
     5
 72
     5
  1

  7
文字スタイル228
 73
     1
 44
1.5
  0
XRECORD
  5
E37
102
{ACAD_REACTORS
330
E36
102
}
330
E36
100
AcDbXrecord
280
     1
102
ACAD_MATT_HEIGHT
140
2.399999946355819
  0
XRECORD
  5
E3B
102
{ACAD_REACTORS
330
E39
102
}
330
E39
100
AcDbXrecord
280
     1
 70
     4
 70
     0
 70
     0
 40
1.0
  2
製図者
  1
Embedded Object
 10
56.00000000000001
 20
15.00000000000001
 30
0.0
 40
2.399999946355819
 41
0.0
 46
0.0
 71
     5
 72
     5
  1

  7
文字スタイル228
 73
     1
 44
1.5
  0
XRECORD
  5
E3A
102
{ACAD_REACTORS
330
E39
102
}
330
E39
100
AcDbXrecord
280
     1
102
ACAD_MATT_HEIGHT
140
2.399999946355819
  0
XRECORD
  5
E3E
102
{ACAD_REACTORS
330
E3C
102
}
330
E3C
100
AcDbXrecord
280
     1
 70
     4
 70
     0
 70
     0
 40
1.0
  2
製図欄1
  1
Embedded Object
 10
56.00000000000001
 20
23.00000000000002
 30
0.0
 40
2.399999946355819
 41
0.0
 46
0.0
 71
     5
 72
     5
  1

  7
文字スタイル228
 73
     1
 44
1.5
  0
XRECORD
  5
E3D
102
{ACAD_REACTORS
330
E3C
102
}
330
E3C
100
AcDbXrecord
280
     1
102
ACAD_MATT_HEIGHT
140
2.399999946355819
  0
XRECORD
  5
E41
102
{ACAD_REACTORS
330
E3F
102
}
330
E3F
100
AcDbXrecord
280
     1
 70
     4
 70
     0
 70
     0
 40
1.0
  2
シートの数
  1
Embedded Object
 10
173.0
 20
3.0
 30
0.0
 40
3.000000119209289
 41
0.0
 46
0.0
 71
     5
 72
     5
  1
1 
  7
文字スタイル117
 73
     1
 44
1.5
  0
XRECORD
  5
E40
102
{ACAD_REACTORS
330
E3F
102
}
330
E3F
100
AcDbXrecord
280
     1
102
ACAD_MATT_HEIGHT
140
3.000000119209289
  0
XRECORD
  5
E44
102
{ACAD_REACTORS
330
E42
102
}
330
E42
100
AcDbXrecord
280
     1
 70
     4
 70
     0
 70
     0
 40
1.0
  2
シート番号
  1
Embedded Object
 10
168.5
 20
8.000000000000014
 30
0.0
 40
3.000000119209289
 41
0.0
 46
0.0
 71
     5
 72
     5
  1
1 
  7
文字スタイル117
 73
     1
 44
1.5
  0
XRECORD
  5
E43
102
{ACAD_REACTORS
330
E42
102
}
330
E42
100
AcDbXrecord
280
     1
102
ACAD_MATT_HEIGHT
140
3.000000119209289
  0
XRECORD
  5
E47
102
{ACAD_REACTORS
330
E45
102
}
330
E45
100
AcDbXrecord
280
     1
 70
     2
 70
     0
 70
     0
 40
1.0
  2
流用元図番
  1
Embedded Object
 10
506.0000010897346
 20
120.9999999999993
 30
0.0
 40
5.0
 41
0.0
 46
0.0
 71
     4
 72
     5
  1

  7
文字スタイル35
 73
     1
 44
1.0
  0
XRECORD
  5
E46
102
{ACAD_REACTORS
330
E45
102
}
330
E45
100
AcDbXrecord
280
     1
102
ACAD_MATT_HEIGHT
140
5.0
  0
XRECORD
  5
E4A
102
{ACAD_REACTORS
330
E48
102
}
330
E48
100
AcDbXrecord
280
     1
 70
     2
 70
     0
 70
     0
 40
1.0
  2
<変更来歴B-COUNT>
  1
Embedded Object
 10
695.9999999999991
 20
117.9999999999993
 30
0.0
 40
5.0
 41
0.0
 46
0.0
 71
     5
 72
     5
  1

  7
文字スタイル35
 73
     1
 44
1.0
  0
XRECORD
  5
E49
102
{ACAD_REACTORS
330
E48
102
}
330
E48
100
AcDbXrecord
280
     1
102
ACAD_MATT_HEIGHT
140
5.0
  0
XRECORD
  5
E4D
102
{ACAD_REACTORS
330
E4B
102
}
330
E4B
100
AcDbXrecord
280
     1
 70
     2
 70
     0
 70
     0
 40
1.0
  2
<変更来歴C-COUNT>
  1
Embedded Object
 10
695.9999999999991
 20
129.9999999999992
 30
0.0
 40
5.0
 41
0.0
 46
0.0
 71
     5
 72
     5
  1

  7
文字スタイル35
 73
     1
 44
1.0
  0
XRECORD
  5
E4C
102
{ACAD_REACTORS
330
E4B
102
}
330
E4B
100
AcDbXrecord
280
     1
102
ACAD_MATT_HEIGHT
140
5.0
  0
XRECORD
  5
E50
102
{ACAD_REACTORS
330
E4E
102
}
330
E4E
100
AcDbXrecord
280
     1
 70
     2
 70
     0
 70
     0
 40
1.0
  2
<変更来歴D-COUNT>
  1
Embedded Object
 10
695.9999999999991
 20
141.9999999999993
 30
0.0
 40
5.0
 41
0.0
 46
0.0
 71
     5
 72
     5
  1

  7
文字スタイル35
 73
     1
 44
1.0
  0
XRECORD
  5
E4F
102
{ACAD_REACTORS
330
E4E
102
}
330
E4E
100
AcDbXrecord
280
     1
102
ACAD_MATT_HEIGHT
140
5.0
  0
XRECORD
  5
E53
102
{ACAD_REACTORS
330
E51
102
}
330
E51
100
AcDbXrecord
280
     1
 70
     2
 70
     0
 70
     0
 40
1.0
  2
<変更来歴D-DATE>
  1
Embedded Object
 10
723.9999999999992
 20
141.9999999999993
 30
0.0
 40
5.0
 41
0.0
 46
0.0
 71
     5
 72
     5
  1

  7
文字スタイル35
 73
     1
 44
1.0
  0
XRECORD
  5
E52
102
{ACAD_REACTORS
330
E51
102
}
330
E51
100
AcDbXrecord
280
     1
102
ACAD_MATT_HEIGHT
140
5.0
  0
XRECORD
  5
E56
102
{ACAD_REACTORS
330
E54
102
}
330
E54
100
AcDbXrecord
280
     1
 70
     2
 70
     0
 70
     0
 40
1.0
  2
<変更来歴C-DATE>
  1
Embedded Object
 10
723.9999999999992
 20
129.9999999999992
 30
0.0
 40
5.0
 41
0.0
 46
0.0
 71
     5
 72
     5
  1

  7
文字スタイル35
 73
     1
 44
1.0
  0
XRECORD
  5
E55
102
{ACAD_REACTORS
330
E54
102
}
330
E54
100
AcDbXrecord
280
     1
102
ACAD_MATT_HEIGHT
140
5.0
  0
XRECORD
  5
E59
102
{ACAD_REACTORS
330
E57
102
}
330
E57
100
AcDbXrecord
280
     1
 70
     2
 70
     0
 70
     0
 40
1.0
  2
<変更来歴B-REMARKS>
  1
Embedded Object
 10
747.999999999999
 20
117.9999999999993
 30
0.0
 40
5.0
 41
0.0
 46
0.0
 71
     4
 72
     5
  1
\W0.5000;
  7
文字スタイル211
 73
     1
 44
1.0
  0
XRECORD
  5
E58
102
{ACAD_REACTORS
330
E57
102
}
330
E57
100
AcDbXrecord
280
     1
102
ACAD_MATT_HEIGHT
140
5.0
  0
XRECORD
  5
E5C
102
{ACAD_REACTORS
330
E5A
102
}
330
E5A
100
AcDbXrecord
280
     1
 70
     2
 70
     0
 70
     0
 40
1.0
  2
<変更来歴C-REMARKS>
  1
Embedded Object
 10
747.999999999999
 20
129.9999999999992
 30
0.0
 40
5.0
 41
0.0
 46
0.0
 71
     4
 72
     5
  1
\W0.5000;
  7
文字スタイル211
 73
     1
 44
1.0
  0
XRECORD
  5
E5B
102
{ACAD_REACTORS
330
E5A
102
}
330
E5A
100
AcDbXrecord
280
     1
102
ACAD_MATT_HEIGHT
140
5.0
  0
XRECORD
  5
E5F
102
{ACAD_REACTORS
330
E5D
102
}
330
E5D
100
AcDbXrecord
280
     1
 70
     2
 70
     0
 70
     0
 40
1.0
  2
<変更来歴D-REMARKS>
  1
Embedded Object
 10
747.999999999999
 20
141.9999999999993
 30
0.0
 40
5.0
 41
0.0
 46
0.0
 71
     4
 72
     5
  1
\W0.5000;
  7
文字スタイル211
 73
     1
 44
1.0
  0
XRECORD
  5
E5E
102
{ACAD_REACTORS
330
E5D
102
}
330
E5D
100
AcDbXrecord
280
     1
102
ACAD_MATT_HEIGHT
140
5.0
  0
XRECORD
  5
E62
102
{ACAD_REACTORS
330
E60
102
}
330
E60
100
AcDbXrecord
280
     1
 70
     2
 70
     0
 70
     0
 40
1.0
  2
シート_サイズ
  1
Embedded Object
 10
619.9999999999993
 20
101.9999999999993
 30
0.0
 40
8.399999737739562
 41
0.0
 46
0.0
 71
     5
 72
     5
  1
A3
  7
文字スタイル60
 73
     1
 44
1.0
  0
XRECORD
  5
E61
102
{ACAD_REACTORS
330
E60
102
}
330
E60
100
AcDbXrecord
280
     1
102
ACAD_MATT_HEIGHT
140
8.399999737739562
  0
XRECORD
  5
E65
102
{ACAD_REACTORS
330
E63
102
}
330
E63
100
AcDbXrecord
280
     1
 70
     2
 70
     0
 70
     0
 40
1.0
  2
図面番号
  1
Embedded Object
 10
722.9999999999993
 20
30.99999999999926
 30
0.0
 40
10.19999980926513
 41
0.0
 46
0.0
 71
     5
 72
     5
  1

  7
文字スタイル206
 73
     1
 44
1.0
  0
XRECORD
  5
E64
102
{ACAD_REACTORS
330
E63
102
}
330
E63
100
AcDbXrecord
280
     1
102
ACAD_MATT_HEIGHT
140
10.19999980926513
  0
XRECORD
  5
E68
102
{ACAD_REACTORS
330
E66
102
}
330
E66
100
AcDbXrecord
280
     1
 70
     2
 70
     0
 70
     0
 40
1.0
  2
<尺度>
  1
Embedded Object
 10
647.9999999999993
 20
62.99999999999926
 30
0.0
 40
5.400000214576721
 41
0.0
 46
0.0
 71
     5
 72
     5
  1
1:2
  7
文字スタイル205
 73
     1
 44
1.0
  0
XRECORD
  5
E67
102
{ACAD_REACTORS
330
E66
102
}
330
E66
100
AcDbXrecord
280
     1
102
ACAD_MATT_HEIGHT
140
5.400000214576721
  0
XRECORD
  5
E6B
102
{ACAD_REACTORS
330
E69
102
}
330
E69
100
AcDbXrecord
280
     1
 70
     2
 70
     0
 70
     0
 40
1.0
  2
作成日
  1
Embedded Object
 10
647.9999999999993
 20
48.99999999999927
 30
0.0
 40
5.0
 41
0.0
 46
0.0
 71
     5
 72
     5
  1
2012/12/23
  7
文字スタイル35
 73
     1
 44
1.0
  0
XRECORD
  5
E6A
102
{ACAD_REACTORS
330
E69
102
}
330
E69
100
AcDbXrecord
280
     1
102
ACAD_MATT_HEIGHT
140
5.0
  0
XRECORD
  5
E6E
102
{ACAD_REACTORS
330
E6C
102
}
330
E6C
100
AcDbXrecord
280
     1
 70
     2
 70
     0
 70
     0
 40
1.0
  2
タイトル
  1
Embedded Object
 10
745.9999999999991
 20
57.99999999999927
 30
0.0
 40
8.600000143051147
 41
0.0
 46
0.0
 71
     5
 72
     5
  1
外形図
  7
文字スタイル207
 73
     1
 44
1.0
  0
XRECORD
  5
E6D
102
{ACAD_REACTORS
330
E6C
102
}
330
E6C
100
AcDbXrecord
280
     1
102
ACAD_MATT_HEIGHT
140
8.600000143051147
  0
XRECORD
  5
E71
102
{ACAD_REACTORS
330
E6F
102
}
330
E6F
100
AcDbXrecord
280
     1
 70
     2
 70
     0
 70
     0
 40
1.0
  2
<サブタイトル>
  1
Embedded Object
 10
745.9999999999991
 20
71.99999999999926
 30
0.0
 40
5.600000023841857
 41
0.0
 46
0.0
 71
     5
 72
     5
  1
RFP-N
  7
文字スタイル208
 73
     1
 44
1.0
  0
XRECORD
  5
E70
102
{ACAD_REACTORS
330
E6F
102
}
330
E6F
100
AcDbXrecord
280
     1
102
ACAD_MATT_HEIGHT
140
5.600000023841857
  0
XRECORD
  5
E74
102
{ACAD_REACTORS
330
E72
102
}
330
E72
100
AcDbXrecord
280
     1
 70
     2
 70
     0
 70
     0
 40
1.0
  2
<変更来歴B-MARK>
  1
Embedded Object
 10
678.4999999999991
 20
116.9999999999993
 30
0.0
 40
3.600000143051147
 41
0.0
 46
0.0
 71
     5
 72
     5
  1
B
  7
文字スタイル107
 73
     1
 44
1.0
  0
XRECORD
  5
E73
102
{ACAD_REACTORS
330
E72
102
}
330
E72
100
AcDbXrecord
280
     1
102
ACAD_MATT_HEIGHT
140
3.600000143051147
  0
XRECORD
  5
E77
102
{ACAD_REACTORS
330
E75
102
}
330
E75
100
AcDbXrecord
280
     1
 70
     2
 70
     0
 70
     0
 40
1.0
  2
<変更来歴C-MARK>
  1
Embedded Object
 10
678.4999999999991
 20
128.9999999999992
 30
0.0
 40
3.600000143051147
 41
0.0
 46
0.0
 71
     5
 72
     5
  1
C
  7
文字スタイル107
 73
     1
 44
1.0
  0
XRECORD
  5
E76
102
{ACAD_REACTORS
330
E75
102
}
330
E75
100
AcDbXrecord
280
     1
102
ACAD_MATT_HEIGHT
140
3.600000143051147
  0
XRECORD
  5
E7A
102
{ACAD_REACTORS
330
E78
102
}
330
E78
100
AcDbXrecord
280
     1
 70
     2
 70
     0
 70
     0
 40
1.0
  2
<変更来歴D-MARK>
  1
Embedded Object
 10
678.4999999999991
 20
140.9999999999992
 30
0.0
 40
3.600000143051147
 41
0.0
 46
0.0
 71
     5
 72
     5
  1
D
  7
文字スタイル107
 73
     1
 44
1.0
  0
XRECORD
  5
E79
102
{ACAD_REACTORS
330
E78
102
}
330
E78
100
AcDbXrecord
280
     1
102
ACAD_MATT_HEIGHT
140
3.600000143051147
  0
XRECORD
  5
E7D
102
{ACAD_REACTORS
330
E7B
102
}
330
E7B
100
AcDbXrecord
280
     1
 70
     2
 70
     0
 70
     0
 40
1.0
  2
<変更来歴B-DATE>
  1
Embedded Object
 10
723.9999999999992
 20
117.9999999999993
 30
0.0
 40
5.0
 41
0.0
 46
0.0
 71
     5
 72
     5
  1

  7
文字スタイル35
 73
     1
 44
1.0
  0
XRECORD
  5
E7C
102
{ACAD_REACTORS
330
E7B
102
}
330
E7B
100
AcDbXrecord
280
     1
102
ACAD_MATT_HEIGHT
140
5.0
  0
XRECORD
  5
E80
102
{ACAD_REACTORS
330
E7E
102
}
330
E7E
100
AcDbXrecord
280
     1
 70
     2
 70
     0
 70
     0
 40
1.0
  2
<貼DWG.No>
  1
Embedded Object
 10
510.0000010897345
 20
134.4999999999993
 30
0.0
 40
5.0
 41
0.0
 46
0.0
 71
     4
 72
     5
  1

  7
文字スタイル35
 73
     1
 44
1.0
  0
XRECORD
  5
E7F
102
{ACAD_REACTORS
330
E7E
102
}
330
E7E
100
AcDbXrecord
280
     1
102
ACAD_MATT_HEIGHT
140
5.0
  0
XRECORD
  5
E83
102
{ACAD_REACTORS
330
E81
102
}
330
E81
100
AcDbXrecord
280
     1
 70
     2
 70
     0
 70
     0
 40
1.0
  2
<貼DATE>
  1
Embedded Object
 10
597.499999999999
 20
134.4999999999993
 30
0.0
 40
5.0
 41
0.0
 46
0.0
 71
     5
 72
     5
  1

  7
文字スタイル35
 73
     1
 44
1.0
  0
XRECORD
  5
E82
102
{ACAD_REACTORS
330
E81
102
}
330
E81
100
AcDbXrecord
280
     1
102
ACAD_MATT_HEIGHT
140
5.0
  0
XRECORD
  5
E86
102
{ACAD_REACTORS
330
E84
102
}
330
E84
100
AcDbXrecord
280
     1
 70
     2
 70
     0
 70
     0
 40
1.0
  2
<貼NAME>
  1
Embedded Object
 10
646.7499999999993
 20
134.4999999999993
 30
0.0
 40
4.600000083446502
 41
0.0
 46
0.0
 71
     5
 72
     5
  1

  7
文字スタイル204
 73
     1
 44
1.0
  0
XRECORD
  5
E85
102
{ACAD_REACTORS
330
E84
102
}
330
E84
100
AcDbXrecord
280
     1
102
ACAD_MATT_HEIGHT
140
4.600000083446502
  0
XRECORD
  5
E89
102
{ACAD_REACTORS
330
E87
102
}
330
E87
100
AcDbXrecord
280
     1
 70
     2
 70
     0
 70
     0
 40
1.0
  2
重量
  1
Embedded Object
 10
650.9999999999991
 20
120.9999999999993
 30
0.0
 40
6.000000238418579
 41
0.0
 46
0.0
 71
     5
 72
     5
  1

  7
文字スタイル32
 73
     1
 44
1.0
  0
XRECORD
  5
E88
102
{ACAD_REACTORS
330
E87
102
}
330
E87
100
AcDbXrecord
280
     1
102
ACAD_MATT_HEIGHT
140
6.000000238418579
  0
XRECORD
  5
E8C
102
{ACAD_REACTORS
330
E8A
102
}
330
E8A
100
AcDbXrecord
280
     1
 70
     2
 70
     0
 70
     0
 40
1.0
  2
製図欄2
  1
Embedded Object
 10
581.9999999999992
 20
57.99999999999926
 30
0.0
 40
4.799999892711639
 41
0.0
 46
0.0
 71
     5
 72
     5
  1

  7
文字スタイル228
 73
     1
 44
1.5
  0
XRECORD
  5
E8B
102
{ACAD_REACTORS
330
E8A
102
}
330
E8A
100
AcDbXrecord
280
     1
102
ACAD_MATT_HEIGHT
140
4.799999892711639
  0
XRECORD
  5
E8F
102
{ACAD_REACTORS
330
E8D
102
}
330
E8D
100
AcDbXrecord
280
     1
 70
     2
 70
     0
 70
     0
 40
1.0
  2
製図者
  1
Embedded Object
 10
581.9999999999992
 20
49.99999999999928
 30
0.0
 40
4.799999892711639
 41
0.0
 46
0.0
 71
     5
 72
     5
  1

  7
文字スタイル228
 73
     1
 44
1.5
  0
XRECORD
  5
E8E
102
{ACAD_REACTORS
330
E8D
102
}
330
E8D
100
AcDbXrecord
280
     1
102
ACAD_MATT_HEIGHT
140
4.799999892711639
  0
XRECORD
  5
E92
102
{ACAD_REACTORS
330
E90
102
}
330
E90
100
AcDbXrecord
280
     1
 70
     2
 70
     0
 70
     0
 40
1.0
  2
製図欄1
  1
Embedded Object
 10
581.9999999999992
 20
65.99999999999927
 30
0.0
 40
4.799999892711639
 41
0.0
 46
0.0
 71
     5
 72
     5
  1

  7
文字スタイル228
 73
     1
 44
1.5
  0
XRECORD
  5
E91
102
{ACAD_REACTORS
330
E90
102
}
330
E90
100
AcDbXrecord
280
     1
102
ACAD_MATT_HEIGHT
140
4.799999892711639
  0
XRECORD
  5
E95
102
{ACAD_REACTORS
330
E93
102
}
330
E93
100
AcDbXrecord
280
     1
 70
     2
 70
     0
 70
     0
 40
1.0
  2
シートの数
  1
Embedded Object
 10
815.9999999999991
 20
25.99999999999925
 30
0.0
 40
6.000000238418579
 41
0.0
 46
0.0
 71
     5
 72
     5
  1
1 
  7
文字スタイル117
 73
     1
 44
1.5
  0
XRECORD
  5
E94
102
{ACAD_REACTORS
330
E93
102
}
330
E93
100
AcDbXrecord
280
     1
102
ACAD_MATT_HEIGHT
140
6.000000238418579
  0
XRECORD
  5
E98
102
{ACAD_REACTORS
330
E96
102
}
330
E96
100
AcDbXrecord
280
     1
 70
     2
 70
     0
 70
     0
 40
1.0
  2
シート番号
  1
Embedded Object
 10
806.9999999999991
 20
35.99999999999928
 30
0.0
 40
6.000000238418579
 41
0.0
 46
0.0
 71
     5
 72
     5
  1
1 
  7
文字スタイル117
 73
     1
 44
1.5
  0
XRECORD
  5
E97
102
{ACAD_REACTORS
330
E96
102
}
330
E96
100
AcDbXrecord
280
     1
102
ACAD_MATT_HEIGHT
140
6.000000238418579
  0
XRECORD
  5
EDD
102
{ACAD_REACTORS
330
EDC
102
}
330
EDC
100
AcDbXrecord
280
     1
 40
158423785.0
  1
{\fTahoma|b0|i0;\H6.0000;　１．本図面に記載されている寸法及び仕様は参考値です。\P　　　製品及び仕様については予告なく変更する場合があります。\P　　　本製品のご採用のご検討やご注文に際しては、予め弊社販売窓口又は\P　　　販売代理店までお問い合わせのうえ、「納入仕様書」の取り交わしをお願いします。\P　２．お客様におかれましては、保護回路や冗長回路等を設けて機器の安全を図られると共に、\P　　　弊社製品の適合性について十分なご確認をお願いします。\P　３．本製品は一般
  1
産業用に使用されることを意図しております。\P　　　一般産業用途以外のご使用または極めて高い信頼性が要求される用途への\P　　　ご使用をお考えの場合は、必ず弊社販売窓口までご相談下さいますようお願い申し上げます。}
  0
LAYOUT
  5
76
102
{ACAD_XDICTIONARY
360
EC6
102
}
102
{ACAD_REACTORS
330
6D
102
}
330
6D
100
AcDbPlotSettings
  1

  2

  4

  6

 40
0.0
 41
0.0
 42
0.0
 43
0.0
 44
0.0
 45
0.0
 46
0.0
 47
0.0
 48
0.0
 49
0.0
140
0.0
141
0.0
142
1.0
143
1.0
 70
   688
 72
     0
 73
     0
 74
     5
  7

 75
    16
147
1.0
148
0.0
149
0.0
100
AcDbLayout
  1
Layout1
 70
     1
 71
     1
 10
0.0
 20
0.0
 11
12.0
 21
9.0
 12
0.0
 22
0.0
 32
0.0
 14
0.0
 24
0.0
 34
0.0
 15
0.0
 25
0.0
 35
0.0
146
0.0
 13
0.0
 23
0.0
 33
0.0
 16
1.0
 26
0.0
 36
0.0
 17
0.0
 27
1.0
 37
0.0
 76
     0
330
73
  0
LAYOUT
  5
7E
102
{ACAD_XDICTIONARY
360
ECA
102
}
102
{ACAD_REACTORS
330
6D
102
}
330
6D
100
AcDbPlotSettings
  1

  2

  4

  6

 40
0.0
 41
0.0
 42
0.0
 43
0.0
 44
0.0
 45
0.0
 46
0.0
 47
0.0
 48
0.0
 49
0.0
140
0.0
141
0.0
142
1.0
143
1.0
 70
   688
 72
     0
 73
     0
 74
     5
  7

 75
    16
147
1.0
148
0.0
149
0.0
100
AcDbLayout
  1
Layout2
 70
     1
 71
     2
 10
0.0
 20
0.0
 11
12.0
 21
9.0
 12
0.0
 22
0.0
 32
0.0
 14
0.0
 24
0.0
 34
0.0
 15
0.0
 25
0.0
 35
0.0
146
0.0
 13
0.0
 23
0.0
 33
0.0
 16
1.0
 26
0.0
 36
0.0
 17
0.0
 27
1.0
 37
0.0
 76
     0
330
7B
  0
LAYOUT
  5
7A
102
{ACAD_XDICTIONARY
360
EC8
102
}
102
{ACAD_REACTORS
330
6D
102
}
330
6D
100
AcDbPlotSettings
  1

  2

  4

  6

 40
0.0
 41
0.0
 42
0.0
 43
0.0
 44
0.0
 45
0.0
 46
0.0
 47
0.0
 48
0.0
 49
0.0
140
0.0
141
0.0
142
1.0
143
1.0
 70
  1712
 72
     0
 73
     0
 74
     0
  7

 75
     0
147
1.0
148
0.0
149
0.0
100
AcDbLayout
  1
Model
 70
     1
 71
     0
 10
0.0
 20
0.0
 11
12.0
 21
9.0
 12
0.0
 22
0.0
 32
0.0
 14
0.0
 24
0.0
 34
0.0
 15
0.0
 25
0.0
 35
0.0
146
0.0
 13
0.0
 23
0.0
 33
0.0
 16
1.0
 26
0.0
 36
0.0
 17
0.0
 27
1.0
 37
0.0
 76
     0
330
77
  0
MATERIAL
  5
19
102
{ACAD_XDICTIONARY
360
1A
102
}
102
{ACAD_REACTORS
330
10
102
}
330
10
100
AcDbMaterial
  1
ByBlock
 72
     0
 43
0.0208333333333333
 43
0.0
 43
0.0
 43
0.0
 43
0.0
 43
0.0208333333333333
 43
0.0
 43
0.0
 43
0.0
 43
0.0
 43
1.0
 43
0.0
 43
0.0
 43
0.0
 43
0.0
 43
1.0
 77
     0
 47
0.0208333333333333
 47
0.0
 47
0.0
 47
0.0
 47
0.0
 47
0.0208333333333333
 47
0.0
 47
0.0
 47
0.0
 47
0.0
 47
1.0
 47
0.0
 47
0.0
 47
0.0
 47
0.0
 47
1.0
171
     0
 49
0.0208333333333333
 49
0.0
 49
0.0
 49
0.0
 49
0.0
 49
0.0208333333333333
 49
0.0
 49
0.0
 49
0.0
 49
0.0
 49
1.0
 49
0.0
 49
0.0
 49
0.0
 49
0.0
 49
1.0
175
     0
142
0.0208333333333333
142
0.0
142
0.0
142
0.0
142
0.0
142
0.0208333333333333
142
0.0
142
0.0
142
0.0
142
0.0
142
1.0
142
0.0
142
0.0
142
0.0
142
0.0
142
1.0
179
     0
144
0.0208333333333333
144
0.0
144
0.0
144
0.0
144
0.0
144
0.0208333333333333
144
0.0
144
0.0
144
0.0
144
0.0
144
1.0
144
0.0
144
0.0
144
0.0
144
0.0
144
1.0
147
0.0208333333333333
147
0.0
147
0.0
147
0.0
147
0.0
147
0.0208333333333333
147
0.0
147
0.0
147
0.0
147
0.0
147
1.0
147
0.0
147
0.0
147
0.0
147
0.0
147
1.0
  0
MATERIAL
  5
11
102
{ACAD_XDICTIONARY
360
12
102
}
102
{ACAD_REACTORS
330
10
102
}
330
10
100
AcDbMaterial
  1
ByLayer
 72
     0
 43
0.0208333333333333
 43
0.0
 43
0.0
 43
0.0
 43
0.0
 43
0.0208333333333333
 43
0.0
 43
0.0
 43
0.0
 43
0.0
 43
1.0
 43
0.0
 43
0.0
 43
0.0
 43
0.0
 43
1.0
 77
     0
 47
0.0208333333333333
 47
0.0
 47
0.0
 47
0.0
 47
0.0
 47
0.0208333333333333
 47
0.0
 47
0.0
 47
0.0
 47
0.0
 47
1.0
 47
0.0
 47
0.0
 47
0.0
 47
0.0
 47
1.0
171
     0
 49
0.0208333333333333
 49
0.0
 49
0.0
 49
0.0
 49
0.0
 49
0.0208333333333333
 49
0.0
 49
0.0
 49
0.0
 49
0.0
 49
1.0
 49
0.0
 49
0.0
 49
0.0
 49
0.0
 49
1.0
175
     0
142
0.0208333333333333
142
0.0
142
0.0
142
0.0
142
0.0
142
0.0208333333333333
142
0.0
142
0.0
142
0.0
142
0.0
142
1.0
142
0.0
142
0.0
142
0.0
142
0.0
142
1.0
179
     0
144
0.0208333333333333
144
0.0
144
0.0
144
0.0
144
0.0
144
0.0208333333333333
144
0.0
144
0.0
144
0.0
144
0.0
144
1.0
144
0.0
144
0.0
144
0.0
144
0.0
144
1.0
147
0.0208333333333333
147
0.0
147
0.0
147
0.0
147
0.0
147
0.0208333333333333
147
0.0
147
0.0
147
0.0
147
0.0
147
1.0
147
0.0
147
0.0
147
0.0
147
0.0
147
1.0
  0
MATERIAL
  5
21
102
{ACAD_XDICTIONARY
360
22
102
}
102
{ACAD_REACTORS
330
10
102
}
330
10
100
AcDbMaterial
  1
Global
 72
     0
 43
0.0208333333333333
 43
0.0
 43
0.0
 43
0.0
 43
0.0
 43
0.0208333333333333
 43
0.0
 43
0.0
 43
0.0
 43
0.0
 43
1.0
 43
0.0
 43
0.0
 43
0.0
 43
0.0
 43
1.0
 77
     0
 47
0.0208333333333333
 47
0.0
 47
0.0
 47
0.0
 47
0.0
 47
0.0208333333333333
 47
0.0
 47
0.0
 47
0.0
 47
0.0
 47
1.0
 47
0.0
 47
0.0
 47
0.0
 47
0.0
 47
1.0
171
     0
 49
0.0208333333333333
 49
0.0
 49
0.0
 49
0.0
 49
0.0
 49
0.0208333333333333
 49
0.0
 49
0.0
 49
0.0
 49
0.0
 49
1.0
 49
0.0
 49
0.0
 49
0.0
 49
0.0
 49
1.0
175
     0
142
0.0208333333333333
142
0.0
142
0.0
142
0.0
142
0.0
142
0.0208333333333333
142
0.0
142
0.0
142
0.0
142
0.0
142
1.0
142
0.0
142
0.0
142
0.0
142
0.0
142
1.0
179
     0
144
0.0208333333333333
144
0.0
144
0.0
144
0.0
144
0.0
144
0.0208333333333333
144
0.0
144
0.0
144
0.0
144
0.0
144
1.0
144
0.0
144
0.0
144
0.0
144
0.0
144
1.0
147
0.0208333333333333
147
0.0
147
0.0
147
0.0
147
0.0
147
0.0208333333333333
147
0.0
147
0.0
147
0.0
147
0.0
147
1.0
147
0.0
147
0.0
147
0.0
147
0.0
147
1.0
  0
MLEADERSTYLE
  5
72
102
{ACAD_REACTORS
330
71
102
}
330
71
100
AcDbMLeaderStyle
170
     2
171
     1
172
     0
 90
        2
 40
0.0
 41
0.0
173
     1
 91
-1056964608
340
66
 92
       -2
290
     1
 42
0.09
291
     1
 43
0.36
  3
Standard
 44
0.18
300

342
60
174
     1
178
     6
175
     1
176
     0
 93
-1056964608
 45
0.18
292
     0
297
     0
 46
0.18
 94
-1056964608
 47
1.0
 49
1.0
140
1.0
293
     1
141
0.0
294
     1
177
     0
142
1.0
295
     0
296
     0
143
0.125
1001
ACAD_MLEADERVER
1070
     2
  0
MLINESTYLE
  5
6B
102
{ACAD_REACTORS
330
6A
102
}
330
6A
100
AcDbMlineStyle
  2
STANDARD
 70
     0
  3

 62
   256
 51
90.0
 52
90.0
 71
     2
 49
0.5
 62
   256
  6
BYLAYER
 49
-0.5
 62
   256
  6
BYLAYER
  0
ACDBPLACEHOLDER
  5
F
102
{ACAD_REACTORS
330
E
102
}
330
E
  0
SCALE
  5
3E
102
{ACAD_REACTORS
330
3D
102
}
330
3D
100
AcDbScale
 70
     0
300
1:1
140
1.0
141
1.0
290
     1
  0
SCALE
  5
3F
102
{ACAD_REACTORS
330
3D
102
}
330
3D
100
AcDbScale
 70
     0
300
1:2
140
1.0
141
2.0
290
     0
  0
SCALE
  5
40
102
{ACAD_REACTORS
330
3D
102
}
330
3D
100
AcDbScale
 70
     0
300
1:4
140
1.0
141
4.0
290
     0
  0
SCALE
  5
41
102
{ACAD_REACTORS
330
3D
102
}
330
3D
100
AcDbScale
 70
     0
300
1:5
140
1.0
141
5.0
290
     0
  0
SCALE
  5
42
102
{ACAD_REACTORS
330
3D
102
}
330
3D
100
AcDbScale
 70
     0
300
1:8
140
1.0
141
8.0
290
     0
  0
SCALE
  5
43
102
{ACAD_REACTORS
330
3D
102
}
330
3D
100
AcDbScale
 70
     0
300
1:10
140
1.0
141
10.0
290
     0
  0
SCALE
  5
44
102
{ACAD_REACTORS
330
3D
102
}
330
3D
100
AcDbScale
 70
     0
300
1:16
140
1.0
141
16.0
290
     0
  0
SCALE
  5
45
102
{ACAD_REACTORS
330
3D
102
}
330
3D
100
AcDbScale
 70
     0
300
1:20
140
1.0
141
20.0
290
     0
  0
SCALE
  5
46
102
{ACAD_REACTORS
330
3D
102
}
330
3D
100
AcDbScale
 70
     0
300
1:30
140
1.0
141
30.0
290
     0
  0
SCALE
  5
47
102
{ACAD_REACTORS
330
3D
102
}
330
3D
100
AcDbScale
 70
     0
300
1:40
140
1.0
141
40.0
290
     0
  0
SCALE
  5
48
102
{ACAD_REACTORS
330
3D
102
}
330
3D
100
AcDbScale
 70
     0
300
1:50
140
1.0
141
50.0
290
     0
  0
SCALE
  5
49
102
{ACAD_REACTORS
330
3D
102
}
330
3D
100
AcDbScale
 70
     0
300
1:100
140
1.0
141
100.0
290
     0
  0
SCALE
  5
4A
102
{ACAD_REACTORS
330
3D
102
}
330
3D
100
AcDbScale
 70
     0
300
2:1
140
2.0
141
1.0
290
     0
  0
SCALE
  5
4B
102
{ACAD_REACTORS
330
3D
102
}
330
3D
100
AcDbScale
 70
     0
300
4:1
140
4.0
141
1.0
290
     0
  0
SCALE
  5
4C
102
{ACAD_REACTORS
330
3D
102
}
330
3D
100
AcDbScale
 70
     0
300
8:1
140
8.0
141
1.0
290
     0
  0
SCALE
  5
4D
102
{ACAD_REACTORS
330
3D
102
}
330
3D
100
AcDbScale
 70
     0
300
10:1
140
10.0
141
1.0
290
     0
  0
SCALE
  5
4E
102
{ACAD_REACTORS
330
3D
102
}
330
3D
100
AcDbScale
 70
     0
300
100:1
140
100.0
141
1.0
290
     0
  0
SCALE
  5
4F
102
{ACAD_REACTORS
330
3D
102
}
330
3D
100
AcDbScale
 70
     0
300
1/128" = 1'-0"
140
0.0078125
141
12.0
290
     0
  0
SCALE
  5
50
102
{ACAD_REACTORS
330
3D
102
}
330
3D
100
AcDbScale
 70
     0
300
1/64" = 1'-0"
140
0.015625
141
12.0
290
     0
  0
SCALE
  5
51
102
{ACAD_REACTORS
330
3D
102
}
330
3D
100
AcDbScale
 70
     0
300
1/32" = 1'-0"
140
0.03125
141
12.0
290
     0
  0
SCALE
  5
52
102
{ACAD_REACTORS
330
3D
102
}
330
3D
100
AcDbScale
 70
     0
300
1/16" = 1'-0"
140
0.0625
141
12.0
290
     0
  0
SCALE
  5
53
102
{ACAD_REACTORS
330
3D
102
}
330
3D
100
AcDbScale
 70
     0
300
3/32" = 1'-0"
140
0.09375
141
12.0
290
     0
  0
SCALE
  5
54
102
{ACAD_REACTORS
330
3D
102
}
330
3D
100
AcDbScale
 70
     0
300
1/8" = 1'-0"
140
0.125
141
12.0
290
     0
  0
SCALE
  5
55
102
{ACAD_REACTORS
330
3D
102
}
330
3D
100
AcDbScale
 70
     0
300
3/16" = 1'-0"
140
0.1875
141
12.0
290
     0
  0
SCALE
  5
56
102
{ACAD_REACTORS
330
3D
102
}
330
3D
100
AcDbScale
 70
     0
300
1/4" = 1'-0"
140
0.25
141
12.0
290
     0
  0
SCALE
  5
57
102
{ACAD_REACTORS
330
3D
102
}
330
3D
100
AcDbScale
 70
     0
300
3/8" = 1'-0"
140
0.375
141
12.0
290
     0
  0
SCALE
  5
58
102
{ACAD_REACTORS
330
3D
102
}
330
3D
100
AcDbScale
 70
     0
300
1/2" = 1'-0"
140
0.5
141
12.0
290
     0
  0
SCALE
  5
59
102
{ACAD_REACTORS
330
3D
102
}
330
3D
100
AcDbScale
 70
     0
300
3/4" = 1'-0"
140
0.75
141
12.0
290
     0
  0
SCALE
  5
5A
102
{ACAD_REACTORS
330
3D
102
}
330
3D
100
AcDbScale
 70
     0
300
1" = 1'-0"
140
1.0
141
12.0
290
     0
  0
SCALE
  5
5B
102
{ACAD_REACTORS
330
3D
102
}
330
3D
100
AcDbScale
 70
     0
300
1-1/2" = 1'-0"
140
1.5
141
12.0
290
     0
  0
SCALE
  5
5C
102
{ACAD_REACTORS
330
3D
102
}
330
3D
100
AcDbScale
 70
     0
300
3" = 1'-0"
140
3.0
141
12.0
290
     0
  0
SCALE
  5
5D
102
{ACAD_REACTORS
330
3D
102
}
330
3D
100
AcDbScale
 70
     0
300
6" = 1'-0"
140
6.0
141
12.0
290
     0
  0
SCALE
  5
5E
102
{ACAD_REACTORS
330
3D
102
}
330
3D
100
AcDbScale
 70
     0
300
1'-0" = 1'-0"
140
12.0
141
12.0
290
     0
  0
TABLESTYLE
  5
70
102
{ACAD_XDICTIONARY
360
DEF
102
}
102
{ACAD_REACTORS
330
6F
102
}
330
6F
100
AcDbTableStyle
  3
Standard
 70
     0
 71
     0
 40
0.06
 41
0.06
280
     0
281
     0
  7
Standard
140
0.18
170
     2
 62
     0
 63
     7
283
     0
274
    -2
284
     1
 64
     0
275
    -2
285
     1
 65
     0
276
    -2
286
     1
 66
     0
277
    -2
287
     1
 67
     0
278
    -2
288
     1
 68
     0
279
    -2
289
     1
 69
     0
  7
Standard
140
0.25
170
     5
 62
     0
 63
     7
283
     0
274
    -2
284
     1
 64
     0
275
    -2
285
     1
 65
     0
276
    -2
286
     1
 66
     0
277
    -2
287
     1
 67
     0
278
    -2
288
     1
 68
     0
279
    -2
289
     1
 69
     0
  7
Standard
140
0.18
170
     5
 62
     0
 63
     7
283
     0
274
    -2
284
     1
 64
     0
275
    -2
285
     1
 65
     0
276
    -2
286
     1
 66
     0
277
    -2
287
     1
 67
     0
278
    -2
288
     1
 68
     0
279
    -2
289
     1
 69
     0
  0
VISUALSTYLE
  5
2F
102
{ACAD_XDICTIONARY
360
EA8
102
}
102
{ACAD_REACTORS
330
29
102
}
330
29
100
AcDbVisualStyle
  2
2dWireframe
 70
     4
 71
     0
 72
     2
 73
     0
 90
        0
 40
-0.6
 41
-30.0
 62
     5
 63
     7
 74
     1
 91
        4
 64
     7
 65
   257
 75
     1
175
     1
 42
1.0
 92
        0
 66
   257
 43
1.0
 76
     1
 77
     6
 78
     2
 67
     7
 79
     5
170
     0
171
     0
290
     0
174
     0
 93
        1
 44
0.0
173
     0
291
     0
 45
0.0
1001
ACAD
1000
AcDbSavedByObjectVersion
1070
     0
  0
VISUALSTYLE
  5
31
102
{ACAD_XDICTIONARY
360
EAC
102
}
102
{ACAD_REACTORS
330
29
102
}
330
29
100
AcDbVisualStyle
  2
3D Hidden
 70
     6
 71
     1
 72
     2
 73
     2
 90
        0
 40
-0.6
 41
-30.0
 62
     5
 63
     7
 74
     2
 91
        2
 64
     7
 65
   257
 75
     2
175
     1
 42
179.0
 92
        0
 66
   257
 43
1.0
 76
     1
 77
     6
 78
     2
 67
     7
 79
     3
170
     0
171
     0
290
     0
174
     0
 93
        1
 44
0.0
173
     0
291
     0
 45
0.0
1001
ACAD
1000
AcDbSavedByObjectVersion
1070
     0
  0
VISUALSTYLE
  5
30
102
{ACAD_XDICTIONARY
360
EAA
102
}
102
{ACAD_REACTORS
330
29
102
}
330
29
100
AcDbVisualStyle
  2
3dWireframe
 70
     5
 71
     0
 72
     2
 73
     0
 90
        0
 40
-0.6
 41
-30.0
 62
     5
 63
     7
 74
     1
 91
        4
 64
     7
 65
   257
 75
     1
175
     1
 42
1.0
 92
        0
 66
   257
 43
1.0
 76
     1
 77
     6
 78
     2
 67
     7
 79
     5
170
     0
171
     0
290
     0
174
     0
 93
        1
 44
0.0
173
     0
291
     0
 45
0.0
1001
ACAD
1000
AcDbSavedByObjectVersion
1070
     0
  0
VISUALSTYLE
  5
2E
102
{ACAD_XDICTIONARY
360
EA6
102
}
102
{ACAD_REACTORS
330
29
102
}
330
29
100
AcDbVisualStyle
  2
Basic
 70
     7
 71
     1
 72
     0
 73
     1
 90
        0
 40
-0.6
 41
-30.0
 62
     5
 63
     7
 74
     0
 91
        4
 64
     7
 65
   257
 75
     1
175
     1
 42
1.0
 92
        8
 66
     7
 43
1.0
 76
     1
 77
     6
 78
     2
 67
     7
 79
     5
170
     0
171
     0
290
     0
174
     0
 93
        1
 44
0.0
173
     0
291
     1
 45
0.0
1001
ACAD
1000
AcDbSavedByObjectVersion
1070
     0
  0
VISUALSTYLE
  5
35
102
{ACAD_XDICTIONARY
360
EB4
102
}
102
{ACAD_REACTORS
330
29
102
}
330
29
100
AcDbVisualStyle
  2
Brighten
 70
    12
 71
     2
 72
     2
 73
     0
 90
        0
 40
-0.6
 41
-30.0
 62
     5
 63
     7
 74
     1
 91
        4
 64
     7
 65
   257
 75
     1
175
     1
 42
1.0
 92
        8
 66
     7
 43
1.0
 76
     1
 77
     6
 78
     2
 67
     7
 79
     5
170
     0
171
     0
290
     0
174
     0
 93
        1
 44
50.0
173
     0
291
     1
 45
0.0
1001
ACAD
1000
AcDbSavedByObjectVersion
1070
     0
  0
VISUALSTYLE
  5
39
102
{ACAD_XDICTIONARY
360
EBC
102
}
102
{ACAD_REACTORS
330
29
102
}
330
29
100
AcDbVisualStyle
  2
ColorChange
 70
    16
 71
     2
 72
     2
 73
     3
 90
        0
 40
-0.6
 41
-30.0
 62
     5
 63
     8
 74
     1
 91
        4
 64
     7
 65
   257
 75
     1
175
     1
 42
1.0
 92
        8
 66
     8
 43
1.0
 76
     1
 77
     6
 78
     2
 67
     7
 79
     5
170
     0
171
     0
290
     0
174
     0
 93
        1
 44
0.0
173
     0
291
     1
 45
0.0
1001
ACAD
1000
AcDbSavedByObjectVersion
1070
     0
  0
VISUALSTYLE
  5
32
102
{ACAD_XDICTIONARY
360
EAE
102
}
102
{ACAD_REACTORS
330
29
102
}
330
29
100
AcDbVisualStyle
  2
Conceptual
 70
     9
 71
     3
 72
     2
 73
     0
 90
        0
 40
-0.6
 41
-30.0
 62
     5
 63
     7
 74
     2
 91
        2
 64
     7
 65
   257
 75
     1
175
     1
 42
179.0
 92
        8
 66
     7
 43
1.0
 76
     1
 77
     6
 78
     2
 67
     7
 79
     3
170
     0
171
     0
290
     0
174
     0
 93
        1
 44
0.0
173
     0
291
     0
 45
0.0
1001
ACAD
1000
AcDbSavedByObjectVersion
1070
     0
  0
VISUALSTYLE
  5
34
102
{ACAD_XDICTIONARY
360
EB2
102
}
102
{ACAD_REACTORS
330
29
102
}
330
29
100
AcDbVisualStyle
  2
Dim
 70
    11
 71
     2
 72
     2
 73
     0
 90
        0
 40
-0.6
 41
-30.0
 62
     5
 63
     7
 74
     1
 91
        4
 64
     7
 65
   257
 75
     1
175
     1
 42
1.0
 92
        8
 66
     7
 43
1.0
 76
     1
 77
     6
 78
     2
 67
     7
 79
     5
170
     0
171
     0
290
     0
174
     0
 93
        1
 44
-50.0
173
     0
291
     1
 45
0.0
1001
ACAD
1000
AcDbSavedByObjectVersion
1070
     0
  0
VISUALSTYLE
  5
3C
102
{ACAD_XDICTIONARY
360
EC2
102
}
102
{ACAD_REACTORS
330
29
102
}
330
29
100
AcDbVisualStyle
  2
EdgeColorOff
 70
    22
 71
     2
 72
     2
 73
     0
 90
        0
 40
-0.6
 41
-30.0
 62
     5
 63
     7
 74
     1
 91
        4
 64
     7
 65
   257
 75
     1
175
     1
 42
1.0
 92
        8
 66
     7
 43
1.0
 76
     1
 77
     6
 78
     2
 67
     7
 79
     5
170
     0
171
     0
290
     0
174
     0
 93
        1
 44
0.0
173
     0
291
     1
 45
0.0
1001
ACAD
1000
AcDbSavedByObjectVersion
1070
     0
  0
VISUALSTYLE
  5
38
102
{ACAD_XDICTIONARY
360
EBA
102
}
102
{ACAD_REACTORS
330
29
102
}
330
29
100
AcDbVisualStyle
  2
Facepattern
 70
    15
 71
     2
 72
     2
 73
     0
 90
        0
 40
-0.6
 41
-30.0
 62
     5
 63
     7
 74
     1
 91
        4
 64
     7
 65
   257
 75
     1
175
     1
 42
1.0
 92
        8
 66
     7
 43
1.0
 76
     1
 77
     6
 78
     2
 67
     7
 79
     5
170
     0
171
     0
290
     0
174
     0
 93
        1
 44
0.0
173
     0
291
     1
 45
0.0
1001
ACAD
1000
AcDbSavedByObjectVersion
1070
     0
  0
VISUALSTYLE
  5
2A
102
{ACAD_XDICTIONARY
360
E9E
102
}
102
{ACAD_REACTORS
330
29
102
}
330
29
100
AcDbVisualStyle
  2
Flat
 70
     0
 71
     2
 72
     1
 73
     1
 90
        2
 40
-0.6
 41
30.0
 62
     5
 63
     7
 74
     0
 91
        4
 64
     7
 65
   257
 75
     1
175
     1
 42
1.0
 92
        8
 66
     7
 43
1.0
 76
     1
 77
     6
 78
     2
 67
     7
 79
     5
170
     0
171
     0
290
     0
174
     0
 93
       13
 44
0.0
173
     0
291
     1
 45
0.0
1001
ACAD
1000
AcDbSavedByObjectVersion
1070
     0
  0
VISUALSTYLE
  5
2B
102
{ACAD_XDICTIONARY
360
EA0
102
}
102
{ACAD_REACTORS
330
29
102
}
330
29
100
AcDbVisualStyle
  2
FlatWithEdges
 70
     1
 71
     2
 72
     1
 73
     1
 90
        2
 40
-0.6
 41
30.0
 62
     5
 63
     7
 74
     1
 91
        4
 64
     7
 65
   257
 75
     1
175
     1
 42
1.0
 92
        0
 66
   257
 43
1.0
 76
     1
 77
     6
 78
     2
 67
     7
 79
     5
170
     0
171
     0
290
     0
174
     0
 93
       13
 44
0.0
173
     0
291
     1
 45
0.0
1001
ACAD
1000
AcDbSavedByObjectVersion
1070
     0
  0
VISUALSTYLE
  5
2C
102
{ACAD_XDICTIONARY
360
EA2
102
}
102
{ACAD_REACTORS
330
29
102
}
330
29
100
AcDbVisualStyle
  2
Gouraud
 70
     2
 71
     2
 72
     2
 73
     1
 90
        2
 40
-0.6
 41
30.0
 62
     5
 63
     7
 74
     0
 91
        4
 64
     7
 65
   257
 75
     1
175
     1
 42
1.0
 92
        0
 66
     7
 43
1.0
 76
     1
 77
     6
 78
     2
 67
     7
 79
     5
170
     0
171
     0
290
     0
174
     0
 93
       13
 44
0.0
173
     0
291
     1
 45
0.0
1001
ACAD
1000
AcDbSavedByObjectVersion
1070
     0
  0
VISUALSTYLE
  5
2D
102
{ACAD_XDICTIONARY
360
EA4
102
}
102
{ACAD_REACTORS
330
29
102
}
330
29
100
AcDbVisualStyle
  2
GouraudWithEdges
 70
     3
 71
     2
 72
     2
 73
     1
 90
        2
 40
-0.6
 41
30.0
 62
     5
 63
     7
 74
     1
 91
        4
 64
     7
 65
   257
 75
     1
175
     1
 42
1.0
 92
        0
 66
   257
 43
1.0
 76
     1
 77
     6
 78
     2
 67
     7
 79
     5
170
     0
171
     0
290
     0
174
     0
 93
       13
 44
0.0
173
     0
291
     1
 45
0.0
1001
ACAD
1000
AcDbSavedByObjectVersion
1070
     0
  0
VISUALSTYLE
  5
3A
102
{ACAD_XDICTIONARY
360
EBE
102
}
102
{ACAD_REACTORS
330
29
102
}
330
29
100
AcDbVisualStyle
  2
JitterOff
 70
    20
 71
     2
 72
     2
 73
     0
 90
        0
 40
-0.6
 41
-30.0
 62
     5
 63
     7
 74
     1
 91
        4
 64
     7
 65
   257
 75
     1
175
     1
 42
1.0
 92
       10
 66
     7
 43
1.0
 76
     1
 77
     6
 78
     2
 67
     7
 79
     5
170
     0
171
     0
290
     0
174
     0
 93
        1
 44
0.0
173
     0
291
     1
 45
0.0
1001
ACAD
1000
AcDbSavedByObjectVersion
1070
     0
  0
VISUALSTYLE
  5
37
102
{ACAD_XDICTIONARY
360
EB8
102
}
102
{ACAD_REACTORS
330
29
102
}
330
29
100
AcDbVisualStyle
  2
Linepattern
 70
    14
 71
     2
 72
     2
 73
     0
 90
        0
 40
-0.6
 41
-30.0
 62
     5
 63
     7
 74
     1
 91
        4
 64
     7
 65
   257
 75
     7
175
     7
 42
1.0
 92
        8
 66
     7
 43
1.0
 76
     1
 77
     6
 78
     2
 67
     7
 79
     5
170
     0
171
     0
290
     0
174
     0
 93
        1
 44
0.0
173
     0
291
     1
 45
0.0
1001
ACAD
1000
AcDbSavedByObjectVersion
1070
     0
  0
VISUALSTYLE
  5
3B
102
{ACAD_XDICTIONARY
360
EC0
102
}
102
{ACAD_REACTORS
330
29
102
}
330
29
100
AcDbVisualStyle
  2
OverhangOff
 70
    21
 71
     2
 72
     2
 73
     0
 90
        0
 40
-0.6
 41
-30.0
 62
     5
 63
     7
 74
     1
 91
        4
 64
     7
 65
   257
 75
     1
175
     1
 42
1.0
 92
        9
 66
     7
 43
1.0
 76
     1
 77
     6
 78
     2
 67
     7
 79
     5
170
     0
171
     0
290
     0
174
     0
 93
        1
 44
0.0
173
     0
291
     1
 45
0.0
1001
ACAD
1000
AcDbSavedByObjectVersion
1070
     0
  0
VISUALSTYLE
  5
33
102
{ACAD_XDICTIONARY
360
EB0
102
}
102
{ACAD_REACTORS
330
29
102
}
330
29
100
AcDbVisualStyle
  2
Realistic
 70
     8
 71
     2
 72
     2
 73
     0
 90
        0
 40
-0.6
 41
-30.0
 62
     5
 63
     7
 74
     1
 91
        0
 64
     7
 65
   257
 75
     1
175
     1
 42
1.0
 92
        8
 66
     8
 43
1.0
 76
     1
 77
     6
 78
     2
 67
     7
 79
     5
170
     0
171
     0
290
     0
174
     0
 93
       13
 44
0.0
173
     0
291
     0
 45
0.0
1001
ACAD
1000
AcDbSavedByObjectVersion
1070
     0
  0
VISUALSTYLE
  5
36
102
{ACAD_XDICTIONARY
360
EB6
102
}
102
{ACAD_REACTORS
330
29
102
}
330
29
100
AcDbVisualStyle
  2
Thicken
 70
    13
 71
     2
 72
     2
 73
     0
 90
        0
 40
-0.6
 41
-30.0
 62
     5
 63
     7
 74
     1
 91
        4
 64
     7
 65
   257
 75
     1
175
     1
 42
1.0
 92
       12
 66
     7
 43
1.0
 76
     1
 77
     6
 78
     2
 67
     7
 79
     5
170
     0
171
     0
290
     0
174
     0
 93
        1
 44
0.0
173
     0
291
     1
 45
0.0
1001
ACAD
1000
AcDbSavedByObjectVersion
1070
     0
  0
DICTIONARYVAR
  5
DE6
102
{ACAD_REACTORS
330
DE2
102
}
330
DE2
100
DictionaryVariables
280
     0
  1
1:1
  0
DICTIONARYVAR
  5
DE4
102
{ACAD_REACTORS
330
DE2
102
}
330
DE2
100
DictionaryVariables
280
     0
  1
STANDARD
  0
DICTIONARYVAR
  5
DE3
102
{ACAD_REACTORS
330
DE2
102
}
330
DE2
100
DictionaryVariables
280
     0
  1
STANDARD
  0
DICTIONARYVAR
  5
DED
102
{ACAD_REACTORS
330
DE2
102
}
330
DE2
100
DictionaryVariables
280
     0
  1
1
  0
DICTIONARYVAR
  5
DEC
102
{ACAD_REACTORS
330
DE2
102
}
330
DE2
100
DictionaryVariables
280
     0
  1
1
  0
DICTIONARYVAR
  5
DEB
102
{ACAD_REACTORS
330
DE2
102
}
330
DE2
100
DictionaryVariables
280
     0
  1
0
  0
DICTIONARYVAR
  5
DE8
102
{ACAD_REACTORS
330
DE2
102
}
330
DE2
100
DictionaryVariables
280
     0
  1
0
  0
DICTIONARYVAR
  5
DE9
102
{ACAD_REACTORS
330
DE2
102
}
330
DE2
100
DictionaryVariables
280
     0
  1
0
  0
DICTIONARYVAR
  5
DE7
102
{ACAD_REACTORS
330
DE2
102
}
330
DE2
100
DictionaryVariables
280
     0
  1
2
  0
DICTIONARYVAR
  5
DE5
102
{ACAD_REACTORS
330
DE2
102
}
330
DE2
100
DictionaryVariables
280
     0
  1
1
  0
DICTIONARYVAR
  5
DEA
102
{ACAD_REACTORS
330
DE2
102
}
330
DE2
100
DictionaryVariables
280
     0
  1
127
  0
DICTIONARYVAR
  5
DEE
102
{ACAD_REACTORS
330
DE2
102
}
330
DE2
100
DictionaryVariables
280
     0
  1
2
  0
DICTIONARY
  5
EC6
330
76
100
AcDbDictionary
280
     1
281
     1
  3
ACAD_XREC_ROUNDTRIP
360
EC7
  0
DICTIONARY
  5
ECA
330
7E
100
AcDbDictionary
280
     1
281
     1
  3
ACAD_XREC_ROUNDTRIP
360
ECB
  0
DICTIONARY
  5
EC8
330
7A
100
AcDbDictionary
280
     1
281
     1
  3
ACAD_XREC_ROUNDTRIP
360
EC9
  0
DICTIONARY
  5
1A
330
19
100
AcDbDictionary
280
     1
281
     1
  3
ACAD_XREC_ROUNDTRIP
360
E9C
  3
BUMPTILE
360
1C
  3
DIFFUSETILE
360
1B
  3
OPACITYTILE
360
1F
  3
REFLECTIONTILE
360
1E
  3
REFRACTIONTILE
360
20
  3
SPECULARTILE
360
1D
  0
DICTIONARY
  5
12
330
11
100
AcDbDictionary
280
     1
281
     1
  3
ACAD_XREC_ROUNDTRIP
360
E9B
  3
BUMPTILE
360
14
  3
DIFFUSETILE
360
13
  3
OPACITYTILE
360
17
  3
REFLECTIONTILE
360
16
  3
REFRACTIONTILE
360
18
  3
SPECULARTILE
360
15
  0
DICTIONARY
  5
22
330
21
100
AcDbDictionary
280
     1
281
     1
  3
ACAD_XREC_ROUNDTRIP
360
E9D
  3
BUMPTILE
360
24
  3
DIFFUSETILE
360
23
  3
OPACITYTILE
360
27
  3
REFLECTIONTILE
360
26
  3
REFRACTIONTILE
360
28
  3
SPECULARTILE
360
25
  0
DICTIONARY
  5
DEF
330
70
100
AcDbDictionary
280
     1
281
     1
  3
ACAD_ROUNDTRIP_2008_TABLESTYLE_CELLSTYLEMAP
360
DF0
  3
ACAD_XREC_ROUNDTRIP
360
EC4
  0
DICTIONARY
  5
EA8
330
2F
100
AcDbDictionary
280
     1
281
     1
  3
ACAD_XREC_ROUNDTRIP
360
EA9
  0
DICTIONARY
  5
EAC
330
31
100
AcDbDictionary
280
     1
281
     1
  3
ACAD_XREC_ROUNDTRIP
360
EAD
  0
DICTIONARY
  5
EAA
330
30
100
AcDbDictionary
280
     1
281
     1
  3
ACAD_XREC_ROUNDTRIP
360
EAB
  0
DICTIONARY
  5
EA6
330
2E
100
AcDbDictionary
280
     1
281
     1
  3
ACAD_XREC_ROUNDTRIP
360
EA7
  0
DICTIONARY
  5
EB4
330
35
100
AcDbDictionary
280
     1
281
     1
  3
ACAD_XREC_ROUNDTRIP
360
EB5
  0
DICTIONARY
  5
EBC
330
39
100
AcDbDictionary
280
     1
281
     1
  3
ACAD_XREC_ROUNDTRIP
360
EBD
  0
DICTIONARY
  5
EAE
330
32
100
AcDbDictionary
280
     1
281
     1
  3
ACAD_XREC_ROUNDTRIP
360
EAF
  0
DICTIONARY
  5
EB2
330
34
100
AcDbDictionary
280
     1
281
     1
  3
ACAD_XREC_ROUNDTRIP
360
EB3
  0
DICTIONARY
  5
EC2
330
3C
100
AcDbDictionary
280
     1
281
     1
  3
ACAD_XREC_ROUNDTRIP
360
EC3
  0
DICTIONARY
  5
EBA
330
38
100
AcDbDictionary
280
     1
281
     1
  3
ACAD_XREC_ROUNDTRIP
360
EBB
  0
DICTIONARY
  5
E9E
330
2A
100
AcDbDictionary
280
     1
281
     1
  3
ACAD_XREC_ROUNDTRIP
360
E9F
  0
DICTIONARY
  5
EA0
330
2B
100
AcDbDictionary
280
     1
281
     1
  3
ACAD_XREC_ROUNDTRIP
360
EA1
  0
DICTIONARY
  5
EA2
330
2C
100
AcDbDictionary
280
     1
281
     1
  3
ACAD_XREC_ROUNDTRIP
360
EA3
  0
DICTIONARY
  5
EA4
330
2D
100
AcDbDictionary
280
     1
281
     1
  3
ACAD_XREC_ROUNDTRIP
360
EA5
  0
DICTIONARY
  5
EBE
330
3A
100
AcDbDictionary
280
     1
281
     1
  3
ACAD_XREC_ROUNDTRIP
360
EBF
  0
DICTIONARY
  5
EB8
330
37
100
AcDbDictionary
280
     1
281
     1
  3
ACAD_XREC_ROUNDTRIP
360
EB9
  0
DICTIONARY
  5
EC0
330
3B
100
AcDbDictionary
280
     1
281
     1
  3
ACAD_XREC_ROUNDTRIP
360
EC1
  0
DICTIONARY
  5
EB0
330
33
100
AcDbDictionary
280
     1
281
     1
  3
ACAD_XREC_ROUNDTRIP
360
EB1
  0
DICTIONARY
  5
EB6
330
36
100
AcDbDictionary
280
     1
281
     1
  3
ACAD_XREC_ROUNDTRIP
360
EB7
  0
XRECORD
  5
EC7
102
{ACAD_REACTORS
330
EC6
102
}
330
EC6
100
AcDbXrecord
280
     1
102
SHADEPLOT
 70
     0
102
SHADEPLOTRESLEVEL
 70
     2
102
SHADEPLOTCUSTOMDPI
 70
   300
  0
XRECORD
  5
ECB
102
{ACAD_REACTORS
330
ECA
102
}
330
ECA
100
AcDbXrecord
280
     1
102
SHADEPLOT
 70
     0
102
SHADEPLOTRESLEVEL
 70
     2
102
SHADEPLOTCUSTOMDPI
 70
   300
  0
XRECORD
  5
EC9
102
{ACAD_REACTORS
330
EC8
102
}
330
EC8
100
AcDbXrecord
280
     1
102
SHADEPLOT
 70
     0
102
SHADEPLOTRESLEVEL
 70
     2
102
SHADEPLOTCUSTOMDPI
 70
   300
  0
XRECORD
  5
E9C
102
{ACAD_REACTORS
330
1A
102
}
330
1A
100
AcDbXrecord
280
     1
102
MATERIAL
148
0.0
149
0.0
149
0.0
 93
        0
 94
      127
282
     0
 72
     0
 77
     0
171
     0
175
     0
179
     0
273
     0
  0
XRECORD
  5
1C
102
{ACAD_REACTORS
330
1A
102
}
330
1A
100
AcDbXrecord
280
     1
270
     1
271
     1
  0
XRECORD
  5
1B
102
{ACAD_REACTORS
330
1A
102
}
330
1A
100
AcDbXrecord
280
     1
270
     1
271
     1
  0
XRECORD
  5
1F
102
{ACAD_REACTORS
330
1A
102
}
330
1A
100
AcDbXrecord
280
     1
270
     1
271
     1
  0
XRECORD
  5
1E
102
{ACAD_REACTORS
330
1A
102
}
330
1A
100
AcDbXrecord
280
     1
270
     1
271
     1
  0
XRECORD
  5
20
102
{ACAD_REACTORS
330
1A
102
}
330
1A
100
AcDbXrecord
280
     1
270
     1
271
     1
  0
XRECORD
  5
1D
102
{ACAD_REACTORS
330
1A
102
}
330
1A
100
AcDbXrecord
280
     1
270
     1
271
     1
  0
XRECORD
  5
E9B
102
{ACAD_REACTORS
330
12
102
}
330
12
100
AcDbXrecord
280
     1
102
MATERIAL
148
0.0
149
0.0
149
0.0
 93
        0
 94
      127
282
     0
 72
     0
 77
     0
171
     0
175
     0
179
     0
273
     0
  0
XRECORD
  5
14
102
{ACAD_REACTORS
330
12
102
}
330
12
100
AcDbXrecord
280
     1
270
     1
271
     1
  0
XRECORD
  5
13
102
{ACAD_REACTORS
330
12
102
}
330
12
100
AcDbXrecord
280
     1
270
     1
271
     1
  0
XRECORD
  5
17
102
{ACAD_REACTORS
330
12
102
}
330
12
100
AcDbXrecord
280
     1
270
     1
271
     1
  0
XRECORD
  5
16
102
{ACAD_REACTORS
330
12
102
}
330
12
100
AcDbXrecord
280
     1
270
     1
271
     1
  0
XRECORD
  5
18
102
{ACAD_REACTORS
330
12
102
}
330
12
100
AcDbXrecord
280
     1
270
     1
271
     1
  0
XRECORD
  5
15
102
{ACAD_REACTORS
330
12
102
}
330
12
100
AcDbXrecord
280
     1
270
     1
271
     1
  0
XRECORD
  5
E9D
102
{ACAD_REACTORS
330
22
102
}
330
22
100
AcDbXrecord
280
     1
102
MATERIAL
148
0.0
149
0.0
149
0.0
 93
        0
 94
      127
282
     0
 72
     0
 77
     0
171
     0
175
     0
179
     0
273
     0
  0
XRECORD
  5
24
102
{ACAD_REACTORS
330
22
102
}
330
22
100
AcDbXrecord
280
     1
270
     1
271
     1
  0
XRECORD
  5
23
102
{ACAD_REACTORS
330
22
102
}
330
22
100
AcDbXrecord
280
     1
270
     1
271
     1
  0
XRECORD
  5
27
102
{ACAD_REACTORS
330
22
102
}
330
22
100
AcDbXrecord
280
     1
270
     1
271
     1
  0
XRECORD
  5
26
102
{ACAD_REACTORS
330
22
102
}
330
22
100
AcDbXrecord
280
     1
270
     1
271
     1
  0
XRECORD
  5
28
102
{ACAD_REACTORS
330
22
102
}
330
22
100
AcDbXrecord
280
     1
270
     1
271
     1
  0
XRECORD
  5
25
102
{ACAD_REACTORS
330
22
102
}
330
22
100
AcDbXrecord
280
     1
270
     1
271
     1
  0
CELLSTYLEMAP
  5
DF0
102
{ACAD_REACTORS
330
DEF
102
}
330
DEF
100
AcDbCellStyleMap
 90
        3
300
CELLSTYLE
  1
TABLEFORMAT_BEGIN
 90
        5
170
     1
 91
        0
 92
    32768
 62
   257
 93
        1
300
CONTENTFORMAT
  1
CONTENTFORMAT_BEGIN
 90
        0
 91
        0
 92
      512
 93
        0
300

 40
0.0
140
1.0
 94
        5
 62
     0
340
60
144
0.25
309
CONTENTFORMAT_END
171
     0
 94
        0
309
TABLEFORMAT_END
  1
CELLSTYLE_BEGIN
 90
        1
 91
        1
300
_TITLE
309
CELLSTYLE_END
300
CELLSTYLE
  1
TABLEFORMAT_BEGIN
 90
        5
170
     1
 91
        0
 92
        0
 62
   257
 93
        1
300
CONTENTFORMAT
  1
CONTENTFORMAT_BEGIN
 90
        0
 91
        0
 92
      512
 93
        0
300

 40
0.0
140
1.0
 94
        5
 62
     0
340
60
144
0.18
309
CONTENTFORMAT_END
171
     0
 94
        0
309
TABLEFORMAT_END
  1
CELLSTYLE_BEGIN
 90
        2
 91
        1
300
_HEADER
309
CELLSTYLE_END
300
CELLSTYLE
  1
TABLEFORMAT_BEGIN
 90
        5
170
     1
 91
        0
 92
        0
 62
   257
 93
        1
300
CONTENTFORMAT
  1
CONTENTFORMAT_BEGIN
 90
        0
 91
        0
 92
      512
 93
        0
300

 40
0.0
140
1.0
 94
        2
 62
     0
340
60
144
0.18
309
CONTENTFORMAT_END
171
     0
 94
        0
309
TABLEFORMAT_END
  1
CELLSTYLE_BEGIN
 90
        3
 91
        2
300
_DATA
309
CELLSTYLE_END
  0
XRECORD
  5
EC4
102
{ACAD_REACTORS
330
DEF
102
}
330
DEF
100
AcDbXrecord
280
     1
102
ACAD_ROUNDTRIP_PRE2007_TABLESTYLE
 90
      512
 91
        0
  1

 92
      512
 93
        0
  2

 94
      512
 95
        0
  3

  0
XRECORD
  5
EA9
102
{ACAD_REACTORS
330
EA8
102
}
330
EA8
100
AcDbXrecord
280
     1
102
RTVSPropertyOp0
 70
     1
102
RTVSPropertyOp1
 70
     1
102
RTVSPropertyOp2
 70
     1
102
RTVSPropertyOp3
 70
     1
102
RTVSPropertyOp4
 70
     1
102
RTVSPropertyOp5
 70
     1
102
RTVSPropertyOp6
 70
     1
102
RTVSPropertyOp7
 70
     1
102
RTVSPropertyOp8
 70
     1
102
RTVSPropertyOp9
 70
     1
102
RTVSPropertyOp10
 70
     1
102
RTVSPropertyOp11
 70
     1
102
RTVSPropertyOp12
 70
     1
102
RTVSPropertyOp13
 70
     1
102
RTVSPropertyOp14
 70
     1
102
RTVSPropertyOp15
 70
     1
102
RTVSPropertyOp16
 70
     1
102
RTVSPropertyOp17
 70
     1
102
RTVSPropertyOp18
 70
     1
102
RTVSPropertyOp19
 70
     1
102
RTVSPropertyOp20
 70
     1
102
RTVSPropertyOp21
 70
     1
102
RTVSPropertyOp22
 70
     1
102
RTVSPropertyOp23
 70
     1
102
RTVSPropertyOp24
 70
     1
102
RTVSPropertyOp25
 70
     1
102
RTVSPropertyOp26
 70
     1
102
RTVSPropertyOp27
 70
     1
  0
XRECORD
  5
EAD
102
{ACAD_REACTORS
330
EAC
102
}
330
EAC
100
AcDbXrecord
280
     1
102
RTVSPropertyOp0
 70
     1
102
RTVSPropertyOp1
 70
     1
102
RTVSPropertyOp2
 70
     1
102
RTVSPropertyOp3
 70
     1
102
RTVSPropertyOp4
 70
     1
102
RTVSPropertyOp5
 70
     1
102
RTVSPropertyOp6
 70
     1
102
RTVSPropertyOp7
 70
     1
102
RTVSPropertyOp8
 70
     1
102
RTVSPropertyOp9
 70
     1
102
RTVSPropertyOp10
 70
     1
102
RTVSPropertyOp11
 70
     1
102
RTVSPropertyOp12
 70
     1
102
RTVSPropertyOp13
 70
     1
102
RTVSPropertyOp14
 70
     1
102
RTVSPropertyOp15
 70
     1
102
RTVSPropertyOp16
 70
     1
102
RTVSPropertyOp17
 70
     1
102
RTVSPropertyOp18
 70
     1
102
RTVSPropertyOp19
 70
     1
102
RTVSPropertyOp20
 70
     1
102
RTVSPropertyOp21
 70
     1
102
RTVSPropertyOp22
 70
     1
102
RTVSPropertyOp23
 70
     1
102
RTVSPropertyOp24
 70
     1
102
RTVSPropertyOp25
 70
     1
102
RTVSPropertyOp26
 70
     1
102
RTVSPropertyOp27
 70
     1
  0
XRECORD
  5
EAB
102
{ACAD_REACTORS
330
EAA
102
}
330
EAA
100
AcDbXrecord
280
     1
102
RTVSPropertyOp0
 70
     1
102
RTVSPropertyOp1
 70
     1
102
RTVSPropertyOp2
 70
     1
102
RTVSPropertyOp3
 70
     1
102
RTVSPropertyOp4
 70
     1
102
RTVSPropertyOp5
 70
     1
102
RTVSPropertyOp6
 70
     1
102
RTVSPropertyOp7
 70
     1
102
RTVSPropertyOp8
 70
     1
102
RTVSPropertyOp9
 70
     1
102
RTVSPropertyOp10
 70
     1
102
RTVSPropertyOp11
 70
     1
102
RTVSPropertyOp12
 70
     1
102
RTVSPropertyOp13
 70
     1
102
RTVSPropertyOp14
 70
     1
102
RTVSPropertyOp15
 70
     1
102
RTVSPropertyOp16
 70
     1
102
RTVSPropertyOp17
 70
     1
102
RTVSPropertyOp18
 70
     1
102
RTVSPropertyOp19
 70
     1
102
RTVSPropertyOp20
 70
     1
102
RTVSPropertyOp21
 70
     1
102
RTVSPropertyOp22
 70
     1
102
RTVSPropertyOp23
 70
     1
102
RTVSPropertyOp24
 70
     1
102
RTVSPropertyOp25
 70
     1
102
RTVSPropertyOp26
 70
     1
102
RTVSPropertyOp27
 70
     1
  0
XRECORD
  5
EA7
102
{ACAD_REACTORS
330
EA6
102
}
330
EA6
100
AcDbXrecord
280
     1
102
RTVSPropertyOp0
 70
     1
102
RTVSPropertyOp1
 70
     1
102
RTVSPropertyOp2
 70
     1
102
RTVSPropertyOp3
 70
     1
102
RTVSPropertyOp4
 70
     1
102
RTVSPropertyOp5
 70
     1
102
RTVSPropertyOp6
 70
     1
102
RTVSPropertyOp7
 70
     1
102
RTVSPropertyOp8
 70
     1
102
RTVSPropertyOp9
 70
     1
102
RTVSPropertyOp10
 70
     1
102
RTVSPropertyOp11
 70
     1
102
RTVSPropertyOp12
 70
     1
102
RTVSPropertyOp13
 70
     1
102
RTVSPropertyOp14
 70
     1
102
RTVSPropertyOp15
 70
     1
102
RTVSPropertyOp16
 70
     1
102
RTVSPropertyOp17
 70
     1
102
RTVSPropertyOp18
 70
     1
102
RTVSPropertyOp19
 70
     1
102
RTVSPropertyOp20
 70
     1
102
RTVSPropertyOp21
 70
     1
102
RTVSPropertyOp22
 70
     1
102
RTVSPropertyOp23
 70
     1
102
RTVSPropertyOp24
 70
     1
102
RTVSPropertyOp25
 70
     1
102
RTVSPropertyOp26
 70
     1
102
RTVSPropertyOp27
 70
     1
  0
XRECORD
  5
EB5
102
{ACAD_REACTORS
330
EB4
102
}
330
EB4
100
AcDbXrecord
280
     1
102
RTVSPropertyOp0
 70
     1
102
RTVSPropertyOp1
 70
     1
102
RTVSPropertyOp2
 70
     1
102
RTVSPropertyOp3
 70
     1
102
RTVSPropertyOp4
 70
     1
102
RTVSPropertyOp5
 70
     1
102
RTVSPropertyOp6
 70
     1
102
RTVSPropertyOp7
 70
     1
102
RTVSPropertyOp8
 70
     1
102
RTVSPropertyOp9
 70
     1
102
RTVSPropertyOp10
 70
     1
102
RTVSPropertyOp11
 70
     1
102
RTVSPropertyOp12
 70
     1
102
RTVSPropertyOp13
 70
     1
102
RTVSPropertyOp14
 70
     1
102
RTVSPropertyOp15
 70
     1
102
RTVSPropertyOp16
 70
     1
102
RTVSPropertyOp17
 70
     1
102
RTVSPropertyOp18
 70
     1
102
RTVSPropertyOp19
 70
     1
102
RTVSPropertyOp20
 70
     1
102
RTVSPropertyOp21
 70
     1
102
RTVSPropertyOp22
 70
     1
102
RTVSPropertyOp23
 70
     1
102
RTVSPropertyOp24
 70
     1
102
RTVSPropertyOp25
 70
     1
102
RTVSPropertyOp26
 70
     1
102
RTVSPropertyOp27
 70
     1
  0
XRECORD
  5
EBD
102
{ACAD_REACTORS
330
EBC
102
}
330
EBC
100
AcDbXrecord
280
     1
102
RTVSPropertyOp0
 70
     1
102
RTVSPropertyOp1
 70
     1
102
RTVSPropertyOp2
 70
     1
102
RTVSPropertyOp3
 70
     1
102
RTVSPropertyOp4
 70
     1
102
RTVSPropertyOp5
 70
     1
102
RTVSPropertyOp6
 70
     1
102
RTVSPropertyOp7
 70
     1
102
RTVSPropertyOp8
 70
     1
102
RTVSPropertyOp9
 70
     1
102
RTVSPropertyOp10
 70
     1
102
RTVSPropertyOp11
 70
     1
102
RTVSPropertyOp12
 70
     1
102
RTVSPropertyOp13
 70
     1
102
RTVSPropertyOp14
 70
     1
102
RTVSPropertyOp15
 70
     1
102
RTVSPropertyOp16
 70
     1
102
RTVSPropertyOp17
 70
     1
102
RTVSPropertyOp18
 70
     1
102
RTVSPropertyOp19
 70
     1
102
RTVSPropertyOp20
 70
     1
102
RTVSPropertyOp21
 70
     1
102
RTVSPropertyOp22
 70
     1
102
RTVSPropertyOp23
 70
     1
102
RTVSPropertyOp24
 70
     1
102
RTVSPropertyOp25
 70
     1
102
RTVSPropertyOp26
 70
     1
102
RTVSPropertyOp27
 70
     1
  0
XRECORD
  5
EAF
102
{ACAD_REACTORS
330
EAE
102
}
330
EAE
100
AcDbXrecord
280
     1
102
RTVSPropertyOp0
 70
     1
102
RTVSPropertyOp1
 70
     1
102
RTVSPropertyOp2
 70
     1
102
RTVSPropertyOp3
 70
     1
102
RTVSPropertyOp4
 70
     1
102
RTVSPropertyOp5
 70
     1
102
RTVSPropertyOp6
 70
     1
102
RTVSPropertyOp7
 70
     1
102
RTVSPropertyOp8
 70
     1
102
RTVSPropertyOp9
 70
     1
102
RTVSPropertyOp10
 70
     1
102
RTVSPropertyOp11
 70
     1
102
RTVSPropertyOp12
 70
     1
102
RTVSPropertyOp13
 70
     1
102
RTVSPropertyOp14
 70
     1
102
RTVSPropertyOp15
 70
     1
102
RTVSPropertyOp16
 70
     1
102
RTVSPropertyOp17
 70
     1
102
RTVSPropertyOp18
 70
     1
102
RTVSPropertyOp19
 70
     1
102
RTVSPropertyOp20
 70
     1
102
RTVSPropertyOp21
 70
     1
102
RTVSPropertyOp22
 70
     1
102
RTVSPropertyOp23
 70
     1
102
RTVSPropertyOp24
 70
     1
102
RTVSPropertyOp25
 70
     1
102
RTVSPropertyOp26
 70
     1
102
RTVSPropertyOp27
 70
     1
  0
XRECORD
  5
EB3
102
{ACAD_REACTORS
330
EB2
102
}
330
EB2
100
AcDbXrecord
280
     1
102
RTVSPropertyOp0
 70
     1
102
RTVSPropertyOp1
 70
     1
102
RTVSPropertyOp2
 70
     1
102
RTVSPropertyOp3
 70
     1
102
RTVSPropertyOp4
 70
     1
102
RTVSPropertyOp5
 70
     1
102
RTVSPropertyOp6
 70
     1
102
RTVSPropertyOp7
 70
     1
102
RTVSPropertyOp8
 70
     1
102
RTVSPropertyOp9
 70
     1
102
RTVSPropertyOp10
 70
     1
102
RTVSPropertyOp11
 70
     1
102
RTVSPropertyOp12
 70
     1
102
RTVSPropertyOp13
 70
     1
102
RTVSPropertyOp14
 70
     1
102
RTVSPropertyOp15
 70
     1
102
RTVSPropertyOp16
 70
     1
102
RTVSPropertyOp17
 70
     1
102
RTVSPropertyOp18
 70
     1
102
RTVSPropertyOp19
 70
     1
102
RTVSPropertyOp20
 70
     1
102
RTVSPropertyOp21
 70
     1
102
RTVSPropertyOp22
 70
     1
102
RTVSPropertyOp23
 70
     1
102
RTVSPropertyOp24
 70
     1
102
RTVSPropertyOp25
 70
     1
102
RTVSPropertyOp26
 70
     1
102
RTVSPropertyOp27
 70
     1
  0
XRECORD
  5
EC3
102
{ACAD_REACTORS
330
EC2
102
}
330
EC2
100
AcDbXrecord
280
     1
102
RTVSPropertyOp0
 70
     0
102
RTVSPropertyOp1
 70
     0
102
RTVSPropertyOp2
 70
     0
102
RTVSPropertyOp3
 70
     0
102
RTVSPropertyOp4
 70
     0
102
RTVSPropertyOp5
 70
     0
102
RTVSPropertyOp6
 70
     0
102
RTVSPropertyOp7
 70
     0
102
RTVSPropertyOp8
 70
     0
102
RTVSPropertyOp9
 70
     0
102
RTVSPropertyOp10
 70
     0
102
RTVSPropertyOp11
 70
     0
102
RTVSPropertyOp12
 70
     0
102
RTVSPropertyOp13
 70
     0
102
RTVSPropertyOp14
 70
     2
102
RTVSPropertyOp15
 70
     0
102
RTVSPropertyOp16
 70
     0
102
RTVSPropertyOp17
 70
     0
102
RTVSPropertyOp18
 70
     0
102
RTVSPropertyOp19
 70
     0
102
RTVSPropertyOp20
 70
     0
102
RTVSPropertyOp21
 70
     0
102
RTVSPropertyOp22
 70
     0
102
RTVSPropertyOp23
 70
     0
102
RTVSPropertyOp24
 70
     0
102
RTVSPropertyOp25
 70
     0
102
RTVSPropertyOp26
 70
     0
102
RTVSPropertyOp27
 70
     0
  0
XRECORD
  5
EBB
102
{ACAD_REACTORS
330
EBA
102
}
330
EBA
100
AcDbXrecord
280
     1
102
RTVSPropertyOp0
 70
     1
102
RTVSPropertyOp1
 70
     1
102
RTVSPropertyOp2
 70
     1
102
RTVSPropertyOp3
 70
     1
102
RTVSPropertyOp4
 70
     1
102
RTVSPropertyOp5
 70
     1
102
RTVSPropertyOp6
 70
     1
102
RTVSPropertyOp7
 70
     1
102
RTVSPropertyOp8
 70
     1
102
RTVSPropertyOp9
 70
     1
102
RTVSPropertyOp10
 70
     1
102
RTVSPropertyOp11
 70
     1
102
RTVSPropertyOp12
 70
     1
102
RTVSPropertyOp13
 70
     1
102
RTVSPropertyOp14
 70
     1
102
RTVSPropertyOp15
 70
     1
102
RTVSPropertyOp16
 70
     1
102
RTVSPropertyOp17
 70
     1
102
RTVSPropertyOp18
 70
     1
102
RTVSPropertyOp19
 70
     1
102
RTVSPropertyOp20
 70
     1
102
RTVSPropertyOp21
 70
     1
102
RTVSPropertyOp22
 70
     1
102
RTVSPropertyOp23
 70
     1
102
RTVSPropertyOp24
 70
     1
102
RTVSPropertyOp25
 70
     1
102
RTVSPropertyOp26
 70
     1
102
RTVSPropertyOp27
 70
     1
  0
XRECORD
  5
E9F
102
{ACAD_REACTORS
330
E9E
102
}
330
E9E
100
AcDbXrecord
280
     1
102
RTVSPropertyOp0
 70
     1
102
RTVSPropertyOp1
 70
     1
102
RTVSPropertyOp2
 70
     1
102
RTVSPropertyOp3
 70
     1
102
RTVSPropertyOp4
 70
     1
102
RTVSPropertyOp5
 70
     1
102
RTVSPropertyOp6
 70
     1
102
RTVSPropertyOp7
 70
     1
102
RTVSPropertyOp8
 70
     1
102
RTVSPropertyOp9
 70
     1
102
RTVSPropertyOp10
 70
     1
102
RTVSPropertyOp11
 70
     1
102
RTVSPropertyOp12
 70
     1
102
RTVSPropertyOp13
 70
     1
102
RTVSPropertyOp14
 70
     1
102
RTVSPropertyOp15
 70
     1
102
RTVSPropertyOp16
 70
     1
102
RTVSPropertyOp17
 70
     1
102
RTVSPropertyOp18
 70
     1
102
RTVSPropertyOp19
 70
     1
102
RTVSPropertyOp20
 70
     1
102
RTVSPropertyOp21
 70
     1
102
RTVSPropertyOp22
 70
     1
102
RTVSPropertyOp23
 70
     1
102
RTVSPropertyOp24
 70
     1
102
RTVSPropertyOp25
 70
     1
102
RTVSPropertyOp26
 70
     1
102
RTVSPropertyOp27
 70
     1
  0
XRECORD
  5
EA1
102
{ACAD_REACTORS
330
EA0
102
}
330
EA0
100
AcDbXrecord
280
     1
102
RTVSPropertyOp0
 70
     1
102
RTVSPropertyOp1
 70
     1
102
RTVSPropertyOp2
 70
     1
102
RTVSPropertyOp3
 70
     1
102
RTVSPropertyOp4
 70
     1
102
RTVSPropertyOp5
 70
     1
102
RTVSPropertyOp6
 70
     1
102
RTVSPropertyOp7
 70
     1
102
RTVSPropertyOp8
 70
     1
102
RTVSPropertyOp9
 70
     1
102
RTVSPropertyOp10
 70
     1
102
RTVSPropertyOp11
 70
     1
102
RTVSPropertyOp12
 70
     1
102
RTVSPropertyOp13
 70
     1
102
RTVSPropertyOp14
 70
     1
102
RTVSPropertyOp15
 70
     1
102
RTVSPropertyOp16
 70
     1
102
RTVSPropertyOp17
 70
     1
102
RTVSPropertyOp18
 70
     1
102
RTVSPropertyOp19
 70
     1
102
RTVSPropertyOp20
 70
     1
102
RTVSPropertyOp21
 70
     1
102
RTVSPropertyOp22
 70
     1
102
RTVSPropertyOp23
 70
     1
102
RTVSPropertyOp24
 70
     1
102
RTVSPropertyOp25
 70
     1
102
RTVSPropertyOp26
 70
     1
102
RTVSPropertyOp27
 70
     1
  0
XRECORD
  5
EA3
102
{ACAD_REACTORS
330
EA2
102
}
330
EA2
100
AcDbXrecord
280
     1
102
RTVSPropertyOp0
 70
     1
102
RTVSPropertyOp1
 70
     1
102
RTVSPropertyOp2
 70
     1
102
RTVSPropertyOp3
 70
     1
102
RTVSPropertyOp4
 70
     1
102
RTVSPropertyOp5
 70
     1
102
RTVSPropertyOp6
 70
     1
102
RTVSPropertyOp7
 70
     1
102
RTVSPropertyOp8
 70
     1
102
RTVSPropertyOp9
 70
     1
102
RTVSPropertyOp10
 70
     1
102
RTVSPropertyOp11
 70
     1
102
RTVSPropertyOp12
 70
     1
102
RTVSPropertyOp13
 70
     1
102
RTVSPropertyOp14
 70
     1
102
RTVSPropertyOp15
 70
     1
102
RTVSPropertyOp16
 70
     1
102
RTVSPropertyOp17
 70
     1
102
RTVSPropertyOp18
 70
     1
102
RTVSPropertyOp19
 70
     1
102
RTVSPropertyOp20
 70
     1
102
RTVSPropertyOp21
 70
     1
102
RTVSPropertyOp22
 70
     1
102
RTVSPropertyOp23
 70
     1
102
RTVSPropertyOp24
 70
     1
102
RTVSPropertyOp25
 70
     1
102
RTVSPropertyOp26
 70
     1
102
RTVSPropertyOp27
 70
     1
  0
XRECORD
  5
EA5
102
{ACAD_REACTORS
330
EA4
102
}
330
EA4
100
AcDbXrecord
280
     1
102
RTVSPropertyOp0
 70
     1
102
RTVSPropertyOp1
 70
     1
102
RTVSPropertyOp2
 70
     1
102
RTVSPropertyOp3
 70
     1
102
RTVSPropertyOp4
 70
     1
102
RTVSPropertyOp5
 70
     1
102
RTVSPropertyOp6
 70
     1
102
RTVSPropertyOp7
 70
     1
102
RTVSPropertyOp8
 70
     1
102
RTVSPropertyOp9
 70
     1
102
RTVSPropertyOp10
 70
     1
102
RTVSPropertyOp11
 70
     1
102
RTVSPropertyOp12
 70
     1
102
RTVSPropertyOp13
 70
     1
102
RTVSPropertyOp14
 70
     1
102
RTVSPropertyOp15
 70
     1
102
RTVSPropertyOp16
 70
     1
102
RTVSPropertyOp17
 70
     1
102
RTVSPropertyOp18
 70
     1
102
RTVSPropertyOp19
 70
     1
102
RTVSPropertyOp20
 70
     1
102
RTVSPropertyOp21
 70
     1
102
RTVSPropertyOp22
 70
     1
102
RTVSPropertyOp23
 70
     1
102
RTVSPropertyOp24
 70
     1
102
RTVSPropertyOp25
 70
     1
102
RTVSPropertyOp26
 70
     1
102
RTVSPropertyOp27
 70
     1
  0
XRECORD
  5
EBF
102
{ACAD_REACTORS
330
EBE
102
}
330
EBE
100
AcDbXrecord
280
     1
102
RTVSPropertyOp0
 70
     0
102
RTVSPropertyOp1
 70
     0
102
RTVSPropertyOp2
 70
     0
102
RTVSPropertyOp3
 70
     0
102
RTVSPropertyOp4
 70
     0
102
RTVSPropertyOp5
 70
     0
102
RTVSPropertyOp6
 70
     0
102
RTVSPropertyOp7
 70
     0
102
RTVSPropertyOp8
 70
     0
102
RTVSPropertyOp9
 70
     0
102
RTVSPropertyOp10
 70
     0
102
RTVSPropertyOp11
 70
     0
102
RTVSPropertyOp12
 70
     0
102
RTVSPropertyOp13
 70
     0
102
RTVSPropertyOp14
 70
     2
102
RTVSPropertyOp15
 70
     0
102
RTVSPropertyOp16
 70
     0
102
RTVSPropertyOp17
 70
     0
102
RTVSPropertyOp18
 70
     0
102
RTVSPropertyOp19
 70
     0
102
RTVSPropertyOp20
 70
     0
102
RTVSPropertyOp21
 70
     0
102
RTVSPropertyOp22
 70
     0
102
RTVSPropertyOp23
 70
     0
102
RTVSPropertyOp24
 70
     0
102
RTVSPropertyOp25
 70
     0
102
RTVSPropertyOp26
 70
     0
102
RTVSPropertyOp27
 70
     0
  0
XRECORD
  5
EB9
102
{ACAD_REACTORS
330
EB8
102
}
330
EB8
100
AcDbXrecord
280
     1
102
RTVSPropertyOp0
 70
     1
102
RTVSPropertyOp1
 70
     1
102
RTVSPropertyOp2
 70
     1
102
RTVSPropertyOp3
 70
     1
102
RTVSPropertyOp4
 70
     1
102
RTVSPropertyOp5
 70
     1
102
RTVSPropertyOp6
 70
     1
102
RTVSPropertyOp7
 70
     1
102
RTVSPropertyOp8
 70
     1
102
RTVSPropertyOp9
 70
     1
102
RTVSPropertyOp10
 70
     1
102
RTVSPropertyOp11
 70
     1
102
RTVSPropertyOp12
 70
     1
102
RTVSPropertyOp13
 70
     1
102
RTVSPropertyOp14
 70
     1
102
RTVSPropertyOp15
 70
     1
102
RTVSPropertyOp16
 70
     1
102
RTVSPropertyOp17
 70
     1
102
RTVSPropertyOp18
 70
     1
102
RTVSPropertyOp19
 70
     1
102
RTVSPropertyOp20
 70
     1
102
RTVSPropertyOp21
 70
     1
102
RTVSPropertyOp22
 70
     1
102
RTVSPropertyOp23
 70
     1
102
RTVSPropertyOp24
 70
     1
102
RTVSPropertyOp25
 70
     1
102
RTVSPropertyOp26
 70
     1
102
RTVSPropertyOp27
 70
     1
  0
XRECORD
  5
EC1
102
{ACAD_REACTORS
330
EC0
102
}
330
EC0
100
AcDbXrecord
280
     1
102
RTVSPropertyOp0
 70
     0
102
RTVSPropertyOp1
 70
     0
102
RTVSPropertyOp2
 70
     0
102
RTVSPropertyOp3
 70
     0
102
RTVSPropertyOp4
 70
     0
102
RTVSPropertyOp5
 70
     0
102
RTVSPropertyOp6
 70
     0
102
RTVSPropertyOp7
 70
     0
102
RTVSPropertyOp8
 70
     0
102
RTVSPropertyOp9
 70
     0
102
RTVSPropertyOp10
 70
     0
102
RTVSPropertyOp11
 70
     0
102
RTVSPropertyOp12
 70
     0
102
RTVSPropertyOp13
 70
     0
102
RTVSPropertyOp14
 70
     2
102
RTVSPropertyOp15
 70
     0
102
RTVSPropertyOp16
 70
     0
102
RTVSPropertyOp17
 70
     0
102
RTVSPropertyOp18
 70
     0
102
RTVSPropertyOp19
 70
     0
102
RTVSPropertyOp20
 70
     0
102
RTVSPropertyOp21
 70
     0
102
RTVSPropertyOp22
 70
     0
102
RTVSPropertyOp23
 70
     0
102
RTVSPropertyOp24
 70
     0
102
RTVSPropertyOp25
 70
     0
102
RTVSPropertyOp26
 70
     0
102
RTVSPropertyOp27
 70
     0
  0
XRECORD
  5
EB1
102
{ACAD_REACTORS
330
EB0
102
}
330
EB0
100
AcDbXrecord
280
     1
102
RTVSPropertyOp0
 70
     1
102
RTVSPropertyOp1
 70
     1
102
RTVSPropertyOp2
 70
     1
102
RTVSPropertyOp3
 70
     1
102
RTVSPropertyOp4
 70
     1
102
RTVSPropertyOp5
 70
     1
102
RTVSPropertyOp6
 70
     1
102
RTVSPropertyOp7
 70
     1
102
RTVSPropertyOp8
 70
     1
102
RTVSPropertyOp9
 70
     1
102
RTVSPropertyOp10
 70
     1
102
RTVSPropertyOp11
 70
     1
102
RTVSPropertyOp12
 70
     1
102
RTVSPropertyOp13
 70
     1
102
RTVSPropertyOp14
 70
     1
102
RTVSPropertyOp15
 70
     1
102
RTVSPropertyOp16
 70
     1
102
RTVSPropertyOp17
 70
     1
102
RTVSPropertyOp18
 70
     1
102
RTVSPropertyOp19
 70
     1
102
RTVSPropertyOp20
 70
     1
102
RTVSPropertyOp21
 70
     1
102
RTVSPropertyOp22
 70
     1
102
RTVSPropertyOp23
 70
     1
102
RTVSPropertyOp24
 70
     1
102
RTVSPropertyOp25
 70
     1
102
RTVSPropertyOp26
 70
     1
102
RTVSPropertyOp27
 70
     1
  0
XRECORD
  5
EB7
102
{ACAD_REACTORS
330
EB6
102
}
330
EB6
100
AcDbXrecord
280
     1
102
RTVSPropertyOp0
 70
     1
102
RTVSPropertyOp1
 70
     1
102
RTVSPropertyOp2
 70
     1
102
RTVSPropertyOp3
 70
     1
102
RTVSPropertyOp4
 70
     1
102
RTVSPropertyOp5
 70
     1
102
RTVSPropertyOp6
 70
     1
102
RTVSPropertyOp7
 70
     1
102
RTVSPropertyOp8
 70
     1
102
RTVSPropertyOp9
 70
     1
102
RTVSPropertyOp10
 70
     1
102
RTVSPropertyOp11
 70
     1
102
RTVSPropertyOp12
 70
     1
102
RTVSPropertyOp13
 70
     1
102
RTVSPropertyOp14
 70
     1
102
RTVSPropertyOp15
 70
     1
102
RTVSPropertyOp16
 70
     1
102
RTVSPropertyOp17
 70
     1
102
RTVSPropertyOp18
 70
     1
102
RTVSPropertyOp19
 70
     1
102
RTVSPropertyOp20
 70
     1
102
RTVSPropertyOp21
 70
     1
102
RTVSPropertyOp22
 70
     1
102
RTVSPropertyOp23
 70
     1
102
RTVSPropertyOp24
 70
     1
102
RTVSPropertyOp25
 70
     1
102
RTVSPropertyOp26
 70
     1
102
RTVSPropertyOp27
 70
     1
  0
ENDSEC
  0
EOF
